0
SECTION
2
HEADER
9
$ACADVER
1
AC1015
9
$DWGCODEPAGE
3
ANSI_1252
9
$HANDSEED
5
181
9
$ANGBASE
50
0
9
$ANGDIR
70
0
9
$ATTMODE
70
1
9
$AUNITS
70
0
9
$AUPREC
70
0
9
$CECOLOR
62
256
9
$CELTSCALE
40
1
9
$CELTYPE
6
ByLayer
9
$CELWEIGHT
370
-1
9
$CLAYER
8
0
9
$CMLJUST
70
0
9
$CMLSCALE
40
1
9
$CMLSTYLE
2
Standard
9
$DIMSTYLE
2
Standard
9
$TEXTSIZE
40
0.2
9
$TEXTSTYLE
7
Standard
9
$LUNITS
70
2
9
$LUPREC
70
4
9
$EXTNAMES
290
1
9
$INSUNITS
70
4
9
$LTSCALE
40
1
9
$LWDISPLAY
290
0
9
$PDMODE
70
0
9
$PDSIZE
40
0
9
$PLINEGEN
70
0
0
ENDSEC
0
SECTION
2
CLASSES
0
CLASS
1
RASTERVARIABLES
2
AcDbRasterVariables
3
ISM
90
0
280
0
281
0
0
ENDSEC
0
SECTION
2
TABLES
0
TABLE
2
VPORT
5
177
100
AcDbSymbolTable
0
VPORT
5
1
100
AcDbSymbolTableRecord
100
AcDbViewportTableRecord
2
*Active
70
0
10
0
20
0
11
1
21
1
12
-1
22
1
13
0
23
0
14
0.5
24
0.5
15
10
25
10
16
0
26
0
36
1
17
0
27
0
37
0
0
ENDTAB
0
TABLE
2
LTYPE
5
178
100
AcDbSymbolTable
0
LTYPE
5
14
100
AcDbSymbolTableRecord
100
AcDbLinetypeTableRecord
70
0
2
ByBlock
3

72
65
73
0
40
0
0
LTYPE
5
15
100
AcDbSymbolTableRecord
100
AcDbLinetypeTableRecord
70
0
2
ByLayer
3

72
65
73
0
40
0
0
LTYPE
5
16
100
AcDbSymbolTableRecord
100
AcDbLinetypeTableRecord
70
0
2
CONTINUOUS
3
Solid line
72
65
73
0
40
0
0
LTYPE
5
3B
100
AcDbSymbolTableRecord
100
AcDbLinetypeTableRecord
70
0
2
DASHED
3
__ __ __ __ __ __ __ __ __
72
65
73
2
40
25.72
49
12.86
74
0
49
-12.86
74
0
0
LTYPE
5
3C
100
AcDbSymbolTableRecord
100
AcDbLinetypeTableRecord
70
0
2
HIDDEN
3
_ _ _ _ _ _ _ _ _ _ _ _ _ _ _
72
65
73
2
40
0.5
49
0.25
74
0
49
-0.25
74
0
0
LTYPE
5
3D
100
AcDbSymbolTableRecord
100
AcDbLinetypeTableRecord
70
0
2
PHANTOM
3
____ _ _ ____ _ _ _____ _ _ ____
72
65
73
6
40
50.5
49
18
74
0
49
-6.5
74
0
49
6.5
74
0
49
-6.5
74
0
49
6.5
74
0
49
-6.5
74
0
0
LTYPE
5
3E
100
AcDbSymbolTableRecord
100
AcDbLinetypeTableRecord
70
0
2
CENTER
3
____ _ ____ _ ____ _ ____
72
65
73
4
40
47.5
49
22
74
0
49
-8.5
74
0
49
8.5
74
0
49
-8.5
74
0
0
LTYPE
5
3F
100
AcDbSymbolTableRecord
100
AcDbLinetypeTableRecord
70
0
2
DOT
3
.........................
72
65
73
2
40
10
49
0
74
0
49
-10
74
0
0
LTYPE
5
40
100
AcDbSymbolTableRecord
100
AcDbLinetypeTableRecord
70
0
2
DASHDOT
3
_._._._._._._._._._._._._._._._.
72
65
73
4
40
70
49
31
74
0
49
-13
74
0
49
13
74
0
49
-13
74
0
0
ENDTAB
0
TABLE
2
LAYER
5
179
100
AcDbSymbolTable
0
LAYER
5
10
100
AcDbSymbolTableRecord
100
AcDbLayerTableRecord
2
0
70
0
62
7
6
CONTINUOUS
290
1
370
-3
390
0
0
LAYER
5
42
100
AcDbSymbolTableRecord
100
AcDbLayerTableRecord
2
80
70
0
62
-6
6
CONTINUOUS
290
1
370
-3
390
0
0
LAYER
5
44
100
AcDbSymbolTableRecord
100
AcDbLayerTableRecord
2
81
70
0
62
-3
6
CONTINUOUS
290
1
370
-3
390
0
0
LAYER
5
46
100
AcDbSymbolTableRecord
100
AcDbLayerTableRecord
2
1
70
0
62
4
6
CONTINUOUS
290
1
370
-3
390
0
0
LAYER
5
48
100
AcDbSymbolTableRecord
100
AcDbLayerTableRecord
2
2
70
0
62
7
6
CONTINUOUS
290
1
370
-3
390
0
0
LAYER
5
5B
100
AcDbSymbolTableRecord
100
AcDbLayerTableRecord
2
4
70
0
62
-2
6
CENTER
290
1
370
-3
390
0
0
LAYER
5
163
100
AcDbSymbolTableRecord
100
AcDbLayerTableRecord
2
SK1
70
0
62
4
6
CONTINUOUS
290
1
370
-3
390
0
0
LAYER
5
164
100
AcDbSymbolTableRecord
100
AcDbLayerTableRecord
2
SK4
70
0
62
2
6
CENTER
290
1
370
-3
390
0
0
LAYER
5
165
100
AcDbSymbolTableRecord
100
AcDbLayerTableRecord
2
SK6
70
0
62
5
6
CONTINUOUS
290
1
370
-3
390
0
0
LAYER
5
166
100
AcDbSymbolTableRecord
100
AcDbLayerTableRecord
2
SK2
70
0
62
7
6
CONTINUOUS
290
1
370
-3
390
0
0
ENDTAB
0
TABLE
2
STYLE
5
17a
100
AcDbSymbolTable
0
STYLE
5
11
100
AcDbSymbolTableRecord
100
AcDbTextStyleTableRecord
2
Standard
3
txt
70
0
71
0
40
0
41
1
42
0
50
0
0
STYLE
5
DF
100
AcDbSymbolTableRecord
100
AcDbTextStyleTableRecord
2
DEFAULT
3
simplex.shx
70
0
71
0
40
0
41
1
42
0
50
0
0
STYLE
5
102
100
AcDbSymbolTableRecord
100
AcDbTextStyleTableRecord
2
DWGDirectTextStyle
3
SIMPLEX
70
0
71
0
40
0
41
1
42
0
50
0
0
ENDTAB
0
TABLE
2
DIMSTYLE
5
17b
100
AcDbSymbolTable
100
AcDbDimStyleTable
0
DIMSTYLE
105
27
100
AcDbSymbolTableRecord
100
AcDbDimStyleTableRecord
2
Standard
70
0
3
<>
41
0.18
42
0.0625
44
0.18
140
0.18
147
0.09
73
0
74
0
77
1
271
2
275
0
278
52
280
0
340
11
0
ENDTAB
0
TABLE
2
VIEW
5
17c
100
AcDbSymbolTable
0
ENDTAB
0
TABLE
2
UCS
5
17d
100
AcDbSymbolTable
0
ENDTAB
0
TABLE
2
APPID
5
17e
100
AcDbSymbolTable
0
APPID
5
12
100
AcDbSymbolTableRecord
100
AcDbRegAppTableRecord
2
ACAD
70
0
0
ENDTAB
0
TABLE
2
BLOCK_RECORD
5
17f
100
AcDbSymbolTable
0
BLOCK_RECORD
5
1F
100
AcDbSymbolTableRecord
100
AcDbBlockTableRecord
2
*Model_Space
340
0
70
0
0
BLOCK_RECORD
5
1B
100
AcDbSymbolTableRecord
100
AcDbBlockTableRecord
2
*Paper_Space
340
0
70
0
0
BLOCK_RECORD
5
23
100
AcDbSymbolTableRecord
100
AcDbBlockTableRecord
2
*Paper_Space0
340
0
70
0
0
BLOCK_RECORD
5
104
100
AcDbSymbolTableRecord
100
AcDbBlockTableRecord
2
DimnDraft3D1
340
0
70
0
0
BLOCK_RECORD
5
112
100
AcDbSymbolTableRecord
100
AcDbBlockTableRecord
2
_CLOSED
340
0
70
0
0
BLOCK_RECORD
5
119
100
AcDbSymbolTableRecord
100
AcDbBlockTableRecord
2
DimnDraft3D2
340
0
70
0
0
BLOCK_RECORD
5
128
100
AcDbSymbolTableRecord
100
AcDbBlockTableRecord
2
DimnDraft3D3
340
0
70
0
0
BLOCK_RECORD
5
136
100
AcDbSymbolTableRecord
100
AcDbBlockTableRecord
2
DimnDraft3D4
340
0
70
0
0
ENDTAB
0
ENDSEC
0
SECTION
2
BLOCKS
0
BLOCK
5
20
100
AcDbEntity
8
0
100
AcDbBlockBegin
2
*Model_Space
70
0
10
0
20
0
30
0
3
*Model_Space
0
ENDBLK
5
21
100
AcDbEntity
8
0
100
AcDbBlockEnd
0
BLOCK
5
1C
100
AcDbEntity
8
0
100
AcDbBlockBegin
2
*Paper_Space
70
0
10
0
20
0
30
0
3
*Paper_Space
0
ENDBLK
5
1D
100
AcDbEntity
8
0
100
AcDbBlockEnd
0
BLOCK
5
24
100
AcDbEntity
8
0
100
AcDbBlockBegin
2
*Paper_Space0
70
0
10
0
20
0
30
0
3
*Paper_Space0
0
ENDBLK
5
25
100
AcDbEntity
8
0
100
AcDbBlockEnd
0
BLOCK
5
10F
100
AcDbEntity
8
0
100
AcDbBlockBegin
2
DimnDraft3D1
70
0
10
0
20
0
30
0
3
DimnDraft3D1
0
MTEXT
5
105
100
AcDbEntity
8
2
62
256
6
ByLayer
370
-1
48
1
60
0
100
AcDbMText
10
91.055
20
24.28
30
0
210
0
220
0
230
1
1
\W01.000;\fsimplex.shx,bigfont.shx;13.0 
40
4.5
41
0
44
1.084337
50
90
71
7
72
5
7
DEFAULT
0
LINE
5
106
100
AcDbEntity
8
2
62
256
6
ByLayer
370
-1
48
1
60
0
100
AcDbLine
10
81.93
20
12.9
30
0
11
94.18
21
12.9
31
0
39
0
210
0
220
0
230
1
0
LINE
5
107
100
AcDbEntity
8
2
62
256
6
ByLayer
370
-1
48
1
60
0
100
AcDbLine
10
81.93
20
0
30
0
11
94.18
21
0
31
0
39
0
210
0
220
0
230
1
0
LINE
5
108
100
AcDbEntity
8
2
62
256
6
ByLayer
370
-1
48
1
60
0
100
AcDbLine
10
92.18
20
0
30
0
11
92.18
21
32.356316
31
0
39
0
210
0
220
0
230
1
0
LINE
5
109
100
AcDbEntity
8
2
62
256
6
ByLayer
370
-1
48
1
60
0
100
AcDbLine
10
92.18
20
12.9
30
0
11
92.597997
21
9.725002
31
0
39
0
210
0
220
0
230
1
0
LINE
5
10A
100
AcDbEntity
8
2
62
256
6
ByLayer
370
-1
48
1
60
0
100
AcDbLine
10
92.18
20
12.9
30
0
11
91.762003
21
9.724998
31
0
39
0
210
0
220
0
230
1
0
LINE
5
10B
100
AcDbEntity
8
2
62
256
6
ByLayer
370
-1
48
1
60
0
100
AcDbLine
10
92.597997
20
9.725002
30
0
11
91.762003
21
9.724998
31
0
39
0
210
0
220
0
230
1
0
LINE
5
10C
100
AcDbEntity
8
2
62
256
6
ByLayer
370
-1
48
1
60
0
100
AcDbLine
10
92.18
20
0
30
0
11
91.762003
21
3.174998
31
0
39
0
210
0
220
0
230
1
0
LINE
5
10D
100
AcDbEntity
8
2
62
256
6
ByLayer
370
-1
48
1
60
0
100
AcDbLine
10
92.18
20
0
30
0
11
92.597997
21
3.175002
31
0
39
0
210
0
220
0
230
1
0
LINE
5
10E
100
AcDbEntity
8
2
62
256
6
ByLayer
370
-1
48
1
60
0
100
AcDbLine
10
91.762003
20
3.174998
30
0
11
92.597997
21
3.175002
31
0
39
0
210
0
220
0
230
1
0
ENDBLK
5
110
100
AcDbEntity
8
0
100
AcDbBlockEnd
0
BLOCK
5
113
100
AcDbEntity
8
0
100
AcDbBlockBegin
2
_CLOSED
70
0
10
0
20
0
30
0
3
_CLOSED
0
LINE
5
115
100
AcDbEntity
8
0
62
256
6
ByLayer
370
-2
48
1
60
0
100
AcDbLine
10
-1
20
0.166667
30
0
11
0
21
0
31
0
39
0
210
0
220
0
230
1
0
LINE
5
116
100
AcDbEntity
8
0
62
256
6
ByLayer
370
-2
48
1
60
0
100
AcDbLine
10
0
20
0
30
0
11
-1
21
-0.166667
31
0
39
0
210
0
220
0
230
1
0
LINE
5
117
100
AcDbEntity
8
0
62
256
6
ByLayer
370
-2
48
1
60
0
100
AcDbLine
10
-1
20
0.166667
30
0
11
-1
21
-0.166667
31
0
39
0
210
0
220
0
230
1
0
LINE
5
118
100
AcDbEntity
8
0
62
256
6
ByLayer
370
-2
48
1
60
0
100
AcDbLine
10
0
20
0
30
0
11
-1
21
0
31
0
39
0
210
0
220
0
230
1
0
ENDBLK
5
114
100
AcDbEntity
8
0
100
AcDbBlockEnd
0
BLOCK
5
125
100
AcDbEntity
8
0
100
AcDbBlockBegin
2
DimnDraft3D2
70
0
10
0
20
0
30
0
3
DimnDraft3D2
0
MTEXT
5
11A
100
AcDbEntity
8
SK2
62
256
6
ByLayer
370
-1
48
1
60
0
100
AcDbMText
10
-182.195
20
-3.659211
30
0
210
0
220
0
230
1
1
\W01.000;\fsimplex.shx,bigfont.shx;%%c20 
40
4.5
41
0
44
1.084337
50
90
71
7
72
5
7
DEFAULT
0
LINE
5
11C
100
AcDbEntity
8
SK2
62
256
6
ByLayer
370
-1
48
1
60
0
100
AcDbLine
10
-173.32
20
-9.99125
30
0
11
-183.07
21
-9.99125
31
0
39
0
210
0
220
0
230
1
0
LINE
5
11D
100
AcDbEntity
8
SK2
62
256
6
ByLayer
370
-1
48
1
60
0
100
AcDbLine
10
-173.32
20
9.99125
30
0
11
-183.07
21
9.99125
31
0
39
0
210
0
220
0
230
1
0
LINE
5
11E
100
AcDbEntity
8
SK2
62
256
6
ByLayer
370
-1
48
1
60
0
100
AcDbLine
10
-181.07
20
-9.99125
30
0
11
-181.07
21
9.99125
31
0
39
0
210
0
220
0
230
1
0
LINE
5
11F
100
AcDbEntity
8
SK2
62
256
6
ByLayer
370
-1
48
1
60
0
100
AcDbLine
10
-181.07
20
-9.99125
30
0
11
-181.487997
21
-6.816252
31
0
39
0
210
0
220
0
230
1
0
LINE
5
120
100
AcDbEntity
8
SK2
62
256
6
ByLayer
370
-1
48
1
60
0
100
AcDbLine
10
-181.07
20
-9.99125
30
0
11
-180.652003
21
-6.816248
31
0
39
0
210
0
220
0
230
1
0
LINE
5
121
100
AcDbEntity
8
SK2
62
256
6
ByLayer
370
-1
48
1
60
0
100
AcDbLine
10
-181.487997
20
-6.816252
30
0
11
-180.652003
21
-6.816248
31
0
39
0
210
0
220
0
230
1
0
LINE
5
122
100
AcDbEntity
8
SK2
62
256
6
ByLayer
370
-1
48
1
60
0
100
AcDbLine
10
-181.07
20
9.99125
30
0
11
-180.652003
21
6.816252
31
0
39
0
210
0
220
0
230
1
0
LINE
5
123
100
AcDbEntity
8
SK2
62
256
6
ByLayer
370
-1
48
1
60
0
100
AcDbLine
10
-181.07
20
9.99125
30
0
11
-181.487997
21
6.816248
31
0
39
0
210
0
220
0
230
1
0
LINE
5
124
100
AcDbEntity
8
SK2
62
256
6
ByLayer
370
-1
48
1
60
0
100
AcDbLine
10
-180.652003
20
6.816252
30
0
11
-181.487997
21
6.816248
31
0
39
0
210
0
220
0
230
1
0
ENDBLK
5
126
100
AcDbEntity
8
0
100
AcDbBlockEnd
0
BLOCK
5
133
100
AcDbEntity
8
0
100
AcDbBlockBegin
2
DimnDraft3D3
70
0
10
0
20
0
30
0
3
DimnDraft3D3
0
MTEXT
5
129
100
AcDbEntity
8
SK2
62
256
6
ByLayer
370
-1
48
1
60
0
100
AcDbMText
10
-51.385132
20
26.775
30
0
210
0
220
0
230
1
1
\W01.000;\fsimplex.shx,bigfont.shx;250.0 
40
4.5
41
0
44
1.084337
50
0
71
7
72
5
7
DEFAULT
0
LINE
5
12A
100
AcDbEntity
8
SK2
62
256
6
ByLayer
370
-1
48
1
60
0
100
AcDbLine
10
79.93
20
14.9
30
0
11
79.93
21
27.65
31
0
39
0
210
0
220
0
230
1
0
LINE
5
12B
100
AcDbEntity
8
SK2
62
256
6
ByLayer
370
-1
48
1
60
0
100
AcDbLine
10
-171.32
20
11.99125
30
0
11
-171.32
21
27.65
31
0
39
0
210
0
220
0
230
1
0
LINE
5
12C
100
AcDbEntity
8
SK2
62
256
6
ByLayer
370
-1
48
1
60
0
100
AcDbLine
10
79.93
20
25.65
30
0
11
-171.32
21
25.65
31
0
39
0
210
0
220
0
230
1
0
LINE
5
12D
100
AcDbEntity
8
SK2
62
256
6
ByLayer
370
-1
48
1
60
0
100
AcDbLine
10
79.93
20
25.65
30
0
11
76.755002
21
25.232003
31
0
39
0
210
0
220
0
230
1
0
LINE
5
12E
100
AcDbEntity
8
SK2
62
256
6
ByLayer
370
-1
48
1
60
0
100
AcDbLine
10
79.93
20
25.65
30
0
11
76.754998
21
26.067997
31
0
39
0
210
0
220
0
230
1
0
LINE
5
12F
100
AcDbEntity
8
SK2
62
256
6
ByLayer
370
-1
48
1
60
0
100
AcDbLine
10
76.755002
20
25.232003
30
0
11
76.754998
21
26.067997
31
0
39
0
210
0
220
0
230
1
0
LINE
5
130
100
AcDbEntity
8
SK2
62
256
6
ByLayer
370
-1
48
1
60
0
100
AcDbLine
10
-171.32
20
25.65
30
0
11
-168.145002
21
26.067997
31
0
39
0
210
0
220
0
230
1
0
LINE
5
131
100
AcDbEntity
8
SK2
62
256
6
ByLayer
370
-1
48
1
60
0
100
AcDbLine
10
-171.32
20
25.65
30
0
11
-168.144998
21
25.232003
31
0
39
0
210
0
220
0
230
1
0
LINE
5
132
100
AcDbEntity
8
SK2
62
256
6
ByLayer
370
-1
48
1
60
0
100
AcDbLine
10
-168.145002
20
26.067997
30
0
11
-168.144998
21
25.232003
31
0
39
0
210
0
220
0
230
1
0
ENDBLK
5
134
100
AcDbEntity
8
0
100
AcDbBlockEnd
0
BLOCK
5
141
100
AcDbEntity
8
0
100
AcDbBlockBegin
2
DimnDraft3D4
70
0
10
0
20
0
30
0
3
DimnDraft3D4
0
MTEXT
5
137
100
AcDbEntity
8
2
62
256
6
ByLayer
370
-1
48
1
60
0
100
AcDbMText
10
106.976196
20
-36.834311
30
0
210
0
220
0
230
1
1
\W01.000;\fsimplex.shx,bigfont.shx;93%%d0' 
40
4.5
41
0
44
1.084337
50
43.5
71
7
72
5
7
DEFAULT
0
LINE
5
138
100
AcDbEntity
8
2
62
256
6
ByLayer
370
-1
48
1
60
0
100
AcDbLine
10
79.458976
20
3.912334
30
0
11
76.693329
21
-48.859355
31
0
39
0
210
0
220
0
230
1
0
LINE
5
139
100
AcDbEntity
8
2
62
256
6
ByLayer
370
-1
48
1
60
0
100
AcDbLine
10
81.93
20
0
30
0
11
128.180347
21
0
31
0
39
0
210
0
220
0
230
1
0
ARC
5
13A
100
AcDbEntity
8
2
62
256
6
ByLayer
370
-1
48
1
60
0
100
AcDbCircle
39
0
10
79.25394
20
0
30
0
40
46.9264068782928
210
0
220
0
230
1
100
AcDbArc
50
267
51
0
0
LINE
5
13B
100
AcDbEntity
8
2
62
256
6
ByLayer
370
-1
48
1
60
0
100
AcDbLine
10
76.798001
20
-46.862096
30
0
11
79.98582
21
-46.556897
31
0
39
0
210
0
220
0
230
1
0
LINE
5
13C
100
AcDbEntity
8
2
62
256
6
ByLayer
370
-1
48
1
60
0
100
AcDbLine
10
76.798001
20
-46.862096
30
0
11
79.956192
21
-47.392365
31
0
39
0
210
0
220
0
230
1
0
LINE
5
13D
100
AcDbEntity
8
2
62
256
6
ByLayer
370
-1
48
1
60
0
100
AcDbLine
10
79.98582
20
-46.556897
30
0
11
79.956192
21
-47.392365
31
0
39
0
210
0
220
0
230
1
0
LINE
5
13E
100
AcDbEntity
8
2
62
256
6
ByLayer
370
-1
48
1
60
0
100
AcDbLine
10
126.180347
20
0
30
0
11
126.544602
21
-3.181612
31
0
39
0
210
0
220
0
230
1
0
LINE
5
13F
100
AcDbEntity
8
2
62
256
6
ByLayer
370
-1
48
1
60
0
100
AcDbLine
10
126.180347
20
0
30
0
11
125.708728
21
-3.16748
31
0
39
0
210
0
220
0
230
1
0
LINE
5
140
100
AcDbEntity
8
2
62
256
6
ByLayer
370
-1
48
1
60
0
100
AcDbLine
10
126.544602
20
-3.181612
30
0
11
125.708728
21
-3.16748
31
0
39
0
210
0
220
0
230
1
0
ENDBLK
5
142
100
AcDbEntity
8
0
100
AcDbBlockEnd
0
ENDSEC
0
SECTION
2
ENTITIES
0
ELLIPSE
5
89
100
AcDbEntity
8
1
62
256
6
ByLayer
370
-1
48
1
60
0
100
AcDbEllipse
10
57.465226
20
9.411749
30
0
11
-2.93905524917371E-16
21
-1.6
31
0
210
0
220
0
230
1
40
0.002375
41
-0.971121407108552
42
-0.473876497266357
0
ELLIPSE
5
8A
100
AcDbEntity
8
1
62
256
6
ByLayer
370
-1
48
1
60
0
100
AcDbEllipse
10
73.413997
20
2.115704
30
0
11
1.0485610114923
21
-0.0549527540550896
31
0
210
0
220
0
230
1
40
0.998972
41
3.05268057580771
42
0.243204329230864
0
ELLIPSE
5
8B
100
AcDbEntity
8
1
62
256
6
ByLayer
370
-1
48
1
60
0
100
AcDbEllipse
10
72.277054
20
-1.019199
30
0
11
-1.43368010496168
21
0.710324824736597
31
0
210
0
220
0
230
1
40
0.041625
41
0.0179730144107474
42
1.5887693412056
0
ELLIPSE
5
8C
100
AcDbEntity
8
1
62
256
6
ByLayer
370
-1
48
1
60
0
100
AcDbEllipse
10
88.316834
20
0
30
0
11
31.8152245874483
21
-1.92658376928464
31
0
210
0
220
0
230
-1
40
0.308146
41
-2.88641996974553
42
-2.40550322088831
0
ELLIPSE
5
8D
100
AcDbEntity
8
1
62
256
6
ByLayer
370
-1
48
1
60
0
100
AcDbEllipse
10
72.046193
20
2.209576
30
0
11
-1.3181514859969
21
-0.906904989491277
31
0
210
0
220
0
230
1
40
0.035965
41
0.334695775835588
42
1.54317823587411
0
ELLIPSE
5
8E
100
AcDbEntity
8
1
62
256
6
ByLayer
370
-1
48
1
60
0
100
AcDbEllipse
10
65.403848
20
6.142597
30
0
11
-3.19561451121466
21
0.167475059977078
31
0
210
0
220
0
230
1
40
0.998972
41
-2.48709418409194
42
-2.20051113666304
0
ELLIPSE
5
8F
100
AcDbEntity
8
1
62
256
6
ByLayer
370
-1
48
1
60
0
100
AcDbEllipse
10
73.407828
20
1.998001
30
0
11
-1.04856101149231
21
0.0549527540549789
31
0
210
0
220
0
230
1
40
0.998972
41
-3.08556949464588
42
-2.80145148282607
0
ELLIPSE
5
90
100
AcDbEntity
8
1
62
256
6
ByLayer
370
-1
48
1
60
0
100
AcDbEllipse
10
73.407828
20
1.998001
30
0
11
-1.04856101149231
21
0.0549527540549789
31
0
210
0
220
0
230
1
40
0.998972
41
-1.19433051217653
42
-0.0559936945855714
0
ELLIPSE
5
91
100
AcDbEntity
8
1
62
256
6
ByLayer
370
-1
48
1
60
0
100
AcDbEllipse
10
83.233916
20
6.749228
30
0
11
-4.19424404596919
21
0.219811016219913
31
0
210
0
220
0
230
1
40
0.998972
41
0.39184466740766
42
0.439975954790793
0
ELLIPSE
5
92
100
AcDbEntity
8
1
62
256
6
ByLayer
370
-1
48
1
60
0
100
AcDbEllipse
10
73.236575
20
3.167549
30
0
11
-1.24828691844322
21
0.0654199453035459
31
0
210
0
220
0
230
1
40
0.998972
41
-0.959931088596848
42
0.862027290779735
0
ELLIPSE
5
93
100
AcDbEntity
8
1
62
256
6
ByLayer
370
-1
48
1
60
0
100
AcDbEllipse
10
69.405298
20
0.326643
30
0
11
-3.19561451121466
21
0.167475059977078
31
0
210
0
220
0
230
1
40
0.998972
41
2.73432128512541
42
-2.48709418409192
0
ELLIPSE
5
94
100
AcDbEntity
8
1
62
256
6
ByLayer
370
-1
48
1
60
0
100
AcDbEllipse
10
65.4073
20
9.411749
30
0
11
-2.93905524917371E-16
21
-1.6
31
0
210
0
220
0
230
1
40
0.002375
41
-0.971121407108556
42
-0.498079414451901
0
ELLIPSE
5
95
100
AcDbEntity
8
1
62
256
6
ByLayer
370
-1
48
1
60
0
100
AcDbEllipse
10
72.709683
20
12.942506
30
0
11
-4.19424404596924
21
0.219811016219915
31
0
210
0
220
0
230
1
40
0.998972
41
1.62310247404462
42
1.7828430424189
0
ELLIPSE
5
96
100
AcDbEntity
8
1
62
256
6
ByLayer
370
-1
48
1
60
0
100
AcDbEllipse
10
88.316834
20
0
30
0
11
31.8152245886583
21
-1.92658376912289
31
0
210
0
220
0
230
-1
40
0.308146
41
2.25572896263495
42
2.49833495446125
0
ELLIPSE
5
97
100
AcDbEntity
8
1
62
256
6
ByLayer
370
-1
48
1
60
0
100
AcDbEllipse
10
69.409094
20
0.399076
30
0
11
1.59780725560732
21
-0.0837375299887082
31
0
210
0
220
0
230
1
40
0.998972
41
-0.407271368464387
42
5.47910900409828E-07
0
ELLIPSE
5
98
100
AcDbEntity
8
1
62
256
6
ByLayer
370
-1
48
1
60
0
100
AcDbEllipse
10
71.03625
20
0
30
0
11
4.94235098339907
21
9.99093323362668
31
0
210
0
220
0
230
-1
40
0.016097
41
-2.90440978559473
42
-2.27058047758753
0
ELLIPSE
5
99
100
AcDbEntity
8
1
62
256
6
ByLayer
370
-1
48
1
60
0
100
AcDbEllipse
10
69.418508
20
0.578703
30
0
11
1.33617629910225
21
-0.892074176344876
31
0
210
0
220
0
230
-1
40
0.984173
41
-1.18382879587988
42
-0.122058957918101
0
ELLIPSE
5
9A
100
AcDbEntity
8
1
62
256
6
ByLayer
370
-1
48
1
60
0
100
AcDbEllipse
10
65.418233
20
6.417091
30
0
11
1.33617629909484
21
-0.892074176352657
31
0
210
0
220
0
230
-1
40
0.984173
41
-2.15254031607833
42
-1.1838287958865
0
ELLIPSE
5
9B
100
AcDbEntity
8
1
62
256
6
ByLayer
370
-1
48
1
60
0
100
AcDbEllipse
10
68.044743
20
8.025529
30
0
11
-1.3181514859969
21
-0.906904989491277
31
0
210
0
220
0
230
1
40
0.035965
41
0.370995490612069
42
1.54317823587414
0
ELLIPSE
5
9C
100
AcDbEntity
8
1
62
256
6
ByLayer
370
-1
48
1
60
0
100
AcDbEllipse
10
73.408896
20
2.018373
30
0
11
-1.04856101149231
21
0.0549527540549789
31
0
210
0
220
0
230
1
40
0.998972
41
-1.19431332696749
42
-0.0889120777821027
0
ELLIPSE
5
9D
100
AcDbEntity
8
1
62
256
6
ByLayer
370
-1
48
1
60
0
100
AcDbEllipse
10
73.231474
20
3.070218
30
0
11
-1.24828691844322
21
0.0654199453035459
31
0
210
0
220
0
230
1
40
0.998972
41
-0.95993108859686
42
-0.038732020540906
0
ELLIPSE
5
9E
100
AcDbEntity
8
1
62
256
6
ByLayer
370
-1
48
1
60
0
100
AcDbEllipse
10
75.459296
20
6.702092
30
0
11
-0.421421663666433
21
0.0220857735344772
31
0
210
0
220
0
230
1
40
0.998972
41
2.93435392246546
42
-3.14158106232645
0
ELLIPSE
5
9F
100
AcDbEntity
8
1
62
256
6
ByLayer
370
-1
48
1
60
0
100
AcDbEllipse
10
75.627359
20
7.284746
30
0
11
-0.184746463929597
21
0.00968215190492482
31
0
210
0
220
0
230
1
40
0.998972
41
-1.25705174419046
42
-0.100427960612795
0
ELLIPSE
5
A0
100
AcDbEntity
8
1
62
256
6
ByLayer
370
-1
48
1
60
0
100
AcDbEllipse
10
76.059367
20
8.017443
30
0
11
-0.184746463929597
21
0.00968215190492482
31
0
210
0
220
0
230
1
40
0.998972
41
-2.30249181317717
42
-0.0808360675932768
0
ELLIPSE
5
A1
100
AcDbEntity
8
1
62
256
6
ByLayer
370
-1
48
1
60
0
100
AcDbEllipse
10
76.48798
20
8.446769
30
0
11
-0.421421663666433
21
0.0220857735344772
31
0
210
0
220
0
230
1
40
0.998972
41
0.839100840412277
42
1.61400056826468
0
ELLIPSE
5
A2
100
AcDbEntity
8
1
62
256
6
ByLayer
370
-1
48
1
60
0
100
AcDbEllipse
10
76.908698
20
8.009629
30
0
11
-0.184746463929597
21
0.00968215190492482
31
0
210
0
220
0
230
1
40
0.998972
41
-3.10682255177165
42
-0.752692357472562
0
ELLIPSE
5
A3
100
AcDbEntity
8
1
62
256
6
ByLayer
370
-1
48
1
60
0
100
AcDbEllipse
10
77.495366
20
7.853945
30
0
11
-0.421421663666433
21
0.0220857735344772
31
0
210
0
220
0
230
1
40
0.998972
41
1.06231382312308E-05
42
0.567660996728104
0
ELLIPSE
5
A4
100
AcDbEntity
8
1
62
256
6
ByLayer
370
-1
48
1
60
0
100
AcDbEllipse
10
77.327303
20
7.271291
30
0
11
-0.184746463929597
21
0.00968215190492482
31
0
210
0
220
0
230
1
40
0.998972
41
-3.14157033524039
42
-1.79903192900891
0
ELLIPSE
5
A5
100
AcDbEntity
8
1
62
256
6
ByLayer
370
-1
48
1
60
0
100
AcDbEllipse
10
76.477331
20
7.278018
30
0
11
-0.74697489199642
21
0.0391472952696417
31
0
210
0
220
0
230
1
40
0.998972
41
1.76138273613283
42
2.62389575737579
0
ELLIPSE
5
A6
100
AcDbEntity
8
1
62
256
6
ByLayer
370
-1
48
1
60
0
100
AcDbEllipse
10
76.47931
20
7.315788
30
0
11
0.746974891996416
21
-0.0391472952697208
31
0
210
0
220
0
230
1
40
0.998972
41
2.62389575737395
42
2.6993584612085
0
ELLIPSE
5
A7
100
AcDbEntity
8
1
62
256
6
ByLayer
370
-1
48
1
60
0
100
AcDbEllipse
10
76.479704
20
7.323289
30
0
11
1.03358156847099
21
-0.0541677147114459
31
0
210
0
220
0
230
1
40
0.998972
41
-2.05076187109332
42
-1.00442229955659
0
ELLIPSE
5
A8
100
AcDbEntity
8
1
62
256
6
ByLayer
370
-1
48
1
60
0
100
AcDbEllipse
10
77.484194
20
6.685502
30
0
11
-0.421421663666433
21
0.0220857735344772
31
0
210
0
220
0
230
1
40
0.998972
41
-1.00970948619419E-05
42
0.297120655593476
0
ELLIPSE
5
A9
100
AcDbEntity
8
1
62
256
6
ByLayer
370
-1
48
1
60
0
100
AcDbEllipse
10
76.479704
20
7.323289
30
0
11
1.03358156847099
21
-0.0541677147114459
31
0
210
0
220
0
230
1
40
0.998972
41
-3.09710144263013
42
-2.05076187109332
0
ELLIPSE
5
AA
100
AcDbEntity
8
1
62
256
6
ByLayer
370
-1
48
1
60
0
100
AcDbEllipse
10
76.477331
20
7.278018
30
0
11
-0.74697489199642
21
0.0391472952696417
31
0
210
0
220
0
230
1
40
0.998972
41
0.635754869643934
42
1.43867355023929
0
ELLIPSE
5
AB
100
AcDbEntity
8
1
62
256
6
ByLayer
370
-1
48
1
60
0
100
AcDbEllipse
10
76.47931
20
7.315788
30
0
11
0.746974891996416
21
-0.0391472952697208
31
0
210
0
220
0
230
1
40
0.998972
41
-0.51769689621404
42
-0.442234192382768
0
ELLIPSE
5
AC
100
AcDbEntity
8
1
62
256
6
ByLayer
370
-1
48
1
60
0
100
AcDbEllipse
10
76.477331
20
7.278018
30
0
11
0.746974891996417
21
-0.0391472952697208
31
0
210
0
220
0
230
1
40
0.998972
41
0.567660996728064
42
1.61400056826466
0
ELLIPSE
5
AD
100
AcDbEntity
8
1
62
256
6
ByLayer
370
-1
48
1
60
0
100
AcDbEllipse
10
76.477331
20
7.278018
30
0
11
-0.74697489199642
21
0.0391472952696417
31
0
210
0
220
0
230
1
40
0.998972
41
2.78126977811219
42
-2.57393165686166
0
ELLIPSE
5
AE
100
AcDbEntity
8
1
62
256
6
ByLayer
370
-1
48
1
60
0
100
AcDbEllipse
10
76.479704
20
7.323289
30
0
11
1.03358156847099
21
-0.0541677147114459
31
0
210
0
220
0
230
1
40
0.998972
41
-1.00442229955659
42
0.0444912109597222
0
ELLIPSE
5
AF
100
AcDbEntity
8
1
62
256
6
ByLayer
370
-1
48
1
60
0
100
AcDbEllipse
10
76.48798
20
8.446769
30
0
11
-0.421421663666433
21
0.0220857735344772
31
0
210
0
220
0
230
1
40
0.998972
41
1.61400056826468
42
2.38890029611732
0
ELLIPSE
5
B0
100
AcDbEntity
8
1
62
256
6
ByLayer
370
-1
48
1
60
0
100
AcDbEllipse
10
76.479704
20
7.323289
30
0
11
1.03358156847099
21
-0.0541677147114459
31
0
210
0
220
0
230
1
40
0.998972
41
2.13717035403294
42
-3.09710144263013
0
ELLIPSE
5
B1
100
AcDbEntity
8
1
62
256
6
ByLayer
370
-1
48
1
60
0
100
AcDbEllipse
10
76.479704
20
7.323289
30
0
11
1.03358156847099
21
-0.0541677147114459
31
0
210
0
220
0
230
1
40
0.998972
41
0.0444912109597222
42
1.09083078249625
0
ELLIPSE
5
B2
100
AcDbEntity
8
1
62
256
6
ByLayer
370
-1
48
1
60
0
100
AcDbEllipse
10
76.477331
20
7.278018
30
0
11
-0.74697489199642
21
0.0391472952696417
31
0
210
0
220
0
230
1
40
0.998972
41
-0.442234192381243
42
0.425218629637638
0
ELLIPSE
5
B3
100
AcDbEntity
8
1
62
256
6
ByLayer
370
-1
48
1
60
0
100
AcDbEllipse
10
76.479704
20
7.323289
30
0
11
1.03358156847099
21
-0.0541677147114459
31
0
210
0
220
0
230
1
40
0.998972
41
1.09083078249625
42
2.13717035403294
0
ELLIPSE
5
B4
100
AcDbEntity
8
1
62
256
6
ByLayer
370
-1
48
1
60
0
100
AcDbEllipse
10
76.477331
20
7.278018
30
0
11
-0.74697489199642
21
0.0391472952696417
31
0
210
0
220
0
230
1
40
0.998972
41
-1.52759208532506
42
-0.517696896215761
0
ELLIPSE
5
B5
100
AcDbEntity
8
1
62
256
6
ByLayer
370
-1
48
1
60
0
100
AcDbEllipse
10
77.495366
20
7.853945
30
0
11
-0.421421663666433
21
0.0220857735344772
31
0
210
0
220
0
230
1
40
0.998972
41
0.567660996728104
42
1.34256072458063
0
ELLIPSE
5
B6
100
AcDbEntity
8
1
62
256
6
ByLayer
370
-1
48
1
60
0
100
AcDbEllipse
10
76.477568
20
7.282545
30
0
11
1.72263594745165
21
-0.0902795245190765
31
0
210
0
220
0
230
1
40
0.998972
41
3.14159036697506
42
0
0
ELLIPSE
5
B7
100
AcDbEntity
8
1
62
256
6
ByLayer
370
-1
48
1
60
0
100
AcDbEllipse
10
76.479291
20
7.315415
30
0
11
1.72263594745164
21
-0.090279524519076
31
0
210
0
220
0
230
1
40
0.998972
41
0
42
6.28318530717959
0
ELLIPSE
5
B8
100
AcDbEntity
8
1
62
256
6
ByLayer
370
-1
48
1
60
0
100
AcDbEllipse
10
76.479704
20
7.323289
30
0
11
1.29821839518098
21
-0.0680367431158272
31
0
210
0
220
0
230
1
40
0.998972
41
0
42
6.28318530717959
0
ELLIPSE
5
B9
100
AcDbEntity
8
1
62
256
6
ByLayer
370
-1
48
1
60
0
100
AcDbEllipse
10
79.1785
20
5.736863
30
0
11
0.39633109660575
21
-0.0207708326339193
31
0
210
0
220
0
230
1
40
0.998972
41
-0.959931088597451
42
-5.91421468641908E-13
0
ELLIPSE
5
BA
100
AcDbEntity
8
1
62
256
6
ByLayer
370
-1
48
1
60
0
100
AcDbEllipse
10
79.533126
20
12.503532
30
0
11
0.396331096605778
21
-0.0207708326339208
31
0
210
0
220
0
230
1
40
0.998972
41
0
42
2.18166156499282
0
ELLIPSE
5
BB
100
AcDbEntity
8
1
62
256
6
ByLayer
370
-1
48
1
60
0
100
AcDbEllipse
10
73.426459
20
2.146452
30
0
11
0.396331096605778
21
-0.0207708326339208
31
0
210
0
220
0
230
1
40
0.998972
41
3.1415926535893
42
-0.959931088597503
0
ELLIPSE
5
BC
100
AcDbEntity
8
1
62
256
6
ByLayer
370
-1
48
1
60
0
100
AcDbEllipse
10
73.781086
20
8.913121
30
0
11
0.39633109660575
21
-0.0207708326339193
31
0
210
0
220
0
230
1
40
0.998972
41
2.18166156499287
42
-3.14159265358968
0
ELLIPSE
5
BD
100
AcDbEntity
8
1
62
256
6
ByLayer
370
-1
48
1
60
0
100
AcDbEllipse
10
76.477951
20
7.289846
30
0
11
1.82225885974134
21
-0.0955005401178882
31
0
210
0
220
0
230
1
40
0.998972
41
0
42
6.28318530717959
0
ELLIPSE
5
BE
100
AcDbEntity
8
1
62
256
6
ByLayer
370
-1
48
1
60
0
100
AcDbEllipse
10
76.478298
20
7.296472
30
0
11
1.87243037766482
21
-0.098129917955517
31
0
210
0
220
0
230
1
40
0.998972
41
0
42
6.28318530717959
0
ELLIPSE
5
BF
100
AcDbEntity
8
1
62
256
6
ByLayer
370
-1
48
1
60
0
100
AcDbEllipse
10
76.479793
20
7.324992
30
0
11
1.91642389486198
21
-0.10043552049467
31
0
210
0
220
0
230
1
40
0.998972
41
0
42
6.28318530717959
0
POINT
5
41
100
AcDbEntity
8
80
62
256
6
ByLayer
370
-1
48
1
60
0
100
AcDbPoint
10
0
20
0
30
0
39
0
210
0
220
0
230
1
50
360
0
POINT
5
43
100
AcDbEntity
8
81
62
256
6
ByLayer
370
-1
48
1
60
0
100
AcDbPoint
10
79.93
20
12.9
30
0
39
0
210
0
220
0
230
1
50
360
0
POINT
5
45
100
AcDbEntity
8
1
62
256
6
ByLayer
370
-1
48
1
60
0
100
AcDbPoint
10
-171.32
20
0
30
0
39
0
210
0
220
0
230
1
50
360
0
POINT
5
47
100
AcDbEntity
8
2
62
256
6
ByLayer
370
-1
48
1
60
0
100
AcDbPoint
10
79.93
20
12.9
30
0
39
0
210
0
220
0
230
1
50
360
0
POINT
5
49
100
AcDbEntity
8
2
62
256
6
ByLayer
370
-1
48
1
60
0
100
AcDbPoint
10
79.704772
20
12.016976
30
0
39
0
210
0
220
0
230
1
50
360
0
SPLINE
5
C0
100
AcDbEntity
8
1
62
256
6
ByLayer
370
-1
48
1
60
0
100
AcDbSpline
70
4
71
3
72
8
73
4
40
0
40
0
40
0
40
0
40
1
40
1
40
1
40
1
41
1
10
67.4210043327157
20
8.62399434271532
30
0
41
1
10
67.3824744894953
20
8.58546449949503
30
0
41
1
10
67.3439613908778
20
8.54695140087753
30
0
41
1
10
67.3057599900001
20
8.50874999999985
30
0
0
SPLINE
5
C1
100
AcDbEntity
8
1
62
256
6
ByLayer
370
-1
48
1
60
0
100
AcDbSpline
70
4
71
3
72
8
73
4
40
0
40
0
40
0
40
0
40
1
40
1
40
1
40
1
41
1
10
67.30575999
20
8.50874999999999
30
0
41
1
10
66.6684380860553
20
8.50874999999999
30
0
41
1
10
66.0428949310705
20
8.50874999999999
30
0
41
1
10
65.4041629045494
20
8.50874999999999
30
0
0
SPLINE
5
C2
100
AcDbEntity
8
1
62
256
6
ByLayer
370
-1
48
1
60
0
100
AcDbSpline
70
4
71
3
72
12
73
8
40
0
40
0
40
0
40
0
40
0.616151303424095
40
0.616151303424095
40
0.805069230581546
40
0.805069230581546
40
1
40
1
40
1
40
1
41
1
10
57.4620886115467
20
8.50874999999999
30
0
41
1
10
56.7864469017317
20
8.50874999999999
30
0
41
1
10
56.1052777546846
20
8.50874999999999
30
0
41
1
10
55.2380976221331
20
8.50874999999999
30
0
41
1
10
55.0352046362951
20
8.50874999999999
30
0
41
1
10
54.6350597426456
20
8.50874999999996
30
0
41
1
10
54.4341910869366
20
8.50874999999996
30
0
41
1
10
54.2535396115467
20
8.50874999999996
30
0
0
SPLINE
5
C3
100
AcDbEntity
8
1
62
256
6
ByLayer
370
-1
48
1
60
0
100
AcDbSpline
70
4
71
3
72
8
73
4
40
0
40
0
40
0
40
0
40
1
40
1
40
1
40
1
41
1
10
54.2206580970923
20
8.50874999999999
30
0
41
1
10
55.2037452196161
20
8.20076443221373
30
0
41
1
10
56.3297534003759
20
8.00907965997283
30
0
41
1
10
57.4756593592255
20
8.00919592420834
30
0
0
SPLINE
5
C4
100
AcDbEntity
8
1
62
256
6
ByLayer
370
-1
48
1
60
0
100
AcDbSpline
70
4
71
3
72
8
73
4
40
0
40
0
40
0
40
0
40
1
40
1
40
1
40
1
41
1
10
65.1371654206209
20
8.00997325869102
30
0
41
1
10
62.5833300668283
20
8.00971414921278
30
0
41
1
10
60.0294947130298
20
8.00945503771825
30
0
41
1
10
57.4756593592255
20
8.00919592420834
30
0
0
SPLINE
5
C5
100
AcDbEntity
8
1
62
256
6
ByLayer
370
-1
48
1
60
0
100
AcDbSpline
70
4
71
2
72
6
73
3
40
0
40
0
40
0
40
1
40
1
40
1
41
0.500044119462114
10
71.3972922270056
20
-9.95730857115898
30
0
41
0.499955880537886
10
69.6391441111854
20
-9.95696480106426
30
0
41
0.500044119462114
10
67.8810512289974
20
-9.95661755519602
30
0
0
SPLINE
5
C6
100
AcDbEntity
8
1
62
256
6
ByLayer
370
-1
48
1
60
0
100
AcDbSpline
70
4
71
3
72
18
73
14
40
0
40
0
40
0
40
0
40
0.171624926776469
40
0.171624926776469
40
0.34334337887406
40
0.34334337887406
40
0.514731406655532
40
0.514731406655532
40
0.704335473084809
40
0.704335473084809
40
0.922073672349518
40
0.922073672349518
40
1
40
1
40
1
40
1
41
1
10
66.1944771151294
20
-9.69253102132782
30
0
41
1
10
66.1794634914715
20
-9.72875736420562
30
0
41
1
10
66.1889438091455
20
-9.76268708011574
30
0
41
1
10
66.2584259685477
20
-9.82074716191113
30
0
41
1
10
66.3193284986244
20
-9.84566381198189
30
0
41
1
10
66.4808237598111
20
-9.88566033062213
30
0
41
1
10
66.5830741020633
20
-9.90135263685264
30
0
41
1
10
66.8248103338085
20
-9.92672931774516
30
0
41
1
10
66.9698626873392
20
-9.93600178181262
30
0
41
1
10
67.2970688872321
20
-9.94994034171012
30
0
41
1
10
67.4856514793441
20
-9.95397043962788
30
0
41
1
10
67.7433650136197
20
-9.95629490620061
30
0
41
1
10
67.8122509047591
20
-9.95660396625055
30
0
41
1
10
67.8810512289967
20
-9.95661755519603
30
0
0
SPLINE
5
C7
100
AcDbEntity
8
1
62
256
6
ByLayer
370
-1
48
1
60
0
100
AcDbSpline
70
4
71
3
72
18
73
14
40
0
40
0
40
0
40
0
40
0.209474715563803
40
0.209474715563803
40
0.385764489850528
40
0.385764489850528
40
0.563738430844047
40
0.563738430844047
40
0.71878967280706
40
0.71878967280706
40
0.924329892663841
40
0.924329892663841
40
1
40
1
40
1
40
1
41
1
10
76.1922101549658
20
8.19048631015841
30
0
41
1
10
76.2222958078063
20
8.15946746128589
30
0
41
1
10
76.2579974097725
20
8.13213289533573
30
0
41
1
10
76.3315636283926
20
8.0931212400256
30
0
41
1
10
76.369073231477
20
8.07930128373917
30
0
41
1
10
76.4473448755588
20
8.06322653559664
30
0
41
1
10
76.4893149814074
20
8.06096719639046
30
0
41
1
10
76.5647904563183
20
8.06837660615412
30
0
41
1
10
76.5995948454448
20
8.07657690335785
30
0
41
1
10
76.6741962859424
20
8.10417868944643
30
0
41
1
10
76.7132722032713
20
8.12668504346746
30
0
41
1
10
76.7595452797636
20
8.16334208060664
30
0
41
1
10
76.771460149241
20
8.1739295192485
30
0
41
1
10
76.7826839367802
20
8.18505379986576
30
0
0
SPLINE
5
C8
100
AcDbEntity
8
1
62
256
6
ByLayer
370
-1
48
1
60
0
100
AcDbSpline
70
4
71
3
72
16
73
12
40
0
40
0
40
0
40
0
40
0.0587213444387025
40
0.0587213444387025
40
0.283362793894161
40
0.283362793894161
40
0.510524543352006
40
0.510524543352006
40
0.751873287520489
40
0.751873287520489
40
1
40
1
40
1
40
1
41
1
10
77.5146690166562
20
7.31509761031876
30
0
41
1
10
77.5147076754601
20
7.3200392321217
30
0
41
1
10
77.5145472772557
20
7.32498300595677
30
0
41
1
10
77.5128290948226
20
7.34857531991932
30
0
41
1
10
77.5085109010874
20
7.36716286612619
30
0
41
1
10
77.4948157822511
20
7.40142987894984
30
0
41
1
10
77.485221806128
20
7.41751665362995
30
0
41
1
10
77.4617302441761
20
7.44616047967824
30
0
41
1
10
77.4473225331406
20
7.45880602302992
30
0
41
1
10
77.415895159476
20
7.47887501168225
30
0
41
1
10
77.3984778441549
20
7.48639293969933
30
0
41
1
10
77.3807359268382
20
7.49106519525793
30
0
0
SPLINE
5
C9
100
AcDbEntity
8
1
62
256
6
ByLayer
370
-1
48
1
60
0
100
AcDbSpline
70
4
71
3
72
14
73
10
40
0
40
0
40
0
40
0
40
0.0478504283370825
40
0.0478504283370825
40
0.384951981721247
40
0.384951981721247
40
0.83195754340909
40
0.83195754340909
40
1
40
1
40
1
40
1
41
1
10
75.8495714802221
20
7.71908805896607
30
0
41
1
10
75.8518513186964
20
7.72363583444817
30
0
41
1
10
75.8540477799907
20
7.72822535394752
30
0
41
1
10
75.8708958178961
20
7.76514113048123
30
0
41
1
10
75.8814677125498
20
7.79949727094757
30
0
41
1
10
75.8957518121052
20
7.878316009554
30
0
41
1
10
75.8964998689312
20
7.92375207865212
30
0
41
1
10
75.8889104812056
20
7.98301498523949
30
0
41
1
10
75.8859201669122
20
7.99910188298446
30
0
41
1
10
75.8820945757681
20
8.01484795142036
30
0
0
SPLINE
5
CA
100
AcDbEntity
8
1
62
256
6
ByLayer
370
-1
48
1
60
0
100
AcDbSpline
70
4
71
3
72
18
73
14
40
0
40
0
40
0
40
0
40
0.209607211181352
40
0.209607211181352
40
0.385873982995536
40
0.385873982995536
40
0.563823374778089
40
0.563823374778089
40
0.718870171101066
40
0.718870171101066
40
0.9244340033636
40
0.9244340033636
40
1
40
1
40
1
40
1
41
1
10
77.0897126235287
20
8.00437421219993
30
0
41
1
10
77.0787305855487
20
7.96226190869928
30
0
41
1
10
77.0737131977572
20
7.91716469570164
30
0
41
1
10
77.077939698864
20
7.83323803970549
30
0
41
1
10
77.0851915969902
20
7.79360842920582
30
0
41
1
10
77.1109749833839
20
7.71756764495791
30
0
41
1
10
77.1301042086063
20
7.6801120735127
30
0
41
1
10
77.1740630163446
20
7.61874239235055
30
0
41
1
10
77.1983221380526
20
7.59293836179467
30
0
41
1
10
77.2587202082435
20
7.54283178917856
30
0
41
1
10
77.2971034259315
20
7.52076455433237
30
0
41
1
10
77.3509767540203
20
7.49980032787937
30
0
41
1
10
77.3658007807319
20
7.49499830001591
30
0
41
1
10
77.3807359268382
20
7.49106519525796
30
0
0
SPLINE
5
CB
100
AcDbEntity
8
1
62
256
6
ByLayer
370
-1
48
1
60
0
100
AcDbSpline
70
4
71
3
72
14
73
10
40
0
40
0
40
0
40
0
40
0.271589668598471
40
0.271589668598471
40
0.560422229615048
40
0.560422229615048
40
0.821981179507908
40
0.821981179507908
40
1
40
1
40
1
40
1
41
1
10
75.8693719989348
20
6.63605084354981
30
0
41
1
10
75.8642117395753
20
6.61701608755817
30
0
41
1
10
75.862168975138
20
6.5965153285016
30
0
41
1
10
75.8654696417156
20
6.55426180257257
30
0
41
1
10
75.871389179892
20
6.53184959231521
30
0
41
1
10
75.8905791705409
20
6.49243056078365
30
0
41
1
10
75.9034270439421
20
6.47453387608792
30
0
41
1
10
75.9295551295602
20
6.44919233361691
30
0
41
1
10
75.9415914175273
20
6.44001260538016
30
0
41
1
10
75.9544507241106
20
6.43244518802985
30
0
0
SPLINE
5
CC
100
AcDbEntity
8
1
62
256
6
ByLayer
370
-1
48
1
60
0
100
AcDbSpline
70
4
71
3
72
16
73
12
40
0
40
0
40
0
40
0
40
0.0647323139294212
40
0.0647323139294212
40
0.289334540421177
40
0.289334540421177
40
0.516795389902648
40
0.516795389902648
40
0.758721543559599
40
0.758721543559599
40
1
40
1
40
1
40
1
41
1
10
75.4447380528321
20
7.33148010118501
30
0
41
1
10
75.4446954736159
20
7.32603734656738
30
0
41
1
10
75.4448939432147
20
7.32058103344397
30
0
41
1
10
75.4468394191072
20
7.29642927967825
30
0
41
1
10
75.4512942020639
20
7.27769989896044
30
0
41
1
10
75.4652250674039
20
7.24294131377374
30
0
41
1
10
75.4749279452626
20
7.22650144651621
30
0
41
1
10
75.4986109450506
20
7.19696744566542
30
0
41
1
10
75.5131049980669
20
7.18377000071243
30
0
41
1
10
75.5442048052445
20
7.16278699919343
30
0
41
1
10
75.5611213337248
20
7.1547455582363
30
0
41
1
10
75.5783486956254
20
7.14935986049184
30
0
0
SPLINE
5
CD
100
AcDbEntity
8
1
62
256
6
ByLayer
370
-1
48
1
60
0
100
AcDbSpline
70
4
71
3
72
18
73
14
40
0
40
0
40
0
40
0
40
0.213023141773295
40
0.213023141773295
40
0.388694313079597
40
0.388694313079597
40
0.566008049976308
40
0.566008049976308
40
0.720940627397264
40
0.720940627397264
40
0.927112592765241
40
0.927112592765241
40
1
40
1
40
1
40
1
41
1
10
76.7668744674976
20
6.44993874559157
30
0
41
1
10
76.7361723530159
20
6.47946493899224
30
0
41
1
10
76.6996543568486
20
6.50530565938232
30
0
41
1
10
76.6250930726007
20
6.54146180217833
30
0
41
1
10
76.5875532485227
20
6.55403032566917
30
0
41
1
10
76.5093768212776
20
6.56851319508175
30
0
41
1
10
76.4675449603749
20
6.57043785807059
30
0
41
1
10
76.3923261316551
20
6.56340898346175
30
0
41
1
10
76.3576377480137
20
6.55576446714258
30
0
41
1
10
76.2831862946998
20
6.53001488673254
30
0
41
1
10
76.24419281151
20
6.50897186741611
30
0
41
1
10
76.1985883356738
20
6.47492085805723
30
0
41
1
10
76.187173883238
20
6.46538684546732
30
0
41
1
10
76.1764006856833
20
6.45537125588399
30
0
0
SPLINE
5
CE
100
AcDbEntity
8
1
62
256
6
ByLayer
370
-1
48
1
60
0
100
AcDbSpline
70
4
71
3
72
18
73
14
40
0
40
0
40
0
40
0
40
0.156673432673877
40
0.156673432673877
40
0.343014764405482
40
0.343014764405482
40
0.501047250485227
40
0.501047250485227
40
0.659247966337038
40
0.659247966337038
40
0.817182763501906
40
0.817182763501906
40
1
40
1
40
1
40
1
41
1
10
75.8693719989348
20
6.63605084354978
30
0
41
1
10
75.8775018941502
20
6.66603975706752
30
0
41
1
10
75.8823031613987
20
6.69765157744652
30
0
41
1
10
75.8843156157929
20
6.76853401455361
30
0
41
1
10
75.8798324450701
20
6.8090147531419
30
0
41
1
10
75.8600265046253
20
6.88246985397868
30
0
41
1
10
75.8461491222914
20
6.91644999608178
30
0
41
1
10
75.8104414322378
20
6.9793216032935
30
0
41
1
10
75.7881707031838
20
7.00896886829847
30
0
41
1
10
75.7388684962003
20
7.06026881662538
30
0
41
1
10
75.7113205605287
20
7.08258187445506
30
0
41
1
10
75.6494738958623
20
7.12197297975837
30
0
41
1
10
75.6141180401514
20
7.13817748217721
30
0
41
1
10
75.5783486956254
20
7.14935986049184
30
0
0
SPLINE
5
CF
100
AcDbEntity
8
1
62
256
6
ByLayer
370
-1
48
1
60
0
100
AcDbSpline
70
4
71
3
72
14
73
10
40
0
40
0
40
0
40
0
40
0.0514770288541486
40
0.0514770288541486
40
0.388239175716846
40
0.388239175716846
40
0.836045397259134
40
0.836045397259134
40
1
40
1
40
1
40
1
41
1
10
77.1090493373982
20
6.91248707316484
30
0
41
1
10
77.1065980145472
20
6.9076239416388
30
0
41
1
10
77.1042436140941
20
6.90272097460675
30
0
41
1
10
77.0873670714549
20
6.86578041023949
30
0
41
1
10
77.0769317560793
20
6.8321028399584
30
0
41
1
10
77.0629459372543
20
6.75533326161346
30
0
41
1
10
77.0624075378261
20
6.71148206817881
30
0
41
1
10
77.070255506632
20
6.65510946266105
30
0
41
1
10
77.0732254758879
20
6.6401581110722
30
0
41
1
10
77.0769884744884
20
6.62554710484463
30
0
0
SPLINE
5
D0
100
AcDbEntity
8
1
62
256
6
ByLayer
370
-1
48
1
60
0
100
AcDbSpline
70
4
71
3
72
14
73
10
40
0
40
0
40
0
40
0
40
0.283322376064165
40
0.283322376064165
40
0.570685980694713
40
0.570685980694713
40
0.831068180254662
40
0.831068180254662
40
1
40
1
40
1
40
1
41
1
10
76.1922101549658
20
8.19048631015843
30
0
41
1
10
76.1773141748834
20
8.20584433338067
30
0
41
1
10
76.1593404743194
20
8.21903591914054
30
0
41
1
10
76.1193713332736
20
8.23839491295411
30
0
41
1
10
76.0966866290984
20
8.24472249363319
30
0
41
1
10
76.0526028322145
20
8.24809082098818
30
0
41
1
10
76.0306165214986
20
8.24596084847823
30
0
41
1
10
75.9963488913389
20
8.23613770101881
30
0
41
1
10
75.98310552475
20
8.23060416483523
30
0
41
1
10
75.9707712295263
20
8.22364729188405
30
0
0
SPLINE
5
D1
100
AcDbEntity
8
1
62
256
6
ByLayer
370
-1
48
1
60
0
100
AcDbSpline
70
4
71
3
72
14
73
10
40
0
40
0
40
0
40
0
40
0.283367911334157
40
0.283367911334157
40
0.570165302011997
40
0.570165302011997
40
0.83000710661696
40
0.83000710661696
40
1
40
1
40
1
40
1
41
1
10
75.5817529885208
20
7.50546009906375
30
0
41
1
10
75.5613670887477
20
7.5005000745756
30
0
41
1
10
75.541295369354
20
7.49176238686056
30
0
41
1
10
75.5051857417106
20
7.46722891424173
30
0
41
1
10
75.4886637186611
20
7.45093657311114
30
0
41
1
10
75.464144502153
20
7.41471910099676
30
0
41
1
10
75.4551536836786
20
7.39471230108373
30
0
41
1
10
75.4466488174125
20
7.36010162360398
30
0
41
1
10
75.4448497592828
20
7.34575915221686
30
0
41
1
10
75.4447380528321
20
7.33148010118501
30
0
0
SPLINE
5
D2
100
AcDbEntity
8
1
62
256
6
ByLayer
370
-1
48
1
60
0
100
AcDbSpline
70
4
71
3
72
16
73
12
40
0
40
0
40
0
40
0
40
0.0577123161988184
40
0.0577123161988184
40
0.281764753753557
40
0.281764753753557
40
0.508282653019392
40
0.508282653019392
40
0.748910313671392
40
0.748910313671392
40
1
40
1
40
1
40
1
41
1
10
76.9886358399621
20
6.42293041961969
30
0
41
1
10
76.9928810680006
20
6.42532484196624
30
0
41
1
10
76.997035142118
20
6.42788543192307
30
0
41
1
10
77.0166430921419
20
6.44104893499446
30
0
41
1
10
77.0307171302897
20
6.45398659122355
30
0
41
1
10
77.0539130166978
20
6.48273654883212
30
0
41
1
10
77.0632857944905
20
6.49893636188023
30
0
41
1
10
77.0769100813013
20
6.53325100611136
30
0
41
1
10
77.0809956047642
20
6.55184520669425
30
0
41
1
10
77.083416031683
20
6.58894870553129
30
0
41
1
10
77.0815476164994
20
6.60784482552489
30
0
41
1
10
77.076988474489
20
6.62554710484486
30
0
0
SPLINE
5
D3
100
AcDbEntity
8
1
62
256
6
ByLayer
370
-1
48
1
60
0
100
AcDbSpline
70
4
71
3
72
16
73
12
40
0
40
0
40
0
40
0
40
0.105300342751107
40
0.105300342751107
40
0.413951193078745
40
0.413951193078745
40
0.693473677729881
40
0.693473677729881
40
0.940809720804661
40
0.940809720804661
40
1
40
1
40
1
40
1
41
1
10
77.0897126235308
20
8.00437421219905
30
0
41
1
10
77.0917424759351
20
8.01215799155474
30
0
41
1
10
77.0933011968238
20
8.02012773077442
30
0
41
1
10
77.0974070486512
20
8.05167201067815
30
0
41
1
10
77.0961113497561
20
8.07662593146378
30
0
41
1
10
77.0844252073451
20
8.12211500408839
30
0
41
1
10
77.0746752351367
20
8.14354199592265
30
0
41
1
10
77.0494986551409
20
8.17898403626896
30
0
41
1
10
77.0344655500103
20
8.19406905827674
30
0
41
1
10
77.0134773330886
20
8.20887785203325
30
0
41
1
10
77.0092663928708
20
8.21159615590469
30
0
41
1
10
77.0049563453777
20
8.21413252347386
30
0
0
SPLINE
5
D4
100
AcDbEntity
8
1
62
256
6
ByLayer
370
-1
48
1
60
0
100
AcDbSpline
70
4
71
3
72
12
73
8
40
0
40
0
40
0
40
0
40
0.463542071021302
40
0.463542071021302
40
0.845099958871538
40
0.845099958871538
40
1
40
1
40
1
40
1
41
1
10
77.3773300617364
20
7.13493495720144
30
0
41
1
10
77.335365994594
20
7.12272359321531
30
0
41
1
10
77.2937367896224
20
7.10363262441402
30
0
41
1
10
77.2237287850787
20
7.05657500225294
30
0
41
1
10
77.19357277796
20
7.03016649203445
30
0
41
1
10
77.1569216797206
20
6.98761362447564
30
0
41
1
10
77.1469105962239
20
6.97458980108328
30
0
41
1
10
77.1376884094796
20
6.96105975187623
30
0
0
SPLINE
5
D5
100
AcDbEntity
8
1
62
256
6
ByLayer
370
-1
48
1
60
0
100
AcDbSpline
70
4
71
3
72
14
73
10
40
0
40
0
40
0
40
0
40
0.271809473349902
40
0.271809473349902
40
0.560614509952513
40
0.560614509952513
40
0.822151249249205
40
0.822151249249205
40
1
40
1
40
1
40
1
41
1
10
76.7668744674975
20
6.44993874559151
30
0
41
1
10
76.7812164564139
20
6.43614606890972
30
0
41
1
10
76.798374161461
20
6.42430771465393
30
0
41
1
10
76.8373858887911
20
6.40637350262833
30
0
41
1
10
76.8601012696828
20
6.40044238612793
30
0
41
1
10
76.9043490638864
20
6.39755221121561
30
0
41
1
10
76.9264618925608
20
6.39979293305638
30
0
41
1
10
76.9616523127141
20
6.40978365804298
30
0
41
1
10
76.9756531638287
20
6.41560784246485
30
0
41
1
10
76.9886358399621
20
6.42293041961969
30
0
0
SPLINE
5
D6
100
AcDbEntity
8
1
62
256
6
ByLayer
370
-1
48
1
60
0
100
AcDbSpline
70
4
71
3
72
16
73
12
40
0
40
0
40
0
40
0
40
0.0659708500500967
40
0.0659708500500967
40
0.289877920445365
40
0.289877920445365
40
0.516715496511722
40
0.516715496511722
40
0.758040411581861
40
0.758040411581861
40
1
40
1
40
1
40
1
41
1
10
75.9707712295263
20
8.22364729188405
30
0
41
1
10
75.9659223196707
20
8.22091237681954
30
0
41
1
10
75.9611911075954
20
8.21794928700186
30
0
41
1
10
75.9411717926797
20
8.2040950742979
30
0
41
1
10
75.9272518260702
20
8.19082327456886
30
0
41
1
10
75.904352025666
20
8.16122349352389
30
0
41
1
10
75.8951358764367
20
8.14449024900361
30
0
41
1
10
75.8818280518881
20
8.10893708501837
30
0
41
1
10
75.8779156864755
20
8.08961402798209
30
0
41
1
10
75.875890124346
20
8.05172312644976
30
0
41
1
10
75.8777442383604
20
8.03275386660127
30
0
41
1
10
75.8820945757682
20
8.01484795142036
30
0
0
SPLINE
5
D7
100
AcDbEntity
8
1
62
256
6
ByLayer
370
-1
48
1
60
0
100
AcDbSpline
70
4
71
3
72
14
73
10
40
0
40
0
40
0
40
0
40
0.275062936533115
40
0.275062936533115
40
0.562899305890646
40
0.562899305890646
40
0.823573585551937
40
0.823573585551937
40
1
40
1
40
1
40
1
41
1
10
77.3773300617363
20
7.13493495720144
30
0
41
1
10
77.3971705232098
20
7.1407084465985
30
0
41
1
10
77.4167036666893
20
7.14998814040942
30
0
41
1
10
77.452656547103
20
7.17543404093252
30
0
41
1
10
77.4694274728175
20
7.19233529462238
30
0
41
1
10
77.494417376572
20
7.22948123139656
30
0
41
1
10
77.5036398014976
20
7.24984182523025
30
0
41
1
10
77.5126135215937
20
7.28531256029342
30
0
41
1
10
77.5145530993619
20
7.30028030163552
30
0
41
1
10
77.5146690166562
20
7.31509761031876
30
0
0
SPLINE
5
D8
100
AcDbEntity
8
1
62
256
6
ByLayer
370
-1
48
1
60
0
100
AcDbSpline
70
4
71
3
72
16
73
12
40
0
40
0
40
0
40
0
40
0.0577385538764183
40
0.0577385538764183
40
0.282508441163324
40
0.282508441163324
40
0.509742737583173
40
0.509742737583173
40
0.751124548325189
40
0.751124548325189
40
1
40
1
40
1
40
1
41
1
10
75.9544507241106
20
6.43244518802985
30
0
41
1
10
75.9586402250266
20
6.42997975945366
30
0
41
1
10
75.9629309743636
20
6.42767322620591
30
0
41
1
10
75.9841771876923
20
6.41728769008466
30
0
41
1
10
76.0025154700574
20
6.41153914435438
30
0
41
1
10
76.0392969516334
20
6.40570314710661
30
0
41
1
10
76.0582057227282
20
6.40558974021468
30
0
41
1
10
76.0952043593249
20
6.41069443556304
30
0
41
1
10
76.1136366390322
20
6.41628932215818
30
0
41
1
10
76.1474329022164
20
6.43227868756577
30
0
41
1
10
76.1630716505035
20
6.4429795638886
30
0
41
1
10
76.1764006856833
20
6.45537125588402
30
0
0
SPLINE
5
D9
100
AcDbEntity
8
1
62
256
6
ByLayer
370
-1
48
1
60
0
100
AcDbSpline
70
4
71
3
72
12
73
8
40
0
40
0
40
0
40
0
40
0.457895844424966
40
0.457895844424966
40
0.840398248458609
40
0.840398248458609
40
1
40
1
40
1
40
1
41
1
10
75.5817529885207
20
7.50546009906375
30
0
41
1
10
75.6231037110391
20
7.515521003835
30
0
41
1
10
75.6641241487394
20
7.53240386889854
30
0
41
1
10
75.7337278096786
20
7.57610910776373
30
0
41
1
10
75.7639825126996
20
7.60142331055116
30
0
41
1
10
75.801107385865
20
7.64344210115408
30
0
41
1
10
75.8114368620911
20
7.65666916669221
30
0
41
1
10
75.8209324081395
20
7.67051538025257
30
0
0
SPLINE
5
DA
100
AcDbEntity
8
1
62
256
6
ByLayer
370
-1
48
1
60
0
100
AcDbSpline
70
4
71
3
72
16
73
12
40
0
40
0
40
0
40
0
40
0.16940031492846
40
0.16940031492846
40
0.393788655226314
40
0.393788655226314
40
0.626696141808165
40
0.626696141808165
40
0.878620624862678
40
0.878620624862678
40
1
40
1
40
1
40
1
41
1
10
77.0049563453777
20
8.21413252347386
30
0
41
1
10
76.9927516036671
20
8.22131474388195
30
0
41
1
10
76.9796090506379
20
8.22709078676564
30
0
41
1
10
76.9483468971416
20
8.23667409265784
30
0
41
1
10
76.9295887673136
20
8.23932782702281
30
0
41
1
10
76.892411017478
20
8.23898165345543
30
0
41
1
10
76.8735625640365
20
8.23577680277725
30
0
41
1
10
76.8371947026835
20
8.22386248736194
30
0
41
1
10
76.8194477360866
20
8.21459654934449
30
0
41
1
10
76.796355977259
20
8.19764903375292
30
0
41
1
10
76.7892549866756
20
8.19156659269345
30
0
41
1
10
76.7826839367803
20
8.1850537998657
30
0
0
SPLINE
5
DB
100
AcDbEntity
8
SK1
62
256
6
ByLayer
370
-1
48
1
60
0
100
AcDbSpline
70
4
71
3
72
10
73
6
40
0
40
0
40
0
40
0
40
0.5
40
0.5
40
1
40
1
40
1
40
1
41
1
10
-169.82
20
-4.33878745302195
30
0
41
1
10
-170.411580345603
20
-2.97651119680961
30
0
41
1
10
-170.81253079324
20
-1.49497950371477
30
0
41
1
10
-170.809962634738
20
1.51036107816699
30
0
41
1
10
-170.411355225271
20
2.97702959821595
30
0
41
1
10
-169.82
20
4.33878745302192
30
0
0
SPLINE
5
DC
100
AcDbEntity
8
SK1
62
256
6
ByLayer
370
-1
48
1
60
0
100
AcDbSpline
70
4
71
3
72
8
73
4
40
0
40
0
40
0
40
0
40
1
40
1
40
1
40
1
41
1
10
-171.302439000017
20
8.50874999999999
30
0
41
1
10
-171.295343920618
20
8.50874999999999
30
0
41
1
10
-170.669993963215
20
8.50874999999999
30
0
41
1
10
-169.82
20
8.50874999999999
30
0
0
SPLINE
5
DD
100
AcDbEntity
8
SK1
62
256
6
ByLayer
370
-1
48
1
60
0
100
AcDbSpline
70
4
71
3
72
10
73
6
40
0
40
0
40
0
40
0
40
0.5
40
0.5
40
1
40
1
40
1
40
1
41
1
10
-169.82
20
4.33878745302189
30
0
41
1
10
-170.419233025873
20
2.95888879825199
30
0
41
1
10
-170.810991214146
20
1.50358877622818
30
0
41
1
10
-170.811508518976
20
-1.50048916054567
30
0
41
1
10
-170.420392105394
20
-2.95621969924952
30
0
41
1
10
-169.82
20
-4.33878745302189
30
0
0
LINE
5
4A
100
AcDbEntity
8
80
62
256
6
ByLayer
370
-1
48
1
60
0
100
AcDbLine
10
0
20
0
30
0
11
-10
21
0
31
0
39
0
210
0
220
0
230
1
0
LINE
5
4B
100
AcDbEntity
8
81
62
256
6
ByLayer
370
-1
48
1
60
0
100
AcDbLine
10
79.93
20
12.9
30
0
11
89.93
21
12.9
31
0
39
0
210
0
220
0
230
1
0
LINE
5
4C
100
AcDbEntity
8
1
62
256
6
ByLayer
370
-1
48
1
60
0
100
AcDbLine
10
75.880718
20
6.680006
30
0
11
75.882831
21
6.720336
31
0
39
0
210
0
220
0
230
1
0
LINE
5
4D
100
AcDbEntity
8
1
62
256
6
ByLayer
370
-1
48
1
60
0
100
AcDbLine
10
77.064854
20
6.74731
30
0
11
77.062772
21
6.707588
31
0
39
0
210
0
220
0
230
1
0
LINE
5
4E
100
AcDbEntity
8
1
62
256
6
ByLayer
370
-1
48
1
60
0
100
AcDbLine
10
77.076062
20
7.916438
30
0
11
77.073944
21
7.876031
31
0
39
0
210
0
220
0
230
1
0
LINE
5
4F
100
AcDbEntity
8
1
62
256
6
ByLayer
370
-1
48
1
60
0
100
AcDbLine
10
75.89189
20
7.848449
30
0
11
75.893972
21
7.888172
31
0
39
0
210
0
220
0
230
1
0
LINE
5
50
100
AcDbEntity
8
1
62
256
6
ByLayer
370
-1
48
1
60
0
100
AcDbLine
10
78.200204
20
7.192266
30
0
11
78.201927
21
7.225136
31
0
39
0
210
0
220
0
230
1
0
LINE
5
51
100
AcDbEntity
8
1
62
256
6
ByLayer
370
-1
48
1
60
0
100
AcDbLine
10
74.756655
20
7.405695
30
0
11
74.754932
21
7.372825
31
0
39
0
210
0
220
0
230
1
0
LINE
5
52
100
AcDbEntity
8
SK1
62
256
6
ByLayer
370
-1
48
1
60
0
100
AcDbLine
10
-171.3025
20
8.50875
30
0
11
-171.32
21
8.49125
31
0
39
0
210
0
220
0
230
1
0
LINE
5
54
100
AcDbEntity
8
SK1
62
256
6
ByLayer
370
-1
48
1
60
0
100
AcDbLine
10
-171.32
20
-8.49125
30
0
11
-169.82
21
-9.99125
31
0
39
0
210
0
220
0
230
1
0
LINE
5
55
100
AcDbEntity
8
SK1
62
256
6
ByLayer
370
-1
48
1
60
0
100
AcDbLine
10
-169.82
20
-9.99125
30
0
11
0
21
-9.99125
31
0
39
0
210
0
220
0
230
1
0
LINE
5
56
100
AcDbEntity
8
1
62
256
6
ByLayer
370
-1
48
1
60
0
100
AcDbLine
10
0
20
-9.99125
30
0
11
71.374154
21
-9.99125
31
0
39
0
210
0
220
0
230
1
0
LINE
5
57
100
AcDbEntity
8
1
62
256
6
ByLayer
370
-1
48
1
60
0
100
AcDbLine
10
71.006901
20
0.315338
30
0
11
71.015151
21
0.472744
31
0
39
0
210
0
220
0
230
1
0
LINE
5
58
100
AcDbEntity
8
SK4
62
256
6
ByLayer
370
-1
48
0.05
60
0
100
AcDbLine
10
-176.32
20
0
30
0
11
84.704772
21
0
31
0
39
0
210
0
220
0
230
1
0
LINE
5
5A
100
AcDbEntity
8
4
62
256
6
ByLayer
370
-1
48
0.05
60
0
100
AcDbLine
10
0
20
0
30
0
11
84.704772
21
0
31
0
39
0
210
0
220
0
230
1
0
LINE
5
5C
100
AcDbEntity
8
1
62
256
6
ByLayer
370
-1
48
1
60
0
100
AcDbLine
10
70.851639
20
-0.146621
30
0
11
67.730085
21
-6.373825
31
0
39
0
210
0
220
0
230
1
0
LINE
5
5D
100
AcDbEntity
8
1
62
256
6
ByLayer
370
-1
48
1
60
0
100
AcDbLine
10
72.56902
20
4.129226
30
0
11
72.574121
21
4.226558
31
0
39
0
210
0
220
0
230
1
0
LINE
5
5E
100
AcDbEntity
8
1
62
256
6
ByLayer
370
-1
48
1
60
0
100
AcDbLine
10
57.681645
20
4.338787
30
0
11
0
21
4.338787
31
0
39
0
210
0
220
0
230
1
0
LINE
5
5F
100
AcDbEntity
8
1
62
256
6
ByLayer
370
-1
48
1
60
0
100
AcDbLine
10
70.851639
20
-0.146621
30
0
11
70.843074
21
-0.310062
31
0
39
0
210
0
220
0
230
1
0
LINE
5
60
100
AcDbEntity
8
1
62
256
6
ByLayer
370
-1
48
1
60
0
100
AcDbLine
10
0
20
8.50875
30
0
11
0
21
4.338787
31
0
39
0
210
0
220
0
230
1
0
LINE
5
61
100
AcDbEntity
8
1
62
256
6
ByLayer
370
-1
48
1
60
0
100
AcDbLine
10
79.345599
20
5.163539
30
0
11
79.149071
21
1.413576
31
0
39
0
210
0
220
0
230
1
0
LINE
5
62
100
AcDbEntity
8
1
62
256
6
ByLayer
370
-1
48
1
60
0
100
AcDbLine
10
71.397292
20
-9.957309
30
0
11
79.149071
21
1.413576
31
0
39
0
210
0
220
0
230
1
0
LINE
5
63
100
AcDbEntity
8
1
62
256
6
ByLayer
370
-1
48
1
60
0
100
AcDbLine
10
71.397292
20
-9.957309
30
0
11
71.374154
21
-9.99125
31
0
39
0
210
0
220
0
230
1
0
LINE
5
64
100
AcDbEntity
8
1
62
256
6
ByLayer
370
-1
48
1
60
0
100
AcDbLine
10
66.735519
20
7.298231
30
0
11
70.735794
21
1.459843
31
0
39
0
210
0
220
0
230
1
0
LINE
5
65
100
AcDbEntity
8
1
62
256
6
ByLayer
370
-1
48
1
60
0
100
AcDbLine
10
65.404163
20
8.50875
30
0
11
57.462089
21
8.50875
31
0
39
0
210
0
220
0
230
1
0
LINE
5
66
100
AcDbEntity
8
1
62
256
6
ByLayer
370
-1
48
1
60
0
100
AcDbLine
10
67.421004
20
8.623994
30
0
11
67.544377
21
8.747367
31
0
39
0
210
0
220
0
230
1
0
LINE
5
67
100
AcDbEntity
8
1
62
256
6
ByLayer
370
-1
48
1
60
0
100
AcDbLine
10
72.042397
20
2.137143
30
0
11
68.040947
21
7.953097
31
0
39
0
210
0
220
0
230
1
0
LINE
5
68
100
AcDbEntity
8
1
62
256
6
ByLayer
370
-1
48
1
60
0
100
AcDbLine
10
72.709683
20
8.746812
30
0
11
67.544377
21
8.747367
31
0
39
0
210
0
220
0
230
1
0
LINE
5
69
100
AcDbEntity
8
1
62
256
6
ByLayer
370
-1
48
1
60
0
100
AcDbLine
10
72.369351
20
2.16612
30
0
11
72.374452
21
2.263451
31
0
39
0
210
0
220
0
230
1
0
LINE
5
6A
100
AcDbEntity
8
1
62
256
6
ByLayer
370
-1
48
1
60
0
100
AcDbLine
10
73.152016
20
4.493132
30
0
11
72.56902
21
4.129226
31
0
39
0
210
0
220
0
230
1
0
LINE
5
6B
100
AcDbEntity
8
1
62
256
6
ByLayer
370
-1
48
1
60
0
100
AcDbLine
10
67.881051
20
-9.956618
30
0
11
72.273258
21
-1.091632
31
0
39
0
210
0
220
0
230
1
0
LINE
5
6C
100
AcDbEntity
8
1
62
256
6
ByLayer
370
-1
48
1
60
0
100
AcDbLine
10
0
20
-4.338787
30
0
11
0
21
4.338787
31
0
39
0
210
0
220
0
230
1
0
LINE
5
6D
100
AcDbEntity
8
1
62
256
6
ByLayer
370
-1
48
1
60
0
100
AcDbLine
10
0
20
-4.338787
30
0
11
62.503922
21
-4.338787
31
0
39
0
210
0
220
0
230
1
0
LINE
5
6E
100
AcDbEntity
8
1
62
256
6
ByLayer
370
-1
48
1
60
0
100
AcDbLine
10
65.137165
20
8.009973
30
0
11
65.417565
21
8.005984
31
0
39
0
210
0
220
0
230
1
0
LINE
5
6F
100
AcDbEntity
8
1
62
256
6
ByLayer
370
-1
48
1
60
0
100
AcDbLine
10
70.843074
20
-0.310062
30
0
11
66.194477
21
-9.692531
31
0
39
0
210
0
220
0
230
1
0
LINE
5
70
100
AcDbEntity
8
1
62
256
6
ByLayer
370
-1
48
1
60
0
100
AcDbLine
10
0
20
-9.99125
30
0
11
0
21
-4.338787
31
0
39
0
210
0
220
0
230
1
0
LINE
5
71
100
AcDbEntity
8
1
62
256
6
ByLayer
370
-1
48
1
60
0
100
AcDbLine
10
73.157122
20
4.590466
30
0
11
72.574121
21
4.226558
31
0
39
0
210
0
220
0
230
1
0
LINE
5
72
100
AcDbEntity
8
1
62
256
6
ByLayer
370
-1
48
1
60
0
100
AcDbLine
10
0
20
8.50875
30
0
11
54.220658
21
8.50875
31
0
39
0
210
0
220
0
230
1
0
LINE
5
73
100
AcDbEntity
8
1
62
256
6
ByLayer
370
-1
48
1
60
0
100
AcDbLine
10
62.503922
20
-4.338787
30
0
11
57.681645
21
4.338787
31
0
39
0
210
0
220
0
230
1
0
LINE
5
74
100
AcDbEntity
8
1
62
256
6
ByLayer
370
-1
48
1
60
0
100
AcDbLine
10
77.074778
20
6.583368
30
0
11
77.076988
21
6.625547
31
0
39
0
210
0
220
0
230
1
0
LINE
5
75
100
AcDbEntity
8
1
62
256
6
ByLayer
370
-1
48
1
60
0
100
AcDbLine
10
77.378525
20
7.448871
30
0
11
77.380736
21
7.491065
31
0
39
0
210
0
220
0
230
1
0
LINE
5
76
100
AcDbEntity
8
1
62
256
6
ByLayer
370
-1
48
1
60
0
100
AcDbLine
10
76.780473
20
8.14286
30
0
11
76.782684
21
8.185054
31
0
39
0
210
0
220
0
230
1
0
LINE
5
77
100
AcDbEntity
8
1
62
256
6
ByLayer
370
-1
48
1
60
0
100
AcDbLine
10
76.189999
20
8.148292
30
0
11
76.19221
21
8.190486
31
0
39
0
210
0
220
0
230
1
0
LINE
5
78
100
AcDbEntity
8
1
62
256
6
ByLayer
370
-1
48
1
60
0
100
AcDbLine
10
75.579542
20
7.463281
30
0
11
75.581753
21
7.50546
31
0
39
0
210
0
220
0
230
1
0
LINE
5
79
100
AcDbEntity
8
1
62
256
6
ByLayer
370
-1
48
1
60
0
100
AcDbLine
10
75.867161
20
6.593857
30
0
11
75.869372
21
6.636051
31
0
39
0
210
0
220
0
230
1
0
LINE
5
7A
100
AcDbEntity
8
1
62
256
6
ByLayer
370
-1
48
1
60
0
100
AcDbLine
10
75.847592
20
7.681319
30
0
11
75.849571
21
7.719088
31
0
39
0
210
0
220
0
230
1
0
LINE
5
7B
100
AcDbEntity
8
1
62
256
6
ByLayer
370
-1
48
1
60
0
100
AcDbLine
10
73.384754
20
8.933892
30
0
11
73.030128
21
2.167223
31
0
39
0
210
0
220
0
230
1
0
LINE
5
7C
100
AcDbEntity
8
1
62
256
6
ByLayer
370
-1
48
1
60
0
100
AcDbLine
10
79.322797
20
12.839767
30
0
11
73.570756
21
9.249357
31
0
39
0
210
0
220
0
230
1
0
LINE
5
7D
100
AcDbEntity
8
1
62
256
6
ByLayer
370
-1
48
1
60
0
100
AcDbLine
10
79.574831
20
5.716092
30
0
11
79.929457
21
12.482761
31
0
39
0
210
0
220
0
230
1
0
LINE
5
7E
100
AcDbEntity
8
1
62
256
6
ByLayer
370
-1
48
1
60
0
100
AcDbLine
10
73.636789
20
1.810217
30
0
11
79.388829
21
5.400627
31
0
39
0
210
0
220
0
230
1
0
LINE
5
7F
100
AcDbEntity
8
SK1
62
256
6
ByLayer
370
-1
48
1
60
0
100
AcDbLine
10
-169.82
20
8.50875
30
0
11
-169.82
21
4.338787
31
0
39
0
210
0
220
0
230
1
0
LINE
5
80
100
AcDbEntity
8
SK1
62
256
6
ByLayer
370
-1
48
1
60
0
100
AcDbLine
10
0
20
-9.99125
30
0
11
0
21
-4.338787
31
0
39
0
210
0
220
0
230
1
0
LINE
5
81
100
AcDbEntity
8
SK1
62
256
6
ByLayer
370
-1
48
1
60
0
100
AcDbLine
10
0
20
8.50875
30
0
11
0
21
4.338787
31
0
39
0
210
0
220
0
230
1
0
LINE
5
82
100
AcDbEntity
8
SK1
62
256
6
ByLayer
370
-1
48
1
60
0
100
AcDbLine
10
0
20
4.338787
30
0
11
-169.82
21
4.338787
31
0
39
0
210
0
220
0
230
1
0
LINE
5
83
100
AcDbEntity
8
SK1
62
256
6
ByLayer
370
-1
48
1
60
0
100
AcDbLine
10
0
20
-4.338787
30
0
11
0
21
4.338787
31
0
39
0
210
0
220
0
230
1
0
LINE
5
84
100
AcDbEntity
8
SK1
62
256
6
ByLayer
370
-1
48
1
60
0
100
AcDbLine
10
-169.82
20
-4.338787
30
0
11
0
21
-4.338787
31
0
39
0
210
0
220
0
230
1
0
LINE
5
85
100
AcDbEntity
8
SK1
62
256
6
ByLayer
370
-1
48
1
60
0
100
AcDbLine
10
-169.82
20
8.50875
30
0
11
0
21
8.50875
31
0
39
0
210
0
220
0
230
1
0
LINE
5
86
100
AcDbEntity
8
SK1
62
256
6
ByLayer
370
-1
48
1
60
0
100
AcDbLine
10
-169.82
20
4.338787
30
0
11
-169.82
21
8.50875
31
0
39
0
210
0
220
0
230
1
0
LINE
5
87
100
AcDbEntity
8
SK1
62
256
6
ByLayer
370
-1
48
1
60
0
100
AcDbLine
10
-169.82
20
-9.99125
30
0
11
-169.82
21
-4.338787
31
0
39
0
210
0
220
0
230
1
0
LINE
5
88
100
AcDbEntity
8
2
62
256
6
ByLayer
370
-1
48
1
60
1
100
AcDbLine
10
79.93
20
0
30
0
11
79.931
21
0.001
31
0
39
0
210
0
220
0
230
1
0
MTEXT
5
DE
100
AcDbEntity
8
SK6
62
256
6
ByLayer
370
-1
48
1
60
0
100
AcDbMText
10
-42.32
20
-22.320625
30
0
210
0
220
0
230
1
1
\W00.780;\fsimplex.shx,bigfont.shx;A20S-SDUCR 07HP 
40
3.5
41
0
44
1.084337
50
0
71
7
72
5
7
DEFAULT
0
DIMENSION
5
111
100
AcDbEntity
8
2
62
256
6
ByLayer
370
-3
48
1
60
0
100
AcDbDimension
2
DimnDraft3D1
10
92.18
20
0
30
0
11
92.18
21
23.155
31
0
70
32
71
5
72
1
41
1
210
0
220
0
230
1
3
Standard
100
AcDbAlignedDimension
13
81.93
23
12.9
33
0
14
81.93
24
0
34
0
50
90
100
AcDbRotatedDimension
1001
ACAD
1000
DSTYLE
1002
{
1070
    74
1070
     0
1070
   279
1070
     0
1070
   172
1070
     1
1070
   173
1070
     1
1070
   340
1005
DF
1070
    77
1070
     1
1070
    73
1070
     0
1070
   171
1070
     4
1070
   274
1070
     4
1070
   177
1070
     2
1070
   176
1070
     2
1070
   178
1070
     7
1070
    78
1070
     8
1070
    41
1041
3.175
1070
   147
1041
2.25
1070
    42
1041
2.0
1070
    44
1041
2.0
1070
   140
1041
4.5
1070
   343
1005
112
1070
   344
1005
112
1002
}
0
DIMENSION
5
127
100
AcDbEntity
8
SK2
62
256
6
ByLayer
370
-3
48
1
60
0
100
AcDbDimension
2
DimnDraft3D2
10
-181.07
20
9.99125
30
0
11
-181.07
21
-4.784211
31
0
70
32
71
5
72
1
41
1
210
0
220
0
230
1
3
Standard
100
AcDbAlignedDimension
13
-173.32
23
-9.99125
33
0
14
-173.32
24
9.99125
34
0
50
90
100
AcDbRotatedDimension
1001
ACAD
1000
DSTYLE
1002
{
1070
    74
1070
     0
1070
   279
1070
     0
1070
   172
1070
     1
1070
   173
1070
     1
1070
   340
1005
DF
1070
    77
1070
     1
1070
    73
1070
     0
1070
   171
1070
     4
1070
   274
1070
     4
1070
   177
1070
     2
1070
   176
1070
     2
1070
   178
1070
     7
1070
    78
1070
     8
1070
    41
1041
3.175
1070
   147
1041
2.25
1070
    42
1041
2.0
1070
    44
1041
2.0
1070
   140
1041
4.5
1070
   343
1005
112
1070
   344
1005
112
1002
}
0
DIMENSION
5
135
100
AcDbEntity
8
SK2
62
256
6
ByLayer
370
-3
48
1
60
0
100
AcDbDimension
2
DimnDraft3D3
10
-171.32
20
25.65
30
0
11
-52.510132
21
25.65
31
0
70
32
71
5
72
1
41
1
210
0
220
0
230
1
3
Standard
100
AcDbAlignedDimension
13
79.93
23
14.9
33
0
14
-171.32
24
11.99125
34
0
50
0
100
AcDbRotatedDimension
1001
ACAD
1000
DSTYLE
1002
{
1070
   279
1070
     0
1070
   172
1070
     1
1070
   173
1070
     1
1070
   340
1005
DF
1070
    77
1070
     1
1070
    73
1070
     0
1070
   171
1070
     4
1070
   274
1070
     4
1070
   177
1070
     2
1070
   176
1070
     2
1070
   178
1070
     7
1070
    78
1070
     8
1070
    41
1041
3.175
1070
   147
1041
2.25
1070
    42
1041
2.0
1070
    44
1041
2.0
1070
   140
1041
4.5
1070
   343
1005
112
1070
   344
1005
112
1002
}
0
DIMENSION
5
143
100
AcDbEntity
8
2
62
256
6
ByLayer
370
-3
48
1
60
0
100
AcDbDimension
2
DimnDraft3D4
10
128.180347
20
0
30
0
11
105.38575
21
-36.792664
31
0
70
34
71
5
72
1
41
1
210
0
220
0
230
1
3
Standard
100
AcDb2LineAngularDimension
13
79.458976
23
3.912334
33
0
14
76.693329
24
-48.859355
34
0
15
81.93
25
0
35
0
16
108.458351
26
-30.775028
36
0
40
0
0
ENDSEC
0
SECTION
2
OBJECTS
0
DICTIONARY
5
174
330
0
100
AcDbDictionary
280
0
281
1
3
ACAD_GROUP
350
175
3
ACAD_MLINESTYLE
350
176
0
DICTIONARY
5
175
330
0
100
AcDbDictionary
280
0
281
1
0
DICTIONARY
5
176
330
0
100
AcDbDictionary
280
0
281
1
3
Standard
350
18
0
MLINESTYLE
5
18
330
176
100
AcDbMlineStyle
2
Standard
70
0
3

62
256
51
90
52
90
71
2
49
-0.5
62
256
6
ByLayer
49
0.5
62
256
6
ByLayer
0
RASTERVARIABLES
5
162
330

100
AcDbRasterVariables
90
0
70
1
71
1
72
1
0
ENDSEC
0
EOF
