0
SECTION
2
HEADER
9
$ACADVER
1
AC1015
9
$DWGCODEPAGE
3
ANSI_1252
9
$HANDSEED
5
17b
9
$ANGBASE
50
0
9
$ANGDIR
70
0
9
$ATTMODE
70
1
9
$AUNITS
70
0
9
$AUPREC
70
0
9
$CECOLOR
62
256
9
$CELTSCALE
40
1
9
$CELTYPE
6
ByLayer
9
$CELWEIGHT
370
-1
9
$CLAYER
8
0
9
$CMLJUST
70
0
9
$CMLSCALE
40
1
9
$CMLSTYLE
2
Standard
9
$DIMSTYLE
2
Standard
9
$TEXTSIZE
40
0.2
9
$TEXTSTYLE
7
Standard
9
$LUNITS
70
2
9
$LUPREC
70
4
9
$EXTNAMES
290
1
9
$INSUNITS
70
4
9
$LTSCALE
40
1
9
$LWDISPLAY
290
0
9
$PDMODE
70
0
9
$PDSIZE
40
0
9
$PLINEGEN
70
0
0
ENDSEC
0
SECTION
2
CLASSES
0
CLASS
1
RASTERVARIABLES
2
AcDbRasterVariables
3
ISM
90
0
280
0
281
0
0
ENDSEC
0
SECTION
2
TABLES
0
TABLE
2
VPORT
5
171
100
AcDbSymbolTable
0
VPORT
5
1
100
AcDbSymbolTableRecord
100
AcDbViewportTableRecord
2
*Active
70
0
10
0
20
0
11
1
21
1
12
-1
22
1
13
0
23
0
14
0.5
24
0.5
15
10
25
10
16
0
26
0
36
1
17
0
27
0
37
0
0
ENDTAB
0
TABLE
2
LTYPE
5
172
100
AcDbSymbolTable
0
LTYPE
5
14
100
AcDbSymbolTableRecord
100
AcDbLinetypeTableRecord
70
0
2
ByBlock
3

72
65
73
0
40
0
0
LTYPE
5
15
100
AcDbSymbolTableRecord
100
AcDbLinetypeTableRecord
70
0
2
ByLayer
3

72
65
73
0
40
0
0
LTYPE
5
16
100
AcDbSymbolTableRecord
100
AcDbLinetypeTableRecord
70
0
2
CONTINUOUS
3
Solid line
72
65
73
0
40
0
0
LTYPE
5
3B
100
AcDbSymbolTableRecord
100
AcDbLinetypeTableRecord
70
0
2
DASHED
3
__ __ __ __ __ __ __ __ __
72
65
73
2
40
25.72
49
12.86
74
0
49
-12.86
74
0
0
LTYPE
5
3C
100
AcDbSymbolTableRecord
100
AcDbLinetypeTableRecord
70
0
2
HIDDEN
3
_ _ _ _ _ _ _ _ _ _ _ _ _ _ _
72
65
73
2
40
0.5
49
0.25
74
0
49
-0.25
74
0
0
LTYPE
5
3D
100
AcDbSymbolTableRecord
100
AcDbLinetypeTableRecord
70
0
2
PHANTOM
3
____ _ _ ____ _ _ _____ _ _ ____
72
65
73
6
40
50.5
49
18
74
0
49
-6.5
74
0
49
6.5
74
0
49
-6.5
74
0
49
6.5
74
0
49
-6.5
74
0
0
LTYPE
5
3E
100
AcDbSymbolTableRecord
100
AcDbLinetypeTableRecord
70
0
2
CENTER
3
____ _ ____ _ ____ _ ____
72
65
73
4
40
47.5
49
22
74
0
49
-8.5
74
0
49
8.5
74
0
49
-8.5
74
0
0
LTYPE
5
3F
100
AcDbSymbolTableRecord
100
AcDbLinetypeTableRecord
70
0
2
DOT
3
.........................
72
65
73
2
40
10
49
0
74
0
49
-10
74
0
0
LTYPE
5
40
100
AcDbSymbolTableRecord
100
AcDbLinetypeTableRecord
70
0
2
DASHDOT
3
_._._._._._._._._._._._._._._._.
72
65
73
4
40
70
49
31
74
0
49
-13
74
0
49
13
74
0
49
-13
74
0
0
ENDTAB
0
TABLE
2
LAYER
5
173
100
AcDbSymbolTable
0
LAYER
5
10
100
AcDbSymbolTableRecord
100
AcDbLayerTableRecord
2
0
70
0
62
7
6
CONTINUOUS
290
1
370
-3
390
0
0
LAYER
5
42
100
AcDbSymbolTableRecord
100
AcDbLayerTableRecord
2
80
70
0
62
-6
6
CONTINUOUS
290
1
370
-3
390
0
0
LAYER
5
44
100
AcDbSymbolTableRecord
100
AcDbLayerTableRecord
2
81
70
0
62
-3
6
CONTINUOUS
290
1
370
-3
390
0
0
LAYER
5
46
100
AcDbSymbolTableRecord
100
AcDbLayerTableRecord
2
1
70
0
62
4
6
CONTINUOUS
290
1
370
-3
390
0
0
LAYER
5
48
100
AcDbSymbolTableRecord
100
AcDbLayerTableRecord
2
2
70
0
62
7
6
CONTINUOUS
290
1
370
-3
390
0
0
LAYER
5
4F
100
AcDbSymbolTableRecord
100
AcDbLayerTableRecord
2
4
70
0
62
-2
6
CENTER
290
1
370
-3
390
0
0
LAYER
5
15d
100
AcDbSymbolTableRecord
100
AcDbLayerTableRecord
2
SK4
70
0
62
2
6
CENTER
290
1
370
-3
390
0
0
LAYER
5
15e
100
AcDbSymbolTableRecord
100
AcDbLayerTableRecord
2
SK1
70
0
62
4
6
CONTINUOUS
290
1
370
-3
390
0
0
LAYER
5
15f
100
AcDbSymbolTableRecord
100
AcDbLayerTableRecord
2
SK6
70
0
62
5
6
CONTINUOUS
290
1
370
-3
390
0
0
LAYER
5
160
100
AcDbSymbolTableRecord
100
AcDbLayerTableRecord
2
SK2
70
0
62
7
6
CONTINUOUS
290
1
370
-3
390
0
0
ENDTAB
0
TABLE
2
STYLE
5
174
100
AcDbSymbolTable
0
STYLE
5
11
100
AcDbSymbolTableRecord
100
AcDbTextStyleTableRecord
2
Standard
3
txt
70
0
71
0
40
0
41
1
42
0
50
0
0
STYLE
5
D9
100
AcDbSymbolTableRecord
100
AcDbTextStyleTableRecord
2
DEFAULT
3
simplex.shx
70
0
71
0
40
0
41
1
42
0
50
0
0
STYLE
5
FC
100
AcDbSymbolTableRecord
100
AcDbTextStyleTableRecord
2
DWGDirectTextStyle
3
SIMPLEX
70
0
71
0
40
0
41
1
42
0
50
0
0
ENDTAB
0
TABLE
2
DIMSTYLE
5
175
100
AcDbSymbolTable
100
AcDbDimStyleTable
0
DIMSTYLE
105
27
100
AcDbSymbolTableRecord
100
AcDbDimStyleTableRecord
2
Standard
70
0
3
<>
41
0.18
42
0.0625
44
0.18
140
0.18
147
0.09
73
0
74
0
77
1
271
2
275
0
278
52
280
0
340
11
0
ENDTAB
0
TABLE
2
VIEW
5
176
100
AcDbSymbolTable
0
ENDTAB
0
TABLE
2
UCS
5
177
100
AcDbSymbolTable
0
ENDTAB
0
TABLE
2
APPID
5
178
100
AcDbSymbolTable
0
APPID
5
12
100
AcDbSymbolTableRecord
100
AcDbRegAppTableRecord
2
ACAD
70
0
0
ENDTAB
0
TABLE
2
BLOCK_RECORD
5
179
100
AcDbSymbolTable
0
BLOCK_RECORD
5
1F
100
AcDbSymbolTableRecord
100
AcDbBlockTableRecord
2
*Model_Space
340
0
70
0
0
BLOCK_RECORD
5
1B
100
AcDbSymbolTableRecord
100
AcDbBlockTableRecord
2
*Paper_Space
340
0
70
0
0
BLOCK_RECORD
5
23
100
AcDbSymbolTableRecord
100
AcDbBlockTableRecord
2
*Paper_Space0
340
0
70
0
0
BLOCK_RECORD
5
FE
100
AcDbSymbolTableRecord
100
AcDbBlockTableRecord
2
DimnDraft3D1
340
0
70
0
0
BLOCK_RECORD
5
10C
100
AcDbSymbolTableRecord
100
AcDbBlockTableRecord
2
_CLOSED
340
0
70
0
0
BLOCK_RECORD
5
113
100
AcDbSymbolTableRecord
100
AcDbBlockTableRecord
2
DimnDraft3D2
340
0
70
0
0
BLOCK_RECORD
5
122
100
AcDbSymbolTableRecord
100
AcDbBlockTableRecord
2
DimnDraft3D3
340
0
70
0
0
BLOCK_RECORD
5
130
100
AcDbSymbolTableRecord
100
AcDbBlockTableRecord
2
DimnDraft3D4
340
0
70
0
0
ENDTAB
0
ENDSEC
0
SECTION
2
BLOCKS
0
BLOCK
5
20
100
AcDbEntity
8
0
100
AcDbBlockBegin
2
*Model_Space
70
0
10
0
20
0
30
0
3
*Model_Space
0
ENDBLK
5
21
100
AcDbEntity
8
0
100
AcDbBlockEnd
0
BLOCK
5
1C
100
AcDbEntity
8
0
100
AcDbBlockBegin
2
*Paper_Space
70
0
10
0
20
0
30
0
3
*Paper_Space
0
ENDBLK
5
1D
100
AcDbEntity
8
0
100
AcDbBlockEnd
0
BLOCK
5
24
100
AcDbEntity
8
0
100
AcDbBlockBegin
2
*Paper_Space0
70
0
10
0
20
0
30
0
3
*Paper_Space0
0
ENDBLK
5
25
100
AcDbEntity
8
0
100
AcDbBlockEnd
0
BLOCK
5
109
100
AcDbEntity
8
0
100
AcDbBlockBegin
2
DimnDraft3D1
70
0
10
0
20
0
30
0
3
DimnDraft3D1
0
MTEXT
5
FF
100
AcDbEntity
8
2
62
256
6
ByLayer
370
-1
48
1
60
0
100
AcDbMText
10
101.055
20
3.974342
30
0
210
0
220
0
230
1
1
\W01.000;\fsimplex.shx,bigfont.shx;15.0 
40
4.5
41
0
44
1.084337
50
90
71
7
72
5
7
DEFAULT
0
LINE
5
100
100
AcDbEntity
8
2
62
256
6
ByLayer
370
-1
48
1
60
0
100
AcDbLine
10
81.93
20
14.9
30
0
11
104.18
21
14.9
31
0
39
0
210
0
220
0
230
1
0
LINE
5
101
100
AcDbEntity
8
2
62
256
6
ByLayer
370
-1
48
1
60
0
100
AcDbLine
10
81.93
20
0
30
0
11
104.18
21
0
31
0
39
0
210
0
220
0
230
1
0
LINE
5
102
100
AcDbEntity
8
2
62
256
6
ByLayer
370
-1
48
1
60
0
100
AcDbLine
10
102.18
20
26.15
30
0
11
102.18
21
-11.25
31
0
39
0
210
0
220
0
230
1
0
LINE
5
103
100
AcDbEntity
8
2
62
256
6
ByLayer
370
-1
48
1
60
0
100
AcDbLine
10
102.18
20
14.9
30
0
11
101.762003
21
18.074998
31
0
39
0
210
0
220
0
230
1
0
LINE
5
104
100
AcDbEntity
8
2
62
256
6
ByLayer
370
-1
48
1
60
0
100
AcDbLine
10
102.18
20
14.9
30
0
11
102.597997
21
18.075002
31
0
39
0
210
0
220
0
230
1
0
LINE
5
105
100
AcDbEntity
8
2
62
256
6
ByLayer
370
-1
48
1
60
0
100
AcDbLine
10
101.762003
20
18.074998
30
0
11
102.597997
21
18.075002
31
0
39
0
210
0
220
0
230
1
0
LINE
5
106
100
AcDbEntity
8
2
62
256
6
ByLayer
370
-1
48
1
60
0
100
AcDbLine
10
102.18
20
0
30
0
11
102.597997
21
-3.174998
31
0
39
0
210
0
220
0
230
1
0
LINE
5
107
100
AcDbEntity
8
2
62
256
6
ByLayer
370
-1
48
1
60
0
100
AcDbLine
10
102.18
20
0
30
0
11
101.762003
21
-3.175002
31
0
39
0
210
0
220
0
230
1
0
LINE
5
108
100
AcDbEntity
8
2
62
256
6
ByLayer
370
-1
48
1
60
0
100
AcDbLine
10
102.597997
20
-3.174998
30
0
11
101.762003
21
-3.175002
31
0
39
0
210
0
220
0
230
1
0
ENDBLK
5
10A
100
AcDbEntity
8
0
100
AcDbBlockEnd
0
BLOCK
5
10D
100
AcDbEntity
8
0
100
AcDbBlockBegin
2
_CLOSED
70
0
10
0
20
0
30
0
3
_CLOSED
0
LINE
5
10F
100
AcDbEntity
8
0
62
256
6
ByLayer
370
-2
48
1
60
0
100
AcDbLine
10
-1
20
0.166667
30
0
11
0
21
0
31
0
39
0
210
0
220
0
230
1
0
LINE
5
110
100
AcDbEntity
8
0
62
256
6
ByLayer
370
-2
48
1
60
0
100
AcDbLine
10
0
20
0
30
0
11
-1
21
-0.166667
31
0
39
0
210
0
220
0
230
1
0
LINE
5
111
100
AcDbEntity
8
0
62
256
6
ByLayer
370
-2
48
1
60
0
100
AcDbLine
10
-1
20
0.166667
30
0
11
-1
21
-0.166667
31
0
39
0
210
0
220
0
230
1
0
LINE
5
112
100
AcDbEntity
8
0
62
256
6
ByLayer
370
-2
48
1
60
0
100
AcDbLine
10
0
20
0
30
0
11
-1
21
0
31
0
39
0
210
0
220
0
230
1
0
ENDBLK
5
10E
100
AcDbEntity
8
0
100
AcDbBlockEnd
0
BLOCK
5
11F
100
AcDbEntity
8
0
100
AcDbBlockBegin
2
DimnDraft3D2
70
0
10
0
20
0
30
0
3
DimnDraft3D2
0
MTEXT
5
114
100
AcDbEntity
8
SK2
62
256
6
ByLayer
370
-1
48
1
60
0
100
AcDbMText
10
-182.195
20
-3.659211
30
0
210
0
220
0
230
1
1
\W01.000;\fsimplex.shx,bigfont.shx;%%c20 
40
4.5
41
0
44
1.084337
50
90
71
7
72
5
7
DEFAULT
0
LINE
5
116
100
AcDbEntity
8
SK2
62
256
6
ByLayer
370
-1
48
1
60
0
100
AcDbLine
10
-173.32
20
-9.99125
30
0
11
-183.07
21
-9.99125
31
0
39
0
210
0
220
0
230
1
0
LINE
5
117
100
AcDbEntity
8
SK2
62
256
6
ByLayer
370
-1
48
1
60
0
100
AcDbLine
10
-173.32
20
9.99125
30
0
11
-183.07
21
9.99125
31
0
39
0
210
0
220
0
230
1
0
LINE
5
118
100
AcDbEntity
8
SK2
62
256
6
ByLayer
370
-1
48
1
60
0
100
AcDbLine
10
-181.07
20
-9.99125
30
0
11
-181.07
21
9.99125
31
0
39
0
210
0
220
0
230
1
0
LINE
5
119
100
AcDbEntity
8
SK2
62
256
6
ByLayer
370
-1
48
1
60
0
100
AcDbLine
10
-181.07
20
-9.99125
30
0
11
-181.487997
21
-6.816252
31
0
39
0
210
0
220
0
230
1
0
LINE
5
11A
100
AcDbEntity
8
SK2
62
256
6
ByLayer
370
-1
48
1
60
0
100
AcDbLine
10
-181.07
20
-9.99125
30
0
11
-180.652003
21
-6.816248
31
0
39
0
210
0
220
0
230
1
0
LINE
5
11B
100
AcDbEntity
8
SK2
62
256
6
ByLayer
370
-1
48
1
60
0
100
AcDbLine
10
-181.487997
20
-6.816252
30
0
11
-180.652003
21
-6.816248
31
0
39
0
210
0
220
0
230
1
0
LINE
5
11C
100
AcDbEntity
8
SK2
62
256
6
ByLayer
370
-1
48
1
60
0
100
AcDbLine
10
-181.07
20
9.99125
30
0
11
-180.652003
21
6.816252
31
0
39
0
210
0
220
0
230
1
0
LINE
5
11D
100
AcDbEntity
8
SK2
62
256
6
ByLayer
370
-1
48
1
60
0
100
AcDbLine
10
-181.07
20
9.99125
30
0
11
-181.487997
21
6.816248
31
0
39
0
210
0
220
0
230
1
0
LINE
5
11E
100
AcDbEntity
8
SK2
62
256
6
ByLayer
370
-1
48
1
60
0
100
AcDbLine
10
-180.652003
20
6.816252
30
0
11
-181.487997
21
6.816248
31
0
39
0
210
0
220
0
230
1
0
ENDBLK
5
120
100
AcDbEntity
8
0
100
AcDbBlockEnd
0
BLOCK
5
12D
100
AcDbEntity
8
0
100
AcDbBlockBegin
2
DimnDraft3D3
70
0
10
0
20
0
30
0
3
DimnDraft3D3
0
MTEXT
5
123
100
AcDbEntity
8
SK2
62
256
6
ByLayer
370
-1
48
1
60
0
100
AcDbMText
10
-51.385132
20
28.775
30
0
210
0
220
0
230
1
1
\W01.000;\fsimplex.shx,bigfont.shx;250.0 
40
4.5
41
0
44
1.084337
50
0
71
7
72
5
7
DEFAULT
0
LINE
5
124
100
AcDbEntity
8
SK2
62
256
6
ByLayer
370
-1
48
1
60
0
100
AcDbLine
10
79.93
20
16.9
30
0
11
79.93
21
29.65
31
0
39
0
210
0
220
0
230
1
0
LINE
5
125
100
AcDbEntity
8
SK2
62
256
6
ByLayer
370
-1
48
1
60
0
100
AcDbLine
10
-171.32
20
11.99125
30
0
11
-171.32
21
29.65
31
0
39
0
210
0
220
0
230
1
0
LINE
5
126
100
AcDbEntity
8
SK2
62
256
6
ByLayer
370
-1
48
1
60
0
100
AcDbLine
10
79.93
20
27.65
30
0
11
-171.32
21
27.65
31
0
39
0
210
0
220
0
230
1
0
LINE
5
127
100
AcDbEntity
8
SK2
62
256
6
ByLayer
370
-1
48
1
60
0
100
AcDbLine
10
79.93
20
27.65
30
0
11
76.755002
21
27.232003
31
0
39
0
210
0
220
0
230
1
0
LINE
5
128
100
AcDbEntity
8
SK2
62
256
6
ByLayer
370
-1
48
1
60
0
100
AcDbLine
10
79.93
20
27.65
30
0
11
76.754998
21
28.067997
31
0
39
0
210
0
220
0
230
1
0
LINE
5
129
100
AcDbEntity
8
SK2
62
256
6
ByLayer
370
-1
48
1
60
0
100
AcDbLine
10
76.755002
20
27.232003
30
0
11
76.754998
21
28.067997
31
0
39
0
210
0
220
0
230
1
0
LINE
5
12A
100
AcDbEntity
8
SK2
62
256
6
ByLayer
370
-1
48
1
60
0
100
AcDbLine
10
-171.32
20
27.65
30
0
11
-168.145002
21
28.067997
31
0
39
0
210
0
220
0
230
1
0
LINE
5
12B
100
AcDbEntity
8
SK2
62
256
6
ByLayer
370
-1
48
1
60
0
100
AcDbLine
10
-171.32
20
27.65
30
0
11
-168.144998
21
27.232003
31
0
39
0
210
0
220
0
230
1
0
LINE
5
12C
100
AcDbEntity
8
SK2
62
256
6
ByLayer
370
-1
48
1
60
0
100
AcDbLine
10
-168.145002
20
28.067997
30
0
11
-168.144998
21
27.232003
31
0
39
0
210
0
220
0
230
1
0
ENDBLK
5
12E
100
AcDbEntity
8
0
100
AcDbBlockEnd
0
BLOCK
5
13B
100
AcDbEntity
8
0
100
AcDbBlockBegin
2
DimnDraft3D4
70
0
10
0
20
0
30
0
3
DimnDraft3D4
0
MTEXT
5
131
100
AcDbEntity
8
2
62
256
6
ByLayer
370
-1
48
1
60
0
100
AcDbMText
10
99.401304
20
27.316751
30
0
210
0
220
0
230
1
1
\W01.000;\fsimplex.shx,bigfont.shx;93%%d0' 
40
4.5
41
0
44
1.084337
50
316.5
71
7
72
5
7
DEFAULT
0
LINE
5
132
100
AcDbEntity
8
2
62
256
6
ByLayer
370
-1
48
1
60
0
100
AcDbLine
10
81.93
20
0
30
0
11
114.266389
21
0
31
0
39
0
210
0
220
0
230
1
0
LINE
5
133
100
AcDbEntity
8
2
62
256
6
ByLayer
370
-1
48
1
60
0
100
AcDbLine
10
79.825328
20
16.897259
30
0
11
78.954716
21
33.509526
31
0
39
0
210
0
220
0
230
1
0
ARC
5
134
100
AcDbEntity
8
2
62
256
6
ByLayer
370
-1
48
1
60
0
100
AcDbCircle
39
0
10
80.710876
20
0
30
0
40
31.55551274754
210
0
220
0
230
1
100
AcDbArc
50
0
51
93
0
LINE
5
135
100
AcDbEntity
8
2
62
256
6
ByLayer
370
-1
48
1
60
0
100
AcDbLine
10
112.266389
20
0
30
0
11
111.768735
21
3.163491
31
0
39
0
210
0
220
0
230
1
0
LINE
5
136
100
AcDbEntity
8
2
62
256
6
ByLayer
370
-1
48
1
60
0
100
AcDbLine
10
112.266389
20
0
30
0
11
112.604465
21
3.184503
31
0
39
0
210
0
220
0
230
1
0
LINE
5
137
100
AcDbEntity
8
2
62
256
6
ByLayer
370
-1
48
1
60
0
100
AcDbLine
10
111.768735
20
3.163491
30
0
11
112.604465
21
3.184503
31
0
39
0
210
0
220
0
230
1
0
LINE
5
138
100
AcDbEntity
8
2
62
256
6
ByLayer
370
-1
48
1
60
0
100
AcDbLine
10
79.059388
20
31.512267
30
0
11
82.22183
21
32.016544
31
0
39
0
210
0
220
0
230
1
0
LINE
5
139
100
AcDbEntity
8
2
62
256
6
ByLayer
370
-1
48
1
60
0
100
AcDbLine
10
79.059388
20
31.512267
30
0
11
82.244592
21
31.18086
31
0
39
0
210
0
220
0
230
1
0
LINE
5
13A
100
AcDbEntity
8
2
62
256
6
ByLayer
370
-1
48
1
60
0
100
AcDbLine
10
82.22183
20
32.016544
30
0
11
82.244592
21
31.18086
31
0
39
0
210
0
220
0
230
1
0
ENDBLK
5
13C
100
AcDbEntity
8
0
100
AcDbBlockEnd
0
ENDSEC
0
SECTION
2
ENTITIES
0
ELLIPSE
5
88
100
AcDbEntity
8
1
62
256
6
ByLayer
370
-1
48
1
60
0
100
AcDbEllipse
10
86.445808
20
4.095975
30
0
11
1.0485610114923
21
0.0549527540550779
31
0
210
0
220
0
230
1
40
0.999336
41
2.88350404140653
42
-0.0787823586313215
0
ELLIPSE
5
89
100
AcDbEntity
8
1
62
256
6
ByLayer
370
-1
48
1
60
0
100
AcDbEllipse
10
86.66717
20
5.062711
30
0
11
-1.24828691844322
21
-0.0654199453036807
31
0
210
0
220
0
230
1
40
0.999336
41
-3.14157925597087
42
-2.18166156499287
0
ELLIPSE
5
8A
100
AcDbEntity
8
1
62
256
6
ByLayer
370
-1
48
1
60
0
100
AcDbEllipse
10
86.664692
20
5.110005
30
0
11
-1.24828691844322
21
-0.0654199453036807
31
0
210
0
220
0
230
1
40
0.999336
41
2.24352451352414
42
-2.18166156499287
0
ELLIPSE
5
8B
100
AcDbEntity
8
1
62
256
6
ByLayer
370
-1
48
1
60
0
100
AcDbEllipse
10
76.625469
20
8.732052
30
0
11
-4.19424404596922
21
-0.219811016220367
31
0
210
0
220
0
230
1
40
0.999336
41
2.25477307068916
42
2.74959372636469
0
ELLIPSE
5
8C
100
AcDbEntity
8
1
62
256
6
ByLayer
370
-1
48
1
60
0
100
AcDbEllipse
10
70.599563
20
8.906661
30
0
11
1.12091630488651
21
-1.12074384527897
31
0
210
0
220
0
230
-1
40
0.023098
41
1.47777876115493
42
1.74474997524047
0
ELLIPSE
5
8D
100
AcDbEntity
8
1
62
256
6
ByLayer
370
-1
48
1
60
0
100
AcDbEllipse
10
86.451051
20
4.019263
30
0
11
-1.0485610114923
21
-0.0549527540550915
31
0
210
0
220
0
230
1
40
0.999336
41
-3.1005810876493
42
-1.94722418737431
0
ELLIPSE
5
8E
100
AcDbEntity
8
1
62
256
6
ByLayer
370
-1
48
1
60
0
100
AcDbEllipse
10
86.451051
20
4.019263
30
0
11
-1.0485610114923
21
-0.0549527540550915
31
0
210
0
220
0
230
1
40
0.999336
41
-0.319585056807819
42
-0.0523947469079747
0
ELLIPSE
5
8F
100
AcDbEntity
8
1
62
256
6
ByLayer
370
-1
48
1
60
0
100
AcDbEllipse
10
79.430478
20
0
30
0
11
9.98910815691573
21
-9.98976534297567
31
0
210
0
220
0
230
-1
40
0.017242
41
-3.12435702930479
42
-3.06695712066227
0
ELLIPSE
5
90
100
AcDbEntity
8
1
62
256
6
ByLayer
370
-1
48
1
60
0
100
AcDbEllipse
10
87.098554
20
-6.51956
30
0
11
89.7796023776477
21
-89.728300565859
31
0
210
0
220
0
230
-1
40
0.006312
41
1.75179458595633
42
1.76198517314097
0
ELLIPSE
5
91
100
AcDbEntity
8
1
62
256
6
ByLayer
370
-1
48
1
60
0
100
AcDbEllipse
10
87.101079
20
-6.521922
30
0
11
89.7863608441507
21
-89.7350248849366
31
0
210
0
220
0
230
-1
40
0.006313
41
1.71480164582341
42
1.74843337212678
0
ELLIPSE
5
92
100
AcDbEntity
8
1
62
256
6
ByLayer
370
-1
48
1
60
0
100
AcDbEllipse
10
86.450193
20
4.035634
30
0
11
1.0485610114923
21
0.0549527540550779
31
0
210
0
220
0
230
1
40
0.999336
41
0.0355617114445093
42
1.19434698390598
0
ELLIPSE
5
93
100
AcDbEntity
8
1
62
256
6
ByLayer
370
-1
48
1
60
0
100
AcDbEllipse
10
86.662715
20
5.123037
30
0
11
1.34251015364101
21
0.0703579758172431
31
0
210
0
220
0
230
1
40
0.999336
41
-0.955203771086825
42
0.959911595273675
0
ELLIPSE
5
94
100
AcDbEntity
8
1
62
256
6
ByLayer
370
-1
48
1
60
0
100
AcDbEllipse
10
83.381145
20
9.276996
30
0
11
1.82225885974146
21
0.0955005401178739
31
0
210
0
220
0
230
1
40
0.999336
41
0
42
6.28318530717959
0
ELLIPSE
5
95
100
AcDbEntity
8
1
62
256
6
ByLayer
370
-1
48
1
60
0
100
AcDbEllipse
10
83.380865
20
9.282321
30
0
11
1.87243037766498
21
0.098129917955504
31
0
210
0
220
0
230
1
40
0.999336
41
0
42
6.28318530717959
0
ELLIPSE
5
96
100
AcDbEntity
8
1
62
256
6
ByLayer
370
-1
48
1
60
0
100
AcDbEllipse
10
83.379663
20
9.30524
30
0
11
1.91642389486202
21
0.100435520494651
31
0
210
0
220
0
230
1
40
0.999336
41
0
42
6.28318530717959
0
ELLIPSE
5
97
100
AcDbEntity
8
1
62
256
6
ByLayer
370
-1
48
1
60
0
100
AcDbEllipse
10
80.325868
20
14.485933
30
0
11
0.396331096605644
21
0.0207708326339093
31
0
210
0
220
0
230
1
40
0.999336
41
0.959911595273874
42
3.1415234359696
0
ELLIPSE
5
98
100
AcDbEntity
8
1
62
256
6
ByLayer
370
-1
48
1
60
0
100
AcDbEllipse
10
86.433457
20
4.124547
30
0
11
0.396331096605644
21
0.0207708326339093
31
0
210
0
220
0
230
1
40
0.999336
41
-2.18168105831671
42
-6.92176209433533E-05
0
ELLIPSE
5
99
100
AcDbEntity
8
1
62
256
6
ByLayer
370
-1
48
1
60
0
100
AcDbEllipse
10
80.681093
20
7.716772
30
0
11
0.39633109660572
21
0.0207708326339133
31
0
210
0
220
0
230
1
40
0.999336
41
3.14152343596969
42
-2.18168105831592
0
ELLIPSE
5
9A
100
AcDbEntity
8
1
62
256
6
ByLayer
370
-1
48
1
60
0
100
AcDbEllipse
10
83.381644
20
9.267492
30
0
11
-0.746974891996421
21
-0.0391472952697224
31
0
210
0
220
0
230
1
40
0.999336
41
0.517647700404302
42
1.36823634733772
0
ELLIPSE
5
9B
100
AcDbEntity
8
1
62
256
6
ByLayer
370
-1
48
1
60
0
100
AcDbEllipse
10
83.380051
20
9.297843
30
0
11
0.746974891996418
21
0.0391472952697124
31
0
210
0
220
0
230
1
40
0.999336
41
-2.69941223346187
42
-2.623944953186
0
ELLIPSE
5
9C
100
AcDbEntity
8
1
62
256
6
ByLayer
370
-1
48
1
60
0
100
AcDbEllipse
10
83.379735
20
9.303871
30
0
11
1.033581568471
21
0.0541677147114345
31
0
210
0
220
0
230
1
40
0.999336
41
-2.13718713550701
42
-1.09084865881587
0
ELLIPSE
5
9D
100
AcDbEntity
8
1
62
256
6
ByLayer
370
-1
48
1
60
0
100
AcDbEllipse
10
84.400335
20
8.709003
30
0
11
-0.42142166366643
21
-0.0220857735345226
31
0
210
0
220
0
230
1
40
0.999336
41
-1.06283782372121E-05
42
0.207238731124367
0
ELLIPSE
5
9E
100
AcDbEntity
8
1
62
256
6
ByLayer
370
-1
48
1
60
0
100
AcDbEllipse
10
84.38914
20
9.877871
30
0
11
-0.42142166366643
21
-0.0220857735345226
31
0
210
0
220
0
230
1
40
0.999336
41
0.546878866614807
42
1.25705174419037
0
ELLIPSE
5
9F
100
AcDbEntity
8
1
62
256
6
ByLayer
370
-1
48
1
60
0
100
AcDbEllipse
10
83.379735
20
9.303871
30
0
11
1.033581568471
21
0.0541677147114345
31
0
210
0
220
0
230
1
40
0.999336
41
-1.09084865881587
42
-0.0445606139655286
0
ELLIPSE
5
A0
100
AcDbEntity
8
1
62
256
6
ByLayer
370
-1
48
1
60
0
100
AcDbEllipse
10
83.381644
20
9.267492
30
0
11
-0.746974891996421
21
-0.0391472952697224
31
0
210
0
220
0
230
1
40
0.999336
41
1.65712196822399
42
2.52435782932037
0
ELLIPSE
5
A1
100
AcDbEntity
8
1
62
256
6
ByLayer
370
-1
48
1
60
0
100
AcDbEllipse
10
83.380051
20
9.297843
30
0
11
0.746974891996418
21
0.0391472952697124
31
0
210
0
220
0
230
1
40
0.999336
41
0.442180420126439
42
0.517647700405313
0
ELLIPSE
5
A2
100
AcDbEntity
8
1
62
256
6
ByLayer
370
-1
48
1
60
0
100
AcDbEllipse
10
83.381644
20
9.267492
30
0
11
-0.746974891996421
21
-0.0391472952697224
31
0
210
0
220
0
230
1
40
0.999336
41
-1.61400057403876
42
-0.567713544866695
0
ELLIPSE
5
A3
100
AcDbEntity
8
1
62
256
6
ByLayer
370
-1
48
1
60
0
100
AcDbEllipse
10
83.381644
20
9.267492
30
0
11
-0.746974891996421
21
-0.0391472952697224
31
0
210
0
220
0
230
1
40
0.999336
41
-0.567713544866695
42
0.342676980661685
0
ELLIPSE
5
A4
100
AcDbEntity
8
1
62
256
6
ByLayer
370
-1
48
1
60
0
100
AcDbEllipse
10
83.379735
20
9.303871
30
0
11
1.033581568471
21
0.0541677147114345
31
0
210
0
220
0
230
1
40
0.999336
41
-0.0445606139655286
42
1.0044055180826
0
ELLIPSE
5
A5
100
AcDbEntity
8
1
62
256
6
ByLayer
370
-1
48
1
60
0
100
AcDbEllipse
10
82.364241
20
9.861313
30
0
11
-0.42142166366643
21
-0.0220857735345226
31
0
210
0
220
0
230
1
40
0.999336
41
2.57393165686168
42
3.14158092498788
0
ELLIPSE
5
A6
100
AcDbEntity
8
1
62
256
6
ByLayer
370
-1
48
1
60
0
100
AcDbEllipse
10
83.379735
20
9.303871
30
0
11
1.033581568471
21
0.0541677147114345
31
0
210
0
220
0
230
1
40
0.999336
41
3.09703203962428
42
-2.13718713550701
0
ELLIPSE
5
A7
100
AcDbEntity
8
1
62
256
6
ByLayer
370
-1
48
1
60
0
100
AcDbEllipse
10
83.379735
20
9.303871
30
0
11
1.033581568471
21
0.0541677147114345
31
0
210
0
220
0
230
1
40
0.999336
41
2.05074399477391
42
3.09703203962428
0
ELLIPSE
5
A8
100
AcDbEntity
8
1
62
256
6
ByLayer
370
-1
48
1
60
0
100
AcDbEllipse
10
83.381644
20
9.267492
30
0
11
-0.746974891996421
21
-0.0391472952697224
31
0
210
0
220
0
230
1
40
0.999336
41
2.67174949593758
42
-2.69941223346287
0
ELLIPSE
5
A9
100
AcDbEntity
8
1
62
256
6
ByLayer
370
-1
48
1
60
0
100
AcDbEllipse
10
83.379735
20
9.303871
30
0
11
1.033581568471
21
0.0541677147114345
31
0
210
0
220
0
230
1
40
0.999336
41
1.0044055180826
42
2.05074399477391
0
ELLIPSE
5
AA
100
AcDbEntity
8
1
62
256
6
ByLayer
370
-1
48
1
60
0
100
AcDbEllipse
10
83.381644
20
9.267492
30
0
11
0.746974891996433
21
0.0391472952697132
31
0
210
0
220
0
230
1
40
0.999336
41
0.442180420126964
42
0.517647700404693
0
ELLIPSE
5
AB
100
AcDbEntity
8
1
62
256
6
ByLayer
370
-1
48
1
60
0
100
AcDbEllipse
10
83.381644
20
9.267492
30
0
11
-0.746974891996421
21
-0.0391472952697224
31
0
210
0
220
0
230
1
40
0.999336
41
-2.6239449531852
42
-1.61400057403876
0
ELLIPSE
5
AC
100
AcDbEntity
8
1
62
256
6
ByLayer
370
-1
48
1
60
0
100
AcDbEllipse
10
83.371616
20
10.454334
30
0
11
-0.42142166366643
21
-0.0220857735345226
31
0
210
0
220
0
230
1
40
0.999336
41
1.52759208532491
42
2.30249181317738
0
ELLIPSE
5
AD
100
AcDbEntity
8
1
62
256
6
ByLayer
370
-1
48
1
60
0
100
AcDbEllipse
10
82.375435
20
8.692445
30
0
11
-0.42142166366643
21
-0.0220857735345226
31
0
210
0
220
0
230
1
40
0.999336
41
2.84447199799627
42
-3.14158339472311
0
ELLIPSE
5
AE
100
AcDbEntity
8
1
62
256
6
ByLayer
370
-1
48
1
60
0
100
AcDbEllipse
10
82.532315
20
9.278445
30
0
11
-0.184746463929596
21
-0.00968215190494471
31
0
210
0
220
0
230
1
40
0.999336
41
-1.34256072458025
42
-0.106690966443141
0
ELLIPSE
5
AF
100
AcDbEntity
8
1
62
256
6
ByLayer
370
-1
48
1
60
0
100
AcDbEllipse
10
82.364241
20
9.861313
30
0
11
-0.42142166366643
21
-0.0220857735345226
31
0
210
0
220
0
230
1
40
0.999336
41
1.79903192900909
42
2.57393165686168
0
ELLIPSE
5
B0
100
AcDbEntity
8
1
62
256
6
ByLayer
370
-1
48
1
60
0
100
AcDbEllipse
10
82.950906
20
10.017043
30
0
11
-0.184746463929596
21
-0.00968215190494471
31
0
210
0
220
0
230
1
40
0.999336
41
-2.38890029611768
42
-0.0735488577947448
0
ELLIPSE
5
B1
100
AcDbEntity
8
1
62
256
6
ByLayer
370
-1
48
1
60
0
100
AcDbEllipse
10
83.371616
20
10.454334
30
0
11
-0.42142166366643
21
-0.0220857735345226
31
0
210
0
220
0
230
1
40
0.999336
41
0.752692357472621
42
1.52759208532491
0
ELLIPSE
5
B2
100
AcDbEntity
8
1
62
256
6
ByLayer
370
-1
48
1
60
0
100
AcDbEllipse
10
83.800238
20
10.024844
30
0
11
-0.184746463929596
21
-0.00968215190494471
31
0
210
0
220
0
230
1
40
0.999336
41
-3.14158644850252
42
-0.839100840411607
0
ELLIPSE
5
B3
100
AcDbEntity
8
1
62
256
6
ByLayer
370
-1
48
1
60
0
100
AcDbEllipse
10
84.38914
20
9.877871
30
0
11
-0.42142166366643
21
-0.0220857735345226
31
0
210
0
220
0
230
1
40
0.999336
41
8.76435267284926E-06
42
0.413052221982005
0
ELLIPSE
5
B4
100
AcDbEntity
8
1
62
256
6
ByLayer
370
-1
48
1
60
0
100
AcDbEllipse
10
84.23226
20
9.291871
30
0
11
-0.184746463929596
21
-0.00968215190494471
31
0
210
0
220
0
230
1
40
0.999336
41
3.14156762654597
42
-1.88454090939933
0
ELLIPSE
5
B5
100
AcDbEntity
8
1
62
256
6
ByLayer
370
-1
48
1
60
0
100
AcDbEllipse
10
83.380067
20
9.297544
30
0
11
1.72263594745165
21
0.0902795245190571
31
0
210
0
220
0
230
1
40
0.999336
41
0
42
6.28318530717959
0
ELLIPSE
5
B6
100
AcDbEntity
8
1
62
256
6
ByLayer
370
-1
48
1
60
0
100
AcDbEllipse
10
83.381453
20
9.27113
30
0
11
1.72263594745164
21
0.0902795245190562
31
0
210
0
220
0
230
1
40
0.999336
41
3.13133069744984
42
-0.0421502808984231
0
ELLIPSE
5
B7
100
AcDbEntity
8
1
62
256
6
ByLayer
370
-1
48
1
60
0
100
AcDbEllipse
10
83.381453
20
9.27113
30
0
11
1.72263594745164
21
0.0902795245190562
31
0
210
0
220
0
230
1
40
0.999336
41
-0.0421508609929414
42
0
0
ELLIPSE
5
B8
100
AcDbEntity
8
1
62
256
6
ByLayer
370
-1
48
1
60
0
100
AcDbEllipse
10
83.381453
20
9.27113
30
0
11
1.72263594745164
21
0.0902795245190562
31
0
210
0
220
0
230
1
40
0.999336
41
0
42
0.0102642042661223
0
ELLIPSE
5
B9
100
AcDbEntity
8
1
62
256
6
ByLayer
370
-1
48
1
60
0
100
AcDbEllipse
10
83.379735
20
9.303871
30
0
11
1.298218395181
21
0.0680367431158133
31
0
210
0
220
0
230
1
40
0.999336
41
0
42
6.28318530717959
0
ELLIPSE
5
BA
100
AcDbEntity
8
1
62
256
6
ByLayer
370
-1
48
1
60
0
100
AcDbEllipse
10
86.078232
20
10.893708
30
0
11
0.39633109660572
21
0.0207708326339133
31
0
210
0
220
0
230
1
40
0.999336
41
0
42
0.959911595273005
0
POINT
5
41
100
AcDbEntity
8
80
62
256
6
ByLayer
370
-1
48
1
60
0
100
AcDbPoint
10
0
20
0
30
0
39
0
210
0
220
0
230
1
50
360
0
POINT
5
43
100
AcDbEntity
8
81
62
256
6
ByLayer
370
-1
48
1
60
0
100
AcDbPoint
10
79.93
20
14.9
30
0
39
0
210
0
220
0
230
1
50
360
0
POINT
5
45
100
AcDbEntity
8
1
62
256
6
ByLayer
370
-1
48
1
60
0
100
AcDbPoint
10
-171.32
20
0
30
0
39
0
210
0
220
0
230
1
50
360
0
POINT
5
47
100
AcDbEntity
8
2
62
256
6
ByLayer
370
-1
48
1
60
0
100
AcDbPoint
10
79.93
20
14.9
30
0
39
0
210
0
220
0
230
1
50
360
0
POINT
5
49
100
AcDbEntity
8
2
62
256
6
ByLayer
370
-1
48
1
60
0
100
AcDbPoint
10
91.541269
20
0
30
0
39
0
210
0
220
0
230
1
50
360
0
SPLINE
5
BB
100
AcDbEntity
8
1
62
256
6
ByLayer
370
-1
48
1
60
0
100
AcDbSpline
70
4
71
3
72
32
73
28
40
0
40
0
40
0
40
0
40
0.0312499999999992
40
0.0312499999999992
40
0.0624999999999984
40
0.0624999999999984
40
0.124999999999997
40
0.124999999999997
40
0.249999999999994
40
0.249999999999994
40
0.374999999999991
40
0.374999999999991
40
0.437499999999992
40
0.437499999999992
40
0.499999999999992
40
0.499999999999992
40
0.562499999999993
40
0.562499999999993
40
0.624999999999993
40
0.624999999999993
40
0.749999999999994
40
0.749999999999994
40
0.874999999999995
40
0.874999999999995
40
0.937499999999997
40
0.937499999999997
40
1
40
1
40
1
40
1
41
1
10
70.6779026575723
20
8.77678284804094
30
0
41
1
10
70.7213312022646
20
8.58352503698768
30
0
41
1
10
70.6268190649862
20
8.39077179084708
30
0
41
1
10
70.4299947587206
20
8.05984729950973
30
0
41
1
10
70.309525598009
20
7.90838609649722
30
0
41
1
10
69.9325971603862
20
7.48054645598771
30
0
41
1
10
69.6534856739652
20
7.22489797765911
30
0
41
1
10
68.7809798576047
20
6.49975832149508
30
0
41
1
10
68.1636275705253
20
6.08519586641862
30
0
41
1
10
66.8681554833137
20
5.3802873910119
30
0
41
1
10
66.189469417725
20
5.08809231611542
30
0
41
1
10
65.1182438578302
20
4.85320294042816
30
0
41
1
10
64.753601800914
20
4.80825436948305
30
0
41
1
10
64.0128837262561
20
4.86845514925045
30
0
41
1
10
63.6069953230028
20
4.97411844070035
30
0
41
1
10
63.1217063422973
20
5.60462314294048
30
0
41
1
10
63.1915903634749
20
6.04874312865604
30
0
41
1
10
63.5348928320821
20
6.68845158053139
30
0
41
1
10
63.790240741412
20
6.95196514308034
30
0
41
1
10
64.618081974167
20
7.64621357665754
30
0
41
1
10
65.2717620795447
20
7.99065426143048
30
0
41
1
10
66.6319189696856
20
8.56412526751427
30
0
41
1
10
67.3546136193664
20
8.79393512606978
30
0
41
1
10
68.4654516882376
20
9.04174540899666
30
0
41
1
10
68.8420177167735
20
9.10905366040976
30
0
41
1
10
69.610867212429
20
9.18228516147212
30
0
41
1
10
70.0164704049456
20
9.21713344830644
30
0
41
1
10
70.380061232311
20
9.07513600070732
30
0
0
SPLINE
5
BC
100
AcDbEntity
8
1
62
256
6
ByLayer
370
-1
48
1
60
0
100
AcDbSpline
70
4
71
3
72
12
73
8
40
0
40
0
40
0
40
0
40
0.5
40
0.5
40
0.75
40
0.75
40
1
40
1
40
1
40
1
41
1
10
75.1541190000003
20
-9.62209441630947
30
0
41
1
10
71.4332890912239
20
-9.30846687233489
30
0
41
1
10
67.8962371734593
20
-8.67934980765526
30
0
41
1
10
62.9748485915965
20
-6.522579570978
30
0
41
1
10
61.402758275907
20
-5.60027734535385
30
0
41
1
10
58.5026810368595
20
-3.27746756312692
30
0
41
1
10
57.156326566755
20
-1.86916614079331
30
0
41
1
10
56.0988290046764
20
-0.233436164322711
30
0
0
SPLINE
5
BD
100
AcDbEntity
8
1
62
256
6
ByLayer
370
-1
48
1
60
0
100
AcDbSpline
70
4
71
3
72
8
73
4
40
0
40
0
40
0
40
0
40
1
40
1
40
1
40
1
41
1
10
87.4936596027532
20
4.17510153820038
30
0
41
1
10
87.4965549696589
20
4.1464472627928
30
0
41
1
10
87.4973451314659
20
4.11680267232174
30
0
41
1
10
87.4957258099986
20
4.08624112887108
30
0
0
SPLINE
5
BE
100
AcDbEntity
8
1
62
256
6
ByLayer
370
-1
48
1
60
0
100
AcDbSpline
70
4
71
3
72
18
73
14
40
0
40
0
40
0
40
0
40
0.124999999999999
40
0.124999999999999
40
0.249999999999999
40
0.249999999999999
40
0.374999999999998
40
0.374999999999998
40
0.499999999999997
40
0.499999999999997
40
0.749999999999999
40
0.749999999999999
40
1
40
1
40
1
40
1
41
1
10
55.8093328142429
20
0.233436164322654
30
0
41
1
10
55.2881234822236
20
1.11134669401648
30
0
41
1
10
54.8601677839
20
2.0458741324417
30
0
41
1
10
54.3726700642196
20
3.95851414420619
30
0
41
1
10
54.3370805565854
20
4.90661564953965
30
0
41
1
10
54.7979038216569
20
6.53368693677615
30
0
41
1
10
55.2977152325525
20
7.21035887844528
30
0
41
1
10
56.5744047457623
20
8.2231071368991
30
0
41
1
10
57.3504786854307
20
8.58420136054292
30
0
41
1
10
59.8344948977377
20
9.40656864289673
30
0
41
1
10
61.7086663710526
20
9.63432639041645
30
0
41
1
10
65.5258408353833
20
9.91432299098889
30
0
41
1
10
67.4846423312591
20
9.95481714040963
30
0
41
1
10
69.4820224545897
20
9.9747973815885
30
0
0
SPLINE
5
BF
100
AcDbEntity
8
1
62
256
6
ByLayer
370
-1
48
1
60
0
100
AcDbSpline
70
4
71
3
72
14
73
10
40
0
40
0
40
0
40
0
40
0.150513716158108
40
0.150513716158108
40
0.431678879574098
40
0.431678879574098
40
0.839687909112379
40
0.839687909112379
40
1
40
1
40
1
40
1
41
1
10
56.0988290046764
20
-0.233436164322711
30
0
41
1
10
56.095085615859
20
-0.207293855067263
30
0
41
1
10
56.0887594570414
20
-0.180532060612165
30
0
41
1
10
56.0645931112412
20
-0.104887319291066
30
0
41
1
10
56.0411740141394
20
-0.0558114805964181
30
0
41
1
10
55.9739864203214
20
0.0559631083750105
30
0
41
1
10
55.9248610384518
20
0.117168865597762
30
0
41
1
10
55.8521481018389
20
0.193113248564657
30
0
41
1
10
55.8309501685667
20
0.213716411080924
30
0
41
1
10
55.8093328142429
20
0.233436164322654
30
0
0
SPLINE
5
C0
100
AcDbEntity
8
1
62
256
6
ByLayer
370
-1
48
1
60
0
100
AcDbSpline
70
4
71
3
72
8
73
4
40
0
40
0
40
0
40
0
40
1
40
1
40
1
40
1
41
1
10
75.1541190000003
20
-9.62209441630864
30
0
41
1
10
75.1791145700371
20
-9.59976698307153
30
0
41
1
10
75.2041146087506
20
-9.5774134186
30
0
41
1
10
75.2291190000003
20
-9.55503403208007
30
0
0
SPLINE
5
C1
100
AcDbEntity
8
1
62
256
6
ByLayer
370
-1
48
1
60
0
100
AcDbSpline
70
4
71
3
72
17
73
13
40
0
40
0
40
0
40
0
40
0.221573962070137
40
0.221573962070137
40
0.443044374818546
40
0.443044374818546
40
0.665871671557178
40
0.665871671557178
40
0.888158480540663
40
0.888158480540663
40
0.888158480540663
40
1
40
1
40
1
40
1
41
1
10
73.6554165901342
20
5.79487043571211
30
0
41
1
10
73.9877847904395
20
5.46208357803735
30
0
41
1
10
74.3817815492714
20
5.18197423933677
30
0
41
1
10
75.2271135852668
20
4.7730598237508
30
0
41
1
10
75.6900691854582
20
4.63847959458417
30
0
41
1
10
76.6243085320447
20
4.53059436972421
30
0
41
1
10
77.1086421284176
20
4.55681578728178
30
0
41
1
10
78.0277116134084
20
4.76631249231588
30
0
41
1
10
78.4753328489822
20
4.95220566474237
30
0
41
1
10
78.8738160647466
20
5.20413936191594
30
0
41
1
10
79.0764940345337
20
5.33227878722681
30
0
41
1
10
79.268882041433
20
5.47850734733731
30
0
41
1
10
79.4466881035162
20
5.63957458274419
30
0
0
SPLINE
5
C2
100
AcDbEntity
8
1
62
256
6
ByLayer
370
-1
48
1
60
0
100
AcDbSpline
70
4
71
3
72
8
73
4
40
0
40
0
40
0
40
0
40
1
40
1
40
1
40
1
41
1
10
75.2291190000003
20
-9.5550340320801
30
0
41
1
10
76.1505046842713
20
-9.63141622356466
30
0
41
1
10
77.0791871084953
20
-9.68797667760828
30
0
41
1
10
78.0154207859894
20
-9.73130779061842
30
0
0
SPLINE
5
C3
100
AcDbEntity
8
SK1
62
256
6
ByLayer
370
-1
48
1
60
0
100
AcDbSpline
70
4
71
3
72
34
73
30
40
0
40
0
40
0
40
0
40
0.217457722716167
40
0.217457722716167
40
0.435205736046455
40
0.435205736046455
40
0.48980454399475
40
0.48980454399475
40
0.496549308752425
40
0.496549308752425
40
0.499955506609353
40
0.499955506609353
40
0.501333585706543
40
0.501333585706543
40
0.502727669322682
40
0.502727669322682
40
0.503969738093491
40
0.503969738093491
40
0.506084034865965
40
0.506084034865965
40
0.511582108692488
40
0.511582108692488
40
0.532968432685034
40
0.532968432685034
40
0.617843090853288
40
0.617843090853288
40
0.991279786412459
40
0.991279786412459
40
1
40
1
40
1
40
1
41
1
10
-60.07
20
-0.233436164322711
30
0
41
1
10
-60.4700057987322
20
-0.233436164322711
30
0
41
1
10
-60.8701208961381
20
-0.226764338557643
30
0
41
1
10
-61.669788890028
20
-0.194439129841101
30
0
41
1
10
-62.0713188507156
20
-0.175922319090432
30
0
41
1
10
-62.5660317074295
20
-0.0991142584228157
30
0
41
1
10
-62.6682903311479
20
-0.0860601938297805
30
0
41
1
10
-62.7710652211983
20
-0.0393601932101433
30
0
41
1
10
-62.7824106913997
20
-0.0334791827027914
30
0
41
1
10
-62.7971573166668
20
-0.0216662685330675
30
0
41
1
10
-62.8018552013266
20
-0.0170508851722104
30
0
41
1
10
-62.8062097532358
20
-0.0092514148736598
30
0
41
1
10
-62.8072008706596
20
-0.006780393331411
30
0
41
1
10
-62.8082484512515
20
-0.0016667993909607
30
0
41
1
10
-62.8082910029577
20
0.0010442320272261
30
0
41
1
10
-62.8074328101159
20
0.0059371585597034
30
0
41
1
10
-62.8066364740706
20
0.0081988054900819
30
0
41
1
10
-62.8038120270865
20
0.0138593692916515
30
0
41
1
10
-62.8012989095358
20
0.0170658976253719
30
0
41
1
10
-62.7913933262466
20
0.027298602384235
30
0
41
1
10
-62.7824578935856
20
0.0328764670136366
30
0
41
1
10
-62.7384762058085
20
0.0566035527718611
30
0
41
1
10
-62.6993830440457
20
0.0670885454557606
30
0
41
1
10
-62.5081904081086
20
0.115383286102201
30
0
41
1
10
-62.3506046797199
20
0.132665140943004
30
0
41
1
10
-61.5053310476952
20
0.220917708457193
30
0
41
1
10
-60.8109209829844
20
0.232394670085569
30
0
41
1
10
-60.1023607472353
20
0.233424410073695
30
0
41
1
10
-60.0861803714795
20
0.233436164322683
30
0
41
1
10
-60.07
20
0.233436164322683
30
0
0
SPLINE
5
C4
100
AcDbEntity
8
1
62
256
6
ByLayer
370
-1
48
1
60
0
100
AcDbSpline
70
4
71
3
72
18
73
14
40
0
40
0
40
0
40
0
40
0.213207373358525
40
0.213207373358525
40
0.388847290990727
40
0.388847290990727
40
0.566127623963399
40
0.566127623963399
40
0.721054832251248
40
0.721054832251248
40
0.927260359476862
40
0.927260359476862
40
1
40
1
40
1
40
1
41
1
10
82.4793128618849
20
9.48999762845301
30
0
41
1
10
82.5209830948473
20
9.50117609371648
30
0
41
1
10
82.562193892851
20
9.51931626241918
30
0
41
1
10
82.6312498054805
20
9.56514272803955
30
0
41
1
10
82.660894166905
20
9.59118771346999
30
0
41
1
10
82.7119662775825
20
9.65172835396967
30
0
41
1
10
82.7339787512318
20
9.68726829321909
30
0
41
1
10
82.7639807798196
20
9.7568594226868
30
0
41
1
10
82.7737967997148
20
9.79133713600848
30
0
41
1
10
82.786380729004
20
9.87033385464173
30
0
41
1
10
82.786109328781
20
9.91574118415505
30
0
41
1
10
82.7772884752391
20
9.97375166937647
30
0
41
1
10
82.7741761248841
20
9.98877688560486
30
0
41
1
10
82.7703266733749
20
10.0034877600998
30
0
0
SPLINE
5
C5
100
AcDbEntity
8
1
62
256
6
ByLayer
370
-1
48
1
60
0
100
AcDbSpline
70
4
71
3
72
16
73
12
40
0
40
0
40
0
40
0
40
0.192746978482226
40
0.192746978482226
40
0.417455585892231
40
0.417455585892231
40
0.651889863641094
40
0.651889863641094
40
0.906291071841616
40
0.906291071841616
40
1
40
1
40
1
40
1
41
1
10
83.889296727495
20
10.2222139721651
30
0
41
1
10
83.8752694183345
20
10.2301288017381
30
0
41
1
10
83.8600449180032
20
10.2362097962698
30
0
41
1
10
83.8265087696154
20
10.2447037605586
30
0
41
1
10
83.8076731544963
20
10.2464349349087
30
0
41
1
10
83.7705448984271
20
10.2443043195575
30
0
41
1
10
83.7518428008674
20
10.240188771276
30
0
41
1
10
83.7159990854152
20
10.2264991757074
30
0
41
1
10
83.698669520751
20
10.2163392583349
30
0
41
1
10
83.6780957529245
20
10.1995923890064
30
0
41
1
10
83.6728016919241
20
10.1947477843944
30
0
41
1
10
83.6678264914704
20
10.1896504319875
30
0
0
SPLINE
5
C6
100
AcDbEntity
8
1
62
256
6
ByLayer
370
-1
48
1
60
0
100
AcDbSpline
70
4
71
3
72
12
73
8
40
0
40
0
40
0
40
0
40
0.333251230526631
40
0.333251230526631
40
0.686589152894841
40
0.686589152894841
40
1
40
1
40
1
40
1
41
1
10
82.7223250949166
20
8.96066545013187
30
0
41
1
10
82.7025793180047
20
8.98962757787467
30
0
41
1
10
82.6790532360426
20
9.01630122605323
30
0
41
1
10
82.6267168306001
20
9.06329043297171
30
0
41
1
10
82.5971104872018
20
9.08371647715472
30
0
41
1
10
82.539464817264
20
9.1142945965037
30
0
41
1
10
82.511224901708
20
9.12557742312143
30
0
41
1
10
82.4827253627399
20
9.13374077268514
30
0
0
SPLINE
5
C7
100
AcDbEntity
8
1
62
256
6
ByLayer
370
-1
48
1
60
0
100
AcDbSpline
70
4
71
3
72
18
73
14
40
0
40
0
40
0
40
0
40
0.213037805542811
40
0.213037805542811
40
0.388706899569823
40
0.388706899569823
40
0.56601839606348
40
0.56601839606348
40
0.720950857831283
40
0.720950857831283
40
0.927125818482493
40
0.927125818482493
40
1
40
1
40
1
40
1
41
1
10
83.077352223439
20
10.1842271992714
30
0
41
1
10
83.1085979035782
20
10.1534356214449
30
0
41
1
10
83.1455916271966
20
10.1265434543918
30
0
41
1
10
83.2208144082874
20
10.0892476201123
30
0
41
1
10
83.2585811460749
20
10.0764517858973
30
0
41
1
10
83.337012635937
20
10.0623609101868
30
0
41
1
10
83.3788725547723
20
10.0610843552915
30
0
41
1
10
83.4539470947546
20
10.0700901947975
30
0
41
1
10
83.4884872319844
20
10.0789831424615
30
0
41
1
10
83.5624478922066
20
10.1080357878564
30
0
41
1
10
83.6010443971276
20
10.1313050839916
30
0
41
1
10
83.6460080965726
20
10.1684471192333
30
0
41
1
10
83.6572421922374
20
10.1788062652708
30
0
41
1
10
83.6678264914703
20
10.1896504319876
30
0
0
SPLINE
5
C8
100
AcDbEntity
8
1
62
256
6
ByLayer
370
-1
48
1
60
0
100
AcDbSpline
70
4
71
3
72
16
73
12
40
0
40
0
40
0
40
0
40
0.0662654815062298
40
0.0662654815062298
40
0.290868239084396
40
0.290868239084396
40
0.518415635011469
40
0.518415635011469
40
0.760499541562431
40
0.760499541562431
40
1
40
1
40
1
40
1
41
1
10
83.9056513853892
20
8.43036020019747
30
0
41
1
10
83.9104560292651
20
8.43318859229507
30
0
41
1
10
83.915138556294
20
8.43623386007746
30
0
41
1
10
83.9349063986216
20
8.45038040985787
30
0
41
1
10
83.9485809516633
20
8.463732472109
30
0
41
1
10
83.9709358957718
20
8.49320199822648
30
0
41
1
10
83.9798450473719
20
8.5097198245891
30
0
41
1
10
83.9925023370777
20
8.54456351293246
30
0
41
1
10
83.9960619577313
20
8.56336739533296
30
0
41
1
10
83.997389076828
20
8.59977081932183
30
0
41
1
10
83.9952523681033
20
8.61776020830803
30
0
41
1
10
83.9906945938957
20
8.63464355414098
30
0
0
SPLINE
5
C9
100
AcDbEntity
8
1
62
256
6
ByLayer
370
-1
48
1
60
0
100
AcDbSpline
70
4
71
3
72
16
73
12
40
0
40
0
40
0
40
0
40
0.0577300422314753
40
0.0577300422314753
40
0.282451604529886
40
0.282451604529886
40
0.509637266309462
40
0.509637266309462
40
0.750967583550894
40
0.750967583550894
40
1
40
1
40
1
40
1
41
1
10
82.8714654179528
20
8.42086168099536
30
0
41
1
10
82.8756994731253
20
8.41847263939729
30
0
41
1
10
82.8800321894309
20
8.41624522189997
30
0
41
1
10
82.9014676823381
20
8.4062561685673
30
0
41
1
10
82.9199150299138
20
8.4008625605768
30
0
41
1
10
82.9568198480209
20
8.39576148733812
30
0
41
1
10
82.9757436582109
20
8.39603759476103
30
0
41
1
10
83.0126830508403
20
8.40192752611046
30
0
41
1
10
83.0310350247892
20
8.40792686898982
30
0
41
1
10
83.0645891554443
20
8.42468467516252
30
0
41
1
10
83.0800612690738
20
8.43575655282342
30
0
41
1
10
83.0931947758
20
8.44848088225379
30
0
0
SPLINE
5
CA
100
AcDbEntity
8
1
62
256
6
ByLayer
370
-1
48
1
60
0
100
AcDbSpline
70
4
71
3
72
18
73
14
40
0
40
0
40
0
40
0
40
0.211088677939301
40
0.211088677939301
40
0.38706449108617
40
0.38706449108617
40
0.564704947834814
40
0.564704947834814
40
0.719676784148014
40
0.719676784148014
40
0.92547821387626
40
0.92547821387626
40
1
40
1
40
1
40
1
41
1
10
84.2817084053855
20
9.14813368578839
30
0
41
1
10
84.2405310832617
20
9.13545676522497
30
0
41
1
10
84.199806973054
20
9.11605165958775
30
0
41
1
10
84.1310683350807
20
9.06845568954481
30
0
41
1
10
84.1013428912605
20
9.04164462523894
30
0
41
1
10
84.0500599091968
20
8.98020624800105
30
0
41
1
10
84.0279128864074
20
8.94453488190274
30
0
41
1
10
83.9976839010724
20
8.87542746375746
30
0
41
1
10
83.9877575912294
20
8.84148136288977
30
0
41
1
10
83.9749310685135
20
8.7642566932615
30
0
41
1
10
83.9750316357166
20
8.72024540805774
30
0
41
1
10
83.9836515136331
20
8.66392899014312
30
0
41
1
10
83.9867880463811
20
8.64911456338638
30
0
41
1
10
83.9906945938955
20
8.63464355414095
30
0
0
SPLINE
5
CB
100
AcDbEntity
8
1
62
256
6
ByLayer
370
-1
48
1
60
0
100
AcDbSpline
70
4
71
3
72
18
73
14
40
0
40
0
40
0
40
0
40
0.210241189576322
40
0.210241189576322
40
0.386397327985498
40
0.386397327985498
40
0.564228669195945
40
0.564228669195945
40
0.71925385343083
40
0.71925385343083
40
0.924930274640138
40
0.924930274640138
40
1
40
1
40
1
40
1
41
1
10
83.6836690438316
20
8.45390411496996
30
0
41
1
10
83.6529182872234
20
8.48268930246934
30
0
41
1
10
83.6165756372903
20
8.50776355965274
30
0
41
1
10
83.5421385092247
20
8.54290503667391
30
0
41
1
10
83.5043930486863
20
8.55505922106877
30
0
41
1
10
83.4258812732801
20
8.56853725380347
30
0
41
1
10
83.3839096798425
20
8.56984993968476
30
0
41
1
10
83.3086285988416
20
8.56156942895686
30
0
41
1
10
83.2739949159419
20
8.55330486025943
30
0
41
1
10
83.1999103382084
20
8.52617936363896
30
0
41
1
10
83.1612445488333
20
8.50440183860349
30
0
41
1
10
83.1157532914939
20
8.46916868790635
30
0
41
1
10
83.1041292983972
20
8.45907473738998
30
0
41
1
10
83.0931947758001
20
8.44848088225376
30
0
0
SPLINE
5
CC
100
AcDbEntity
8
1
62
256
6
ByLayer
370
-1
48
1
60
0
100
AcDbSpline
70
4
71
3
72
14
73
10
40
0
40
0
40
0
40
0
40
0.0474236947547179
40
0.0474236947547179
40
0.384554169196735
40
0.384554169196735
40
0.831450666353566
40
0.831450666353566
40
1
40
1
40
1
40
1
41
1
10
84.0390688908083
20
9.6703539723444
30
0
41
1
10
84.0419072471956
20
9.66621120120632
30
0
41
1
10
84.0448179429628
20
9.66212500973225
30
0
41
1
10
84.068782673428
20
9.62974538524139
30
0
41
1
10
84.0934335871195
20
9.6042748028207
30
0
41
1
10
84.1545495354707
20
9.55495932499994
30
0
41
1
10
84.1932120044326
20
9.53336444702379
30
0
41
1
10
84.2476833932361
20
9.5129002100833
30
0
41
1
10
84.2629409321871
20
9.50817654580786
30
0
41
1
10
84.2782971679721
20
9.5043664336547
30
0
0
SPLINE
5
CD
100
AcDbEntity
8
1
62
256
6
ByLayer
370
-1
48
1
60
0
100
AcDbSpline
70
4
71
3
72
14
73
10
40
0
40
0
40
0
40
0
40
0.26328737561612
40
0.26328737561612
40
0.553159463929567
40
0.553159463929567
40
0.815561831177109
40
0.815561831177109
40
1
40
1
40
1
40
1
41
1
10
82.4793128618849
20
9.48999762845298
30
0
41
1
10
82.4604718289515
20
9.48494332908385
30
0
41
1
10
82.4419824012828
20
9.47666869626661
30
0
41
1
10
82.4068926778662
20
9.45309023252915
30
0
41
1
10
82.390141038814
20
9.4367419695736
30
0
41
1
10
82.3652490317349
20
9.40035302318347
30
0
41
1
10
82.3560986416347
20
9.3802363643567
30
0
41
1
10
82.3471543234047
20
9.34438516506586
30
0
41
1
10
82.3452936025494
20
9.32881246827802
30
0
41
1
10
82.3454147132242
20
9.31336332651622
30
0
0
SPLINE
5
CE
100
AcDbEntity
8
1
62
256
6
ByLayer
370
-1
48
1
60
0
100
AcDbSpline
70
4
71
3
72
14
73
10
40
0
40
0
40
0
40
0
40
0.273664343774511
40
0.273664343774511
40
0.561675708889539
40
0.561675708889539
40
0.822491072558663
40
0.822491072558663
40
1
40
1
40
1
40
1
41
1
10
82.7830769577166
20
8.62416196147561
30
0
41
1
10
82.7781107345003
20
8.60475783483435
30
0
41
1
10
82.7763503900364
20
8.58390782757942
30
0
41
1
10
82.7803797857378
20
8.54132996558931
30
0
41
1
10
82.786678935115
20
8.51894884538089
30
0
41
1
10
82.8065433977548
20
8.47976744832775
30
0
41
1
10
82.8197006700692
20
8.46206477161016
30
0
41
1
10
82.8462720894736
20
8.43716174709908
30
0
41
1
10
82.8584705295822
20
8.42819397299786
30
0
41
1
10
82.8714654179528
20
8.42086168099536
30
0
0
SPLINE
5
CF
100
AcDbEntity
8
1
62
256
6
ByLayer
370
-1
48
1
60
0
100
AcDbSpline
70
4
71
3
72
16
73
12
40
0
40
0
40
0
40
0
40
0.056421914085014
40
0.056421914085014
40
0.280560211135416
40
0.280560211135416
40
0.507090821596717
40
0.507090821596717
40
0.747675068673944
40
0.747675068673944
40
1
40
1
40
1
40
1
41
1
10
84.4153474322235
20
9.32971232664428
30
0
41
1
10
84.4153100984943
20
9.33447469855454
30
0
41
1
10
84.4150883570913
20
9.33923676609768
30
0
41
1
10
84.4130884395721
20
9.36264713484721
30
0
41
1
10
84.4085399042741
20
9.3812103592864
30
0
41
1
10
84.3944295829831
20
9.41537497326968
30
0
41
1
10
84.384648480602
20
9.43138383457369
30
0
41
1
10
84.3608407745545
20
9.4598303734804
30
0
41
1
10
84.3463054708192
20
9.47235426104689
30
0
41
1
10
84.3143485643703
20
9.49238196901419
30
0
41
1
10
84.2964613526723
20
9.49985962730932
30
0
41
1
10
84.2782971679721
20
9.50436643365475
30
0
0
SPLINE
5
D0
100
AcDbEntity
8
1
62
256
6
ByLayer
370
-1
48
1
60
0
100
AcDbSpline
70
4
71
3
72
16
73
12
40
0
40
0
40
0
40
0
40
0.0597238120499476
40
0.0597238120499476
40
0.284391621754806
40
0.284391621754806
40
0.511636144445654
40
0.511636144445654
40
0.753115890101801
40
0.753115890101801
40
1
40
1
40
1
40
1
41
1
10
82.8551107600586
20
10.212715452963
30
0
41
1
10
82.8507768392975
20
10.2101641655943
30
0
41
1
10
82.8465430656573
20
10.2074296975842
30
0
41
1
10
82.8270897911578
20
10.193694280779
30
0
41
1
10
82.8132919913863
20
10.1802922376133
30
0
41
1
10
82.7907007801221
20
10.1505121039075
30
0
41
1
10
82.7816669898026
20
10.1337312565736
30
0
41
1
10
82.7687584845527
20
10.0981710074927
30
0
41
1
10
82.7650618195443
20
10.0788937099048
30
0
41
1
10
82.7634372844122
20
10.0407910544003
30
0
41
1
10
82.765596493108
20
10.0215643842831
30
0
41
1
10
82.7703266733748
20
10.0034877600998
30
0
0
SPLINE
5
D1
100
AcDbEntity
8
1
62
256
6
ByLayer
370
-1
48
1
60
0
100
AcDbSpline
70
4
71
3
72
12
73
8
40
0
40
0
40
0
40
0
40
0.457232493228292
40
0.457232493228292
40
0.839846419488755
40
0.839846419488755
40
1
40
1
40
1
40
1
41
1
10
83.9779455729941
20
10.0139452448592
30
0
41
1
10
83.9676152735937
20
9.97164651851304
30
0
41
1
10
83.9633489976816
20
9.92641383706629
30
0
41
1
10
83.969069123519
20
9.84257535350886
30
0
41
1
10
83.9770085477983
20
9.80315159145917
30
0
41
1
10
83.9961733580021
20
9.74968920696966
30
0
41
1
10
84.0028432635872
20
9.73407339072554
30
0
41
1
10
84.0104288644383
20
9.71894485993991
30
0
0
SPLINE
5
D2
100
AcDbEntity
8
1
62
256
6
ByLayer
370
-1
48
1
60
0
100
AcDbSpline
70
4
71
3
72
14
73
10
40
0
40
0
40
0
40
0
40
0.269984246367177
40
0.269984246367177
40
0.559017840599537
40
0.559017840599537
40
0.820739201276604
40
0.820739201276604
40
1
40
1
40
1
40
1
41
1
10
84.2817084053855
20
9.14813368578842
30
0
41
1
10
84.3009875515685
20
9.15406899658785
30
0
41
1
10
84.3199055662669
20
9.16336005294286
30
0
41
1
10
84.3551249121096
20
9.18882394167707
30
0
41
1
10
84.3716760839174
20
9.20587711704243
30
0
41
1
10
84.3961883805474
20
9.2432701131269
30
0
41
1
10
84.4051518339705
20
9.26373294923954
30
0
41
1
10
84.4137158742088
20
9.29950010678661
30
0
41
1
10
84.4154651571826
20
9.31469507416071
30
0
41
1
10
84.4153474322235
20
9.32971232664428
30
0
0
SPLINE
5
D3
100
AcDbEntity
8
1
62
256
6
ByLayer
370
-1
48
1
60
0
100
AcDbSpline
70
4
71
3
72
16
73
12
40
0
40
0
40
0
40
0
40
0.0516243864682104
40
0.0516243864682104
40
0.27580013051739
40
0.27580013051739
40
0.502096607514839
40
0.502096607514839
40
0.742222905876188
40
0.742222905876188
40
1
40
1
40
1
40
1
41
1
10
82.3454147132242
20
9.31336332651622
30
0
41
1
10
82.3454488975422
20
9.3090027003631
30
0
41
1
10
82.3456379126219
20
9.30463729745634
30
0
41
1
10
82.3474571733695
20
9.28154528455698
30
0
41
1
10
82.3518962408206
20
9.26278878767891
30
0
41
1
10
82.3658182625092
20
9.22804684337555
30
0
41
1
10
82.3755126549179
20
9.21164089181786
30
0
41
1
10
82.3991684373019
20
9.18221957306034
30
0
41
1
10
82.4136354599074
20
9.16909150420955
30
0
41
1
10
82.4458549700108
20
9.1474498030363
30
0
41
1
10
82.4641474215406
20
9.1390622001073
30
0
41
1
10
82.4827253627399
20
9.13374077268514
30
0
0
SPLINE
5
D4
100
AcDbEntity
8
1
62
256
6
ByLayer
370
-1
48
1
60
0
100
AcDbSpline
70
4
71
3
72
16
73
12
40
0
40
0
40
0
40
0
40
0.142561701955514
40
0.142561701955514
40
0.446528160975228
40
0.446528160975228
40
0.721427730135561
40
0.721427730135561
40
0.965316534572813
40
0.965316534572813
40
1
40
1
40
1
40
1
41
1
10
83.9779455729973
20
10.0139452448592
30
0
41
1
10
83.980519550181
20
10.0244847222041
30
0
41
1
10
83.9822245768087
20
10.0353645356858
30
0
41
1
10
83.98456780064
20
10.0697150661822
30
0
41
1
10
83.9817923506455
20
10.0942756986793
30
0
41
1
10
83.9675720916065
20
10.1384968128638
30
0
41
1
10
83.9567165202117
20
10.1590723776432
30
0
41
1
10
83.9298780496121
20
10.1926821240161
30
0
41
1
10
83.9142041756999
20
10.2067759486099
30
0
41
1
10
83.894395660136
20
10.2192548545914
30
0
41
1
10
83.8918630431526
20
10.220765943122
30
0
41
1
10
83.889296727495
20
10.2222139721651
30
0
0
SPLINE
5
D5
100
AcDbEntity
8
1
62
256
6
ByLayer
370
-1
48
1
60
0
100
AcDbSpline
70
4
71
3
72
14
73
10
40
0
40
0
40
0
40
0
40
0.283446082539838
40
0.283446082539838
40
0.570794204241146
40
0.570794204241146
40
0.831164093465204
40
0.831164093465204
40
1
40
1
40
1
40
1
41
1
10
83.6836690438316
20
8.4539041149699
30
0
41
1
10
83.6988453670486
20
8.43969785283076
30
0
41
1
10
83.7170624013681
20
8.42767305820416
30
0
41
1
10
83.7573826436242
20
8.41052949558511
30
0
41
1
10
83.7801760666039
20
8.40527912298208
30
0
41
1
10
83.8243083955589
20
8.40368605893235
30
0
41
1
10
83.8462494597641
20
8.4065662923139
30
0
41
1
10
83.8803210377419
20
8.41733956713534
30
0
41
1
10
83.8934529494763
20
8.42317923931262
30
0
41
1
10
83.9056513853892
20
8.43036020019747
30
0
0
SPLINE
5
D6
100
AcDbEntity
8
1
62
256
6
ByLayer
370
-1
48
1
60
0
100
AcDbSpline
70
4
71
3
72
12
73
8
40
0
40
0
40
0
40
0
40
0.366288022981346
40
0.366288022981346
40
0.765248162293296
40
0.765248162293296
40
1
40
1
40
1
40
1
41
1
10
82.7830769577219
20
8.62416196147387
30
0
41
1
10
82.7914314301828
20
8.65680472330504
30
0
41
1
10
82.7958824139258
20
8.6912925295284
30
0
41
1
10
82.7956003404439
20
8.76487365645195
30
0
41
1
10
82.7898978439505
20
8.80500641036312
30
0
41
1
10
82.7711644087425
20
8.86712880655978
30
0
41
1
10
82.7620468162635
20
8.89007056390588
30
0
41
1
10
82.7509651212855
20
8.91207456253827
30
0
0
SPLINE
5
D7
100
AcDbEntity
8
1
62
256
6
ByLayer
370
-1
48
1
60
0
100
AcDbSpline
70
4
71
3
72
14
73
10
40
0
40
0
40
0
40
0
40
0.274377594478159
40
0.274377594478159
40
0.562861047818483
40
0.562861047818483
40
0.824138747746663
40
0.824138747746663
40
1
40
1
40
1
40
1
41
1
10
83.0773522234389
20
10.1842271992713
30
0
41
1
10
83.0626198493552
20
10.1987454635928
30
0
41
1
10
83.045051992713
20
10.2111788058958
30
0
41
1
10
83.005481762284
20
10.2298222792811
30
0
41
1
10
82.9826581939076
20
10.2359304240551
30
0
41
1
10
82.9383864825923
20
10.238855064613
30
0
41
1
10
82.9163412301126
20
10.2364993536836
30
0
41
1
10
82.8815396701848
20
10.2261558383307
30
0
41
1
10
82.8678147154637
20
10.2201940024671
30
0
41
1
10
82.8551107600586
20
10.212715452963
30
0
0
LINE
5
4A
100
AcDbEntity
8
80
62
256
6
ByLayer
370
-1
48
1
60
0
100
AcDbLine
10
0
20
0
30
0
11
-10
21
0
31
0
39
0
210
0
220
0
230
1
0
LINE
5
4B
100
AcDbEntity
8
81
62
256
6
ByLayer
370
-1
48
1
60
0
100
AcDbLine
10
79.93
20
14.9
30
0
11
89.93
21
14.9
31
0
39
0
210
0
220
0
230
1
0
LINE
5
4C
100
AcDbEntity
8
SK4
62
256
6
ByLayer
370
-1
48
0.05
60
0
100
AcDbLine
10
-176.32
20
0
30
0
11
96.541269
21
0
31
0
39
0
210
0
220
0
230
1
0
LINE
5
4E
100
AcDbEntity
8
4
62
256
6
ByLayer
370
-1
48
0.05
60
0
100
AcDbLine
10
0
20
0
30
0
11
96.541269
21
0
31
0
39
0
210
0
220
0
230
1
0
LINE
5
50
100
AcDbEntity
8
SK1
62
256
6
ByLayer
370
-1
48
1
60
0
100
AcDbLine
10
-170.82
20
9.99125
30
0
11
-171.32
21
9.49125
31
0
39
0
210
0
220
0
230
1
0
LINE
5
52
100
AcDbEntity
8
SK1
62
256
6
ByLayer
370
-1
48
1
60
0
100
AcDbLine
10
-171.32
20
-9.49125
30
0
11
-170.82
21
-9.99125
31
0
39
0
210
0
220
0
230
1
0
LINE
5
53
100
AcDbEntity
8
SK1
62
256
6
ByLayer
370
-1
48
1
60
0
100
AcDbLine
10
-170.82
20
-9.99125
30
0
11
0
21
-9.99125
31
0
39
0
210
0
220
0
230
1
0
LINE
5
54
100
AcDbEntity
8
SK1
62
256
6
ByLayer
370
-1
48
1
60
0
100
AcDbLine
10
0
20
9.99125
30
0
11
-170.82
21
9.99125
31
0
39
0
210
0
220
0
230
1
0
LINE
5
55
100
AcDbEntity
8
1
62
256
6
ByLayer
370
-1
48
1
60
0
100
AcDbLine
10
0
20
-9.99125
30
0
11
75.154119
21
-9.99125
31
0
39
0
210
0
220
0
230
1
0
LINE
5
56
100
AcDbEntity
8
1
62
256
6
ByLayer
370
-1
48
1
60
0
100
AcDbLine
10
69.445823
20
9.99125
30
0
11
0
21
9.99125
31
0
39
0
210
0
220
0
230
1
0
LINE
5
57
100
AcDbEntity
8
1
62
256
6
ByLayer
370
-1
48
1
60
0
100
AcDbLine
10
75.154119
20
-9.99125
30
0
11
75.229119
21
-9.91625
31
0
39
0
210
0
220
0
230
1
0
LINE
5
58
100
AcDbEntity
8
1
62
256
6
ByLayer
370
-1
48
1
60
0
100
AcDbLine
10
75.229119
20
-9.91625
30
0
11
77.758364
21
-9.91625
31
0
39
0
210
0
220
0
230
1
0
LINE
5
59
100
AcDbEntity
8
1
62
256
6
ByLayer
370
-1
48
1
60
0
100
AcDbLine
10
83.977211
20
8.719401
30
0
11
83.978913
21
8.686917
31
0
39
0
210
0
220
0
230
1
0
LINE
5
5A
100
AcDbEntity
8
1
62
256
6
ByLayer
370
-1
48
1
60
0
100
AcDbLine
10
82.796857
20
8.714531
30
0
11
82.795186
21
8.746407
31
0
39
0
210
0
220
0
230
1
0
LINE
5
5B
100
AcDbEntity
8
1
62
256
6
ByLayer
370
-1
48
1
60
0
100
AcDbLine
10
82.785662
20
9.883399
30
0
11
82.78396
21
9.915884
31
0
39
0
210
0
220
0
230
1
0
LINE
5
5C
100
AcDbEntity
8
1
62
256
6
ByLayer
370
-1
48
1
60
0
100
AcDbLine
10
83.96605
20
9.88762
30
0
11
83.967718
21
9.855785
31
0
39
0
210
0
220
0
230
1
0
LINE
5
5D
100
AcDbEntity
8
1
62
256
6
ByLayer
370
-1
48
1
60
0
100
AcDbLine
10
85.104733
20
9.379076
30
0
11
85.103349
21
9.40549
31
0
39
0
210
0
220
0
230
1
0
LINE
5
5E
100
AcDbEntity
8
1
62
256
6
ByLayer
370
-1
48
1
60
0
100
AcDbLine
10
81.658077
20
9.224931
30
0
11
81.659461
21
9.198516
31
0
39
0
210
0
220
0
230
1
0
LINE
5
5F
100
AcDbEntity
8
1
62
256
6
ByLayer
370
-1
48
1
60
0
100
AcDbLine
10
77.758364
20
-9.91625
30
0
11
78.015421
21
-9.731308
31
0
39
0
210
0
220
0
230
1
0
LINE
5
60
100
AcDbEntity
8
1
62
256
6
ByLayer
370
-1
48
1
60
0
100
AcDbLine
10
85.299504
20
-4.490701
30
0
11
91.541269
21
0
31
0
39
0
210
0
220
0
230
1
0
LINE
5
61
100
AcDbEntity
8
1
62
256
6
ByLayer
370
-1
48
1
60
0
100
AcDbLine
10
87.375508
20
6.280277
30
0
11
87.327127
21
6.169386
31
0
39
0
210
0
220
0
230
1
0
LINE
5
62
100
AcDbEntity
8
1
62
256
6
ByLayer
370
-1
48
1
60
0
100
AcDbLine
10
87.49366
20
4.175102
30
0
11
87.496138
21
4.127808
31
0
39
0
210
0
220
0
230
1
0
LINE
5
63
100
AcDbEntity
8
1
62
256
6
ByLayer
370
-1
48
1
60
0
100
AcDbLine
10
87.329605
20
6.122092
30
0
11
86.70705
21
6.510838
31
0
39
0
210
0
220
0
230
1
0
LINE
5
64
100
AcDbEntity
8
1
62
256
6
ByLayer
370
-1
48
1
60
0
100
AcDbLine
10
79.446688
20
5.639575
30
0
11
85.299504
21
-4.490701
31
0
39
0
210
0
220
0
230
1
0
LINE
5
65
100
AcDbEntity
8
1
62
256
6
ByLayer
370
-1
48
1
60
0
100
AcDbLine
10
75.154119
20
-9.99125
30
0
11
75.154119
21
-9.622094
31
0
39
0
210
0
220
0
230
1
0
LINE
5
66
100
AcDbEntity
8
1
62
256
6
ByLayer
370
-1
48
1
60
0
100
AcDbLine
10
0
20
-0.233436
30
0
11
0
21
0.233436
31
0
39
0
210
0
220
0
230
1
0
LINE
5
67
100
AcDbEntity
8
1
62
256
6
ByLayer
370
-1
48
1
60
0
100
AcDbLine
10
0
20
-9.99125
30
0
11
0
21
-0.233436
31
0
39
0
210
0
220
0
230
1
0
LINE
5
68
100
AcDbEntity
8
1
62
256
6
ByLayer
370
-1
48
1
60
0
100
AcDbLine
10
0
20
0.233436
30
0
11
0
21
9.99125
31
0
39
0
210
0
220
0
230
1
0
LINE
5
69
100
AcDbEntity
8
1
62
256
6
ByLayer
370
-1
48
1
60
0
100
AcDbLine
10
91.541269
20
7.648971
30
0
11
91.541269
21
0
31
0
39
0
210
0
220
0
230
1
0
LINE
5
6A
100
AcDbEntity
8
1
62
256
6
ByLayer
370
-1
48
1
60
0
100
AcDbLine
10
87.327127
20
6.169386
30
0
11
86.704571
21
6.558132
31
0
39
0
210
0
220
0
230
1
0
LINE
5
6B
100
AcDbEntity
8
1
62
256
6
ByLayer
370
-1
48
1
60
0
100
AcDbLine
10
85.401052
20
4.019263
30
0
11
85.40108
21
4.011596
31
0
39
0
210
0
220
0
230
1
0
LINE
5
6C
100
AcDbEntity
8
1
62
256
6
ByLayer
370
-1
48
1
60
0
100
AcDbLine
10
86.696927
20
6.704007
30
0
11
87.375508
21
6.280277
31
0
39
0
210
0
220
0
230
1
0
LINE
5
6D
100
AcDbEntity
8
1
62
256
6
ByLayer
370
-1
48
1
60
0
100
AcDbLine
10
78.015421
20
-9.731308
30
0
11
85.299504
21
-4.490701
31
0
39
0
210
0
220
0
230
1
0
LINE
5
6E
100
AcDbEntity
8
1
62
256
6
ByLayer
370
-1
48
1
60
0
100
AcDbLine
10
86.497869
20
10.79825
30
0
11
91.541269
21
7.648971
31
0
39
0
210
0
220
0
230
1
0
LINE
5
6F
100
AcDbEntity
8
1
62
256
6
ByLayer
370
-1
48
1
60
0
100
AcDbLine
10
55.809333
20
0.233436
30
0
11
0
21
0.233436
31
0
39
0
210
0
220
0
230
1
0
LINE
5
70
100
AcDbEntity
8
1
62
256
6
ByLayer
370
-1
48
1
60
0
100
AcDbLine
10
87.329605
20
6.122092
30
0
11
87.327127
21
6.169386
31
0
39
0
210
0
220
0
230
1
0
LINE
5
71
100
AcDbEntity
8
1
62
256
6
ByLayer
370
-1
48
1
60
0
100
AcDbLine
10
0
20
-0.233436
30
0
11
56.098829
21
-0.233436
31
0
39
0
210
0
220
0
230
1
0
LINE
5
72
100
AcDbEntity
8
1
62
256
6
ByLayer
370
-1
48
1
60
0
100
AcDbLine
10
75.229119
20
-9.91625
30
0
11
75.229119
21
-9.555034
31
0
39
0
210
0
220
0
230
1
0
LINE
5
73
100
AcDbEntity
8
SK1
62
256
6
ByLayer
370
-1
48
1
60
0
100
AcDbLine
10
-60.07
20
-0.233436
30
0
11
0
21
-0.233436
31
0
39
0
210
0
220
0
230
1
0
LINE
5
74
100
AcDbEntity
8
SK1
62
256
6
ByLayer
370
-1
48
1
60
0
100
AcDbLine
10
-171.32
20
-9.49125
30
0
11
-171.32
21
9.49125
31
0
39
0
210
0
220
0
230
1
0
LINE
5
75
100
AcDbEntity
8
SK1
62
256
6
ByLayer
370
-1
48
1
60
0
100
AcDbLine
10
-60.07
20
-0.233436
30
0
11
-60.07
21
0.233436
31
0
39
0
210
0
220
0
230
1
0
LINE
5
76
100
AcDbEntity
8
SK1
62
256
6
ByLayer
370
-1
48
1
60
0
100
AcDbLine
10
0
20
-9.99125
30
0
11
0
21
-0.233436
31
0
39
0
210
0
220
0
230
1
0
LINE
5
77
100
AcDbEntity
8
SK1
62
256
6
ByLayer
370
-1
48
1
60
0
100
AcDbLine
10
0
20
0.233436
30
0
11
0
21
9.99125
31
0
39
0
210
0
220
0
230
1
0
LINE
5
78
100
AcDbEntity
8
SK1
62
256
6
ByLayer
370
-1
48
1
60
0
100
AcDbLine
10
0
20
-0.233436
30
0
11
0
21
0.233436
31
0
39
0
210
0
220
0
230
1
0
LINE
5
79
100
AcDbEntity
8
SK1
62
256
6
ByLayer
370
-1
48
1
60
0
100
AcDbLine
10
0
20
0.233436
30
0
11
-60.07
21
0.233436
31
0
39
0
210
0
220
0
230
1
0
LINE
5
7A
100
AcDbEntity
8
SK1
62
256
6
ByLayer
370
-1
48
1
60
0
100
AcDbLine
10
-170.82
20
-9.99125
30
0
11
-170.82
21
9.99125
31
0
39
0
210
0
220
0
230
1
0
LINE
5
7B
100
AcDbEntity
8
1
62
256
6
ByLayer
370
-1
48
1
60
0
100
AcDbLine
10
80.471307
20
7.397897
30
0
11
86.223421
21
3.806072
31
0
39
0
210
0
220
0
230
1
0
LINE
5
7C
100
AcDbEntity
8
1
62
256
6
ByLayer
370
-1
48
1
60
0
100
AcDbLine
10
79.930543
20
14.482617
30
0
11
80.285299
21
7.71348
31
0
39
0
210
0
220
0
230
1
0
LINE
5
7D
100
AcDbEntity
8
1
62
256
6
ByLayer
370
-1
48
1
60
0
100
AcDbLine
10
86.289312
20
11.247916
30
0
11
80.537197
21
14.839741
31
0
39
0
210
0
220
0
230
1
0
LINE
5
7E
100
AcDbEntity
8
1
62
256
6
ByLayer
370
-1
48
1
60
0
100
AcDbLine
10
86.830076
20
4.163196
30
0
11
86.47532
21
10.932333
31
0
39
0
210
0
220
0
230
1
0
LINE
5
7F
100
AcDbEntity
8
1
62
256
6
ByLayer
370
-1
48
1
60
0
100
AcDbLine
10
84.010429
20
9.718945
30
0
11
84.01202
21
9.688593
31
0
39
0
210
0
220
0
230
1
0
LINE
5
80
100
AcDbEntity
8
1
62
256
6
ByLayer
370
-1
48
1
60
0
100
AcDbLine
10
84.04066
20
9.640002
30
0
11
84.039069
21
9.670354
31
0
39
0
210
0
220
0
230
1
0
LINE
5
81
100
AcDbEntity
8
1
62
256
6
ByLayer
370
-1
48
1
60
0
100
AcDbLine
10
84.280074
20
9.470471
30
0
11
84.278297
21
9.504366
31
0
39
0
210
0
220
0
230
1
0
LINE
5
82
100
AcDbEntity
8
1
62
256
6
ByLayer
370
-1
48
1
60
0
100
AcDbLine
10
83.669604
20
10.155743
30
0
11
83.667826
21
10.18965
31
0
39
0
210
0
220
0
230
1
0
LINE
5
83
100
AcDbEntity
8
1
62
256
6
ByLayer
370
-1
48
1
60
0
100
AcDbLine
10
83.079129
20
10.15032
30
0
11
83.077352
21
10.184227
31
0
39
0
210
0
220
0
230
1
0
LINE
5
84
100
AcDbEntity
8
1
62
256
6
ByLayer
370
-1
48
1
60
0
100
AcDbLine
10
82.48109
20
9.45609
30
0
11
82.479313
21
9.489998
31
0
39
0
210
0
220
0
230
1
0
LINE
5
85
100
AcDbEntity
8
1
62
256
6
ByLayer
370
-1
48
1
60
0
100
AcDbLine
10
82.784853
20
8.590266
30
0
11
82.783077
21
8.624162
31
0
39
0
210
0
220
0
230
1
0
LINE
5
86
100
AcDbEntity
8
1
62
256
6
ByLayer
370
-1
48
1
60
0
100
AcDbLine
10
83.992472
20
8.600736
30
0
11
83.990695
21
8.634644
31
0
39
0
210
0
220
0
230
1
0
LINE
5
87
100
AcDbEntity
8
2
62
256
6
ByLayer
370
-1
48
1
60
1
100
AcDbLine
10
79.93
20
0
30
0
11
79.931
21
0.001
31
0
39
0
210
0
220
0
230
1
0
MTEXT
5
D8
100
AcDbEntity
8
SK6
62
256
6
ByLayer
370
-1
48
1
60
0
100
AcDbMText
10
-39.014365
20
-23.320625
30
0
210
0
220
0
230
1
1
\W00.780;\fsimplex.shx,bigfont.shx;A20S-SDUCR 07-ERX 
40
3.5
41
0
44
1.084337
50
0
71
7
72
5
7
DEFAULT
0
DIMENSION
5
10B
100
AcDbEntity
8
2
62
256
6
ByLayer
370
-3
48
1
60
0
100
AcDbDimension
2
DimnDraft3D1
10
102.18
20
0
30
0
11
102.18
21
2.849342
31
0
70
32
71
5
72
1
41
1
210
0
220
0
230
1
3
Standard
100
AcDbAlignedDimension
13
81.93
23
14.9
33
0
14
81.93
24
0
34
0
50
90
100
AcDbRotatedDimension
1001
ACAD
1000
DSTYLE
1002
{
1070
    74
1070
     0
1070
   279
1070
     0
1070
   172
1070
     1
1070
   173
1070
     1
1070
   340
1005
D9
1070
    77
1070
     1
1070
    73
1070
     0
1070
   171
1070
     4
1070
   274
1070
     4
1070
   177
1070
     2
1070
   176
1070
     2
1070
   178
1070
     7
1070
    78
1070
     8
1070
    41
1041
3.175
1070
   147
1041
2.25
1070
    42
1041
2.0
1070
    44
1041
2.0
1070
   140
1041
4.5
1070
   343
1005
10C
1070
   344
1005
10C
1002
}
0
DIMENSION
5
121
100
AcDbEntity
8
SK2
62
256
6
ByLayer
370
-3
48
1
60
0
100
AcDbDimension
2
DimnDraft3D2
10
-181.07
20
9.99125
30
0
11
-181.07
21
-4.784211
31
0
70
32
71
5
72
1
41
1
210
0
220
0
230
1
3
Standard
100
AcDbAlignedDimension
13
-173.32
23
-9.99125
33
0
14
-173.32
24
9.99125
34
0
50
90
100
AcDbRotatedDimension
1001
ACAD
1000
DSTYLE
1002
{
1070
    74
1070
     0
1070
   279
1070
     0
1070
   172
1070
     1
1070
   173
1070
     1
1070
   340
1005
D9
1070
    77
1070
     1
1070
    73
1070
     0
1070
   171
1070
     4
1070
   274
1070
     4
1070
   177
1070
     2
1070
   176
1070
     2
1070
   178
1070
     7
1070
    78
1070
     8
1070
    41
1041
3.175
1070
   147
1041
2.25
1070
    42
1041
2.0
1070
    44
1041
2.0
1070
   140
1041
4.5
1070
   343
1005
10C
1070
   344
1005
10C
1002
}
0
DIMENSION
5
12F
100
AcDbEntity
8
SK2
62
256
6
ByLayer
370
-3
48
1
60
0
100
AcDbDimension
2
DimnDraft3D3
10
-171.32
20
27.65
30
0
11
-52.510132
21
27.65
31
0
70
32
71
5
72
1
41
1
210
0
220
0
230
1
3
Standard
100
AcDbAlignedDimension
13
79.93
23
16.9
33
0
14
-171.32
24
11.99125
34
0
50
0
100
AcDbRotatedDimension
1001
ACAD
1000
DSTYLE
1002
{
1070
   279
1070
     0
1070
   172
1070
     1
1070
   173
1070
     1
1070
   340
1005
D9
1070
    77
1070
     1
1070
    73
1070
     0
1070
   171
1070
     4
1070
   274
1070
     4
1070
   177
1070
     2
1070
   176
1070
     2
1070
   178
1070
     7
1070
    78
1070
     8
1070
    41
1041
3.175
1070
   147
1041
2.25
1070
    42
1041
2.0
1070
    44
1041
2.0
1070
   140
1041
4.5
1070
   343
1005
10C
1070
   344
1005
10C
1002
}
0
DIMENSION
5
13D
100
AcDbEntity
8
2
62
256
6
ByLayer
370
-3
48
1
60
0
100
AcDbDimension
2
DimnDraft3D4
10
78.954716
20
33.509526
30
0
11
99.359657
21
28.907196
31
0
70
34
71
5
72
1
41
1
210
0
220
0
230
1
3
Standard
100
AcDb2LineAngularDimension
13
81.93
23
0
33
0
14
114.266389
24
0
34
0
15
79.825328
25
16.897259
35
0
16
105.529853
26
26.153745
36
0
40
0
0
ENDSEC
0
SECTION
2
OBJECTS
0
DICTIONARY
5
16e
330
0
100
AcDbDictionary
280
0
281
1
3
ACAD_GROUP
350
16f
3
ACAD_MLINESTYLE
350
170
0
DICTIONARY
5
16f
330
0
100
AcDbDictionary
280
0
281
1
0
DICTIONARY
5
170
330
0
100
AcDbDictionary
280
0
281
1
3
Standard
350
18
0
MLINESTYLE
5
18
330
170
100
AcDbMlineStyle
2
Standard
70
0
3

62
256
51
90
52
90
71
2
49
-0.5
62
256
6
ByLayer
49
0.5
62
256
6
ByLayer
0
RASTERVARIABLES
5
15c
330

100
AcDbRasterVariables
90
0
70
1
71
1
72
1
0
ENDSEC
0
EOF
