  0
SECTION
  2
HEADER
  9
$ACADVER
  1
AC1015
  9
$ACADMAINTVER
 70
    20
  9
$DWGCODEPAGE
  3
ANSI_1252
  9
$INSBASE
 10
0.0
 20
0.0
 30
0.0
  9
$EXTMIN
 10
-135.0229846367534
 20
-57.30045652456489
 30
0.0
  9
$EXTMAX
 10
133.111735517449
 20
81.86999999999999
 30
0.0
  9
$LIMMIN
 10
0.0
 20
0.0
  9
$LIMMAX
 10
0.0
 20
0.0
  9
$ORTHOMODE
 70
     0
  9
$REGENMODE
 70
     1
  9
$FILLMODE
 70
     1
  9
$QTEXTMODE
 70
     0
  9
$MIRRTEXT
 70
     1
  9
$LTSCALE
 40
0.5
  9
$ATTMODE
 70
     1
  9
$TEXTSIZE
 40
0.0
  9
$TRACEWID
 40
0.05
  9
$TEXTSTYLE
  7
STANDARD
  9
$CLAYER
  8
81
  9
$CELTYPE
  6
CONTINUOUS
  9
$CECOLOR
 62
   256
  9
$CELTSCALE
 40
1.0
  9
$DISPSILH
 70
     0
  9
$DIMSCALE
 40
1.0
  9
$DIMASZ
 40
0.18
  9
$DIMEXO
 40
0.0625
  9
$DIMDLI
 40
0.38
  9
$DIMRND
 40
0.0
  9
$DIMDLE
 40
0.0
  9
$DIMEXE
 40
0.18
  9
$DIMTP
 40
0.0
  9
$DIMTM
 40
0.0
  9
$DIMTXT
 40
0.18
  9
$DIMCEN
 40
0.09
  9
$DIMTSZ
 40
0.0
  9
$DIMTOL
 70
     0
  9
$DIMLIM
 70
     0
  9
$DIMTIH
 70
     1
  9
$DIMTOH
 70
     1
  9
$DIMSE1
 70
     0
  9
$DIMSE2
 70
     0
  9
$DIMTAD
 70
     0
  9
$DIMZIN
 70
     0
  9
$DIMBLK
  1

  9
$DIMASO
 70
     1
  9
$DIMSHO
 70
     1
  9
$DIMPOST
  1

  9
$DIMAPOST
  1

  9
$DIMALT
 70
     0
  9
$DIMALTD
 70
     2
  9
$DIMALTF
 40
25.4
  9
$DIMLFAC
 40
1.0
  9
$DIMTOFL
 70
     0
  9
$DIMTVP
 40
0.0
  9
$DIMTIX
 70
     0
  9
$DIMSOXD
 70
     0
  9
$DIMSAH
 70
     0
  9
$DIMBLK1
  1

  9
$DIMBLK2
  1

  9
$DIMSTYLE
  2
STANDARD
  9
$DIMCLRD
 70
     0
  9
$DIMCLRE
 70
     0
  9
$DIMCLRT
 70
     0
  9
$DIMTFAC
 40
1.0
  9
$DIMGAP
 40
0.09
  9
$DIMJUST
 70
     0
  9
$DIMSD1
 70
     0
  9
$DIMSD2
 70
     0
  9
$DIMTOLJ
 70
     1
  9
$DIMTZIN
 70
     0
  9
$DIMALTZ
 70
     0
  9
$DIMALTTZ
 70
     0
  9
$DIMUPT
 70
     0
  9
$DIMDEC
 70
     4
  9
$DIMTDEC
 70
     4
  9
$DIMALTU
 70
     2
  9
$DIMALTTD
 70
     2
  9
$DIMTXSTY
  7
STANDARD
  9
$DIMAUNIT
 70
     0
  9
$DIMADEC
 70
     0
  9
$DIMALTRND
 40
0.0
  9
$DIMAZIN
 70
     0
  9
$DIMDSEP
 70
    46
  9
$DIMATFIT
 70
     3
  9
$DIMFRAC
 70
     0
  9
$DIMLDRBLK
  1

  9
$DIMLUNIT
 70
     2
  9
$DIMLWD
 70
    -2
  9
$DIMLWE
 70
    -2
  9
$DIMTMOVE
 70
     0
  9
$LUNITS
 70
     2
  9
$LUPREC
 70
     4
  9
$SKETCHINC
 40
0.1
  9
$FILLETRAD
 40
0.0
  9
$AUNITS
 70
     0
  9
$AUPREC
 70
     0
  9
$MENU
  1
acad
  9
$ELEVATION
 40
0.0
  9
$PELEVATION
 40
0.0
  9
$THICKNESS
 40
0.0
  9
$LIMCHECK
 70
     0
  9
$CHAMFERA
 40
0.0
  9
$CHAMFERB
 40
0.0
  9
$CHAMFERC
 40
0.0
  9
$CHAMFERD
 40
0.0
  9
$SKPOLY
 70
     0
  9
$TDCREATE
 40
2305814.042176054
  9
$TDUCREATE
 40
2305814.000509387
  9
$TDUPDATE
 40
2457709.367053669
  9
$TDUUPDATE
 40
2457709.325387003
  9
$TDINDWG
 40
0.0145961806
  9
$TDUSRTIMER
 40
0.0145954514
  9
$USRTIMER
 70
     1
  9
$ANGBASE
 50
0.0
  9
$ANGDIR
 70
     0
  9
$PDMODE
 70
     0
  9
$PDSIZE
 40
0.0
  9
$PLINEWID
 40
0.0
  9
$SPLFRAME
 70
     0
  9
$SPLINETYPE
 70
     6
  9
$SPLINESEGS
 70
     8
  9
$HANDSEED
  5
537
  9
$SURFTAB1
 70
     6
  9
$SURFTAB2
 70
     6
  9
$SURFTYPE
 70
     6
  9
$SURFU
 70
     6
  9
$SURFV
 70
     6
  9
$UCSBASE
  2

  9
$UCSNAME
  2

  9
$UCSORG
 10
0.0
 20
0.0
 30
0.0
  9
$UCSXDIR
 10
1.0
 20
0.0
 30
0.0
  9
$UCSYDIR
 10
0.0
 20
1.0
 30
0.0
  9
$UCSORTHOREF
  2

  9
$UCSORTHOVIEW
 70
     0
  9
$UCSORGTOP
 10
0.0
 20
0.0
 30
0.0
  9
$UCSORGBOTTOM
 10
0.0
 20
0.0
 30
0.0
  9
$UCSORGLEFT
 10
0.0
 20
0.0
 30
0.0
  9
$UCSORGRIGHT
 10
0.0
 20
0.0
 30
0.0
  9
$UCSORGFRONT
 10
0.0
 20
0.0
 30
0.0
  9
$UCSORGBACK
 10
0.0
 20
0.0
 30
0.0
  9
$PUCSBASE
  2

  9
$PUCSNAME
  2

  9
$PUCSORG
 10
0.0
 20
0.0
 30
0.0
  9
$PUCSXDIR
 10
1.0
 20
0.0
 30
0.0
  9
$PUCSYDIR
 10
0.0
 20
1.0
 30
0.0
  9
$PUCSORTHOREF
  2

  9
$PUCSORTHOVIEW
 70
     0
  9
$PUCSORGTOP
 10
0.0
 20
0.0
 30
0.0
  9
$PUCSORGBOTTOM
 10
0.0
 20
0.0
 30
0.0
  9
$PUCSORGLEFT
 10
0.0
 20
0.0
 30
0.0
  9
$PUCSORGRIGHT
 10
0.0
 20
0.0
 30
0.0
  9
$PUCSORGFRONT
 10
0.0
 20
0.0
 30
0.0
  9
$PUCSORGBACK
 10
0.0
 20
0.0
 30
0.0
  9
$USERI1
 70
     0
  9
$USERI2
 70
     0
  9
$USERI3
 70
     0
  9
$USERI4
 70
     0
  9
$USERI5
 70
     0
  9
$USERR1
 40
11.0
  9
$USERR2
 40
0.0
  9
$USERR3
 40
0.0
  9
$USERR4
 40
0.0
  9
$USERR5
 40
0.0
  9
$WORLDVIEW
 70
     1
  9
$SHADEDGE
 70
     3
  9
$SHADEDIF
 70
    70
  9
$TILEMODE
 70
     1
  9
$MAXACTVP
 70
    16
  9
$PINSBASE
 10
0.0
 20
0.0
 30
0.0
  9
$PLIMCHECK
 70
     0
  9
$PEXTMIN
 10
1.000000000000000E+20
 20
1.000000000000000E+20
 30
1.000000000000000E+20
  9
$PEXTMAX
 10
-1.000000000000000E+20
 20
-1.000000000000000E+20
 30
-1.000000000000000E+20
  9
$PLIMMIN
 10
0.0
 20
0.0
  9
$PLIMMAX
 10
12.0
 20
9.0
  9
$UNITMODE
 70
     0
  9
$VISRETAIN
 70
     0
  9
$PLINEGEN
 70
     1
  9
$PSLTSCALE
 70
     0
  9
$TREEDEPTH
 70
  3020
  9
$CMLSTYLE
  2
Standard
  9
$CMLJUST
 70
     0
  9
$CMLSCALE
 40
1.0
  9
$PROXYGRAPHICS
 70
     1
  9
$MEASUREMENT
 70
     0
  9
$CELWEIGHT
370
    -1
  9
$ENDCAPS
280
     0
  9
$JOINSTYLE
280
     0
  9
$LWDISPLAY
290
     0
  9
$INSUNITS
 70
     0
  9
$HYPERLINKBASE
  1

  9
$STYLESHEET
  1

  9
$XEDIT
290
     1
  9
$CEPSNTYPE
380
     0
  9
$PSTYLEMODE
290
     1
  9
$FINGERPRINTGUID
  2
{39D285ED-AF1C-4400-8C9E-E98AADCC6FC9}
  9
$VERSIONGUID
  2
{784CEAE9-D2E9-48D1-BBA6-021E6F0FF901}
  9
$EXTNAMES
290
     1
  9
$PSVPSCALE
 40
0.0
  9
$OLESTARTUP
290
     0
  0
ENDSEC
  0
SECTION
  2
CLASSES
  0
CLASS
  1
ACDBDICTIONARYWDFLT
  2
AcDbDictionaryWithDefault
  3
ObjectDBX Classes
 90
        0
280
     0
281
     0
  0
CLASS
  1
MATERIAL
  2
AcDbMaterial
  3
ObjectDBX Classes
 90
     1153
280
     0
281
     0
  0
CLASS
  1
VISUALSTYLE
  2
AcDbVisualStyle
  3
ObjectDBX Classes
 90
     4095
280
     0
281
     0
  0
CLASS
  1
SCALE
  2
AcDbScale
  3
ObjectDBX Classes
 90
     1153
280
     0
281
     0
  0
CLASS
  1
TABLESTYLE
  2
AcDbTableStyle
  3
ObjectDBX Classes
 90
     4095
280
     0
281
     0
  0
CLASS
  1
MLEADERSTYLE
  2
AcDbMLeaderStyle
  3
ACDB_MLEADERSTYLE_CLASS
 90
     4095
280
     0
281
     0
  0
CLASS
  1
DICTIONARYVAR
  2
AcDbDictionaryVar
  3
ObjectDBX Classes
 90
        0
280
     0
281
     0
  0
CLASS
  1
CELLSTYLEMAP
  2
AcDbCellStyleMap
  3
ObjectDBX Classes
 90
     1152
280
     0
281
     0
  0
CLASS
  1
ACDBPLACEHOLDER
  2
AcDbPlaceHolder
  3
ObjectDBX Classes
 90
        0
280
     0
281
     0
  0
CLASS
  1
LAYOUT
  2
AcDbLayout
  3
ObjectDBX Classes
 90
        0
280
     0
281
     0
  0
ENDSEC
  0
SECTION
  2
TABLES
  0
TABLE
  2
VPORT
  5
1F0
330
0
100
AcDbSymbolTable
 70
     1
  0
VPORT
  5
263
330
1F0
100
AcDbSymbolTableRecord
100
AcDbViewportTableRecord
  2
*ACTIVE
 70
     0
 10
0.0
 20
0.0
 11
1.0
 21
1.0
 12
38.58089394507954
 22
-13.17197182256603
 13
0.0
 23
0.0
 14
1.0
 24
1.0
 15
0.0
 25
0.0
 16
0.0
 26
0.0
 36
1.0
 17
0.0
 27
0.0
 37
0.0
 40
253.5407769728699
 41
2.141284403669724
 42
50.0
 43
0.0
 44
0.0
 50
0.0
 51
0.0
 71
     0
 72
   100
 73
     1
 74
     1
 75
     0
 76
     0
 77
     0
 78
     0
281
     0
 65
     1
110
0.0
120
0.0
130
0.0
111
1.0
121
0.0
131
0.0
112
0.0
122
1.0
132
0.0
 79
     0
146
0.0
  0
ENDTAB
  0
TABLE
  2
LTYPE
  5
1ED
330
0
100
AcDbSymbolTable
 70
     8
  0
LTYPE
  5
24D
330
1ED
100
AcDbSymbolTableRecord
100
AcDbLinetypeTableRecord
  2
ByBlock
 70
     0
  3

 72
    65
 73
     0
 40
0.0
  0
LTYPE
  5
24E
330
1ED
100
AcDbSymbolTableRecord
100
AcDbLinetypeTableRecord
  2
ByLayer
 70
     0
  3

 72
    65
 73
     0
 40
0.0
  0
LTYPE
  5
24F
330
1ED
100
AcDbSymbolTableRecord
100
AcDbLinetypeTableRecord
  2
CONTINUOUS
 70
     0
  3
Solid line
 72
    65
 73
     0
 40
0.0
  0
LTYPE
  5
264
330
1ED
100
AcDbSymbolTableRecord
100
AcDbLinetypeTableRecord
  2
DASHED
 70
     0
  3
Dashed
 72
    65
 73
     2
 40
15.0
 49
12.0
 74
     0
 49
-3.0
 74
     0
  0
LTYPE
  5
265
330
1ED
100
AcDbSymbolTableRecord
100
AcDbLinetypeTableRecord
  2
DOTTED
 70
     0
  3
Dotted
 72
    65
 73
     2
 40
3.5
 49
0.5
 74
     0
 49
-3.0
 74
     0
  0
LTYPE
  5
266
330
1ED
100
AcDbSymbolTableRecord
100
AcDbLinetypeTableRecord
  2
DOT_CENTER
 70
     0
  3
Dot_Center
 72
    65
 73
     4
 40
2.0
 49
1.25
 74
     0
 49
-0.25
 74
     0
 49
0.25
 74
     0
 49
-0.25
 74
     0
  0
LTYPE
  5
267
330
1ED
100
AcDbSymbolTableRecord
100
AcDbLinetypeTableRecord
  2
LONG_DASHED
 70
     0
  3
Long_Dashed
 72
    65
 73
     2
 40
2.0
 49
1.5
 74
     0
 49
-0.5
 74
     0
  0
LTYPE
  5
268
330
1ED
100
AcDbSymbolTableRecord
100
AcDbLinetypeTableRecord
  2
DASH_CENTER
 70
     0
  3
Dash_Center
 72
    65
 73
     4
 40
36.0
 49
24.0
 74
     0
 49
-3.0
 74
     0
 49
6.0
 74
     0
 49
-3.0
 74
     0
  0
LTYPE
  5
269
330
1ED
100
AcDbSymbolTableRecord
100
AcDbLinetypeTableRecord
  2
PHANTOM
 70
     0
  3
Phantom
 72
    65
 73
     6
 40
2.5
 49
1.25
 74
     0
 49
-0.25
 74
     0
 49
0.25
 74
     0
 49
-0.25
 74
     0
 49
0.25
 74
     0
 49
-0.25
 74
     0
  0
LTYPE
  5
26A
330
1ED
100
AcDbSymbolTableRecord
100
AcDbLinetypeTableRecord
  2
CENTER_DASH_DASH
 70
     0
  3
Center_Dash_Dash
 72
    65
 73
     6
 40
22.0
 49
12.0
 74
     0
 49
-3.0
 74
     0
 49
0.5
 74
     0
 49
-3.0
 74
     0
 49
0.5
 74
     0
 49
-3.0
 74
     0
  0
ENDTAB
  0
TABLE
  2
LAYER
  5
1EA
330
0
100
AcDbSymbolTable
 70
    13
  0
LAYER
  5
247
102
{ACAD_XDICTIONARY
360
3CC
102
}
330
1EA
100
AcDbSymbolTableRecord
100
AcDbLayerTableRecord
  2
0
 70
     0
 62
     7
  6
CONTINUOUS
370
    -3
390
1F7
  0
LAYER
  5
262
102
{ACAD_XDICTIONARY
360
3CE
102
}
330
1EA
100
AcDbSymbolTableRecord
100
AcDbLayerTableRecord
  2
81
 70
     0
 62
     3
  6
CONTINUOUS
370
    -3
390
1F7
  0
LAYER
  5
26B
102
{ACAD_XDICTIONARY
360
3D0
102
}
330
1EA
100
AcDbSymbolTableRecord
100
AcDbLayerTableRecord
  2
4
 70
     0
 62
     2
  6
DOT_CENTER
370
    -3
390
1F7
  0
LAYER
  5
26C
102
{ACAD_XDICTIONARY
360
3D2
102
}
330
1EA
100
AcDbSymbolTableRecord
100
AcDbLayerTableRecord
  2
SK2
 70
     0
 62
     7
  6
CONTINUOUS
370
    -3
390
1F7
  0
LAYER
  5
26D
102
{ACAD_XDICTIONARY
360
3D4
102
}
330
1EA
100
AcDbSymbolTableRecord
100
AcDbLayerTableRecord
  2
2
 70
     0
 62
     7
  6
CONTINUOUS
370
    -3
390
1F7
  0
LAYER
  5
26E
102
{ACAD_XDICTIONARY
360
3D6
102
}
330
1EA
100
AcDbSymbolTableRecord
100
AcDbLayerTableRecord
  2
SK3
 70
     0
 62
     1
  6
DASHED
370
    -3
390
1F7
  0
LAYER
  5
26F
102
{ACAD_XDICTIONARY
360
3D8
102
}
330
1EA
100
AcDbSymbolTableRecord
100
AcDbLayerTableRecord
  2
1
 70
     0
 62
     4
  6
CONTINUOUS
370
    -3
390
1F7
  0
LAYER
  5
270
102
{ACAD_XDICTIONARY
360
3DA
102
}
330
1EA
100
AcDbSymbolTableRecord
100
AcDbLayerTableRecord
  2
6
 70
     0
 62
     5
  6
CONTINUOUS
370
    -3
390
1F7
  0
LAYER
  5
271
102
{ACAD_XDICTIONARY
360
3DC
102
}
330
1EA
100
AcDbSymbolTableRecord
100
AcDbLayerTableRecord
  2
SK4
 70
     0
 62
     2
  6
DOT_CENTER
370
    -3
390
1F7
  0
LAYER
  5
272
102
{ACAD_XDICTIONARY
360
3DE
102
}
330
1EA
100
AcDbSymbolTableRecord
100
AcDbLayerTableRecord
  2
80
 70
     0
 62
     6
  6
CONTINUOUS
370
    -3
390
1F7
  0
LAYER
  5
273
102
{ACAD_XDICTIONARY
360
3E0
102
}
330
1EA
100
AcDbSymbolTableRecord
100
AcDbLayerTableRecord
  2
SK1
 70
     0
 62
     4
  6
CONTINUOUS
370
    -3
390
1F7
  0
LAYER
  5
274
102
{ACAD_XDICTIONARY
360
3E2
102
}
330
1EA
100
AcDbSymbolTableRecord
100
AcDbLayerTableRecord
  2
SK6
 70
     0
 62
     5
  6
CONTINUOUS
370
    -3
390
1F7
  0
LAYER
  5
2AC
330
1EA
100
AcDbSymbolTableRecord
100
AcDbLayerTableRecord
  2
Defpoints
 70
     0
 62
     7
  6
CONTINUOUS
290
     0
370
    -3
390
1F7
  0
ENDTAB
  0
TABLE
  2
STYLE
  5
1EB
330
0
100
AcDbSymbolTable
 70
     3
  0
STYLE
  5
248
330
1EB
100
AcDbSymbolTableRecord
100
AcDbTextStyleTableRecord
  2
STANDARD
 70
     0
 40
0.0
 41
1.0
 50
0.0
 71
     0
 42
0.0
  3
txt
  4

  0
STYLE
  5
24C
330
1EB
100
AcDbSymbolTableRecord
100
AcDbTextStyleTableRecord
  2
Annotative
 70
     0
 40
0.0
 41
1.0
 50
0.0
 71
     0
 42
0.2
  3
txt
  4

1001
AcadAnnotative
1000
AnnotativeData
1002
{
1070
     1
1070
     1
1002
}
  0
STYLE
  5
275
330
1EB
100
AcDbSymbolTableRecord
100
AcDbTextStyleTableRecord
  2
CONVERTER_1
 70
     0
 40
0.0
 41
1.0
 50
0.0
 71
     0
 42
0.0
  3
simplex.shx
  4

  0
ENDTAB
  0
TABLE
  2
VIEW
  5
1EE
330
0
100
AcDbSymbolTable
 70
     0
  0
ENDTAB
  0
TABLE
  2
UCS
  5
1EF
330
0
100
AcDbSymbolTable
 70
     0
  0
ENDTAB
  0
TABLE
  2
APPID
  5
1F1
330
0
100
AcDbSymbolTable
 70
     4
  0
APPID
  5
249
330
1F1
100
AcDbSymbolTableRecord
100
AcDbRegAppTableRecord
  2
ACAD
 70
     0
  0
APPID
  5
250
330
1F1
100
AcDbSymbolTableRecord
100
AcDbRegAppTableRecord
  2
AcadAnnotative
 70
     0
  0
APPID
  5
276
330
1F1
100
AcDbSymbolTableRecord
100
AcDbRegAppTableRecord
  2
DCO15
 70
     0
  0
APPID
  5
41D
330
1F1
100
AcDbSymbolTableRecord
100
AcDbRegAppTableRecord
  2
ACAD_MLEADERVER
 70
     0
  0
ENDTAB
  0
TABLE
  2
DIMSTYLE
  5
1F2
330
0
100
AcDbSymbolTable
 70
     2
100
AcDbDimStyleTable
 71
     1
340
24A
  0
DIMSTYLE
105
24A
102
{ACAD_REACTORS
330
2AB
330
301
330
356
330
396
330
426
330
434
330
442
330
450
102
}
330
1F2
100
AcDbSymbolTableRecord
100
AcDbDimStyleTableRecord
  2
STANDARD
 70
     0
279
     2
340
248
  0
DIMSTYLE
105
24B
330
1F2
100
AcDbSymbolTableRecord
100
AcDbDimStyleTableRecord
  2
Annotative
 70
     0
340
248
1001
AcadAnnotative
1000
AnnotativeData
1002
{
1070
     1
1070
     1
1002
}
  0
ENDTAB
  0
TABLE
  2
BLOCK_RECORD
  5
1E9
330
0
100
AcDbSymbolTable
 70
    33
  0
BLOCK_RECORD
  5
25E
330
1E9
100
AcDbSymbolTableRecord
100
AcDbBlockTableRecord
  2
*Model_Space
340
261
  0
BLOCK_RECORD
  5
25A
330
1E9
100
AcDbSymbolTableRecord
100
AcDbBlockTableRecord
  2
*Paper_Space
340
25D
  0
BLOCK_RECORD
  5
279
330
1E9
100
AcDbSymbolTableRecord
100
AcDbBlockTableRecord
  2
$MODEL_SPACE
340
0
  0
BLOCK_RECORD
  5
27B
330
1E9
100
AcDbSymbolTableRecord
100
AcDbBlockTableRecord
  2
$PAPER_SPACE
340
0
  0
BLOCK_RECORD
  5
27D
330
1E9
100
AcDbSymbolTableRecord
100
AcDbBlockTableRecord
  2
81
340
0
  0
BLOCK_RECORD
  5
27F
330
1E9
100
AcDbSymbolTableRecord
100
AcDbBlockTableRecord
  2
80
340
0
  0
BLOCK_RECORD
  5
281
330
1E9
100
AcDbSymbolTableRecord
100
AcDbBlockTableRecord
  2
*U4
340
0
  0
BLOCK_RECORD
  5
283
330
1E9
100
AcDbSymbolTableRecord
100
AcDbBlockTableRecord
  2
*U5
340
0
  0
BLOCK_RECORD
  5
285
330
1E9
100
AcDbSymbolTableRecord
100
AcDbBlockTableRecord
  2
*U6
340
0
  0
BLOCK_RECORD
  5
287
330
1E9
100
AcDbSymbolTableRecord
100
AcDbBlockTableRecord
  2
*U7
340
0
  0
BLOCK_RECORD
  5
289
330
1E9
100
AcDbSymbolTableRecord
100
AcDbBlockTableRecord
  2
*U8
340
0
  0
BLOCK_RECORD
  5
28B
330
1E9
100
AcDbSymbolTableRecord
100
AcDbBlockTableRecord
  2
*U9
340
0
  0
BLOCK_RECORD
  5
28D
330
1E9
100
AcDbSymbolTableRecord
100
AcDbBlockTableRecord
  2
*U10
340
0
  0
BLOCK_RECORD
  5
28F
330
1E9
100
AcDbSymbolTableRecord
100
AcDbBlockTableRecord
  2
*U11
340
0
  0
BLOCK_RECORD
  5
291
330
1E9
100
AcDbSymbolTableRecord
100
AcDbBlockTableRecord
  2
*U12
340
0
  0
BLOCK_RECORD
  5
293
330
1E9
100
AcDbSymbolTableRecord
100
AcDbBlockTableRecord
  2
*U13
340
0
  0
BLOCK_RECORD
  5
295
330
1E9
100
AcDbSymbolTableRecord
100
AcDbBlockTableRecord
  2
*U14
340
0
  0
BLOCK_RECORD
  5
297
330
1E9
100
AcDbSymbolTableRecord
100
AcDbBlockTableRecord
  2
*U15
340
0
  0
BLOCK_RECORD
  5
299
330
1E9
100
AcDbSymbolTableRecord
100
AcDbBlockTableRecord
  2
*U16
340
0
  0
BLOCK_RECORD
  5
29B
330
1E9
100
AcDbSymbolTableRecord
100
AcDbBlockTableRecord
  2
*U17
340
0
  0
BLOCK_RECORD
  5
29D
330
1E9
100
AcDbSymbolTableRecord
100
AcDbBlockTableRecord
  2
*U18
340
0
  0
BLOCK_RECORD
  5
29F
330
1E9
100
AcDbSymbolTableRecord
100
AcDbBlockTableRecord
  2
*U19
340
0
  0
BLOCK_RECORD
  5
2A1
330
1E9
100
AcDbSymbolTableRecord
100
AcDbBlockTableRecord
  2
*U20
340
0
  0
BLOCK_RECORD
  5
2A3
330
1E9
100
AcDbSymbolTableRecord
100
AcDbBlockTableRecord
  2
*U21
340
0
  0
BLOCK_RECORD
  5
2A5
330
1E9
100
AcDbSymbolTableRecord
100
AcDbBlockTableRecord
  2
*U22
340
0
  0
BLOCK_RECORD
  5
2A7
330
1E9
100
AcDbSymbolTableRecord
100
AcDbBlockTableRecord
  2
*U23
340
0
  0
BLOCK_RECORD
  5
2A9
330
1E9
100
AcDbSymbolTableRecord
100
AcDbBlockTableRecord
  2
*U24
340
0
  0
BLOCK_RECORD
  5
2AD
330
1E9
100
AcDbSymbolTableRecord
100
AcDbBlockTableRecord
  2
*D25
340
0
  0
BLOCK_RECORD
  5
302
330
1E9
100
AcDbSymbolTableRecord
100
AcDbBlockTableRecord
  2
*D26
340
0
  0
BLOCK_RECORD
  5
357
330
1E9
100
AcDbSymbolTableRecord
100
AcDbBlockTableRecord
  2
*D27
340
0
  0
BLOCK_RECORD
  5
397
330
1E9
100
AcDbSymbolTableRecord
100
AcDbBlockTableRecord
  2
*D28
340
0
  0
BLOCK_RECORD
  5
427
330
1E9
100
AcDbSymbolTableRecord
100
AcDbBlockTableRecord
  2
*D29
340
0
  0
BLOCK_RECORD
  5
435
330
1E9
100
AcDbSymbolTableRecord
100
AcDbBlockTableRecord
  2
*D30
340
0
  0
BLOCK_RECORD
  5
443
330
1E9
100
AcDbSymbolTableRecord
100
AcDbBlockTableRecord
  2
*D31
340
0
  0
BLOCK_RECORD
  5
451
330
1E9
100
AcDbSymbolTableRecord
100
AcDbBlockTableRecord
  2
*D32
340
0
  0
ENDTAB
  0
ENDSEC
  0
SECTION
  2
BLOCKS
  0
BLOCK
  5
25F
330
25E
100
AcDbEntity
  8
0
100
AcDbBlockBegin
  2
*Model_Space
 70
     0
 10
0.0
 20
0.0
 30
0.0
  3
*Model_Space
  1

  0
ENDBLK
  5
260
330
25E
100
AcDbEntity
  8
0
100
AcDbBlockEnd
  0
BLOCK
  5
25B
330
25A
100
AcDbEntity
 67
     1
  8
0
100
AcDbBlockBegin
  2
*Paper_Space
 70
     0
 10
0.0
 20
0.0
 30
0.0
  3
*Paper_Space
  1

  0
ENDBLK
  5
25C
330
25A
100
AcDbEntity
 67
     1
  8
0
100
AcDbBlockEnd
  0
BLOCK
  5
27A
330
279
100
AcDbEntity
  8
0
100
AcDbBlockBegin
  2
$MODEL_SPACE
 70
     0
 10
0.0
 20
0.0
 30
0.0
  3
$MODEL_SPACE
  1

  0
ENDBLK
  5
E
330
279
100
AcDbEntity
  8
0
100
AcDbBlockEnd
  0
BLOCK
  5
27C
330
27B
100
AcDbEntity
  8
0
100
AcDbBlockBegin
  2
$PAPER_SPACE
 70
     0
 10
0.0
 20
0.0
 30
0.0
  3
$PAPER_SPACE
  1

  0
ENDBLK
  5
10
330
27B
100
AcDbEntity
  8
0
100
AcDbBlockEnd
  0
BLOCK
  5
27E
330
27D
100
AcDbEntity
  8
0
100
AcDbBlockBegin
  2
81
 70
     0
 10
99.75000000000001
 20
-0.25
 30
0.0
  3
81
  1

  0
LWPOLYLINE
  5
38
330
27D
100
AcDbEntity
  8
81
  6
Continuous
 62
     3
100
AcDbPolyline
 90
        2
 70
     0
 43
0.0
 10
100.0
 20
0.0
 10
122.0
 20
0.0
  0
POINT
  5
37
330
27D
100
AcDbEntity
  8
81
 62
     3
100
AcDbPoint
 10
100.0
 20
0.0
 30
0.0
  0
ENDBLK
  5
39
330
27D
100
AcDbEntity
  8
0
100
AcDbBlockEnd
  0
BLOCK
  5
280
330
27F
100
AcDbEntity
  8
0
100
AcDbBlockBegin
  2
80
 70
     0
 10
-21.02319527247951
 20
-0.25
 30
0.0
  3
80
  1

  0
LWPOLYLINE
  5
3B
330
27F
100
AcDbEntity
  8
80
  6
Continuous
 62
     6
100
AcDbPolyline
 90
        2
 70
     0
 43
0.0
 10
-0.00000000000001
 20
0.0
 10
-20.77319527247951
 20
0.0
  0
POINT
  5
3A
330
27F
100
AcDbEntity
  8
80
 62
     6
100
AcDbPoint
 10
-0.00000000000001
 20
0.0
 30
0.0
  0
ENDBLK
  5
3C
330
27F
100
AcDbEntity
  8
0
100
AcDbBlockEnd
  0
BLOCK
  5
282
330
281
100
AcDbEntity
  8
0
100
AcDbBlockBegin
  2
*U4
 70
     1
 10
0.0
 20
0.0
 30
0.0
  3
*U4
  1

  0
TEXT
  5
154
330
281
100
AcDbEntity
  8
SK2
  6
Continuous
 62
     7
100
AcDbText
 10
112.7
 20
-1.632142857142838
 30
0.0
 40
4.57
  1
50
 50
90.0
  7
CONVERTER_1
100
AcDbText
  0
ENDBLK
  5
156
330
281
100
AcDbEntity
  8
0
100
AcDbBlockEnd
  0
BLOCK
  5
284
330
283
100
AcDbEntity
  8
0
100
AcDbBlockBegin
  2
*U5
 70
     1
 10
0.0
 20
0.0
 30
0.0
  3
*U5
  1

  0
TEXT
  5
158
330
283
100
AcDbEntity
  8
SK2
  6
Continuous
 62
     7
100
AcDbText
 10
111.5030952380952
 20
-6.093333333333311
 30
0.0
 40
4.57
  1
n
 50
90.0
  7
CONVERTER_1
100
AcDbText
  0
ENDBLK
  5
15A
330
283
100
AcDbEntity
  8
0
100
AcDbBlockEnd
  0
BLOCK
  5
286
330
285
100
AcDbEntity
  8
0
100
AcDbBlockBegin
  2
*U6
 70
     1
 10
0.0
 20
0.0
 30
0.0
  3
*U6
  1

  0
TEXT
  5
15C
330
285
100
AcDbEntity
  8
SK2
  6
Continuous
 62
     7
100
AcDbText
 10
-12.25
 20
-7.072619047619048
 30
0.0
 40
4.57
  1
69.85
 50
90.0
  7
CONVERTER_1
100
AcDbText
  0
ENDBLK
  5
15E
330
285
100
AcDbEntity
  8
0
100
AcDbBlockEnd
  0
BLOCK
  5
288
330
287
100
AcDbEntity
  8
0
100
AcDbBlockBegin
  2
*U7
 70
     1
 10
0.0
 20
0.0
 30
0.0
  3
*U7
  1

  0
TEXT
  5
160
330
287
100
AcDbEntity
  8
SK2
  6
Continuous
 62
     7
100
AcDbText
 10
-13.44690476190476
 20
-11.53380952380957
 30
0.0
 40
4.57
  1
n
 50
90.0
  7
CONVERTER_1
100
AcDbText
  0
ENDBLK
  5
162
330
287
100
AcDbEntity
  8
0
100
AcDbBlockEnd
  0
BLOCK
  5
28A
330
289
100
AcDbEntity
  8
0
100
AcDbBlockBegin
  2
*U8
 70
     1
 10
0.0
 20
0.0
 30
0.0
  3
*U8
  1

  0
TEXT
  5
164
330
289
100
AcDbEntity
  8
SK2
  6
Continuous
 62
     7
100
AcDbText
 10
-119.25
 20
-6.419761904761917
 30
0.0
 40
4.57
  1
M24
 50
90.0
  7
CONVERTER_1
100
AcDbText
  0
ENDBLK
  5
166
330
289
100
AcDbEntity
  8
0
100
AcDbBlockEnd
  0
BLOCK
  5
28C
330
28B
100
AcDbEntity
  8
0
100
AcDbBlockBegin
  2
*U9
 70
     1
 10
0.0
 20
0.0
 30
0.0
  3
*U9
  1

  0
TEXT
  5
168
330
28B
100
AcDbEntity
  8
SK2
  6
Continuous
 62
     7
100
AcDbText
 10
-134.25
 20
-7.07261904761903
 30
0.0
 40
4.57
  1
97.45
 50
90.0
  7
CONVERTER_1
100
AcDbText
  0
ENDBLK
  5
16A
330
28B
100
AcDbEntity
  8
0
100
AcDbBlockEnd
  0
BLOCK
  5
28E
330
28D
100
AcDbEntity
  8
0
100
AcDbBlockBegin
  2
*U10
 70
     1
 10
0.0
 20
0.0
 30
0.0
  3
*U10
  1

  0
TEXT
  5
16C
330
28D
100
AcDbEntity
  8
SK2
  6
Continuous
 62
     7
100
AcDbText
 10
-135.4469047619047
 20
-11.53380952380947
 30
0.0
 40
4.57
  1
n
 50
90.0
  7
CONVERTER_1
100
AcDbText
  0
ENDBLK
  5
16E
330
28D
100
AcDbEntity
  8
0
100
AcDbBlockEnd
  0
BLOCK
  5
290
330
28F
100
AcDbEntity
  8
0
100
AcDbBlockBegin
  2
*U11
 70
     1
 10
0.0
 20
0.0
 30
0.0
  3
*U11
  1

  0
SOLID
  5
170
330
28F
100
AcDbEntity
  8
2
  6
Continuous
 62
     7
100
AcDbTrace
 10
95.43000000000001
 20
75.7616666666667
 30
0.0
 11
95.43000000000001
 21
75.0
 31
0.0
 12
100.0
 22
75.0
 32
0.0
 13
100.0
 23
75.0
 33
0.0
  0
SOLID
  5
171
330
28F
100
AcDbEntity
  8
2
  6
Continuous
 62
     7
100
AcDbTrace
 10
-95.43000000000001
 20
75.0
 30
0.0
 11
-100.0
 21
75.0
 31
0.0
 12
-95.43000000000001
 22
74.2383333333333
 32
0.0
 13
-95.43000000000001
 23
74.2383333333333
 33
0.0
210
0.0
220
0.0
230
-1.0
  0
LINE
  5
172
330
28F
100
AcDbEntity
  8
2
  6
Continuous
 62
     7
100
AcDbLine
 10
95.43000000000001
 20
75.7616666666667
 30
0.0
 11
95.43000000000001
 21
75.0
 31
0.0
  0
LINE
  5
173
330
28F
100
AcDbEntity
  8
2
  6
Continuous
 62
     7
100
AcDbLine
 10
100.0
 20
75.0
 30
0.0
 11
95.43000000000001
 21
75.7616666666667
 31
0.0
  0
LINE
  5
174
330
28F
100
AcDbEntity
  8
2
  6
Continuous
 62
     7
100
AcDbLine
 10
100.0
 20
75.0
 30
0.0
 11
95.43000000000001
 21
74.2383333333333
 31
0.0
  0
LINE
  5
175
330
28F
100
AcDbEntity
  8
2
  6
Continuous
 62
     7
100
AcDbLine
 10
95.43000000000001
 20
74.2383333333333
 30
0.0
 11
95.43000000000001
 21
75.0
 31
0.0
  0
ENDBLK
  5
177
330
28F
100
AcDbEntity
  8
0
100
AcDbBlockEnd
  0
BLOCK
  5
292
330
291
100
AcDbEntity
  8
0
100
AcDbBlockBegin
  2
*U12
 70
     1
 10
0.0
 20
0.0
 30
0.0
  3
*U12
  1

  0
SOLID
  5
179
330
291
100
AcDbEntity
  8
2
  6
Continuous
 62
     7
100
AcDbTrace
 10
4.569999999999987
 20
75.7616666666667
 30
0.0
 11
0.0000000000000025
 21
75.0
 31
0.0
 12
4.569999999999987
 22
75.0
 32
0.0
 13
4.569999999999987
 23
75.0
 33
0.0
  0
SOLID
  5
17A
330
291
100
AcDbEntity
  8
2
  6
Continuous
 62
     7
100
AcDbTrace
 10
-0.0000000000000027
 20
75.0
 30
0.0
 11
-4.569999999999987
 21
75.0
 31
0.0
 12
-4.569999999999987
 22
74.2383333333333
 32
0.0
 13
-4.569999999999987
 23
74.2383333333333
 33
0.0
210
0.0
220
0.0
230
-1.0
  0
LINE
  5
17B
330
291
100
AcDbEntity
  8
2
  6
Continuous
 62
     7
100
AcDbLine
 10
4.569999999999987
 20
75.7616666666667
 30
0.0
 11
0.0000000000000025
 21
75.0
 31
0.0
  0
LINE
  5
17C
330
291
100
AcDbEntity
  8
2
  6
Continuous
 62
     7
100
AcDbLine
 10
4.569999999999987
 20
75.0
 30
0.0
 11
4.569999999999987
 21
75.7616666666667
 31
0.0
  0
LINE
  5
17D
330
291
100
AcDbEntity
  8
2
  6
Continuous
 62
     7
100
AcDbLine
 10
4.569999999999987
 20
75.0
 30
0.0
 11
4.569999999999987
 21
74.2383333333333
 31
0.0
  0
LINE
  5
17E
330
291
100
AcDbEntity
  8
2
  6
Continuous
 62
     7
100
AcDbLine
 10
4.569999999999987
 20
74.2383333333333
 30
0.0
 11
0.0000000000000027
 21
75.0
 31
0.0
  0
ENDBLK
  5
180
330
291
100
AcDbEntity
  8
0
100
AcDbBlockEnd
  0
BLOCK
  5
294
330
293
100
AcDbEntity
  8
0
100
AcDbBlockBegin
  2
*U13
 70
     1
 10
0.0
 20
0.0
 30
0.0
  3
*U13
  1

  0
SOLID
  5
182
330
293
100
AcDbEntity
  8
SK2
  6
Continuous
 62
     7
100
AcDbTrace
 10
-97.02999517480749
 20
75.7616666666667
 30
0.0
 11
-101.599995174808
 21
75.0
 31
0.0
 12
-97.02999517480749
 22
75.0
 32
0.0
 13
-97.02999517480749
 23
75.0
 33
0.0
  0
SOLID
  5
183
330
293
100
AcDbEntity
  8
SK2
  6
Continuous
 62
     7
100
AcDbTrace
 10
101.599995174808
 20
75.0
 30
0.0
 11
97.02999517480749
 21
75.0
 31
0.0
 12
97.02999517480749
 22
74.2383333333333
 32
0.0
 13
97.02999517480749
 23
74.2383333333333
 33
0.0
210
0.0
220
0.0
230
-1.0
  0
LINE
  5
184
330
293
100
AcDbEntity
  8
SK2
  6
Continuous
 62
     7
100
AcDbLine
 10
-97.02999517480749
 20
75.7616666666667
 30
0.0
 11
-101.599995174808
 21
75.0
 31
0.0
  0
LINE
  5
185
330
293
100
AcDbEntity
  8
SK2
  6
Continuous
 62
     7
100
AcDbLine
 10
-97.02999517480749
 20
75.0
 30
0.0
 11
-97.02999517480749
 21
75.7616666666667
 31
0.0
  0
LINE
  5
186
330
293
100
AcDbEntity
  8
SK2
  6
Continuous
 62
     7
100
AcDbLine
 10
-97.02999517480749
 20
75.0
 30
0.0
 11
-97.02999517480749
 21
74.2383333333333
 31
0.0
  0
LINE
  5
187
330
293
100
AcDbEntity
  8
SK2
  6
Continuous
 62
     7
100
AcDbLine
 10
-97.02999517480749
 20
74.2383333333333
 30
0.0
 11
-101.599995174808
 21
75.0
 31
0.0
  0
ENDBLK
  5
189
330
293
100
AcDbEntity
  8
0
100
AcDbBlockEnd
  0
BLOCK
  5
296
330
295
100
AcDbEntity
  8
0
100
AcDbBlockBegin
  2
*U14
 70
     1
 10
0.0
 20
0.0
 30
0.0
  3
*U14
  1

  0
SOLID
  5
18B
330
295
100
AcDbEntity
  8
SK2
  6
Continuous
 62
     7
100
AcDbTrace
 10
-4.57
 20
75.7616666666667
 30
0.0
 11
-4.57
 21
75.0
 31
0.0
 12
0.0000000000000025
 22
75.0
 32
0.0
 13
0.0000000000000025
 23
75.0
 33
0.0
  0
SOLID
  5
18C
330
295
100
AcDbEntity
  8
SK2
  6
Continuous
 62
     7
100
AcDbTrace
 10
4.57
 20
75.0
 30
0.0
 11
-0.0000000000000027
 21
75.0
 31
0.0
 12
4.57
 22
74.2383333333333
 32
0.0
 13
4.57
 23
74.2383333333333
 33
0.0
210
0.0
220
0.0
230
-1.0
  0
LINE
  5
18D
330
295
100
AcDbEntity
  8
SK2
  6
Continuous
 62
     7
100
AcDbLine
 10
-4.57
 20
75.7616666666667
 30
0.0
 11
-4.57
 21
75.0
 31
0.0
  0
LINE
  5
18E
330
295
100
AcDbEntity
  8
SK2
  6
Continuous
 62
     7
100
AcDbLine
 10
0.0000000000000025
 20
75.0
 30
0.0
 11
-4.57
 21
75.7616666666667
 31
0.0
  0
LINE
  5
18F
330
295
100
AcDbEntity
  8
SK2
  6
Continuous
 62
     7
100
AcDbLine
 10
0.0000000000000027
 20
75.0
 30
0.0
 11
-4.57
 21
74.2383333333333
 31
0.0
  0
LINE
  5
190
330
295
100
AcDbEntity
  8
SK2
  6
Continuous
 62
     7
100
AcDbLine
 10
-4.57
 20
74.2383333333333
 30
0.0
 11
-4.57
 21
75.0
 31
0.0
  0
ENDBLK
  5
192
330
295
100
AcDbEntity
  8
0
100
AcDbBlockEnd
  0
BLOCK
  5
298
330
297
100
AcDbEntity
  8
0
100
AcDbBlockBegin
  2
*U15
 70
     1
 10
0.0
 20
0.0
 30
0.0
  3
*U15
  1

  0
SOLID
  5
194
330
297
100
AcDbEntity
  8
SK2
  6
Continuous
 62
     7
100
AcDbTrace
 10
-131.95
 20
48.725
 30
0.0
 11
-132.711666666667
 21
44.155
 31
0.0
 12
-131.188333333333
 22
44.155
 32
0.0
 13
-131.188333333333
 23
44.155
 33
0.0
  0
SOLID
  5
195
330
297
100
AcDbEntity
  8
SK2
  6
Continuous
 62
     7
100
AcDbTrace
 10
-132.711666666667
 20
44.155
 30
0.0
 11
-132.711666666667
 21
44.155
 31
0.0
 12
-131.188333333333
 22
44.155
 32
0.0
 13
-131.188333333333
 23
44.155
 33
0.0
  0
LINE
  5
196
330
297
100
AcDbEntity
  8
SK2
  6
Continuous
 62
     7
100
AcDbLine
 10
-131.95
 20
48.725
 30
0.0
 11
-132.711666666667
 21
44.155
 31
0.0
  0
LINE
  5
197
330
297
100
AcDbEntity
  8
SK2
  6
Continuous
 62
     7
100
AcDbLine
 10
-131.188333333333
 20
44.155
 30
0.0
 11
-131.95
 21
48.725
 31
0.0
  0
LINE
  5
198
330
297
100
AcDbEntity
  8
SK2
  6
Continuous
 62
     7
100
AcDbLine
 10
-132.711666666667
 20
44.155
 30
0.0
 11
-131.188333333333
 21
44.155
 31
0.0
  0
ENDBLK
  5
19A
330
297
100
AcDbEntity
  8
0
100
AcDbBlockEnd
  0
BLOCK
  5
29A
330
299
100
AcDbEntity
  8
0
100
AcDbBlockBegin
  2
*U16
 70
     1
 10
0.0
 20
0.0
 30
0.0
  3
*U16
  1

  0
SOLID
  5
19C
330
299
100
AcDbEntity
  8
SK2
  6
Continuous
 62
     7
100
AcDbTrace
 10
-132.711666666667
 20
-44.155
 30
0.0
 11
-132.711666666667
 21
-44.155
 31
0.0
 12
-131.188333333333
 22
-44.155
 32
0.0
 13
-131.188333333333
 23
-44.155
 33
0.0
  0
SOLID
  5
19D
330
299
100
AcDbEntity
  8
SK2
  6
Continuous
 62
     7
100
AcDbTrace
 10
132.711666666667
 20
-44.155
 30
0.0
 11
131.188333333333
 21
-44.155
 31
0.0
 12
131.95
 22
-48.725
 32
0.0
 13
131.95
 23
-48.725
 33
0.0
210
0.0
220
0.0
230
-1.0
  0
LINE
  5
19E
330
299
100
AcDbEntity
  8
SK2
  6
Continuous
 62
     7
100
AcDbLine
 10
-132.711666666667
 20
-44.155
 30
0.0
 11
-131.188333333333
 21
-44.155
 31
0.0
  0
LINE
  5
19F
330
299
100
AcDbEntity
  8
SK2
  6
Continuous
 62
     7
100
AcDbLine
 10
-131.188333333333
 20
-44.155
 30
0.0
 11
-131.95
 21
-48.725
 31
0.0
  0
LINE
  5
1A0
330
299
100
AcDbEntity
  8
SK2
  6
Continuous
 62
     7
100
AcDbLine
 10
-131.95
 20
-48.725
 30
0.0
 11
-132.711666666667
 21
-44.155
 31
0.0
  0
ENDBLK
  5
1A2
330
299
100
AcDbEntity
  8
0
100
AcDbBlockEnd
  0
BLOCK
  5
29C
330
29B
100
AcDbEntity
  8
0
100
AcDbBlockBegin
  2
*U17
 70
     1
 10
0.0
 20
0.0
 30
0.0
  3
*U17
  1

  0
SOLID
  5
1A4
330
29B
100
AcDbEntity
  8
SK2
  6
Continuous
 62
     7
100
AcDbTrace
 10
-116.95
 20
12.0
 30
0.0
 11
-117.711666666667
 21
7.430000000000008
 31
0.0
 12
-116.188333333333
 22
7.430000000000008
 32
0.0
 13
-116.188333333333
 23
7.430000000000008
 33
0.0
  0
SOLID
  5
1A5
330
29B
100
AcDbEntity
  8
SK2
  6
Continuous
 62
     7
100
AcDbTrace
 10
-117.711666666667
 20
7.430000000000008
 30
0.0
 11
-117.711666666667
 21
7.430000000000008
 31
0.0
 12
-116.188333333333
 22
7.430000000000008
 32
0.0
 13
-116.188333333333
 23
7.430000000000008
 33
0.0
  0
LINE
  5
1A6
330
29B
100
AcDbEntity
  8
SK2
  6
Continuous
 62
     7
100
AcDbLine
 10
-116.95
 20
12.0
 30
0.0
 11
-117.711666666667
 21
7.430000000000008
 31
0.0
  0
LINE
  5
1A7
330
29B
100
AcDbEntity
  8
SK2
  6
Continuous
 62
     7
100
AcDbLine
 10
-116.188333333333
 20
7.430000000000008
 30
0.0
 11
-116.95
 21
12.0
 31
0.0
  0
LINE
  5
1A8
330
29B
100
AcDbEntity
  8
SK2
  6
Continuous
 62
     7
100
AcDbLine
 10
-117.711666666667
 20
7.430000000000008
 30
0.0
 11
-116.188333333333
 21
7.430000000000008
 31
0.0
  0
ENDBLK
  5
1AA
330
29B
100
AcDbEntity
  8
0
100
AcDbBlockEnd
  0
BLOCK
  5
29E
330
29D
100
AcDbEntity
  8
0
100
AcDbBlockBegin
  2
*U18
 70
     1
 10
0.0
 20
0.0
 30
0.0
  3
*U18
  1

  0
SOLID
  5
1AC
330
29D
100
AcDbEntity
  8
SK2
  6
Continuous
 62
     7
100
AcDbTrace
 10
-117.711666666667
 20
-7.42999999999999
 30
0.0
 11
-117.711666666667
 21
-7.42999999999999
 31
0.0
 12
-116.188333333333
 22
-7.42999999999999
 32
0.0
 13
-116.188333333333
 23
-7.42999999999999
 33
0.0
  0
SOLID
  5
1AD
330
29D
100
AcDbEntity
  8
SK2
  6
Continuous
 62
     7
100
AcDbTrace
 10
117.711666666667
 20
-7.42999999999999
 30
0.0
 11
116.188333333333
 21
-7.42999999999999
 31
0.0
 12
116.95
 22
-12.0
 32
0.0
 13
116.95
 23
-12.0
 33
0.0
210
0.0
220
0.0
230
-1.0
  0
LINE
  5
1AE
330
29D
100
AcDbEntity
  8
SK2
  6
Continuous
 62
     7
100
AcDbLine
 10
-117.711666666667
 20
-7.42999999999999
 30
0.0
 11
-116.188333333333
 21
-7.42999999999999
 31
0.0
  0
LINE
  5
1AF
330
29D
100
AcDbEntity
  8
SK2
  6
Continuous
 62
     7
100
AcDbLine
 10
-116.188333333333
 20
-7.42999999999999
 30
0.0
 11
-116.95
 21
-12.0
 31
0.0
  0
LINE
  5
1B0
330
29D
100
AcDbEntity
  8
SK2
  6
Continuous
 62
     7
100
AcDbLine
 10
-116.95
 20
-12.0
 30
0.0
 11
-117.711666666667
 21
-7.42999999999999
 31
0.0
  0
ENDBLK
  5
1B2
330
29D
100
AcDbEntity
  8
0
100
AcDbBlockEnd
  0
BLOCK
  5
2A0
330
29F
100
AcDbEntity
  8
0
100
AcDbBlockBegin
  2
*U19
 70
     1
 10
0.0
 20
0.0
 30
0.0
  3
*U19
  1

  0
SOLID
  5
1B4
330
29F
100
AcDbEntity
  8
SK2
  6
Continuous
 62
     7
100
AcDbTrace
 10
-9.949999999999999
 20
34.925
 30
0.0
 11
-10.7116666666667
 21
30.355
 31
0.0
 12
-9.188333333333339
 22
30.355
 32
0.0
 13
-9.188333333333339
 23
30.355
 33
0.0
  0
SOLID
  5
1B5
330
29F
100
AcDbEntity
  8
SK2
  6
Continuous
 62
     7
100
AcDbTrace
 10
-10.7116666666667
 20
30.355
 30
0.0
 11
-10.7116666666667
 21
30.355
 31
0.0
 12
-9.188333333333339
 22
30.355
 32
0.0
 13
-9.188333333333339
 23
30.355
 33
0.0
  0
LINE
  5
1B6
330
29F
100
AcDbEntity
  8
SK2
  6
Continuous
 62
     7
100
AcDbLine
 10
-9.949999999999999
 20
34.925
 30
0.0
 11
-10.7116666666667
 21
30.355
 31
0.0
  0
LINE
  5
1B7
330
29F
100
AcDbEntity
  8
SK2
  6
Continuous
 62
     7
100
AcDbLine
 10
-9.188333333333339
 20
30.355
 30
0.0
 11
-9.949999999999999
 21
34.925
 31
0.0
  0
LINE
  5
1B8
330
29F
100
AcDbEntity
  8
SK2
  6
Continuous
 62
     7
100
AcDbLine
 10
-10.7116666666667
 20
30.355
 30
0.0
 11
-9.188333333333339
 21
30.355
 31
0.0
  0
ENDBLK
  5
1BA
330
29F
100
AcDbEntity
  8
0
100
AcDbBlockEnd
  0
BLOCK
  5
2A2
330
2A1
100
AcDbEntity
  8
0
100
AcDbBlockBegin
  2
*U20
 70
     1
 10
0.0
 20
0.0
 30
0.0
  3
*U20
  1

  0
SOLID
  5
1BC
330
2A1
100
AcDbEntity
  8
SK2
  6
Continuous
 62
     7
100
AcDbTrace
 10
-10.7116666666667
 20
-30.355
 30
0.0
 11
-10.7116666666667
 21
-30.355
 31
0.0
 12
-9.188333333333348
 22
-30.355
 32
0.0
 13
-9.188333333333348
 23
-30.355
 33
0.0
  0
SOLID
  5
1BD
330
2A1
100
AcDbEntity
  8
SK2
  6
Continuous
 62
     7
100
AcDbTrace
 10
10.7116666666667
 20
-30.355
 30
0.0
 11
9.188333333333348
 21
-30.355
 31
0.0
 12
9.950000000000017
 22
-34.925
 32
0.0
 13
9.950000000000017
 23
-34.925
 33
0.0
210
0.0
220
0.0
230
-1.0
  0
LINE
  5
1BE
330
2A1
100
AcDbEntity
  8
SK2
  6
Continuous
 62
     7
100
AcDbLine
 10
-10.7116666666667
 20
-30.355
 30
0.0
 11
-9.188333333333348
 21
-30.355
 31
0.0
  0
LINE
  5
1BF
330
2A1
100
AcDbEntity
  8
SK2
  6
Continuous
 62
     7
100
AcDbLine
 10
-9.188333333333348
 20
-30.355
 30
0.0
 11
-9.950000000000017
 21
-34.925
 31
0.0
  0
LINE
  5
1C0
330
2A1
100
AcDbEntity
  8
SK2
  6
Continuous
 62
     7
100
AcDbLine
 10
-9.950000000000017
 20
-34.925
 30
0.0
 11
-10.7116666666667
 21
-30.355
 31
0.0
  0
ENDBLK
  5
1C2
330
2A1
100
AcDbEntity
  8
0
100
AcDbBlockEnd
  0
BLOCK
  5
2A4
330
2A3
100
AcDbEntity
  8
0
100
AcDbBlockBegin
  2
*U21
 70
     1
 10
0.0
 20
0.0
 30
0.0
  3
*U21
  1

  0
SOLID
  5
1C4
330
2A3
100
AcDbEntity
  8
SK2
  6
Continuous
 62
     7
100
AcDbTrace
 10
14.48
 20
64.8932878905984
 30
0.0
 11
14.48
 21
64.1316212239317
 31
0.0
 12
19.05
 22
64.1316212239317
 32
0.0
 13
19.05
 23
64.1316212239317
 33
0.0
  0
SOLID
  5
1C5
330
2A3
100
AcDbEntity
  8
SK2
  6
Continuous
 62
     7
100
AcDbTrace
 10
-14.48
 20
64.1316212239317
 30
0.0
 11
-19.05
 21
64.1316212239317
 31
0.0
 12
-14.48
 22
63.369954557265
 32
0.0
 13
-14.48
 23
63.369954557265
 33
0.0
210
0.0
220
0.0
230
-1.0
  0
LINE
  5
1C6
330
2A3
100
AcDbEntity
  8
SK2
  6
Continuous
 62
     7
100
AcDbLine
 10
14.48
 20
64.8932878905984
 30
0.0
 11
14.48
 21
64.1316212239317
 31
0.0
  0
LINE
  5
1C7
330
2A3
100
AcDbEntity
  8
SK2
  6
Continuous
 62
     7
100
AcDbLine
 10
19.05
 20
64.1316212239317
 30
0.0
 11
14.48
 21
64.8932878905984
 31
0.0
  0
LINE
  5
1C8
330
2A3
100
AcDbEntity
  8
SK2
  6
Continuous
 62
     7
100
AcDbLine
 10
19.05
 20
64.1316212239317
 30
0.0
 11
14.48
 21
63.369954557265
 31
0.0
  0
LINE
  5
1C9
330
2A3
100
AcDbEntity
  8
SK2
  6
Continuous
 62
     7
100
AcDbLine
 10
14.48
 20
63.369954557265
 30
0.0
 11
14.48
 21
64.1316212239317
 31
0.0
  0
ENDBLK
  5
1CB
330
2A3
100
AcDbEntity
  8
0
100
AcDbBlockEnd
  0
BLOCK
  5
2A6
330
2A5
100
AcDbEntity
  8
0
100
AcDbBlockBegin
  2
*U22
 70
     1
 10
0.0
 20
0.0
 30
0.0
  3
*U22
  1

  0
SOLID
  5
1CD
330
2A5
100
AcDbEntity
  8
SK2
  6
Continuous
 62
     7
100
AcDbTrace
 10
4.57
 20
64.8932878905984
 30
0.0
 11
0.0000000000000018
 21
64.1316212239317
 31
0.0
 12
4.57
 22
64.1316212239317
 32
0.0
 13
4.57
 23
64.1316212239317
 33
0.0
  0
SOLID
  5
1CE
330
2A5
100
AcDbEntity
  8
SK2
  6
Continuous
 62
     7
100
AcDbTrace
 10
-0.0000000000000018
 20
64.1316212239317
 30
0.0
 11
-4.57
 21
64.1316212239317
 31
0.0
 12
-4.57
 22
63.369954557265
 32
0.0
 13
-4.57
 23
63.369954557265
 33
0.0
210
0.0
220
0.0
230
-1.0
  0
LINE
  5
1CF
330
2A5
100
AcDbEntity
  8
SK2
  6
Continuous
 62
     7
100
AcDbLine
 10
4.57
 20
64.8932878905984
 30
0.0
 11
0.0000000000000018
 21
64.1316212239317
 31
0.0
  0
LINE
  5
1D0
330
2A5
100
AcDbEntity
  8
SK2
  6
Continuous
 62
     7
100
AcDbLine
 10
4.57
 20
64.1316212239317
 30
0.0
 11
4.57
 21
64.8932878905984
 31
0.0
  0
LINE
  5
1D1
330
2A5
100
AcDbEntity
  8
SK2
  6
Continuous
 62
     7
100
AcDbLine
 10
4.57
 20
64.1316212239317
 30
0.0
 11
4.57
 21
63.369954557265
 31
0.0
  0
LINE
  5
1D2
330
2A5
100
AcDbEntity
  8
SK2
  6
Continuous
 62
     7
100
AcDbLine
 10
4.57
 20
63.369954557265
 30
0.0
 11
0.0000000000000018
 21
64.1316212239317
 31
0.0
  0
ENDBLK
  5
1D4
330
2A5
100
AcDbEntity
  8
0
100
AcDbBlockEnd
  0
BLOCK
  5
2A8
330
2A7
100
AcDbEntity
  8
0
100
AcDbBlockBegin
  2
*U23
 70
     1
 10
0.0
 20
0.0
 30
0.0
  3
*U23
  1

  0
SOLID
  5
1D6
330
2A7
100
AcDbEntity
  8
SK2
  6
Continuous
 62
     7
100
AcDbTrace
 10
114.238333333333
 20
-20.43
 30
0.0
 11
114.238333333333
 21
-20.43
 31
0.0
 12
115.761666666667
 22
-20.43
 32
0.0
 13
115.761666666667
 23
-20.43
 33
0.0
  0
SOLID
  5
1D7
330
2A7
100
AcDbEntity
  8
SK2
  6
Continuous
 62
     7
100
AcDbTrace
 10
-114.238333333333
 20
-20.43
 30
0.0
 11
-115.761666666667
 21
-20.43
 31
0.0
 12
-115.0
 22
-25.0
 32
0.0
 13
-115.0
 23
-25.0
 33
0.0
210
0.0
220
0.0
230
-1.0
  0
LINE
  5
1D8
330
2A7
100
AcDbEntity
  8
SK2
  6
Continuous
 62
     7
100
AcDbLine
 10
114.238333333333
 20
-20.43
 30
0.0
 11
115.761666666667
 21
-20.43
 31
0.0
  0
LINE
  5
1D9
330
2A7
100
AcDbEntity
  8
SK2
  6
Continuous
 62
     7
100
AcDbLine
 10
115.761666666667
 20
-20.43
 30
0.0
 11
115.0
 21
-25.0
 31
0.0
  0
LINE
  5
1DA
330
2A7
100
AcDbEntity
  8
SK2
  6
Continuous
 62
     7
100
AcDbLine
 10
115.0
 20
-25.0
 30
0.0
 11
114.238333333333
 21
-20.43
 31
0.0
  0
ENDBLK
  5
1DC
330
2A7
100
AcDbEntity
  8
0
100
AcDbBlockEnd
  0
BLOCK
  5
2AA
330
2A9
100
AcDbEntity
  8
0
100
AcDbBlockBegin
  2
*U24
 70
     1
 10
0.0
 20
0.0
 30
0.0
  3
*U24
  1

  0
SOLID
  5
1DE
330
2A9
100
AcDbEntity
  8
SK2
  6
Continuous
 62
     7
100
AcDbTrace
 10
115.0
 20
25.0
 30
0.0
 11
114.238333333333
 21
20.43
 31
0.0
 12
115.761666666667
 22
20.43
 32
0.0
 13
115.761666666667
 23
20.43
 33
0.0
  0
SOLID
  5
1DF
330
2A9
100
AcDbEntity
  8
SK2
  6
Continuous
 62
     7
100
AcDbTrace
 10
114.238333333333
 20
20.43
 30
0.0
 11
114.238333333333
 21
20.43
 31
0.0
 12
115.761666666667
 22
20.43
 32
0.0
 13
115.761666666667
 23
20.43
 33
0.0
  0
LINE
  5
1E0
330
2A9
100
AcDbEntity
  8
SK2
  6
Continuous
 62
     7
100
AcDbLine
 10
115.0
 20
25.0
 30
0.0
 11
114.238333333333
 21
20.43
 31
0.0
  0
LINE
  5
1E1
330
2A9
100
AcDbEntity
  8
SK2
  6
Continuous
 62
     7
100
AcDbLine
 10
115.761666666667
 20
20.43
 30
0.0
 11
115.0
 21
25.0
 31
0.0
  0
LINE
  5
1E2
330
2A9
100
AcDbEntity
  8
SK2
  6
Continuous
 62
     7
100
AcDbLine
 10
114.238333333333
 20
20.43
 30
0.0
 11
115.761666666667
 21
20.43
 31
0.0
  0
ENDBLK
  5
1E4
330
2A9
100
AcDbEntity
  8
0
100
AcDbBlockEnd
  0
BLOCK
  5
2AE
330
2AD
100
AcDbEntity
  8
0
100
AcDbBlockBegin
  2
*D25
 70
     1
 10
0.0
 20
0.0
 30
0.0
  3
*D25
  1

  0
LINE
  5
2F6
330
2AD
100
AcDbEntity
  8
SK2
  6
Continuous
 62
     0
370
    -2
100
AcDbLine
 10
4.13749999999999
 20
48.75
 30
0.0
 11
-134.7029846367534
 21
48.75000000000003
 31
0.0
  0
LINE
  5
2F7
330
2AD
100
AcDbEntity
  8
SK2
  6
Continuous
 62
     0
370
    -2
100
AcDbLine
 10
4.13749999999999
 20
-48.75
 30
0.0
 11
-134.7029846367534
 21
-48.74999999999996
 31
0.0
  0
LINE
  5
2F8
330
2AD
100
AcDbEntity
  8
SK2
  6
Continuous
 62
     0
370
    -2
100
AcDbLine
 10
-134.5229846367534
 20
-45.74999999999996
 30
0.0
 11
-134.5229846367534
 21
45.75000000000002
 31
0.0
  0
LINE
  5
2F9
330
2AD
100
AcDbEntity
  8
SK2
  6
Continuous
 62
     0
370
    -2
100
AcDbLine
 10
-134.5229846367534
 20
48.75000000000003
 30
0.0
 11
-134.5229846367534
 21
58.56599571400513
 31
0.0
  0
LINE
  5
2FA
330
2AD
100
AcDbEntity
  8
SK2
  6
Continuous
 62
     0
370
    -2
100
AcDbLine
 10
-134.5229846367534
 20
58.56599571400513
 30
0.0
 11
-131.5229846367534
 21
58.56599571400513
 31
0.0
  0
SOLID
  5
2FB
330
2AD
100
AcDbEntity
  8
SK2
  6
Continuous
 62
     0
100
AcDbTrace
 10
-135.0229846367534
 20
-45.74999999999996
 30
0.0
 11
-134.0229846367534
 21
-45.74999999999996
 31
0.0
 12
-134.5229846367534
 22
-48.74999999999996
 32
0.0
 13
-134.5229846367534
 23
-48.74999999999996
 33
0.0
  0
SOLID
  5
2FC
330
2AD
100
AcDbEntity
  8
SK2
  6
Continuous
 62
     0
100
AcDbTrace
 10
-135.0229846367534
 20
45.75000000000002
 30
0.0
 11
-134.0229846367534
 21
45.75000000000002
 31
0.0
 12
-134.5229846367534
 22
48.75000000000003
 32
0.0
 13
-134.5229846367534
 23
48.75000000000003
 33
0.0
  0
MTEXT
  5
2FD
330
2AD
100
AcDbEntity
  8
SK2
  6
Continuous
 62
     0
100
AcDbMText
 10
-121.6829846367534
 20
58.56599571400511
 30
0.0
 40
3.0
 41
0.0
 71
     5
 72
     1
  1
\A1;ø97.5000
 73
     1
 44
1.0
1001
ACAD
1000
MTEXTBEGIN
1070
    73
1070
     1
1070
    44
1040
1.0
1070
    74
1070
     0
1000
MTEXTEND
  0
POINT
  5
2FE
330
2AD
100
AcDbEntity
  8
Defpoints
  6
Continuous
 62
     0
100
AcDbPoint
 10
4.19999999999999
 20
48.75
 30
0.0
  0
POINT
  5
2FF
330
2AD
100
AcDbEntity
  8
Defpoints
  6
Continuous
 62
     0
100
AcDbPoint
 10
4.19999999999999
 20
-48.75
 30
0.0
  0
POINT
  5
300
330
2AD
100
AcDbEntity
  8
Defpoints
  6
Continuous
 62
     0
100
AcDbPoint
 10
-134.5229846367534
 20
-48.74999999999996
 30
0.0
  0
ENDBLK
  5
2AF
330
2AD
100
AcDbEntity
  8
0
100
AcDbBlockEnd
  0
BLOCK
  5
303
330
302
100
AcDbEntity
  8
0
100
AcDbBlockBegin
  2
*D26
 70
     1
 10
0.0
 20
0.0
 30
0.0
  3
*D26
  1

  0
LINE
  5
34B
330
302
100
AcDbEntity
  8
SK2
  6
Continuous
 62
     0
370
    -2
100
AcDbLine
 10
-0.06250000000001
 20
34.9249214642462
 30
0.0
 11
-22.14221140844895
 21
34.9249214642462
 31
0.0
  0
LINE
  5
34C
330
302
100
AcDbEntity
  8
SK2
  6
Continuous
 62
     0
370
    -2
100
AcDbLine
 10
-0.06250000000001
 20
-34.92462485420633
 30
0.0
 11
-22.14221140844896
 21
-34.92462485420632
 31
0.0
  0
LINE
  5
34D
330
302
100
AcDbEntity
  8
SK2
  6
Continuous
 62
     0
370
    -2
100
AcDbLine
 10
-21.96221140844896
 20
-31.92462485420632
 30
0.0
 11
-21.96221140844894
 21
31.9249214642462
 31
0.0
  0
LINE
  5
34E
330
302
100
AcDbEntity
  8
SK2
  6
Continuous
 62
     0
370
    -2
100
AcDbLine
 10
-21.96221140844894
 20
34.9249214642462
 30
0.0
 11
-21.96221140844894
 21
52.03960357808329
 31
0.0
  0
LINE
  5
34F
330
302
100
AcDbEntity
  8
SK2
  6
Continuous
 62
     0
370
    -2
100
AcDbLine
 10
-21.96221140844894
 20
52.03960357808329
 30
0.0
 11
-18.96221140844894
 21
52.03960357808329
 31
0.0
  0
SOLID
  5
350
330
302
100
AcDbEntity
  8
SK2
  6
Continuous
 62
     0
100
AcDbTrace
 10
-22.46221140844896
 20
-31.92462485420632
 30
0.0
 11
-21.46221140844896
 21
-31.92462485420632
 31
0.0
 12
-21.96221140844896
 22
-34.92462485420632
 32
0.0
 13
-21.96221140844896
 23
-34.92462485420632
 33
0.0
  0
SOLID
  5
351
330
302
100
AcDbEntity
  8
SK2
  6
Continuous
 62
     0
100
AcDbTrace
 10
-22.46221140844895
 20
31.9249214642462
 30
0.0
 11
-21.46221140844895
 21
31.9249214642462
 31
0.0
 12
-21.96221140844894
 22
34.9249214642462
 32
0.0
 13
-21.96221140844894
 23
34.9249214642462
 33
0.0
  0
MTEXT
  5
352
330
302
100
AcDbEntity
  8
SK2
  6
Continuous
 62
     0
100
AcDbMText
 10
-12.87221140844895
 20
52.03960357808329
 30
0.0
 40
3.0
 41
0.0
 71
     5
 72
     1
  1
\A1;69.85
 73
     1
 44
1.0
1001
ACAD
1000
MTEXTBEGIN
1070
    73
1070
     1
1070
    44
1040
1.0
1070
    74
1070
     0
1000
MTEXTEND
  0
POINT
  5
353
330
302
100
AcDbEntity
  8
Defpoints
  6
Continuous
 62
     0
100
AcDbPoint
 10
-0.00000000000001
 20
34.9249214642462
 30
0.0
  0
POINT
  5
354
330
302
100
AcDbEntity
  8
Defpoints
  6
Continuous
 62
     0
100
AcDbPoint
 10
-0.00000000000001
 20
-34.92462485420633
 30
0.0
  0
POINT
  5
355
330
302
100
AcDbEntity
  8
Defpoints
  6
Continuous
 62
     0
100
AcDbPoint
 10
-21.96221140844896
 20
-34.92462485420632
 30
0.0
  0
ENDBLK
  5
304
330
302
100
AcDbEntity
  8
0
100
AcDbBlockEnd
  0
BLOCK
  5
358
330
357
100
AcDbEntity
  8
0
100
AcDbBlockBegin
  2
*D27
 70
     1
 10
0.0
 20
0.0
 30
0.0
  3
*D27
  1

  0
LINE
  5
38C
330
357
100
AcDbEntity
  8
SK2
  6
Continuous
 62
     0
370
    -2
100
AcDbLine
 10
96.02150000000001
 20
25.0
 30
0.0
 11
124.041735517449
 21
25.0
 31
0.0
  0
LINE
  5
38D
330
357
100
AcDbEntity
  8
SK2
  6
Continuous
 62
     0
370
    -2
100
AcDbLine
 10
96.02150000000001
 20
-25.0
 30
0.0
 11
124.041735517449
 21
-25.00000000000001
 31
0.0
  0
LINE
  5
38E
330
357
100
AcDbEntity
  8
SK2
  6
Continuous
 62
     0
370
    -2
100
AcDbLine
 10
123.861735517449
 20
21.99999999999999
 30
0.0
 11
123.861735517449
 21
1.589999999999993
 31
0.0
  0
LINE
  5
38F
330
357
100
AcDbEntity
  8
SK2
  6
Continuous
 62
     0
370
    -2
100
AcDbLine
 10
123.861735517449
 20
-22.00000000000001
 30
0.0
 11
123.861735517449
 21
-1.590000000000005
 31
0.0
  0
SOLID
  5
390
330
357
100
AcDbEntity
  8
SK2
  6
Continuous
 62
     0
100
AcDbTrace
 10
123.361735517449
 20
21.99999999999999
 30
0.0
 11
124.361735517449
 21
21.99999999999999
 31
0.0
 12
123.861735517449
 22
25.0
 32
0.0
 13
123.861735517449
 23
25.0
 33
0.0
  0
SOLID
  5
391
330
357
100
AcDbEntity
  8
SK2
  6
Continuous
 62
     0
100
AcDbTrace
 10
123.361735517449
 20
-22.00000000000001
 30
0.0
 11
124.361735517449
 21
-22.00000000000001
 31
0.0
 12
123.861735517449
 22
-25.00000000000001
 32
0.0
 13
123.861735517449
 23
-25.00000000000001
 33
0.0
  0
MTEXT
  5
392
330
357
100
AcDbEntity
  8
SK2
  6
Continuous
 62
     0
100
AcDbMText
 10
123.861735517449
 20
0.0000000000000137
 30
0.0
 40
3.0
 41
0.0
 71
     5
 72
     1
  1
\A1;ø50.0000
 73
     1
 44
1.0
1001
ACAD
1000
MTEXTBEGIN
1070
    73
1070
     1
1070
    44
1040
1.0
1070
    74
1070
     0
1000
MTEXTEND
  0
POINT
  5
393
330
357
100
AcDbEntity
  8
Defpoints
  6
Continuous
 62
     0
100
AcDbPoint
 10
95.959
 20
25.0
 30
0.0
  0
POINT
  5
394
330
357
100
AcDbEntity
  8
Defpoints
  6
Continuous
 62
     0
100
AcDbPoint
 10
95.959
 20
-25.0
 30
0.0
  0
POINT
  5
395
330
357
100
AcDbEntity
  8
Defpoints
  6
Continuous
 62
     0
100
AcDbPoint
 10
123.861735517449
 20
-25.00000000000001
 30
0.0
  0
ENDBLK
  5
359
330
357
100
AcDbEntity
  8
0
100
AcDbBlockEnd
  0
BLOCK
  5
398
330
397
100
AcDbEntity
  8
0
100
AcDbBlockBegin
  2
*D28
 70
     1
 10
0.0
 20
0.0
 30
0.0
  3
*D28
  1

  0
LINE
  5
3C2
330
397
100
AcDbEntity
  8
2
  6
Continuous
 62
     0
370
    -2
100
AcDbLine
 10
87.33999999999998
 20
-0.0625
 30
0.0
 11
87.33999999999998
 21
-55.98045652456486
 31
0.0
  0
LINE
  5
3C3
330
397
100
AcDbEntity
  8
2
  6
Continuous
 62
     0
370
    -2
100
AcDbLine
 10
-0.00000000000001
 20
-0.0625
 30
0.0
 11
-0.0000000000000134
 21
-55.98045652456486
 31
0.0
  0
LINE
  5
3C4
330
397
100
AcDbEntity
  8
2
  6
Continuous
 62
     0
370
    -2
100
AcDbLine
 10
84.34000000000002
 20
-55.80045652456488
 30
0.0
 11
52.25999999999999
 21
-55.80045652456488
 31
0.0
  0
LINE
  5
3C5
330
397
100
AcDbEntity
  8
2
  6
Continuous
 62
     0
370
    -2
100
AcDbLine
 10
2.999999999999986
 20
-55.80045652456488
 30
0.0
 11
35.08
 21
-55.80045652456488
 31
0.0
  0
SOLID
  5
3C6
330
397
100
AcDbEntity
  8
2
  6
Continuous
 62
     0
100
AcDbTrace
 10
84.34000000000002
 20
-55.30045652456489
 30
0.0
 11
84.34000000000002
 21
-56.30045652456487
 31
0.0
 12
87.33999999999998
 22
-55.80045652456488
 32
0.0
 13
87.33999999999998
 23
-55.80045652456488
 33
0.0
  0
SOLID
  5
3C7
330
397
100
AcDbEntity
  8
2
  6
Continuous
 62
     0
100
AcDbTrace
 10
2.999999999999986
 20
-55.30045652456489
 30
0.0
 11
2.999999999999986
 21
-56.30045652456487
 31
0.0
 12
-0.0000000000000134
 22
-55.80045652456488
 32
0.0
 13
-0.0000000000000134
 23
-55.80045652456488
 33
0.0
  0
MTEXT
  5
3C8
330
397
100
AcDbEntity
  8
2
  6
Continuous
 62
     0
100
AcDbMText
 10
43.66999999999999
 20
-55.80045652456488
 30
0.0
 40
3.0
 41
0.0
 71
     5
 72
     1
  1
\A1;87.3400
 73
     1
 44
1.0
1001
ACAD
1000
MTEXTBEGIN
1070
    73
1070
     1
1070
    44
1040
1.0
1070
    74
1070
     0
1000
MTEXTEND
  0
POINT
  5
3C9
330
397
100
AcDbEntity
  8
Defpoints
  6
Continuous
 62
     0
100
AcDbPoint
 10
87.33999999999998
 20
0.0
 30
0.0
  0
POINT
  5
3CA
330
397
100
AcDbEntity
  8
Defpoints
  6
Continuous
 62
     0
100
AcDbPoint
 10
-0.00000000000001
 20
0.0
 30
0.0
  0
POINT
  5
3CB
330
397
100
AcDbEntity
  8
Defpoints
  6
Continuous
 62
     0
100
AcDbPoint
 10
-0.0000000000000134
 20
-55.80045652456488
 30
0.0
  0
ENDBLK
  5
399
330
397
100
AcDbEntity
  8
0
100
AcDbBlockEnd
  0
BLOCK
  5
428
330
427
100
AcDbEntity
  8
0
100
AcDbBlockBegin
  2
*D29
 70
     1
 10
0.0
 20
0.0
 30
0.0
  3
*D29
  1

  0
LINE
  5
4FE
330
427
100
AcDbEntity
  8
SK2
  6
Continuous
 62
     0
370
    -2
100
AcDbLine
 10
-0.00000000000001
 20
39.8305
 30
0.0
 11
-0.0000000000000076
 21
78.25297619654424
 31
0.0
  0
LINE
  5
4FF
330
427
100
AcDbEntity
  8
SK2
  6
Continuous
 62
     0
370
    -2
100
AcDbLine
 10
-101.75
 20
17.9865
 30
0.0
 11
-101.75
 21
78.25297619654424
 31
0.0
  0
LINE
  5
500
330
427
100
AcDbEntity
  8
SK2
  6
Continuous
 62
     0
370
    -2
100
AcDbLine
 10
-3.000000000000007
 20
78.07297619654423
 30
0.0
 11
-42.035
 21
78.07297619654423
 31
0.0
  0
LINE
  5
501
330
427
100
AcDbEntity
  8
SK2
  6
Continuous
 62
     0
370
    -2
100
AcDbLine
 10
-98.75
 20
78.07297619654423
 30
0.0
 11
-59.715
 21
78.07297619654423
 31
0.0
  0
SOLID
  5
502
330
427
100
AcDbEntity
  8
SK2
  6
Continuous
 62
     0
100
AcDbTrace
 10
-3.000000000000007
 20
78.57297619654423
 30
0.0
 11
-3.000000000000007
 21
77.57297619654423
 31
0.0
 12
-0.0000000000000077
 22
78.07297619654423
 32
0.0
 13
-0.0000000000000077
 23
78.07297619654423
 33
0.0
  0
SOLID
  5
503
330
427
100
AcDbEntity
  8
SK2
  6
Continuous
 62
     0
100
AcDbTrace
 10
-98.75
 20
78.57297619654423
 30
0.0
 11
-98.75
 21
77.57297619654423
 31
0.0
 12
-101.75
 22
78.07297619654423
 32
0.0
 13
-101.75
 23
78.07297619654423
 33
0.0
  0
MTEXT
  5
504
330
427
100
AcDbEntity
  8
SK2
  6
Continuous
 62
     0
100
AcDbMText
 10
-50.87500000000001
 20
78.07297619654423
 30
0.0
 40
3.0
 41
0.0
 71
     5
 72
     1
  1
\A1;101.7500
 73
     1
 44
1.0
1001
ACAD
1000
MTEXTBEGIN
1070
    73
1070
     1
1070
    44
1040
1.0
1070
    74
1070
     0
1000
MTEXTEND
  0
POINT
  5
505
330
427
100
AcDbEntity
  8
Defpoints
  6
Continuous
 62
     0
100
AcDbPoint
 10
-0.00000000000001
 20
39.768
 30
0.0
  0
POINT
  5
506
330
427
100
AcDbEntity
  8
Defpoints
  6
Continuous
 62
     0
100
AcDbPoint
 10
-101.75
 20
17.924
 30
0.0
  0
POINT
  5
507
330
427
100
AcDbEntity
  8
Defpoints
  6
Continuous
 62
     0
100
AcDbPoint
 10
-101.75
 20
78.07297619654423
 30
0.0
  0
ENDBLK
  5
429
330
427
100
AcDbEntity
  8
0
100
AcDbBlockEnd
  0
BLOCK
  5
436
330
435
100
AcDbEntity
  8
0
100
AcDbBlockBegin
  2
*D30
 70
     1
 10
0.0
 20
0.0
 30
0.0
  3
*D30
  1

  0
LINE
  5
486
330
435
100
AcDbEntity
  8
SK2
  6
Continuous
 62
     0
370
    -2
100
AcDbLine
 10
-89.6207419980751
 20
12.0
 30
0.0
 11
-118.9262517917058
 21
12.00000000000001
 31
0.0
  0
LINE
  5
487
330
435
100
AcDbEntity
  8
SK2
  6
Continuous
 62
     0
370
    -2
100
AcDbLine
 10
-89.6207419980751
 20
-12.0
 30
0.0
 11
-118.9262517917058
 21
-11.99999999999999
 31
0.0
  0
LINE
  5
488
330
435
100
AcDbEntity
  8
SK2
  6
Continuous
 62
     0
370
    -2
100
AcDbLine
 10
-118.7462517917058
 20
9.000000000000008
 30
0.0
 11
-118.7462517917058
 21
1.590000000000008
 31
0.0
  0
LINE
  5
489
330
435
100
AcDbEntity
  8
SK2
  6
Continuous
 62
     0
370
    -2
100
AcDbLine
 10
-118.7462517917058
 20
-8.999999999999991
 30
0.0
 11
-118.7462517917058
 21
-1.589999999999991
 31
0.0
  0
SOLID
  5
48A
330
435
100
AcDbEntity
  8
SK2
  6
Continuous
 62
     0
100
AcDbTrace
 10
-119.2462517917058
 20
9.000000000000008
 30
0.0
 11
-118.2462517917058
 21
9.000000000000008
 31
0.0
 12
-118.7462517917058
 22
12.00000000000001
 32
0.0
 13
-118.7462517917058
 23
12.00000000000001
 33
0.0
  0
SOLID
  5
48B
330
435
100
AcDbEntity
  8
SK2
  6
Continuous
 62
     0
100
AcDbTrace
 10
-119.2462517917058
 20
-8.999999999999991
 30
0.0
 11
-118.2462517917058
 21
-8.999999999999991
 31
0.0
 12
-118.7462517917058
 22
-11.99999999999999
 32
0.0
 13
-118.7462517917058
 23
-11.99999999999999
 33
0.0
  0
MTEXT
  5
48C
330
435
100
AcDbEntity
  8
SK2
  6
Continuous
 62
     0
100
AcDbMText
 10
-118.7462517917058
 20
-0.0000000000000105
 30
0.0
 40
3.0
 41
0.0
 71
     5
 72
     1
  1
\A1;M24.0000
 73
     1
 44
1.0
1001
ACAD
1000
MTEXTBEGIN
1070
    73
1070
     1
1070
    44
1040
1.0
1070
    74
1070
     0
1000
MTEXTEND
  0
POINT
  5
48D
330
435
100
AcDbEntity
  8
Defpoints
  6
Continuous
 62
     0
100
AcDbPoint
 10
-89.5582419980751
 20
12.0
 30
0.0
  0
POINT
  5
48E
330
435
100
AcDbEntity
  8
Defpoints
  6
Continuous
 62
     0
100
AcDbPoint
 10
-89.5582419980751
 20
-12.0
 30
0.0
  0
POINT
  5
48F
330
435
100
AcDbEntity
  8
Defpoints
  6
Continuous
 62
     0
100
AcDbPoint
 10
-118.7462517917058
 20
-11.99999999999999
 30
0.0
  0
ENDBLK
  5
437
330
435
100
AcDbEntity
  8
0
100
AcDbBlockEnd
  0
BLOCK
  5
444
330
443
100
AcDbEntity
  8
0
100
AcDbBlockBegin
  2
*D31
 70
     1
 10
0.0
 20
0.0
 30
0.0
  3
*D31
  1

  0
LINE
  5
4D6
330
443
100
AcDbEntity
  8
2
  6
Continuous
 62
     0
370
    -2
100
AcDbLine
 10
-0.00000000000001
 20
39.893
 30
0.0
 11
-0.0000000000000076
 21
78.2210932344696
 31
0.0
  0
LINE
  5
4D7
330
443
100
AcDbEntity
  8
2
  6
Continuous
 62
     0
370
    -2
100
AcDbLine
 10
100.0
 20
18.0625
 30
0.0
 11
100.0
 21
78.2210932344696
 31
0.0
  0
LINE
  5
4D8
330
443
100
AcDbEntity
  8
2
  6
Continuous
 62
     0
370
    -2
100
AcDbLine
 10
2.999999999999992
 20
78.0410932344696
 30
0.0
 11
41.41
 21
78.0410932344696
 31
0.0
  0
LINE
  5
4D9
330
443
100
AcDbEntity
  8
2
  6
Continuous
 62
     0
370
    -2
100
AcDbLine
 10
97.0
 20
78.0410932344696
 30
0.0
 11
58.58999999999999
 21
78.0410932344696
 31
0.0
  0
SOLID
  5
4DA
330
443
100
AcDbEntity
  8
2
  6
Continuous
 62
     0
100
AcDbTrace
 10
2.999999999999992
 20
78.5410932344696
 30
0.0
 11
2.999999999999992
 21
77.5410932344696
 31
0.0
 12
-0.0000000000000077
 22
78.0410932344696
 32
0.0
 13
-0.0000000000000077
 23
78.0410932344696
 33
0.0
  0
SOLID
  5
4DB
330
443
100
AcDbEntity
  8
2
  6
Continuous
 62
     0
100
AcDbTrace
 10
97.0
 20
78.5410932344696
 30
0.0
 11
97.0
 21
77.5410932344696
 31
0.0
 12
100.0
 22
78.0410932344696
 32
0.0
 13
100.0
 23
78.0410932344696
 33
0.0
  0
MTEXT
  5
4DC
330
443
100
AcDbEntity
  8
2
  6
Continuous
 62
     0
100
AcDbMText
 10
50.0
 20
78.0410932344696
 30
0.0
 40
3.0
 41
0.0
 71
     5
 72
     1
  1
\A1;100.0000
 73
     1
 44
1.0
1001
ACAD
1000
MTEXTBEGIN
1070
    73
1070
     1
1070
    44
1040
1.0
1070
    74
1070
     0
1000
MTEXTEND
  0
POINT
  5
4DD
330
443
100
AcDbEntity
  8
Defpoints
  6
Continuous
 62
     0
100
AcDbPoint
 10
-0.00000000000001
 20
39.8305
 30
0.0
  0
POINT
  5
4DE
330
443
100
AcDbEntity
  8
Defpoints
  6
Continuous
 62
     0
100
AcDbPoint
 10
100.0
 20
18.0
 30
0.0
  0
POINT
  5
4DF
330
443
100
AcDbEntity
  8
Defpoints
  6
Continuous
 62
     0
100
AcDbPoint
 10
100.0
 20
78.0410932344696
 30
0.0
  0
ENDBLK
  5
445
330
443
100
AcDbEntity
  8
0
100
AcDbBlockEnd
  0
BLOCK
  5
452
330
451
100
AcDbEntity
  8
0
100
AcDbBlockBegin
  2
*D32
 70
     1
 10
0.0
 20
0.0
 30
0.0
  3
*D32
  1

  0
LINE
  5
4AE
330
451
100
AcDbEntity
  8
2
  6
Continuous
 62
     0
370
    -2
100
AcDbLine
 10
-0.00000000000001
 20
39.9555
 30
0.0
 11
-0.0000000000000084
 21
66.10636271587686
 31
0.0
  0
LINE
  5
4AF
330
451
100
AcDbEntity
  8
2
  6
Continuous
 62
     0
370
    -2
100
AcDbLine
 10
19.1
 20
47.8125
 30
0.0
 11
19.1
 21
66.10636271587686
 31
0.0
  0
LINE
  5
4B0
330
451
100
AcDbEntity
  8
2
  6
Continuous
 62
     0
370
    -2
100
AcDbLine
 10
-3.000000000000008
 20
65.92636271587685
 30
0.0
 11
-6.000000000000007
 21
65.92636271587685
 31
0.0
  0
LINE
  5
4B1
330
451
100
AcDbEntity
  8
2
  6
Continuous
 62
     0
370
    -2
100
AcDbLine
 10
22.1
 20
65.92636271587685
 30
0.0
 11
25.1
 21
65.92636271587685
 31
0.0
  0
SOLID
  5
4B2
330
451
100
AcDbEntity
  8
2
  6
Continuous
 62
     0
100
AcDbTrace
 10
-3.000000000000008
 20
66.42636271587685
 30
0.0
 11
-3.000000000000008
 21
65.42636271587685
 31
0.0
 12
-0.0000000000000084
 22
65.92636271587685
 32
0.0
 13
-0.0000000000000084
 23
65.92636271587685
 33
0.0
  0
SOLID
  5
4B3
330
451
100
AcDbEntity
  8
2
  6
Continuous
 62
     0
100
AcDbTrace
 10
22.1
 20
66.42636271587685
 30
0.0
 11
22.1
 21
65.42636271587685
 31
0.0
 12
19.1
 22
65.92636271587685
 32
0.0
 13
19.1
 23
65.92636271587685
 33
0.0
  0
MTEXT
  5
4B4
330
451
100
AcDbEntity
  8
2
  6
Continuous
 62
     0
100
AcDbMText
 10
9.549999999999997
 20
65.92636271587685
 30
0.0
 40
3.0
 41
0.0
 71
     5
 72
     1
  1
\A1;19.1000
 73
     1
 44
1.0
1001
ACAD
1000
MTEXTBEGIN
1070
    73
1070
     1
1070
    44
1040
1.0
1070
    74
1070
     0
1000
MTEXTEND
  0
POINT
  5
4B5
330
451
100
AcDbEntity
  8
Defpoints
  6
Continuous
 62
     0
100
AcDbPoint
 10
-0.00000000000001
 20
39.893
 30
0.0
  0
POINT
  5
4B6
330
451
100
AcDbEntity
  8
Defpoints
  6
Continuous
 62
     0
100
AcDbPoint
 10
19.1
 20
47.75
 30
0.0
  0
POINT
  5
4B7
330
451
100
AcDbEntity
  8
Defpoints
  6
Continuous
 62
     0
100
AcDbPoint
 10
19.1
 20
65.92636271587685
 30
0.0
  0
ENDBLK
  5
453
330
451
100
AcDbEntity
  8
0
100
AcDbBlockEnd
  0
ENDSEC
  0
SECTION
  2
ENTITIES
  0
TEXT
  5
10D
330
25E
100
AcDbEntity
  8
SK6
 62
     5
100
AcDbText
 10
-77.95
 20
16.0
 30
0.0
 40
3.5
  1
SK50 DIN69871A
  7
CONVERTER_1
100
AcDbText
  0
ARC
  5
101
330
25E
100
AcDbEntity
  8
1
  6
Continuous
 62
     4
100
AcDbCircle
 10
69.01399999999999
 20
21.0
 30
0.0
 40
1.0
100
AcDbArc
 50
224.9999999999962
 51
270.0
  0
ARC
  5
100
330
25E
100
AcDbEntity
  8
1
  6
Continuous
 62
     4
100
AcDbCircle
 10
63.357
 20
21.0
 30
0.0
 40
2.999999999999988
100
AcDbArc
 50
44.98651899999928
 51
90.0
  0
ARC
  5
FF
330
25E
100
AcDbEntity
  8
1
  6
Continuous
 62
     4
100
AcDbCircle
 10
69.01399999999999
 20
-21.0
 30
0.0
 40
1.0
100
AcDbArc
 50
90.0
 51
135.0000000000038
  0
ARC
  5
FE
330
25E
100
AcDbEntity
  8
1
  6
Continuous
 62
     4
100
AcDbCircle
 10
63.357
 20
-21.0
 30
0.0
 40
3.0
100
AcDbArc
 50
270.0
 51
315.0134889999998
  0
ARC
  5
FD
330
25E
100
AcDbEntity
  8
1
  6
Continuous
 62
     4
100
AcDbCircle
 10
34.1
 20
-39.0
 30
0.0
 40
15.00000000000005
100
AcDbArc
 50
90.00000799999998
 51
180.0
  0
ARC
  5
FC
330
25E
100
AcDbEntity
  8
1
  6
Continuous
 62
     4
100
AcDbCircle
 10
34.1
 20
39.0
 30
0.0
 40
15.0
100
AcDbArc
 50
180.0
 51
270.0
  0
ARC
  5
FB
330
25E
100
AcDbEntity
  8
1
  6
Continuous
 62
     4
100
AcDbCircle
 10
78.5
 20
23.5
 30
0.0
 40
1.5
100
AcDbArc
 50
90.0
 51
180.0
  0
ARC
  5
FA
330
25E
100
AcDbEntity
  8
1
  6
Continuous
 62
     4
100
AcDbCircle
 10
78.5
 20
-23.5
 30
0.0
 40
1.500000000000049
100
AcDbArc
 50
179.9999849999993
 51
269.999969
  0
ARC
  5
F9
330
25E
100
AcDbEntity
  8
1
  6
Continuous
 62
     4
100
AcDbCircle
 10
90.05500000000003
 20
45.216
 30
0.0
 40
24.82000000000003
100
AcDbArc
 50
243.550583
 51
269.8730469999999
  0
ARC
  5
F8
330
25E
100
AcDbEntity
  8
1
  6
Continuous
 62
     4
100
AcDbCircle
 10
-99.25
 20
17.924
 30
0.0
 40
2.49999999999996
100
AcDbArc
 50
98.30191000000091
 51
180.0
  0
ARC
  5
F7
330
25E
100
AcDbEntity
  8
1
  6
Continuous
 62
     4
100
AcDbCircle
 10
-99.25
 20
-17.924
 30
0.0
 40
2.5
100
AcDbArc
 50
180.0
 51
261.6981199999997
  0
ARC
  5
F6
330
25E
100
AcDbEntity
  8
1
  6
Continuous
 62
     4
100
AcDbCircle
 10
4.19999999999999
 20
-47.75
 30
0.0
 40
1.0
100
AcDbArc
 50
180.0
 51
270.0
  0
ARC
  5
F5
330
25E
100
AcDbEntity
  8
1
  6
Continuous
 62
     4
100
AcDbCircle
 10
18.1
 20
-47.75
 30
0.0
 40
1.0
100
AcDbArc
 50
270.0
 51
0.0
  0
ARC
  5
F4
330
25E
100
AcDbEntity
  8
1
  6
Continuous
 62
     4
100
AcDbCircle
 10
4.19999999999999
 20
47.75
 30
0.0
 40
1.000000000000009
100
AcDbArc
 50
90.00000799999943
 51
180.0
  0
ARC
  5
F3
330
25E
100
AcDbEntity
  8
1
  6
Continuous
 62
     4
100
AcDbCircle
 10
18.1
 20
47.75
 30
0.0
 40
1.000000000000009
100
AcDbArc
 50
0.0000070000029
 51
90.0
  0
ARC
  5
F2
330
25E
100
AcDbEntity
  8
1
  6
Continuous
 62
     4
100
AcDbCircle
 10
2.199999999999988
 20
-36.027
 30
0.0
 40
1.0
100
AcDbArc
 50
0.00000300000136
 51
89.99999199999946
  0
ARC
  5
F1
330
25E
100
AcDbEntity
  8
1
  6
Continuous
 62
     4
100
AcDbCircle
 10
2.199999999999988
 20
36.027
 30
0.0
 40
1.0
100
AcDbArc
 50
270.0
 51
359.999968999998
  0
ARC
  5
F0
330
25E
100
AcDbEntity
  8
1
  6
Continuous
 62
     4
100
AcDbCircle
 10
90.05500000000003
 20
-45.216
 30
0.0
 40
24.82000000000003
100
AcDbArc
 50
90.12695300000006
 51
116.4494090000001
  0
ARC
  5
EF
330
25E
100
AcDbEntity
  8
SK3
  6
DASHED
 62
     1
100
AcDbCircle
 10
-100.35
 20
-13.75527
 30
0.0
 40
1.25
100
AcDbArc
 50
90.00000002351473
 51
180.000000023505
  0
ARC
  5
EE
330
25E
100
AcDbEntity
  8
SK3
  6
DASHED
 62
     1
100
AcDbCircle
 10
-100.35
 20
13.75527
 30
0.0
 40
1.25
100
AcDbArc
 50
180.0
 51
270.0
  0
ARC
  5
ED
330
25E
100
AcDbEntity
  8
SK3
  6
DASHED
 62
     1
100
AcDbCircle
 10
47.166666666683
 20
-12.499999999995
 30
0.0
 40
0.8333333333329997
100
AcDbArc
 50
180.0
 51
270.0
  0
ARC
  5
EC
330
25E
100
AcDbEntity
  8
SK3
  6
DASHED
 62
     1
100
AcDbCircle
 10
53.833333333347
 20
-12.499999999995
 30
0.0
 40
0.8333333333329997
100
AcDbArc
 50
270.0
 51
0.0
  0
ARC
  5
EB
330
25E
100
AcDbEntity
  8
SK3
  6
DASHED
 62
     1
100
AcDbCircle
 10
47.166666666683
 20
12.499999999995
 30
0.0
 40
0.8333333333329997
100
AcDbArc
 50
90.0
 51
180.0
  0
ARC
  5
EA
330
25E
100
AcDbEntity
  8
SK3
  6
DASHED
 62
     1
100
AcDbCircle
 10
53.833333333347
 20
12.499999999995
 30
0.0
 40
0.8333333333329997
100
AcDbArc
 50
0.0
 51
90.0
  0
LINE
  5
E9
330
25E
100
AcDbEntity
  8
1
  6
Continuous
 62
     4
100
AcDbLine
 10
71.09999999999998
 20
20.0
 30
0.0
 11
71.09999999999998
 21
-20.0
 31
0.0
  0
LINE
  5
E8
330
25E
100
AcDbEntity
  8
SK4
  6
DOT_CENTER
 62
     2
100
AcDbLine
 10
11.15
 20
-50.942
 30
0.0
 11
11.15
 21
-0.032
 31
0.0
  0
LINE
  5
E7
330
25E
100
AcDbEntity
  8
SK4
  6
DOT_CENTER
 62
     2
100
AcDbLine
 10
11.15
 20
50.878
 30
0.0
 11
11.15
 21
-0.032
 31
0.0
  0
LINE
  5
E6
330
25E
100
AcDbEntity
  8
1
  6
Continuous
 62
     4
100
AcDbLine
 10
77.0
 20
-20.0
 30
0.0
 11
69.01399999999999
 21
-20.0
 31
0.0
  0
LINE
  5
E5
330
25E
100
AcDbEntity
  8
1
  6
Continuous
 62
     4
100
AcDbLine
 10
64.59999999999999
 20
22.7
 30
0.0
 11
64.59999999999999
 21
-22.969
 31
0.0
  0
LINE
  5
E4
330
25E
100
AcDbEntity
  8
1
  6
Continuous
 62
     4
100
AcDbLine
 10
77.0
 20
20.0
 30
0.0
 11
69.01399999999999
 21
20.0
 31
0.0
  0
LINE
  5
E3
330
25E
100
AcDbEntity
  8
1
  6
Continuous
 62
     4
100
AcDbLine
 10
68.59999999999999
 20
19.218
 30
0.0
 11
68.59999999999999
 21
-18.873
 31
0.0
  0
LINE
  5
E2
330
25E
100
AcDbEntity
  8
1
  6
Continuous
 62
     4
100
AcDbLine
 10
77.0
 20
-18.8
 30
0.0
 11
71.09999999999998
 21
-18.8
 31
0.0
  0
LINE
  5
E1
330
25E
100
AcDbEntity
  8
1
  6
Continuous
 62
     4
100
AcDbLine
 10
77.0
 20
18.8
 30
0.0
 11
71.09999999999998
 21
18.8
 31
0.0
  0
LINE
  5
E0
330
25E
100
AcDbEntity
  8
4
  6
DOT_CENTER
 62
     2
100
AcDbLine
 10
-0.00000000000001
 20
39.768
 30
0.0
 11
-0.00000000000001
 21
-40.94299999999999
 31
0.0
  0
LINE
  5
DF
330
25E
100
AcDbEntity
  8
1
  6
Continuous
 62
     4
100
AcDbLine
 10
68.307
 20
20.293
 30
0.0
 11
65.479
 21
23.121
 31
0.0
  0
LINE
  5
DE
330
25E
100
AcDbEntity
  8
1
  6
Continuous
 62
     4
100
AcDbLine
 10
68.307
 20
-20.293
 30
0.0
 11
65.479
 21
-23.121
 31
0.0
  0
LINE
  5
DD
330
25E
100
AcDbEntity
  8
4
  6
DOT_CENTER
 62
     2
100
AcDbLine
 10
-101.75
 20
0.0
 30
0.0
 11
100.0
 21
0.0
 31
0.0
  0
LINE
  5
DC
330
25E
100
AcDbEntity
  8
1
  6
Continuous
 62
     4
100
AcDbLine
 10
90.0
 20
20.396
 30
0.0
 11
97.69100000000001
 21
20.396
 31
0.0
  0
LINE
  5
DB
330
25E
100
AcDbEntity
  8
1
  6
Continuous
 62
     4
100
AcDbLine
 10
0.7
 20
-35.027
 30
0.0
 11
2.199999999999988
 21
-35.027
 31
0.0
  0
LINE
  5
DA
330
25E
100
AcDbEntity
  8
1
  6
Continuous
 62
     4
100
AcDbLine
 10
2.199999999999988
 20
35.027
 30
0.0
 11
0.7
 21
35.027
 31
0.0
  0
LINE
  5
D9
330
25E
100
AcDbEntity
  8
1
  6
Continuous
 62
     4
100
AcDbLine
 10
0.7
 20
35.027
 30
0.0
 11
0.7
 21
-35.027
 31
0.0
  0
LINE
  5
D8
330
25E
100
AcDbEntity
  8
1
  6
Continuous
 62
     4
100
AcDbLine
 10
3.19999999999999
 20
36.027
 30
0.0
 11
3.19999999999999
 21
-36.027
 31
0.0
  0
LINE
  5
D7
330
25E
100
AcDbEntity
  8
1
  6
Continuous
 62
     4
100
AcDbLine
 10
3.19999999999999
 20
12.875
 30
0.0
 11
19.1
 21
12.875
 31
0.0
  0
LINE
  5
D6
330
25E
100
AcDbEntity
  8
1
  6
Continuous
 62
     4
100
AcDbLine
 10
3.19999999999999
 20
-12.825
 30
0.0
 11
19.1
 21
-12.825
 31
0.0
  0
LINE
  5
D5
330
25E
100
AcDbEntity
  8
1
  6
Continuous
 62
     4
100
AcDbLine
 10
3.19999999999999
 20
-29.975
 30
0.0
 11
19.1
 21
-29.975
 31
0.0
  0
LINE
  5
D4
330
25E
100
AcDbEntity
  8
1
  6
Continuous
 62
     4
100
AcDbLine
 10
19.1
 20
39.0
 30
0.0
 11
19.1
 21
-39.0
 31
0.0
  0
LINE
  5
D3
330
25E
100
AcDbEntity
  8
1
  6
Continuous
 62
     4
100
AcDbLine
 10
90.0
 20
-20.396
 30
0.0
 11
97.69100000000001
 21
-20.396
 31
0.0
  0
LINE
  5
D2
330
25E
100
AcDbEntity
  8
1
  6
Continuous
 62
     4
100
AcDbLine
 10
97.117
 20
-22.994
 30
0.0
 11
79.0
 21
-22.994
 31
0.0
  0
LINE
  5
D1
330
25E
100
AcDbEntity
  8
1
  6
Continuous
 62
     4
100
AcDbLine
 10
79.0
 20
-22.994
 30
0.0
 11
79.0
 21
-19.994
 31
0.0
  0
LINE
  5
D0
330
25E
100
AcDbEntity
  8
1
  6
Continuous
 62
     4
100
AcDbLine
 10
79.0
 20
-19.994
 30
0.0
 11
97.69100000000001
 21
-19.994
 31
0.0
  0
LINE
  5
CF
330
25E
100
AcDbEntity
  8
1
  6
Continuous
 62
     4
100
AcDbLine
 10
97.69100000000001
 20
-19.994
 30
0.0
 11
97.69100000000001
 21
-22.0
 31
0.0
  0
LINE
  5
CE
330
25E
100
AcDbEntity
  8
1
  6
Continuous
 62
     4
100
AcDbLine
 10
63.357
 20
-24.0
 30
0.0
 11
34.1
 21
-24.0
 31
0.0
  0
LINE
  5
CD
330
25E
100
AcDbEntity
  8
1
  6
Continuous
 62
     4
100
AcDbLine
 10
3.19999999999999
 20
-38.329
 30
0.0
 11
7.16799999999999
 21
-38.329
 31
0.0
  0
LINE
  5
CC
330
25E
100
AcDbEntity
  8
1
  6
Continuous
 62
     4
100
AcDbLine
 10
7.16799999999999
 20
-38.329
 30
0.0
 11
9.274999999999987
 21
-34.426
 31
0.0
  0
LINE
  5
CB
330
25E
100
AcDbEntity
  8
1
  6
Continuous
 62
     4
100
AcDbLine
 10
9.274999999999987
 20
-34.426
 30
0.0
 11
13.025
 21
-34.426
 31
0.0
  0
LINE
  5
CA
330
25E
100
AcDbEntity
  8
1
  6
Continuous
 62
     4
100
AcDbLine
 10
13.025
 20
-34.426
 30
0.0
 11
15.132
 21
-38.329
 31
0.0
  0
LINE
  5
C9
330
25E
100
AcDbEntity
  8
1
  6
Continuous
 62
     4
100
AcDbLine
 10
15.132
 20
-38.329
 30
0.0
 11
19.1
 21
-38.329
 31
0.0
  0
LINE
  5
C8
330
25E
100
AcDbEntity
  8
1
  6
Continuous
 62
     4
100
AcDbLine
 10
13.025
 20
12.875
 30
0.0
 11
13.025
 21
45.625
 31
0.0
  0
LINE
  5
C7
330
25E
100
AcDbEntity
  8
1
  6
Continuous
 62
     4
100
AcDbLine
 10
13.025
 20
-29.975
 30
0.0
 11
13.025
 21
-12.825
 31
0.0
  0
LINE
  5
C6
330
25E
100
AcDbEntity
  8
1
  6
Continuous
 62
     4
100
AcDbLine
 10
13.025
 20
-45.625
 30
0.0
 11
13.025
 21
-34.426
 31
0.0
  0
LINE
  5
C5
330
25E
100
AcDbEntity
  8
1
  6
Continuous
 62
     4
100
AcDbLine
 10
15.132
 20
-38.329
 30
0.0
 11
15.132
 21
-48.75
 31
0.0
  0
LINE
  5
C4
330
25E
100
AcDbEntity
  8
1
  6
Continuous
 62
     4
100
AcDbLine
 10
15.132
 20
-12.825
 30
0.0
 11
15.132
 21
-29.975
 31
0.0
  0
LINE
  5
C3
330
25E
100
AcDbEntity
  8
1
  6
Continuous
 62
     4
100
AcDbLine
 10
15.132
 20
48.75
 30
0.0
 11
15.132
 21
12.875
 31
0.0
  0
LINE
  5
C2
330
25E
100
AcDbEntity
  8
1
  6
Continuous
 62
     4
100
AcDbLine
 10
9.274999999999987
 20
-34.426
 30
0.0
 11
9.274999999999987
 21
-45.625
 31
0.0
  0
LINE
  5
C1
330
25E
100
AcDbEntity
  8
1
  6
Continuous
 62
     4
100
AcDbLine
 10
9.274999999999987
 20
-12.825
 30
0.0
 11
9.274999999999987
 21
-29.975
 31
0.0
  0
LINE
  5
C0
330
25E
100
AcDbEntity
  8
1
  6
Continuous
 62
     4
100
AcDbLine
 10
9.274999999999987
 20
45.625
 30
0.0
 11
9.274999999999987
 21
12.875
 31
0.0
  0
LINE
  5
BF
330
25E
100
AcDbEntity
  8
1
  6
Continuous
 62
     4
100
AcDbLine
 10
7.16799999999999
 20
12.875
 30
0.0
 11
7.16799999999999
 21
48.75
 31
0.0
  0
LINE
  5
BE
330
25E
100
AcDbEntity
  8
1
  6
Continuous
 62
     4
100
AcDbLine
 10
7.16799999999999
 20
-29.975
 30
0.0
 11
7.16799999999999
 21
-12.825
 31
0.0
  0
LINE
  5
BD
330
25E
100
AcDbEntity
  8
1
  6
Continuous
 62
     4
100
AcDbLine
 10
7.16799999999999
 20
-48.75
 30
0.0
 11
7.16799999999999
 21
-38.329
 31
0.0
  0
LINE
  5
BC
330
25E
100
AcDbEntity
  8
1
  6
Continuous
 62
     4
100
AcDbLine
 10
19.1
 20
47.75
 30
0.0
 11
19.1
 21
20.0
 31
0.0
  0
LINE
  5
BB
330
25E
100
AcDbEntity
  8
1
  6
Continuous
 62
     4
100
AcDbLine
 10
11.15
 20
45.625
 30
0.0
 11
13.025
 21
45.625
 31
0.0
  0
LINE
  5
BA
330
25E
100
AcDbEntity
  8
1
  6
Continuous
 62
     4
100
AcDbLine
 10
13.025
 20
45.625
 30
0.0
 11
15.132
 21
48.75
 31
0.0
  0
LINE
  5
B9
330
25E
100
AcDbEntity
  8
1
  6
Continuous
 62
     4
100
AcDbLine
 10
15.132
 20
48.75
 30
0.0
 11
18.1
 21
48.75
 31
0.0
  0
LINE
  5
B8
330
25E
100
AcDbEntity
  8
1
  6
Continuous
 62
     4
100
AcDbLine
 10
3.19999999999999
 20
47.75
 30
0.0
 11
3.19999999999999
 21
36.027
 31
0.0
  0
LINE
  5
B7
330
25E
100
AcDbEntity
  8
1
  6
Continuous
 62
     4
100
AcDbLine
 10
11.15
 20
45.625
 30
0.0
 11
9.274999999999987
 21
45.625
 31
0.0
  0
LINE
  5
B6
330
25E
100
AcDbEntity
  8
1
  6
Continuous
 62
     4
100
AcDbLine
 10
9.274999999999987
 20
45.625
 30
0.0
 11
7.16799999999999
 21
48.75
 31
0.0
  0
LINE
  5
B5
330
25E
100
AcDbEntity
  8
1
  6
Continuous
 62
     4
100
AcDbLine
 10
7.16799999999999
 20
48.75
 30
0.0
 11
4.19999999999999
 21
48.75
 31
0.0
  0
LINE
  5
B4
330
25E
100
AcDbEntity
  8
1
  6
Continuous
 62
     4
100
AcDbLine
 10
19.1
 20
-47.75
 30
0.0
 11
19.1
 21
-19.968
 31
0.0
  0
LINE
  5
B3
330
25E
100
AcDbEntity
  8
1
  6
Continuous
 62
     4
100
AcDbLine
 10
11.15
 20
-45.625
 30
0.0
 11
13.025
 21
-45.625
 31
0.0
  0
LINE
  5
B2
330
25E
100
AcDbEntity
  8
1
  6
Continuous
 62
     4
100
AcDbLine
 10
13.025
 20
-45.625
 30
0.0
 11
15.132
 21
-48.75
 31
0.0
  0
LINE
  5
B1
330
25E
100
AcDbEntity
  8
1
  6
Continuous
 62
     4
100
AcDbLine
 10
15.132
 20
-48.75
 30
0.0
 11
18.1
 21
-48.75
 31
0.0
  0
LINE
  5
B0
330
25E
100
AcDbEntity
  8
1
  6
Continuous
 62
     4
100
AcDbLine
 10
3.19999999999999
 20
-47.75
 30
0.0
 11
3.19999999999999
 21
-36.027
 31
0.0
  0
LINE
  5
AF
330
25E
100
AcDbEntity
  8
1
  6
Continuous
 62
     4
100
AcDbLine
 10
11.15
 20
-45.625
 30
0.0
 11
9.274999999999987
 21
-45.625
 31
0.0
  0
LINE
  5
AE
330
25E
100
AcDbEntity
  8
1
  6
Continuous
 62
     4
100
AcDbLine
 10
9.274999999999987
 20
-45.625
 30
0.0
 11
7.16799999999999
 21
-48.75
 31
0.0
  0
LINE
  5
AD
330
25E
100
AcDbEntity
  8
1
  6
Continuous
 62
     4
100
AcDbLine
 10
7.16799999999999
 20
-48.75
 30
0.0
 11
4.19999999999999
 21
-48.75
 31
0.0
  0
LINE
  5
AC
330
25E
100
AcDbEntity
  8
1
  6
Continuous
 62
     4
100
AcDbLine
 10
-99.61100000000001
 20
-20.398
 30
0.0
 11
0.7020000000000001
 21
-35.027
 31
0.0
  0
LINE
  5
AB
330
25E
100
AcDbEntity
  8
1
  6
Continuous
 62
     4
100
AcDbLine
 10
-101.75
 20
17.924
 30
0.0
 11
-101.75
 21
-17.925
 31
0.0
  0
LINE
  5
AA
330
25E
100
AcDbEntity
  8
1
  6
Continuous
 62
     4
100
AcDbLine
 10
-99.61100000000001
 20
20.399
 30
0.0
 11
0.7
 21
35.027
 31
0.0
  0
LINE
  5
A9
330
25E
100
AcDbEntity
  8
1
  6
Continuous
 62
     4
100
AcDbLine
 10
97.117
 20
22.994
 30
0.0
 11
79.0
 21
22.994
 31
0.0
  0
LINE
  5
A8
330
25E
100
AcDbEntity
  8
1
  6
Continuous
 62
     4
100
AcDbLine
 10
79.0
 20
22.994
 30
0.0
 11
79.0
 21
19.994
 31
0.0
  0
LINE
  5
A7
330
25E
100
AcDbEntity
  8
1
  6
Continuous
 62
     4
100
AcDbLine
 10
79.0
 20
19.994
 30
0.0
 11
97.69100000000001
 21
19.994
 31
0.0
  0
LINE
  5
A6
330
25E
100
AcDbEntity
  8
1
  6
Continuous
 62
     4
100
AcDbLine
 10
97.69100000000001
 20
19.994
 30
0.0
 11
97.69100000000001
 21
22.0
 31
0.0
  0
LINE
  5
A5
330
25E
100
AcDbEntity
  8
1
  6
Continuous
 62
     4
100
AcDbLine
 10
79.0
 20
-3.0
 30
0.0
 11
97.69100000000001
 21
-3.0
 31
0.0
  0
LINE
  5
A4
330
25E
100
AcDbEntity
  8
1
  6
Continuous
 62
     4
100
AcDbLine
 10
97.69100000000001
 20
-3.0
 30
0.0
 11
97.69100000000001
 21
3.0
 31
0.0
  0
LINE
  5
A3
330
25E
100
AcDbEntity
  8
1
  6
Continuous
 62
     4
100
AcDbLine
 10
97.69100000000001
 20
3.0
 30
0.0
 11
79.0
 21
3.0
 31
0.0
  0
LINE
  5
A2
330
25E
100
AcDbEntity
  8
1
  6
Continuous
 62
     4
100
AcDbLine
 10
79.0
 20
3.0
 30
0.0
 11
79.0
 21
-3.0
 31
0.0
  0
LINE
  5
A1
330
25E
100
AcDbEntity
  8
1
  6
Continuous
 62
     4
100
AcDbLine
 10
95.959
 20
-22.994
 30
0.0
 11
95.959
 21
-25.0
 31
0.0
  0
LINE
  5
A0
330
25E
100
AcDbEntity
  8
1
  6
Continuous
 62
     4
100
AcDbLine
 10
95.959
 20
-3.0
 30
0.0
 11
95.959
 21
-19.994
 31
0.0
  0
LINE
  5
9F
330
25E
100
AcDbEntity
  8
1
  6
Continuous
 62
     4
100
AcDbLine
 10
95.959
 20
19.994
 30
0.0
 11
95.959
 21
3.0
 31
0.0
  0
LINE
  5
9E
330
25E
100
AcDbEntity
  8
1
  6
Continuous
 62
     4
100
AcDbLine
 10
95.959
 20
25.0
 30
0.0
 11
95.959
 21
22.994
 31
0.0
  0
LINE
  5
9D
330
25E
100
AcDbEntity
  8
1
  6
Continuous
 62
     4
100
AcDbLine
 10
77.0
 20
23.5
 30
0.0
 11
77.0
 21
-23.5
 31
0.0
  0
LINE
  5
9C
330
25E
100
AcDbEntity
  8
1
  6
Continuous
 62
     4
100
AcDbLine
 10
78.5
 20
-25.0
 30
0.0
 11
95.959
 21
-25.0
 31
0.0
  0
LINE
  5
9B
330
25E
100
AcDbEntity
  8
1
  6
Continuous
 62
     4
100
AcDbLine
 10
95.959
 20
-25.0
 30
0.0
 11
100.0
 21
-18.0
 31
0.0
  0
LINE
  5
9A
330
25E
100
AcDbEntity
  8
1
  6
Continuous
 62
     4
100
AcDbLine
 10
100.0
 20
-18.0
 30
0.0
 11
100.0
 21
18.0
 31
0.0
  0
LINE
  5
99
330
25E
100
AcDbEntity
  8
1
  6
Continuous
 62
     4
100
AcDbLine
 10
100.0
 20
18.0
 30
0.0
 11
95.959
 21
25.0
 31
0.0
  0
LINE
  5
98
330
25E
100
AcDbEntity
  8
1
  6
Continuous
 62
     4
100
AcDbLine
 10
95.959
 20
25.0
 30
0.0
 11
78.5
 21
25.0
 31
0.0
  0
LINE
  5
97
330
25E
100
AcDbEntity
  8
1
  6
Continuous
 62
     4
100
AcDbLine
 10
63.357
 20
24.0
 30
0.0
 11
34.1
 21
24.0
 31
0.0
  0
LINE
  5
96
330
25E
100
AcDbEntity
  8
SK4
  6
DOT_CENTER
 62
     2
100
AcDbLine
 10
-104.81
 20
0.0
 30
0.0
 11
102.797
 21
0.0
 31
0.0
  0
LINE
  5
92
330
25E
100
AcDbEntity
  8
SK3
  6
DASHED
 62
     1
100
AcDbLine
 10
-88.6922
 20
10.5
 30
0.0
 11
-40.1
 21
10.5
 31
0.0
  0
LINE
  5
91
330
25E
100
AcDbEntity
  8
SK3
  6
DASHED
 62
     1
100
AcDbLine
 10
-88.6922
 20
-10.5
 30
0.0
 11
-40.1
 21
-10.5
 31
0.0
  0
LINE
  5
90
330
25E
100
AcDbEntity
  8
SK3
  6
DASHED
 62
     1
100
AcDbLine
 10
-89.84999999999997
 20
12.50527
 30
0.0
 11
-100.35
 21
12.50527
 31
0.0
  0
LINE
  5
8F
330
25E
100
AcDbEntity
  8
SK3
  6
DASHED
 62
     1
100
AcDbLine
 10
-89.84999999999997
 20
-12.50527
 30
0.0
 11
-100.35
 21
-12.50527
 31
0.0
  0
LINE
  5
8E
330
25E
100
AcDbEntity
  8
SK3
  6
DASHED
 62
     1
100
AcDbLine
 10
-54.6
 20
12.0
 30
0.0
 11
-54.6
 21
-12.0
 31
0.0
  0
LINE
  5
8D
330
25E
100
AcDbEntity
  8
SK3
  6
DASHED
 62
     1
100
AcDbLine
 10
-89.84999999999997
 20
12.50533
 30
0.0
 11
-89.84999999999997
 21
-12.50527
 31
0.0
  0
LINE
  5
8C
330
25E
100
AcDbEntity
  8
SK3
  6
DASHED
 62
     1
100
AcDbLine
 10
-89.84999999999997
 20
12.50533
 30
0.0
 11
-88.6922
 21
10.5
 31
0.0
  0
LINE
  5
8B
330
25E
100
AcDbEntity
  8
SK3
  6
DASHED
 62
     1
100
AcDbLine
 10
-89.56126999999998
 20
-12.0
 30
0.0
 11
-54.6
 21
-12.0
 31
0.0
  0
LINE
  5
8A
330
25E
100
AcDbEntity
  8
SK3
  6
DASHED
 62
     1
100
AcDbLine
 10
-88.6922
 20
10.5
 30
0.0
 11
-88.6922
 21
-10.5
 31
0.0
  0
LINE
  5
89
330
25E
100
AcDbEntity
  8
SK3
  6
DASHED
 62
     1
100
AcDbLine
 10
-89.84999999999997
 20
-12.50533
 30
0.0
 11
-88.6922
 21
-10.5
 31
0.0
  0
LINE
  5
88
330
25E
100
AcDbEntity
  8
SK3
  6
DASHED
 62
     1
100
AcDbLine
 10
-89.56126999999998
 20
12.0
 30
0.0
 11
-54.6
 21
12.0
 31
0.0
  0
LINE
  5
87
330
25E
100
AcDbEntity
  8
SK3
  6
DASHED
 62
     1
100
AcDbLine
 10
-40.1
 20
10.5
 30
0.0
 11
-40.1
 21
-10.5
 31
0.0
  0
LINE
  5
86
330
25E
100
AcDbEntity
  8
SK3
  6
DASHED
 62
     1
100
AcDbLine
 10
88.0
 20
24.99999999999
 30
0.0
 11
88.0
 21
-24.99999999999
 31
0.0
  0
LINE
  5
85
330
25E
100
AcDbEntity
  8
SK3
  6
DASHED
 62
     1
100
AcDbLine
 10
54.66666666668
 20
12.499999999995
 30
0.0
 11
54.66666666668
 21
-11.541666666662
 31
0.0
  0
LINE
  5
84
330
25E
100
AcDbEntity
  8
SK3
  6
DASHED
 62
     1
100
AcDbLine
 10
46.33333333334999
 20
12.499999999995
 30
0.0
 11
46.33333333334999
 21
-12.499999999995
 31
0.0
  0
LINE
  5
83
330
25E
100
AcDbEntity
  8
SK3
  6
DASHED
 62
     1
100
AcDbLine
 10
88.0
 20
-13.7083333333278
 30
0.0
 11
54.66666666668
 21
-12.0416666666619
 31
0.0
  0
LINE
  5
82
330
25E
100
AcDbEntity
  8
SK3
  6
DASHED
 62
     1
100
AcDbLine
 10
47.166666666683
 20
-13.333333333328
 30
0.0
 11
53.833333333347
 21
-13.333333333328
 31
0.0
  0
LINE
  5
81
330
25E
100
AcDbEntity
  8
SK3
  6
DASHED
 62
     1
100
AcDbLine
 10
54.66666666668
 20
-12.499999999995
 30
0.0
 11
54.66666666668
 21
-11.541666666662
 31
0.0
  0
LINE
  5
80
330
25E
100
AcDbEntity
  8
SK3
  6
DASHED
 62
     1
100
AcDbLine
 10
88.0
 20
13.7083333333278
 30
0.0
 11
54.66666666668
 21
12.0416666666619
 31
0.0
  0
LINE
  5
7F
330
25E
100
AcDbEntity
  8
SK3
  6
DASHED
 62
     1
100
AcDbLine
 10
53.833333333347
 20
13.333333333328
 30
0.0
 11
47.166666666683
 21
13.333333333328
 31
0.0
  0
LINE
  5
7E
330
25E
100
AcDbEntity
  8
SK3
  6
Continuous
 62
     1
100
AcDbLine
 10
54.66666666668
 20
11.541666666662
 30
0.0
 11
54.66666666668
 21
12.499999999995
 31
0.0
  0
LINE
  5
7D
330
25E
100
AcDbEntity
  8
SK3
  6
DASHED
 62
     1
100
AcDbLine
 10
-40.1
 20
10.5
 30
0.0
 11
46.33333333334999
 21
10.5
 31
0.0
  0
LINE
  5
7C
330
25E
100
AcDbEntity
  8
SK3
  6
DASHED
 62
     1
100
AcDbLine
 10
-40.1
 20
-10.5
 30
0.0
 11
46.33333333334999
 21
-10.5
 31
0.0
  0
TEXT
  5
130
330
25E
100
AcDbEntity
  8
SK6
 62
     5
100
AcDbText
 10
-95.4082448218574
 20
-39.56241890041662
 30
0.0
 40
3.5
  1
A1B14-50 32 100
  7
CONVERTER_1
100
AcDbText
  0
LINE
  5
13D
330
25E
100
AcDbEntity
  8
80
  6
Continuous
100
AcDbLine
 10
-0.00000000000001
 20
0.0
 30
0.0
 11
-10.00000000000001
 21
0.0000000000000012
 31
0.0
  0
POINT
  5
13E
330
25E
100
AcDbEntity
  8
80
  6
Continuous
100
AcDbPoint
 10
-0.00000000000001
 20
0.0
 30
0.0
  0
LINE
  5
13F
330
25E
100
AcDbEntity
  8
81
  6
Continuous
100
AcDbLine
 10
87.33999999999998
 20
0.0
 30
0.0
 11
97.34000000000001
 21
0.0
 31
0.0
  0
POINT
  5
140
330
25E
100
AcDbEntity
  8
81
  6
Continuous
100
AcDbPoint
 10
100.0
 20
0.0
 30
0.0
  0
DIMENSION
  5
2AB
330
25E
100
AcDbEntity
  8
SK2
  6
Continuous
 62
     7
100
AcDbDimension
  2
*D25
 10
-134.5229846367534
 20
-48.74999999999996
 30
0.0
 11
-121.6829846367534
 21
58.56599571400511
 31
0.0
 70
   160
 71
     5
 42
97.5
  3
STANDARD
100
AcDbAlignedDimension
 13
4.19999999999999
 23
48.75
 33
0.0
 14
4.19999999999999
 24
-48.75
 34
0.0
 50
90.0
100
AcDbRotatedDimension
1001
ACAD
1000
DSTYLE
1002
{
1070
     3
1000
ø<>
1070
   140
1040
3.0
1070
    41
1040
3.0
1070
   279
1070
     0
1002
}
  0
DIMENSION
  5
301
330
25E
100
AcDbEntity
  8
SK2
  6
Continuous
 62
     7
100
AcDbDimension
  2
*D26
 10
-21.96221140844896
 20
-34.92462485420632
 30
0.0
 11
-12.87221140844895
 21
52.03960357808329
 31
0.0
 70
   160
 71
     5
 42
69.84954631845252
  3
STANDARD
100
AcDbAlignedDimension
 13
-0.00000000000001
 23
34.9249214642462
 33
0.0
 14
-0.00000000000001
 24
-34.92462485420633
 34
0.0
 50
90.0
100
AcDbRotatedDimension
1001
ACAD
1000
DSTYLE
1002
{
1070
   271
1070
     2
1070
   140
1040
3.0
1070
    41
1040
3.0
1070
   279
1070
     0
1002
}
  0
DIMENSION
  5
356
330
25E
100
AcDbEntity
  8
SK2
  6
Continuous
 62
     7
100
AcDbDimension
  2
*D27
 10
123.861735517449
 20
-25.00000000000001
 30
0.0
 11
123.861735517449
 21
0.0000000000000137
 31
0.0
 70
    32
 71
     5
 42
50.0
  3
STANDARD
100
AcDbAlignedDimension
 13
95.959
 23
25.0
 33
0.0
 14
95.959
 24
-25.0
 34
0.0
 50
90.0
100
AcDbRotatedDimension
1001
ACAD
1000
DSTYLE
1002
{
1070
     3
1000
ø<>
1070
   140
1040
3.0
1070
    41
1040
3.0
1070
   279
1070
     0
1002
}
  0
DIMENSION
  5
396
330
25E
100
AcDbEntity
  8
2
  6
Continuous
 62
     7
100
AcDbDimension
  2
*D28
 10
-0.0000000000000134
 20
-55.80045652456488
 30
0.0
 11
43.66999999999999
 21
-55.80045652456488
 31
0.0
 70
    32
 71
     5
 42
87.34000000000001
  3
STANDARD
100
AcDbAlignedDimension
 13
87.33999999999998
 23
0.0
 33
0.0
 14
-0.00000000000001
 24
0.0
 34
0.0
100
AcDbRotatedDimension
1001
ACAD
1000
DSTYLE
1002
{
1070
   140
1040
3.0
1070
    41
1040
3.0
1070
   279
1070
     0
1002
}
  0
DIMENSION
  5
426
330
25E
100
AcDbEntity
  8
SK2
  6
Continuous
 62
     7
100
AcDbDimension
  2
*D29
 10
-101.75
 20
78.07297619654423
 30
0.0
 11
-50.87500000000001
 21
78.07297619654423
 31
0.0
 70
    32
 71
     5
 42
101.75
  3
STANDARD
100
AcDbAlignedDimension
 13
-0.00000000000001
 23
39.768
 33
0.0
 14
-101.75
 24
17.924
 34
0.0
100
AcDbRotatedDimension
1001
ACAD
1000
DSTYLE
1002
{
1070
   140
1040
3.0
1070
    41
1040
3.0
1070
   279
1070
     0
1002
}
  0
DIMENSION
  5
434
330
25E
100
AcDbEntity
  8
SK2
  6
Continuous
 62
     7
100
AcDbDimension
  2
*D30
 10
-118.7462517917058
 20
-11.99999999999999
 30
0.0
 11
-118.7462517917058
 21
-0.0000000000000105
 31
0.0
 70
    32
 71
     5
 42
24.0
  3
STANDARD
100
AcDbAlignedDimension
 13
-89.5582419980751
 23
12.0
 33
0.0
 14
-89.5582419980751
 24
-12.0
 34
0.0
 50
90.0
100
AcDbRotatedDimension
1001
ACAD
1000
DSTYLE
1002
{
1070
     3
1000
M<>
1070
   140
1040
3.0
1070
    41
1040
3.0
1070
   279
1070
     0
1002
}
  0
DIMENSION
  5
442
330
25E
100
AcDbEntity
  8
2
  6
Continuous
 62
     7
100
AcDbDimension
  2
*D31
 10
100.0
 20
78.0410932344696
 30
0.0
 11
50.0
 21
78.0410932344696
 31
0.0
 70
    32
 71
     5
 42
100.0
  3
STANDARD
100
AcDbAlignedDimension
 13
-0.00000000000001
 23
39.8305
 33
0.0
 14
100.0
 24
18.0
 34
0.0
100
AcDbRotatedDimension
1001
ACAD
1000
DSTYLE
1002
{
1070
   140
1040
3.0
1070
    41
1040
3.0
1070
   279
1070
     0
1002
}
  0
DIMENSION
  5
450
330
25E
100
AcDbEntity
  8
2
  6
Continuous
 62
     7
100
AcDbDimension
  2
*D32
 10
19.1
 20
65.92636271587685
 30
0.0
 11
9.549999999999997
 21
65.92636271587685
 31
0.0
 70
    32
 71
     5
 42
19.10000000000001
  3
STANDARD
100
AcDbAlignedDimension
 13
-0.00000000000001
 23
39.893
 33
0.0
 14
19.1
 24
47.75
 34
0.0
100
AcDbRotatedDimension
1001
ACAD
1000
DSTYLE
1002
{
1070
   140
1040
3.0
1070
    41
1040
3.0
1070
   279
1070
     0
1002
}
  0
ENDSEC
  0
SECTION
  2
OBJECTS
  0
DICTIONARY
  5
1F4
330
0
100
AcDbDictionary
281
     1
  3
ACAD_COLOR
350
255
  3
ACAD_GROUP
350
1F5
  3
ACAD_LAYOUT
350
254
  3
ACAD_MATERIAL
350
1F8
  3
ACAD_MLEADERSTYLE
350
258
  3
ACAD_MLINESTYLE
350
251
  3
ACAD_PLOTSETTINGS
350
253
  3
ACAD_PLOTSTYLENAME
350
1F6
  3
ACAD_SCALELIST
350
225
  3
ACAD_TABLESTYLE
350
256
  3
ACAD_VISUALSTYLE
350
211
  3
ACDB_RECOMPOSE_DATA
350
50A
  3
AcDbVariableDictionary
350
3E7
  3
ASE_INDEX_DICTIONARY
350
3E5
  3
DWGPROPS
350
50B
  0
DICTIONARY
  5
3CC
330
247
100
AcDbDictionary
280
     1
281
     1
  3
ADSK_XREC_LAYER_RECONCILED
360
3CD
  0
DICTIONARY
  5
3CE
330
262
100
AcDbDictionary
280
     1
281
     1
  3
ADSK_XREC_LAYER_RECONCILED
360
3CF
  0
DICTIONARY
  5
3D0
330
26B
100
AcDbDictionary
280
     1
281
     1
  3
ADSK_XREC_LAYER_RECONCILED
360
3D1
  0
DICTIONARY
  5
3D2
330
26C
100
AcDbDictionary
280
     1
281
     1
  3
ADSK_XREC_LAYER_RECONCILED
360
3D3
  0
DICTIONARY
  5
3D4
330
26D
100
AcDbDictionary
280
     1
281
     1
  3
ADSK_XREC_LAYER_RECONCILED
360
3D5
  0
DICTIONARY
  5
3D6
330
26E
100
AcDbDictionary
280
     1
281
     1
  3
ADSK_XREC_LAYER_RECONCILED
360
3D7
  0
DICTIONARY
  5
3D8
330
26F
100
AcDbDictionary
280
     1
281
     1
  3
ADSK_XREC_LAYER_RECONCILED
360
3D9
  0
DICTIONARY
  5
3DA
330
270
100
AcDbDictionary
280
     1
281
     1
  3
ADSK_XREC_LAYER_RECONCILED
360
3DB
  0
DICTIONARY
  5
3DC
330
271
100
AcDbDictionary
280
     1
281
     1
  3
ADSK_XREC_LAYER_RECONCILED
360
3DD
  0
DICTIONARY
  5
3DE
330
272
100
AcDbDictionary
280
     1
281
     1
  3
ADSK_XREC_LAYER_RECONCILED
360
3DF
  0
DICTIONARY
  5
3E0
330
273
100
AcDbDictionary
280
     1
281
     1
  3
ADSK_XREC_LAYER_RECONCILED
360
3E1
  0
DICTIONARY
  5
3E2
330
274
100
AcDbDictionary
280
     1
281
     1
  3
ADSK_XREC_LAYER_RECONCILED
360
3E3
  0
DICTIONARY
  5
255
102
{ACAD_REACTORS
330
1F4
102
}
330
1F4
100
AcDbDictionary
281
     1
  0
DICTIONARY
  5
1F5
102
{ACAD_REACTORS
330
1F4
102
}
330
1F4
100
AcDbDictionary
281
     1
  0
DICTIONARY
  5
254
102
{ACAD_REACTORS
330
1F4
102
}
330
1F4
100
AcDbDictionary
281
     1
  3
Layout1
350
25D
  3
Model
350
261
  0
DICTIONARY
  5
1F8
102
{ACAD_REACTORS
330
1F4
102
}
330
1F4
100
AcDbDictionary
281
     1
  3
ByBlock
350
201
  3
ByLayer
350
1F9
  3
Global
350
209
  0
DICTIONARY
  5
258
102
{ACAD_REACTORS
330
1F4
102
}
330
1F4
100
AcDbDictionary
281
     1
  3
Standard
350
259
  0
DICTIONARY
  5
251
102
{ACAD_REACTORS
330
1F4
102
}
330
1F4
100
AcDbDictionary
281
     1
  3
Standard
350
252
  0
DICTIONARY
  5
253
102
{ACAD_REACTORS
330
1F4
102
}
330
1F4
100
AcDbDictionary
281
     1
  0
ACDBDICTIONARYWDFLT
  5
1F6
102
{ACAD_REACTORS
330
1F4
102
}
330
1F4
100
AcDbDictionary
281
     1
  3
Normal
350
1F7
100
AcDbDictionaryWithDefault
340
1F7
  0
DICTIONARY
  5
225
102
{ACAD_REACTORS
330
1F4
102
}
330
1F4
100
AcDbDictionary
281
     1
  3
A0
350
226
  3
A1
350
227
  3
A2
350
228
  3
A3
350
229
  3
A4
350
22A
  3
A5
350
22B
  3
A6
350
22C
  3
A7
350
22D
  3
A8
350
22E
  3
A9
350
22F
  3
B0
350
230
  3
B1
350
231
  3
B2
350
232
  3
B3
350
233
  3
B4
350
234
  3
B5
350
235
  3
B6
350
236
  3
B7
350
237
  3
B8
350
238
  3
B9
350
239
  3
C0
350
23A
  3
C1
350
23B
  3
C2
350
23C
  3
C3
350
23D
  3
C4
350
23E
  3
C5
350
23F
  3
C6
350
240
  3
C7
350
241
  3
C8
350
242
  3
C9
350
243
  3
D0
350
244
  3
D1
350
245
  3
D2
350
246
  0
DICTIONARY
  5
256
102
{ACAD_REACTORS
330
1F4
102
}
330
1F4
100
AcDbDictionary
281
     1
  3
Standard
350
257
  0
DICTIONARY
  5
211
102
{ACAD_REACTORS
330
1F4
102
}
330
1F4
100
AcDbDictionary
281
     1
  3
2dWireframe
350
217
  3
3D Hidden
350
219
  3
3dWireframe
350
218
  3
Basic
350
216
  3
Brighten
350
21D
  3
ColorChange
350
221
  3
Conceptual
350
21A
  3
Dim
350
21C
  3
EdgeColorOff
350
224
  3
Facepattern
350
220
  3
Flat
350
212
  3
FlatWithEdges
350
213
  3
Gouraud
350
214
  3
GouraudWithEdges
350
215
  3
JitterOff
350
222
  3
Linepattern
350
21F
  3
OverhangOff
350
223
  3
Realistic
350
21B
  3
Thicken
350
21E
  0
XRECORD
  5
50A
102
{ACAD_REACTORS
330
1F4
102
}
330
1F4
100
AcDbXrecord
280
     1
 90
        1
330
257
  0
DICTIONARY
  5
3E7
102
{ACAD_REACTORS
330
1F4
102
}
330
1F4
100
AcDbDictionary
281
     1
  3
CANNOSCALE
350
3EA
  3
CMLEADERSTYLE
350
3E9
  3
CTABLESTYLE
350
3E8
  3
DIMASSOC
350
3ED
  3
INDEXCTL
350
3EC
  3
SORTENTS
350
3EB
  3
XCLIPFRAME
350
508
  0
DICTIONARY
  5
3E5
102
{ACAD_REACTORS
330
1F4
102
}
330
1F4
100
AcDbDictionary
281
     1
  3
ASEBlockHierarchyIndexRecord
350
3E6
1001
DCO15
1040
1892193471.14
  0
XRECORD
  5
50B
102
{ACAD_REACTORS
330
1F4
102
}
330
1F4
100
AcDbXrecord
280
     1
  1
DWGPROPS COOKIE
  2

  3

  4

  6

  7

  8
Konstruktion
  9

300
=
301
=
302
=
303
=
304
=
305
=
306
=
307
=
308
=
309
=
 40
0.0145956365740741
 41
2305814.042176054
 42
2457709.367053669
  1

 90
        0
  0
XRECORD
  5
3CD
102
{ACAD_REACTORS
330
3CC
102
}
330
3CC
100
AcDbXrecord
280
     1
290
     1
  0
XRECORD
  5
3CF
102
{ACAD_REACTORS
330
3CE
102
}
330
3CE
100
AcDbXrecord
280
     1
290
     1
  0
XRECORD
  5
3D1
102
{ACAD_REACTORS
330
3D0
102
}
330
3D0
100
AcDbXrecord
280
     1
290
     1
  0
XRECORD
  5
3D3
102
{ACAD_REACTORS
330
3D2
102
}
330
3D2
100
AcDbXrecord
280
     1
290
     1
  0
XRECORD
  5
3D5
102
{ACAD_REACTORS
330
3D4
102
}
330
3D4
100
AcDbXrecord
280
     1
290
     1
  0
XRECORD
  5
3D7
102
{ACAD_REACTORS
330
3D6
102
}
330
3D6
100
AcDbXrecord
280
     1
290
     1
  0
XRECORD
  5
3D9
102
{ACAD_REACTORS
330
3D8
102
}
330
3D8
100
AcDbXrecord
280
     1
290
     1
  0
XRECORD
  5
3DB
102
{ACAD_REACTORS
330
3DA
102
}
330
3DA
100
AcDbXrecord
280
     1
290
     1
  0
XRECORD
  5
3DD
102
{ACAD_REACTORS
330
3DC
102
}
330
3DC
100
AcDbXrecord
280
     1
290
     1
  0
XRECORD
  5
3DF
102
{ACAD_REACTORS
330
3DE
102
}
330
3DE
100
AcDbXrecord
280
     1
290
     1
  0
XRECORD
  5
3E1
102
{ACAD_REACTORS
330
3E0
102
}
330
3E0
100
AcDbXrecord
280
     1
290
     1
  0
XRECORD
  5
3E3
102
{ACAD_REACTORS
330
3E2
102
}
330
3E2
100
AcDbXrecord
280
     1
290
     1
  0
LAYOUT
  5
25D
102
{ACAD_XDICTIONARY
360
533
102
}
102
{ACAD_REACTORS
330
254
102
}
330
254
100
AcDbPlotSettings
  1

  2
HP Color LaserJet 5550 PCL 6
  4

  6

 40
0.0
 41
0.0
 42
0.0
 43
0.0
 44
0.0
 45
0.0
 46
0.0
 47
0.0
 48
0.0
 49
0.0
140
0.0
141
0.0
142
1.0
143
1.0
 70
   688
 72
     0
 73
     0
 74
     5
  7

 75
    16
147
1.0
148
0.0
149
0.0
100
AcDbLayout
  1
Layout1
 70
     0
 71
     1
 10
0.0
 20
0.0
 11
12.0
 21
9.0
 12
0.0
 22
0.0
 32
0.0
 14
1.000000000000000E+20
 24
1.000000000000000E+20
 34
1.000000000000000E+20
 15
-1.000000000000000E+20
 25
-1.000000000000000E+20
 35
-1.000000000000000E+20
146
0.0
 13
0.0
 23
0.0
 33
0.0
 16
1.0
 26
0.0
 36
0.0
 17
0.0
 27
1.0
 37
0.0
 76
     0
330
25A
  0
LAYOUT
  5
261
102
{ACAD_XDICTIONARY
360
535
102
}
102
{ACAD_REACTORS
330
254
102
}
330
254
100
AcDbPlotSettings
  1

  2
HP Color LaserJet 5550 PCL 6
  4

  6

 40
0.0
 41
0.0
 42
0.0
 43
0.0
 44
0.0
 45
0.0
 46
0.0
 47
0.0
 48
0.0
 49
0.0
140
0.0
141
0.0
142
1.0
143
1.0
 70
  1712
 72
     0
 73
     0
 74
     0
  7

 75
     0
147
1.0
148
0.0
149
0.0
100
AcDbLayout
  1
Model
 70
     1
 71
     0
 10
0.0
 20
0.0
 11
12.0
 21
9.0
 12
0.0
 22
0.0
 32
0.0
 14
0.0
 24
0.0
 34
0.0
 15
0.0
 25
0.0
 35
0.0
146
0.0
 13
0.0
 23
0.0
 33
0.0
 16
1.0
 26
0.0
 36
0.0
 17
0.0
 27
1.0
 37
0.0
 76
     0
330
25E
331
263
  0
MATERIAL
  5
201
102
{ACAD_XDICTIONARY
360
202
102
}
102
{ACAD_REACTORS
330
1F8
102
}
330
1F8
100
AcDbMaterial
  1
ByBlock
 72
     0
 43
0.0208333333333333
 43
0.0
 43
0.0
 43
0.0
 43
0.0
 43
0.0208333333333333
 43
0.0
 43
0.0
 43
0.0
 43
0.0
 43
1.0
 43
0.0
 43
0.0
 43
0.0
 43
0.0
 43
1.0
 77
     0
 47
0.0208333333333333
 47
0.0
 47
0.0
 47
0.0
 47
0.0
 47
0.0208333333333333
 47
0.0
 47
0.0
 47
0.0
 47
0.0
 47
1.0
 47
0.0
 47
0.0
 47
0.0
 47
0.0
 47
1.0
171
     0
 49
0.0208333333333333
 49
0.0
 49
0.0
 49
0.0
 49
0.0
 49
0.0208333333333333
 49
0.0
 49
0.0
 49
0.0
 49
0.0
 49
1.0
 49
0.0
 49
0.0
 49
0.0
 49
0.0
 49
1.0
175
     0
142
0.0208333333333333
142
0.0
142
0.0
142
0.0
142
0.0
142
0.0208333333333333
142
0.0
142
0.0
142
0.0
142
0.0
142
1.0
142
0.0
142
0.0
142
0.0
142
0.0
142
1.0
179
     0
144
0.0208333333333333
144
0.0
144
0.0
144
0.0
144
0.0
144
0.0208333333333333
144
0.0
144
0.0
144
0.0
144
0.0
144
1.0
144
0.0
144
0.0
144
0.0
144
0.0
144
1.0
147
0.0208333333333333
147
0.0
147
0.0
147
0.0
147
0.0
147
0.0208333333333333
147
0.0
147
0.0
147
0.0
147
0.0
147
1.0
147
0.0
147
0.0
147
0.0
147
0.0
147
1.0
  0
MATERIAL
  5
1F9
102
{ACAD_XDICTIONARY
360
1FA
102
}
102
{ACAD_REACTORS
330
1F8
102
}
330
1F8
100
AcDbMaterial
  1
ByLayer
 72
     0
 43
0.0208333333333333
 43
0.0
 43
0.0
 43
0.0
 43
0.0
 43
0.0208333333333333
 43
0.0
 43
0.0
 43
0.0
 43
0.0
 43
1.0
 43
0.0
 43
0.0
 43
0.0
 43
0.0
 43
1.0
 77
     0
 47
0.0208333333333333
 47
0.0
 47
0.0
 47
0.0
 47
0.0
 47
0.0208333333333333
 47
0.0
 47
0.0
 47
0.0
 47
0.0
 47
1.0
 47
0.0
 47
0.0
 47
0.0
 47
0.0
 47
1.0
171
     0
 49
0.0208333333333333
 49
0.0
 49
0.0
 49
0.0
 49
0.0
 49
0.0208333333333333
 49
0.0
 49
0.0
 49
0.0
 49
0.0
 49
1.0
 49
0.0
 49
0.0
 49
0.0
 49
0.0
 49
1.0
175
     0
142
0.0208333333333333
142
0.0
142
0.0
142
0.0
142
0.0
142
0.0208333333333333
142
0.0
142
0.0
142
0.0
142
0.0
142
1.0
142
0.0
142
0.0
142
0.0
142
0.0
142
1.0
179
     0
144
0.0208333333333333
144
0.0
144
0.0
144
0.0
144
0.0
144
0.0208333333333333
144
0.0
144
0.0
144
0.0
144
0.0
144
1.0
144
0.0
144
0.0
144
0.0
144
0.0
144
1.0
147
0.0208333333333333
147
0.0
147
0.0
147
0.0
147
0.0
147
0.0208333333333333
147
0.0
147
0.0
147
0.0
147
0.0
147
1.0
147
0.0
147
0.0
147
0.0
147
0.0
147
1.0
  0
MATERIAL
  5
209
102
{ACAD_XDICTIONARY
360
20A
102
}
102
{ACAD_REACTORS
330
1F8
102
}
330
1F8
100
AcDbMaterial
  1
Global
 72
     0
 43
0.0208333333333333
 43
0.0
 43
0.0
 43
0.0
 43
0.0
 43
0.0208333333333333
 43
0.0
 43
0.0
 43
0.0
 43
0.0
 43
1.0
 43
0.0
 43
0.0
 43
0.0
 43
0.0
 43
1.0
 77
     0
 47
0.0208333333333333
 47
0.0
 47
0.0
 47
0.0
 47
0.0
 47
0.0208333333333333
 47
0.0
 47
0.0
 47
0.0
 47
0.0
 47
1.0
 47
0.0
 47
0.0
 47
0.0
 47
0.0
 47
1.0
171
     0
 49
0.0208333333333333
 49
0.0
 49
0.0
 49
0.0
 49
0.0
 49
0.0208333333333333
 49
0.0
 49
0.0
 49
0.0
 49
0.0
 49
1.0
 49
0.0
 49
0.0
 49
0.0
 49
0.0
 49
1.0
175
     0
142
0.0208333333333333
142
0.0
142
0.0
142
0.0
142
0.0
142
0.0208333333333333
142
0.0
142
0.0
142
0.0
142
0.0
142
1.0
142
0.0
142
0.0
142
0.0
142
0.0
142
1.0
179
     0
144
0.0208333333333333
144
0.0
144
0.0
144
0.0
144
0.0
144
0.0208333333333333
144
0.0
144
0.0
144
0.0
144
0.0
144
1.0
144
0.0
144
0.0
144
0.0
144
0.0
144
1.0
147
0.0208333333333333
147
0.0
147
0.0
147
0.0
147
0.0
147
0.0208333333333333
147
0.0
147
0.0
147
0.0
147
0.0
147
1.0
147
0.0
147
0.0
147
0.0
147
0.0
147
1.0
  0
MLEADERSTYLE
  5
259
102
{ACAD_REACTORS
330
258
102
}
330
258
100
AcDbMLeaderStyle
170
     2
171
     1
172
     0
 90
        2
 40
0.0
 41
0.0
173
     1
 91
-1056964608
340
24D
 92
       -2
290
     1
 42
0.09
291
     1
 43
0.36
  3
Standard
 44
0.18
300

342
248
174
     1
178
     6
175
     1
176
     0
 93
-1056964608
 45
0.18
292
     0
297
     0
 46
0.18
 94
-1056964608
 47
1.0
 49
1.0
140
1.0
293
     1
141
0.0
294
     1
177
     0
142
1.0
295
     0
296
     0
143
0.125
1001
ACAD_MLEADERVER
1070
     2
  0
MLINESTYLE
  5
252
102
{ACAD_REACTORS
330
251
102
}
330
251
100
AcDbMlineStyle
  2
STANDARD
 70
     0
  3

 62
   256
 51
90.0
 52
90.0
 71
     2
 49
0.5
 62
   256
  6
BYLAYER
 49
-0.5
 62
   256
  6
BYLAYER
  0
ACDBPLACEHOLDER
  5
1F7
102
{ACAD_REACTORS
330
1F6
102
}
330
1F6
  0
SCALE
  5
226
102
{ACAD_REACTORS
330
225
102
}
330
225
100
AcDbScale
 70
     0
300
1:1
140
1.0
141
1.0
290
     1
  0
SCALE
  5
227
102
{ACAD_REACTORS
330
225
102
}
330
225
100
AcDbScale
 70
     0
300
1:2
140
1.0
141
2.0
290
     0
  0
SCALE
  5
228
102
{ACAD_REACTORS
330
225
102
}
330
225
100
AcDbScale
 70
     0
300
1:4
140
1.0
141
4.0
290
     0
  0
SCALE
  5
229
102
{ACAD_REACTORS
330
225
102
}
330
225
100
AcDbScale
 70
     0
300
1:5
140
1.0
141
5.0
290
     0
  0
SCALE
  5
22A
102
{ACAD_REACTORS
330
225
102
}
330
225
100
AcDbScale
 70
     0
300
1:8
140
1.0
141
8.0
290
     0
  0
SCALE
  5
22B
102
{ACAD_REACTORS
330
225
102
}
330
225
100
AcDbScale
 70
     0
300
1:10
140
1.0
141
10.0
290
     0
  0
SCALE
  5
22C
102
{ACAD_REACTORS
330
225
102
}
330
225
100
AcDbScale
 70
     0
300
1:16
140
1.0
141
16.0
290
     0
  0
SCALE
  5
22D
102
{ACAD_REACTORS
330
225
102
}
330
225
100
AcDbScale
 70
     0
300
1:20
140
1.0
141
20.0
290
     0
  0
SCALE
  5
22E
102
{ACAD_REACTORS
330
225
102
}
330
225
100
AcDbScale
 70
     0
300
1:30
140
1.0
141
30.0
290
     0
  0
SCALE
  5
22F
102
{ACAD_REACTORS
330
225
102
}
330
225
100
AcDbScale
 70
     0
300
1:40
140
1.0
141
40.0
290
     0
  0
SCALE
  5
230
102
{ACAD_REACTORS
330
225
102
}
330
225
100
AcDbScale
 70
     0
300
1:50
140
1.0
141
50.0
290
     0
  0
SCALE
  5
231
102
{ACAD_REACTORS
330
225
102
}
330
225
100
AcDbScale
 70
     0
300
1:100
140
1.0
141
100.0
290
     0
  0
SCALE
  5
232
102
{ACAD_REACTORS
330
225
102
}
330
225
100
AcDbScale
 70
     0
300
2:1
140
2.0
141
1.0
290
     0
  0
SCALE
  5
233
102
{ACAD_REACTORS
330
225
102
}
330
225
100
AcDbScale
 70
     0
300
4:1
140
4.0
141
1.0
290
     0
  0
SCALE
  5
234
102
{ACAD_REACTORS
330
225
102
}
330
225
100
AcDbScale
 70
     0
300
8:1
140
8.0
141
1.0
290
     0
  0
SCALE
  5
235
102
{ACAD_REACTORS
330
225
102
}
330
225
100
AcDbScale
 70
     0
300
10:1
140
10.0
141
1.0
290
     0
  0
SCALE
  5
236
102
{ACAD_REACTORS
330
225
102
}
330
225
100
AcDbScale
 70
     0
300
100:1
140
100.0
141
1.0
290
     0
  0
SCALE
  5
237
102
{ACAD_REACTORS
330
225
102
}
330
225
100
AcDbScale
 70
     0
300
1/128" = 1'-0"
140
0.0078125
141
12.0
290
     0
  0
SCALE
  5
238
102
{ACAD_REACTORS
330
225
102
}
330
225
100
AcDbScale
 70
     0
300
1/64" = 1'-0"
140
0.015625
141
12.0
290
     0
  0
SCALE
  5
239
102
{ACAD_REACTORS
330
225
102
}
330
225
100
AcDbScale
 70
     0
300
1/32" = 1'-0"
140
0.03125
141
12.0
290
     0
  0
SCALE
  5
23A
102
{ACAD_REACTORS
330
225
102
}
330
225
100
AcDbScale
 70
     0
300
1/16" = 1'-0"
140
0.0625
141
12.0
290
     0
  0
SCALE
  5
23B
102
{ACAD_REACTORS
330
225
102
}
330
225
100
AcDbScale
 70
     0
300
3/32" = 1'-0"
140
0.09375
141
12.0
290
     0
  0
SCALE
  5
23C
102
{ACAD_REACTORS
330
225
102
}
330
225
100
AcDbScale
 70
     0
300
1/8" = 1'-0"
140
0.125
141
12.0
290
     0
  0
SCALE
  5
23D
102
{ACAD_REACTORS
330
225
102
}
330
225
100
AcDbScale
 70
     0
300
3/16" = 1'-0"
140
0.1875
141
12.0
290
     0
  0
SCALE
  5
23E
102
{ACAD_REACTORS
330
225
102
}
330
225
100
AcDbScale
 70
     0
300
1/4" = 1'-0"
140
0.25
141
12.0
290
     0
  0
SCALE
  5
23F
102
{ACAD_REACTORS
330
225
102
}
330
225
100
AcDbScale
 70
     0
300
3/8" = 1'-0"
140
0.375
141
12.0
290
     0
  0
SCALE
  5
240
102
{ACAD_REACTORS
330
225
102
}
330
225
100
AcDbScale
 70
     0
300
1/2" = 1'-0"
140
0.5
141
12.0
290
     0
  0
SCALE
  5
241
102
{ACAD_REACTORS
330
225
102
}
330
225
100
AcDbScale
 70
     0
300
3/4" = 1'-0"
140
0.75
141
12.0
290
     0
  0
SCALE
  5
242
102
{ACAD_REACTORS
330
225
102
}
330
225
100
AcDbScale
 70
     0
300
1" = 1'-0"
140
1.0
141
12.0
290
     0
  0
SCALE
  5
243
102
{ACAD_REACTORS
330
225
102
}
330
225
100
AcDbScale
 70
     0
300
1-1/2" = 1'-0"
140
1.5
141
12.0
290
     0
  0
SCALE
  5
244
102
{ACAD_REACTORS
330
225
102
}
330
225
100
AcDbScale
 70
     0
300
3" = 1'-0"
140
3.0
141
12.0
290
     0
  0
SCALE
  5
245
102
{ACAD_REACTORS
330
225
102
}
330
225
100
AcDbScale
 70
     0
300
6" = 1'-0"
140
6.0
141
12.0
290
     0
  0
SCALE
  5
246
102
{ACAD_REACTORS
330
225
102
}
330
225
100
AcDbScale
 70
     0
300
1'-0" = 1'-0"
140
12.0
141
12.0
290
     0
  0
TABLESTYLE
  5
257
102
{ACAD_XDICTIONARY
360
3EF
102
}
102
{ACAD_REACTORS
330
256
102
}
330
256
100
AcDbTableStyle
  3
Standard
 70
     0
 71
     0
 40
0.06
 41
0.06
280
     0
281
     0
  7
STANDARD
140
0.18
170
     2
 62
     0
 63
     7
283
     0
274
    -2
284
     1
 64
     0
275
    -2
285
     1
 65
     0
276
    -2
286
     1
 66
     0
277
    -2
287
     1
 67
     0
278
    -2
288
     1
 68
     0
279
    -2
289
     1
 69
     0
  7
STANDARD
140
0.25
170
     5
 62
     0
 63
     7
283
     0
274
    -2
284
     1
 64
     0
275
    -2
285
     1
 65
     0
276
    -2
286
     1
 66
     0
277
    -2
287
     1
 67
     0
278
    -2
288
     1
 68
     0
279
    -2
289
     1
 69
     0
  7
STANDARD
140
0.18
170
     5
 62
     0
 63
     7
283
     0
274
    -2
284
     1
 64
     0
275
    -2
285
     1
 65
     0
276
    -2
286
     1
 66
     0
277
    -2
287
     1
 67
     0
278
    -2
288
     1
 68
     0
279
    -2
289
     1
 69
     0
  0
VISUALSTYLE
  5
217
102
{ACAD_XDICTIONARY
360
516
102
}
102
{ACAD_REACTORS
330
211
102
}
330
211
100
AcDbVisualStyle
  2

 70
     4
 71
     0
 72
     2
 73
     0
 90
        0
 40
-0.6
 41
-30.0
 62
     5
 63
     7
 74
     1
 91
        4
 64
     7
 65
   257
 75
     1
175
     1
 42
1.0
 92
        0
 66
   257
 43
1.0
 76
     1
 77
     6
 78
     2
 67
     7
 79
     5
170
     0
171
     0
290
     0
174
     0
 93
        1
 44
0.0
173
     0
291
     0
 45
0.0
1001
ACAD
1000
AcDbSavedByObjectVersion
1070
     0
  0
VISUALSTYLE
  5
219
102
{ACAD_XDICTIONARY
360
51A
102
}
102
{ACAD_REACTORS
330
211
102
}
330
211
100
AcDbVisualStyle
  2

 70
     6
 71
     1
 72
     2
 73
     2
 90
        0
 40
-0.6
 41
-30.0
 62
     5
 63
     7
 74
     2
 91
        2
 64
     7
 65
   257
 75
     2
175
     1
 42
179.0
 92
        0
 66
   257
 43
1.0
 76
     1
 77
     6
 78
     2
 67
     7
 79
     3
170
     0
171
     0
290
     0
174
     0
 93
        1
 44
0.0
173
     0
291
     0
 45
0.0
1001
ACAD
1000
AcDbSavedByObjectVersion
1070
     0
  0
VISUALSTYLE
  5
218
102
{ACAD_XDICTIONARY
360
518
102
}
102
{ACAD_REACTORS
330
211
102
}
330
211
100
AcDbVisualStyle
  2

 70
     5
 71
     0
 72
     2
 73
     0
 90
        0
 40
-0.6
 41
-30.0
 62
     5
 63
     7
 74
     1
 91
        4
 64
     7
 65
   257
 75
     1
175
     1
 42
1.0
 92
        0
 66
   257
 43
1.0
 76
     1
 77
     6
 78
     2
 67
     7
 79
     5
170
     0
171
     0
290
     0
174
     0
 93
        1
 44
0.0
173
     0
291
     0
 45
0.0
1001
ACAD
1000
AcDbSavedByObjectVersion
1070
     0
  0
VISUALSTYLE
  5
216
102
{ACAD_XDICTIONARY
360
514
102
}
102
{ACAD_REACTORS
330
211
102
}
330
211
100
AcDbVisualStyle
  2

 70
     7
 71
     1
 72
     0
 73
     1
 90
        0
 40
-0.6
 41
-30.0
 62
     5
 63
     7
 74
     0
 91
        4
 64
     7
 65
   257
 75
     1
175
     1
 42
1.0
 92
        8
 66
     7
 43
1.0
 76
     1
 77
     6
 78
     2
 67
     7
 79
     5
170
     0
171
     0
290
     0
174
     0
 93
        1
 44
0.0
173
     0
291
     1
 45
0.0
1001
ACAD
1000
AcDbSavedByObjectVersion
1070
     0
  0
VISUALSTYLE
  5
21D
102
{ACAD_XDICTIONARY
360
522
102
}
102
{ACAD_REACTORS
330
211
102
}
330
211
100
AcDbVisualStyle
  2

 70
    12
 71
     2
 72
     2
 73
     0
 90
        0
 40
-0.6
 41
-30.0
 62
     5
 63
     7
 74
     1
 91
        4
 64
     7
 65
   257
 75
     1
175
     1
 42
1.0
 92
        8
 66
     7
 43
1.0
 76
     1
 77
     6
 78
     2
 67
     7
 79
     5
170
     0
171
     0
290
     0
174
     0
 93
        1
 44
50.0
173
     0
291
     1
 45
0.0
1001
ACAD
1000
AcDbSavedByObjectVersion
1070
     0
  0
VISUALSTYLE
  5
221
102
{ACAD_XDICTIONARY
360
52A
102
}
102
{ACAD_REACTORS
330
211
102
}
330
211
100
AcDbVisualStyle
  2

 70
    16
 71
     2
 72
     2
 73
     3
 90
        0
 40
-0.6
 41
-30.0
 62
     5
 63
     8
 74
     1
 91
        4
 64
     7
 65
   257
 75
     1
175
     1
 42
1.0
 92
        8
 66
     8
 43
1.0
 76
     1
 77
     6
 78
     2
 67
     7
 79
     5
170
     0
171
     0
290
     0
174
     0
 93
        1
 44
0.0
173
     0
291
     1
 45
0.0
1001
ACAD
1000
AcDbSavedByObjectVersion
1070
     0
  0
VISUALSTYLE
  5
21A
102
{ACAD_XDICTIONARY
360
51C
102
}
102
{ACAD_REACTORS
330
211
102
}
330
211
100
AcDbVisualStyle
  2

 70
     9
 71
     3
 72
     2
 73
     0
 90
        0
 40
-0.6
 41
-30.0
 62
     5
 63
     7
 74
     2
 91
        2
 64
     7
 65
   257
 75
     1
175
     1
 42
179.0
 92
        8
 66
     7
 43
1.0
 76
     1
 77
     6
 78
     2
 67
     7
 79
     3
170
     0
171
     0
290
     0
174
     0
 93
        1
 44
0.0
173
     0
291
     0
 45
0.0
1001
ACAD
1000
AcDbSavedByObjectVersion
1070
     0
  0
VISUALSTYLE
  5
21C
102
{ACAD_XDICTIONARY
360
520
102
}
102
{ACAD_REACTORS
330
211
102
}
330
211
100
AcDbVisualStyle
  2

 70
    11
 71
     2
 72
     2
 73
     0
 90
        0
 40
-0.6
 41
-30.0
 62
     5
 63
     7
 74
     1
 91
        4
 64
     7
 65
   257
 75
     1
175
     1
 42
1.0
 92
        8
 66
     7
 43
1.0
 76
     1
 77
     6
 78
     2
 67
     7
 79
     5
170
     0
171
     0
290
     0
174
     0
 93
        1
 44
-50.0
173
     0
291
     1
 45
0.0
1001
ACAD
1000
AcDbSavedByObjectVersion
1070
     0
  0
VISUALSTYLE
  5
224
102
{ACAD_XDICTIONARY
360
530
102
}
102
{ACAD_REACTORS
330
211
102
}
330
211
100
AcDbVisualStyle
  2

 70
    22
 71
     2
 72
     2
 73
     0
 90
        0
 40
-0.6
 41
-30.0
 62
     5
 63
     7
 74
     1
 91
        4
 64
     7
 65
   257
 75
     1
175
     1
 42
1.0
 92
        8
 66
     7
 43
1.0
 76
     1
 77
     6
 78
     2
 67
     7
 79
     5
170
     0
171
     0
290
     0
174
     0
 93
        1
 44
0.0
173
     0
291
     1
 45
0.0
1001
ACAD
1000
AcDbSavedByObjectVersion
1070
     0
  0
VISUALSTYLE
  5
220
102
{ACAD_XDICTIONARY
360
528
102
}
102
{ACAD_REACTORS
330
211
102
}
330
211
100
AcDbVisualStyle
  2

 70
    15
 71
     2
 72
     2
 73
     0
 90
        0
 40
-0.6
 41
-30.0
 62
     5
 63
     7
 74
     1
 91
        4
 64
     7
 65
   257
 75
     1
175
     1
 42
1.0
 92
        8
 66
     7
 43
1.0
 76
     1
 77
     6
 78
     2
 67
     7
 79
     5
170
     0
171
     0
290
     0
174
     0
 93
        1
 44
0.0
173
     0
291
     1
 45
0.0
1001
ACAD
1000
AcDbSavedByObjectVersion
1070
     0
  0
VISUALSTYLE
  5
212
102
{ACAD_XDICTIONARY
360
50C
102
}
102
{ACAD_REACTORS
330
211
102
}
330
211
100
AcDbVisualStyle
  2

 70
     0
 71
     2
 72
     1
 73
     1
 90
        2
 40
-0.6
 41
30.0
 62
     5
 63
     7
 74
     0
 91
        4
 64
     7
 65
   257
 75
     1
175
     1
 42
1.0
 92
        8
 66
     7
 43
1.0
 76
     1
 77
     6
 78
     2
 67
     7
 79
     5
170
     0
171
     0
290
     0
174
     0
 93
       13
 44
0.0
173
     0
291
     1
 45
0.0
1001
ACAD
1000
AcDbSavedByObjectVersion
1070
     0
  0
VISUALSTYLE
  5
213
102
{ACAD_XDICTIONARY
360
50E
102
}
102
{ACAD_REACTORS
330
211
102
}
330
211
100
AcDbVisualStyle
  2

 70
     1
 71
     2
 72
     1
 73
     1
 90
        2
 40
-0.6
 41
30.0
 62
     5
 63
     7
 74
     1
 91
        4
 64
     7
 65
   257
 75
     1
175
     1
 42
1.0
 92
        0
 66
   257
 43
1.0
 76
     1
 77
     6
 78
     2
 67
     7
 79
     5
170
     0
171
     0
290
     0
174
     0
 93
       13
 44
0.0
173
     0
291
     1
 45
0.0
1001
ACAD
1000
AcDbSavedByObjectVersion
1070
     0
  0
VISUALSTYLE
  5
214
102
{ACAD_XDICTIONARY
360
510
102
}
102
{ACAD_REACTORS
330
211
102
}
330
211
100
AcDbVisualStyle
  2

 70
     2
 71
     2
 72
     2
 73
     1
 90
        2
 40
-0.6
 41
30.0
 62
     5
 63
     7
 74
     0
 91
        4
 64
     7
 65
   257
 75
     1
175
     1
 42
1.0
 92
        0
 66
     7
 43
1.0
 76
     1
 77
     6
 78
     2
 67
     7
 79
     5
170
     0
171
     0
290
     0
174
     0
 93
       13
 44
0.0
173
     0
291
     1
 45
0.0
1001
ACAD
1000
AcDbSavedByObjectVersion
1070
     0
  0
VISUALSTYLE
  5
215
102
{ACAD_XDICTIONARY
360
512
102
}
102
{ACAD_REACTORS
330
211
102
}
330
211
100
AcDbVisualStyle
  2

 70
     3
 71
     2
 72
     2
 73
     1
 90
        2
 40
-0.6
 41
30.0
 62
     5
 63
     7
 74
     1
 91
        4
 64
     7
 65
   257
 75
     1
175
     1
 42
1.0
 92
        0
 66
   257
 43
1.0
 76
     1
 77
     6
 78
     2
 67
     7
 79
     5
170
     0
171
     0
290
     0
174
     0
 93
       13
 44
0.0
173
     0
291
     1
 45
0.0
1001
ACAD
1000
AcDbSavedByObjectVersion
1070
     0
  0
VISUALSTYLE
  5
222
102
{ACAD_XDICTIONARY
360
52C
102
}
102
{ACAD_REACTORS
330
211
102
}
330
211
100
AcDbVisualStyle
  2

 70
    20
 71
     2
 72
     2
 73
     0
 90
        0
 40
-0.6
 41
-30.0
 62
     5
 63
     7
 74
     1
 91
        4
 64
     7
 65
   257
 75
     1
175
     1
 42
1.0
 92
       10
 66
     7
 43
1.0
 76
     1
 77
     6
 78
     2
 67
     7
 79
     5
170
     0
171
     0
290
     0
174
     0
 93
        1
 44
0.0
173
     0
291
     1
 45
0.0
1001
ACAD
1000
AcDbSavedByObjectVersion
1070
     0
  0
VISUALSTYLE
  5
21F
102
{ACAD_XDICTIONARY
360
526
102
}
102
{ACAD_REACTORS
330
211
102
}
330
211
100
AcDbVisualStyle
  2

 70
    14
 71
     2
 72
     2
 73
     0
 90
        0
 40
-0.6
 41
-30.0
 62
     5
 63
     7
 74
     1
 91
        4
 64
     7
 65
   257
 75
     7
175
     7
 42
1.0
 92
        8
 66
     7
 43
1.0
 76
     1
 77
     6
 78
     2
 67
     7
 79
     5
170
     0
171
     0
290
     0
174
     0
 93
        1
 44
0.0
173
     0
291
     1
 45
0.0
1001
ACAD
1000
AcDbSavedByObjectVersion
1070
     0
  0
VISUALSTYLE
  5
223
102
{ACAD_XDICTIONARY
360
52E
102
}
102
{ACAD_REACTORS
330
211
102
}
330
211
100
AcDbVisualStyle
  2

 70
    21
 71
     2
 72
     2
 73
     0
 90
        0
 40
-0.6
 41
-30.0
 62
     5
 63
     7
 74
     1
 91
        4
 64
     7
 65
   257
 75
     1
175
     1
 42
1.0
 92
        9
 66
     7
 43
1.0
 76
     1
 77
     6
 78
     2
 67
     7
 79
     5
170
     0
171
     0
290
     0
174
     0
 93
        1
 44
0.0
173
     0
291
     1
 45
0.0
1001
ACAD
1000
AcDbSavedByObjectVersion
1070
     0
  0
VISUALSTYLE
  5
21B
102
{ACAD_XDICTIONARY
360
51E
102
}
102
{ACAD_REACTORS
330
211
102
}
330
211
100
AcDbVisualStyle
  2

 70
     8
 71
     2
 72
     2
 73
     0
 90
        0
 40
-0.6
 41
-30.0
 62
     5
 63
     7
 74
     1
 91
        0
 64
     7
 65
   257
 75
     1
175
     1
 42
1.0
 92
        8
 66
     8
 43
1.0
 76
     1
 77
     6
 78
     2
 67
     7
 79
     5
170
     0
171
     0
290
     0
174
     0
 93
       13
 44
0.0
173
     0
291
     0
 45
0.0
1001
ACAD
1000
AcDbSavedByObjectVersion
1070
     0
  0
VISUALSTYLE
  5
21E
102
{ACAD_XDICTIONARY
360
524
102
}
102
{ACAD_REACTORS
330
211
102
}
330
211
100
AcDbVisualStyle
  2

 70
    13
 71
     2
 72
     2
 73
     0
 90
        0
 40
-0.6
 41
-30.0
 62
     5
 63
     7
 74
     1
 91
        4
 64
     7
 65
   257
 75
     1
175
     1
 42
1.0
 92
       12
 66
     7
 43
1.0
 76
     1
 77
     6
 78
     2
 67
     7
 79
     5
170
     0
171
     0
290
     0
174
     0
 93
        1
 44
0.0
173
     0
291
     1
 45
0.0
1001
ACAD
1000
AcDbSavedByObjectVersion
1070
     0
  0
DICTIONARYVAR
  5
3EA
102
{ACAD_REACTORS
330
3E7
102
}
330
3E7
100
DictionaryVariables
280
     0
  1
1:1
  0
DICTIONARYVAR
  5
3E9
102
{ACAD_REACTORS
330
3E7
102
}
330
3E7
100
DictionaryVariables
280
     0
  1
STANDARD
  0
DICTIONARYVAR
  5
3E8
102
{ACAD_REACTORS
330
3E7
102
}
330
3E7
100
DictionaryVariables
280
     0
  1
STANDARD
  0
DICTIONARYVAR
  5
3ED
102
{ACAD_REACTORS
330
3E7
102
}
330
3E7
100
DictionaryVariables
280
     0
  1
1
  0
DICTIONARYVAR
  5
3EC
102
{ACAD_REACTORS
330
3E7
102
}
330
3E7
100
DictionaryVariables
280
     0
  1
0
  0
DICTIONARYVAR
  5
3EB
102
{ACAD_REACTORS
330
3E7
102
}
330
3E7
100
DictionaryVariables
280
     0
  1
127
  0
DICTIONARYVAR
  5
508
102
{ACAD_REACTORS
330
3E7
102
}
330
3E7
100
DictionaryVariables
280
     0
  1
2
  0
XRECORD
  5
3E6
102
{ACAD_REACTORS
330
3E5
102
}
330
3E5
100
AcDbXrecord
280
     1
330
110
330
111
330
114
330
115
330
108
330
10E
330
10F
  0
DICTIONARY
  5
533
330
25D
100
AcDbDictionary
280
     1
281
     1
  3
ACAD_XREC_ROUNDTRIP
360
534
  0
DICTIONARY
  5
535
330
261
100
AcDbDictionary
280
     1
281
     1
  3
ACAD_XREC_ROUNDTRIP
360
536
  0
DICTIONARY
  5
202
330
201
100
AcDbDictionary
280
     1
281
     1
  3
ACAD_XREC_ROUNDTRIP
360
3F4
  3
BUMPTILE
360
204
  3
DIFFUSETILE
360
203
  3
OPACITYTILE
360
207
  3
REFLECTIONTILE
360
206
  3
REFRACTIONTILE
360
208
  3
SPECULARTILE
360
205
  0
DICTIONARY
  5
1FA
330
1F9
100
AcDbDictionary
280
     1
281
     1
  3
ACAD_XREC_ROUNDTRIP
360
3F3
  3
BUMPTILE
360
1FC
  3
DIFFUSETILE
360
1FB
  3
OPACITYTILE
360
1FF
  3
REFLECTIONTILE
360
1FE
  3
REFRACTIONTILE
360
200
  3
SPECULARTILE
360
1FD
  0
DICTIONARY
  5
20A
330
209
100
AcDbDictionary
280
     1
281
     1
  3
ACAD_XREC_ROUNDTRIP
360
3F5
  3
BUMPTILE
360
20C
  3
DIFFUSETILE
360
20B
  3
OPACITYTILE
360
20F
  3
REFLECTIONTILE
360
20E
  3
REFRACTIONTILE
360
210
  3
SPECULARTILE
360
20D
  0
DICTIONARY
  5
3EF
330
257
100
AcDbDictionary
280
     1
281
     1
  3
ACAD_ROUNDTRIP_2008_TABLESTYLE_CELLSTYLEMAP
360
509
  3
ACAD_XREC_ROUNDTRIP
360
532
  0
DICTIONARY
  5
516
330
217
100
AcDbDictionary
280
     1
281
     1
  3
ACAD_XREC_ROUNDTRIP
360
517
  0
DICTIONARY
  5
51A
330
219
100
AcDbDictionary
280
     1
281
     1
  3
ACAD_XREC_ROUNDTRIP
360
51B
  0
DICTIONARY
  5
518
330
218
100
AcDbDictionary
280
     1
281
     1
  3
ACAD_XREC_ROUNDTRIP
360
519
  0
DICTIONARY
  5
514
330
216
100
AcDbDictionary
280
     1
281
     1
  3
ACAD_XREC_ROUNDTRIP
360
515
  0
DICTIONARY
  5
522
330
21D
100
AcDbDictionary
280
     1
281
     1
  3
ACAD_XREC_ROUNDTRIP
360
523
  0
DICTIONARY
  5
52A
330
221
100
AcDbDictionary
280
     1
281
     1
  3
ACAD_XREC_ROUNDTRIP
360
52B
  0
DICTIONARY
  5
51C
330
21A
100
AcDbDictionary
280
     1
281
     1
  3
ACAD_XREC_ROUNDTRIP
360
51D
  0
DICTIONARY
  5
520
330
21C
100
AcDbDictionary
280
     1
281
     1
  3
ACAD_XREC_ROUNDTRIP
360
521
  0
DICTIONARY
  5
530
330
224
100
AcDbDictionary
280
     1
281
     1
  3
ACAD_XREC_ROUNDTRIP
360
531
  0
DICTIONARY
  5
528
330
220
100
AcDbDictionary
280
     1
281
     1
  3
ACAD_XREC_ROUNDTRIP
360
529
  0
DICTIONARY
  5
50C
330
212
100
AcDbDictionary
280
     1
281
     1
  3
ACAD_XREC_ROUNDTRIP
360
50D
  0
DICTIONARY
  5
50E
330
213
100
AcDbDictionary
280
     1
281
     1
  3
ACAD_XREC_ROUNDTRIP
360
50F
  0
DICTIONARY
  5
510
330
214
100
AcDbDictionary
280
     1
281
     1
  3
ACAD_XREC_ROUNDTRIP
360
511
  0
DICTIONARY
  5
512
330
215
100
AcDbDictionary
280
     1
281
     1
  3
ACAD_XREC_ROUNDTRIP
360
513
  0
DICTIONARY
  5
52C
330
222
100
AcDbDictionary
280
     1
281
     1
  3
ACAD_XREC_ROUNDTRIP
360
52D
  0
DICTIONARY
  5
526
330
21F
100
AcDbDictionary
280
     1
281
     1
  3
ACAD_XREC_ROUNDTRIP
360
527
  0
DICTIONARY
  5
52E
330
223
100
AcDbDictionary
280
     1
281
     1
  3
ACAD_XREC_ROUNDTRIP
360
52F
  0
DICTIONARY
  5
51E
330
21B
100
AcDbDictionary
280
     1
281
     1
  3
ACAD_XREC_ROUNDTRIP
360
51F
  0
DICTIONARY
  5
524
330
21E
100
AcDbDictionary
280
     1
281
     1
  3
ACAD_XREC_ROUNDTRIP
360
525
  0
XRECORD
  5
534
102
{ACAD_REACTORS
330
533
102
}
330
533
100
AcDbXrecord
280
     1
102
SHADEPLOT
 70
     0
102
SHADEPLOTRESLEVEL
 70
     2
102
SHADEPLOTCUSTOMDPI
 70
   300
  0
XRECORD
  5
536
102
{ACAD_REACTORS
330
535
102
}
330
535
100
AcDbXrecord
280
     1
102
SHADEPLOT
 70
     0
102
SHADEPLOTRESLEVEL
 70
     2
102
SHADEPLOTCUSTOMDPI
 70
   300
  0
XRECORD
  5
3F4
102
{ACAD_REACTORS
330
202
102
}
330
202
100
AcDbXrecord
280
     1
102
MATERIAL
148
0.0
149
0.0
149
0.0
 93
        0
 94
      127
282
     0
 72
     0
 77
     0
171
     0
175
     0
179
     0
273
     0
  0
XRECORD
  5
204
102
{ACAD_REACTORS
330
202
102
}
330
202
100
AcDbXrecord
280
     1
270
     1
271
     1
  0
XRECORD
  5
203
102
{ACAD_REACTORS
330
202
102
}
330
202
100
AcDbXrecord
280
     1
270
     1
271
     1
  0
XRECORD
  5
207
102
{ACAD_REACTORS
330
202
102
}
330
202
100
AcDbXrecord
280
     1
270
     1
271
     1
  0
XRECORD
  5
206
102
{ACAD_REACTORS
330
202
102
}
330
202
100
AcDbXrecord
280
     1
270
     1
271
     1
  0
XRECORD
  5
208
102
{ACAD_REACTORS
330
202
102
}
330
202
100
AcDbXrecord
280
     1
270
     1
271
     1
  0
XRECORD
  5
205
102
{ACAD_REACTORS
330
202
102
}
330
202
100
AcDbXrecord
280
     1
270
     1
271
     1
  0
XRECORD
  5
3F3
102
{ACAD_REACTORS
330
1FA
102
}
330
1FA
100
AcDbXrecord
280
     1
102
MATERIAL
148
0.0
149
0.0
149
0.0
 93
        0
 94
      127
282
     0
 72
     0
 77
     0
171
     0
175
     0
179
     0
273
     0
  0
XRECORD
  5
1FC
102
{ACAD_REACTORS
330
1FA
102
}
330
1FA
100
AcDbXrecord
280
     1
270
     1
271
     1
  0
XRECORD
  5
1FB
102
{ACAD_REACTORS
330
1FA
102
}
330
1FA
100
AcDbXrecord
280
     1
270
     1
271
     1
  0
XRECORD
  5
1FF
102
{ACAD_REACTORS
330
1FA
102
}
330
1FA
100
AcDbXrecord
280
     1
270
     1
271
     1
  0
XRECORD
  5
1FE
102
{ACAD_REACTORS
330
1FA
102
}
330
1FA
100
AcDbXrecord
280
     1
270
     1
271
     1
  0
XRECORD
  5
200
102
{ACAD_REACTORS
330
1FA
102
}
330
1FA
100
AcDbXrecord
280
     1
270
     1
271
     1
  0
XRECORD
  5
1FD
102
{ACAD_REACTORS
330
1FA
102
}
330
1FA
100
AcDbXrecord
280
     1
270
     1
271
     1
  0
XRECORD
  5
3F5
102
{ACAD_REACTORS
330
20A
102
}
330
20A
100
AcDbXrecord
280
     1
102
MATERIAL
148
0.0
149
0.0
149
0.0
 93
        0
 94
      127
282
     0
 72
     0
 77
     0
171
     0
175
     0
179
     0
273
     0
  0
XRECORD
  5
20C
102
{ACAD_REACTORS
330
20A
102
}
330
20A
100
AcDbXrecord
280
     1
270
     1
271
     1
  0
XRECORD
  5
20B
102
{ACAD_REACTORS
330
20A
102
}
330
20A
100
AcDbXrecord
280
     1
270
     1
271
     1
  0
XRECORD
  5
20F
102
{ACAD_REACTORS
330
20A
102
}
330
20A
100
AcDbXrecord
280
     1
270
     1
271
     1
  0
XRECORD
  5
20E
102
{ACAD_REACTORS
330
20A
102
}
330
20A
100
AcDbXrecord
280
     1
270
     1
271
     1
  0
XRECORD
  5
210
102
{ACAD_REACTORS
330
20A
102
}
330
20A
100
AcDbXrecord
280
     1
270
     1
271
     1
  0
XRECORD
  5
20D
102
{ACAD_REACTORS
330
20A
102
}
330
20A
100
AcDbXrecord
280
     1
270
     1
271
     1
  0
CELLSTYLEMAP
  5
509
102
{ACAD_REACTORS
330
3EF
102
}
330
3EF
100
AcDbCellStyleMap
 90
        3
300
CELLSTYLE
  1
TABLEFORMAT_BEGIN
 90
        5
170
     1
 91
        0
 92
    32768
 62
   257
 93
        1
300
CONTENTFORMAT
  1
CONTENTFORMAT_BEGIN
 90
        0
 91
        0
 92
      512
 93
        0
300

 40
0.0
140
1.0
 94
        5
 62
     0
340
248
144
0.25
309
CONTENTFORMAT_END
171
     1
301
MARGIN
  1
CELLMARGIN_BEGIN
 40
0.06
 40
0.06
 40
0.06
 40
0.06
 40
0.18
 40
0.18
309
CELLMARGIN_END
 94
        6
 95
        1
302
GRIDFORMAT
  1
GRIDFORMAT_BEGIN
 90
        0
 91
        1
 62
     0
 92
       -2
340
0
 93
        0
 40
0.045
309
GRIDFORMAT_END
 95
        2
302
GRIDFORMAT
  1
GRIDFORMAT_BEGIN
 90
        0
 91
        1
 62
     0
 92
       -2
340
0
 93
        0
 40
0.045
309
GRIDFORMAT_END
 95
        4
302
GRIDFORMAT
  1
GRIDFORMAT_BEGIN
 90
        0
 91
        1
 62
     0
 92
       -2
340
0
 93
        0
 40
0.045
309
GRIDFORMAT_END
 95
        8
302
GRIDFORMAT
  1
GRIDFORMAT_BEGIN
 90
        0
 91
        1
 62
     0
 92
       -2
340
0
 93
        0
 40
0.045
309
GRIDFORMAT_END
 95
       16
302
GRIDFORMAT
  1
GRIDFORMAT_BEGIN
 90
        0
 91
        1
 62
     0
 92
       -2
340
0
 93
        0
 40
0.045
309
GRIDFORMAT_END
 95
       32
302
GRIDFORMAT
  1
GRIDFORMAT_BEGIN
 90
        0
 91
        1
 62
     0
 92
       -2
340
0
 93
        0
 40
0.045
309
GRIDFORMAT_END
309
TABLEFORMAT_END
  1
CELLSTYLE_BEGIN
 90
        1
 91
        1
300
_TITLE
309
CELLSTYLE_END
300
CELLSTYLE
  1
TABLEFORMAT_BEGIN
 90
        5
170
     1
 91
        0
 92
        0
 62
   257
 93
        1
300
CONTENTFORMAT
  1
CONTENTFORMAT_BEGIN
 90
        0
 91
        0
 92
      512
 93
        0
300

 40
0.0
140
1.0
 94
        5
 62
     0
340
248
144
0.18
309
CONTENTFORMAT_END
171
     1
301
MARGIN
  1
CELLMARGIN_BEGIN
 40
0.06
 40
0.06
 40
0.06
 40
0.06
 40
0.18
 40
0.18
309
CELLMARGIN_END
 94
        6
 95
        1
302
GRIDFORMAT
  1
GRIDFORMAT_BEGIN
 90
        0
 91
        1
 62
     0
 92
       -2
340
0
 93
        0
 40
0.045
309
GRIDFORMAT_END
 95
        2
302
GRIDFORMAT
  1
GRIDFORMAT_BEGIN
 90
        0
 91
        1
 62
     0
 92
       -2
340
0
 93
        0
 40
0.045
309
GRIDFORMAT_END
 95
        4
302
GRIDFORMAT
  1
GRIDFORMAT_BEGIN
 90
        0
 91
        1
 62
     0
 92
       -2
340
0
 93
        0
 40
0.045
309
GRIDFORMAT_END
 95
        8
302
GRIDFORMAT
  1
GRIDFORMAT_BEGIN
 90
        0
 91
        1
 62
     0
 92
       -2
340
0
 93
        0
 40
0.045
309
GRIDFORMAT_END
 95
       16
302
GRIDFORMAT
  1
GRIDFORMAT_BEGIN
 90
        0
 91
        1
 62
     0
 92
       -2
340
0
 93
        0
 40
0.045
309
GRIDFORMAT_END
 95
       32
302
GRIDFORMAT
  1
GRIDFORMAT_BEGIN
 90
        0
 91
        1
 62
     0
 92
       -2
340
0
 93
        0
 40
0.045
309
GRIDFORMAT_END
309
TABLEFORMAT_END
  1
CELLSTYLE_BEGIN
 90
        2
 91
        1
300
_HEADER
309
CELLSTYLE_END
300
CELLSTYLE
  1
TABLEFORMAT_BEGIN
 90
        5
170
     1
 91
        0
 92
        0
 62
   257
 93
        1
300
CONTENTFORMAT
  1
CONTENTFORMAT_BEGIN
 90
        0
 91
        0
 92
      512
 93
        0
300

 40
0.0
140
1.0
 94
        2
 62
     0
340
248
144
0.18
309
CONTENTFORMAT_END
171
     1
301
MARGIN
  1
CELLMARGIN_BEGIN
 40
0.06
 40
0.06
 40
0.06
 40
0.06
 40
0.18
 40
0.18
309
CELLMARGIN_END
 94
        6
 95
        1
302
GRIDFORMAT
  1
GRIDFORMAT_BEGIN
 90
        0
 91
        1
 62
     0
 92
       -2
340
0
 93
        0
 40
0.045
309
GRIDFORMAT_END
 95
        2
302
GRIDFORMAT
  1
GRIDFORMAT_BEGIN
 90
        0
 91
        1
 62
     0
 92
       -2
340
0
 93
        0
 40
0.045
309
GRIDFORMAT_END
 95
        4
302
GRIDFORMAT
  1
GRIDFORMAT_BEGIN
 90
        0
 91
        1
 62
     0
 92
       -2
340
0
 93
        0
 40
0.045
309
GRIDFORMAT_END
 95
        8
302
GRIDFORMAT
  1
GRIDFORMAT_BEGIN
 90
        0
 91
        1
 62
     0
 92
       -2
340
0
 93
        0
 40
0.045
309
GRIDFORMAT_END
 95
       16
302
GRIDFORMAT
  1
GRIDFORMAT_BEGIN
 90
        0
 91
        1
 62
     0
 92
       -2
340
0
 93
        0
 40
0.045
309
GRIDFORMAT_END
 95
       32
302
GRIDFORMAT
  1
GRIDFORMAT_BEGIN
 90
        0
 91
        1
 62
     0
 92
       -2
340
0
 93
        0
 40
0.045
309
GRIDFORMAT_END
309
TABLEFORMAT_END
  1
CELLSTYLE_BEGIN
 90
        3
 91
        2
300
_DATA
309
CELLSTYLE_END
  0
XRECORD
  5
532
102
{ACAD_REACTORS
330
3EF
102
}
330
3EF
100
AcDbXrecord
280
     1
102
ACAD_ROUNDTRIP_PRE2007_TABLESTYLE
 90
      512
 91
        0
  1

 92
      512
 93
        0
  2

 94
      512
 95
        0
  3

  0
XRECORD
  5
517
102
{ACAD_REACTORS
330
516
102
}
330
516
100
AcDbXrecord
280
     1
102
RTVSPropertyOp0
 70
     1
102
RTVSPropertyOp1
 70
     1
102
RTVSPropertyOp2
 70
     1
102
RTVSPropertyOp3
 70
     1
102
RTVSPropertyOp4
 70
     1
102
RTVSPropertyOp5
 70
     1
102
RTVSPropertyOp6
 70
     1
102
RTVSPropertyOp7
 70
     1
102
RTVSPropertyOp8
 70
     1
102
RTVSPropertyOp9
 70
     1
102
RTVSPropertyOp10
 70
     1
102
RTVSPropertyOp11
 70
     1
102
RTVSPropertyOp12
 70
     1
102
RTVSPropertyOp13
 70
     1
102
RTVSPropertyOp14
 70
     1
102
RTVSPropertyOp15
 70
     1
102
RTVSPropertyOp16
 70
     1
102
RTVSPropertyOp17
 70
     1
102
RTVSPropertyOp18
 70
     1
102
RTVSPropertyOp19
 70
     1
102
RTVSPropertyOp20
 70
     1
102
RTVSPropertyOp21
 70
     1
102
RTVSPropertyOp22
 70
     1
102
RTVSPropertyOp23
 70
     1
102
RTVSPropertyOp24
 70
     1
102
RTVSPropertyOp25
 70
     1
102
RTVSPropertyOp26
 70
     1
102
RTVSPropertyOp27
 70
     1
  0
XRECORD
  5
51B
102
{ACAD_REACTORS
330
51A
102
}
330
51A
100
AcDbXrecord
280
     1
102
RTVSPropertyOp0
 70
     1
102
RTVSPropertyOp1
 70
     1
102
RTVSPropertyOp2
 70
     1
102
RTVSPropertyOp3
 70
     1
102
RTVSPropertyOp4
 70
     1
102
RTVSPropertyOp5
 70
     1
102
RTVSPropertyOp6
 70
     1
102
RTVSPropertyOp7
 70
     1
102
RTVSPropertyOp8
 70
     1
102
RTVSPropertyOp9
 70
     1
102
RTVSPropertyOp10
 70
     1
102
RTVSPropertyOp11
 70
     1
102
RTVSPropertyOp12
 70
     1
102
RTVSPropertyOp13
 70
     1
102
RTVSPropertyOp14
 70
     1
102
RTVSPropertyOp15
 70
     1
102
RTVSPropertyOp16
 70
     1
102
RTVSPropertyOp17
 70
     1
102
RTVSPropertyOp18
 70
     1
102
RTVSPropertyOp19
 70
     1
102
RTVSPropertyOp20
 70
     1
102
RTVSPropertyOp21
 70
     1
102
RTVSPropertyOp22
 70
     1
102
RTVSPropertyOp23
 70
     1
102
RTVSPropertyOp24
 70
     1
102
RTVSPropertyOp25
 70
     1
102
RTVSPropertyOp26
 70
     1
102
RTVSPropertyOp27
 70
     1
  0
XRECORD
  5
519
102
{ACAD_REACTORS
330
518
102
}
330
518
100
AcDbXrecord
280
     1
102
RTVSPropertyOp0
 70
     1
102
RTVSPropertyOp1
 70
     1
102
RTVSPropertyOp2
 70
     1
102
RTVSPropertyOp3
 70
     1
102
RTVSPropertyOp4
 70
     1
102
RTVSPropertyOp5
 70
     1
102
RTVSPropertyOp6
 70
     1
102
RTVSPropertyOp7
 70
     1
102
RTVSPropertyOp8
 70
     1
102
RTVSPropertyOp9
 70
     1
102
RTVSPropertyOp10
 70
     1
102
RTVSPropertyOp11
 70
     1
102
RTVSPropertyOp12
 70
     1
102
RTVSPropertyOp13
 70
     1
102
RTVSPropertyOp14
 70
     1
102
RTVSPropertyOp15
 70
     1
102
RTVSPropertyOp16
 70
     1
102
RTVSPropertyOp17
 70
     1
102
RTVSPropertyOp18
 70
     1
102
RTVSPropertyOp19
 70
     1
102
RTVSPropertyOp20
 70
     1
102
RTVSPropertyOp21
 70
     1
102
RTVSPropertyOp22
 70
     1
102
RTVSPropertyOp23
 70
     1
102
RTVSPropertyOp24
 70
     1
102
RTVSPropertyOp25
 70
     1
102
RTVSPropertyOp26
 70
     1
102
RTVSPropertyOp27
 70
     1
  0
XRECORD
  5
515
102
{ACAD_REACTORS
330
514
102
}
330
514
100
AcDbXrecord
280
     1
102
RTVSPropertyOp0
 70
     1
102
RTVSPropertyOp1
 70
     1
102
RTVSPropertyOp2
 70
     1
102
RTVSPropertyOp3
 70
     1
102
RTVSPropertyOp4
 70
     1
102
RTVSPropertyOp5
 70
     1
102
RTVSPropertyOp6
 70
     1
102
RTVSPropertyOp7
 70
     1
102
RTVSPropertyOp8
 70
     1
102
RTVSPropertyOp9
 70
     1
102
RTVSPropertyOp10
 70
     1
102
RTVSPropertyOp11
 70
     1
102
RTVSPropertyOp12
 70
     1
102
RTVSPropertyOp13
 70
     1
102
RTVSPropertyOp14
 70
     1
102
RTVSPropertyOp15
 70
     1
102
RTVSPropertyOp16
 70
     1
102
RTVSPropertyOp17
 70
     1
102
RTVSPropertyOp18
 70
     1
102
RTVSPropertyOp19
 70
     1
102
RTVSPropertyOp20
 70
     1
102
RTVSPropertyOp21
 70
     1
102
RTVSPropertyOp22
 70
     1
102
RTVSPropertyOp23
 70
     1
102
RTVSPropertyOp24
 70
     1
102
RTVSPropertyOp25
 70
     1
102
RTVSPropertyOp26
 70
     1
102
RTVSPropertyOp27
 70
     1
  0
XRECORD
  5
523
102
{ACAD_REACTORS
330
522
102
}
330
522
100
AcDbXrecord
280
     1
102
RTVSPropertyOp0
 70
     1
102
RTVSPropertyOp1
 70
     1
102
RTVSPropertyOp2
 70
     1
102
RTVSPropertyOp3
 70
     1
102
RTVSPropertyOp4
 70
     1
102
RTVSPropertyOp5
 70
     1
102
RTVSPropertyOp6
 70
     1
102
RTVSPropertyOp7
 70
     1
102
RTVSPropertyOp8
 70
     1
102
RTVSPropertyOp9
 70
     1
102
RTVSPropertyOp10
 70
     1
102
RTVSPropertyOp11
 70
     1
102
RTVSPropertyOp12
 70
     1
102
RTVSPropertyOp13
 70
     1
102
RTVSPropertyOp14
 70
     1
102
RTVSPropertyOp15
 70
     1
102
RTVSPropertyOp16
 70
     1
102
RTVSPropertyOp17
 70
     1
102
RTVSPropertyOp18
 70
     1
102
RTVSPropertyOp19
 70
     1
102
RTVSPropertyOp20
 70
     1
102
RTVSPropertyOp21
 70
     1
102
RTVSPropertyOp22
 70
     1
102
RTVSPropertyOp23
 70
     1
102
RTVSPropertyOp24
 70
     1
102
RTVSPropertyOp25
 70
     1
102
RTVSPropertyOp26
 70
     1
102
RTVSPropertyOp27
 70
     1
  0
XRECORD
  5
52B
102
{ACAD_REACTORS
330
52A
102
}
330
52A
100
AcDbXrecord
280
     1
102
RTVSPropertyOp0
 70
     1
102
RTVSPropertyOp1
 70
     1
102
RTVSPropertyOp2
 70
     1
102
RTVSPropertyOp3
 70
     1
102
RTVSPropertyOp4
 70
     1
102
RTVSPropertyOp5
 70
     1
102
RTVSPropertyOp6
 70
     1
102
RTVSPropertyOp7
 70
     1
102
RTVSPropertyOp8
 70
     1
102
RTVSPropertyOp9
 70
     1
102
RTVSPropertyOp10
 70
     1
102
RTVSPropertyOp11
 70
     1
102
RTVSPropertyOp12
 70
     1
102
RTVSPropertyOp13
 70
     1
102
RTVSPropertyOp14
 70
     1
102
RTVSPropertyOp15
 70
     1
102
RTVSPropertyOp16
 70
     1
102
RTVSPropertyOp17
 70
     1
102
RTVSPropertyOp18
 70
     1
102
RTVSPropertyOp19
 70
     1
102
RTVSPropertyOp20
 70
     1
102
RTVSPropertyOp21
 70
     1
102
RTVSPropertyOp22
 70
     1
102
RTVSPropertyOp23
 70
     1
102
RTVSPropertyOp24
 70
     1
102
RTVSPropertyOp25
 70
     1
102
RTVSPropertyOp26
 70
     1
102
RTVSPropertyOp27
 70
     1
  0
XRECORD
  5
51D
102
{ACAD_REACTORS
330
51C
102
}
330
51C
100
AcDbXrecord
280
     1
102
RTVSPropertyOp0
 70
     1
102
RTVSPropertyOp1
 70
     1
102
RTVSPropertyOp2
 70
     1
102
RTVSPropertyOp3
 70
     1
102
RTVSPropertyOp4
 70
     1
102
RTVSPropertyOp5
 70
     1
102
RTVSPropertyOp6
 70
     1
102
RTVSPropertyOp7
 70
     1
102
RTVSPropertyOp8
 70
     1
102
RTVSPropertyOp9
 70
     1
102
RTVSPropertyOp10
 70
     1
102
RTVSPropertyOp11
 70
     1
102
RTVSPropertyOp12
 70
     1
102
RTVSPropertyOp13
 70
     1
102
RTVSPropertyOp14
 70
     1
102
RTVSPropertyOp15
 70
     1
102
RTVSPropertyOp16
 70
     1
102
RTVSPropertyOp17
 70
     1
102
RTVSPropertyOp18
 70
     1
102
RTVSPropertyOp19
 70
     1
102
RTVSPropertyOp20
 70
     1
102
RTVSPropertyOp21
 70
     1
102
RTVSPropertyOp22
 70
     1
102
RTVSPropertyOp23
 70
     1
102
RTVSPropertyOp24
 70
     1
102
RTVSPropertyOp25
 70
     1
102
RTVSPropertyOp26
 70
     1
102
RTVSPropertyOp27
 70
     1
  0
XRECORD
  5
521
102
{ACAD_REACTORS
330
520
102
}
330
520
100
AcDbXrecord
280
     1
102
RTVSPropertyOp0
 70
     1
102
RTVSPropertyOp1
 70
     1
102
RTVSPropertyOp2
 70
     1
102
RTVSPropertyOp3
 70
     1
102
RTVSPropertyOp4
 70
     1
102
RTVSPropertyOp5
 70
     1
102
RTVSPropertyOp6
 70
     1
102
RTVSPropertyOp7
 70
     1
102
RTVSPropertyOp8
 70
     1
102
RTVSPropertyOp9
 70
     1
102
RTVSPropertyOp10
 70
     1
102
RTVSPropertyOp11
 70
     1
102
RTVSPropertyOp12
 70
     1
102
RTVSPropertyOp13
 70
     1
102
RTVSPropertyOp14
 70
     1
102
RTVSPropertyOp15
 70
     1
102
RTVSPropertyOp16
 70
     1
102
RTVSPropertyOp17
 70
     1
102
RTVSPropertyOp18
 70
     1
102
RTVSPropertyOp19
 70
     1
102
RTVSPropertyOp20
 70
     1
102
RTVSPropertyOp21
 70
     1
102
RTVSPropertyOp22
 70
     1
102
RTVSPropertyOp23
 70
     1
102
RTVSPropertyOp24
 70
     1
102
RTVSPropertyOp25
 70
     1
102
RTVSPropertyOp26
 70
     1
102
RTVSPropertyOp27
 70
     1
  0
XRECORD
  5
531
102
{ACAD_REACTORS
330
530
102
}
330
530
100
AcDbXrecord
280
     1
102
RTVSPropertyOp0
 70
     0
102
RTVSPropertyOp1
 70
     0
102
RTVSPropertyOp2
 70
     0
102
RTVSPropertyOp3
 70
     0
102
RTVSPropertyOp4
 70
     0
102
RTVSPropertyOp5
 70
     0
102
RTVSPropertyOp6
 70
     0
102
RTVSPropertyOp7
 70
     0
102
RTVSPropertyOp8
 70
     0
102
RTVSPropertyOp9
 70
     0
102
RTVSPropertyOp10
 70
     0
102
RTVSPropertyOp11
 70
     0
102
RTVSPropertyOp12
 70
     0
102
RTVSPropertyOp13
 70
     0
102
RTVSPropertyOp14
 70
     2
102
RTVSPropertyOp15
 70
     0
102
RTVSPropertyOp16
 70
     0
102
RTVSPropertyOp17
 70
     0
102
RTVSPropertyOp18
 70
     0
102
RTVSPropertyOp19
 70
     0
102
RTVSPropertyOp20
 70
     0
102
RTVSPropertyOp21
 70
     0
102
RTVSPropertyOp22
 70
     0
102
RTVSPropertyOp23
 70
     0
102
RTVSPropertyOp24
 70
     0
102
RTVSPropertyOp25
 70
     0
102
RTVSPropertyOp26
 70
     0
102
RTVSPropertyOp27
 70
     0
  0
XRECORD
  5
529
102
{ACAD_REACTORS
330
528
102
}
330
528
100
AcDbXrecord
280
     1
102
RTVSPropertyOp0
 70
     1
102
RTVSPropertyOp1
 70
     1
102
RTVSPropertyOp2
 70
     1
102
RTVSPropertyOp3
 70
     1
102
RTVSPropertyOp4
 70
     1
102
RTVSPropertyOp5
 70
     1
102
RTVSPropertyOp6
 70
     1
102
RTVSPropertyOp7
 70
     1
102
RTVSPropertyOp8
 70
     1
102
RTVSPropertyOp9
 70
     1
102
RTVSPropertyOp10
 70
     1
102
RTVSPropertyOp11
 70
     1
102
RTVSPropertyOp12
 70
     1
102
RTVSPropertyOp13
 70
     1
102
RTVSPropertyOp14
 70
     1
102
RTVSPropertyOp15
 70
     1
102
RTVSPropertyOp16
 70
     1
102
RTVSPropertyOp17
 70
     1
102
RTVSPropertyOp18
 70
     1
102
RTVSPropertyOp19
 70
     1
102
RTVSPropertyOp20
 70
     1
102
RTVSPropertyOp21
 70
     1
102
RTVSPropertyOp22
 70
     1
102
RTVSPropertyOp23
 70
     1
102
RTVSPropertyOp24
 70
     1
102
RTVSPropertyOp25
 70
     1
102
RTVSPropertyOp26
 70
     1
102
RTVSPropertyOp27
 70
     1
  0
XRECORD
  5
50D
102
{ACAD_REACTORS
330
50C
102
}
330
50C
100
AcDbXrecord
280
     1
102
RTVSPropertyOp0
 70
     1
102
RTVSPropertyOp1
 70
     1
102
RTVSPropertyOp2
 70
     1
102
RTVSPropertyOp3
 70
     1
102
RTVSPropertyOp4
 70
     1
102
RTVSPropertyOp5
 70
     1
102
RTVSPropertyOp6
 70
     1
102
RTVSPropertyOp7
 70
     1
102
RTVSPropertyOp8
 70
     1
102
RTVSPropertyOp9
 70
     1
102
RTVSPropertyOp10
 70
     1
102
RTVSPropertyOp11
 70
     1
102
RTVSPropertyOp12
 70
     1
102
RTVSPropertyOp13
 70
     1
102
RTVSPropertyOp14
 70
     1
102
RTVSPropertyOp15
 70
     1
102
RTVSPropertyOp16
 70
     1
102
RTVSPropertyOp17
 70
     1
102
RTVSPropertyOp18
 70
     1
102
RTVSPropertyOp19
 70
     1
102
RTVSPropertyOp20
 70
     1
102
RTVSPropertyOp21
 70
     1
102
RTVSPropertyOp22
 70
     1
102
RTVSPropertyOp23
 70
     1
102
RTVSPropertyOp24
 70
     1
102
RTVSPropertyOp25
 70
     1
102
RTVSPropertyOp26
 70
     1
102
RTVSPropertyOp27
 70
     1
  0
XRECORD
  5
50F
102
{ACAD_REACTORS
330
50E
102
}
330
50E
100
AcDbXrecord
280
     1
102
RTVSPropertyOp0
 70
     1
102
RTVSPropertyOp1
 70
     1
102
RTVSPropertyOp2
 70
     1
102
RTVSPropertyOp3
 70
     1
102
RTVSPropertyOp4
 70
     1
102
RTVSPropertyOp5
 70
     1
102
RTVSPropertyOp6
 70
     1
102
RTVSPropertyOp7
 70
     1
102
RTVSPropertyOp8
 70
     1
102
RTVSPropertyOp9
 70
     1
102
RTVSPropertyOp10
 70
     1
102
RTVSPropertyOp11
 70
     1
102
RTVSPropertyOp12
 70
     1
102
RTVSPropertyOp13
 70
     1
102
RTVSPropertyOp14
 70
     1
102
RTVSPropertyOp15
 70
     1
102
RTVSPropertyOp16
 70
     1
102
RTVSPropertyOp17
 70
     1
102
RTVSPropertyOp18
 70
     1
102
RTVSPropertyOp19
 70
     1
102
RTVSPropertyOp20
 70
     1
102
RTVSPropertyOp21
 70
     1
102
RTVSPropertyOp22
 70
     1
102
RTVSPropertyOp23
 70
     1
102
RTVSPropertyOp24
 70
     1
102
RTVSPropertyOp25
 70
     1
102
RTVSPropertyOp26
 70
     1
102
RTVSPropertyOp27
 70
     1
  0
XRECORD
  5
511
102
{ACAD_REACTORS
330
510
102
}
330
510
100
AcDbXrecord
280
     1
102
RTVSPropertyOp0
 70
     1
102
RTVSPropertyOp1
 70
     1
102
RTVSPropertyOp2
 70
     1
102
RTVSPropertyOp3
 70
     1
102
RTVSPropertyOp4
 70
     1
102
RTVSPropertyOp5
 70
     1
102
RTVSPropertyOp6
 70
     1
102
RTVSPropertyOp7
 70
     1
102
RTVSPropertyOp8
 70
     1
102
RTVSPropertyOp9
 70
     1
102
RTVSPropertyOp10
 70
     1
102
RTVSPropertyOp11
 70
     1
102
RTVSPropertyOp12
 70
     1
102
RTVSPropertyOp13
 70
     1
102
RTVSPropertyOp14
 70
     1
102
RTVSPropertyOp15
 70
     1
102
RTVSPropertyOp16
 70
     1
102
RTVSPropertyOp17
 70
     1
102
RTVSPropertyOp18
 70
     1
102
RTVSPropertyOp19
 70
     1
102
RTVSPropertyOp20
 70
     1
102
RTVSPropertyOp21
 70
     1
102
RTVSPropertyOp22
 70
     1
102
RTVSPropertyOp23
 70
     1
102
RTVSPropertyOp24
 70
     1
102
RTVSPropertyOp25
 70
     1
102
RTVSPropertyOp26
 70
     1
102
RTVSPropertyOp27
 70
     1
  0
XRECORD
  5
513
102
{ACAD_REACTORS
330
512
102
}
330
512
100
AcDbXrecord
280
     1
102
RTVSPropertyOp0
 70
     1
102
RTVSPropertyOp1
 70
     1
102
RTVSPropertyOp2
 70
     1
102
RTVSPropertyOp3
 70
     1
102
RTVSPropertyOp4
 70
     1
102
RTVSPropertyOp5
 70
     1
102
RTVSPropertyOp6
 70
     1
102
RTVSPropertyOp7
 70
     1
102
RTVSPropertyOp8
 70
     1
102
RTVSPropertyOp9
 70
     1
102
RTVSPropertyOp10
 70
     1
102
RTVSPropertyOp11
 70
     1
102
RTVSPropertyOp12
 70
     1
102
RTVSPropertyOp13
 70
     1
102
RTVSPropertyOp14
 70
     1
102
RTVSPropertyOp15
 70
     1
102
RTVSPropertyOp16
 70
     1
102
RTVSPropertyOp17
 70
     1
102
RTVSPropertyOp18
 70
     1
102
RTVSPropertyOp19
 70
     1
102
RTVSPropertyOp20
 70
     1
102
RTVSPropertyOp21
 70
     1
102
RTVSPropertyOp22
 70
     1
102
RTVSPropertyOp23
 70
     1
102
RTVSPropertyOp24
 70
     1
102
RTVSPropertyOp25
 70
     1
102
RTVSPropertyOp26
 70
     1
102
RTVSPropertyOp27
 70
     1
  0
XRECORD
  5
52D
102
{ACAD_REACTORS
330
52C
102
}
330
52C
100
AcDbXrecord
280
     1
102
RTVSPropertyOp0
 70
     0
102
RTVSPropertyOp1
 70
     0
102
RTVSPropertyOp2
 70
     0
102
RTVSPropertyOp3
 70
     0
102
RTVSPropertyOp4
 70
     0
102
RTVSPropertyOp5
 70
     0
102
RTVSPropertyOp6
 70
     0
102
RTVSPropertyOp7
 70
     0
102
RTVSPropertyOp8
 70
     0
102
RTVSPropertyOp9
 70
     0
102
RTVSPropertyOp10
 70
     0
102
RTVSPropertyOp11
 70
     0
102
RTVSPropertyOp12
 70
     0
102
RTVSPropertyOp13
 70
     0
102
RTVSPropertyOp14
 70
     2
102
RTVSPropertyOp15
 70
     0
102
RTVSPropertyOp16
 70
     0
102
RTVSPropertyOp17
 70
     0
102
RTVSPropertyOp18
 70
     0
102
RTVSPropertyOp19
 70
     0
102
RTVSPropertyOp20
 70
     0
102
RTVSPropertyOp21
 70
     0
102
RTVSPropertyOp22
 70
     0
102
RTVSPropertyOp23
 70
     0
102
RTVSPropertyOp24
 70
     0
102
RTVSPropertyOp25
 70
     0
102
RTVSPropertyOp26
 70
     0
102
RTVSPropertyOp27
 70
     0
  0
XRECORD
  5
527
102
{ACAD_REACTORS
330
526
102
}
330
526
100
AcDbXrecord
280
     1
102
RTVSPropertyOp0
 70
     1
102
RTVSPropertyOp1
 70
     1
102
RTVSPropertyOp2
 70
     1
102
RTVSPropertyOp3
 70
     1
102
RTVSPropertyOp4
 70
     1
102
RTVSPropertyOp5
 70
     1
102
RTVSPropertyOp6
 70
     1
102
RTVSPropertyOp7
 70
     1
102
RTVSPropertyOp8
 70
     1
102
RTVSPropertyOp9
 70
     1
102
RTVSPropertyOp10
 70
     1
102
RTVSPropertyOp11
 70
     1
102
RTVSPropertyOp12
 70
     1
102
RTVSPropertyOp13
 70
     1
102
RTVSPropertyOp14
 70
     1
102
RTVSPropertyOp15
 70
     1
102
RTVSPropertyOp16
 70
     1
102
RTVSPropertyOp17
 70
     1
102
RTVSPropertyOp18
 70
     1
102
RTVSPropertyOp19
 70
     1
102
RTVSPropertyOp20
 70
     1
102
RTVSPropertyOp21
 70
     1
102
RTVSPropertyOp22
 70
     1
102
RTVSPropertyOp23
 70
     1
102
RTVSPropertyOp24
 70
     1
102
RTVSPropertyOp25
 70
     1
102
RTVSPropertyOp26
 70
     1
102
RTVSPropertyOp27
 70
     1
  0
XRECORD
  5
52F
102
{ACAD_REACTORS
330
52E
102
}
330
52E
100
AcDbXrecord
280
     1
102
RTVSPropertyOp0
 70
     0
102
RTVSPropertyOp1
 70
     0
102
RTVSPropertyOp2
 70
     0
102
RTVSPropertyOp3
 70
     0
102
RTVSPropertyOp4
 70
     0
102
RTVSPropertyOp5
 70
     0
102
RTVSPropertyOp6
 70
     0
102
RTVSPropertyOp7
 70
     0
102
RTVSPropertyOp8
 70
     0
102
RTVSPropertyOp9
 70
     0
102
RTVSPropertyOp10
 70
     0
102
RTVSPropertyOp11
 70
     0
102
RTVSPropertyOp12
 70
     0
102
RTVSPropertyOp13
 70
     0
102
RTVSPropertyOp14
 70
     2
102
RTVSPropertyOp15
 70
     0
102
RTVSPropertyOp16
 70
     0
102
RTVSPropertyOp17
 70
     0
102
RTVSPropertyOp18
 70
     0
102
RTVSPropertyOp19
 70
     0
102
RTVSPropertyOp20
 70
     0
102
RTVSPropertyOp21
 70
     0
102
RTVSPropertyOp22
 70
     0
102
RTVSPropertyOp23
 70
     0
102
RTVSPropertyOp24
 70
     0
102
RTVSPropertyOp25
 70
     0
102
RTVSPropertyOp26
 70
     0
102
RTVSPropertyOp27
 70
     0
  0
XRECORD
  5
51F
102
{ACAD_REACTORS
330
51E
102
}
330
51E
100
AcDbXrecord
280
     1
102
RTVSPropertyOp0
 70
     1
102
RTVSPropertyOp1
 70
     1
102
RTVSPropertyOp2
 70
     1
102
RTVSPropertyOp3
 70
     1
102
RTVSPropertyOp4
 70
     1
102
RTVSPropertyOp5
 70
     1
102
RTVSPropertyOp6
 70
     1
102
RTVSPropertyOp7
 70
     1
102
RTVSPropertyOp8
 70
     1
102
RTVSPropertyOp9
 70
     1
102
RTVSPropertyOp10
 70
     1
102
RTVSPropertyOp11
 70
     1
102
RTVSPropertyOp12
 70
     1
102
RTVSPropertyOp13
 70
     1
102
RTVSPropertyOp14
 70
     1
102
RTVSPropertyOp15
 70
     1
102
RTVSPropertyOp16
 70
     1
102
RTVSPropertyOp17
 70
     1
102
RTVSPropertyOp18
 70
     1
102
RTVSPropertyOp19
 70
     1
102
RTVSPropertyOp20
 70
     1
102
RTVSPropertyOp21
 70
     1
102
RTVSPropertyOp22
 70
     1
102
RTVSPropertyOp23
 70
     1
102
RTVSPropertyOp24
 70
     1
102
RTVSPropertyOp25
 70
     1
102
RTVSPropertyOp26
 70
     1
102
RTVSPropertyOp27
 70
     1
  0
XRECORD
  5
525
102
{ACAD_REACTORS
330
524
102
}
330
524
100
AcDbXrecord
280
     1
102
RTVSPropertyOp0
 70
     1
102
RTVSPropertyOp1
 70
     1
102
RTVSPropertyOp2
 70
     1
102
RTVSPropertyOp3
 70
     1
102
RTVSPropertyOp4
 70
     1
102
RTVSPropertyOp5
 70
     1
102
RTVSPropertyOp6
 70
     1
102
RTVSPropertyOp7
 70
     1
102
RTVSPropertyOp8
 70
     1
102
RTVSPropertyOp9
 70
     1
102
RTVSPropertyOp10
 70
     1
102
RTVSPropertyOp11
 70
     1
102
RTVSPropertyOp12
 70
     1
102
RTVSPropertyOp13
 70
     1
102
RTVSPropertyOp14
 70
     1
102
RTVSPropertyOp15
 70
     1
102
RTVSPropertyOp16
 70
     1
102
RTVSPropertyOp17
 70
     1
102
RTVSPropertyOp18
 70
     1
102
RTVSPropertyOp19
 70
     1
102
RTVSPropertyOp20
 70
     1
102
RTVSPropertyOp21
 70
     1
102
RTVSPropertyOp22
 70
     1
102
RTVSPropertyOp23
 70
     1
102
RTVSPropertyOp24
 70
     1
102
RTVSPropertyOp25
 70
     1
102
RTVSPropertyOp26
 70
     1
102
RTVSPropertyOp27
 70
     1
  0
ENDSEC
  0
EOF
