0
SECTION
2
HEADER
9
$ACADVER
1
AC1015
9
$DWGCODEPAGE
3
ANSI_1252
9
$HANDSEED
5
182
9
$ANGBASE
50
0
9
$ANGDIR
70
0
9
$ATTMODE
70
1
9
$AUNITS
70
0
9
$AUPREC
70
0
9
$CECOLOR
62
256
9
$CELTSCALE
40
1
9
$CELTYPE
6
ByLayer
9
$CELWEIGHT
370
-1
9
$CLAYER
8
0
9
$CMLJUST
70
0
9
$CMLSCALE
40
1
9
$CMLSTYLE
2
Standard
9
$DIMSTYLE
2
Standard
9
$TEXTSIZE
40
0.2
9
$TEXTSTYLE
7
Standard
9
$LUNITS
70
2
9
$LUPREC
70
4
9
$EXTNAMES
290
1
9
$INSUNITS
70
4
9
$LTSCALE
40
1
9
$LWDISPLAY
290
0
9
$PDMODE
70
0
9
$PDSIZE
40
0
9
$PLINEGEN
70
0
0
ENDSEC
0
SECTION
2
CLASSES
0
CLASS
1
RASTERVARIABLES
2
AcDbRasterVariables
3
ISM
90
0
280
0
281
0
0
ENDSEC
0
SECTION
2
TABLES
0
TABLE
2
VPORT
5
178
100
AcDbSymbolTable
0
VPORT
5
1
100
AcDbSymbolTableRecord
100
AcDbViewportTableRecord
2
*Active
70
0
10
0
20
0
11
1
21
1
12
-1
22
1
13
0
23
0
14
0.5
24
0.5
15
10
25
10
16
0
26
0
36
1
17
0
27
0
37
0
0
ENDTAB
0
TABLE
2
LTYPE
5
179
100
AcDbSymbolTable
0
LTYPE
5
14
100
AcDbSymbolTableRecord
100
AcDbLinetypeTableRecord
70
0
2
ByBlock
3

72
65
73
0
40
0
0
LTYPE
5
15
100
AcDbSymbolTableRecord
100
AcDbLinetypeTableRecord
70
0
2
ByLayer
3

72
65
73
0
40
0
0
LTYPE
5
16
100
AcDbSymbolTableRecord
100
AcDbLinetypeTableRecord
70
0
2
CONTINUOUS
3
Solid line
72
65
73
0
40
0
0
LTYPE
5
3B
100
AcDbSymbolTableRecord
100
AcDbLinetypeTableRecord
70
0
2
DASHED
3
__ __ __ __ __ __ __ __ __
72
65
73
2
40
25.72
49
12.86
74
0
49
-12.86
74
0
0
LTYPE
5
3C
100
AcDbSymbolTableRecord
100
AcDbLinetypeTableRecord
70
0
2
HIDDEN
3
_ _ _ _ _ _ _ _ _ _ _ _ _ _ _
72
65
73
2
40
0.5
49
0.25
74
0
49
-0.25
74
0
0
LTYPE
5
3D
100
AcDbSymbolTableRecord
100
AcDbLinetypeTableRecord
70
0
2
PHANTOM
3
____ _ _ ____ _ _ _____ _ _ ____
72
65
73
6
40
50.5
49
18
74
0
49
-6.5
74
0
49
6.5
74
0
49
-6.5
74
0
49
6.5
74
0
49
-6.5
74
0
0
LTYPE
5
3E
100
AcDbSymbolTableRecord
100
AcDbLinetypeTableRecord
70
0
2
CENTER
3
____ _ ____ _ ____ _ ____
72
65
73
4
40
47.5
49
22
74
0
49
-8.5
74
0
49
8.5
74
0
49
-8.5
74
0
0
LTYPE
5
3F
100
AcDbSymbolTableRecord
100
AcDbLinetypeTableRecord
70
0
2
DOT
3
.........................
72
65
73
2
40
10
49
0
74
0
49
-10
74
0
0
LTYPE
5
40
100
AcDbSymbolTableRecord
100
AcDbLinetypeTableRecord
70
0
2
DASHDOT
3
_._._._._._._._._._._._._._._._.
72
65
73
4
40
70
49
31
74
0
49
-13
74
0
49
13
74
0
49
-13
74
0
0
ENDTAB
0
TABLE
2
LAYER
5
17a
100
AcDbSymbolTable
0
LAYER
5
10
100
AcDbSymbolTableRecord
100
AcDbLayerTableRecord
2
0
70
0
62
7
6
CONTINUOUS
290
1
370
-3
390
0
0
LAYER
5
42
100
AcDbSymbolTableRecord
100
AcDbLayerTableRecord
2
80
70
0
62
-6
6
CONTINUOUS
290
1
370
-3
390
0
0
LAYER
5
44
100
AcDbSymbolTableRecord
100
AcDbLayerTableRecord
2
81
70
0
62
-3
6
CONTINUOUS
290
1
370
-3
390
0
0
LAYER
5
46
100
AcDbSymbolTableRecord
100
AcDbLayerTableRecord
2
1
70
0
62
4
6
CONTINUOUS
290
1
370
-3
390
0
0
LAYER
5
48
100
AcDbSymbolTableRecord
100
AcDbLayerTableRecord
2
2
70
0
62
7
6
CONTINUOUS
290
1
370
-3
390
0
0
LAYER
5
4F
100
AcDbSymbolTableRecord
100
AcDbLayerTableRecord
2
4
70
0
62
-2
6
CENTER
290
1
370
-3
390
0
0
LAYER
5
164
100
AcDbSymbolTableRecord
100
AcDbLayerTableRecord
2
SK4
70
0
62
2
6
CENTER
290
1
370
-3
390
0
0
LAYER
5
165
100
AcDbSymbolTableRecord
100
AcDbLayerTableRecord
2
SK1
70
0
62
4
6
CONTINUOUS
290
1
370
-3
390
0
0
LAYER
5
166
100
AcDbSymbolTableRecord
100
AcDbLayerTableRecord
2
SK6
70
0
62
5
6
CONTINUOUS
290
1
370
-3
390
0
0
LAYER
5
167
100
AcDbSymbolTableRecord
100
AcDbLayerTableRecord
2
SK2
70
0
62
7
6
CONTINUOUS
290
1
370
-3
390
0
0
ENDTAB
0
TABLE
2
STYLE
5
17b
100
AcDbSymbolTable
0
STYLE
5
11
100
AcDbSymbolTableRecord
100
AcDbTextStyleTableRecord
2
Standard
3
txt
70
0
71
0
40
0
41
1
42
0
50
0
0
STYLE
5
E0
100
AcDbSymbolTableRecord
100
AcDbTextStyleTableRecord
2
DEFAULT
3
simplex.shx
70
0
71
0
40
0
41
1
42
0
50
0
0
STYLE
5
103
100
AcDbSymbolTableRecord
100
AcDbTextStyleTableRecord
2
DWGDirectTextStyle
3
SIMPLEX
70
0
71
0
40
0
41
1
42
0
50
0
0
ENDTAB
0
TABLE
2
DIMSTYLE
5
17c
100
AcDbSymbolTable
100
AcDbDimStyleTable
0
DIMSTYLE
105
27
100
AcDbSymbolTableRecord
100
AcDbDimStyleTableRecord
2
Standard
70
0
3
<>
41
0.18
42
0.0625
44
0.18
140
0.18
147
0.09
73
0
74
0
77
1
271
2
275
0
278
52
280
0
340
11
0
ENDTAB
0
TABLE
2
VIEW
5
17d
100
AcDbSymbolTable
0
ENDTAB
0
TABLE
2
UCS
5
17e
100
AcDbSymbolTable
0
ENDTAB
0
TABLE
2
APPID
5
17f
100
AcDbSymbolTable
0
APPID
5
12
100
AcDbSymbolTableRecord
100
AcDbRegAppTableRecord
2
ACAD
70
0
0
ENDTAB
0
TABLE
2
BLOCK_RECORD
5
180
100
AcDbSymbolTable
0
BLOCK_RECORD
5
1F
100
AcDbSymbolTableRecord
100
AcDbBlockTableRecord
2
*Model_Space
340
0
70
0
0
BLOCK_RECORD
5
1B
100
AcDbSymbolTableRecord
100
AcDbBlockTableRecord
2
*Paper_Space
340
0
70
0
0
BLOCK_RECORD
5
23
100
AcDbSymbolTableRecord
100
AcDbBlockTableRecord
2
*Paper_Space0
340
0
70
0
0
BLOCK_RECORD
5
105
100
AcDbSymbolTableRecord
100
AcDbBlockTableRecord
2
DimnDraft3D1
340
0
70
0
0
BLOCK_RECORD
5
113
100
AcDbSymbolTableRecord
100
AcDbBlockTableRecord
2
_CLOSED
340
0
70
0
0
BLOCK_RECORD
5
11A
100
AcDbSymbolTableRecord
100
AcDbBlockTableRecord
2
DimnDraft3D2
340
0
70
0
0
BLOCK_RECORD
5
129
100
AcDbSymbolTableRecord
100
AcDbBlockTableRecord
2
DimnDraft3D3
340
0
70
0
0
BLOCK_RECORD
5
137
100
AcDbSymbolTableRecord
100
AcDbBlockTableRecord
2
DimnDraft3D4
340
0
70
0
0
ENDTAB
0
ENDSEC
0
SECTION
2
BLOCKS
0
BLOCK
5
20
100
AcDbEntity
8
0
100
AcDbBlockBegin
2
*Model_Space
70
0
10
0
20
0
30
0
3
*Model_Space
0
ENDBLK
5
21
100
AcDbEntity
8
0
100
AcDbBlockEnd
0
BLOCK
5
1C
100
AcDbEntity
8
0
100
AcDbBlockBegin
2
*Paper_Space
70
0
10
0
20
0
30
0
3
*Paper_Space
0
ENDBLK
5
1D
100
AcDbEntity
8
0
100
AcDbBlockEnd
0
BLOCK
5
24
100
AcDbEntity
8
0
100
AcDbBlockBegin
2
*Paper_Space0
70
0
10
0
20
0
30
0
3
*Paper_Space0
0
ENDBLK
5
25
100
AcDbEntity
8
0
100
AcDbBlockEnd
0
BLOCK
5
110
100
AcDbEntity
8
0
100
AcDbBlockBegin
2
DimnDraft3D1
70
0
10
0
20
0
30
0
3
DimnDraft3D1
0
MTEXT
5
106
100
AcDbEntity
8
2
62
256
6
ByLayer
370
-1
48
1
60
0
100
AcDbMText
10
75.065
20
24.28
30
0
210
0
220
0
230
1
1
\W01.000;\fsimplex.shx,bigfont.shx;13.0 
40
4.5
41
0
44
1.084337
50
90
71
7
72
5
7
DEFAULT
0
LINE
5
107
100
AcDbEntity
8
2
62
256
6
ByLayer
370
-1
48
1
60
0
100
AcDbLine
10
65.94
20
12.9
30
0
11
78.19
21
12.9
31
0
39
0
210
0
220
0
230
1
0
LINE
5
108
100
AcDbEntity
8
2
62
256
6
ByLayer
370
-1
48
1
60
0
100
AcDbLine
10
65.94
20
0
30
0
11
78.19
21
0
31
0
39
0
210
0
220
0
230
1
0
LINE
5
109
100
AcDbEntity
8
2
62
256
6
ByLayer
370
-1
48
1
60
0
100
AcDbLine
10
76.19
20
0
30
0
11
76.19
21
32.356316
31
0
39
0
210
0
220
0
230
1
0
LINE
5
10A
100
AcDbEntity
8
2
62
256
6
ByLayer
370
-1
48
1
60
0
100
AcDbLine
10
76.19
20
12.9
30
0
11
76.607997
21
9.725002
31
0
39
0
210
0
220
0
230
1
0
LINE
5
10B
100
AcDbEntity
8
2
62
256
6
ByLayer
370
-1
48
1
60
0
100
AcDbLine
10
76.19
20
12.9
30
0
11
75.772003
21
9.724998
31
0
39
0
210
0
220
0
230
1
0
LINE
5
10C
100
AcDbEntity
8
2
62
256
6
ByLayer
370
-1
48
1
60
0
100
AcDbLine
10
76.607997
20
9.725002
30
0
11
75.772003
21
9.724998
31
0
39
0
210
0
220
0
230
1
0
LINE
5
10D
100
AcDbEntity
8
2
62
256
6
ByLayer
370
-1
48
1
60
0
100
AcDbLine
10
76.19
20
0
30
0
11
75.772003
21
3.174998
31
0
39
0
210
0
220
0
230
1
0
LINE
5
10E
100
AcDbEntity
8
2
62
256
6
ByLayer
370
-1
48
1
60
0
100
AcDbLine
10
76.19
20
0
30
0
11
76.607997
21
3.175002
31
0
39
0
210
0
220
0
230
1
0
LINE
5
10F
100
AcDbEntity
8
2
62
256
6
ByLayer
370
-1
48
1
60
0
100
AcDbLine
10
75.772003
20
3.174998
30
0
11
76.607997
21
3.175002
31
0
39
0
210
0
220
0
230
1
0
ENDBLK
5
111
100
AcDbEntity
8
0
100
AcDbBlockEnd
0
BLOCK
5
114
100
AcDbEntity
8
0
100
AcDbBlockBegin
2
_CLOSED
70
0
10
0
20
0
30
0
3
_CLOSED
0
LINE
5
116
100
AcDbEntity
8
0
62
256
6
ByLayer
370
-2
48
1
60
0
100
AcDbLine
10
-1
20
0.166667
30
0
11
0
21
0
31
0
39
0
210
0
220
0
230
1
0
LINE
5
117
100
AcDbEntity
8
0
62
256
6
ByLayer
370
-2
48
1
60
0
100
AcDbLine
10
0
20
0
30
0
11
-1
21
-0.166667
31
0
39
0
210
0
220
0
230
1
0
LINE
5
118
100
AcDbEntity
8
0
62
256
6
ByLayer
370
-2
48
1
60
0
100
AcDbLine
10
-1
20
0.166667
30
0
11
-1
21
-0.166667
31
0
39
0
210
0
220
0
230
1
0
LINE
5
119
100
AcDbEntity
8
0
62
256
6
ByLayer
370
-2
48
1
60
0
100
AcDbLine
10
0
20
0
30
0
11
-1
21
0
31
0
39
0
210
0
220
0
230
1
0
ENDBLK
5
115
100
AcDbEntity
8
0
100
AcDbBlockEnd
0
BLOCK
5
126
100
AcDbEntity
8
0
100
AcDbBlockBegin
2
DimnDraft3D2
70
0
10
0
20
0
30
0
3
DimnDraft3D2
0
MTEXT
5
11B
100
AcDbEntity
8
SK2
62
256
6
ByLayer
370
-1
48
1
60
0
100
AcDbMText
10
-148.185
20
-3.096711
30
0
210
0
220
0
230
1
1
\W01.000;\fsimplex.shx,bigfont.shx;%%c16 
40
4.5
41
0
44
1.084337
50
90
71
7
72
5
7
DEFAULT
0
LINE
5
11D
100
AcDbEntity
8
SK2
62
256
6
ByLayer
370
-1
48
1
60
0
100
AcDbLine
10
-139.31
20
-7.9925
30
0
11
-149.06
21
-7.9925
31
0
39
0
210
0
220
0
230
1
0
LINE
5
11E
100
AcDbEntity
8
SK2
62
256
6
ByLayer
370
-1
48
1
60
0
100
AcDbLine
10
-139.31
20
7.9925
30
0
11
-149.06
21
7.9925
31
0
39
0
210
0
220
0
230
1
0
LINE
5
11F
100
AcDbEntity
8
SK2
62
256
6
ByLayer
370
-1
48
1
60
0
100
AcDbLine
10
-147.06
20
-19.2425
30
0
11
-147.06
21
19.2425
31
0
39
0
210
0
220
0
230
1
0
LINE
5
120
100
AcDbEntity
8
SK2
62
256
6
ByLayer
370
-1
48
1
60
0
100
AcDbLine
10
-147.06
20
-7.9925
30
0
11
-146.642003
21
-11.167498
31
0
39
0
210
0
220
0
230
1
0
LINE
5
121
100
AcDbEntity
8
SK2
62
256
6
ByLayer
370
-1
48
1
60
0
100
AcDbLine
10
-147.06
20
-7.9925
30
0
11
-147.477997
21
-11.167502
31
0
39
0
210
0
220
0
230
1
0
LINE
5
122
100
AcDbEntity
8
SK2
62
256
6
ByLayer
370
-1
48
1
60
0
100
AcDbLine
10
-146.642003
20
-11.167498
30
0
11
-147.477997
21
-11.167502
31
0
39
0
210
0
220
0
230
1
0
LINE
5
123
100
AcDbEntity
8
SK2
62
256
6
ByLayer
370
-1
48
1
60
0
100
AcDbLine
10
-147.06
20
7.9925
30
0
11
-147.477997
21
11.167498
31
0
39
0
210
0
220
0
230
1
0
LINE
5
124
100
AcDbEntity
8
SK2
62
256
6
ByLayer
370
-1
48
1
60
0
100
AcDbLine
10
-147.06
20
7.9925
30
0
11
-146.642003
21
11.167502
31
0
39
0
210
0
220
0
230
1
0
LINE
5
125
100
AcDbEntity
8
SK2
62
256
6
ByLayer
370
-1
48
1
60
0
100
AcDbLine
10
-147.477997
20
11.167498
30
0
11
-146.642003
21
11.167502
31
0
39
0
210
0
220
0
230
1
0
ENDBLK
5
127
100
AcDbEntity
8
0
100
AcDbBlockEnd
0
BLOCK
5
134
100
AcDbEntity
8
0
100
AcDbBlockBegin
2
DimnDraft3D3
70
0
10
0
20
0
30
0
3
DimnDraft3D3
0
MTEXT
5
12A
100
AcDbEntity
8
SK2
62
256
6
ByLayer
370
-1
48
1
60
0
100
AcDbMText
10
-42.375132
20
26.775
30
0
210
0
220
0
230
1
1
\W01.000;\fsimplex.shx,bigfont.shx;200.0 
40
4.5
41
0
44
1.084337
50
0
71
7
72
5
7
DEFAULT
0
LINE
5
12B
100
AcDbEntity
8
SK2
62
256
6
ByLayer
370
-1
48
1
60
0
100
AcDbLine
10
63.94
20
14.9
30
0
11
63.94
21
27.65
31
0
39
0
210
0
220
0
230
1
0
LINE
5
12C
100
AcDbEntity
8
SK2
62
256
6
ByLayer
370
-1
48
1
60
0
100
AcDbLine
10
-137.31
20
9.9925
30
0
11
-137.31
21
27.65
31
0
39
0
210
0
220
0
230
1
0
LINE
5
12D
100
AcDbEntity
8
SK2
62
256
6
ByLayer
370
-1
48
1
60
0
100
AcDbLine
10
63.94
20
25.65
30
0
11
-137.31
21
25.65
31
0
39
0
210
0
220
0
230
1
0
LINE
5
12E
100
AcDbEntity
8
SK2
62
256
6
ByLayer
370
-1
48
1
60
0
100
AcDbLine
10
63.94
20
25.65
30
0
11
60.765002
21
25.232003
31
0
39
0
210
0
220
0
230
1
0
LINE
5
12F
100
AcDbEntity
8
SK2
62
256
6
ByLayer
370
-1
48
1
60
0
100
AcDbLine
10
63.94
20
25.65
30
0
11
60.764998
21
26.067997
31
0
39
0
210
0
220
0
230
1
0
LINE
5
130
100
AcDbEntity
8
SK2
62
256
6
ByLayer
370
-1
48
1
60
0
100
AcDbLine
10
60.765002
20
25.232003
30
0
11
60.764998
21
26.067997
31
0
39
0
210
0
220
0
230
1
0
LINE
5
131
100
AcDbEntity
8
SK2
62
256
6
ByLayer
370
-1
48
1
60
0
100
AcDbLine
10
-137.31
20
25.65
30
0
11
-134.135002
21
26.067997
31
0
39
0
210
0
220
0
230
1
0
LINE
5
132
100
AcDbEntity
8
SK2
62
256
6
ByLayer
370
-1
48
1
60
0
100
AcDbLine
10
-137.31
20
25.65
30
0
11
-134.134998
21
25.232003
31
0
39
0
210
0
220
0
230
1
0
LINE
5
133
100
AcDbEntity
8
SK2
62
256
6
ByLayer
370
-1
48
1
60
0
100
AcDbLine
10
-134.135002
20
26.067997
30
0
11
-134.134998
21
25.232003
31
0
39
0
210
0
220
0
230
1
0
ENDBLK
5
135
100
AcDbEntity
8
0
100
AcDbBlockEnd
0
BLOCK
5
142
100
AcDbEntity
8
0
100
AcDbBlockBegin
2
DimnDraft3D4
70
0
10
0
20
0
30
0
3
DimnDraft3D4
0
MTEXT
5
138
100
AcDbEntity
8
2
62
256
6
ByLayer
370
-1
48
1
60
0
100
AcDbMText
10
90.986196
20
-36.834311
30
0
210
0
220
0
230
1
1
\W01.000;\fsimplex.shx,bigfont.shx;93%%d0' 
40
4.5
41
0
44
1.084337
50
43.5
71
7
72
5
7
DEFAULT
0
LINE
5
139
100
AcDbEntity
8
2
62
256
6
ByLayer
370
-1
48
1
60
0
100
AcDbLine
10
63.259633
20
-0.082184
30
0
11
60.703329
21
-48.859355
31
0
39
0
210
0
220
0
230
1
0
LINE
5
13A
100
AcDbEntity
8
2
62
256
6
ByLayer
370
-1
48
1
60
0
100
AcDbLine
10
65.94
20
0
30
0
11
112.190347
21
0
31
0
39
0
210
0
220
0
230
1
0
ARC
5
13B
100
AcDbEntity
8
2
62
256
6
ByLayer
370
-1
48
1
60
0
100
AcDbCircle
39
0
10
63.26394
20
0
30
0
40
46.9264068782928
210
0
220
0
230
1
100
AcDbArc
50
267
51
0
0
LINE
5
13C
100
AcDbEntity
8
2
62
256
6
ByLayer
370
-1
48
1
60
0
100
AcDbLine
10
60.808001
20
-46.862096
30
0
11
63.99582
21
-46.556897
31
0
39
0
210
0
220
0
230
1
0
LINE
5
13D
100
AcDbEntity
8
2
62
256
6
ByLayer
370
-1
48
1
60
0
100
AcDbLine
10
60.808001
20
-46.862096
30
0
11
63.966192
21
-47.392365
31
0
39
0
210
0
220
0
230
1
0
LINE
5
13E
100
AcDbEntity
8
2
62
256
6
ByLayer
370
-1
48
1
60
0
100
AcDbLine
10
63.99582
20
-46.556897
30
0
11
63.966192
21
-47.392365
31
0
39
0
210
0
220
0
230
1
0
LINE
5
13F
100
AcDbEntity
8
2
62
256
6
ByLayer
370
-1
48
1
60
0
100
AcDbLine
10
110.190347
20
0
30
0
11
110.554602
21
-3.181612
31
0
39
0
210
0
220
0
230
1
0
LINE
5
140
100
AcDbEntity
8
2
62
256
6
ByLayer
370
-1
48
1
60
0
100
AcDbLine
10
110.190347
20
0
30
0
11
109.718728
21
-3.16748
31
0
39
0
210
0
220
0
230
1
0
LINE
5
141
100
AcDbEntity
8
2
62
256
6
ByLayer
370
-1
48
1
60
0
100
AcDbLine
10
110.554602
20
-3.181612
30
0
11
109.718728
21
-3.16748
31
0
39
0
210
0
220
0
230
1
0
ENDBLK
5
143
100
AcDbEntity
8
0
100
AcDbBlockEnd
0
ENDSEC
0
SECTION
2
ENTITIES
0
ELLIPSE
5
8C
100
AcDbEntity
8
1
62
256
6
ByLayer
370
-1
48
1
60
0
100
AcDbEllipse
10
56.087098
20
7.244703
30
0
11
2.81676905330995
21
1.03669730870002
31
0
210
0
220
0
230
-1
40
0.996803
41
1.86406505399813
42
2.70741020971721
0
ELLIPSE
5
8D
100
AcDbEntity
8
1
62
256
6
ByLayer
370
-1
48
1
60
0
100
AcDbEllipse
10
56.1706
20
-4.701453
30
0
11
-1.36294992272428
21
-0.626392455371135
31
0
210
0
220
0
230
1
40
0.997187
41
-1.42192696069904
42
2.11456053075011
0
ELLIPSE
5
8E
100
AcDbEntity
8
1
62
256
6
ByLayer
370
-1
48
1
60
0
100
AcDbEllipse
10
65.922794
20
3.398373
30
0
11
2.81676905365607
21
1.03669730788782
31
0
210
0
220
0
230
-1
40
0.996803
41
2.97211902846711
42
3.12582626857104
0
ELLIPSE
5
8F
100
AcDbEntity
8
1
62
256
6
ByLayer
370
-1
48
1
60
0
100
AcDbEllipse
10
43.250114
20
0.000991
30
0
11
258.411339796087
21
0.551964672689683
31
0
210
0
220
0
230
-1
40
0.031243
41
1.50574514153718
42
1.52539162169329
0
ELLIPSE
5
90
100
AcDbEntity
8
1
62
256
6
ByLayer
370
-1
48
1
60
0
100
AcDbEllipse
10
56.170603
20
-4.70146
30
0
11
-1.36294992272428
21
-0.626392455371135
31
0
210
0
220
0
230
1
40
0.997187
41
2.11447180887457
42
2.74924983098867
0
ELLIPSE
5
91
100
AcDbEntity
8
1
62
256
6
ByLayer
370
-1
48
1
60
0
100
AcDbEllipse
10
56.262941
20
-4.902375
30
0
11
1.36294992272428
21
0.626392455371135
31
0
210
0
220
0
230
1
40
0.997187
41
0.81182455968429
42
1.5978687891844
0
ELLIPSE
5
92
100
AcDbEntity
8
1
62
256
6
ByLayer
370
-1
48
1
60
0
100
AcDbEllipse
10
55.779909
20
-3.851361
30
0
11
1.09976724834147
21
1.18639376751198
31
0
210
0
220
0
230
-1
40
0.203284
41
-1.51391713922216
42
-1.36285572531597
0
ELLIPSE
5
93
100
AcDbEntity
8
1
62
256
6
ByLayer
370
-1
48
1
60
0
100
AcDbEllipse
10
56.272331
20
-4.922808
30
0
11
1.36294992272428
21
0.626392455371136
31
0
210
0
220
0
230
1
40
0.997187
41
0.819150203969253
42
3.06008726281197
0
ELLIPSE
5
94
100
AcDbEntity
8
1
62
256
6
ByLayer
370
-1
48
1
60
0
100
AcDbEllipse
10
56.799512
20
5.099455
30
0
11
0.908633281816188
21
0.417594970247425
31
0
210
0
220
0
230
1
40
0.997187
41
-2.56822597094289
42
-2.35822765246523
0
ELLIPSE
5
95
100
AcDbEntity
8
1
62
256
6
ByLayer
370
-1
48
1
60
0
100
AcDbEllipse
10
56.570927
20
-5.572515
30
0
11
1.4152028154
21
-2.01967572811034
31
0
210
0
220
0
230
-1
40
0.590756
41
-2.9910107201264
42
-2.71815240254296
0
ELLIPSE
5
96
100
AcDbEntity
8
1
62
256
6
ByLayer
370
-1
48
1
60
0
100
AcDbEllipse
10
56.076838
20
7.04892
30
0
11
2.81676905308503
21
1.0366973093156
31
0
210
0
220
0
230
-1
40
0.996803
41
1.55539449549478
42
1.74374089692587
0
ELLIPSE
5
97
100
AcDbEntity
8
1
62
256
6
ByLayer
370
-1
48
1
60
0
100
AcDbEllipse
10
57.07714
20
-4.777338
30
0
11
-0.360613833720779
21
-0.165733003816937
31
0
210
0
220
0
230
1
40
0.997187
41
-0.481998706571409
42
2.04872870882032
0
ELLIPSE
5
98
100
AcDbEntity
8
1
62
256
6
ByLayer
370
-1
48
1
60
0
100
AcDbEllipse
10
63.037459
20
2.851655
30
0
11
-0.360613833720752
21
-0.165733003816925
31
0
210
0
220
0
230
1
40
0.997187
41
2.0487287088203
42
2.65959394701836
0
ELLIPSE
5
99
100
AcDbEntity
8
1
62
256
6
ByLayer
370
-1
48
1
60
0
100
AcDbEllipse
10
57.583
20
4.875053
30
0
11
-0.360613833720757
21
-0.165733003816927
31
0
210
0
220
0
230
1
40
0.997187
41
-1.09286394476949
42
-0.481998706571534
0
ELLIPSE
5
9A
100
AcDbEntity
8
1
62
256
6
ByLayer
370
-1
48
1
60
0
100
AcDbEllipse
10
60.31023
20
3.863354
30
0
11
1.73066421777798
21
0.795388730519207
31
0
210
0
220
0
230
1
40
0.997187
41
0
42
6.28318530717959
0
ELLIPSE
5
9B
100
AcDbEntity
8
1
62
256
6
ByLayer
370
-1
48
1
60
0
100
AcDbEllipse
10
60.334877
20
3.809725
30
0
11
1.63682529663507
21
0.752261693168785
31
0
210
0
220
0
230
1
40
0.997187
41
0
42
6.28318530717959
0
ELLIPSE
5
9C
100
AcDbEntity
8
1
62
256
6
ByLayer
370
-1
48
1
60
0
100
AcDbEllipse
10
60.327054
20
3.826747
30
0
11
-1.70934062827968
21
-0.785588711193134
31
0
210
0
220
0
230
1
40
0.997187
41
-0.431866925989573
42
-2.36730185323963E-16
0
ELLIPSE
5
9D
100
AcDbEntity
8
1
62
256
6
ByLayer
370
-1
48
1
60
0
100
AcDbEllipse
10
60.327054
20
3.826747
30
0
11
-1.70934062827968
21
-0.785588711193134
31
0
210
0
220
0
230
1
40
0.997187
41
0
42
0.619814116220897
0
ELLIPSE
5
9E
100
AcDbEntity
8
1
62
256
6
ByLayer
370
-1
48
1
60
0
100
AcDbEllipse
10
60.327054
20
3.826747
30
0
11
-1.70934062827968
21
-0.785588711193134
31
0
210
0
220
0
230
1
40
0.997187
41
2.52175422397993
42
-0.431866925989573
0
ELLIPSE
5
9F
100
AcDbEntity
8
1
62
256
6
ByLayer
370
-1
48
1
60
0
100
AcDbEllipse
10
63.543319
20
12.504047
30
0
11
-0.360613833720728
21
-0.165733003816914
31
0
210
0
220
0
230
1
40
0.997187
41
2.65959394701835
42
-1.0928639447695
0
ELLIPSE
5
A0
100
AcDbEntity
8
1
62
256
6
ByLayer
370
-1
48
1
60
0
100
AcDbEllipse
10
60.341946
20
3.794342
30
0
11
-0.679657694798509
21
-0.312361037745074
31
0
210
0
220
0
230
1
40
0.997187
41
1.49727875760398
42
2.19977117488795
0
ELLIPSE
5
A1
100
AcDbEntity
8
1
62
256
6
ByLayer
370
-1
48
1
60
0
100
AcDbEllipse
10
60.315832
20
3.851164
30
0
11
0.679657694798514
21
0.312361037745076
31
0
210
0
220
0
230
1
40
0.997187
41
2.3164299760016
42
2.39189267983727
0
ELLIPSE
5
A2
100
AcDbEntity
8
1
62
256
6
ByLayer
370
-1
48
1
60
0
100
AcDbEllipse
10
60.310645
20
3.862449
30
0
11
0.940435446679747
21
0.432210794206081
31
0
210
0
220
0
230
1
40
0.997187
41
-2.3582276524651
42
-1.31188808092851
0
ELLIPSE
5
A3
100
AcDbEntity
8
1
62
256
6
ByLayer
370
-1
48
1
60
0
100
AcDbEllipse
10
60.310645
20
3.862449
30
0
11
0.940435446679747
21
0.432210794206081
31
0
210
0
220
0
230
1
40
0.997187
41
2.87861808317772
42
-2.3582276524651
0
ELLIPSE
5
A4
100
AcDbEntity
8
1
62
256
6
ByLayer
370
-1
48
1
60
0
100
AcDbEllipse
10
60.341946
20
3.794342
30
0
11
-0.679657694798509
21
-0.312361037745074
31
0
210
0
220
0
230
1
40
0.997187
41
0.325951562210414
42
1.05529916220932
0
ELLIPSE
5
A5
100
AcDbEntity
8
1
62
256
6
ByLayer
370
-1
48
1
60
0
100
AcDbEllipse
10
60.315832
20
3.851164
30
0
11
0.679657694798514
21
0.312361037745076
31
0
210
0
220
0
230
1
40
0.997187
41
-0.825162677586899
42
-0.749699973753717
0
ELLIPSE
5
A6
100
AcDbEntity
8
1
62
256
6
ByLayer
370
-1
48
1
60
0
100
AcDbEllipse
10
60.341946
20
3.794342
30
0
11
-0.679657694798509
21
-0.312361037745074
31
0
210
0
220
0
230
1
40
0.997187
41
-2.88139743823361
42
-1.83505786669687
0
ELLIPSE
5
A7
100
AcDbEntity
8
1
62
256
6
ByLayer
370
-1
48
1
60
0
100
AcDbEllipse
10
60.341946
20
3.794342
30
0
11
0.679657694798507
21
0.312361037745073
31
0
210
0
220
0
230
1
40
0.997187
41
-0.548604936099864
42
0.26019521535616
0
ELLIPSE
5
A8
100
AcDbEntity
8
1
62
256
6
ByLayer
370
-1
48
1
60
0
100
AcDbEllipse
10
60.310645
20
3.862449
30
0
11
0.940435446679747
21
0.432210794206081
31
0
210
0
220
0
230
1
40
0.997187
41
1.82970457266117
42
2.87861808317772
0
ELLIPSE
5
A9
100
AcDbEntity
8
1
62
256
6
ByLayer
370
-1
48
1
60
0
100
AcDbEllipse
10
60.149326
20
4.945269
30
0
11
-0.383443244926431
21
-0.176225077444413
31
0
210
0
220
0
230
1
40
0.997187
41
1.30653478689288
42
2.08143451474536
0
ELLIPSE
5
AA
100
AcDbEntity
8
1
62
256
6
ByLayer
370
-1
48
1
60
0
100
AcDbEllipse
10
60.310645
20
3.862449
30
0
11
0.940435446679747
21
0.432210794206081
31
0
210
0
220
0
230
1
40
0.997187
41
-1.31188808092851
42
-0.262974570412066
0
ELLIPSE
5
AB
100
AcDbEntity
8
1
62
256
6
ByLayer
370
-1
48
1
60
0
100
AcDbEllipse
10
60.341946
20
3.794342
30
0
11
0.679657694798507
21
0.312361037745073
31
0
210
0
220
0
230
1
40
0.997187
41
2.31642997600171
42
2.3918926798372
0
ELLIPSE
5
AC
100
AcDbEntity
8
1
62
256
6
ByLayer
370
-1
48
1
60
0
100
AcDbEllipse
10
60.310645
20
3.862449
30
0
11
0.940435446679747
21
0.432210794206081
31
0
210
0
220
0
230
1
40
0.997187
41
-0.262974570412066
42
0.783365001124498
0
ELLIPSE
5
AD
100
AcDbEntity
8
1
62
256
6
ByLayer
370
-1
48
1
60
0
100
AcDbEllipse
10
59.247923
20
4.200184
30
0
11
-0.383443244926431
21
-0.176225077444413
31
0
210
0
220
0
230
1
40
0.997187
41
2.42107465023686
42
3.13124752781139
0
ELLIPSE
5
AE
100
AcDbEntity
8
1
62
256
6
ByLayer
370
-1
48
1
60
0
100
AcDbEllipse
10
60.341946
20
3.794342
30
0
11
-0.679657694798509
21
-0.312361037745074
31
0
210
0
220
0
230
1
40
0.997187
41
-0.749699973752619
42
0.123069903319551
0
ELLIPSE
5
AF
100
AcDbEntity
8
1
62
256
6
ByLayer
370
-1
48
1
60
0
100
AcDbEllipse
10
60.310645
20
3.862449
30
0
11
0.940435446679747
21
0.432210794206081
31
0
210
0
220
0
230
1
40
0.997187
41
0.783365001124498
42
1.82970457266117
0
ELLIPSE
5
B0
100
AcDbEntity
8
1
62
256
6
ByLayer
370
-1
48
1
60
0
100
AcDbEllipse
10
60.341946
20
3.794342
30
0
11
-0.679657694798509
21
-0.312361037745074
31
0
210
0
220
0
230
1
40
0.997187
41
-1.83505786669687
42
-0.825162677588131
0
ELLIPSE
5
B1
100
AcDbEntity
8
1
62
256
6
ByLayer
370
-1
48
1
60
0
100
AcDbEllipse
10
61.243919
20
4.539216
30
0
11
-0.383443244926431
21
-0.176225077444413
31
0
210
0
220
0
230
1
40
0.997187
41
0.260195215356048
42
1.03509494320855
0
ELLIPSE
5
B2
100
AcDbEntity
8
1
62
256
6
ByLayer
370
-1
48
1
60
0
100
AcDbEllipse
10
59.439974
20
3.049469
30
0
11
-0.383443244926431
21
-0.176225077444413
31
0
210
0
220
0
230
1
40
0.997187
41
2.62688814109356
42
3.14159143490332
0
ELLIPSE
5
B3
100
AcDbEntity
8
1
62
256
6
ByLayer
370
-1
48
1
60
0
100
AcDbEllipse
10
59.504148
20
3.651797
30
0
11
-0.168097157135995
21
-0.0772550694957733
31
0
210
0
220
0
230
1
40
0.997187
41
-1.56451752556216
42
-0.184568184559557
0
ELLIPSE
5
B4
100
AcDbEntity
8
1
62
256
6
ByLayer
370
-1
48
1
60
0
100
AcDbEllipse
10
59.247923
20
4.200184
30
0
11
-0.383443244926431
21
-0.176225077444413
31
0
210
0
220
0
230
1
40
0.997187
41
1.5770751280275
42
2.28724800560192
0
ELLIPSE
5
B5
100
AcDbEntity
8
1
62
256
6
ByLayer
370
-1
48
1
60
0
100
AcDbEllipse
10
59.802048
20
4.447961
30
0
11
-0.168097157135995
21
-0.0772550694957733
31
0
210
0
220
0
230
1
40
0.997187
41
-2.60995759454926
42
-0.0103451257784246
0
ELLIPSE
5
B6
100
AcDbEntity
8
1
62
256
6
ByLayer
370
-1
48
1
60
0
100
AcDbEllipse
10
60.149326
20
4.945269
30
0
11
-0.383443244926431
21
-0.176225077444413
31
0
210
0
220
0
230
1
40
0.997187
41
0.531635059040589
42
1.30653478689288
0
ELLIPSE
5
B7
100
AcDbEntity
8
1
62
256
6
ByLayer
370
-1
48
1
60
0
100
AcDbEllipse
10
60.639405
20
4.589325
30
0
11
-0.168097157135995
21
-0.0772550694957733
31
0
210
0
220
0
230
1
40
0.997187
41
-2.93939971666154
42
-1.06015813884443
0
ELLIPSE
5
B8
100
AcDbEntity
8
1
62
256
6
ByLayer
370
-1
48
1
60
0
100
AcDbEllipse
10
61.243919
20
4.539216
30
0
11
-0.383443244926431
21
-0.176225077444413
31
0
210
0
220
0
230
1
40
0.997187
41
-1.47138825459192E-06
42
0.260195215356048
0
ELLIPSE
5
B9
100
AcDbEntity
8
1
62
256
6
ByLayer
370
-1
48
1
60
0
100
AcDbEllipse
10
61.179745
20
3.936887
30
0
11
-0.168097157135995
21
-0.0772550694957733
31
0
210
0
220
0
230
1
40
0.997187
41
-2.97375130774397
42
-2.1064977103812
0
ELLIPSE
5
BA
100
AcDbEntity
8
1
62
256
6
ByLayer
370
-1
48
1
60
0
100
AcDbEllipse
10
60.310645
20
3.862449
30
0
11
1.18122326636104
21
0.542873461321651
31
0
210
0
220
0
230
1
40
0.997187
41
0
42
6.28318530717959
0
ELLIPSE
5
BB
100
AcDbEntity
8
1
62
256
6
ByLayer
370
-1
48
1
60
0
100
AcDbEllipse
10
60.31609
20
3.850604
30
0
11
1.56739241113292
21
0.720351323676807
31
0
210
0
220
0
230
1
40
0.997187
41
0
42
6.28318530717959
0
ELLIPSE
5
BC
100
AcDbEntity
8
1
62
256
6
ByLayer
370
-1
48
1
60
0
100
AcDbEllipse
10
60.338816
20
3.801153
30
0
11
1.56739241113292
21
0.720351323676806
31
0
210
0
220
0
230
1
40
0.997187
41
3.14152029899174
42
-0.431867254610459
0
ELLIPSE
5
BD
100
AcDbEntity
8
1
62
256
6
ByLayer
370
-1
48
1
60
0
100
AcDbEllipse
10
60.338816
20
3.801153
30
0
11
1.56739241113292
21
0.720351323676806
31
0
210
0
220
0
230
1
40
0.997187
41
-0.431866673552437
42
-2.5816925030404E-16
0
POINT
5
41
100
AcDbEntity
8
80
62
256
6
ByLayer
370
-1
48
1
60
0
100
AcDbPoint
10
0
20
0
30
0
39
0
210
0
220
0
230
1
50
360
0
POINT
5
43
100
AcDbEntity
8
81
62
256
6
ByLayer
370
-1
48
1
60
0
100
AcDbPoint
10
63.94
20
12.9
30
0
39
0
210
0
220
0
230
1
50
360
0
POINT
5
45
100
AcDbEntity
8
1
62
256
6
ByLayer
370
-1
48
1
60
0
100
AcDbPoint
10
-137.31
20
0
30
0
39
0
210
0
220
0
230
1
50
360
0
POINT
5
47
100
AcDbEntity
8
2
62
256
6
ByLayer
370
-1
48
1
60
0
100
AcDbPoint
10
63.94
20
12.9
30
0
39
0
210
0
220
0
230
1
50
360
0
POINT
5
49
100
AcDbEntity
8
2
62
256
6
ByLayer
370
-1
48
1
60
0
100
AcDbPoint
10
63.82288
20
11.485656
30
0
39
0
210
0
220
0
230
1
50
360
0
SPLINE
5
BE
100
AcDbEntity
8
1
62
256
6
ByLayer
370
-1
48
1
60
0
100
AcDbSpline
70
4
71
3
72
26
73
22
40
-0.124999999999997
40
-0.124999999999997
40
0
40
0
40
0.125000000000002
40
0.125000000000002
40
0.187500000000003
40
0.187500000000003
40
0.250000000000004
40
0.250000000000004
40
0.375000000000006
40
0.375000000000006
40
0.500000000000008
40
0.500000000000008
40
0.62500000000001
40
0.62500000000001
40
0.687500000000009
40
0.687500000000009
40
0.750000000000007
40
0.750000000000007
40
0.875000000000003
40
0.875000000000003
40
1
40
1
40
1.125
40
1.125
41
1
10
46.630389713454
20
2.3460600976087
30
0
41
1
10
45.7516532154199
20
1.88958044951829
30
0
41
1
10
45.2880961399374
20
1.74978982592501
30
0
41
1
10
44.6068508523926
20
2.00528975887011
30
0
41
1
10
44.3935144064661
20
2.18018844286669
30
0
41
1
10
44.092875149434
20
2.68798921873542
30
0
41
1
10
44.0184988536161
20
2.99874551350041
30
0
41
1
10
44.0132353993673
20
3.84880990220481
30
0
41
1
10
44.2680385943011
20
4.29418599133911
30
0
41
1
10
44.9728012001762
20
4.91710460372329
30
0
41
1
10
45.4261435071485
20
5.1118608892732
30
0
41
1
10
46.4157934917912
20
5.36120877743977
30
0
41
1
10
46.9611851291152
20
5.42624461899311
30
0
41
1
10
47.8120387238669
20
5.36749136282052
30
0
41
1
10
48.1152890907849
20
5.33809584650913
30
0
41
1
10
48.6038043432744
20
4.99280310264012
30
0
41
1
10
48.5742143689281
20
4.62517002531428
30
0
41
1
10
48.2116154632352
20
3.84122190021995
30
0
41
1
10
47.8197108068191
20
3.42444319751394
30
0
41
1
10
47.0405687566185
20
2.66961028549298
30
0
41
1
10
46.630389713454
20
2.3460600976087
30
0
41
1
10
45.7516532154199
20
1.88958044951829
30
0
0
SPLINE
5
BF
100
AcDbEntity
8
1
62
256
6
ByLayer
370
-1
48
1
60
0
100
AcDbSpline
70
4
71
3
72
8
73
4
40
0
40
0
40
0
40
0
40
1
40
1
40
1
40
1
41
1
10
49.9542168550001
20
-7.6835817892073
30
0
41
1
10
50.5488941422575
20
-7.75001640351891
30
0
41
1
10
51.170357829443
20
-7.79038837158831
30
0
41
1
10
51.804216855
20
-7.81683320002639
30
0
0
SPLINE
5
C0
100
AcDbEntity
8
1
62
256
6
ByLayer
370
-1
48
1
60
0
100
AcDbSpline
70
4
71
3
72
8
73
4
40
0
40
0
40
0
40
0
40
1
40
1
40
1
40
1
41
1
10
51.8042168549993
20
-7.81683320002713
30
0
41
1
10
51.8622143638873
20
-7.87663017494916
30
0
41
1
10
51.9202711129032
20
-7.93639779270646
30
0
41
1
10
51.9783817853079
20
-7.99613794949147
30
0
0
SPLINE
5
C1
100
AcDbEntity
8
1
62
256
6
ByLayer
370
-1
48
1
60
0
100
AcDbSpline
70
4
71
3
72
8
73
4
40
0
40
0
40
0
40
0
40
1
40
1
40
1
40
1
41
1
10
54.996401459032
20
-8.03928010872326
30
0
41
1
10
53.9682894893287
20
-8.04293563860605
30
0
41
1
10
52.9626165978921
20
-8.03377106137575
30
0
41
1
10
51.9783817853078
20
-7.9961379494915
30
0
0
SPLINE
5
C2
100
AcDbEntity
8
1
62
256
6
ByLayer
370
-1
48
1
60
0
100
AcDbSpline
70
4
71
3
72
8
73
4
40
0
40
0
40
0
40
0
40
1
40
1
40
1
40
1
41
1
10
49.9542168550001
20
7.91171144054371
30
0
41
1
10
49.9292170870193
20
7.93668257376066
30
0
41
1
10
49.9042170430935
20
7.9616557205681
30
0
41
1
10
49.8792168549999
20
7.98663076267008
30
0
0
SPLINE
5
C3
100
AcDbEntity
8
1
62
256
6
ByLayer
370
-1
48
1
60
0
100
AcDbSpline
70
4
71
3
72
12
73
8
40
0
40
0
40
0
40
0
40
0.499999999818061
40
0.499999999818061
40
0.7499999998848
40
0.7499999998848
40
1
40
1
40
1
40
1
41
1
10
50.7120583145778
20
7.9116207634342
30
0
41
1
10
50.7871133872962
20
7.91171136646292
30
0
41
1
10
50.8621684612841
20
7.9118009238887
30
0
41
1
10
50.9747510741312
20
7.91193369149724
30
0
41
1
10
51.0122786120738
20
7.911977685945
30
0
41
1
10
51.0873336885736
20
7.91206515197547
30
0
41
1
10
51.1248612271326
20
7.91210862355817
30
0
41
1
10
51.1623887659919
20
7.91215183369729
30
0
0
SPLINE
5
C4
100
AcDbEntity
8
1
62
256
6
ByLayer
370
-1
48
1
60
0
100
AcDbSpline
70
4
71
3
72
12
73
8
40
0
40
0
40
0
40
0
40
0.0949171461962865
40
0.0949171461962865
40
0.538497654256148
40
0.538497654256148
40
1
40
1
40
1
40
1
41
1
10
42.420860365369
20
-0.208217351629173
30
0
41
1
10
42.4183367422891
20
-0.195261323629097
30
0
41
1
10
42.4156585307946
20
-0.182157652027371
30
0
41
1
10
42.3997492835658
20
-0.10774900485174
30
0
41
1
10
42.3832863539996
20
-0.0435334542209489
30
0
41
1
10
42.3455900478903
20
0.0837919126952329
30
0
41
1
10
42.3237307713747
20
0.148372783985877
30
0
41
1
10
42.301022832052
20
0.208217351629059
30
0
0
SPLINE
5
C5
100
AcDbEntity
8
1
62
256
6
ByLayer
370
-1
48
1
60
0
100
AcDbSpline
70
4
71
3
72
14
73
10
40
0
40
0
40
0
40
0
40
0.25
40
0.25
40
0.5
40
0.5
40
0.75
40
0.75
40
1
40
1
40
1
40
1
41
1
10
42.3010228320518
20
0.208217351629031
30
0
41
1
10
41.8983220068181
20
1.64045842774752
30
0
41
1
10
41.5680848624625
20
3.06866672518098
30
0
41
1
10
41.4005940470212
20
5.54823796114187
30
0
41
1
10
41.6279750918992
20
6.5647359247136
30
0
41
1
10
43.1161108950991
20
7.72165842164182
30
0
41
1
10
44.2889228684266
20
7.88989906417802
30
0
41
1
10
46.944266356344
20
8.01949882545676
30
0
41
1
10
48.3935668714497
20
7.98905610648239
30
0
41
1
10
49.879216855
20
7.98663076267019
30
0
0
SPLINE
5
C6
100
AcDbEntity
8
1
62
256
6
ByLayer
370
-1
48
1
60
0
100
AcDbSpline
70
4
71
3
72
8
73
4
40
0
40
0
40
0
40
0
40
1
40
1
40
1
40
1
41
1
10
49.8792168550002
20
-7.74857062282129
30
0
41
1
10
49.9041910038409
20
-7.72699519641444
30
0
41
1
10
49.9291914376427
20
-7.7053313213994
30
0
41
1
10
49.9542168550001
20
-7.68358178920735
30
0
0
SPLINE
5
C7
100
AcDbEntity
8
1
62
256
6
ByLayer
370
-1
48
1
60
0
100
AcDbSpline
70
4
71
3
72
8
73
4
40
0
40
0
40
0
40
0
40
1
40
1
40
1
40
1
41
1
10
50.7120583145778
20
7.91162076343423
30
0
41
1
10
50.459567156377
20
7.91131596773118
30
0
41
1
10
50.2066535450683
20
7.91134857960753
30
0
41
1
10
49.954216855
20
7.91171144054371
30
0
0
SPLINE
5
C8
100
AcDbEntity
8
1
62
256
6
ByLayer
370
-1
48
1
60
0
100
AcDbSpline
70
4
71
3
72
12
73
8
40
0
40
0
40
0
40
0
40
0.250000000000001
40
0.250000000000001
40
0.500000000000002
40
0.500000000000002
40
1
40
1
40
1
40
1
41
1
10
49.879216855
20
-7.74857062282189
30
0
41
1
10
48.8765599111428
20
-7.63193916839023
30
0
41
1
10
47.9735744941661
20
-7.44322585598681
30
0
41
1
10
46.3407304502252
20
-6.77339452535199
30
0
41
1
10
45.6268657010863
20
-6.28670516972991
30
0
41
1
10
43.829607159495
20
-4.33612406726968
30
0
41
1
10
43.0444558334554
20
-2.32594447472391
30
0
41
1
10
42.420860365369
20
-0.208217351629173
30
0
0
SPLINE
5
C9
100
AcDbEntity
8
1
62
256
6
ByLayer
370
-1
48
1
60
0
100
AcDbSpline
70
4
71
3
72
8
73
4
40
0
40
0
40
0
40
0
40
1
40
1
40
1
40
1
41
1
10
51.9782169167933
20
-8.0915
30
0
41
1
10
51.9782680960349
20
-8.0915
30
0
41
1
10
51.9783233765603
20
-8.05952508193539
30
0
41
1
10
51.9783817853079
20
-7.9961379494915
30
0
0
SPLINE
5
CA
100
AcDbEntity
8
SK1
62
256
6
ByLayer
370
-1
48
1
60
0
100
AcDbSpline
70
4
71
3
72
24
73
20
40
0
40
0
40
0
40
0
40
0.250000000000022
40
0.250000000000022
40
0.375000000000034
40
0.375000000000034
40
0.437500000000044
40
0.437500000000044
40
0.500000000000053
40
0.500000000000053
40
0.531250000000055
40
0.531250000000055
40
0.562500000000057
40
0.562500000000057
40
0.625000000000052
40
0.625000000000052
40
0.750000000000035
40
0.750000000000035
40
1
40
1
40
1
40
1
41
1
10
-48.06
20
-0.208217351629059
30
0
41
1
10
-48.468842020981
20
-0.208217351629059
30
0
41
1
10
-48.8775700421798
20
-0.200628106757165
30
0
41
1
10
-49.4901123303116
20
-0.171073275450709
30
0
41
1
10
-49.6939608358335
20
-0.158342940298127
30
0
41
1
10
-49.9985633625024
20
-0.129106778533071
30
0
41
1
10
-50.0999152849483
20
-0.11778208857757
30
0
41
1
10
-50.3016559370235
20
-0.0867855292194974
30
0
41
1
10
-50.4176642593246
20
-0.0899171685785518
30
0
41
1
10
-50.5369313789907
20
0.013645893418726
30
0
41
1
10
-50.4484711277943
20
0.0489364234136644
30
0
41
1
10
-50.3478903856417
20
0.0766629766365838
30
0
41
1
10
-50.2966456087818
20
0.0864424784148241
30
0
41
1
10
-50.1421535471276
20
0.112538835792321
30
0
41
1
10
-50.0385119130168
20
0.124684589520399
30
0
41
1
10
-49.7273848627499
20
0.156042093009802
30
0
41
1
10
-49.5192790403735
20
0.169368026065086
30
0
41
1
10
-48.8942101016121
20
0.200370771894711
30
0
41
1
10
-48.4771903882063
20
0.208217351629059
30
0
41
1
10
-48.06
20
0.208217351629059
30
0
0
SPLINE
5
CB
100
AcDbEntity
8
1
62
256
6
ByLayer
370
-1
48
1
60
0
100
AcDbSpline
70
4
71
3
72
18
73
14
40
0
40
0
40
0
40
0
40
0.210243350524295
40
0.210243350524295
40
0.386394243247356
40
0.386394243247356
40
0.564220218861553
40
0.564220218861553
40
0.719241620322966
40
0.719241620322966
40
0.924914575233207
40
0.924914575233207
40
1
40
1
40
1
40
1
41
1
10
59.8787170182862
20
4.66300790245319
30
0
41
1
10
59.9144173381994
20
4.63718789830338
30
0
41
1
10
59.9550118853961
20
4.61603804578894
30
0
41
1
10
60.0351715797537
20
4.58993187053528
30
0
41
1
10
60.0747727667458
20
4.58271371211237
30
0
41
1
10
60.1548960281838
20
4.58042977957311
30
0
41
1
10
60.1966030914348
20
4.58557339687471
30
0
41
1
10
60.269366209915
20
4.60631682942534
30
0
41
1
10
60.3019873448125
20
4.62067986802541
30
0
41
1
10
60.3699985147146
20
4.66151042661701
30
0
41
1
10
60.4040717162106
20
4.69096284335475
30
0
41
1
10
60.4424263389703
20
4.73571725927354
30
0
41
1
10
60.4520293447595
20
4.74829988444156
30
0
41
1
10
60.4608661771558
20
4.76128729671598
30
0
0
SPLINE
5
CC
100
AcDbEntity
8
1
62
256
6
ByLayer
370
-1
48
1
60
0
100
AcDbSpline
70
4
71
3
72
16
73
12
40
0
40
0
40
0
40
0
40
0.111831975493346
40
0.111831975493346
40
0.336052087695784
40
0.336052087695784
40
0.565730855876692
40
0.565730855876692
40
0.811983326337931
40
0.811983326337931
40
1
40
1
40
1
40
1
41
1
10
61.330788550593
20
4.03601896349261
30
0
41
1
10
61.3292334196564
20
4.04523796716737
30
0
41
1
10
61.3269754688908
20
4.05434539133691
30
0
41
1
10
61.3182519274733
20
4.0807611175486
30
0
41
1
10
61.309665985873
20
4.09748434089215
30
0
41
1
10
61.2883151486607
20
4.1270423857475
30
0
41
1
10
61.2751961472274
20
4.14015692741958
30
0
41
1
10
61.2455609156511
20
4.16194367028064
30
0
41
1
10
61.2285093202888
20
4.17051664150526
30
0
41
1
10
61.197676796548
20
4.18037686345826
30
0
41
1
10
61.1838646833919
20
4.18298296230287
30
0
41
1
10
61.1701298235318
20
4.18394262145085
30
0
0
SPLINE
5
CD
100
AcDbEntity
8
1
62
256
6
ByLayer
370
-1
48
1
60
0
100
AcDbSpline
70
4
71
3
72
14
73
10
40
0
40
0
40
0
40
0
40
0.0477900550174163
40
0.0477900550174163
40
0.384888787326154
40
0.384888787326154
40
0.831870097804514
40
0.831870097804514
40
1
40
1
40
1
40
1
41
1
10
59.6258937554268
20
4.13715810421238
30
0
41
1
10
59.6273378250267
20
4.14203039119326
30
0
41
1
10
59.6286906833211
20
4.14693091790551
30
0
41
1
10
59.6387630917179
20
4.18626180484532
30
0
41
1
10
59.6430108587461
20
4.22206513964608
30
0
41
1
10
59.6427744522497
20
4.30260381772717
30
0
41
1
10
59.6351461831687
20
4.3478283908542
30
0
41
1
10
59.6166621828209
20
4.40541168515011
30
0
41
1
10
59.6107154474493
20
4.42089456342507
30
0
41
1
10
59.6039997751146
20
4.43590016615124
30
0
0
SPLINE
5
CE
100
AcDbEntity
8
1
62
256
6
ByLayer
370
-1
48
1
60
0
100
AcDbSpline
70
4
71
3
72
18
73
14
40
0
40
0
40
0
40
0
40
0.207900415666067
40
0.207900415666067
40
0.384436705865051
40
0.384436705865051
40
0.562674993081719
40
0.562674993081719
40
0.717759129580008
40
0.717759129580008
40
0.92299789071723
40
0.92299789071723
40
1
40
1
40
1
40
1
41
1
10
60.7944733963082
20
4.63753164280058
30
0
41
1
10
60.7915707904247
20
4.59404440085382
30
0
41
1
10
60.7949223486968
20
4.54873524190427
30
0
41
1
10
60.8141730492449
20
4.46653529415721
30
0
41
1
10
60.8284185232588
20
4.42849820295464
30
0
41
1
10
60.8672509559277
20
4.3577634781
30
0
41
1
10
60.8926087082676
20
4.32414080847957
30
0
41
1
10
60.9463372947692
20
4.27151342543405
30
0
41
1
10
60.9744952705094
20
4.25050475844065
30
0
41
1
10
61.0419663203983
20
4.21228011215228
30
0
41
1
10
61.0830403310347
20
4.19768204174756
30
0
41
1
10
61.1391989828083
20
4.18700955753116
30
0
41
1
10
61.1546888330327
20
4.1850214885041
30
0
41
1
10
61.1701298235318
20
4.18394262145068
30
0
0
SPLINE
5
CF
100
AcDbEntity
8
1
62
256
6
ByLayer
370
-1
48
1
60
0
100
AcDbSpline
70
4
71
3
72
14
73
10
40
0
40
0
40
0
40
0
40
0.265443941278463
40
0.265443941278463
40
0.555046039571486
40
0.555046039571486
40
0.817228489143899
40
0.817228489143899
40
1
40
1
40
1
40
1
41
1
10
59.8310716353877
20
3.07811078414423
30
0
41
1
10
59.8290779465589
20
3.05916955785807
30
0
41
1
10
59.8302687359756
20
3.03937019464439
30
0
41
1
10
59.8399643590554
20
2.99917739168888
30
0
41
1
10
59.8493284595917
20
2.97826609833856
30
0
41
1
10
59.8745415506341
20
2.94292156352913
30
0
41
1
10
59.8901058633734
20
2.92754957093672
30
0
41
1
10
59.9203376576227
20
2.90688807867659
30
0
41
1
10
59.9341017630721
20
2.89976252682573
30
0
41
1
10
59.9484457267681
20
2.89444145909988
30
0
0
SPLINE
5
D0
100
AcDbEntity
8
1
62
256
6
ByLayer
370
-1
48
1
60
0
100
AcDbSpline
70
4
71
3
72
18
73
14
40
0
40
0
40
0
40
0
40
0.0269712990582443
40
0.0269712990582443
40
0.252424541102367
40
0.252424541102367
40
0.478583142611229
40
0.478583142611229
40
0.717456099926216
40
0.717456099926216
40
0.97859681473911
40
0.97859681473911
40
1
40
1
40
1
40
1
41
1
10
59.2905023977436
20
3.68887980512125
30
0
41
1
10
59.2908804929789
20
3.68663841098416
30
0
41
1
10
59.291300822145
20
3.68440225397106
30
0
41
1
10
59.2955833401683
20
3.66374941395847
30
0
41
1
10
59.3024024993509
20
3.64561647110958
30
0
41
1
10
59.3207618213202
20
3.61276527174644
30
0
41
1
10
59.3325395378906
20
3.59763113434525
30
0
41
1
10
59.359902870775
20
3.57124407427338
30
0
41
1
10
59.3759950827153
20
3.55991232730673
30
0
41
1
10
59.4112291288913
20
3.54195504345486
30
0
41
1
10
59.4309478231328
20
3.53562129156163
30
0
41
1
10
59.4521676268021
20
3.53216590796117
30
0
41
1
10
59.4537913102515
20
3.53192247788036
30
0
41
1
10
59.4554152081642
20
3.53169980549396
30
0
0
SPLINE
5
D1
100
AcDbEntity
8
1
62
256
6
ByLayer
370
-1
48
1
60
0
100
AcDbSpline
70
4
71
3
72
18
73
14
40
0
40
0
40
0
40
0
40
0.166809051933462
40
0.166809051933462
40
0.351118303063863
40
0.351118303063863
40
0.537600923582014
40
0.537600923582014
40
0.694865869135972
40
0.694865869135972
40
0.85714649142678
40
0.85714649142678
40
1
40
1
40
1
40
1
41
1
10
60.746828013412
20
3.05263452449
30
0
41
1
10
60.7196029266034
20
3.07073725182332
30
0
41
1
10
60.6893461676491
20
3.08597867586016
30
0
41
1
10
60.6208966751353
20
3.1101047139837
30
0
41
1
10
60.5813214626358
20
3.11835286718272
30
0
41
1
10
60.499406705805
20
3.12332699191177
30
0
41
1
10
60.4557119843114
20
3.11985890718344
30
0
41
1
10
60.3792431223087
20
3.10254777827319
30
0
41
1
10
60.3449007286151
20
3.09023763548623
30
0
41
1
10
60.2814781797238
20
3.05887021028363
30
0
41
1
10
60.2518245449636
20
3.03930124646314
30
0
41
1
10
60.2028601393282
20
2.99821378104335
30
0
41
1
10
60.182381625789
20
2.97693403810226
30
0
41
1
10
60.16467885454
20
2.95435513022886
30
0
0
SPLINE
5
D2
100
AcDbEntity
8
1
62
256
6
ByLayer
370
-1
48
1
60
0
100
AcDbSpline
70
4
71
3
72
18
73
14
40
0
40
0
40
0
40
0
40
0.128692379640801
40
0.128692379640801
40
0.320706773653693
40
0.320706773653693
40
0.480650160328243
40
0.480650160328243
40
0.640996254383097
40
0.640996254383097
40
0.79719921473727
40
0.79719921473727
40
1
40
1
40
1
40
1
41
1
10
59.8310716353877
20
3.07811078414423
30
0
41
1
10
59.8337147447566
20
3.10322189071891
30
0
41
1
10
59.8339401867744
20
3.12899778048535
30
0
41
1
10
59.8278936586963
20
3.19361992235812
30
0
41
1
10
59.818186824822
20
3.23351618663742
30
0
41
1
10
59.7884398845643
20
3.30391532003779
30
0
41
1
10
59.7699757830506
20
3.33562729511402
30
0
41
1
10
59.7252845797831
20
3.39322049740414
30
0
41
1
10
59.6984709690546
20
3.41979132925354
30
0
41
1
10
59.6415490288608
20
3.46372495589563
30
0
41
1
10
59.6109244767614
20
3.48187280510439
30
0
41
1
10
59.5393714833793
20
3.51413076745735
30
0
41
1
10
59.4970896832782
20
3.52598531152685
30
0
41
1
10
59.4554152081642
20
3.53169980549399
30
0
0
SPLINE
5
D3
100
AcDbEntity
8
1
62
256
6
ByLayer
370
-1
48
1
60
0
100
AcDbSpline
70
4
71
3
72
14
73
10
40
0
40
0
40
0
40
0
40
0.033573376030776
40
0.033573376030776
40
0.37127238895941
40
0.37127238895941
40
0.814068481315238
40
0.814068481315238
40
1
40
1
40
1
40
1
41
1
10
61.0057703107656
20
3.56517008575247
30
0
41
1
10
61.0047401926899
20
3.56176929441207
30
0
41
1
10
61.0037527842412
20
3.55836023454177
30
0
41
1
10
60.9934068591554
20
3.52094182712386
30
0
41
1
10
60.9883224685125
20
3.48600706052622
30
0
41
1
10
60.9863532363144
20
3.40876627056105
30
0
41
1
10
60.9923354630233
20
3.3662090549571
30
0
41
1
10
61.0088193751961
20
3.31090713352702
30
0
41
1
10
61.0147347485594
20
3.29499403562545
30
0
41
1
10
61.0215659988938
20
3.27969712817281
30
0
0
SPLINE
5
D4
100
AcDbEntity
8
1
62
256
6
ByLayer
370
-1
48
1
60
0
100
AcDbSpline
70
4
71
3
72
16
73
12
40
0
40
0
40
0
40
0
40
0.132402311884141
40
0.132402311884141
40
0.438108602610944
40
0.438108602610944
40
0.714648183119429
40
0.714648183119429
40
0.959836658149795
40
0.959836658149795
40
1
40
1
40
1
40
1
41
1
10
59.8787170182879
20
4.66300790245566
30
0
41
1
10
59.8704572692018
20
4.66898170762607
30
0
41
1
10
59.8616599762684
20
4.67435434088947
30
0
41
1
10
59.8313401519969
20
4.6896530884826
30
0
41
1
10
59.8074709506321
20
4.69663806140153
30
0
41
1
10
59.7610747772167
20
4.70048227423908
30
0
41
1
10
59.7379137168127
20
4.6982559770459
30
0
41
1
10
59.696727782548
20
4.68600550842987
30
0
41
1
10
59.677828940969
20
4.67669194491452
30
0
41
1
10
59.6585517877389
20
4.66257535125598
30
0
41
1
10
59.655864902451
20
4.66048773452894
30
0
41
1
10
59.653240263902
20
4.65832589594305
30
0
0
SPLINE
5
D5
100
AcDbEntity
8
1
62
256
6
ByLayer
370
-1
48
1
60
0
100
AcDbSpline
70
4
71
3
72
14
73
10
40
0
40
0
40
0
40
0
40
0.230593667685361
40
0.230593667685361
40
0.523981841596789
40
0.523981841596789
40
0.789259709094358
40
0.789259709094358
40
1
40
1
40
1
40
1
41
1
10
59.3968925596317
20
3.88238949312154
30
0
41
1
10
59.3810248475513
20
3.875710848344
30
0
41
1
10
59.3658396695526
20
3.86663593889193
30
0
41
1
10
59.3350282482972
20
3.84126373903044
30
0
41
1
10
59.3199322356786
20
3.82319487811648
30
0
41
1
10
59.2990028088961
20
3.78420181911929
30
0
41
1
10
59.2921385168556
20
3.76310310775634
30
0
41
1
10
59.2872098332404
20
3.72426538291305
30
0
41
1
10
59.287565188222
20
3.70629193726916
30
0
41
1
10
59.2905023977436
20
3.68887980512125
30
0
0
SPLINE
5
D6
100
AcDbEntity
8
1
62
256
6
ByLayer
370
-1
48
1
60
0
100
AcDbSpline
70
4
71
3
72
16
73
12
40
0
40
0
40
0
40
0
40
0.0591678910087725
40
0.0591678910087725
40
0.283155900810881
40
0.283155900810881
40
0.509691682629367
40
0.509691682629367
40
0.750402072188393
40
0.750402072188393
40
1
40
1
40
1
40
1
41
1
10
60.9680506844347
20
3.0665728726708
30
0
41
1
10
60.971908166697
20
3.06975016883683
30
0
41
1
10
60.9756435458453
20
3.07308023491248
30
0
41
1
10
60.9927332464769
20
3.08955782970006
30
0
41
1
10
61.0043598494952
20
3.10471667620408
30
0
41
1
10
61.0223037864424
20
3.13692746745829
30
0
41
1
10
61.0288007123565
20
3.15440272705644
30
0
41
1
10
61.0364777638111
20
3.19027874676001
30
0
41
1
10
61.0374154846743
20
3.20911500818494
30
0
41
1
10
61.0337034872638
20
3.24551347949625
30
0
41
1
10
61.0288341710767
20
3.26342184154336
30
0
41
1
10
61.0215659988938
20
3.27969712817281
30
0
0
SPLINE
5
D7
100
AcDbEntity
8
1
62
256
6
ByLayer
370
-1
48
1
60
0
100
AcDbSpline
70
4
71
3
72
16
73
12
40
0
40
0
40
0
40
0
40
0.0255958524344624
40
0.0255958524344624
40
0.341869048912475
40
0.341869048912475
40
0.630045700079101
40
0.630045700079101
40
0.884073233921688
40
0.884073233921688
40
1
40
1
40
1
40
1
41
1
10
60.7944733963082
20
4.63753164280058
30
0
41
1
10
60.7946056614888
20
4.63951325799056
30
0
41
1
10
60.7947084308822
20
4.64150005518059
30
0
41
1
10
60.7956696817636
20
4.66773905179076
30
0
41
1
10
60.7920033304024
20
4.69308412256083
30
0
41
1
10
60.7758202072084
20
4.7385702109388
30
0
41
1
10
60.76381507014
20
4.759673832787
30
0
41
1
10
60.7346594095007
20
4.79360710614938
30
0
41
1
10
60.7178291507242
20
4.80760187308968
30
0
41
1
10
60.6908832064225
20
4.82291603098153
30
0
41
1
10
60.6819774632959
20
4.82706959341613
30
0
41
1
10
60.6728452215687
20
4.83045730951395
30
0
0
SPLINE
5
D8
100
AcDbEntity
8
1
62
256
6
ByLayer
370
-1
48
1
60
0
100
AcDbSpline
70
4
71
3
72
12
73
8
40
0
40
0
40
0
40
0
40
0.435573004738191
40
0.435573004738191
40
0.821891607718953
40
0.821891607718953
40
1
40
1
40
1
40
1
41
1
10
61.2286732143765
20
3.83320780120289
30
0
41
1
10
61.1923836191347
20
3.8145125519367
30
0
41
1
10
61.1574479849967
20
3.78995361359137
30
0
41
1
10
61.0983114704994
20
3.73362727109699
30
0
41
1
10
61.0727253765129
20
3.70226633787752
30
0
41
1
10
61.0420317992083
20
3.65184127213706
30
0
41
1
10
61.0332168393288
20
3.63511680227552
30
0
41
1
10
61.0255190193188
20
3.6179500960348
30
0
0
SPLINE
5
D9
100
AcDbEntity
8
1
62
256
6
ByLayer
370
-1
48
1
60
0
100
AcDbSpline
70
4
71
3
72
14
73
10
40
0
40
0
40
0
40
0
40
0.273856248371934
40
0.273856248371934
40
0.562404984580664
40
0.562404984580664
40
0.823735202305465
40
0.823735202305465
40
1
40
1
40
1
40
1
41
1
10
60.746828013412
20
3.05263452449
30
0
41
1
10
60.7631952019679
20
3.04175151964526
30
0
41
1
10
60.7820468084707
20
3.03330835505386
30
0
41
1
10
60.8232739657448
20
3.02300885892168
30
0
41
1
10
60.8464441776444
20
3.02141196100726
30
0
41
1
10
60.890154592054
20
3.02671219981619
30
0
41
1
10
60.9113930809736
20
3.03293951146353
30
0
41
1
10
60.9440249703871
20
3.04903799514139
30
0
41
1
10
60.9566463546684
20
3.05717945728253
30
0
41
1
10
60.9680506844347
20
3.0665728726708
30
0
0
SPLINE
5
DA
100
AcDbEntity
8
1
62
256
6
ByLayer
370
-1
48
1
60
0
100
AcDbSpline
70
4
71
3
72
16
73
12
40
0
40
0
40
0
40
0
40
0.186947723982546
40
0.186947723982546
40
0.410806756112392
40
0.410806756112392
40
0.644094218330405
40
0.644094218330405
40
0.897073406693141
40
0.897073406693141
40
1
40
1
40
1
40
1
41
1
10
59.653240263902
20
4.65832589594305
30
0
41
1
10
59.6411400847259
20
4.64835932959485
30
0
41
1
10
59.6302510248464
20
4.63666497015112
30
0
41
1
10
59.6102915503847
20
4.60870734510749
30
0
41
1
10
59.6017656560678
20
4.59163078631045
30
0
41
1
10
59.5901199810324
20
4.55583174026594
30
0
41
1
10
59.5870790736794
20
4.53662550772751
30
0
41
1
10
59.5866353852644
20
4.49756380494398
30
0
41
1
10
59.5897027103142
20
4.47730187156608
30
0
41
1
10
59.5978967958136
20
4.45071918258353
30
0
41
1
10
59.6007386925777
20
4.44318677969429
30
0
41
1
10
59.6039997751135
20
4.43590016615062
30
0
0
SPLINE
5
DB
100
AcDbEntity
8
1
62
256
6
ByLayer
370
-1
48
1
60
0
100
AcDbSpline
70
4
71
3
72
16
73
12
40
0
40
0
40
0
40
0
40
0.0227537274190597
40
0.0227537274190597
40
0.338598598864876
40
0.338598598864876
40
0.626554494348094
40
0.626554494348094
40
0.880350885430869
40
0.880350885430869
40
1
40
1
40
1
40
1
41
1
10
61.2286732143765
20
3.83320780120286
30
0
41
1
10
61.230200333027
20
3.8339945243294
30
0
41
1
10
61.231719709513
20
3.83480355572018
30
0
41
1
10
61.2538983730223
20
3.84700445760967
30
0
41
1
10
61.2733218071228
20
3.86287066502169
30
0
41
1
10
61.3036011882
20
3.89968160311747
30
0
41
1
10
61.3155019278222
20
3.92066861019785
30
0
41
1
10
61.3298880555541
20
3.96296586036988
30
0
41
1
10
61.3335047070352
20
3.98458174081407
30
0
41
1
10
61.3333347328327
20
4.01595799413056
30
0
41
1
10
61.3324631329751
20
4.02609183724732
30
0
41
1
10
61.330788550593
20
4.03601896349261
30
0
0
SPLINE
5
DC
100
AcDbEntity
8
1
62
256
6
ByLayer
370
-1
48
1
60
0
100
AcDbSpline
70
4
71
3
72
16
73
12
40
0
40
0
40
0
40
0
40
0.0533186851415433
40
0.0533186851415433
40
0.278118322826869
40
0.278118322826869
40
0.505132438067109
40
0.505132438067109
40
0.746087958799708
40
0.746087958799708
40
1
40
1
40
1
40
1
41
1
10
59.9484457267681
20
2.89444145909988
30
0
41
1
10
59.9526523061591
20
2.89288097733152
30
0
41
1
10
59.9569221153257
20
2.89146731800341
30
0
41
1
10
59.9792752279616
20
2.88493461943852
30
0
41
1
10
59.998376018038
20
2.88234129005821
30
0
41
1
10
60.0357773490053
20
2.88269565476432
30
0
41
1
10
60.054545269934
20
2.88568845316607
30
0
41
1
10
60.0904248637759
20
2.8967252612822
30
0
41
1
10
60.1078198813594
20
2.90518795042078
30
0
41
1
10
60.1391593890946
20
2.92649372105615
30
0
41
1
10
60.153249643862
20
2.93977780268293
30
0
41
1
10
60.1646788545401
20
2.95435513022881
30
0
0
SPLINE
5
DD
100
AcDbEntity
8
1
62
256
6
ByLayer
370
-1
48
1
60
0
100
AcDbSpline
70
4
71
3
72
12
73
8
40
0
40
0
40
0
40
0
40
0.457803523692391
40
0.457803523692391
40
0.840321441662897
40
0.840321441662897
40
1
40
1
40
1
40
1
41
1
10
59.3968925596318
20
3.88238949312119
30
0
41
1
10
59.4364078674685
20
3.89902129882697
30
0
41
1
10
59.4743805435079
20
3.92232861128897
30
0
41
1
10
59.5360876924588
20
3.97678819841934
30
0
41
1
10
59.5617649780023
20
4.00672003768014
30
0
41
1
10
59.5912524665911
20
4.05433608634524
30
0
41
1
10
59.5991752023496
20
4.06911509506139
30
0
41
1
10
59.606145046873
20
4.08437809392825
30
0
0
SPLINE
5
DE
100
AcDbEntity
8
1
62
256
6
ByLayer
370
-1
48
1
60
0
100
AcDbSpline
70
4
71
3
72
16
73
12
40
0
40
0
40
0
40
0
40
0.115648642562698
40
0.115648642562698
40
0.339836779519869
40
0.339836779519869
40
0.569690433061646
40
0.569690433061646
40
0.816283250255961
40
0.816283250255961
40
1
40
1
40
1
40
1
41
1
10
60.6728452215687
20
4.83045730951395
30
0
41
1
10
60.6637709131928
20
4.83382353453072
30
0
41
1
10
60.654405372867
20
4.83645876920966
30
0
41
1
10
60.6266941002544
20
4.84189004737223
30
0
41
1
10
60.6077627069288
20
4.84254677474169
30
0
41
1
10
60.5710814298985
20
4.83817409790331
30
0
41
1
10
60.5529070673487
20
4.83296170947125
30
0
41
1
10
60.5186229521654
20
4.81725231457486
30
0
41
1
10
60.5023224524514
20
4.80622089143287
30
0
41
1
10
60.4779838270626
20
4.78366904903237
30
0
41
1
10
60.4687313225651
20
4.77284662945522
30
0
41
1
10
60.4608661771558
20
4.76128729671598
30
0
0
LINE
5
4A
100
AcDbEntity
8
80
62
256
6
ByLayer
370
-1
48
1
60
0
100
AcDbLine
10
0
20
0
30
0
11
-10
21
0
31
0
39
0
210
0
220
0
230
1
0
LINE
5
4B
100
AcDbEntity
8
81
62
256
6
ByLayer
370
-1
48
1
60
0
100
AcDbLine
10
63.94
20
12.9
30
0
11
73.94
21
12.9
31
0
39
0
210
0
220
0
230
1
0
LINE
5
4C
100
AcDbEntity
8
SK4
62
256
6
ByLayer
370
-1
48
0.05
60
0
100
AcDbLine
10
-142.31
20
0
30
0
11
68.82288
21
0
31
0
39
0
210
0
220
0
230
1
0
LINE
5
4E
100
AcDbEntity
8
4
62
256
6
ByLayer
370
-1
48
0.05
60
0
100
AcDbLine
10
0
20
0
30
0
11
68.82288
21
0
31
0
39
0
210
0
220
0
230
1
0
LINE
5
50
100
AcDbEntity
8
1
62
256
6
ByLayer
370
-1
48
1
60
0
100
AcDbLine
10
0
20
-7.9925
30
0
11
49.879217
21
-7.9925
31
0
39
0
210
0
220
0
230
1
0
LINE
5
51
100
AcDbEntity
8
1
62
256
6
ByLayer
370
-1
48
1
60
0
100
AcDbLine
10
47.765715
20
7.9925
30
0
11
0
21
7.9925
31
0
39
0
210
0
220
0
230
1
0
LINE
5
52
100
AcDbEntity
8
1
62
256
6
ByLayer
370
-1
48
1
60
0
100
AcDbLine
10
49.879217
20
-7.9925
30
0
11
49.954217
21
-7.9175
31
0
39
0
210
0
220
0
230
1
0
LINE
5
53
100
AcDbEntity
8
1
62
256
6
ByLayer
370
-1
48
1
60
0
100
AcDbLine
10
49.954217
20
-7.9175
30
0
11
51.804217
21
-7.9175
31
0
39
0
210
0
220
0
230
1
0
LINE
5
54
100
AcDbEntity
8
1
62
256
6
ByLayer
370
-1
48
1
60
0
100
AcDbLine
10
51.804217
20
-7.9175
30
0
11
51.978202
21
-8.091485
31
0
39
0
210
0
220
0
230
1
0
LINE
5
55
100
AcDbEntity
8
SK1
62
256
6
ByLayer
370
-1
48
1
60
0
100
AcDbLine
10
-136.81
20
7.9925
30
0
11
-137.31
21
7.4925
31
0
39
0
210
0
220
0
230
1
0
LINE
5
57
100
AcDbEntity
8
SK1
62
256
6
ByLayer
370
-1
48
1
60
0
100
AcDbLine
10
-137.31
20
-7.4925
30
0
11
-136.81
21
-7.9925
31
0
39
0
210
0
220
0
230
1
0
LINE
5
58
100
AcDbEntity
8
SK1
62
256
6
ByLayer
370
-1
48
1
60
0
100
AcDbLine
10
-136.81
20
-7.9925
30
0
11
0
21
-7.9925
31
0
39
0
210
0
220
0
230
1
0
LINE
5
59
100
AcDbEntity
8
SK1
62
256
6
ByLayer
370
-1
48
1
60
0
100
AcDbLine
10
0
20
7.9925
30
0
11
-136.81
21
7.9925
31
0
39
0
210
0
220
0
230
1
0
LINE
5
5A
100
AcDbEntity
8
1
62
256
6
ByLayer
370
-1
48
1
60
0
100
AcDbLine
10
59.823418
20
3.225694
30
0
11
59.796869
21
3.28346
31
0
39
0
210
0
220
0
230
1
0
LINE
5
5B
100
AcDbEntity
8
1
62
256
6
ByLayer
370
-1
48
1
60
0
100
AcDbLine
10
60.833891
20
4.420835
30
0
11
60.860475
21
4.362991
31
0
39
0
210
0
220
0
230
1
0
LINE
5
5C
100
AcDbEntity
8
1
62
256
6
ByLayer
370
-1
48
1
60
0
100
AcDbLine
10
61.906209
20
4.521504
30
0
11
61.883482
21
4.570955
31
0
39
0
210
0
220
0
230
1
0
LINE
5
5D
100
AcDbEntity
8
1
62
256
6
ByLayer
370
-1
48
1
60
0
100
AcDbLine
10
58.748697
20
3.130252
30
0
11
58.771424
21
3.080802
31
0
39
0
210
0
220
0
230
1
0
LINE
5
5E
100
AcDbEntity
8
1
62
256
6
ByLayer
370
-1
48
1
60
0
100
AcDbLine
10
50.712058
20
7.911621
30
0
11
54.996401
21
-8.03928
31
0
39
0
210
0
220
0
230
1
0
LINE
5
5F
100
AcDbEntity
8
1
62
256
6
ByLayer
370
-1
48
1
60
0
100
AcDbLine
10
0
20
-7.9925
30
0
11
0
21
-0.208217
31
0
39
0
210
0
220
0
230
1
0
LINE
5
60
100
AcDbEntity
8
1
62
256
6
ByLayer
370
-1
48
1
60
0
100
AcDbLine
10
0
20
0.208217
30
0
11
0
21
7.9925
31
0
39
0
210
0
220
0
230
1
0
LINE
5
61
100
AcDbEntity
8
1
62
256
6
ByLayer
370
-1
48
1
60
0
100
AcDbLine
10
56.44956
20
4.164181
30
0
11
56.827218
21
4.024085
31
0
39
0
210
0
220
0
230
1
0
LINE
5
62
100
AcDbEntity
8
1
62
256
6
ByLayer
370
-1
48
1
60
0
100
AcDbLine
10
63.07271
20
1.707244
30
0
11
57.410275
21
-5.540469
31
0
39
0
210
0
220
0
230
1
0
LINE
5
63
100
AcDbEntity
8
1
62
256
6
ByLayer
370
-1
48
1
60
0
100
AcDbLine
10
63.305882
20
1.620745
30
0
11
63.042207
21
-3.410477
31
0
39
0
210
0
220
0
230
1
0
LINE
5
64
100
AcDbEntity
8
1
62
256
6
ByLayer
370
-1
48
1
60
0
100
AcDbLine
10
42.301023
20
0.208217
30
0
11
0
21
0.208217
31
0
39
0
210
0
220
0
230
1
0
LINE
5
65
100
AcDbEntity
8
1
62
256
6
ByLayer
370
-1
48
1
60
0
100
AcDbLine
10
56.485206
20
-1.998181
30
0
11
56.485199
21
-1.99822
31
0
39
0
210
0
220
0
230
1
0
LINE
5
66
100
AcDbEntity
8
1
62
256
6
ByLayer
370
-1
48
1
60
0
100
AcDbLine
10
49.879217
20
-7.9925
30
0
11
49.879217
21
-7.748571
31
0
39
0
210
0
220
0
230
1
0
LINE
5
67
100
AcDbEntity
8
1
62
256
6
ByLayer
370
-1
48
1
60
0
100
AcDbLine
10
60.065434
20
-8.019697
30
0
11
60.019061
21
-8.0915
31
0
39
0
210
0
220
0
230
1
0
LINE
5
68
100
AcDbEntity
8
1
62
256
6
ByLayer
370
-1
48
1
60
0
100
AcDbLine
10
56.485206
20
-1.998181
30
0
11
56.827218
21
4.024085
31
0
39
0
210
0
220
0
230
1
0
LINE
5
69
100
AcDbEntity
8
1
62
256
6
ByLayer
370
-1
48
1
60
0
100
AcDbLine
10
57.135231
20
3.909818
30
0
11
56.827212
21
4.024081
31
0
39
0
210
0
220
0
230
1
0
LINE
5
6A
100
AcDbEntity
8
1
62
256
6
ByLayer
370
-1
48
1
60
0
100
AcDbLine
10
51.804217
20
-7.9175
30
0
11
51.804217
21
-7.816833
31
0
39
0
210
0
220
0
230
1
0
LINE
5
6B
100
AcDbEntity
8
1
62
256
6
ByLayer
370
-1
48
1
60
0
100
AcDbLine
10
55.350725
20
-3.450277
30
0
11
56.485206
21
-1.998181
31
0
39
0
210
0
220
0
230
1
0
LINE
5
6C
100
AcDbEntity
8
1
62
256
6
ByLayer
370
-1
48
1
60
0
100
AcDbLine
10
53.966397
20
5.123058
30
0
11
51.162389
21
7.912152
31
0
39
0
210
0
220
0
230
1
0
LINE
5
6D
100
AcDbEntity
8
1
62
256
6
ByLayer
370
-1
48
1
60
0
100
AcDbLine
10
60.065434
20
-8.019697
30
0
11
63.042207
21
-3.410477
31
0
39
0
210
0
220
0
230
1
0
LINE
5
6E
100
AcDbEntity
8
1
62
256
6
ByLayer
370
-1
48
1
60
0
100
AcDbLine
10
63.07271
20
1.707244
30
0
11
63.305882
21
1.620745
31
0
39
0
210
0
220
0
230
1
0
LINE
5
6F
100
AcDbEntity
8
1
62
256
6
ByLayer
370
-1
48
1
60
0
100
AcDbLine
10
63.320672
20
1.90296
30
0
11
63.305882
21
1.620746
31
0
39
0
210
0
220
0
230
1
0
LINE
5
70
100
AcDbEntity
8
1
62
256
6
ByLayer
370
-1
48
1
60
0
100
AcDbLine
10
60.019061
20
-8.0915
30
0
11
51.978217
21
-8.0915
31
0
39
0
210
0
220
0
230
1
0
LINE
5
71
100
AcDbEntity
8
1
62
256
6
ByLayer
370
-1
48
1
60
0
100
AcDbLine
10
0
20
-0.208217
30
0
11
0
21
0.208217
31
0
39
0
210
0
220
0
230
1
0
LINE
5
72
100
AcDbEntity
8
1
62
256
6
ByLayer
370
-1
48
1
60
0
100
AcDbLine
10
49.954217
20
-7.9175
30
0
11
49.954217
21
-7.683582
31
0
39
0
210
0
220
0
230
1
0
LINE
5
73
100
AcDbEntity
8
1
62
256
6
ByLayer
370
-1
48
1
60
0
100
AcDbLine
10
0
20
-0.208217
30
0
11
42.42086
21
-0.208217
31
0
39
0
210
0
220
0
230
1
0
LINE
5
74
100
AcDbEntity
8
1
62
256
6
ByLayer
370
-1
48
1
60
0
100
AcDbLine
10
63.072722
20
1.707234
30
0
11
62.741787
21
1.829998
31
0
39
0
210
0
220
0
230
1
0
LINE
5
75
100
AcDbEntity
8
1
62
256
6
ByLayer
370
-1
48
1
60
0
100
AcDbLine
10
56.850082
20
-1.531183
30
0
11
56.485199
21
-1.99822
31
0
39
0
210
0
220
0
230
1
0
LINE
5
76
100
AcDbEntity
8
1
62
256
6
ByLayer
370
-1
48
1
60
0
100
AcDbLine
10
56.823365
20
-2.040662
30
0
11
55.770972
21
-3.387687
31
0
39
0
210
0
220
0
230
1
0
LINE
5
77
100
AcDbEntity
8
SK1
62
256
6
ByLayer
370
-1
48
1
60
0
100
AcDbLine
10
-136.81
20
-7.9925
30
0
11
-136.81
21
7.9925
31
0
39
0
210
0
220
0
230
1
0
LINE
5
78
100
AcDbEntity
8
SK1
62
256
6
ByLayer
370
-1
48
1
60
0
100
AcDbLine
10
0
20
0.208217
30
0
11
-48.06
21
0.208217
31
0
39
0
210
0
220
0
230
1
0
LINE
5
79
100
AcDbEntity
8
SK1
62
256
6
ByLayer
370
-1
48
1
60
0
100
AcDbLine
10
0
20
-7.9925
30
0
11
0
21
-0.208217
31
0
39
0
210
0
220
0
230
1
0
LINE
5
7A
100
AcDbEntity
8
SK1
62
256
6
ByLayer
370
-1
48
1
60
0
100
AcDbLine
10
0
20
0.208217
30
0
11
0
21
7.9925
31
0
39
0
210
0
220
0
230
1
0
LINE
5
7B
100
AcDbEntity
8
SK1
62
256
6
ByLayer
370
-1
48
1
60
0
100
AcDbLine
10
-137.31
20
-7.4925
30
0
11
-137.31
21
7.4925
31
0
39
0
210
0
220
0
230
1
0
LINE
5
7C
100
AcDbEntity
8
SK1
62
256
6
ByLayer
370
-1
48
1
60
0
100
AcDbLine
10
-48.06
20
-0.208217
30
0
11
0
21
-0.208217
31
0
39
0
210
0
220
0
230
1
0
LINE
5
7D
100
AcDbEntity
8
SK1
62
256
6
ByLayer
370
-1
48
1
60
0
100
AcDbLine
10
-48.06
20
-0.208217
30
0
11
-48.06
21
0.208217
31
0
39
0
210
0
220
0
230
1
0
LINE
5
7E
100
AcDbEntity
8
SK1
62
256
6
ByLayer
370
-1
48
1
60
0
100
AcDbLine
10
0
20
-0.208217
30
0
11
0
21
0.208217
31
0
39
0
210
0
220
0
230
1
0
LINE
5
7F
100
AcDbEntity
8
1
62
256
6
ByLayer
370
-1
48
1
60
0
100
AcDbLine
10
63.35007
20
2.608578
30
0
11
57.38975
21
-5.020416
31
0
39
0
210
0
220
0
230
1
0
LINE
5
80
100
AcDbEntity
8
1
62
256
6
ByLayer
370
-1
48
1
60
0
100
AcDbLine
10
63.939458
20
12.484205
30
0
11
63.433598
21
2.831814
31
0
39
0
210
0
220
0
230
1
0
LINE
5
81
100
AcDbEntity
8
1
62
256
6
ByLayer
370
-1
48
1
60
0
100
AcDbLine
10
57.27039
20
5.118131
30
0
11
63.230709
21
12.747124
31
0
39
0
210
0
220
0
230
1
0
LINE
5
82
100
AcDbEntity
8
1
62
256
6
ByLayer
370
-1
48
1
60
0
100
AcDbLine
10
56.681001
20
-4.757497
30
0
11
57.186861
21
4.894895
31
0
39
0
210
0
220
0
230
1
0
LINE
5
83
100
AcDbEntity
8
1
62
256
6
ByLayer
370
-1
48
1
60
0
100
AcDbLine
10
59.606145
20
4.084378
30
0
11
59.632259
21
4.027556
31
0
39
0
210
0
220
0
230
1
0
LINE
5
84
100
AcDbEntity
8
1
62
256
6
ByLayer
370
-1
48
1
60
0
100
AcDbLine
10
59.652008
20
4.080336
30
0
11
59.625894
21
4.137158
31
0
39
0
210
0
220
0
230
1
0
LINE
5
85
100
AcDbEntity
8
1
62
256
6
ByLayer
370
-1
48
1
60
0
100
AcDbLine
10
61.199304
20
4.120464
30
0
11
61.17013
21
4.183943
31
0
39
0
210
0
220
0
230
1
0
LINE
5
86
100
AcDbEntity
8
1
62
256
6
ByLayer
370
-1
48
1
60
0
100
AcDbLine
10
60.49004
20
4.697809
30
0
11
60.460866
21
4.761287
31
0
39
0
210
0
220
0
230
1
0
LINE
5
87
100
AcDbEntity
8
1
62
256
6
ByLayer
370
-1
48
1
60
0
100
AcDbLine
10
59.907891
20
4.599529
30
0
11
59.878717
21
4.663008
31
0
39
0
210
0
220
0
230
1
0
LINE
5
88
100
AcDbEntity
8
1
62
256
6
ByLayer
370
-1
48
1
60
0
100
AcDbLine
10
59.633163
20
4.372444
30
0
11
59.604
21
4.4359
31
0
39
0
210
0
220
0
230
1
0
LINE
5
89
100
AcDbEntity
8
1
62
256
6
ByLayer
370
-1
48
1
60
0
100
AcDbLine
10
59.426056
20
3.818933
30
0
11
59.396893
21
3.882389
31
0
39
0
210
0
220
0
230
1
0
LINE
5
8A
100
AcDbEntity
8
1
62
256
6
ByLayer
370
-1
48
1
60
0
100
AcDbLine
10
59.860246
20
3.014632
30
0
11
59.831072
21
3.078111
31
0
39
0
210
0
220
0
230
1
0
LINE
5
8B
100
AcDbEntity
8
2
62
256
6
ByLayer
370
-1
48
1
60
1
100
AcDbLine
10
63.94
20
0
30
0
11
63.941
21
0.001
31
0
39
0
210
0
220
0
230
1
0
MTEXT
5
DF
100
AcDbEntity
8
SK6
62
256
6
ByLayer
370
-1
48
1
60
0
100
AcDbMText
10
-33.31
20
-21.706216
30
0
210
0
220
0
230
1
1
\W00.731;\fsimplex.shx,bigfont.shx;A16R-SVUCR 11-ER 
40
3.5
41
0
44
1.084337
50
0
71
7
72
5
7
DEFAULT
0
DIMENSION
5
112
100
AcDbEntity
8
2
62
256
6
ByLayer
370
-3
48
1
60
0
100
AcDbDimension
2
DimnDraft3D1
10
76.19
20
0
30
0
11
76.19
21
23.155
31
0
70
32
71
5
72
1
41
1
210
0
220
0
230
1
3
Standard
100
AcDbAlignedDimension
13
65.94
23
12.9
33
0
14
65.94
24
0
34
0
50
90
100
AcDbRotatedDimension
1001
ACAD
1000
DSTYLE
1002
{
1070
    74
1070
     0
1070
   279
1070
     0
1070
   172
1070
     1
1070
   173
1070
     1
1070
   340
1005
E0
1070
    77
1070
     1
1070
    73
1070
     0
1070
   171
1070
     4
1070
   274
1070
     4
1070
   177
1070
     2
1070
   176
1070
     2
1070
   178
1070
     7
1070
    78
1070
     8
1070
    41
1041
3.175
1070
   147
1041
2.25
1070
    42
1041
2.0
1070
    44
1041
2.0
1070
   140
1041
4.5
1070
   343
1005
113
1070
   344
1005
113
1002
}
0
DIMENSION
5
128
100
AcDbEntity
8
SK2
62
256
6
ByLayer
370
-3
48
1
60
0
100
AcDbDimension
2
DimnDraft3D2
10
-147.06
20
7.9925
30
0
11
-147.06
21
-4.221711
31
0
70
32
71
5
72
1
41
1
210
0
220
0
230
1
3
Standard
100
AcDbAlignedDimension
13
-139.31
23
-7.9925
33
0
14
-139.31
24
7.9925
34
0
50
90
100
AcDbRotatedDimension
1001
ACAD
1000
DSTYLE
1002
{
1070
    74
1070
     0
1070
   279
1070
     0
1070
   172
1070
     1
1070
   173
1070
     1
1070
   340
1005
E0
1070
    77
1070
     1
1070
    73
1070
     0
1070
   171
1070
     4
1070
   274
1070
     4
1070
   177
1070
     2
1070
   176
1070
     2
1070
   178
1070
     7
1070
    78
1070
     8
1070
    41
1041
3.175
1070
   147
1041
2.25
1070
    42
1041
2.0
1070
    44
1041
2.0
1070
   140
1041
4.5
1070
   343
1005
113
1070
   344
1005
113
1002
}
0
DIMENSION
5
136
100
AcDbEntity
8
SK2
62
256
6
ByLayer
370
-3
48
1
60
0
100
AcDbDimension
2
DimnDraft3D3
10
-137.31
20
25.65
30
0
11
-43.500132
21
25.65
31
0
70
32
71
5
72
1
41
1
210
0
220
0
230
1
3
Standard
100
AcDbAlignedDimension
13
63.94
23
14.9
33
0
14
-137.31
24
9.9925
34
0
50
0
100
AcDbRotatedDimension
1001
ACAD
1000
DSTYLE
1002
{
1070
   279
1070
     0
1070
   172
1070
     1
1070
   173
1070
     1
1070
   340
1005
E0
1070
    77
1070
     1
1070
    73
1070
     0
1070
   171
1070
     4
1070
   274
1070
     4
1070
   177
1070
     2
1070
   176
1070
     2
1070
   178
1070
     7
1070
    78
1070
     8
1070
    41
1041
3.175
1070
   147
1041
2.25
1070
    42
1041
2.0
1070
    44
1041
2.0
1070
   140
1041
4.5
1070
   343
1005
113
1070
   344
1005
113
1002
}
0
DIMENSION
5
144
100
AcDbEntity
8
2
62
256
6
ByLayer
370
-3
48
1
60
0
100
AcDbDimension
2
DimnDraft3D4
10
112.190347
20
0
30
0
11
89.39575
21
-36.792664
31
0
70
34
71
5
72
1
41
1
210
0
220
0
230
1
3
Standard
100
AcDb2LineAngularDimension
13
63.259633
23
-0.082184
33
0
14
60.703329
24
-48.859355
34
0
15
65.94
25
0
35
0
16
92.468351
26
-30.775028
36
0
40
0
0
ENDSEC
0
SECTION
2
OBJECTS
0
DICTIONARY
5
175
330
0
100
AcDbDictionary
280
0
281
1
3
ACAD_GROUP
350
176
3
ACAD_MLINESTYLE
350
177
0
DICTIONARY
5
176
330
0
100
AcDbDictionary
280
0
281
1
0
DICTIONARY
5
177
330
0
100
AcDbDictionary
280
0
281
1
3
Standard
350
18
0
MLINESTYLE
5
18
330
177
100
AcDbMlineStyle
2
Standard
70
0
3

62
256
51
90
52
90
71
2
49
-0.5
62
256
6
ByLayer
49
0.5
62
256
6
ByLayer
0
RASTERVARIABLES
5
163
330

100
AcDbRasterVariables
90
0
70
1
71
1
72
1
0
ENDSEC
0
EOF
