0
SECTION
2
HEADER
9
$ACADVER
1
AC1015
9
$DWGCODEPAGE
3
ANSI_1252
9
$HANDSEED
5
190
9
$ANGBASE
50
0
9
$ANGDIR
70
0
9
$ATTMODE
70
1
9
$AUNITS
70
0
9
$AUPREC
70
0
9
$CECOLOR
62
256
9
$CELTSCALE
40
1
9
$CELTYPE
6
ByLayer
9
$CELWEIGHT
370
-1
9
$CLAYER
8
0
9
$CMLJUST
70
0
9
$CMLSCALE
40
1
9
$CMLSTYLE
2
Standard
9
$DIMSTYLE
2
Standard
9
$TEXTSIZE
40
0.2
9
$TEXTSTYLE
7
Standard
9
$LUNITS
70
2
9
$LUPREC
70
4
9
$EXTNAMES
290
1
9
$INSUNITS
70
4
9
$LTSCALE
40
1
9
$LWDISPLAY
290
0
9
$PDMODE
70
0
9
$PDSIZE
40
0
9
$PLINEGEN
70
0
0
ENDSEC
0
SECTION
2
CLASSES
0
CLASS
1
RASTERVARIABLES
2
AcDbRasterVariables
3
ISM
90
0
280
0
281
0
0
ENDSEC
0
SECTION
2
TABLES
0
TABLE
2
VPORT
5
186
100
AcDbSymbolTable
0
VPORT
5
1
100
AcDbSymbolTableRecord
100
AcDbViewportTableRecord
2
*Active
70
0
10
0
20
0
11
1
21
1
12
-1
22
1
13
0
23
0
14
0.5
24
0.5
15
10
25
10
16
0
26
0
36
1
17
0
27
0
37
0
0
ENDTAB
0
TABLE
2
LTYPE
5
187
100
AcDbSymbolTable
0
LTYPE
5
14
100
AcDbSymbolTableRecord
100
AcDbLinetypeTableRecord
70
0
2
ByBlock
3

72
65
73
0
40
0
0
LTYPE
5
15
100
AcDbSymbolTableRecord
100
AcDbLinetypeTableRecord
70
0
2
ByLayer
3

72
65
73
0
40
0
0
LTYPE
5
16
100
AcDbSymbolTableRecord
100
AcDbLinetypeTableRecord
70
0
2
CONTINUOUS
3
Solid line
72
65
73
0
40
0
0
LTYPE
5
3B
100
AcDbSymbolTableRecord
100
AcDbLinetypeTableRecord
70
0
2
DASHED
3
__ __ __ __ __ __ __ __ __
72
65
73
2
40
25.72
49
12.86
74
0
49
-12.86
74
0
0
LTYPE
5
3C
100
AcDbSymbolTableRecord
100
AcDbLinetypeTableRecord
70
0
2
HIDDEN
3
_ _ _ _ _ _ _ _ _ _ _ _ _ _ _
72
65
73
2
40
0.5
49
0.25
74
0
49
-0.25
74
0
0
LTYPE
5
3D
100
AcDbSymbolTableRecord
100
AcDbLinetypeTableRecord
70
0
2
PHANTOM
3
____ _ _ ____ _ _ _____ _ _ ____
72
65
73
6
40
50.5
49
18
74
0
49
-6.5
74
0
49
6.5
74
0
49
-6.5
74
0
49
6.5
74
0
49
-6.5
74
0
0
LTYPE
5
3E
100
AcDbSymbolTableRecord
100
AcDbLinetypeTableRecord
70
0
2
CENTER
3
____ _ ____ _ ____ _ ____
72
65
73
4
40
47.5
49
22
74
0
49
-8.5
74
0
49
8.5
74
0
49
-8.5
74
0
0
LTYPE
5
3F
100
AcDbSymbolTableRecord
100
AcDbLinetypeTableRecord
70
0
2
DOT
3
.........................
72
65
73
2
40
10
49
0
74
0
49
-10
74
0
0
LTYPE
5
40
100
AcDbSymbolTableRecord
100
AcDbLinetypeTableRecord
70
0
2
DASHDOT
3
_._._._._._._._._._._._._._._._.
72
65
73
4
40
70
49
31
74
0
49
-13
74
0
49
13
74
0
49
-13
74
0
0
ENDTAB
0
TABLE
2
LAYER
5
188
100
AcDbSymbolTable
0
LAYER
5
10
100
AcDbSymbolTableRecord
100
AcDbLayerTableRecord
2
0
70
0
62
7
6
CONTINUOUS
290
1
370
-3
390
0
0
LAYER
5
42
100
AcDbSymbolTableRecord
100
AcDbLayerTableRecord
2
80
70
0
62
-6
6
CONTINUOUS
290
1
370
-3
390
0
0
LAYER
5
44
100
AcDbSymbolTableRecord
100
AcDbLayerTableRecord
2
81
70
0
62
-3
6
CONTINUOUS
290
1
370
-3
390
0
0
LAYER
5
46
100
AcDbSymbolTableRecord
100
AcDbLayerTableRecord
2
1
70
0
62
4
6
CONTINUOUS
290
1
370
-3
390
0
0
LAYER
5
48
100
AcDbSymbolTableRecord
100
AcDbLayerTableRecord
2
2
70
0
62
7
6
CONTINUOUS
290
1
370
-3
390
0
0
LAYER
5
5A
100
AcDbSymbolTableRecord
100
AcDbLayerTableRecord
2
4
70
0
62
-2
6
CENTER
290
1
370
-3
390
0
0
LAYER
5
172
100
AcDbSymbolTableRecord
100
AcDbLayerTableRecord
2
SK1
70
0
62
4
6
CONTINUOUS
290
1
370
-3
390
0
0
LAYER
5
173
100
AcDbSymbolTableRecord
100
AcDbLayerTableRecord
2
SK4
70
0
62
2
6
CENTER
290
1
370
-3
390
0
0
LAYER
5
174
100
AcDbSymbolTableRecord
100
AcDbLayerTableRecord
2
SK6
70
0
62
5
6
CONTINUOUS
290
1
370
-3
390
0
0
LAYER
5
175
100
AcDbSymbolTableRecord
100
AcDbLayerTableRecord
2
SK2
70
0
62
7
6
CONTINUOUS
290
1
370
-3
390
0
0
ENDTAB
0
TABLE
2
STYLE
5
189
100
AcDbSymbolTable
0
STYLE
5
11
100
AcDbSymbolTableRecord
100
AcDbTextStyleTableRecord
2
Standard
3
txt
70
0
71
0
40
0
41
1
42
0
50
0
0
STYLE
5
EE
100
AcDbSymbolTableRecord
100
AcDbTextStyleTableRecord
2
DEFAULT
3
simplex.shx
70
0
71
0
40
0
41
1
42
0
50
0
0
STYLE
5
111
100
AcDbSymbolTableRecord
100
AcDbTextStyleTableRecord
2
DWGDirectTextStyle
3
SIMPLEX
70
0
71
0
40
0
41
1
42
0
50
0
0
ENDTAB
0
TABLE
2
DIMSTYLE
5
18a
100
AcDbSymbolTable
100
AcDbDimStyleTable
0
DIMSTYLE
105
27
100
AcDbSymbolTableRecord
100
AcDbDimStyleTableRecord
2
Standard
70
0
3
<>
41
0.18
42
0.0625
44
0.18
140
0.18
147
0.09
73
0
74
0
77
1
271
2
275
0
278
52
280
0
340
11
0
ENDTAB
0
TABLE
2
VIEW
5
18b
100
AcDbSymbolTable
0
ENDTAB
0
TABLE
2
UCS
5
18c
100
AcDbSymbolTable
0
ENDTAB
0
TABLE
2
APPID
5
18d
100
AcDbSymbolTable
0
APPID
5
12
100
AcDbSymbolTableRecord
100
AcDbRegAppTableRecord
2
ACAD
70
0
0
ENDTAB
0
TABLE
2
BLOCK_RECORD
5
18e
100
AcDbSymbolTable
0
BLOCK_RECORD
5
1F
100
AcDbSymbolTableRecord
100
AcDbBlockTableRecord
2
*Model_Space
340
0
70
0
0
BLOCK_RECORD
5
1B
100
AcDbSymbolTableRecord
100
AcDbBlockTableRecord
2
*Paper_Space
340
0
70
0
0
BLOCK_RECORD
5
23
100
AcDbSymbolTableRecord
100
AcDbBlockTableRecord
2
*Paper_Space0
340
0
70
0
0
BLOCK_RECORD
5
113
100
AcDbSymbolTableRecord
100
AcDbBlockTableRecord
2
DimnDraft3D1
340
0
70
0
0
BLOCK_RECORD
5
121
100
AcDbSymbolTableRecord
100
AcDbBlockTableRecord
2
_CLOSED
340
0
70
0
0
BLOCK_RECORD
5
128
100
AcDbSymbolTableRecord
100
AcDbBlockTableRecord
2
DimnDraft3D2
340
0
70
0
0
BLOCK_RECORD
5
137
100
AcDbSymbolTableRecord
100
AcDbBlockTableRecord
2
DimnDraft3D3
340
0
70
0
0
BLOCK_RECORD
5
145
100
AcDbSymbolTableRecord
100
AcDbBlockTableRecord
2
DimnDraft3D4
340
0
70
0
0
ENDTAB
0
ENDSEC
0
SECTION
2
BLOCKS
0
BLOCK
5
20
100
AcDbEntity
8
0
100
AcDbBlockBegin
2
*Model_Space
70
0
10
0
20
0
30
0
3
*Model_Space
0
ENDBLK
5
21
100
AcDbEntity
8
0
100
AcDbBlockEnd
0
BLOCK
5
1C
100
AcDbEntity
8
0
100
AcDbBlockBegin
2
*Paper_Space
70
0
10
0
20
0
30
0
3
*Paper_Space
0
ENDBLK
5
1D
100
AcDbEntity
8
0
100
AcDbBlockEnd
0
BLOCK
5
24
100
AcDbEntity
8
0
100
AcDbBlockBegin
2
*Paper_Space0
70
0
10
0
20
0
30
0
3
*Paper_Space0
0
ENDBLK
5
25
100
AcDbEntity
8
0
100
AcDbBlockEnd
0
BLOCK
5
11E
100
AcDbEntity
8
0
100
AcDbBlockBegin
2
DimnDraft3D1
70
0
10
0
20
0
30
0
3
DimnDraft3D1
0
MTEXT
5
114
100
AcDbEntity
8
2
62
256
6
ByLayer
370
-1
48
1
60
0
100
AcDbMText
10
75.065
20
-28.106316
30
0
210
0
220
0
230
1
1
\W01.000;\fsimplex.shx,bigfont.shx;11.0 
40
4.5
41
0
44
1.084337
50
90
71
7
72
5
7
DEFAULT
0
LINE
5
115
100
AcDbEntity
8
2
62
256
6
ByLayer
370
-1
48
1
60
0
100
AcDbLine
10
65.94
20
-10.9
30
0
11
78.19
21
-10.9
31
0
39
0
210
0
220
0
230
1
0
LINE
5
116
100
AcDbEntity
8
2
62
256
6
ByLayer
370
-1
48
1
60
0
100
AcDbLine
10
65.94
20
0
30
0
11
78.19
21
0
31
0
39
0
210
0
220
0
230
1
0
LINE
5
117
100
AcDbEntity
8
2
62
256
6
ByLayer
370
-1
48
1
60
0
100
AcDbLine
10
76.19
20
0
30
0
11
76.19
21
-29.231316
31
0
39
0
210
0
220
0
230
1
0
LINE
5
118
100
AcDbEntity
8
2
62
256
6
ByLayer
370
-1
48
1
60
0
100
AcDbLine
10
76.19
20
-10.9
30
0
11
75.772003
21
-7.725002
31
0
39
0
210
0
220
0
230
1
0
LINE
5
119
100
AcDbEntity
8
2
62
256
6
ByLayer
370
-1
48
1
60
0
100
AcDbLine
10
76.19
20
-10.9
30
0
11
76.607997
21
-7.724998
31
0
39
0
210
0
220
0
230
1
0
LINE
5
11A
100
AcDbEntity
8
2
62
256
6
ByLayer
370
-1
48
1
60
0
100
AcDbLine
10
75.772003
20
-7.725002
30
0
11
76.607997
21
-7.724998
31
0
39
0
210
0
220
0
230
1
0
LINE
5
11B
100
AcDbEntity
8
2
62
256
6
ByLayer
370
-1
48
1
60
0
100
AcDbLine
10
76.19
20
0
30
0
11
76.607997
21
-3.174998
31
0
39
0
210
0
220
0
230
1
0
LINE
5
11C
100
AcDbEntity
8
2
62
256
6
ByLayer
370
-1
48
1
60
0
100
AcDbLine
10
76.19
20
0
30
0
11
75.772003
21
-3.175002
31
0
39
0
210
0
220
0
230
1
0
LINE
5
11D
100
AcDbEntity
8
2
62
256
6
ByLayer
370
-1
48
1
60
0
100
AcDbLine
10
76.607997
20
-3.174998
30
0
11
75.772003
21
-3.175002
31
0
39
0
210
0
220
0
230
1
0
ENDBLK
5
11F
100
AcDbEntity
8
0
100
AcDbBlockEnd
0
BLOCK
5
122
100
AcDbEntity
8
0
100
AcDbBlockBegin
2
_CLOSED
70
0
10
0
20
0
30
0
3
_CLOSED
0
LINE
5
124
100
AcDbEntity
8
0
62
256
6
ByLayer
370
-2
48
1
60
0
100
AcDbLine
10
-1
20
0.166667
30
0
11
0
21
0
31
0
39
0
210
0
220
0
230
1
0
LINE
5
125
100
AcDbEntity
8
0
62
256
6
ByLayer
370
-2
48
1
60
0
100
AcDbLine
10
0
20
0
30
0
11
-1
21
-0.166667
31
0
39
0
210
0
220
0
230
1
0
LINE
5
126
100
AcDbEntity
8
0
62
256
6
ByLayer
370
-2
48
1
60
0
100
AcDbLine
10
-1
20
0.166667
30
0
11
-1
21
-0.166667
31
0
39
0
210
0
220
0
230
1
0
LINE
5
127
100
AcDbEntity
8
0
62
256
6
ByLayer
370
-2
48
1
60
0
100
AcDbLine
10
0
20
0
30
0
11
-1
21
0
31
0
39
0
210
0
220
0
230
1
0
ENDBLK
5
123
100
AcDbEntity
8
0
100
AcDbBlockEnd
0
BLOCK
5
134
100
AcDbEntity
8
0
100
AcDbBlockBegin
2
DimnDraft3D2
70
0
10
0
20
0
30
0
3
DimnDraft3D2
0
MTEXT
5
129
100
AcDbEntity
8
SK2
62
256
6
ByLayer
370
-1
48
1
60
0
100
AcDbMText
10
-148.185
20
-3.096711
30
0
210
0
220
0
230
1
1
\W01.000;\fsimplex.shx,bigfont.shx;%%c16 
40
4.5
41
0
44
1.084337
50
90
71
7
72
5
7
DEFAULT
0
LINE
5
12B
100
AcDbEntity
8
SK2
62
256
6
ByLayer
370
-1
48
1
60
0
100
AcDbLine
10
-139.31
20
-7.9925
30
0
11
-149.06
21
-7.9925
31
0
39
0
210
0
220
0
230
1
0
LINE
5
12C
100
AcDbEntity
8
SK2
62
256
6
ByLayer
370
-1
48
1
60
0
100
AcDbLine
10
-139.31
20
7.9925
30
0
11
-149.06
21
7.9925
31
0
39
0
210
0
220
0
230
1
0
LINE
5
12D
100
AcDbEntity
8
SK2
62
256
6
ByLayer
370
-1
48
1
60
0
100
AcDbLine
10
-147.06
20
-19.2425
30
0
11
-147.06
21
19.2425
31
0
39
0
210
0
220
0
230
1
0
LINE
5
12E
100
AcDbEntity
8
SK2
62
256
6
ByLayer
370
-1
48
1
60
0
100
AcDbLine
10
-147.06
20
-7.9925
30
0
11
-146.642003
21
-11.167498
31
0
39
0
210
0
220
0
230
1
0
LINE
5
12F
100
AcDbEntity
8
SK2
62
256
6
ByLayer
370
-1
48
1
60
0
100
AcDbLine
10
-147.06
20
-7.9925
30
0
11
-147.477997
21
-11.167502
31
0
39
0
210
0
220
0
230
1
0
LINE
5
130
100
AcDbEntity
8
SK2
62
256
6
ByLayer
370
-1
48
1
60
0
100
AcDbLine
10
-146.642003
20
-11.167498
30
0
11
-147.477997
21
-11.167502
31
0
39
0
210
0
220
0
230
1
0
LINE
5
131
100
AcDbEntity
8
SK2
62
256
6
ByLayer
370
-1
48
1
60
0
100
AcDbLine
10
-147.06
20
7.9925
30
0
11
-147.477997
21
11.167498
31
0
39
0
210
0
220
0
230
1
0
LINE
5
132
100
AcDbEntity
8
SK2
62
256
6
ByLayer
370
-1
48
1
60
0
100
AcDbLine
10
-147.06
20
7.9925
30
0
11
-146.642003
21
11.167502
31
0
39
0
210
0
220
0
230
1
0
LINE
5
133
100
AcDbEntity
8
SK2
62
256
6
ByLayer
370
-1
48
1
60
0
100
AcDbLine
10
-147.477997
20
11.167498
30
0
11
-146.642003
21
11.167502
31
0
39
0
210
0
220
0
230
1
0
ENDBLK
5
135
100
AcDbEntity
8
0
100
AcDbBlockEnd
0
BLOCK
5
142
100
AcDbEntity
8
0
100
AcDbBlockBegin
2
DimnDraft3D3
70
0
10
0
20
0
30
0
3
DimnDraft3D3
0
MTEXT
5
138
100
AcDbEntity
8
SK2
62
256
6
ByLayer
370
-1
48
1
60
0
100
AcDbMText
10
-42.375132
20
-27.025
30
0
210
0
220
0
230
1
1
\W01.000;\fsimplex.shx,bigfont.shx;200.0 
40
4.5
41
0
44
1.084337
50
0
71
7
72
5
7
DEFAULT
0
LINE
5
139
100
AcDbEntity
8
SK2
62
256
6
ByLayer
370
-1
48
1
60
0
100
AcDbLine
10
-137.31
20
-9.9925
30
0
11
-137.31
21
-30.15
31
0
39
0
210
0
220
0
230
1
0
LINE
5
13A
100
AcDbEntity
8
SK2
62
256
6
ByLayer
370
-1
48
1
60
0
100
AcDbLine
10
63.94
20
-12.9
30
0
11
63.94
21
-30.15
31
0
39
0
210
0
220
0
230
1
0
LINE
5
13B
100
AcDbEntity
8
SK2
62
256
6
ByLayer
370
-1
48
1
60
0
100
AcDbLine
10
-137.31
20
-28.15
30
0
11
63.94
21
-28.15
31
0
39
0
210
0
220
0
230
1
0
LINE
5
13C
100
AcDbEntity
8
SK2
62
256
6
ByLayer
370
-1
48
1
60
0
100
AcDbLine
10
-137.31
20
-28.15
30
0
11
-134.135002
21
-27.732003
31
0
39
0
210
0
220
0
230
1
0
LINE
5
13D
100
AcDbEntity
8
SK2
62
256
6
ByLayer
370
-1
48
1
60
0
100
AcDbLine
10
-137.31
20
-28.15
30
0
11
-134.134998
21
-28.567997
31
0
39
0
210
0
220
0
230
1
0
LINE
5
13E
100
AcDbEntity
8
SK2
62
256
6
ByLayer
370
-1
48
1
60
0
100
AcDbLine
10
-134.135002
20
-27.732003
30
0
11
-134.134998
21
-28.567997
31
0
39
0
210
0
220
0
230
1
0
LINE
5
13F
100
AcDbEntity
8
SK2
62
256
6
ByLayer
370
-1
48
1
60
0
100
AcDbLine
10
63.94
20
-28.15
30
0
11
60.765002
21
-28.567997
31
0
39
0
210
0
220
0
230
1
0
LINE
5
140
100
AcDbEntity
8
SK2
62
256
6
ByLayer
370
-1
48
1
60
0
100
AcDbLine
10
63.94
20
-28.15
30
0
11
60.764998
21
-27.732003
31
0
39
0
210
0
220
0
230
1
0
LINE
5
141
100
AcDbEntity
8
SK2
62
256
6
ByLayer
370
-1
48
1
60
0
100
AcDbLine
10
60.765002
20
-28.567997
30
0
11
60.764998
21
-27.732003
31
0
39
0
210
0
220
0
230
1
0
ENDBLK
5
143
100
AcDbEntity
8
0
100
AcDbBlockEnd
0
BLOCK
5
150
100
AcDbEntity
8
0
100
AcDbBlockBegin
2
DimnDraft3D4
70
0
10
0
20
0
30
0
3
DimnDraft3D4
0
MTEXT
5
146
100
AcDbEntity
8
2
62
256
6
ByLayer
370
-1
48
1
60
0
100
AcDbMText
10
87.780687
20
31.136179
30
0
210
0
220
0
230
1
1
\W01.000;\fsimplex.shx,bigfont.shx;91%%d0' 
40
4.5
41
0
44
1.084337
50
315.5
71
7
72
5
7
DEFAULT
0
LINE
5
147
100
AcDbEntity
8
2
62
256
6
ByLayer
370
-1
48
1
60
0
100
AcDbLine
10
63.713119
20
2.09802
30
0
11
63.052928
21
39.920326
31
0
39
0
210
0
220
0
230
1
0
LINE
5
148
100
AcDbEntity
8
2
62
256
6
ByLayer
370
-1
48
1
60
0
100
AcDbLine
10
65.94
20
0
30
0
11
103.676147
21
0
31
0
39
0
210
0
220
0
230
1
0
ARC
5
149
100
AcDbEntity
8
2
62
256
6
ByLayer
370
-1
48
1
60
0
100
AcDbCircle
39
0
10
63.74974
20
0
30
0
40
37.9264068640928
210
0
220
0
230
1
100
AcDbArc
50
0
51
91
0
LINE
5
14A
100
AcDbEntity
8
2
62
256
6
ByLayer
370
-1
48
1
60
0
100
AcDbLine
10
63.087833
20
37.92063
30
0
11
66.26426
21
38.327629
31
0
39
0
210
0
220
0
230
1
0
LINE
5
14B
100
AcDbEntity
8
2
62
256
6
ByLayer
370
-1
48
1
60
0
100
AcDbLine
10
63.087833
20
37.92063
30
0
11
66.261368
21
37.491641
31
0
39
0
210
0
220
0
230
1
0
LINE
5
14C
100
AcDbEntity
8
2
62
256
6
ByLayer
370
-1
48
1
60
0
100
AcDbLine
10
66.26426
20
38.327629
30
0
11
66.261368
21
37.491641
31
0
39
0
210
0
220
0
230
1
0
LINE
5
14D
100
AcDbEntity
8
2
62
256
6
ByLayer
370
-1
48
1
60
0
100
AcDbLine
10
101.676147
20
0
30
0
11
101.191836
21
3.165562
31
0
39
0
210
0
220
0
230
1
0
LINE
5
14E
100
AcDbEntity
8
2
62
256
6
ByLayer
370
-1
48
1
60
0
100
AcDbLine
10
101.676147
20
0
30
0
11
102.027647
21
3.183049
31
0
39
0
210
0
220
0
230
1
0
LINE
5
14F
100
AcDbEntity
8
2
62
256
6
ByLayer
370
-1
48
1
60
0
100
AcDbLine
10
101.191836
20
3.165562
30
0
11
102.027647
21
3.183049
31
0
39
0
210
0
220
0
230
1
0
ENDBLK
5
151
100
AcDbEntity
8
0
100
AcDbBlockEnd
0
ENDSEC
0
SECTION
2
ENTITIES
0
ELLIPSE
5
96
100
AcDbEntity
8
1
62
256
6
ByLayer
370
-1
48
1
60
0
100
AcDbEllipse
10
60.883256
20
-3.565069
30
0
11
0.0547272518424064
21
1.44567754147387
31
0
210
0
220
0
230
1
40
0.994505
41
0.337534128230655
42
0.579194642395839
0
ELLIPSE
5
97
100
AcDbEntity
8
1
62
256
6
ByLayer
370
-1
48
1
60
0
100
AcDbEllipse
10
55.462899
20
-5.855326
30
0
11
0.0397201191698649
21
1.04924845109881
31
0
210
0
220
0
230
1
40
0.994505
41
3.10025939909879
42
-2.56325509470946
0
ELLIPSE
5
98
100
AcDbEntity
8
1
62
256
6
ByLayer
370
-1
48
1
60
0
100
AcDbEllipse
10
60.510012
20
-0.005023
30
0
11
0.190374824569917
21
-10.4208793899739
31
0
210
0
220
0
230
-1
40
0.105084
41
-0.338186178284904
42
-0.0498297884094782
0
ELLIPSE
5
99
100
AcDbEntity
8
1
62
256
6
ByLayer
370
-1
48
1
60
0
100
AcDbEllipse
10
123.957566
20
0.012235
30
0
11
115.160298507681
21
0.0487416164724691
31
0
210
0
220
0
230
-1
40
0.101749
41
2.14322735966644
42
2.14870282230918
0
ELLIPSE
5
9A
100
AcDbEntity
8
1
62
256
6
ByLayer
370
-1
48
1
60
0
100
AcDbEllipse
10
55.058198
20
-5.840006
30
0
11
1.05563495279694
21
0.0183693739523498
31
0
210
0
220
0
230
-1
40
0.994495
41
1.6676719515441
42
-1.51794535288265
0
ELLIPSE
5
9B
100
AcDbEntity
8
1
62
256
6
ByLayer
370
-1
48
1
60
0
100
AcDbEllipse
10
300.77157
20
917.254845
30
0
11
604.825427732726
21
2257.20102243108
31
0
210
4.06756404254584E-31
220
1.6278293487427E-16
230
1
40
0.00562
41
1.98943854969775
42
1.99211719468663
0
ELLIPSE
5
9C
100
AcDbEntity
8
1
62
256
6
ByLayer
370
-1
48
1
60
0
100
AcDbEllipse
10
59.178426
20
-4.596015
30
0
11
0.0547272518424068
21
1.44567754147388
31
0
210
0
220
0
230
1
40
0.994505
41
0.579194642395838
42
0.820855479008475
0
ELLIPSE
5
9D
100
AcDbEntity
8
1
62
256
6
ByLayer
370
-1
48
1
60
0
100
AcDbEllipse
10
59.504332
20
-0.00501
30
0
11
0.189884689838415
21
-10.394050040935
31
0
210
0
220
0
230
-1
40
0.105084
41
-0.0600717708548259
42
-0.0179339488614795
0
ELLIPSE
5
9E
100
AcDbEntity
8
1
62
256
6
ByLayer
370
-1
48
1
60
0
100
AcDbEllipse
10
56.699682
20
-6.759283
30
0
11
0.0472858561545984
21
1.24910529892709
31
0
210
0
220
0
230
1
40
0.994505
41
2.14999096919074
42
2.98401043650684
0
ELLIPSE
5
9F
100
AcDbEntity
8
1
62
256
6
ByLayer
370
-1
48
1
60
0
100
AcDbEllipse
10
55.154294
20
-5.843643
30
0
11
-0.0397201191698737
21
-1.04924845109881
31
0
210
0
220
0
230
1
40
0.994505
41
2.52874704436396
42
-3.13890125724385
0
ELLIPSE
5
A0
100
AcDbEntity
8
1
62
256
6
ByLayer
370
-1
48
1
60
0
100
AcDbEllipse
10
55.494282
20
-5.856514
30
0
11
-0.039720119169876
21
-1.04924845109887
31
0
210
0
220
0
230
1
40
0.994505
41
-1.5331667810025
42
0
0
ELLIPSE
5
A1
100
AcDbEntity
8
1
62
256
6
ByLayer
370
-1
48
1
60
0
100
AcDbEllipse
10
55.494282
20
-5.856514
30
0
11
-0.039720119169876
21
-1.04924845109887
31
0
210
0
220
0
230
1
40
0.994505
41
-2.97800478439439
42
-1.53316678100251
0
ELLIPSE
5
A2
100
AcDbEntity
8
1
62
256
6
ByLayer
370
-1
48
1
60
0
100
AcDbEllipse
10
56.391077
20
-6.747601
30
0
11
0.0472858561545984
21
1.24910529892709
31
0
210
0
220
0
230
1
40
0.994505
41
-2.63490564686439
42
-2.56239801119395
0
ELLIPSE
5
A3
100
AcDbEntity
8
1
62
256
6
ByLayer
370
-1
48
1
60
0
100
AcDbEllipse
10
56.179042
20
-6.530198
30
0
11
1.25670827641253
21
0.021868232019365
31
0
210
0
220
0
230
-1
40
0.994495
41
2.61794032543754
42
2.86988139802142
0
ELLIPSE
5
A4
100
AcDbEntity
8
1
62
256
6
ByLayer
370
-1
48
1
60
0
100
AcDbEllipse
10
56.571609
20
-6.545059
30
0
11
0.0472858561545984
21
1.24910529892709
31
0
210
0
220
0
230
1
40
0.994505
41
1.89804989681895
42
2.14999096919077
0
ELLIPSE
5
A5
100
AcDbEntity
8
1
62
256
6
ByLayer
370
-1
48
1
60
0
100
AcDbEllipse
10
93.819164
20
0.011318
30
0
11
107.516124506784
21
0.0454731379001189
31
0
210
0
220
0
230
-1
40
0.101748
41
1.88343585177866
42
1.89317951545673
0
ELLIPSE
5
A6
100
AcDbEntity
8
1
62
256
6
ByLayer
370
-1
48
1
60
0
100
AcDbEllipse
10
56.308492
20
-6.744475
30
0
11
1.25670827713909
21
0.0218683023047477
31
0
210
0
220
0
230
-1
40
0.994495
41
1.119651690312
42
2.61794038143676
0
ELLIPSE
5
A7
100
AcDbEntity
8
1
62
256
6
ByLayer
370
-1
48
1
60
0
100
AcDbEllipse
10
63.545303
20
-10.503128
30
0
11
-0.0150132593290874
21
-0.396590932409325
31
0
210
0
220
0
230
1
40
0.994505
41
-0.468002908800853
42
1.62639219359245
0
ELLIPSE
5
A8
100
AcDbEntity
8
1
62
256
6
ByLayer
370
-1
48
1
60
0
100
AcDbEllipse
10
60.780971
20
-5.745105
30
0
11
0.0672019766630471
21
1.77521043234878
31
0
210
0
220
0
230
1
40
0.994505
41
2.25863805602227
42
-1.53316617800869
0
ELLIPSE
5
A9
100
AcDbEntity
8
1
62
256
6
ByLayer
370
-1
48
1
60
0
100
AcDbEllipse
10
60.780971
20
-5.745105
30
0
11
0.0672019766630471
21
1.77521043234878
31
0
210
0
220
0
230
1
40
0.994505
41
-1.53316617800869
42
0
0
ELLIPSE
5
AA
100
AcDbEntity
8
1
62
256
6
ByLayer
370
-1
48
1
60
0
100
AcDbEllipse
10
60.780971
20
-5.745105
30
0
11
0.0672019766630471
21
1.77521043234878
31
0
210
0
220
0
230
1
40
0.994505
41
0
42
0.883012827593047
0
ELLIPSE
5
AB
100
AcDbEntity
8
1
62
256
6
ByLayer
370
-1
48
1
60
0
100
AcDbEllipse
10
63.377349
20
-0.881049
30
0
11
-0.0150132593290874
21
-0.396590932409325
31
0
210
0
220
0
230
1
40
0.994505
41
1.62639219359236
42
-2.56239801119404
0
ELLIPSE
5
AC
100
AcDbEntity
8
1
62
256
6
ByLayer
370
-1
48
1
60
0
100
AcDbEllipse
10
60.698869
20
-5.741997
30
0
11
-0.0709287842319134
21
-1.87365794839063
31
0
210
0
220
0
230
1
40
0.994505
41
0
42
6.28318530717959
0
ELLIPSE
5
AD
100
AcDbEntity
8
1
62
256
6
ByLayer
370
-1
48
1
60
0
100
AcDbEllipse
10
60.755649
20
-5.744147
30
0
11
-0.070032337954091
21
-1.84997738327259
31
0
210
0
220
0
230
1
40
0.994505
41
-1.53316639198563
42
-9.64819028587214E-16
0
ELLIPSE
5
AE
100
AcDbEntity
8
1
62
256
6
ByLayer
370
-1
48
1
60
0
100
AcDbEllipse
10
60.755649
20
-5.744147
30
0
11
-0.070032337954091
21
-1.84997738327259
31
0
210
0
220
0
230
1
40
0.994505
41
0
42
0.427776673516989
0
ELLIPSE
5
AF
100
AcDbEntity
8
1
62
256
6
ByLayer
370
-1
48
1
60
0
100
AcDbEllipse
10
60.755649
20
-5.744147
30
0
11
-0.070032337954091
21
-1.84997738327259
31
0
210
0
220
0
230
1
40
0.994505
41
2.71387427048186
42
-1.53316639198562
0
ELLIPSE
5
B0
100
AcDbEntity
8
1
62
256
6
ByLayer
370
-1
48
1
60
0
100
AcDbEllipse
10
55.173956
20
-5.841814
30
0
11
-0.0150132593290874
21
-0.396590932409325
31
0
210
0
220
0
230
1
40
0.994505
41
-2.56239801119399
42
-0.46800290880077
0
ELLIPSE
5
B1
100
AcDbEntity
8
1
62
256
6
ByLayer
370
-1
48
1
60
0
100
AcDbEllipse
10
59.955268
20
-5.760385
30
0
11
0.00699830671088059
21
0.184867584241209
31
0
210
0
220
0
230
1
40
0.994505
41
0.327464700311855
42
2.92707716908266
0
ELLIPSE
5
B2
100
AcDbEntity
8
1
62
256
6
ByLayer
370
-1
48
1
60
0
100
AcDbEllipse
10
60.800487
20
-5.745844
30
0
11
0.0282958563229118
21
0.747464610877971
31
0
210
0
220
0
230
1
40
0.994505
41
-1.81216004601531
42
-1.19378816707495
0
ELLIPSE
5
B3
100
AcDbEntity
8
1
62
256
6
ByLayer
370
-1
48
1
60
0
100
AcDbEllipse
10
60.790026
20
-5.745448
30
0
11
-0.0652544814933604
21
-1.72376531251938
31
0
210
0
220
0
230
1
40
0.994505
41
0
42
3.14149420946124
0
ELLIPSE
5
B4
100
AcDbEntity
8
1
62
256
6
ByLayer
370
-1
48
1
60
0
100
AcDbEllipse
10
60.695875
20
-5.741884
30
0
11
-0.0391526888960163
21
-1.03425918751163
31
0
210
0
220
0
230
1
40
0.994505
41
1.62553421393253
42
2.67444772444896
0
ELLIPSE
5
B5
100
AcDbEntity
8
1
62
256
6
ByLayer
370
-1
48
1
60
0
100
AcDbEllipse
10
60.800487
20
-5.745844
30
0
11
0.0282958563229118
21
0.747464610877971
31
0
210
0
220
0
230
1
40
0.994505
41
-3.08556779696235
42
-2.33011120342408
0
ELLIPSE
5
B6
100
AcDbEntity
8
1
62
256
6
ByLayer
370
-1
48
1
60
0
100
AcDbEllipse
10
60.695875
20
-5.741884
30
0
11
-0.0391526888960163
21
-1.03425918751163
31
0
210
0
220
0
230
1
40
0.994505
41
0.579194642395845
42
1.62553421393253
0
ELLIPSE
5
B7
100
AcDbEntity
8
1
62
256
6
ByLayer
370
-1
48
1
60
0
100
AcDbEllipse
10
60.71407
20
-5.742573
30
0
11
-0.06525448149336
21
-1.72376531251937
31
0
210
0
220
0
230
1
40
0.994505
41
0
42
6.28318530717959
0
ELLIPSE
5
B8
100
AcDbEntity
8
1
62
256
6
ByLayer
370
-1
48
1
60
0
100
AcDbEllipse
10
60.800487
20
-5.745844
30
0
11
0.028295856322911
21
0.747464610877949
31
0
210
0
220
0
230
1
40
0.994505
41
2.18772232110704
42
3.05834671959941
0
ELLIPSE
5
B9
100
AcDbEntity
8
1
62
256
6
ByLayer
370
-1
48
1
60
0
100
AcDbEllipse
10
60.821405
20
-6.915637
30
0
11
0.0159637050377925
21
0.421697948917785
31
0
210
0
220
0
230
1
40
0.994505
41
-0.718874871224922
42
-1.11692644761865E-05
0
ELLIPSE
5
BA
100
AcDbEntity
8
1
62
256
6
ByLayer
370
-1
48
1
60
0
100
AcDbEllipse
10
60.695875
20
-5.741884
30
0
11
-0.0491772904007929
21
-1.29906951088416
31
0
210
0
220
0
230
1
40
0.994505
41
0
42
6.28318530717959
0
ELLIPSE
5
BB
100
AcDbEntity
8
1
62
256
6
ByLayer
370
-1
48
1
60
0
100
AcDbEllipse
10
59.782984
20
-5.178707
30
0
11
0.0159637050377925
21
0.421697948917785
31
0
210
0
220
0
230
1
40
0.994505
41
-2.03922822542556
42
-1.26432849757323
0
ELLIPSE
5
BC
100
AcDbEntity
8
1
62
256
6
ByLayer
370
-1
48
1
60
0
100
AcDbEllipse
10
59.782984
20
-5.178707
30
0
11
0.0159637050377925
21
0.421697948917785
31
0
210
0
220
0
230
1
40
0.994505
41
-2.81412795327795
42
-2.03922822542556
0
ELLIPSE
5
BD
100
AcDbEntity
8
1
62
256
6
ByLayer
370
-1
48
1
60
0
100
AcDbEllipse
10
60.695875
20
-5.741884
30
0
11
-0.0391526888960163
21
-1.03425918751163
31
0
210
0
220
0
230
1
40
0.994505
41
-1.51605843965726
42
-0.467144929140945
0
ELLIPSE
5
BE
100
AcDbEntity
8
1
62
256
6
ByLayer
370
-1
48
1
60
0
100
AcDbEllipse
10
61.209608
20
-5.001859
30
0
11
0.00699830671088059
21
0.184867584241209
31
0
210
0
220
0
230
1
40
0.994505
41
0.275296277964794
42
0.830924584479989
0
ELLIPSE
5
BF
100
AcDbEntity
8
1
62
256
6
ByLayer
370
-1
48
1
60
0
100
AcDbEllipse
10
61.235937
20
-6.474206
30
0
11
0.00699830671088059
21
0.184867584241209
31
0
210
0
220
0
230
1
40
0.994505
41
2.42271778236477
42
2.86260263512074
0
ELLIPSE
5
C0
100
AcDbEntity
8
1
62
256
6
ByLayer
370
-1
48
1
60
0
100
AcDbEllipse
10
60.365037
20
-5.017482
30
0
11
0.00699830671088059
21
0.184867584241209
31
0
210
0
220
0
230
1
40
0.994505
41
0.295645391377229
42
1.87726415601678
0
ELLIPSE
5
C1
100
AcDbEntity
8
1
62
256
6
ByLayer
370
-1
48
1
60
0
100
AcDbEllipse
10
60.800487
20
-5.745844
30
0
11
0.0282958563229118
21
0.747464610877971
31
0
210
0
220
0
230
1
40
0.994505
41
0.218633148730854
42
1.10236442816424
0
ELLIPSE
5
C2
100
AcDbEntity
8
1
62
256
6
ByLayer
370
-1
48
1
60
0
100
AcDbEllipse
10
60.695875
20
-5.741884
30
0
11
-0.0391526888960163
21
-1.03425918751163
31
0
210
0
220
0
230
1
40
0.994505
41
2.67444772444896
42
-2.56239801119395
0
ELLIPSE
5
C3
100
AcDbEntity
8
1
62
256
6
ByLayer
370
-1
48
1
60
0
100
AcDbEllipse
10
60.695875
20
-5.741884
30
0
11
-0.0391526888960163
21
-1.03425918751163
31
0
210
0
220
0
230
1
40
0.994505
41
-0.467144929140945
42
0.579194642395845
0
ELLIPSE
5
C4
100
AcDbEntity
8
1
62
256
6
ByLayer
370
-1
48
1
60
0
100
AcDbEllipse
10
60.800487
20
-5.745844
30
0
11
0.0282958563229118
21
0.747464610877971
31
0
210
0
220
0
230
1
40
0.994505
41
1.10236442816424
42
2.1122596172744
0
ELLIPSE
5
C5
100
AcDbEntity
8
1
62
256
6
ByLayer
370
-1
48
1
60
0
100
AcDbEllipse
10
60.800487
20
-5.745844
30
0
11
0.0282958563229118
21
0.747464610877971
31
0
210
0
220
0
230
1
40
0.994505
41
-0.693475796976354
42
0.0560248566274873
0
ELLIPSE
5
C6
100
AcDbEntity
8
1
62
256
6
ByLayer
370
-1
48
1
60
0
100
AcDbEllipse
10
60.713209
20
-5.74254
30
0
11
-0.028295856322918
21
-0.747464610877969
31
0
210
0
220
0
230
1
40
0.994505
41
2.1122596172741
42
2.18772232110737
0
ELLIPSE
5
C7
100
AcDbEntity
8
1
62
256
6
ByLayer
370
-1
48
1
60
0
100
AcDbEllipse
10
59.80442
20
-6.348186
30
0
11
0.0159637050377925
21
0.421697948917785
31
0
210
0
220
0
230
1
40
0.994505
41
-0.924688362084126
42
-0.214515484507338
0
ELLIPSE
5
C8
100
AcDbEntity
8
1
62
256
6
ByLayer
370
-1
48
1
60
0
100
AcDbEllipse
10
59.80442
20
-6.348186
30
0
11
0.0159637050377925
21
0.421697948917785
31
0
210
0
220
0
230
1
40
0.994505
41
-1.76868788429088
42
-1.05851500671392
0
ELLIPSE
5
C9
100
AcDbEntity
8
1
62
256
6
ByLayer
370
-1
48
1
60
0
100
AcDbEllipse
10
60.779569
20
-4.576051
30
0
11
0.0159637050377925
21
0.421697948917785
31
0
210
0
220
0
230
1
40
0.994505
41
3.14158244628772
42
-3.08556779696228
0
ELLIPSE
5
CA
100
AcDbEntity
8
1
62
256
6
ByLayer
370
-1
48
1
60
0
100
AcDbEllipse
10
60.713209
20
-5.74254
30
0
11
-0.028295856322918
21
-0.747464610877969
31
0
210
0
220
0
230
1
40
0.994505
41
-1.0293330363154
42
-0.953870332482784
0
ELLIPSE
5
CB
100
AcDbEntity
8
1
62
256
6
ByLayer
370
-1
48
1
60
0
100
AcDbEllipse
10
60.391365
20
-6.489829
30
0
11
0.00699830671088059
21
0.184867584241209
31
0
210
0
220
0
230
1
40
0.994505
41
1.37290476929872
42
2.88701925553505
0
ELLIPSE
5
CC
100
AcDbEntity
8
1
62
256
6
ByLayer
370
-1
48
1
60
0
100
AcDbEllipse
10
60.695875
20
-5.741884
30
0
11
-0.0391526888960163
21
-1.03425918751163
31
0
210
0
220
0
230
1
40
0.994505
41
-2.56239801119395
42
-1.51605843965726
0
ELLIPSE
5
CD
100
AcDbEntity
8
1
62
256
6
ByLayer
370
-1
48
1
60
0
100
AcDbEllipse
10
60.800487
20
-5.745844
30
0
11
-0.0282958563229179
21
-0.747464610877965
31
0
210
0
220
0
230
1
40
0.994505
41
-1.02933303631542
42
-0.953870332482745
0
POINT
5
41
100
AcDbEntity
8
80
62
256
6
ByLayer
370
-1
48
1
60
0
100
AcDbPoint
10
0
20
0
30
0
39
0
210
0
220
0
230
1
50
360
0
POINT
5
43
100
AcDbEntity
8
81
62
256
6
ByLayer
370
-1
48
1
60
0
100
AcDbPoint
10
63.94
20
-10.9
30
0
39
0
210
0
220
0
230
1
50
360
0
POINT
5
45
100
AcDbEntity
8
1
62
256
6
ByLayer
370
-1
48
1
60
0
100
AcDbPoint
10
-137.31
20
0
30
0
39
0
210
0
220
0
230
1
50
360
0
POINT
5
47
100
AcDbEntity
8
2
62
256
6
ByLayer
370
-1
48
1
60
0
100
AcDbPoint
10
63.94
20
10.9
30
0
39
0
210
0
220
0
230
1
50
360
0
SPLINE
5
CE
100
AcDbEntity
8
1
62
256
6
ByLayer
370
-1
48
1
60
0
100
AcDbSpline
70
4
71
3
72
26
73
22
40
-0.125
40
-0.125
40
0
40
0
40
0.125000000000003
40
0.125000000000003
40
0.187500000000002
40
0.187500000000002
40
0.250000000000002
40
0.250000000000002
40
0.375000000000001
40
0.375000000000001
40
0.500000000000001
40
0.500000000000001
40
0.625000000000001
40
0.625000000000001
40
0.687500000000001
40
0.687500000000001
40
0.750000000000001
40
0.750000000000001
40
0.875
40
0.875
40
1
40
1
40
1.125
40
1.125
41
1
10
47.6788747192145
20
-2.19425742888987
30
0
41
1
10
46.6884390007993
20
-1.76414925939949
30
0
41
1
10
46.1651231201153
20
-1.63659939748922
30
0
41
1
10
45.4347774778133
20
-1.9260585078716
30
0
41
1
10
45.2025501815999
20
-2.12562056989461
30
0
41
1
10
44.9313289464189
20
-2.6879052279655
30
0
41
1
10
44.9019677371244
20
-3.03223303272017
30
0
41
1
10
45.0631105271502
20
-3.9083864405757
30
0
41
1
10
45.438154163894
20
-4.32483450657807
30
0
41
1
10
46.3039827622214
20
-4.91218624228432
30
0
41
1
10
46.8206885965844
20
-5.09963561060357
30
0
41
1
10
47.9117588843307
20
-5.33543360139959
30
0
41
1
10
48.5058028833449
20
-5.39762976045478
30
0
41
1
10
49.4016114432935
20
-5.31102919480162
30
0
41
1
10
49.7423843138315
20
-5.27626791233007
30
0
41
1
10
50.1707428418094
20
-4.80738192956983
30
0
41
1
10
50.0093870384283
20
-4.43125115458224
30
0
41
1
10
49.500138437953
20
-3.64907277438425
30
0
41
1
10
49.0503718148839
20
-3.24082372240855
30
0
41
1
10
48.144816234005
20
-2.5046458842242
30
0
41
1
10
47.6788747192145
20
-2.19425742888987
30
0
41
1
10
46.6884390007993
20
-1.76414925939949
30
0
0
SPLINE
5
CF
100
AcDbEntity
8
1
62
256
6
ByLayer
370
-1
48
1
60
0
100
AcDbSpline
70
4
71
3
72
8
73
4
40
0
40
0
40
0
40
0
40
1
40
1
40
1
40
1
41
1
10
48.9468237715849
20
7.59380002386354
30
0
41
1
10
49.1252016376133
20
7.62947514953751
30
0
41
1
10
49.30650836735
20
7.66112484660158
30
0
41
1
10
49.4904374252067
20
7.68921032385239
30
0
0
SPLINE
5
D0
100
AcDbEntity
8
1
62
256
6
ByLayer
370
-1
48
1
60
0
100
AcDbSpline
70
4
71
3
72
10
73
6
40
0
40
0
40
0
40
0
40
0.5
40
0.5
40
1
40
1
40
1
40
1
41
1
10
41.8427447052214
20
-2.76225564530168
30
0
41
1
10
41.7546251641886
20
-3.69479192222928
30
0
41
1
10
41.7824199422841
20
-4.57959602118788
30
0
41
1
10
42.2315492448851
20
-6.04802530874596
30
0
41
1
10
42.6615010969672
20
-6.61749865990041
30
0
41
1
10
43.257908281434
20
-7.00750000000048
30
0
0
SPLINE
5
D1
100
AcDbEntity
8
1
62
256
6
ByLayer
370
-1
48
1
60
0
100
AcDbSpline
70
4
71
3
72
8
73
4
40
0
40
0
40
0
40
0
40
1
40
1
40
1
40
1
41
1
10
50.7718835887244
20
-7.91699065053061
30
0
41
1
10
51.3591054046906
20
-8.35651077889867
30
0
41
1
10
51.9472129051697
20
-8.79612947999044
30
0
41
1
10
52.5349823588817
20
-9.23743941541673
30
0
0
SPLINE
5
D2
100
AcDbEntity
8
1
62
256
6
ByLayer
370
-1
48
1
60
0
100
AcDbSpline
70
4
71
3
72
8
73
4
40
0
40
0
40
0
40
0
40
1
40
1
40
1
40
1
41
1
10
59.7137735682826
20
-10.3970305877469
30
0
41
1
10
57.7664569603066
20
-10.3450601102469
30
0
41
1
10
55.8191403607488
20
-10.2930893173269
30
0
41
1
10
53.8718237699999
20
-10.2411181943559
30
0
0
SPLINE
5
D3
100
AcDbEntity
8
1
62
256
6
ByLayer
370
-1
48
1
60
0
100
AcDbSpline
70
4
71
3
72
10
73
6
40
0
40
0
40
0
40
0
40
0.5
40
0.5
40
1
40
1
40
1
40
1
41
1
10
48.871823771585
20
7.6526459145694
30
0
41
1
10
47.5914388009798
20
7.38712851808208
30
0
41
1
10
46.4905471831437
20
6.90731355419052
30
0
41
1
10
44.6348922371424
20
5.27012446214749
30
0
41
1
10
43.8971864133107
20
4.11680694312579
30
0
41
1
10
43.3082087973406
20
2.76225564530134
30
0
0
SPLINE
5
D4
100
AcDbEntity
8
1
62
256
6
ByLayer
370
-1
48
1
60
0
100
AcDbSpline
70
4
71
3
72
8
73
4
40
0
40
0
40
0
40
0
40
1
40
1
40
1
40
1
41
1
10
52.5349823588817
20
-9.23743941541673
30
0
41
1
10
52.9805880836485
20
-9.57200976843609
30
0
41
1
10
53.4262026792342
20
-9.90656830720488
30
0
41
1
10
53.8718237699999
20
-10.2411181943559
30
0
0
SPLINE
5
D5
100
AcDbEntity
8
1
62
256
6
ByLayer
370
-1
48
1
60
0
100
AcDbSpline
70
4
71
3
72
8
73
4
40
0
40
0
40
0
40
0
40
1
40
1
40
1
40
1
41
1
10
48.8718237715847
20
7.65264591456904
30
0
41
1
10
48.8967930753971
20
7.63315150332025
30
0
41
1
10
48.9217929437511
20
7.61353562777495
30
0
41
1
10
48.946823771585
20
7.59380002386362
30
0
0
SPLINE
5
D6
100
AcDbEntity
8
1
62
256
6
ByLayer
370
-1
48
1
60
0
100
AcDbSpline
70
4
71
3
72
8
73
4
40
0
40
0
40
0
40
0
40
1
40
1
40
1
40
1
41
1
10
50.7718835887246
20
-7.91699065053032
30
0
41
1
10
50.3768449098242
20
-7.91767242834266
30
0
41
1
10
49.9840017144147
20
-7.91791346645081
30
0
41
1
10
49.5955672876077
20
-7.91624351760808
30
0
0
SPLINE
5
D7
100
AcDbEntity
8
1
62
256
6
ByLayer
370
-1
48
1
60
0
100
AcDbSpline
70
4
71
3
72
14
73
10
40
0
40
0
40
0
40
0
40
0.28341655542354
40
0.28341655542354
40
0.570768372681963
40
0.570768372681963
40
0.831141200035612
40
0.831141200035612
40
1
40
1
40
1
40
1
41
1
10
61.3158302521129
20
-6.42137715705411
30
0
41
1
10
61.3202540602016
20
-6.4416569527711
30
0
41
1
10
61.3213676205874
20
-6.46356061119786
30
0
41
1
10
61.3158976591174
20
-6.50745466970545
30
0
41
1
10
61.3090833487478
20
-6.53011816611502
30
0
41
1
10
61.2886752717529
20
-6.56985153980719
30
0
41
1
10
61.2754381804548
20
-6.58782909683617
30
0
41
1
10
61.2495653549632
20
-6.61270166944797
30
0
41
1
10
61.2381686168686
20
-6.62147296276368
30
0
41
1
10
61.2260992248489
20
-6.62877157896068
30
0
0
SPLINE
5
D8
100
AcDbEntity
8
1
62
256
6
ByLayer
370
-1
48
1
60
0
100
AcDbSpline
70
4
71
3
72
16
73
12
40
0
40
0
40
0
40
0
40
0.0602829014677044
40
0.0602829014677044
40
0.284939766574961
40
0.284939766574961
40
0.512204878741018
40
0.512204878741018
40
0.753730781328278
40
0.753730781328278
40
1
40
1
40
1
40
1
41
1
10
61.7250526814149
20
-5.72417806879474
30
0
41
1
10
61.7251369485684
20
-5.72925393742418
30
0
41
1
10
61.7250233915213
20
-5.73433902380134
30
0
41
1
10
61.7235651591056
20
-5.75813781607135
30
0
41
1
10
61.7196258888247
20
-5.77687406317546
30
0
41
1
10
61.7069614296552
20
-5.81159947846922
30
0
41
1
10
61.6980331332007
20
-5.82800200237119
30
0
41
1
10
61.6761121514605
20
-5.85741941360564
30
0
41
1
10
61.6626400678342
20
-5.87053820647245
30
0
41
1
10
61.6333487941754
20
-5.8915669712857
30
0
41
1
10
61.6171794282586
20
-5.89962308115886
30
0
41
1
10
61.6007105215435
20
-5.90489442802948
30
0
0
SPLINE
5
D9
100
AcDbEntity
8
1
62
256
6
ByLayer
370
-1
48
1
60
0
100
AcDbSpline
70
4
71
3
72
18
73
14
40
0
40
0
40
0
40
0
40
0.0108747927312768
40
0.0108747927312768
40
0.23681118310506
40
0.23681118310506
40
0.46251547630213
40
0.46251547630213
40
0.700169370105693
40
0.700169370105693
40
0.959511512642214
40
0.959511512642214
40
1
40
1
40
1
40
1
41
1
10
59.6666972503769
20
-5.7595893879832
30
0
41
1
10
59.6666819676647
20
-5.7586688271715
30
0
41
1
10
59.666673860458
20
-5.75774813026555
30
0
41
1
10
59.6666538447378
20
-5.73794576537205
30
0
41
1
10
59.6697517099563
20
-5.7188213708304
30
0
41
1
10
59.681481963606
20
-5.68321688935691
30
0
41
1
10
59.690246269919
20
-5.6662736546225
30
0
41
1
10
59.712445480813
20
-5.63563159254613
30
0
41
1
10
59.7263656780692
20
-5.6217563953256
30
0
41
1
10
59.7582813450591
20
-5.59816724892863
30
0
41
1
10
59.7769192267693
20
-5.58863502848982
30
0
41
1
10
59.7991431004954
20
-5.58121253992269
30
0
41
1
10
59.8021925430947
20
-5.5802747293111
30
0
41
1
10
59.805257081308
20
-5.57941124978589
30
0
0
SPLINE
5
DA
100
AcDbEntity
8
1
62
256
6
ByLayer
370
-1
48
1
60
0
100
AcDbSpline
70
4
71
3
72
14
73
10
40
0
40
0
40
0
40
0
40
0.20779817890451
40
0.20779817890451
40
0.504006693968986
40
0.504006693968986
40
0.771730898650083
40
0.771730898650083
40
1
40
1
40
1
40
1
41
1
10
59.8118248738532
20
-5.93584381335728
30
0
41
1
10
59.7960490566799
20
-5.9319419419748
30
0
41
1
10
59.7805015917841
20
-5.92605145397729
30
0
41
1
10
59.7451614310191
20
-5.90721238844881
30
0
41
1
10
59.7257888216506
20
-5.89193156916267
30
0
41
1
10
59.6959428875031
20
-5.8568836107867
30
0
41
1
10
59.6843698251942
20
-5.83712514838919
30
0
41
1
10
59.6705542209989
20
-5.79814140077309
30
0
41
1
10
59.6670154575343
20
-5.77875673445172
30
0
41
1
10
59.6666972503769
20
-5.7595893879832
30
0
0
SPLINE
5
DB
100
AcDbEntity
8
1
62
256
6
ByLayer
370
-1
48
1
60
0
100
AcDbSpline
70
4
71
3
72
14
73
10
40
0
40
0
40
0
40
0
40
0.0230936439826255
40
0.0230936439826255
40
0.361881629292706
40
0.361881629292706
40
0.802302350439062
40
0.802302350439062
40
1
40
1
40
1
40
1
41
1
10
61.3359065965203
20
-5.33306181149396
30
0
41
1
10
61.3347754286244
20
-5.33087621462494
30
0
41
1
10
61.3336616869162
20
-5.32868161614226
30
0
41
1
10
61.3166653862796
20
-5.29452063404514
30
0
41
1
10
61.3044515208327
20
-5.26045314005484
30
0
41
1
10
61.2860320609612
20
-5.18315953401753
30
0
41
1
10
61.2822898530978
20
-5.1389616551879
30
0
41
1
10
61.2854912131915
20
-5.07817726459709
30
0
41
1
10
61.2876977848687
20
-5.05951806429874
30
0
41
1
10
61.2910277717556
20
-5.04133858792798
30
0
0
SPLINE
5
DC
100
AcDbEntity
8
1
62
256
6
ByLayer
370
-1
48
1
60
0
100
AcDbSpline
70
4
71
3
72
14
73
10
40
0
40
0
40
0
40
0
40
0.269404695309404
40
0.269404695309404
40
0.558510860754679
40
0.558510860754679
40
0.82029093198749
40
0.82029093198749
40
1
40
1
40
1
40
1
41
1
10
60.0901373507414
20
-5.06292852076058
30
0
41
1
10
60.0837712084493
20
-5.0435664298661
30
0
41
1
10
60.0804952746166
20
-5.02275923022498
30
0
41
1
10
60.0813454203686
20
-4.97970111340027
30
0
41
1
10
60.0860927041758
20
-4.95677832845632
30
0
41
1
10
60.1034411378682
20
-4.91647860909995
30
0
41
1
10
60.1155552918639
20
-4.89818951607924
30
0
41
1
10
60.1409107125073
20
-4.87220900881661
30
0
41
1
10
60.1528089963286
20
-4.86276153137581
30
0
41
1
10
60.1656507069429
20
-4.85499587781729
30
0
0
SPLINE
5
DD
100
AcDbEntity
8
1
62
256
6
ByLayer
370
-1
48
1
60
0
100
AcDbSpline
70
4
71
3
72
18
73
14
40
0
40
0
40
0
40
0
40
0.213048825175515
40
0.213048825175515
40
0.388712158384375
40
0.388712158384375
40
0.56601768961002
40
0.56601768961002
40
0.720946869296956
40
0.720946869296956
40
0.927120762302777
40
0.927120762302777
40
1
40
1
40
1
40
1
41
1
10
60.0901373507414
20
-5.06292852076061
30
0
41
1
10
60.1038885698747
20
-5.104751707009
30
0
41
1
10
60.111406017487
20
-5.14978765701275
30
0
41
1
10
60.1105938817544
20
-5.23324703017218
30
0
41
1
10
60.1046929446719
20
-5.2723814900483
30
0
41
1
10
60.0807473420867
20
-5.34785649697247
30
0
41
1
10
60.0621133533248
20
-5.38524007352552
30
0
41
1
10
60.0180851908481
20
-5.44704757796239
30
0
41
1
10
59.9933712531599
20
-5.473280233905
30
0
41
1
10
59.9311325940605
20
-5.52479238409961
30
0
41
1
10
59.8911121355962
20
-5.54789799369317
30
0
41
1
10
59.8352709365863
20
-5.5701183420575
30
0
41
1
10
59.8203288421059
20
-5.57516455552002
30
0
41
1
10
59.805257081308
20
-5.57941124978586
30
0
0
SPLINE
5
DE
100
AcDbEntity
8
1
62
256
6
ByLayer
370
-1
48
1
60
0
100
AcDbSpline
70
4
71
3
72
18
73
14
40
0
40
0
40
0
40
0
40
0.208711321212743
40
0.208711321212743
40
0.385133385203354
40
0.385133385203354
40
0.563248515744894
40
0.563248515744894
40
0.718325317602114
40
0.718325317602114
40
0.923729377266075
40
0.923729377266075
40
1
40
1
40
1
40
1
41
1
10
61.3158302521129
20
-6.42137715705411
30
0
41
1
10
61.3069309108197
20
-6.38058044530302
30
0
41
1
10
61.3037519423676
20
-6.33670920508609
30
0
41
1
10
61.3103850681205
20
-6.25434840449475
30
0
41
1
10
61.3184275777868
20
-6.2151412284725
30
0
41
1
10
61.3447438620954
20
-6.13935017830505
30
0
41
1
10
61.3635949571226
20
-6.10170829064558
30
0
41
1
10
61.4059916930519
20
-6.039447860607
30
0
41
1
10
61.4290866454742
20
-6.01300154360115
30
0
41
1
10
61.4861477042511
20
-5.96109702811665
30
0
41
1
10
61.5221214274024
20
-5.93773225442064
30
0
41
1
10
61.5726323056189
20
-5.9147880210208
30
0
41
1
10
61.5866222969235
20
-5.90940376918095
30
0
41
1
10
61.6007105215435
20
-5.90489442802951
30
0
0
SPLINE
5
DF
100
AcDbEntity
8
1
62
256
6
ByLayer
370
-1
48
1
60
0
100
AcDbSpline
70
4
71
3
72
16
73
12
40
0
40
0
40
0
40
0
40
0.17308779036949
40
0.17308779036949
40
0.396893053039297
40
0.396893053039297
40
0.62941010748698
40
0.62941010748698
40
0.881061968621741
40
0.881061968621741
40
1
40
1
40
1
40
1
41
1
10
60.1977092614518
20
-6.64779488438978
30
0
41
1
10
60.1850798604681
20
-6.64077684429296
30
0
41
1
10
60.1732719027191
20
-6.63218085298183
30
0
41
1
10
60.1493773800693
20
-6.60988335434709
30
0
41
1
10
60.1379375946498
20
-6.59511999999279
30
0
41
1
10
60.1202348103439
20
-6.5630906601879
30
0
41
1
10
60.1139517756525
20
-6.54535489241061
30
0
41
1
10
60.106936735319
20
-6.508307756817
30
0
41
1
10
60.1065948774288
20
-6.48852782392717
30
0
41
1
10
60.1105064412531
20
-6.46056232592761
30
0
41
1
10
60.112446868943
20
-6.45164919324344
30
0
41
1
10
60.1150091544641
20
-6.4429697141766
30
0
0
SPLINE
5
E0
100
AcDbEntity
8
1
62
256
6
ByLayer
370
-1
48
1
60
0
100
AcDbSpline
70
4
71
3
72
14
73
10
40
0
40
0
40
0
40
0
40
0.277213769147278
40
0.277213769147278
40
0.564781028189068
40
0.564781028189068
40
0.82523883884613
40
0.82523883884613
40
1
40
1
40
1
40
1
41
1
10
61.594212052367
20
-5.54846448874858
30
0
41
1
10
61.6130027560545
20
-5.55357957833192
30
0
41
1
10
61.6315721127556
20
-5.56228957645328
30
0
41
1
10
61.6656695070987
20
-5.58672611849903
30
0
41
1
10
61.6815670266798
20
-5.6031203157907
30
0
41
1
10
61.7053581184566
20
-5.63952201559974
30
0
41
1
10
61.7141938628508
20
-5.65961419145432
30
0
41
1
10
61.7228753581779
20
-5.69470691755583
30
0
41
1
10
61.7248087841116
20
-5.70948680870774
30
0
41
1
10
61.7250526814149
20
-5.72417806879474
30
0
0
SPLINE
5
E1
100
AcDbEntity
8
1
62
256
6
ByLayer
370
-1
48
1
60
0
100
AcDbSpline
70
4
71
3
72
12
73
8
40
0
40
0
40
0
40
0
40
0.418822729705922
40
0.418822729705922
40
0.808089069084448
40
0.808089069084448
40
1
40
1
40
1
40
1
41
1
10
61.5942120523669
20
-5.54846448874898
30
0
41
1
10
61.5585594995025
20
-5.53875937047306
30
0
41
1
10
61.5230730846726
20
-5.52340781241949
30
0
41
1
10
61.458472538473
20
-5.48281061707851
30
0
41
1
10
61.428370396692
20
-5.45776960337639
30
0
41
1
10
61.3886070234806
20
-5.41375522128752
30
0
41
1
10
61.3761799717644
20
-5.39800904673041
30
0
41
1
10
61.3648167336285
20
-5.38141880181766
30
0
0
SPLINE
5
E2
100
AcDbEntity
8
1
62
256
6
ByLayer
370
-1
48
1
60
0
100
AcDbSpline
70
4
71
3
72
16
73
12
40
0
40
0
40
0
40
0
40
0.0661965600748235
40
0.0661965600748235
40
0.290638196628087
40
0.290638196628087
40
0.518021160033199
40
0.518021160033199
40
0.759929214196159
40
0.759929214196159
40
1
40
1
40
1
40
1
41
1
10
61.2260992248489
20
-6.62877157896068
30
0
41
1
10
61.2213475683065
20
-6.63164500600215
30
0
41
1
10
61.2164730808672
20
-6.63430595149757
30
0
41
1
10
61.1948007167224
20
-6.64491886184075
30
0
41
1
10
61.1767976329605
20
-6.65053755651519
30
0
41
1
10
61.1409226180232
20
-6.65602851361999
30
0
41
1
10
61.1226004787407
20
-6.65590918823719
30
0
41
1
10
61.0869897169739
20
-6.65023706903585
30
0
41
1
10
61.0693922002677
20
-6.6442865044371
30
0
41
1
10
61.0380958965082
20
-6.62784697901373
30
0
41
1
10
61.024021847134
20
-6.61725352407956
30
0
41
1
10
61.012093665174
20
-6.60505308451178
30
0
0
SPLINE
5
E3
100
AcDbEntity
8
1
62
256
6
ByLayer
370
-1
48
1
60
0
100
AcDbSpline
70
4
71
3
72
16
73
12
40
0
40
0
40
0
40
0
40
0.105850073425377
40
0.105850073425377
40
0.419241241386856
40
0.419241241386856
40
0.698391460185723
40
0.698391460185723
40
0.945196475432953
40
0.945196475432953
40
1
40
1
40
1
40
1
41
1
10
60.4249286581007
20
-6.6159145472509
30
0
41
1
10
60.4189829166689
20
-6.62153428986281
30
0
41
1
10
60.4126417324555
20
-6.62684283266375
30
0
41
1
10
60.3863367847318
20
-6.64622910582989
30
0
41
1
10
60.3631853580201
20
-6.65763433223003
30
0
41
1
10
60.3167516769285
20
-6.67007435605006
30
0
41
1
10
60.2930239917416
20
-6.67225189707557
30
0
41
1
10
60.2494314779319
20
-6.66810771108874
30
0
41
1
10
60.228806034906
20
-6.66265443078464
30
0
41
1
10
60.2058717926788
20
-6.65212684023152
30
0
41
1
10
60.2017424691316
20
-6.65003610020449
30
0
41
1
10
60.1977092614518
20
-6.64779488438978
30
0
0
SPLINE
5
E4
100
AcDbEntity
8
1
62
256
6
ByLayer
370
-1
48
1
60
0
100
AcDbSpline
70
4
71
3
72
18
73
14
40
0
40
0
40
0
40
0
40
0.206993835691219
40
0.206993835691219
40
0.383697663996923
40
0.383697663996923
40
0.562114229412538
40
0.562114229412538
40
0.717237239231103
40
0.717237239231103
40
0.922322896993094
40
0.922322896993094
40
1
40
1
40
1
40
1
41
1
10
60.424928658098
20
-6.61591454724899
30
0
41
1
10
60.4565523185331
20
-6.58602477923114
30
0
41
1
10
60.4935206014275
20
-6.55963050152241
30
0
41
1
10
60.5690459347041
20
-6.52136968247092
30
0
41
1
10
60.6074778949815
20
-6.50759504775939
30
0
41
1
10
60.6867177670217
20
-6.49114244764576
30
0
41
1
10
60.7287266236183
20
-6.48844328556217
30
0
41
1
10
60.80326827496
20
-6.49463766306189
30
0
41
1
10
60.8372260297053
20
-6.50208503140547
30
0
41
1
10
60.9091892214486
20
-6.52768869476105
30
0
41
1
10
60.9462911640395
20
-6.54882280199902
30
0
41
1
10
60.9900259208887
20
-6.5838000453648
30
0
41
1
10
61.0014301514342
20
-6.59414617888251
30
0
41
1
10
61.0120936651741
20
-6.60505308451164
30
0
0
SPLINE
5
E5
100
AcDbEntity
8
1
62
256
6
ByLayer
370
-1
48
1
60
0
100
AcDbSpline
70
4
71
3
72
12
73
8
40
0
40
0
40
0
40
0
40
0.459519690067314
40
0.459519690067314
40
0.841749585695352
40
0.841749585695352
40
1
40
1
40
1
40
1
41
1
10
59.8118248738537
20
-5.93584381335631
30
0
41
1
10
59.8555646357203
20
-5.94666207546163
30
0
41
1
10
59.8989008169943
20
-5.96429936469454
30
0
41
1
10
59.9718881069471
20
-6.00908613471734
30
0
41
1
10
60.0033760869009
20
-6.03472855126657
30
0
41
1
10
60.041509090545
20
-6.07682150696013
30
0
41
1
10
60.0520083314521
20
-6.08995483890811
30
0
41
1
10
60.0616014369137
20
-6.10366104820076
30
0
0
SPLINE
5
E6
100
AcDbEntity
8
1
62
256
6
ByLayer
370
-1
48
1
60
0
100
AcDbSpline
70
4
71
3
72
16
73
12
40
0
40
0
40
0
40
0
40
0.0561556866932929
40
0.0561556866932929
40
0.28089547198488
40
0.28089547198488
40
0.508010399186836
40
0.508010399186836
40
0.749197077690318
40
0.749197077690318
40
1
40
1
40
1
40
1
41
1
10
60.1656507069429
20
-4.85499587781729
30
0
41
1
10
60.1696833584234
20
-4.85255724831845
30
0
41
1
10
60.1738218091516
20
-4.85027260210313
30
0
41
1
10
60.1948145212169
20
-4.83973756083952
30
0
41
1
10
60.2132166409344
20
-4.83387828257574
30
0
41
1
10
60.2504465400755
20
-4.82795060103231
30
0
41
1
10
60.2697486516284
20
-4.82785402826767
30
0
41
1
10
60.3078350724094
20
-4.83311730323854
30
0
41
1
10
60.3269928557494
20
-4.83886175458179
30
0
41
1
10
60.3626276417111
20
-4.85533230547892
30
0
41
1
10
60.3793852263732
20
-4.86641338549623
30
0
41
1
10
60.3938739376802
20
-4.87925259330288
30
0
0
SPLINE
5
E7
100
AcDbEntity
8
1
62
256
6
ByLayer
370
-1
48
1
60
0
100
AcDbSpline
70
4
71
3
72
14
73
10
40
0
40
0
40
0
40
0
40
0.0488972307600493
40
0.0488972307600493
40
0.385936801430971
40
0.385936801430971
40
0.833220664840599
40
0.833220664840599
40
1
40
1
40
1
40
1
41
1
10
60.0905115740216
20
-6.15201803852409
30
0
41
1
10
60.0928356979624
20
-6.15663265541721
30
0
41
1
10
60.0950644476662
20
-6.16128750783267
30
0
41
1
10
60.1117544278533
20
-6.1980060676172
30
0
41
1
10
60.1217507525412
20
-6.23193374836328
30
0
41
1
10
60.1340834954036
20
-6.3095681253551
30
0
41
1
10
60.1332283865527
20
-6.35416298790548
30
0
41
1
10
60.1231861916374
20
-6.41207639116604
30
0
41
1
10
60.119519249224
20
-6.42769223134462
30
0
41
1
10
60.1150091544641
20
-6.44296971417663
30
0
0
SPLINE
5
E8
100
AcDbEntity
8
1
62
256
6
ByLayer
370
-1
48
1
60
0
100
AcDbSpline
70
4
71
3
72
18
73
14
40
0
40
0
40
0
40
0
40
0.212839747271147
40
0.212839747271147
40
0.388537175188261
40
0.388537175188261
40
0.565879213867415
40
0.565879213867415
40
0.720813455080474
40
0.720813455080474
40
0.926948182223298
40
0.926948182223298
40
1
40
1
40
1
40
1
41
1
10
60.9810389447562
20
-4.86839113056556
30
0
41
1
10
60.9531850799463
20
-4.89930062593461
30
0
41
1
10
60.9193864666266
20
-4.9265165136398
30
0
41
1
10
60.8488896134371
20
-4.96490602597999
30
0
41
1
10
60.8128718498036
20
-4.97839529563598
30
0
41
1
10
60.7366217280688
20
-4.99426099261021
30
0
41
1
10
60.6951912205195
20
-4.99665470594883
30
0
41
1
10
60.6195386131811
20
-4.98996673414101
30
0
41
1
10
60.5841709061442
20
-4.98227228080665
30
0
41
1
10
60.5073687243286
20
-4.95603313316207
30
0
41
1
10
60.466428651144
20
-4.93443086792081
30
0
41
1
10
60.4177953959677
20
-4.89940593686748
30
0
41
1
10
60.405526779539
20
-4.88957878829657
30
0
41
1
10
60.3938739376802
20
-4.87925259330285
30
0
0
SPLINE
5
E9
100
AcDbEntity
8
1
62
256
6
ByLayer
370
-1
48
1
60
0
100
AcDbSpline
70
4
71
3
72
14
73
10
40
0
40
0
40
0
40
0
40
0.238662717898363
40
0.238662717898363
40
0.531612612203851
40
0.531612612203851
40
0.796565959003713
40
0.796565959003713
40
1
40
1
40
1
40
1
41
1
10
60.981038944756
20
-4.86839113056539
30
0
41
1
10
60.9924787034722
20
-4.85569640502283
30
0
41
1
10
61.0061034258469
20
-4.84452198230991
30
0
41
1
10
61.0398962132949
20
-4.82489421908252
30
0
41
1
10
61.0614407224514
20
-4.81736683221033
30
0
41
1
10
61.1042788341305
20
-4.81173442532895
30
0
41
1
10
61.1260573583838
20
-4.81275240805991
30
0
41
1
10
61.1631642006799
20
-4.8215175509176
30
0
41
1
10
61.1792068875833
20
-4.82772957794174
30
0
41
1
10
61.1940406703397
20
-4.83597257238816
30
0
0
SPLINE
5
EA
100
AcDbEntity
8
1
62
256
6
ByLayer
370
-1
48
1
60
0
100
AcDbSpline
70
4
71
3
72
18
73
14
40
0
40
0
40
0
40
0
40
0.0341462480722384
40
0.0341462480722384
40
0.258765201233654
40
0.258765201233654
40
0.484505948373223
40
0.484505948373223
40
0.723265833814342
40
0.723265833814342
40
0.984486234309201
40
0.984486234309201
40
1
40
1
40
1
40
1
41
1
10
61.1940406703397
20
-4.83597257238816
30
0
41
1
10
61.1965567754058
20
-4.83737074845877
30
0
41
1
10
61.1990444433682
20
-4.83882888926567
30
0
41
1
10
61.2174838981571
20
-4.85021246858952
30
0
41
1
10
61.2322515258479
20
-4.86272584949768
30
0
41
1
10
61.2571535280311
20
-4.89091739900022
30
0
41
1
10
61.2675927891836
20
-4.90696228486487
30
0
41
1
10
61.2836763019776
20
-4.94122052631314
30
0
41
1
10
61.2892284161857
20
-4.9599273616453
30
0
41
1
10
61.2949962756208
20
-4.9985131459876
30
0
41
1
10
61.294755282264
20
-5.01881905138541
30
0
41
1
10
61.2914349139942
20
-5.03905626217394
30
0
41
1
10
61.2912364670283
20
-5.04019925287741
30
0
41
1
10
61.2910277717556
20
-5.04133858792798
30
0
0
SPLINE
5
EB
100
AcDbEntity
8
SK1
62
256
6
ByLayer
370
-1
48
1
60
0
100
AcDbSpline
70
4
71
3
72
8
73
4
40
0
40
0
40
0
40
0
40
1
40
1
40
1
40
1
41
1
10
-136.294989802577
20
-7.00749999999999
30
0
41
1
10
-136.297269309104
20
-7.00749999999999
30
0
41
1
10
-135.893332978081
20
-7.00749999999999
30
0
41
1
10
-135.31
20
-7.00749999999999
30
0
0
SPLINE
5
EC
100
AcDbEntity
8
SK1
62
256
6
ByLayer
370
-1
48
1
60
0
100
AcDbSpline
70
4
71
3
72
10
73
6
40
0
40
0
40
0
40
0
40
0.5
40
0.5
40
1
40
1
40
1
40
1
41
1
10
-135.31
20
-2.76225564530151
30
0
41
1
10
-135.618496949467
20
-1.86962940601529
30
0
41
1
10
-135.802263903757
20
-0.947191057260369
30
0
41
1
10
-135.802735629345
20
0.943448469663423
30
0
41
1
10
-135.615124150977
20
1.87938849257091
30
0
41
1
10
-135.31
20
2.76225564530151
30
0
0
LINE
5
49
100
AcDbEntity
8
SK1
62
256
6
ByLayer
370
-1
48
1
60
0
100
AcDbLine
10
-135.31
20
7.9925
30
0
11
-137.31
21
5.9925
31
0
39
0
210
0
220
0
230
1
0
LINE
5
4B
100
AcDbEntity
8
SK1
62
256
6
ByLayer
370
-1
48
1
60
0
100
AcDbLine
10
-137.31
20
-5.9925
30
0
11
-136.295
21
-7.0075
31
0
39
0
210
0
220
0
230
1
0
LINE
5
4C
100
AcDbEntity
8
SK1
62
256
6
ByLayer
370
-1
48
1
60
0
100
AcDbLine
10
0
20
7.9925
30
0
11
-135.31
21
7.9925
31
0
39
0
210
0
220
0
230
1
0
LINE
5
4D
100
AcDbEntity
8
1
62
256
6
ByLayer
370
-1
48
1
60
0
100
AcDbLine
10
60.85528
20
-4.021683
30
0
11
60.779324
21
-4.018807
31
0
39
0
210
0
220
0
230
1
0
LINE
5
4E
100
AcDbEntity
8
1
62
256
6
ByLayer
370
-1
48
1
60
0
100
AcDbLine
10
60.648815
20
-7.466338
30
0
11
60.724771
21
-7.469213
31
0
39
0
210
0
220
0
230
1
0
LINE
5
4F
100
AcDbEntity
8
1
62
256
6
ByLayer
370
-1
48
1
60
0
100
AcDbLine
10
60.837368
20
-6.493939
30
0
11
60.749813
21
-6.490624
31
0
39
0
210
0
220
0
230
1
0
LINE
5
50
100
AcDbEntity
8
1
62
256
6
ByLayer
370
-1
48
1
60
0
100
AcDbLine
10
60.676027
20
-4.994434
30
0
11
60.763605
21
-4.997749
31
0
39
0
210
0
220
0
230
1
0
LINE
5
51
100
AcDbEntity
8
1
62
256
6
ByLayer
370
-1
48
1
60
0
100
AcDbLine
10
48.871824
20
7.9925
30
0
11
0
21
7.9925
31
0
39
0
210
0
220
0
230
1
0
LINE
5
52
100
AcDbEntity
8
1
62
256
6
ByLayer
370
-1
48
1
60
0
100
AcDbLine
10
48.946824
20
7.9175
30
0
11
48.871824
21
7.9925
31
0
39
0
210
0
220
0
230
1
0
LINE
5
53
100
AcDbEntity
8
1
62
256
6
ByLayer
370
-1
48
1
60
0
100
AcDbLine
10
49.0248
20
7.9175
30
0
11
48.946824
21
7.9175
31
0
39
0
210
0
220
0
230
1
0
LINE
5
54
100
AcDbEntity
8
1
62
256
6
ByLayer
370
-1
48
1
60
0
100
AcDbLine
10
49.596824
20
-7.9175
30
0
11
50.314289
21
-7.9175
31
0
39
0
210
0
220
0
230
1
0
LINE
5
55
100
AcDbEntity
8
80
62
256
6
ByLayer
370
-1
48
1
60
0
100
AcDbLine
10
0
20
0
30
0
11
-10
21
0
31
0
39
0
210
0
220
0
230
1
0
LINE
5
56
100
AcDbEntity
8
81
62
256
6
ByLayer
370
-1
48
1
60
0
100
AcDbLine
10
63.94
20
-10.9
30
0
11
73.94
21
-10.9
31
0
39
0
210
0
220
0
230
1
0
LINE
5
57
100
AcDbEntity
8
SK4
62
256
6
ByLayer
370
-1
48
0.05
60
0
100
AcDbLine
10
-142.31
20
0
30
0
11
68.393025
21
0
31
0
39
0
210
0
220
0
230
1
0
LINE
5
59
100
AcDbEntity
8
4
62
256
6
ByLayer
370
-1
48
0.05
60
0
100
AcDbLine
10
0
20
0
30
0
11
68.393025
21
0
31
0
39
0
210
0
220
0
230
1
0
LINE
5
5B
100
AcDbEntity
8
1
62
256
6
ByLayer
370
-1
48
1
60
0
100
AcDbLine
10
49.595567
20
-7.916244
30
0
11
49.596824
21
-7.9175
31
0
39
0
210
0
220
0
230
1
0
LINE
5
5C
100
AcDbEntity
8
1
62
256
6
ByLayer
370
-1
48
1
60
0
100
AcDbLine
10
0
20
2.762256
30
0
11
0
21
7.9925
31
0
39
0
210
0
220
0
230
1
0
LINE
5
5D
100
AcDbEntity
8
1
62
256
6
ByLayer
370
-1
48
1
60
0
100
AcDbLine
10
0
20
-7.0075
30
0
11
43.257908
21
-7.0075
31
0
39
0
210
0
220
0
230
1
0
LINE
5
5E
100
AcDbEntity
8
1
62
256
6
ByLayer
370
-1
48
1
60
0
100
AcDbLine
10
61.05292
20
-9.829005
30
0
11
61.048338
21
-9.566507
31
0
39
0
210
0
220
0
230
1
0
LINE
5
5F
100
AcDbEntity
8
1
62
256
6
ByLayer
370
-1
48
1
60
0
100
AcDbLine
10
55.191206
20
-4.794292
30
0
11
55.095721
21
-4.790678
31
0
39
0
210
0
220
0
230
1
0
LINE
5
60
100
AcDbEntity
8
1
62
256
6
ByLayer
370
-1
48
1
60
0
100
AcDbLine
10
55.50609
20
-7.189401
30
0
11
55.634163
21
-7.403625
31
0
39
0
210
0
220
0
230
1
0
LINE
5
61
100
AcDbEntity
8
1
62
256
6
ByLayer
370
-1
48
1
60
0
100
AcDbLine
10
59.69634
20
-9.398286
30
0
11
59.713774
21
-10.397031
31
0
39
0
210
0
220
0
230
1
0
LINE
5
62
100
AcDbEntity
8
1
62
256
6
ByLayer
370
-1
48
1
60
0
100
AcDbLine
10
48.686824
20
-7.0075
30
0
11
49.595567
21
-7.916244
31
0
39
0
210
0
220
0
230
1
0
LINE
5
63
100
AcDbEntity
8
1
62
256
6
ByLayer
370
-1
48
1
60
0
100
AcDbLine
10
41.842745
20
-2.762256
30
0
11
0
21
-2.762256
31
0
39
0
210
0
220
0
230
1
0
LINE
5
64
100
AcDbEntity
8
1
62
256
6
ByLayer
370
-1
48
1
60
0
100
AcDbLine
10
63.227806
20
-0.513828
30
0
11
63.217798
21
0.059557
31
0
39
0
210
0
220
0
230
1
0
LINE
5
65
100
AcDbEntity
8
1
62
256
6
ByLayer
370
-1
48
1
60
0
100
AcDbLine
10
49.0248
20
7.9175
30
0
11
49.490437
21
7.68921
31
0
39
0
210
0
220
0
230
1
0
LINE
5
66
100
AcDbEntity
8
1
62
256
6
ByLayer
370
-1
48
1
60
0
100
AcDbLine
10
0
20
-2.762256
30
0
11
0
21
-7.0075
31
0
39
0
210
0
220
0
230
1
0
LINE
5
67
100
AcDbEntity
8
1
62
256
6
ByLayer
370
-1
48
1
60
0
100
AcDbLine
10
56.952572
20
-7.862586
30
0
11
59.742358
21
-9.400028
31
0
39
0
210
0
220
0
230
1
0
LINE
5
68
100
AcDbEntity
8
1
62
256
6
ByLayer
370
-1
48
1
60
0
100
AcDbLine
10
52.534982
20
-9.237439
30
0
11
56.190368
21
4.404414
31
0
39
0
210
0
220
0
230
1
0
LINE
5
69
100
AcDbEntity
8
1
62
256
6
ByLayer
370
-1
48
1
60
0
100
AcDbLine
10
0
20
-2.762256
30
0
11
0
21
2.762256
31
0
39
0
210
0
220
0
230
1
0
LINE
5
6A
100
AcDbEntity
8
1
62
256
6
ByLayer
370
-1
48
1
60
0
100
AcDbLine
10
48.946824
20
7.9175
30
0
11
48.946824
21
7.5938
31
0
39
0
210
0
220
0
230
1
0
LINE
5
6B
100
AcDbEntity
8
1
62
256
6
ByLayer
370
-1
48
1
60
0
100
AcDbLine
10
48.871824
20
7.652646
30
0
11
48.871824
21
7.9925
31
0
39
0
210
0
220
0
230
1
0
LINE
5
6C
100
AcDbEntity
8
1
62
256
6
ByLayer
370
-1
48
1
60
0
100
AcDbLine
10
55.191206
20
-4.794292
30
0
11
63.217798
21
0.059557
31
0
39
0
210
0
220
0
230
1
0
LINE
5
6D
100
AcDbEntity
8
1
62
256
6
ByLayer
370
-1
48
1
60
0
100
AcDbLine
10
43.257908
20
-7.0075
30
0
11
48.686824
21
-7.0075
31
0
39
0
210
0
220
0
230
1
0
LINE
5
6E
100
AcDbEntity
8
1
62
256
6
ByLayer
370
-1
48
1
60
0
100
AcDbLine
10
63.217798
20
0.059557
30
0
11
63.217735
21
0.063165
31
0
39
0
210
0
220
0
230
1
0
LINE
5
6F
100
AcDbEntity
8
1
62
256
6
ByLayer
370
-1
48
1
60
0
100
AcDbLine
10
63.217735
20
0.063165
30
0
11
55.095721
21
-4.790678
31
0
39
0
210
0
220
0
230
1
0
LINE
5
70
100
AcDbEntity
8
1
62
256
6
ByLayer
370
-1
48
1
60
0
100
AcDbLine
10
59.69634
20
-9.398286
30
0
11
59.742358
21
-9.400028
31
0
39
0
210
0
220
0
230
1
0
LINE
5
71
100
AcDbEntity
8
1
62
256
6
ByLayer
370
-1
48
1
60
0
100
AcDbLine
10
60.142113
20
-2.325385
30
0
11
60.176811
21
-2.353456
31
0
39
0
210
0
220
0
230
1
0
LINE
5
72
100
AcDbEntity
8
1
62
256
6
ByLayer
370
-1
48
1
60
0
100
AcDbLine
10
60.754695
20
-10.411971
30
0
11
60.736911
21
-9.393108
31
0
39
0
210
0
220
0
230
1
0
LINE
5
73
100
AcDbEntity
8
1
62
256
6
ByLayer
370
-1
48
1
60
0
100
AcDbLine
10
49.490437
20
7.68921
30
0
11
56.190368
21
4.404414
31
0
39
0
210
0
220
0
230
1
0
LINE
5
74
100
AcDbEntity
8
1
62
256
6
ByLayer
370
-1
48
1
60
0
100
AcDbLine
10
55.634163
20
-7.403625
30
0
11
55.231059
21
-7.388365
31
0
39
0
210
0
220
0
230
1
0
LINE
5
75
100
AcDbEntity
8
1
62
256
6
ByLayer
370
-1
48
1
60
0
100
AcDbLine
10
55.50609
20
-7.189401
30
0
11
55.10161
21
-7.174089
31
0
39
0
210
0
220
0
230
1
0
LINE
5
76
100
AcDbEntity
8
1
62
256
6
ByLayer
370
-1
48
1
60
0
100
AcDbLine
10
55.10161
20
-7.174089
30
0
11
55.231059
21
-7.388365
31
0
39
0
210
0
220
0
230
1
0
LINE
5
77
100
AcDbEntity
8
1
62
256
6
ByLayer
370
-1
48
1
60
0
100
AcDbLine
10
55.380094
20
-6.902046
30
0
11
54.974276
21
-6.886683
31
0
39
0
210
0
220
0
230
1
0
LINE
5
78
100
AcDbEntity
8
1
62
256
6
ByLayer
370
-1
48
1
60
0
100
AcDbLine
10
59.759448
20
-10.379114
30
0
11
59.742358
21
-9.400028
31
0
39
0
210
0
220
0
230
1
0
LINE
5
79
100
AcDbEntity
8
1
62
256
6
ByLayer
370
-1
48
1
60
0
100
AcDbLine
10
56.875983
20
-7.859687
30
0
11
56.952572
21
-7.862586
31
0
39
0
210
0
220
0
230
1
0
LINE
5
7A
100
AcDbEntity
8
1
62
256
6
ByLayer
370
-1
48
1
60
0
100
AcDbLine
10
57.452337
20
-7.5642
30
0
11
57.031445
21
-7.818722
31
0
39
0
210
0
220
0
230
1
0
LINE
5
7B
100
AcDbEntity
8
1
62
256
6
ByLayer
370
-1
48
1
60
0
100
AcDbLine
10
56.190368
20
4.404414
30
0
11
63.201961
21
0.966818
31
0
39
0
210
0
220
0
230
1
0
LINE
5
7C
100
AcDbEntity
8
1
62
256
6
ByLayer
370
-1
48
1
60
0
100
AcDbLine
10
0
20
2.762256
30
0
11
43.308209
21
2.762256
31
0
39
0
210
0
220
0
230
1
0
LINE
5
7D
100
AcDbEntity
8
1
62
256
6
ByLayer
370
-1
48
1
60
0
100
AcDbLine
10
60.142113
20
-2.325385
30
0
11
58.437283
21
-3.356332
31
0
39
0
210
0
220
0
230
1
0
LINE
5
7E
100
AcDbEntity
8
1
62
256
6
ByLayer
370
-1
48
1
60
0
100
AcDbLine
10
63.217735
20
0.063165
30
0
11
63.201961
21
0.966818
31
0
39
0
210
0
220
0
230
1
0
LINE
5
7F
100
AcDbEntity
8
1
62
256
6
ByLayer
370
-1
48
1
60
0
100
AcDbLine
10
58.437283
20
-3.356332
30
0
11
58.471981
21
-3.384402
31
0
39
0
210
0
220
0
230
1
0
LINE
5
80
100
AcDbEntity
8
1
62
256
6
ByLayer
370
-1
48
1
60
0
100
AcDbLine
10
59.69634
20
-9.398286
30
0
11
56.875983
21
-7.859687
31
0
39
0
210
0
220
0
230
1
0
LINE
5
81
100
AcDbEntity
8
1
62
256
6
ByLayer
370
-1
48
1
60
0
100
AcDbLine
10
54.97064
20
-5.501733
30
0
11
63.174032
21
-0.540969
31
0
39
0
210
0
220
0
230
1
0
LINE
5
82
100
AcDbEntity
8
1
62
256
6
ByLayer
370
-1
48
1
60
0
100
AcDbLine
10
63.771985
20
-0.87392
30
0
11
63.939939
21
-10.495998
31
0
39
0
210
0
220
0
230
1
0
LINE
5
83
100
AcDbEntity
8
1
62
256
6
ByLayer
370
-1
48
1
60
0
100
AcDbLine
10
63.353983
20
-10.850339
30
0
11
54.982637
21
-6.189024
31
0
39
0
210
0
220
0
230
1
0
LINE
5
84
100
AcDbEntity
8
1
62
256
6
ByLayer
370
-1
48
1
60
0
100
AcDbLine
10
59.90276
20
-5.583102
30
0
11
59.805257
21
-5.579411
31
0
39
0
210
0
220
0
230
1
0
LINE
5
85
100
AcDbEntity
8
1
62
256
6
ByLayer
370
-1
48
1
60
0
100
AcDbLine
10
59.909293
20
-5.939534
30
0
11
59.811825
21
-5.935844
31
0
39
0
210
0
220
0
230
1
0
LINE
5
86
100
AcDbEntity
8
1
62
256
6
ByLayer
370
-1
48
1
60
0
100
AcDbLine
10
61.078542
20
-4.872082
30
0
11
60.981039
21
-4.868391
31
0
39
0
210
0
220
0
230
1
0
LINE
5
87
100
AcDbEntity
8
1
62
256
6
ByLayer
370
-1
48
1
60
0
100
AcDbLine
10
60.061601
20
-6.103661
30
0
11
60.148879
21
-6.106965
31
0
39
0
210
0
220
0
230
1
0
LINE
5
88
100
AcDbEntity
8
1
62
256
6
ByLayer
370
-1
48
1
60
0
100
AcDbLine
10
60.212477
20
-6.446659
30
0
11
60.115009
21
-6.44297
31
0
39
0
210
0
220
0
230
1
0
LINE
5
89
100
AcDbEntity
8
1
62
256
6
ByLayer
370
-1
48
1
60
0
100
AcDbLine
10
60.177789
20
-6.155322
30
0
11
60.090512
21
-6.152018
31
0
39
0
210
0
220
0
230
1
0
LINE
5
8A
100
AcDbEntity
8
1
62
256
6
ByLayer
370
-1
48
1
60
0
100
AcDbLine
10
61.109597
20
-6.608744
30
0
11
61.012094
21
-6.605053
31
0
39
0
210
0
220
0
230
1
0
LINE
5
8B
100
AcDbEntity
8
1
62
256
6
ByLayer
370
-1
48
1
60
0
100
AcDbLine
10
60.18764
20
-5.06662
30
0
11
60.090137
21
-5.062929
31
0
39
0
210
0
220
0
230
1
0
LINE
5
8C
100
AcDbEntity
8
SK1
62
256
6
ByLayer
370
-1
48
1
60
0
100
AcDbLine
10
-135.31
20
-7.0075
30
0
11
0
21
-7.0075
31
0
39
0
210
0
220
0
230
1
0
LINE
5
8D
100
AcDbEntity
8
SK1
62
256
6
ByLayer
370
-1
48
1
60
0
100
AcDbLine
10
0
20
7.9925
30
0
11
0
21
2.762256
31
0
39
0
210
0
220
0
230
1
0
LINE
5
8E
100
AcDbEntity
8
SK1
62
256
6
ByLayer
370
-1
48
1
60
0
100
AcDbLine
10
0
20
-2.762256
30
0
11
-135.31
21
-2.762256
31
0
39
0
210
0
220
0
230
1
0
LINE
5
8F
100
AcDbEntity
8
SK1
62
256
6
ByLayer
370
-1
48
1
60
0
100
AcDbLine
10
-137.31
20
5.9925
30
0
11
-137.31
21
-5.9925
31
0
39
0
210
0
220
0
230
1
0
LINE
5
90
100
AcDbEntity
8
SK1
62
256
6
ByLayer
370
-1
48
1
60
0
100
AcDbLine
10
-135.31
20
-2.762256
30
0
11
-135.31
21
-7.0075
31
0
39
0
210
0
220
0
230
1
0
LINE
5
91
100
AcDbEntity
8
SK1
62
256
6
ByLayer
370
-1
48
1
60
0
100
AcDbLine
10
-135.31
20
7.9925
30
0
11
-135.31
21
2.762256
31
0
39
0
210
0
220
0
230
1
0
LINE
5
92
100
AcDbEntity
8
SK1
62
256
6
ByLayer
370
-1
48
1
60
0
100
AcDbLine
10
0
20
-2.762256
30
0
11
0
21
-7.0075
31
0
39
0
210
0
220
0
230
1
0
LINE
5
93
100
AcDbEntity
8
SK1
62
256
6
ByLayer
370
-1
48
1
60
0
100
AcDbLine
10
0
20
-2.762256
30
0
11
0
21
2.762256
31
0
39
0
210
0
220
0
230
1
0
LINE
5
94
100
AcDbEntity
8
SK1
62
256
6
ByLayer
370
-1
48
1
60
0
100
AcDbLine
10
-135.31
20
2.762256
30
0
11
0
21
2.762256
31
0
39
0
210
0
220
0
230
1
0
LINE
5
95
100
AcDbEntity
8
2
62
256
6
ByLayer
370
-1
48
1
60
1
100
AcDbLine
10
63.94
20
0
30
0
11
63.941
21
0.001
31
0
39
0
210
0
220
0
230
1
0
MTEXT
5
ED
100
AcDbEntity
8
SK6
62
256
6
ByLayer
370
-1
48
1
60
0
100
AcDbMText
10
-33.31
20
15.876576
30
0
210
0
220
0
230
1
1
\W00.758;\fsimplex.shx,bigfont.shx;A16R-STFPL 11 
40
3.5
41
0
44
1.084337
50
0
71
7
72
5
7
DEFAULT
0
DIMENSION
5
120
100
AcDbEntity
8
2
62
256
6
ByLayer
370
-3
48
1
60
0
100
AcDbDimension
2
DimnDraft3D1
10
76.19
20
0
30
0
11
76.19
21
-29.231316
31
0
70
32
71
5
72
1
41
1
210
0
220
0
230
1
3
Standard
100
AcDbAlignedDimension
13
65.94
23
-10.9
33
0
14
65.94
24
0
34
0
50
90
100
AcDbRotatedDimension
1001
ACAD
1000
DSTYLE
1002
{
1070
    74
1070
     0
1070
   279
1070
     0
1070
   172
1070
     1
1070
   173
1070
     1
1070
   340
1005
EE
1070
    77
1070
     1
1070
    73
1070
     0
1070
   171
1070
     4
1070
   274
1070
     4
1070
   177
1070
     2
1070
   176
1070
     2
1070
   178
1070
     7
1070
    78
1070
     8
1070
    41
1041
3.175
1070
   147
1041
2.25
1070
    42
1041
2.0
1070
    44
1041
2.0
1070
   140
1041
4.5
1070
   343
1005
121
1070
   344
1005
121
1002
}
0
DIMENSION
5
136
100
AcDbEntity
8
SK2
62
256
6
ByLayer
370
-3
48
1
60
0
100
AcDbDimension
2
DimnDraft3D2
10
-147.06
20
7.9925
30
0
11
-147.06
21
-4.221711
31
0
70
32
71
5
72
1
41
1
210
0
220
0
230
1
3
Standard
100
AcDbAlignedDimension
13
-139.31
23
-7.9925
33
0
14
-139.31
24
7.9925
34
0
50
90
100
AcDbRotatedDimension
1001
ACAD
1000
DSTYLE
1002
{
1070
    74
1070
     0
1070
   279
1070
     0
1070
   172
1070
     1
1070
   173
1070
     1
1070
   340
1005
EE
1070
    77
1070
     1
1070
    73
1070
     0
1070
   171
1070
     4
1070
   274
1070
     4
1070
   177
1070
     2
1070
   176
1070
     2
1070
   178
1070
     7
1070
    78
1070
     8
1070
    41
1041
3.175
1070
   147
1041
2.25
1070
    42
1041
2.0
1070
    44
1041
2.0
1070
   140
1041
4.5
1070
   343
1005
121
1070
   344
1005
121
1002
}
0
DIMENSION
5
144
100
AcDbEntity
8
SK2
62
256
6
ByLayer
370
-3
48
1
60
0
100
AcDbDimension
2
DimnDraft3D3
10
63.94
20
-28.15
30
0
11
-43.500132
21
-28.15
31
0
70
32
71
5
72
1
41
1
210
0
220
0
230
1
3
Standard
100
AcDbAlignedDimension
13
-137.31
23
-9.9925
33
0
14
63.94
24
-12.9
34
0
50
0
100
AcDbRotatedDimension
1001
ACAD
1000
DSTYLE
1002
{
1070
   279
1070
     0
1070
   172
1070
     1
1070
   173
1070
     1
1070
   340
1005
EE
1070
    77
1070
     1
1070
    73
1070
     0
1070
   171
1070
     4
1070
   274
1070
     4
1070
   177
1070
     2
1070
   176
1070
     2
1070
   178
1070
     7
1070
    78
1070
     8
1070
    41
1041
3.175
1070
   147
1041
2.25
1070
    42
1041
2.0
1070
    44
1041
2.0
1070
   140
1041
4.5
1070
   343
1005
121
1070
   344
1005
121
1002
}
0
DIMENSION
5
152
100
AcDbEntity
8
2
62
256
6
ByLayer
370
-3
48
1
60
0
100
AcDbDimension
2
DimnDraft3D4
10
103.676147
20
0
30
0
11
87.766803
21
32.727109
31
0
70
34
71
5
72
1
41
1
210
0
220
0
230
1
3
Standard
100
AcDb2LineAngularDimension
13
63.713119
23
2.09802
33
0
14
63.052928
24
39.920326
34
0
15
65.94
25
0
35
0
16
93.486801
26
30.260654
36
0
40
0
0
ENDSEC
0
SECTION
2
OBJECTS
0
DICTIONARY
5
183
330
0
100
AcDbDictionary
280
0
281
1
3
ACAD_GROUP
350
184
3
ACAD_MLINESTYLE
350
185
0
DICTIONARY
5
184
330
0
100
AcDbDictionary
280
0
281
1
0
DICTIONARY
5
185
330
0
100
AcDbDictionary
280
0
281
1
3
Standard
350
18
0
MLINESTYLE
5
18
330
185
100
AcDbMlineStyle
2
Standard
70
0
3

62
256
51
90
52
90
71
2
49
-0.5
62
256
6
ByLayer
49
0.5
62
256
6
ByLayer
0
RASTERVARIABLES
5
171
330

100
AcDbRasterVariables
90
0
70
1
71
1
72
1
0
ENDSEC
0
EOF
