0
SECTION
2
HEADER
9
$ACADVER
1
AC1015
9
$DWGCODEPAGE
3
ANSI_1252
9
$HANDSEED
5
170
9
$ANGBASE
50
0
9
$ANGDIR
70
0
9
$ATTMODE
70
1
9
$AUNITS
70
0
9
$AUPREC
70
0
9
$CECOLOR
62
256
9
$CELTSCALE
40
1
9
$CELTYPE
6
ByLayer
9
$CELWEIGHT
370
-1
9
$CLAYER
8
0
9
$CMLJUST
70
0
9
$CMLSCALE
40
1
9
$CMLSTYLE
2
Standard
9
$DIMSTYLE
2
Standard
9
$TEXTSIZE
40
0.2
9
$TEXTSTYLE
7
Standard
9
$LUNITS
70
2
9
$LUPREC
70
4
9
$EXTNAMES
290
1
9
$INSUNITS
70
4
9
$LTSCALE
40
1
9
$LWDISPLAY
290
0
9
$PDMODE
70
0
9
$PDSIZE
40
0
9
$PLINEGEN
70
0
0
ENDSEC
0
SECTION
2
CLASSES
0
CLASS
1
RASTERVARIABLES
2
AcDbRasterVariables
3
ISM
90
0
280
0
281
0
0
ENDSEC
0
SECTION
2
TABLES
0
TABLE
2
VPORT
5
166
100
AcDbSymbolTable
0
VPORT
5
1
100
AcDbSymbolTableRecord
100
AcDbViewportTableRecord
2
*Active
70
0
10
0
20
0
11
1
21
1
12
-1
22
1
13
0
23
0
14
0.5
24
0.5
15
10
25
10
16
0
26
0
36
1
17
0
27
0
37
0
0
ENDTAB
0
TABLE
2
LTYPE
5
167
100
AcDbSymbolTable
0
LTYPE
5
14
100
AcDbSymbolTableRecord
100
AcDbLinetypeTableRecord
70
0
2
ByBlock
3

72
65
73
0
40
0
0
LTYPE
5
15
100
AcDbSymbolTableRecord
100
AcDbLinetypeTableRecord
70
0
2
ByLayer
3

72
65
73
0
40
0
0
LTYPE
5
16
100
AcDbSymbolTableRecord
100
AcDbLinetypeTableRecord
70
0
2
CONTINUOUS
3
Solid line
72
65
73
0
40
0
0
LTYPE
5
3B
100
AcDbSymbolTableRecord
100
AcDbLinetypeTableRecord
70
0
2
DASHED
3
__ __ __ __ __ __ __ __ __
72
65
73
2
40
25.72
49
12.86
74
0
49
-12.86
74
0
0
LTYPE
5
3C
100
AcDbSymbolTableRecord
100
AcDbLinetypeTableRecord
70
0
2
HIDDEN
3
_ _ _ _ _ _ _ _ _ _ _ _ _ _ _
72
65
73
2
40
0.5
49
0.25
74
0
49
-0.25
74
0
0
LTYPE
5
3D
100
AcDbSymbolTableRecord
100
AcDbLinetypeTableRecord
70
0
2
PHANTOM
3
____ _ _ ____ _ _ _____ _ _ ____
72
65
73
6
40
50.5
49
18
74
0
49
-6.5
74
0
49
6.5
74
0
49
-6.5
74
0
49
6.5
74
0
49
-6.5
74
0
0
LTYPE
5
3E
100
AcDbSymbolTableRecord
100
AcDbLinetypeTableRecord
70
0
2
CENTER
3
____ _ ____ _ ____ _ ____
72
65
73
4
40
47.5
49
22
74
0
49
-8.5
74
0
49
8.5
74
0
49
-8.5
74
0
0
LTYPE
5
3F
100
AcDbSymbolTableRecord
100
AcDbLinetypeTableRecord
70
0
2
DOT
3
.........................
72
65
73
2
40
10
49
0
74
0
49
-10
74
0
0
LTYPE
5
40
100
AcDbSymbolTableRecord
100
AcDbLinetypeTableRecord
70
0
2
DASHDOT
3
_._._._._._._._._._._._._._._._.
72
65
73
4
40
70
49
31
74
0
49
-13
74
0
49
13
74
0
49
-13
74
0
0
ENDTAB
0
TABLE
2
LAYER
5
168
100
AcDbSymbolTable
0
LAYER
5
10
100
AcDbSymbolTableRecord
100
AcDbLayerTableRecord
2
0
70
0
62
7
6
CONTINUOUS
290
1
370
-3
390
0
0
LAYER
5
42
100
AcDbSymbolTableRecord
100
AcDbLayerTableRecord
2
80
70
0
62
-6
6
CONTINUOUS
290
1
370
-3
390
0
0
LAYER
5
44
100
AcDbSymbolTableRecord
100
AcDbLayerTableRecord
2
81
70
0
62
-3
6
CONTINUOUS
290
1
370
-3
390
0
0
LAYER
5
46
100
AcDbSymbolTableRecord
100
AcDbLayerTableRecord
2
1
70
0
62
4
6
CONTINUOUS
290
1
370
-3
390
0
0
LAYER
5
48
100
AcDbSymbolTableRecord
100
AcDbLayerTableRecord
2
2
70
0
62
7
6
CONTINUOUS
290
1
370
-3
390
0
0
LAYER
5
5A
100
AcDbSymbolTableRecord
100
AcDbLayerTableRecord
2
4
70
0
62
-2
6
CENTER
290
1
370
-3
390
0
0
LAYER
5
152
100
AcDbSymbolTableRecord
100
AcDbLayerTableRecord
2
SK1
70
0
62
4
6
CONTINUOUS
290
1
370
-3
390
0
0
LAYER
5
153
100
AcDbSymbolTableRecord
100
AcDbLayerTableRecord
2
SK4
70
0
62
2
6
CENTER
290
1
370
-3
390
0
0
LAYER
5
154
100
AcDbSymbolTableRecord
100
AcDbLayerTableRecord
2
SK6
70
0
62
5
6
CONTINUOUS
290
1
370
-3
390
0
0
LAYER
5
155
100
AcDbSymbolTableRecord
100
AcDbLayerTableRecord
2
SK2
70
0
62
7
6
CONTINUOUS
290
1
370
-3
390
0
0
ENDTAB
0
TABLE
2
STYLE
5
169
100
AcDbSymbolTable
0
STYLE
5
11
100
AcDbSymbolTableRecord
100
AcDbTextStyleTableRecord
2
Standard
3
txt
70
0
71
0
40
0
41
1
42
0
50
0
0
STYLE
5
CE
100
AcDbSymbolTableRecord
100
AcDbTextStyleTableRecord
2
DEFAULT
3
simplex.shx
70
0
71
0
40
0
41
1
42
0
50
0
0
STYLE
5
F1
100
AcDbSymbolTableRecord
100
AcDbTextStyleTableRecord
2
DWGDirectTextStyle
3
SIMPLEX
70
0
71
0
40
0
41
1
42
0
50
0
0
ENDTAB
0
TABLE
2
DIMSTYLE
5
16a
100
AcDbSymbolTable
100
AcDbDimStyleTable
0
DIMSTYLE
105
27
100
AcDbSymbolTableRecord
100
AcDbDimStyleTableRecord
2
Standard
70
0
3
<>
41
0.18
42
0.0625
44
0.18
140
0.18
147
0.09
73
0
74
0
77
1
271
2
275
0
278
52
280
0
340
11
0
ENDTAB
0
TABLE
2
VIEW
5
16b
100
AcDbSymbolTable
0
ENDTAB
0
TABLE
2
UCS
5
16c
100
AcDbSymbolTable
0
ENDTAB
0
TABLE
2
APPID
5
16d
100
AcDbSymbolTable
0
APPID
5
12
100
AcDbSymbolTableRecord
100
AcDbRegAppTableRecord
2
ACAD
70
0
0
ENDTAB
0
TABLE
2
BLOCK_RECORD
5
16e
100
AcDbSymbolTable
0
BLOCK_RECORD
5
1F
100
AcDbSymbolTableRecord
100
AcDbBlockTableRecord
2
*Model_Space
340
0
70
0
0
BLOCK_RECORD
5
1B
100
AcDbSymbolTableRecord
100
AcDbBlockTableRecord
2
*Paper_Space
340
0
70
0
0
BLOCK_RECORD
5
23
100
AcDbSymbolTableRecord
100
AcDbBlockTableRecord
2
*Paper_Space0
340
0
70
0
0
BLOCK_RECORD
5
F3
100
AcDbSymbolTableRecord
100
AcDbBlockTableRecord
2
DimnDraft3D1
340
0
70
0
0
BLOCK_RECORD
5
101
100
AcDbSymbolTableRecord
100
AcDbBlockTableRecord
2
_CLOSED
340
0
70
0
0
BLOCK_RECORD
5
108
100
AcDbSymbolTableRecord
100
AcDbBlockTableRecord
2
DimnDraft3D2
340
0
70
0
0
BLOCK_RECORD
5
117
100
AcDbSymbolTableRecord
100
AcDbBlockTableRecord
2
DimnDraft3D3
340
0
70
0
0
BLOCK_RECORD
5
125
100
AcDbSymbolTableRecord
100
AcDbBlockTableRecord
2
DimnDraft3D4
340
0
70
0
0
ENDTAB
0
ENDSEC
0
SECTION
2
BLOCKS
0
BLOCK
5
20
100
AcDbEntity
8
0
100
AcDbBlockBegin
2
*Model_Space
70
0
10
0
20
0
30
0
3
*Model_Space
0
ENDBLK
5
21
100
AcDbEntity
8
0
100
AcDbBlockEnd
0
BLOCK
5
1C
100
AcDbEntity
8
0
100
AcDbBlockBegin
2
*Paper_Space
70
0
10
0
20
0
30
0
3
*Paper_Space
0
ENDBLK
5
1D
100
AcDbEntity
8
0
100
AcDbBlockEnd
0
BLOCK
5
24
100
AcDbEntity
8
0
100
AcDbBlockBegin
2
*Paper_Space0
70
0
10
0
20
0
30
0
3
*Paper_Space0
0
ENDBLK
5
25
100
AcDbEntity
8
0
100
AcDbBlockEnd
0
BLOCK
5
FE
100
AcDbEntity
8
0
100
AcDbBlockBegin
2
DimnDraft3D1
70
0
10
0
20
0
30
0
3
DimnDraft3D1
0
MTEXT
5
F4
100
AcDbEntity
8
2
62
256
6
ByLayer
370
-1
48
1
60
0
100
AcDbMText
10
75.065
20
24.28
30
0
210
0
220
0
230
1
1
\W01.000;\fsimplex.shx,bigfont.shx;13.0 
40
4.5
41
0
44
1.084337
50
90
71
7
72
5
7
DEFAULT
0
LINE
5
F5
100
AcDbEntity
8
2
62
256
6
ByLayer
370
-1
48
1
60
0
100
AcDbLine
10
65.94
20
12.9
30
0
11
78.19
21
12.9
31
0
39
0
210
0
220
0
230
1
0
LINE
5
F6
100
AcDbEntity
8
2
62
256
6
ByLayer
370
-1
48
1
60
0
100
AcDbLine
10
65.94
20
0
30
0
11
78.19
21
0
31
0
39
0
210
0
220
0
230
1
0
LINE
5
F7
100
AcDbEntity
8
2
62
256
6
ByLayer
370
-1
48
1
60
0
100
AcDbLine
10
76.19
20
0
30
0
11
76.19
21
32.356316
31
0
39
0
210
0
220
0
230
1
0
LINE
5
F8
100
AcDbEntity
8
2
62
256
6
ByLayer
370
-1
48
1
60
0
100
AcDbLine
10
76.19
20
12.9
30
0
11
76.607997
21
9.725002
31
0
39
0
210
0
220
0
230
1
0
LINE
5
F9
100
AcDbEntity
8
2
62
256
6
ByLayer
370
-1
48
1
60
0
100
AcDbLine
10
76.19
20
12.9
30
0
11
75.772003
21
9.724998
31
0
39
0
210
0
220
0
230
1
0
LINE
5
FA
100
AcDbEntity
8
2
62
256
6
ByLayer
370
-1
48
1
60
0
100
AcDbLine
10
76.607997
20
9.725002
30
0
11
75.772003
21
9.724998
31
0
39
0
210
0
220
0
230
1
0
LINE
5
FB
100
AcDbEntity
8
2
62
256
6
ByLayer
370
-1
48
1
60
0
100
AcDbLine
10
76.19
20
0
30
0
11
75.772003
21
3.174998
31
0
39
0
210
0
220
0
230
1
0
LINE
5
FC
100
AcDbEntity
8
2
62
256
6
ByLayer
370
-1
48
1
60
0
100
AcDbLine
10
76.19
20
0
30
0
11
76.607997
21
3.175002
31
0
39
0
210
0
220
0
230
1
0
LINE
5
FD
100
AcDbEntity
8
2
62
256
6
ByLayer
370
-1
48
1
60
0
100
AcDbLine
10
75.772003
20
3.174998
30
0
11
76.607997
21
3.175002
31
0
39
0
210
0
220
0
230
1
0
ENDBLK
5
FF
100
AcDbEntity
8
0
100
AcDbBlockEnd
0
BLOCK
5
102
100
AcDbEntity
8
0
100
AcDbBlockBegin
2
_CLOSED
70
0
10
0
20
0
30
0
3
_CLOSED
0
LINE
5
104
100
AcDbEntity
8
0
62
256
6
ByLayer
370
-2
48
1
60
0
100
AcDbLine
10
-1
20
0.166667
30
0
11
0
21
0
31
0
39
0
210
0
220
0
230
1
0
LINE
5
105
100
AcDbEntity
8
0
62
256
6
ByLayer
370
-2
48
1
60
0
100
AcDbLine
10
0
20
0
30
0
11
-1
21
-0.166667
31
0
39
0
210
0
220
0
230
1
0
LINE
5
106
100
AcDbEntity
8
0
62
256
6
ByLayer
370
-2
48
1
60
0
100
AcDbLine
10
-1
20
0.166667
30
0
11
-1
21
-0.166667
31
0
39
0
210
0
220
0
230
1
0
LINE
5
107
100
AcDbEntity
8
0
62
256
6
ByLayer
370
-2
48
1
60
0
100
AcDbLine
10
0
20
0
30
0
11
-1
21
0
31
0
39
0
210
0
220
0
230
1
0
ENDBLK
5
103
100
AcDbEntity
8
0
100
AcDbBlockEnd
0
BLOCK
5
114
100
AcDbEntity
8
0
100
AcDbBlockBegin
2
DimnDraft3D2
70
0
10
0
20
0
30
0
3
DimnDraft3D2
0
MTEXT
5
109
100
AcDbEntity
8
SK2
62
256
6
ByLayer
370
-1
48
1
60
0
100
AcDbMText
10
-148.185
20
-3.096711
30
0
210
0
220
0
230
1
1
\W01.000;\fsimplex.shx,bigfont.shx;%%c16 
40
4.5
41
0
44
1.084337
50
90
71
7
72
5
7
DEFAULT
0
LINE
5
10B
100
AcDbEntity
8
SK2
62
256
6
ByLayer
370
-1
48
1
60
0
100
AcDbLine
10
-139.31
20
-7.9925
30
0
11
-149.06
21
-7.9925
31
0
39
0
210
0
220
0
230
1
0
LINE
5
10C
100
AcDbEntity
8
SK2
62
256
6
ByLayer
370
-1
48
1
60
0
100
AcDbLine
10
-139.31
20
7.9925
30
0
11
-149.06
21
7.9925
31
0
39
0
210
0
220
0
230
1
0
LINE
5
10D
100
AcDbEntity
8
SK2
62
256
6
ByLayer
370
-1
48
1
60
0
100
AcDbLine
10
-147.06
20
-19.2425
30
0
11
-147.06
21
19.2425
31
0
39
0
210
0
220
0
230
1
0
LINE
5
10E
100
AcDbEntity
8
SK2
62
256
6
ByLayer
370
-1
48
1
60
0
100
AcDbLine
10
-147.06
20
-7.9925
30
0
11
-146.642003
21
-11.167498
31
0
39
0
210
0
220
0
230
1
0
LINE
5
10F
100
AcDbEntity
8
SK2
62
256
6
ByLayer
370
-1
48
1
60
0
100
AcDbLine
10
-147.06
20
-7.9925
30
0
11
-147.477997
21
-11.167502
31
0
39
0
210
0
220
0
230
1
0
LINE
5
110
100
AcDbEntity
8
SK2
62
256
6
ByLayer
370
-1
48
1
60
0
100
AcDbLine
10
-146.642003
20
-11.167498
30
0
11
-147.477997
21
-11.167502
31
0
39
0
210
0
220
0
230
1
0
LINE
5
111
100
AcDbEntity
8
SK2
62
256
6
ByLayer
370
-1
48
1
60
0
100
AcDbLine
10
-147.06
20
7.9925
30
0
11
-147.477997
21
11.167498
31
0
39
0
210
0
220
0
230
1
0
LINE
5
112
100
AcDbEntity
8
SK2
62
256
6
ByLayer
370
-1
48
1
60
0
100
AcDbLine
10
-147.06
20
7.9925
30
0
11
-146.642003
21
11.167502
31
0
39
0
210
0
220
0
230
1
0
LINE
5
113
100
AcDbEntity
8
SK2
62
256
6
ByLayer
370
-1
48
1
60
0
100
AcDbLine
10
-147.477997
20
11.167498
30
0
11
-146.642003
21
11.167502
31
0
39
0
210
0
220
0
230
1
0
ENDBLK
5
115
100
AcDbEntity
8
0
100
AcDbBlockEnd
0
BLOCK
5
122
100
AcDbEntity
8
0
100
AcDbBlockBegin
2
DimnDraft3D3
70
0
10
0
20
0
30
0
3
DimnDraft3D3
0
MTEXT
5
118
100
AcDbEntity
8
SK2
62
256
6
ByLayer
370
-1
48
1
60
0
100
AcDbMText
10
-42.375132
20
26.775
30
0
210
0
220
0
230
1
1
\W01.000;\fsimplex.shx,bigfont.shx;200.0 
40
4.5
41
0
44
1.084337
50
0
71
7
72
5
7
DEFAULT
0
LINE
5
119
100
AcDbEntity
8
SK2
62
256
6
ByLayer
370
-1
48
1
60
0
100
AcDbLine
10
63.94
20
14.9
30
0
11
63.94
21
27.65
31
0
39
0
210
0
220
0
230
1
0
LINE
5
11A
100
AcDbEntity
8
SK2
62
256
6
ByLayer
370
-1
48
1
60
0
100
AcDbLine
10
-137.31
20
9.9925
30
0
11
-137.31
21
27.65
31
0
39
0
210
0
220
0
230
1
0
LINE
5
11B
100
AcDbEntity
8
SK2
62
256
6
ByLayer
370
-1
48
1
60
0
100
AcDbLine
10
63.94
20
25.65
30
0
11
-137.31
21
25.65
31
0
39
0
210
0
220
0
230
1
0
LINE
5
11C
100
AcDbEntity
8
SK2
62
256
6
ByLayer
370
-1
48
1
60
0
100
AcDbLine
10
63.94
20
25.65
30
0
11
60.765002
21
25.232003
31
0
39
0
210
0
220
0
230
1
0
LINE
5
11D
100
AcDbEntity
8
SK2
62
256
6
ByLayer
370
-1
48
1
60
0
100
AcDbLine
10
63.94
20
25.65
30
0
11
60.764998
21
26.067997
31
0
39
0
210
0
220
0
230
1
0
LINE
5
11E
100
AcDbEntity
8
SK2
62
256
6
ByLayer
370
-1
48
1
60
0
100
AcDbLine
10
60.765002
20
25.232003
30
0
11
60.764998
21
26.067997
31
0
39
0
210
0
220
0
230
1
0
LINE
5
11F
100
AcDbEntity
8
SK2
62
256
6
ByLayer
370
-1
48
1
60
0
100
AcDbLine
10
-137.31
20
25.65
30
0
11
-134.135002
21
26.067997
31
0
39
0
210
0
220
0
230
1
0
LINE
5
120
100
AcDbEntity
8
SK2
62
256
6
ByLayer
370
-1
48
1
60
0
100
AcDbLine
10
-137.31
20
25.65
30
0
11
-134.134998
21
25.232003
31
0
39
0
210
0
220
0
230
1
0
LINE
5
121
100
AcDbEntity
8
SK2
62
256
6
ByLayer
370
-1
48
1
60
0
100
AcDbLine
10
-134.135002
20
26.067997
30
0
11
-134.134998
21
25.232003
31
0
39
0
210
0
220
0
230
1
0
ENDBLK
5
123
100
AcDbEntity
8
0
100
AcDbBlockEnd
0
BLOCK
5
130
100
AcDbEntity
8
0
100
AcDbBlockBegin
2
DimnDraft3D4
70
0
10
0
20
0
30
0
3
DimnDraft3D4
0
MTEXT
5
126
100
AcDbEntity
8
2
62
256
6
ByLayer
370
-1
48
1
60
0
100
AcDbMText
10
106.234322
20
-29.656979
30
0
210
0
220
0
230
1
1
\W01.000;\fsimplex.shx,bigfont.shx;62%%d30' 
40
4.5
41
0
44
1.084337
50
58.7512410300001
71
7
72
5
7
DEFAULT
0
LINE
5
127
100
AcDbEntity
8
2
62
256
6
ByLayer
370
-1
48
1
60
0
100
AcDbLine
10
68.096083
20
4.917083
30
0
11
93.249606
21
-43.397274
31
0
39
0
210
0
220
0
230
1
0
LINE
5
128
100
AcDbEntity
8
2
62
256
6
ByLayer
370
-1
48
1
60
0
100
AcDbLine
10
65.94
20
0
30
0
11
119.582432
21
0
31
0
39
0
210
0
220
0
230
1
0
ARC
5
129
100
AcDbEntity
8
2
62
256
6
ByLayer
370
-1
48
1
60
0
100
AcDbCircle
39
0
10
70.656025
20
0
30
0
40
46.9264068782929
210
0
220
0
230
1
100
AcDbArc
50
297.502482
51
0
0
LINE
5
12A
100
AcDbEntity
8
2
62
256
6
ByLayer
370
-1
48
1
60
0
100
AcDbLine
10
92.326032
20
-41.623293
30
0
11
94.917768
21
-39.742271
31
0
39
0
210
0
220
0
230
1
0
LINE
5
12B
100
AcDbEntity
8
2
62
256
6
ByLayer
370
-1
48
1
60
0
100
AcDbLine
10
92.326032
20
-41.623293
30
0
11
95.316303
21
-40.477155
31
0
39
0
210
0
220
0
230
1
0
LINE
5
12C
100
AcDbEntity
8
2
62
256
6
ByLayer
370
-1
48
1
60
0
100
AcDbLine
10
94.917768
20
-39.742271
30
0
11
95.316303
21
-40.477155
31
0
39
0
210
0
220
0
230
1
0
LINE
5
12D
100
AcDbEntity
8
2
62
256
6
ByLayer
370
-1
48
1
60
0
100
AcDbLine
10
117.582432
20
0
30
0
11
117.946688
21
-3.181612
31
0
39
0
210
0
220
0
230
1
0
LINE
5
12E
100
AcDbEntity
8
2
62
256
6
ByLayer
370
-1
48
1
60
0
100
AcDbLine
10
117.582432
20
0
30
0
11
117.110814
21
-3.16748
31
0
39
0
210
0
220
0
230
1
0
LINE
5
12F
100
AcDbEntity
8
2
62
256
6
ByLayer
370
-1
48
1
60
0
100
AcDbLine
10
117.946688
20
-3.181612
30
0
11
117.110814
21
-3.16748
31
0
39
0
210
0
220
0
230
1
0
ENDBLK
5
131
100
AcDbEntity
8
0
100
AcDbBlockEnd
0
ENDSEC
0
SECTION
2
ENTITIES
0
ARC
5
82
100
AcDbEntity
8
1
62
256
6
ByLayer
370
-1
48
1
60
0
100
AcDbCircle
39
0
10
-58.700858
20
8.755572
30
0
40
3.00000000058497
210
0
220
0
230
-1
100
AcDbArc
50
238.463369
51
244.158665
0
ARC
5
83
100
AcDbEntity
8
1
62
256
6
ByLayer
370
-1
48
1
60
0
100
AcDbCircle
39
0
10
-68.697482
20
8.755572
30
0
40
2.99999999952995
210
0
220
0
230
-1
100
AcDbArc
50
295.732069
51
301.536647
0
ELLIPSE
5
84
100
AcDbEntity
8
1
62
256
6
ByLayer
370
-1
48
1
60
0
100
AcDbEllipse
10
63.600657
20
0.485944
30
0
11
-1.05
21
1.2858366715135E-16
31
0
210
0
220
0
230
1
40
0.999894
41
-0.784958845135467
42
0.346076657880772
0
ELLIPSE
5
85
100
AcDbEntity
8
1
62
256
6
ByLayer
370
-1
48
1
60
0
100
AcDbEllipse
10
62.943884
20
1.303801
30
0
11
-1.25
21
1.53075794227797E-16
31
0
210
0
220
0
230
1
40
0.999894
41
-0.479965544298202
42
1.30282220254178
0
ELLIPSE
5
86
100
AcDbEntity
8
1
62
256
6
ByLayer
370
-1
48
1
60
0
100
AcDbEllipse
10
63.600657
20
0.490307
30
0
11
-1.05
21
1.2858366715135E-16
31
0
210
0
220
0
230
1
40
0.999894
41
0
42
-3.14159251588499
0
ELLIPSE
5
87
100
AcDbEntity
8
1
62
256
6
ByLayer
370
-1
48
1
60
0
100
AcDbEllipse
10
63.600657
20
0.454674
30
0
11
1.05
21
0
31
0
210
0
220
0
230
1
40
0.999894
41
-2.79551599570903
42
0.253086316767828
0
ELLIPSE
5
88
100
AcDbEntity
8
1
62
256
6
ByLayer
370
-1
48
1
60
0
100
AcDbEllipse
10
62.943884
20
1.33507
30
0
11
1.25
21
0
31
0
210
0
220
0
230
1
40
0.999894
41
-3.14157044232969
42
-1.83877045104802
0
ELLIPSE
5
89
100
AcDbEntity
8
1
62
256
6
ByLayer
370
-1
48
1
60
0
100
AcDbEllipse
10
63.600657
20
0.454676
30
0
11
1.05
21
0
31
0
210
0
220
0
230
1
40
0.999894
41
0.253086316767829
42
0.619745507501036
0
ELLIPSE
5
8A
100
AcDbEntity
8
1
62
256
6
ByLayer
370
-1
48
1
60
0
100
AcDbEllipse
10
68.697482
20
8.755572
30
0
11
-1.83690953188452E-16
21
3.00000000187971
31
0
210
0
220
0
230
-1
40
1
41
-2.81812477414909
42
-2.69248354749107
0
ELLIPSE
5
8B
100
AcDbEntity
8
1
62
256
6
ByLayer
370
-1
48
1
60
0
100
AcDbEllipse
10
58.700858
20
8.755572
30
0
11
2.73270635663454
21
1.23786748664886
31
0
210
0
220
0
230
-1
40
1
41
1.54511136723157
42
1.62485189800643
0
ELLIPSE
5
8C
100
AcDbEntity
8
1
62
256
6
ByLayer
370
-1
48
1
60
0
100
AcDbEllipse
10
66.831178
20
6.487272
30
0
11
-0.396874999999977
21
4.86015646673228E-17
31
0
210
0
220
0
230
1
40
0.999894
41
2.66162710929136
42
-2.66162710929135
0
ELLIPSE
5
8D
100
AcDbEntity
8
1
62
256
6
ByLayer
370
-1
48
1
60
0
100
AcDbEllipse
10
63.69917
20
0.471377
30
0
11
-0.396874999999915
21
4.86015646673152E-17
31
0
210
0
220
0
230
1
40
0.999894
41
0.479965544298428
42
2.6616271092913
0
ELLIPSE
5
8E
100
AcDbEntity
8
1
62
256
6
ByLayer
370
-1
48
1
60
0
100
AcDbEllipse
10
63.69917
20
12.503167
30
0
11
-0.396874999999915
21
4.86015646673152E-17
31
0
210
0
220
0
230
1
40
0.999894
41
-2.66162710929136
42
-0.479965544298494
0
ELLIPSE
5
8F
100
AcDbEntity
8
1
62
256
6
ByLayer
370
-1
48
1
60
0
100
AcDbEllipse
10
60.567162
20
6.487272
30
0
11
-0.396874999999977
21
4.86015646673228E-17
31
0
210
0
220
0
230
1
40
0.999894
41
-0.479965544298433
42
0.479965544298439
0
ELLIPSE
5
90
100
AcDbEntity
8
1
62
256
6
ByLayer
370
-1
48
1
60
0
100
AcDbEllipse
10
64.283736
20
5.488615
30
0
11
0.422
21
0
31
0
210
0
220
0
230
1
40
0.999894
41
1.31906638471069
42
2.09396611256326
0
ELLIPSE
5
91
100
AcDbEntity
8
1
62
256
6
ByLayer
370
-1
48
1
60
0
100
AcDbEllipse
10
63.69917
20
5.652098
30
0
11
0.185
21
0
31
0
210
0
220
0
230
1
40
0.999894
41
-2.86886584041569
42
-0.272726813174278
0
ELLIPSE
5
92
100
AcDbEntity
8
1
62
256
6
ByLayer
370
-1
48
1
60
0
100
AcDbEllipse
10
63.114605
20
5.488615
30
0
11
0.422
21
0
31
0
210
0
220
0
230
1
40
0.999894
41
0.27272681317413
42
1.04762654102661
0
ELLIPSE
5
93
100
AcDbEntity
8
1
62
256
6
ByLayer
370
-1
48
1
60
0
100
AcDbEllipse
10
62.963414
20
6.076422
30
0
11
0.185
21
0
31
0
210
0
220
0
230
1
40
0.999894
41
-3.14155540371668
42
-1.31906638471096
0
ELLIPSE
5
94
100
AcDbEntity
8
1
62
256
6
ByLayer
370
-1
48
1
60
0
100
AcDbEllipse
10
62.963414
20
6.927595
30
0
11
0.185
21
0
31
0
210
0
220
0
230
1
40
0.999894
41
3.14155726780578
42
-2.36450645369782
0
ELLIPSE
5
95
100
AcDbEntity
8
1
62
256
6
ByLayer
370
-1
48
1
60
0
100
AcDbEllipse
10
64.434927
20
6.927595
30
0
11
0.185
21
0
31
0
210
0
220
0
230
1
40
0.999894
41
-0.777086199891975
42
3.53857840308795E-05
0
ELLIPSE
5
96
100
AcDbEntity
8
1
62
256
6
ByLayer
370
-1
48
1
60
0
100
AcDbEllipse
10
64.867694
20
6.502008
30
0
11
0.422
21
0
31
0
210
0
220
0
230
1
40
0.999894
41
2.36450645369787
42
3.07467933127367
0
ELLIPSE
5
97
100
AcDbEntity
8
1
62
256
6
ByLayer
370
-1
48
1
60
0
100
AcDbEllipse
10
64.434927
20
6.076422
30
0
11
0.185
21
0
31
0
210
0
220
0
230
1
40
0.999894
41
-1.82252626887915
42
-3.72498734412503E-05
0
ELLIPSE
5
98
100
AcDbEntity
8
1
62
256
6
ByLayer
370
-1
48
1
60
0
100
AcDbEllipse
10
63.69917
20
6.502008
30
0
11
0.748
21
0
31
0
210
0
220
0
230
1
40
0.999894
41
-3.10386130167277
42
-2.09396611256323
0
ELLIPSE
5
99
100
AcDbEntity
8
1
62
256
6
ByLayer
370
-1
48
1
60
0
100
AcDbEllipse
10
63.69917
20
6.489875
30
0
11
-0.747999999999999
21
9.16005552659137E-17
31
0
210
0
220
0
230
1
40
0.999894
41
-0.0377313519170419
42
0.0377313519170158
0
ELLIPSE
5
9A
100
AcDbEntity
8
1
62
256
6
ByLayer
370
-1
48
1
60
0
100
AcDbEllipse
10
63.69917
20
6.487465
30
0
11
-1.035
21
1.26746757620616E-16
31
0
210
0
220
0
230
1
40
0.999894
41
0.524456755258202
42
1.57079632679492
0
ELLIPSE
5
9B
100
AcDbEntity
8
1
62
256
6
ByLayer
370
-1
48
1
60
0
100
AcDbEllipse
10
64.283736
20
5.488615
30
0
11
0.422
21
0
31
0
210
0
220
0
230
1
40
0.999894
41
2.09396611256326
42
2.86886584041576
0
ELLIPSE
5
9C
100
AcDbEntity
8
1
62
256
6
ByLayer
370
-1
48
1
60
0
100
AcDbEllipse
10
63.69917
20
6.487465
30
0
11
-1.035
21
1.26746757620616E-16
31
0
210
0
220
0
230
1
40
0.999894
41
1.57079632679492
42
2.61713589833162
0
ELLIPSE
5
9D
100
AcDbEntity
8
1
62
256
6
ByLayer
370
-1
48
1
60
0
100
AcDbEllipse
10
63.69917
20
6.502008
30
0
11
0.748
21
0
31
0
210
0
220
0
230
1
40
0.999894
41
-2.09396611256323
42
-1.04762654102653
0
ELLIPSE
5
9E
100
AcDbEntity
8
1
62
256
6
ByLayer
370
-1
48
1
60
0
100
AcDbEllipse
10
63.69917
20
6.489875
30
0
11
-0.747999999999999
21
9.16005552659137E-17
31
0
210
0
220
0
230
1
40
0.999894
41
3.10386130167278
42
-3.10386130167275
0
ELLIPSE
5
9F
100
AcDbEntity
8
1
62
256
6
ByLayer
370
-1
48
1
60
0
100
AcDbEllipse
10
63.69917
20
6.502008
30
0
11
0.748
21
0
31
0
210
0
220
0
230
1
40
0.999894
41
1.04762654102656
42
2.02868402998127
0
ELLIPSE
5
A0
100
AcDbEntity
8
1
62
256
6
ByLayer
370
-1
48
1
60
0
100
AcDbEllipse
10
63.69917
20
6.502008
30
0
11
-0.748
21
9.16005552659138E-17
31
0
210
0
220
0
230
1
40
0.999894
41
-3.10386130167275
42
-2.09396611256323
0
ELLIPSE
5
A1
100
AcDbEntity
8
1
62
256
6
ByLayer
370
-1
48
1
60
0
100
AcDbEllipse
10
63.69917
20
6.487465
30
0
11
-1.035
21
1.26746757620616E-16
31
0
210
0
220
0
230
1
40
0.999894
41
2.61713589833162
42
-2.61713589833159
0
ELLIPSE
5
A2
100
AcDbEntity
8
1
62
256
6
ByLayer
370
-1
48
1
60
0
100
AcDbEllipse
10
63.69917
20
6.487465
30
0
11
-1.035
21
1.26746757620616E-16
31
0
210
0
220
0
230
1
40
0.999894
41
-0.524456755258199
42
0.524456755258202
0
ELLIPSE
5
A3
100
AcDbEntity
8
1
62
256
6
ByLayer
370
-1
48
1
60
0
100
AcDbEllipse
10
63.69917
20
6.502008
30
0
11
-0.748
21
9.16005552659138E-17
31
0
210
0
220
0
230
1
40
0.999894
41
9.06394394057609E-08
42
0.0377313519170193
0
ELLIPSE
5
A4
100
AcDbEntity
8
1
62
256
6
ByLayer
370
-1
48
1
60
0
100
AcDbEllipse
10
63.114605
20
5.488615
30
0
11
0.422
21
0
31
0
210
0
220
0
230
1
40
0.999894
41
1.04762654102661
42
1.82252626887903
0
ELLIPSE
5
A5
100
AcDbEntity
8
1
62
256
6
ByLayer
370
-1
48
1
60
0
100
AcDbEllipse
10
63.69917
20
6.487465
30
0
11
-1.035
21
1.26746757620616E-16
31
0
210
0
220
0
230
1
40
0.999894
41
-2.61713589833159
42
-1.57079632679492
0
ELLIPSE
5
A6
100
AcDbEntity
8
1
62
256
6
ByLayer
370
-1
48
1
60
0
100
AcDbEllipse
10
62.530647
20
6.502008
30
0
11
0.422
21
0
31
0
210
0
220
0
230
1
40
0.999894
41
0.0669133223161284
42
0.77708619989192
0
ELLIPSE
5
A7
100
AcDbEntity
8
1
62
256
6
ByLayer
370
-1
48
1
60
0
100
AcDbEllipse
10
63.69917
20
6.502008
30
0
11
0.748
21
0
31
0
210
0
220
0
230
1
40
0.999894
41
-1.04762654102653
42
-0.0377313519170193
0
ELLIPSE
5
A8
100
AcDbEntity
8
1
62
256
6
ByLayer
370
-1
48
1
60
0
100
AcDbEllipse
10
63.69917
20
6.487465
30
0
11
-1.035
21
1.26746757620616E-16
31
0
210
0
220
0
230
1
40
0.999894
41
-1.5707963267949
42
-0.524456755258199
0
ELLIPSE
5
A9
100
AcDbEntity
8
1
62
256
6
ByLayer
370
-1
48
1
60
0
100
AcDbEllipse
10
63.69917
20
6.502008
30
0
11
-0.748
21
9.16005552659138E-17
31
0
210
0
220
0
230
1
40
0.999894
41
3.10386130167278
42
3.14159256295035
0
ELLIPSE
5
AA
100
AcDbEntity
8
1
62
256
6
ByLayer
370
-1
48
1
60
0
100
AcDbEllipse
10
63.69917
20
6.502008
30
0
11
0.748
21
0
31
0
210
0
220
0
230
1
40
0.999894
41
2.09396611256323
42
3.10386130167275
0
ELLIPSE
5
AB
100
AcDbEntity
8
1
62
256
6
ByLayer
370
-1
48
1
60
0
100
AcDbEllipse
10
63.69917
20
6.487465
30
0
11
-1.3
21
1.59198825996909E-16
31
0
210
0
220
0
230
1
40
0.999894
41
0
42
6.28318530717959
0
ELLIPSE
5
AC
100
AcDbEntity
8
1
62
256
6
ByLayer
370
-1
48
1
60
0
100
AcDbEllipse
10
63.69917
20
6.500554
30
0
11
-1.725
21
2.1124459603436E-16
31
0
210
0
220
0
230
1
40
0.999894
41
3.14159251588498
42
0
0
ELLIPSE
5
AD
100
AcDbEntity
8
1
62
256
6
ByLayer
370
-1
48
1
60
0
100
AcDbEllipse
10
63.69917
20
6.489995
30
0
11
-1.725
21
2.1124459603436E-16
31
0
210
0
220
0
230
1
40
0.999894
41
0
42
6.28318530717959
0
ELLIPSE
5
AE
100
AcDbEntity
8
1
62
256
6
ByLayer
370
-1
48
1
60
0
100
AcDbEllipse
10
63.69917
20
6.487272
30
0
11
1.90468944117779
21
0
31
0
210
0
220
0
230
1
40
0.999894
41
0
42
6.28318530717959
0
ELLIPSE
5
AF
100
AcDbEntity
8
1
62
256
6
ByLayer
370
-1
48
1
60
0
100
AcDbEllipse
10
63.69917
20
6.498724
30
0
11
1.8014146404184
21
0
31
0
210
0
220
0
230
1
40
0.999894
41
0
42
6.28318530717959
0
ELLIPSE
5
B0
100
AcDbEntity
8
1
62
256
6
ByLayer
370
-1
48
1
60
0
100
AcDbEllipse
10
63.69917
20
6.495089
30
0
11
-1.88122167929295
21
2.30375602141055E-16
31
0
210
0
220
0
230
1
40
0.999894
41
0
42
6.28318530717959
0
POINT
5
41
100
AcDbEntity
8
80
62
256
6
ByLayer
370
-1
48
1
60
0
100
AcDbPoint
10
0
20
0
30
0
39
0
210
0
220
0
230
1
50
360
0
POINT
5
43
100
AcDbEntity
8
81
62
256
6
ByLayer
370
-1
48
1
60
0
100
AcDbPoint
10
63.94
20
12.9
30
0
39
0
210
0
220
0
230
1
50
360
0
POINT
5
45
100
AcDbEntity
8
1
62
256
6
ByLayer
370
-1
48
1
60
0
100
AcDbPoint
10
-137.31
20
0
30
0
39
0
210
0
220
0
230
1
50
360
0
POINT
5
47
100
AcDbEntity
8
2
62
256
6
ByLayer
370
-1
48
1
60
0
100
AcDbPoint
10
63.94
20
12.9
30
0
39
0
210
0
220
0
230
1
50
360
0
SPLINE
5
B1
100
AcDbEntity
8
1
62
256
6
ByLayer
370
-1
48
1
60
0
100
AcDbSpline
70
4
71
3
72
8
73
4
40
0
40
0
40
0
40
0
40
1
40
1
40
1
40
1
41
1
10
58.764198402765
20
-7.99196029941032
30
0
41
1
10
58.7891945830067
20
-7.96689783851787
30
0
41
1
10
58.8141946225966
20
-7.94182579745416
30
0
41
1
10
58.8391984027651
20
-7.9167445096387
30
0
0
SPLINE
5
B2
100
AcDbEntity
8
1
62
256
6
ByLayer
370
-1
48
1
60
0
100
AcDbSpline
70
4
71
3
72
14
73
10
40
0
40
0
40
0
40
0
40
0.25
40
0.25
40
0.5
40
0.5
40
0.75
40
0.75
40
1
40
1
40
1
40
1
41
1
10
42.3095973427569
20
0.208217351629059
30
0
41
1
10
41.9284237438196
20
1.8542027450288
30
0
41
1
10
42.031420678105
20
3.56549348274527
30
0
41
1
10
43.4020569062093
20
6.01831740367945
30
0
41
1
10
44.6046736461499
20
6.75284344227106
30
0
41
1
10
47.2885842561723
20
7.62059668683651
30
0
41
1
10
48.8085437994019
20
7.79672935529462
30
0
41
1
10
51.9192614349014
20
7.98346832877246
30
0
41
1
10
53.5437775150328
20
7.99195601222195
30
0
41
1
10
55.1973490509399
20
7.99248367410411
30
0
0
SPLINE
5
B3
100
AcDbEntity
8
1
62
256
6
ByLayer
370
-1
48
1
60
0
100
AcDbSpline
70
4
71
3
72
15
73
11
40
0
40
0
40
0
40
0
40
0.295177176073146
40
0.295177176073146
40
0.590386809370849
40
0.590386809370849
40
0.884830951394889
40
0.884830951394889
40
0.884830951394889
40
1
40
1
40
1
40
1
41
1
10
56.5980378509732
20
6.6159113441318
30
0
41
1
10
56.8381710587296
20
6.37991264884914
30
0
41
1
10
57.1222488959842
20
6.18239321879904
30
0
41
1
10
57.7316307288878
20
5.89657487358815
30
0
41
1
10
58.0654293838483
20
5.80432870660806
30
0
41
1
10
58.7352506374932
20
5.73699407792299
30
0
41
1
10
59.0805929524643
20
5.76072271571505
30
0
41
1
10
59.4077423407333
20
5.84004162925953
30
0
41
1
10
59.5372906301523
20
5.87145122358169
30
0
41
1
10
59.665043630968
20
5.91160982354378
30
0
41
1
10
59.7892716649225
20
5.95997570075144
30
0
0
SPLINE
5
B4
100
AcDbEntity
8
1
62
256
6
ByLayer
370
-1
48
1
60
0
100
AcDbSpline
70
4
71
3
72
14
73
10
40
0
40
0
40
0
40
0
40
0.25
40
0.25
40
0.5
40
0.5
40
0.75
40
0.75
40
1
40
1
40
1
40
1
41
1
10
58.7641984027651
20
-7.99196029941095
30
0
41
1
10
56.993237171128
20
-7.99580561532775
30
0
41
1
10
55.2854906412006
20
-7.98623670785702
30
0
41
1
10
51.9919475025279
20
-7.74636174894803
30
0
41
1
10
50.3894501431101
20
-7.50978850526985
30
0
41
1
10
47.4588344686966
20
-6.52712332080722
30
0
41
1
10
46.1045344548573
20
-5.76673279774221
30
0
41
1
10
43.8294111788218
20
-3.48830851241766
30
0
41
1
10
42.9010667819556
20
-1.95206693471152
30
0
41
1
10
42.4157646343844
20
-0.208217351629059
30
0
0
SPLINE
5
B5
100
AcDbEntity
8
1
62
256
6
ByLayer
370
-1
48
1
60
0
100
AcDbSpline
70
4
71
3
72
14
73
10
40
0
40
0
40
0
40
0
40
0.192773324960484
40
0.192773324960484
40
0.531504164443338
40
0.531504164443338
40
0.879223357433162
40
0.879223357433162
40
1
40
1
40
1
40
1
41
1
10
42.4157646343844
20
-0.208217351629088
30
0
41
1
10
42.4178028732417
20
-0.181585024800739
30
0
41
1
10
42.4179774867201
20
-0.153992557856583
30
0
41
1
10
42.4132590799623
20
-0.0774324294539213
30
0
41
1
10
42.4042489448466
20
-0.0270924366137706
30
0
41
1
10
42.3763553299577
20
0.0703343781153194
30
0
41
1
10
42.3569779494949
20
0.11843655880773
30
0
41
1
10
42.326520070102
20
0.178373007078193
30
0
41
1
10
42.3182309103398
20
0.193500368836993
30
0
41
1
10
42.3095973427569
20
0.208217351629059
30
0
0
SPLINE
5
B6
100
AcDbEntity
8
1
62
256
6
ByLayer
370
-1
48
1
60
0
100
AcDbSpline
70
4
71
3
72
28
73
24
40
-0.125000000000001
40
-0.125000000000001
40
0
40
0
40
0.124999999999997
40
0.124999999999997
40
0.187499999999998
40
0.187499999999998
40
0.249999999999999
40
0.249999999999999
40
0.374999999999999
40
0.374999999999999
40
0.499999999999999
40
0.499999999999999
40
0.624999999999999
40
0.624999999999999
40
0.687499999999999
40
0.687499999999999
40
0.718749999999999
40
0.718749999999999
40
0.749999999999999
40
0.749999999999999
40
0.874999999999999
40
0.874999999999999
40
1
40
1
40
1.125
40
1.125
41
1
10
50.7086758376169
20
3.7233008660663
30
0
41
1
10
49.5166554382071
20
3.18302963682143
30
0
41
1
10
48.900135112497
20
2.97956940520575
30
0
41
1
10
47.9535836738437
20
3.06790093617016
30
0
41
1
10
47.6198165780913
20
3.17647709783475
30
0
41
1
10
47.1865771686115
20
3.73301613570104
30
0
41
1
10
47.1693959225075
20
4.14245972384677
30
0
41
1
10
47.4777502534931
20
5.12947492859308
30
0
41
1
10
47.9904642071018
20
5.58584841284718
30
0
41
1
10
49.0623937154738
20
6.30357051788562
30
0
41
1
10
49.6668575957087
20
6.56684085808064
30
0
41
1
10
50.9345161520354
20
6.95481016216624
30
0
41
1
10
51.6006371043063
20
7.091392946056
30
0
41
1
10
52.633888570923
20
7.09778461877875
30
0
41
1
10
53.0084289068619
20
7.09399382815459
30
0
41
1
10
53.4406673124805
20
6.77850032110734
30
0
41
1
10
53.5089791016744
20
6.5853921228948
30
0
41
1
10
53.4473325748809
20
6.23348786816243
30
0
41
1
10
53.3608523741925
20
6.07427200427364
30
0
41
1
10
52.8836407892706
20
5.33739633809714
30
0
41
1
10
52.3479147756626
20
4.88987519383062
30
0
41
1
10
51.2696388593118
20
4.0718684975275
30
0
41
1
10
50.7086758376169
20
3.7233008660663
30
0
41
1
10
49.5166554382071
20
3.18302963682143
30
0
0
SPLINE
5
B7
100
AcDbEntity
8
1
62
256
6
ByLayer
370
-1
48
1
60
0
100
AcDbSpline
70
4
71
3
72
8
73
4
40
0
40
0
40
0
40
0
40
1
40
1
40
1
40
1
41
1
10
58.8391984027651
20
-7.91674450963873
30
0
41
1
10
58.8557666714946
20
-7.91670262564097
30
0
41
1
10
58.8723378944713
20
-7.91665922264437
30
0
41
1
10
58.8889120249554
20
-7.91661435603399
30
0
0
SPLINE
5
B8
100
AcDbEntity
8
SK1
62
256
6
ByLayer
370
-1
48
1
60
0
100
AcDbSpline
70
4
71
3
72
24
73
20
40
0
40
0
40
0
40
0
40
0.250000000000022
40
0.250000000000022
40
0.375000000000034
40
0.375000000000034
40
0.437500000000044
40
0.437500000000044
40
0.500000000000053
40
0.500000000000053
40
0.531250000000055
40
0.531250000000055
40
0.562500000000057
40
0.562500000000057
40
0.625000000000052
40
0.625000000000052
40
0.750000000000035
40
0.750000000000035
40
1
40
1
40
1
40
1
41
1
10
-48.06
20
-0.208217351629059
30
0
41
1
10
-48.468842020981
20
-0.208217351629059
30
0
41
1
10
-48.8775700421798
20
-0.200628106757165
30
0
41
1
10
-49.4901123303116
20
-0.171073275450709
30
0
41
1
10
-49.6939608358335
20
-0.158342940298127
30
0
41
1
10
-49.9985633625024
20
-0.129106778533071
30
0
41
1
10
-50.0999152849483
20
-0.11778208857757
30
0
41
1
10
-50.3016559370235
20
-0.0867855292194974
30
0
41
1
10
-50.4176642593246
20
-0.0899171685785518
30
0
41
1
10
-50.5369313789907
20
0.013645893418726
30
0
41
1
10
-50.4484711277943
20
0.0489364234136644
30
0
41
1
10
-50.3478903856417
20
0.0766629766365838
30
0
41
1
10
-50.2966456087818
20
0.0864424784148241
30
0
41
1
10
-50.1421535471276
20
0.112538835792321
30
0
41
1
10
-50.0385119130168
20
0.124684589520399
30
0
41
1
10
-49.7273848627499
20
0.156042093009802
30
0
41
1
10
-49.5192790403735
20
0.169368026065086
30
0
41
1
10
-48.8942101016121
20
0.200370771894711
30
0
41
1
10
-48.4771903882063
20
0.208217351629059
30
0
41
1
10
-48.06
20
0.208217351629059
30
0
0
SPLINE
5
B9
100
AcDbEntity
8
1
62
256
6
ByLayer
370
-1
48
1
60
0
100
AcDbSpline
70
4
71
3
72
18
73
14
40
0
40
0
40
0
40
0
40
0.213361793435729
40
0.213361793435729
40
0.388976734487922
40
0.388976734487922
40
0.566230311819353
40
0.566230311819353
40
0.721153957914408
40
0.721153957914408
40
0.927388585951427
40
0.927388585951427
40
1
40
1
40
1
40
1
41
1
10
63.0094934109184
20
7.09319024745969
30
0
41
1
10
63.0514797610092
20
7.08271795143477
30
0
41
1
10
63.0965890519291
20
7.07842881799021
30
0
41
1
10
63.1799068522371
20
7.08434830980008
30
0
41
1
10
63.2188583357185
20
7.09229031490483
30
0
41
1
10
63.2938078529152
20
7.11917420540226
30
0
41
1
10
63.330838126929
20
7.13871552120347
30
0
41
1
10
63.3918936769946
20
7.18315027704745
30
0
41
1
10
63.4177296453489
20
7.20754565310458
30
0
41
1
10
63.4682853326274
20
7.26816692312207
30
0
41
1
10
63.4907971127494
20
7.30659546908623
30
0
41
1
10
63.5121770559684
20
7.35978020121004
30
0
41
1
10
63.5169901020703
20
7.37393785950849
30
0
41
1
10
63.5210079403543
20
7.38818958946257
30
0
0
SPLINE
5
BA
100
AcDbEntity
8
1
62
256
6
ByLayer
370
-1
48
1
60
0
100
AcDbSpline
70
4
71
3
72
16
73
12
40
0
40
0
40
0
40
0
40
0.0609244465266124
40
0.0609244465266124
40
0.285652752553885
40
0.285652752553885
40
0.513025180469582
40
0.513025180469582
40
0.754691995727754
40
0.754691995727754
40
1
40
1
40
1
40
1
41
1
10
64.5950622966129
20
7.00567919193043
30
0
41
1
10
64.5924942422483
20
7.01011792280048
30
0
41
1
10
64.5897384280317
20
7.01445576274108
30
0
41
1
10
64.5760953300704
20
7.03408656624697
30
0
41
1
10
64.5628515903387
20
7.04799852616654
30
0
41
1
10
64.5334420110158
20
7.07088191304112
30
0
41
1
10
64.5168779748281
20
7.08009646534268
30
0
41
1
10
64.4817963271334
20
7.09341746981323
30
0
41
1
10
64.4627888025316
20
7.09735201219917
30
0
41
1
10
64.4253554506329
20
7.09946800295646
30
0
41
1
10
64.4065351237134
20
7.09760197867018
30
0
41
1
10
64.3888472651319
20
7.09319024745966
30
0
0
SPLINE
5
BB
100
AcDbEntity
8
1
62
256
6
ByLayer
370
-1
48
1
60
0
100
AcDbSpline
70
4
71
3
72
14
73
10
40
0
40
0
40
0
40
0
40
0.0516377674049841
40
0.0516377674049841
40
0.388537678543402
40
0.388537678543402
40
0.836574397160262
40
0.836574397160262
40
1
40
1
40
1
40
1
41
1
10
62.9517027217989
20
6.51808834759026
30
0
41
1
10
62.9513363747133
20
6.52354974027313
30
0
41
1
10
62.9508637228225
20
6.52899867834256
30
0
41
1
10
62.9465515488675
20
6.56953592070886
30
0
41
1
10
62.9382753193104
20
6.6040659268939
30
0
41
1
10
62.9108247218044
20
6.67797801327342
30
0
41
1
10
62.8886210295565
20
6.71654318514726
30
0
41
1
10
62.8526440791242
20
6.76187566836626
30
0
41
1
10
62.8423368272498
20
6.77345032391693
30
0
41
1
10
62.8315161064817
20
6.78433546297816
30
0
0
SPLINE
5
BC
100
AcDbEntity
8
1
62
256
6
ByLayer
370
-1
48
1
60
0
100
AcDbSpline
70
4
71
3
72
18
73
14
40
0
40
0
40
0
40
0
40
0.21262339445665
40
0.21262339445665
40
0.3883664013521
40
0.3883664013521
40
0.565756715405886
40
0.565756715405886
40
0.720704048532152
40
0.720704048532152
40
0.926806395764309
40
0.926806395764309
40
1
40
1
40
1
40
1
41
1
10
63.8773327356956
20
7.38818958946405
30
0
41
1
10
63.8889696499629
20
7.34691212931799
30
0
41
1
10
63.9074896022318
20
7.30601856562558
30
0
41
1
10
63.9537860511486
20
7.23716532991986
30
0
41
1
10
63.9800060198407
20
7.20746765866599
30
0
41
1
10
64.0406346608102
20
7.15606221718775
30
0
41
1
10
64.076082247671
20
7.13375901248608
30
0
41
1
10
64.1452265714078
20
7.10304281438624
30
0
41
1
10
64.1793792191415
20
7.09281456827287
30
0
41
1
10
64.2574496535975
20
7.07918917381568
30
0
41
1
10
64.3022002441746
20
7.07877896718162
30
0
41
1
10
64.3594027845223
20
7.08667173883228
30
0
41
1
10
64.3742848621584
20
7.08955807189687
30
0
41
1
10
64.3888472651318
20
7.09319024745969
30
0
0
SPLINE
5
BD
100
AcDbEntity
8
1
62
256
6
ByLayer
370
-1
48
1
60
0
100
AcDbSpline
70
4
71
3
72
14
73
10
40
0
40
0
40
0
40
0
40
0.282127999275362
40
0.282127999275362
40
0.569641098865807
40
0.569641098865807
40
0.830142259287263
40
0.830142259287263
40
1
40
1
40
1
40
1
41
1
10
63.5210079403547
20
5.58871728904478
30
0
41
1
10
63.5266603227869
20
5.56835317005792
30
0
41
1
10
63.5360135551051
20
5.54834981800656
30
0
41
1
10
63.5616256130867
20
5.51229337706505
30
0
41
1
10
63.5784432101566
20
5.4957877154491
30
0
41
1
10
63.6154391412264
20
5.47139999264914
30
0
41
1
10
63.6357312573247
20
5.46251741380809
30
0
41
1
10
63.6705734702438
20
5.45426198942656
30
0
41
1
10
63.684927847701
20
5.45257461730074
30
0
41
1
10
63.6991703380252
20
5.45257461730074
30
0
0
SPLINE
5
BE
100
AcDbEntity
8
1
62
256
6
ByLayer
370
-1
48
1
60
0
100
AcDbSpline
70
4
71
3
72
18
73
14
40
0
40
0
40
0
40
0
40
0.0086058726160337
40
0.0086058726160337
40
0.234615135106107
40
0.234615135106107
40
0.460259193647804
40
0.460259193647804
40
0.697744095893462
40
0.697744095893462
40
0.956834230484553
40
0.956834230484553
40
1
40
1
40
1
40
1
41
1
10
62.8032783794374
20
5.96925112027466
30
0
41
1
10
62.803643331736
20
5.96862032169958
30
0
41
1
10
62.8040120200412
20
5.96799169585395
30
0
41
1
10
62.8140351607502
20
5.95113183831984
30
0
41
1
10
62.8263792859423
20
5.93623538897515
30
0
41
1
10
62.8542626992538
20
5.91146852087564
30
0
41
1
10
62.8701457466861
20
5.90126259193187
30
0
41
1
10
62.9040728094666
20
5.88595088951797
30
0
41
1
10
62.9226045627966
20
5.88093112466089
30
0
41
1
10
62.9608518077702
20
5.87646798473187
30
0
41
1
10
62.9809986837069
20
5.87749529553957
30
0
41
1
10
63.0031788312434
20
5.88213254951404
30
0
41
1
10
63.0063512051092
20
5.88288427613014
30
0
41
1
10
63.0094934109184
20
5.8837166310492
30
0
0
SPLINE
5
BF
100
AcDbEntity
8
1
62
256
6
ByLayer
370
-1
48
1
60
0
100
AcDbSpline
70
4
71
3
72
18
73
14
40
0
40
0
40
0
40
0
40
0.213361793435704
40
0.213361793435704
40
0.388976734487876
40
0.388976734487876
40
0.566230311819285
40
0.566230311819285
40
0.721153957914319
40
0.721153957914319
40
0.927388585951311
40
0.927388585951311
40
1
40
1
40
1
40
1
41
1
10
64.3888472651319
20
5.8837166310492
30
0
41
1
10
64.3468609150411
20
5.89483860941479
30
0
41
1
10
64.3017516241212
20
5.89973966845471
30
0
41
1
10
64.2184338238132
20
5.89471153028998
30
0
41
1
10
64.1794823403318
20
5.88709512015035
30
0
41
1
10
64.1045328231351
20
5.86058200113783
30
0
41
1
10
64.0675025491212
20
5.84108343422196
30
0
41
1
10
64.0064469990556
20
5.79643746099174
30
0
41
1
10
63.9806110307014
20
5.77182513234484
30
0
41
1
10
63.9300553434229
20
5.71051690443565
30
0
41
1
10
63.907543563301
20
5.67155241130212
30
0
41
1
10
63.886163620082
20
5.61756834463353
30
0
41
1
10
63.8813505739799
20
5.60319255462989
30
0
41
1
10
63.877332735696
20
5.58871728904626
30
0
0
SPLINE
5
C0
100
AcDbEntity
8
1
62
256
6
ByLayer
370
-1
48
1
60
0
100
AcDbSpline
70
4
71
3
72
18
73
14
40
0
40
0
40
0
40
0
40
0.212623394437255
40
0.212623394437255
40
0.388366401336101
40
0.388366401336101
40
0.565756715393494
40
0.565756715393494
40
0.720704048520367
40
0.720704048520367
40
0.926806395749085
40
0.926806395749085
40
1
40
1
40
1
40
1
41
1
10
63.5210079403547
20
5.58871728904475
30
0
41
1
10
63.5093710260885
20
5.63064217817052
30
0
41
1
10
63.4908510738219
20
5.67214562351074
30
0
41
1
10
63.4445546249095
20
5.74189033650222
30
0
41
1
10
63.4183346562178
20
5.77191472256021
30
0
41
1
10
63.3577060152487
20
5.82369312470999
30
0
41
1
10
63.3222584283877
20
5.84604014467197
30
0
41
1
10
63.2531141046505
20
5.87654653933231
30
0
41
1
10
63.2189614569168
20
5.88655841631186
30
0
41
1
10
63.1408910224613
20
5.89949815059614
30
0
41
1
10
63.0961404318847
20
5.89937324895357
30
0
41
1
10
63.0389378915342
20
5.89068031871636
30
0
41
1
10
63.0240558138949
20
5.88757414022786
30
0
41
1
10
63.0094934109185
20
5.88371663104917
30
0
0
SPLINE
5
C1
100
AcDbEntity
8
1
62
256
6
ByLayer
370
-1
48
1
60
0
100
AcDbSpline
70
4
71
3
72
14
73
10
40
0
40
0
40
0
40
0
40
0.0516377674049772
40
0.0516377674049772
40
0.388537678543406
40
0.388537678543406
40
0.836574397160241
40
0.836574397160241
40
1
40
1
40
1
40
1
41
1
10
64.4466379542514
20
6.46166160576578
30
0
41
1
10
64.447004301337
20
6.45619060224391
30
0
41
1
10
64.4474769532278
20
6.45072927470312
30
0
41
1
10
64.4517891271828
20
6.41007923882273
30
0
41
1
10
64.4600653567399
20
6.37533321397819
30
0
41
1
10
64.4875159542459
20
6.3007361729278
30
0
41
1
10
64.5097196464938
20
6.26163626516774
30
0
41
1
10
64.5456965969261
20
6.21549837729259
30
0
41
1
10
64.5560038488006
20
6.20369781789944
30
0
41
1
10
64.5668245695686
20
6.19258105299014
30
0
0
SPLINE
5
C2
100
AcDbEntity
8
1
62
256
6
ByLayer
370
-1
48
1
60
0
100
AcDbSpline
70
4
71
3
72
14
73
10
40
0
40
0
40
0
40
0
40
0.28447663502266
40
0.28447663502266
40
0.571695781051069
40
0.571695781051069
40
0.831963197403483
40
0.831963197403483
40
1
40
1
40
1
40
1
41
1
10
63.0094934109185
20
7.09319024745966
30
0
41
1
10
62.9890015027539
20
7.09830136876337
30
0
41
1
10
62.9669326964866
20
7.09998328398351
30
0
41
1
10
62.9229616331033
20
7.09532720820329
30
0
41
1
10
62.9003875008597
20
7.08880072184306
30
0
41
1
10
62.8609796651899
20
7.068643157894
30
0
41
1
10
62.843229446899
20
7.05539954700433
30
0
41
1
10
62.8188633860848
20
7.02935392017537
30
0
41
1
10
62.8103340461715
20
7.01787449673876
30
0
41
1
10
62.8032783794374
20
7.00567919193045
30
0
0
SPLINE
5
C3
100
AcDbEntity
8
1
62
256
6
ByLayer
370
-1
48
1
60
0
100
AcDbSpline
70
4
71
3
72
14
73
10
40
0
40
0
40
0
40
0
40
0.204571931798992
40
0.204571931798992
40
0.501177311397708
40
0.501177311397708
40
0.769252044597355
40
0.769252044597355
40
1
40
1
40
1
40
1
41
1
10
62.8315161064815
20
6.19258105299173
30
0
41
1
10
62.8208065284992
20
6.18157847162419
30
0
41
1
10
62.8112551390625
20
6.16902774324515
30
0
41
1
10
62.7920036312647
20
6.13558714546184
30
0
41
1
10
62.7838892676018
20
6.11285406690968
30
0
41
1
10
62.777263043722
20
6.06792335524952
30
0
41
1
10
62.7778437494449
20
6.04518962908449
30
0
41
1
10
62.7864624860745
20
6.00462868766016
30
0
41
1
10
62.7935752168275
20
5.98602246593083
30
0
41
1
10
62.8032783794374
20
5.96925112027466
30
0
0
SPLINE
5
C4
100
AcDbEntity
8
1
62
256
6
ByLayer
370
-1
48
1
60
0
100
AcDbSpline
70
4
71
3
72
16
73
12
40
0
40
0
40
0
40
0
40
0.06680061678357
40
0.06680061678357
40
0.290692933325081
40
0.290692933325081
40
0.517562321892983
40
0.517562321892983
40
0.758956769831048
40
0.758956769831048
40
1
40
1
40
1
40
1
41
1
10
64.595062296613
20
5.96925112027469
30
0
41
1
10
64.597885638083
20
5.97413109988588
30
0
41
1
10
64.6004887803308
20
5.97914851821713
30
0
41
1
10
64.6107247900496
20
6.00130425571419
30
0
41
1
10
64.6160008059599
20
6.01976257660505
30
0
41
1
10
64.6207972216736
20
6.0567412716924
30
0
41
1
10
64.6203160684275
20
6.07572802908751
30
0
41
1
10
64.6139261966497
20
6.1128387330447
30
0
41
1
10
64.6076117649678
20
6.13129793644941
30
0
41
1
10
64.5904379953592
20
6.16451077384588
30
0
41
1
10
64.5794264440403
20
6.17963440378625
30
0
41
1
10
64.5668245695686
20
6.19258105299016
30
0
0
SPLINE
5
C5
100
AcDbEntity
8
1
62
256
6
ByLayer
370
-1
48
1
60
0
100
AcDbSpline
70
4
71
3
72
14
73
10
40
0
40
0
40
0
40
0
40
0.282127999274399
40
0.282127999274399
40
0.569641098865039
40
0.569641098865039
40
0.83014225928649
40
0.83014225928649
40
1
40
1
40
1
40
1
41
1
10
63.8773327356956
20
7.38818958946405
30
0
41
1
10
63.8716803532635
20
7.40823923365724
30
0
41
1
10
63.8623271209453
20
7.42794360207839
30
0
41
1
10
63.8367150629637
20
7.46347294255449
30
0
41
1
10
63.8198974658939
20
7.47974396217788
30
0
41
1
10
63.7829015348241
20
7.50378935833248
30
0
41
1
10
63.7626094187258
20
7.51254949820381
30
0
41
1
10
63.7277672058066
20
7.52069139481168
30
0
41
1
10
63.7134128283494
20
7.52235569490441
30
0
41
1
10
63.6991703380252
20
7.52235569490441
30
0
0
SPLINE
5
C6
100
AcDbEntity
8
1
62
256
6
ByLayer
370
-1
48
1
60
0
100
AcDbSpline
70
4
71
3
72
12
73
8
40
0
40
0
40
0
40
0
40
0.463755973206209
40
0.463755973206209
40
0.845278245647162
40
0.845278245647162
40
1
40
1
40
1
40
1
41
1
10
64.5668245695686
20
6.78433546297816
30
0
41
1
10
64.536388592437
20
6.7537182933236
30
0
41
1
10
64.5097663171567
20
6.71726153640441
30
0
41
1
10
64.4727104820361
20
6.64280857135651
30
0
41
1
10
64.4599140064599
20
6.60534535375822
30
0
41
1
10
64.4497743438009
20
6.55055894363176
30
0
41
1
10
64.4477297981958
20
6.53436523026153
30
0
41
1
10
64.4466379542514
20
6.51808834759026
30
0
0
SPLINE
5
C7
100
AcDbEntity
8
1
62
256
6
ByLayer
370
-1
48
1
60
0
100
AcDbSpline
70
4
71
3
72
14
73
10
40
0
40
0
40
0
40
0
40
0.284476635022494
40
0.284476635022494
40
0.571695781050827
40
0.571695781050827
40
0.831963197403284
40
0.831963197403284
40
1
40
1
40
1
40
1
41
1
10
64.3888472651318
20
5.8837166310492
30
0
41
1
10
64.4093391732964
20
5.87828842500645
30
0
41
1
10
64.4314079795636
20
5.87630513942571
30
0
41
1
10
64.475379042947
20
5.88043337241419
30
0
41
1
10
64.4979531751906
20
5.88672614893264
30
0
41
1
10
64.5373610108604
20
5.90654312355525
30
0
41
1
10
64.5551112291514
20
5.91966514202093
30
0
41
1
10
64.5794772899655
20
5.94559896595399
30
0
41
1
10
64.5880066298789
20
5.95705581546636
30
0
41
1
10
64.595062296613
20
5.96925112027469
30
0
0
SPLINE
5
C8
100
AcDbEntity
8
1
62
256
6
ByLayer
370
-1
48
1
60
0
100
AcDbSpline
70
4
71
3
72
16
73
12
40
0
40
0
40
0
40
0
40
0.066821727675713
40
0.066821727675713
40
0.290784800547016
40
0.290784800547016
40
0.517725886284132
40
0.517725886284132
40
0.759196621722638
40
0.759196621722638
40
1
40
1
40
1
40
1
41
1
10
62.8032783794374
20
7.00567919193045
30
0
41
1
10
62.8004550379673
20
7.00079921231924
30
0
41
1
10
62.7978518957196
20
6.99578535855412
30
0
41
1
10
62.7876158860007
20
6.97366036120766
30
0
41
1
10
62.7823398700904
20
6.95526629936717
30
0
41
1
10
62.7775434543767
20
6.91848732932002
30
0
41
1
10
62.7780246076228
20
6.89963940477358
30
0
41
1
10
62.7844144794006
20
6.86287203025702
30
0
41
1
10
62.7907289110825
20
6.84462513585751
30
0
41
1
10
62.8079026806911
20
6.81187794025468
30
0
41
1
10
62.8189142320101
20
6.7970123593694
30
0
41
1
10
62.8315161064817
20
6.78433546297814
30
0
0
SPLINE
5
C9
100
AcDbEntity
8
1
62
256
6
ByLayer
370
-1
48
1
60
0
100
AcDbSpline
70
4
71
3
72
14
73
10
40
0
40
0
40
0
40
0
40
0.278072347681269
40
0.278072347681269
40
0.565532186592899
40
0.565532186592899
40
0.825903755622255
40
0.825903755622255
40
1
40
1
40
1
40
1
41
1
10
64.5668245695686
20
6.78433546297814
30
0
41
1
10
64.5813648602073
20
6.79896231538336
30
0
41
1
10
64.5938047199812
20
6.81655265413082
30
0
41
1
10
64.6121773202835
20
6.85602591691469
30
0
41
1
10
64.6181236698279
20
6.87866754154217
30
0
41
1
10
64.6208791225329
20
6.92270158880749
30
0
41
1
10
64.6185001857735
20
6.94467758833883
30
0
41
1
10
64.6082485797602
20
6.97936094314778
30
0
41
1
10
64.6023920901462
20
6.99301007507876
30
0
41
1
10
64.5950622966129
20
7.00567919193043
30
0
0
SPLINE
5
CA
100
AcDbEntity
8
1
62
256
6
ByLayer
370
-1
48
1
60
0
100
AcDbSpline
70
4
71
3
72
16
73
12
40
0
40
0
40
0
40
0
40
0.0653254441723459
40
0.0653254441723459
40
0.289979774804571
40
0.289979774804571
40
0.517525837638201
40
0.517525837638201
40
0.759567415125189
40
0.759567415125189
40
1
40
1
40
1
40
1
41
1
10
63.6991703380252
20
5.45257461730074
30
0
41
1
10
63.7046669685585
20
5.45257461730074
30
0
41
1
10
63.7101702467722
20
5.45282195845166
30
0
41
1
10
63.7343297956302
20
5.45499603537081
30
0
41
1
10
63.7529383817415
20
5.45964698859152
30
0
41
1
10
63.7873004033344
20
5.47398652309488
30
0
41
1
10
63.8034572933312
20
5.48390794745316
30
0
41
1
10
63.8322837608903
20
5.50803718140111
30
0
41
1
10
63.8450396629847
20
5.52276456713614
30
0
41
1
10
63.8650227302109
20
5.55426355622072
30
0
41
1
10
63.8725101139812
20
5.57134259021581
30
0
41
1
10
63.877332735696
20
5.58871728904626
30
0
0
SPLINE
5
CB
100
AcDbEntity
8
1
62
256
6
ByLayer
370
-1
48
1
60
0
100
AcDbSpline
70
4
71
3
72
12
73
8
40
0
40
0
40
0
40
0
40
0.463755973203938
40
0.463755973203938
40
0.845278245646516
40
0.845278245646516
40
1
40
1
40
1
40
1
41
1
10
62.8315161064825
20
6.19258105299102
30
0
41
1
10
62.8619520836137
20
6.22384972813808
30
0
41
1
10
62.8885743588938
20
6.26092054332452
30
0
41
1
10
62.9256301940142
20
6.33626888347894
30
0
41
1
10
62.9384266695905
20
6.37405966043437
30
0
41
1
10
62.9485663322494
20
6.42910876847785
30
0
41
1
10
62.9506108778546
20
6.44535607939346
30
0
41
1
10
62.9517027217989
20
6.46166160576578
30
0
0
SPLINE
5
CC
100
AcDbEntity
8
1
62
256
6
ByLayer
370
-1
48
1
60
0
100
AcDbSpline
70
4
71
3
72
16
73
12
40
0
40
0
40
0
40
0
40
0.0653254441715549
40
0.0653254441715549
40
0.289979774803888
40
0.289979774803888
40
0.51752583763731
40
0.51752583763731
40
0.759567415124248
40
0.759567415124248
40
1
40
1
40
1
40
1
41
1
10
63.6991703380252
20
7.52235569490441
30
0
41
1
10
63.6936737074919
20
7.52235569490441
30
0
41
1
10
63.6881704292783
20
7.52211174097954
30
0
41
1
10
63.6640108804203
20
7.51996746287261
30
0
41
1
10
63.645402294309
20
7.51538019443217
30
0
41
1
10
63.611040272716
20
7.50123930914782
30
0
41
1
10
63.5948833827193
20
7.49145617468096
30
0
41
1
10
63.5660569151602
20
7.46766920206267
30
0
41
1
10
63.5533010130658
20
7.45315357487326
30
0
41
1
10
63.5333179458395
20
7.42211841843351
30
0
41
1
10
63.5258305620692
20
7.40529597789714
30
0
41
1
10
63.5210079403543
20
7.38818958946257
30
0
0
LINE
5
49
100
AcDbEntity
8
80
62
256
6
ByLayer
370
-1
48
1
60
0
100
AcDbLine
10
0
20
0
30
0
11
-10
21
0
31
0
39
0
210
0
220
0
230
1
0
LINE
5
4A
100
AcDbEntity
8
1
62
256
6
ByLayer
370
-1
48
1
60
0
100
AcDbLine
10
64.051203
20
12.686404
30
0
11
67.183211
21
6.670509
31
0
39
0
210
0
220
0
230
1
0
LINE
5
4B
100
AcDbEntity
8
1
62
256
6
ByLayer
370
-1
48
1
60
0
100
AcDbLine
10
67.183211
20
6.304035
30
0
11
64.051203
21
0.28814
31
0
39
0
210
0
220
0
230
1
0
LINE
5
4C
100
AcDbEntity
8
1
62
256
6
ByLayer
370
-1
48
1
60
0
100
AcDbLine
10
63.347138
20
0.28814
30
0
11
60.21513
21
6.304035
31
0
39
0
210
0
220
0
230
1
0
LINE
5
4D
100
AcDbEntity
8
SK1
62
256
6
ByLayer
370
-1
48
1
60
0
100
AcDbLine
10
-136.81
20
7.9925
30
0
11
-137.31
21
7.4925
31
0
39
0
210
0
220
0
230
1
0
LINE
5
4F
100
AcDbEntity
8
SK1
62
256
6
ByLayer
370
-1
48
1
60
0
100
AcDbLine
10
-137.31
20
-7.4925
30
0
11
-136.81
21
-7.9925
31
0
39
0
210
0
220
0
230
1
0
LINE
5
50
100
AcDbEntity
8
SK1
62
256
6
ByLayer
370
-1
48
1
60
0
100
AcDbLine
10
-136.81
20
-7.9925
30
0
11
0
21
-7.9925
31
0
39
0
210
0
220
0
230
1
0
LINE
5
51
100
AcDbEntity
8
SK1
62
256
6
ByLayer
370
-1
48
1
60
0
100
AcDbLine
10
0
20
7.9925
30
0
11
-136.81
21
7.9925
31
0
39
0
210
0
220
0
230
1
0
LINE
5
52
100
AcDbEntity
8
1
62
256
6
ByLayer
370
-1
48
1
60
0
100
AcDbLine
10
61.97417
20
6.500554
30
0
11
61.97417
21
6.489995
31
0
39
0
210
0
220
0
230
1
0
LINE
5
53
100
AcDbEntity
8
1
62
256
6
ByLayer
370
-1
48
1
60
0
100
AcDbLine
10
65.42417
20
6.489995
30
0
11
65.42417
21
6.500554
31
0
39
0
210
0
220
0
230
1
0
LINE
5
54
100
AcDbEntity
8
1
62
256
6
ByLayer
370
-1
48
1
60
0
100
AcDbLine
10
0
20
-7.9925
30
0
11
58.3585
21
-7.9925
31
0
39
0
210
0
220
0
230
1
0
LINE
5
55
100
AcDbEntity
8
1
62
256
6
ByLayer
370
-1
48
1
60
0
100
AcDbLine
10
55.163731
20
7.9925
30
0
11
0
21
7.9925
31
0
39
0
210
0
220
0
230
1
0
LINE
5
56
100
AcDbEntity
8
81
62
256
6
ByLayer
370
-1
48
1
60
0
100
AcDbLine
10
63.94
20
12.9
30
0
11
73.94
21
12.9
31
0
39
0
210
0
220
0
230
1
0
LINE
5
57
100
AcDbEntity
8
SK4
62
256
6
ByLayer
370
-1
48
0.05
60
0
100
AcDbLine
10
-142.31
20
0
30
0
11
72.743913
21
0
31
0
39
0
210
0
220
0
230
1
0
LINE
5
59
100
AcDbEntity
8
4
62
256
6
ByLayer
370
-1
48
0.05
60
0
100
AcDbLine
10
0
20
0
30
0
11
72.743913
21
0
31
0
39
0
210
0
220
0
230
1
0
LINE
5
5B
100
AcDbEntity
8
1
62
256
6
ByLayer
370
-1
48
1
60
0
100
AcDbLine
10
62.176507
20
2.536656
30
0
11
61.997827
21
2.19345
31
0
39
0
210
0
220
0
230
1
0
LINE
5
5C
100
AcDbEntity
8
1
62
256
6
ByLayer
370
-1
48
1
60
0
100
AcDbLine
10
61.997827
20
2.193448
30
0
11
61.997827
21
2.19345
31
0
39
0
210
0
220
0
230
1
0
LINE
5
5D
100
AcDbEntity
8
1
62
256
6
ByLayer
370
-1
48
1
60
0
100
AcDbLine
10
67.743913
20
5.911155
30
0
11
67.743913
21
-2.528531
31
0
39
0
210
0
220
0
230
1
0
LINE
5
5E
100
AcDbEntity
8
1
62
256
6
ByLayer
370
-1
48
1
60
0
100
AcDbLine
10
0
20
-7.9925
30
0
11
0
21
-0.208217
31
0
39
0
210
0
220
0
230
1
0
LINE
5
5F
100
AcDbEntity
8
1
62
256
6
ByLayer
370
-1
48
1
60
0
100
AcDbLine
10
0
20
0.208217
30
0
11
0
21
7.9925
31
0
39
0
210
0
220
0
230
1
0
LINE
5
60
100
AcDbEntity
8
1
62
256
6
ByLayer
370
-1
48
1
60
0
100
AcDbLine
10
62.860314
20
-5.500099
30
0
11
67.743913
21
-2.528531
31
0
39
0
210
0
220
0
230
1
0
LINE
5
61
100
AcDbEntity
8
1
62
256
6
ByLayer
370
-1
48
1
60
0
100
AcDbLine
10
56.598038
20
6.615911
30
0
11
55.197349
21
7.992484
31
0
39
0
210
0
220
0
230
1
0
LINE
5
62
100
AcDbEntity
8
1
62
256
6
ByLayer
370
-1
48
1
60
0
100
AcDbLine
10
64.617209
20
0.717559
30
0
11
64.617209
21
0.717561
31
0
39
0
210
0
220
0
230
1
0
LINE
5
63
100
AcDbEntity
8
1
62
256
6
ByLayer
370
-1
48
1
60
0
100
AcDbLine
10
67.394993
20
6.053069
30
0
11
64.617209
21
0.717559
31
0
39
0
210
0
220
0
230
1
0
LINE
5
64
100
AcDbEntity
8
1
62
256
6
ByLayer
370
-1
48
1
60
0
100
AcDbLine
10
42.309597
20
0.208217
30
0
11
0
21
0.208217
31
0
39
0
210
0
220
0
230
1
0
LINE
5
65
100
AcDbEntity
8
1
62
256
6
ByLayer
370
-1
48
1
60
0
100
AcDbLine
10
60.0085
20
6.055558
30
0
11
61.997827
21
2.19345
31
0
39
0
210
0
220
0
230
1
0
LINE
5
66
100
AcDbEntity
8
1
62
256
6
ByLayer
370
-1
48
1
60
0
100
AcDbLine
10
58.888912
20
-7.916614
30
0
11
62.860314
21
-5.500099
31
0
39
0
210
0
220
0
230
1
0
LINE
5
67
100
AcDbEntity
8
1
62
256
6
ByLayer
370
-1
48
1
60
0
100
AcDbLine
10
0
20
-0.208217
30
0
11
0
21
0.208217
31
0
39
0
210
0
220
0
230
1
0
LINE
5
68
100
AcDbEntity
8
1
62
256
6
ByLayer
370
-1
48
1
60
0
100
AcDbLine
10
61.997827
20
2.193448
30
0
11
60.008499
21
6.055558
31
0
39
0
210
0
220
0
230
1
0
LINE
5
69
100
AcDbEntity
8
1
62
256
6
ByLayer
370
-1
48
1
60
0
100
AcDbLine
10
62.612911
20
0.098542
30
0
11
62.612911
21
0.129811
31
0
39
0
210
0
220
0
230
1
0
LINE
5
6A
100
AcDbEntity
8
1
62
256
6
ByLayer
370
-1
48
1
60
0
100
AcDbLine
10
61.83512
20
1.880925
30
0
11
61.997827
21
2.193448
31
0
39
0
210
0
220
0
230
1
0
LINE
5
6B
100
AcDbEntity
8
1
62
256
6
ByLayer
370
-1
48
1
60
0
100
AcDbLine
10
59.789272
20
5.959976
30
0
11
62.860314
21
-5.500099
31
0
39
0
210
0
220
0
230
1
0
LINE
5
6C
100
AcDbEntity
8
1
62
256
6
ByLayer
370
-1
48
1
60
0
100
AcDbLine
10
0
20
-0.208217
30
0
11
42.415765
21
-0.208217
31
0
39
0
210
0
220
0
230
1
0
LINE
5
6D
100
AcDbEntity
8
1
62
256
6
ByLayer
370
-1
48
1
60
0
100
AcDbLine
10
64.617209
20
0.717561
30
0
11
67.394992
21
6.053069
31
0
39
0
210
0
220
0
230
1
0
LINE
5
6E
100
AcDbEntity
8
SK1
62
256
6
ByLayer
370
-1
48
1
60
0
100
AcDbLine
10
0
20
-0.208217
30
0
11
0
21
0.208217
31
0
39
0
210
0
220
0
230
1
0
LINE
5
6F
100
AcDbEntity
8
SK1
62
256
6
ByLayer
370
-1
48
1
60
0
100
AcDbLine
10
-137.31
20
-7.4925
30
0
11
-137.31
21
7.4925
31
0
39
0
210
0
220
0
230
1
0
LINE
5
70
100
AcDbEntity
8
SK1
62
256
6
ByLayer
370
-1
48
1
60
0
100
AcDbLine
10
0
20
0.208217
30
0
11
-48.06
21
0.208217
31
0
39
0
210
0
220
0
230
1
0
LINE
5
71
100
AcDbEntity
8
SK1
62
256
6
ByLayer
370
-1
48
1
60
0
100
AcDbLine
10
0
20
-7.9925
30
0
11
0
21
-0.208217
31
0
39
0
210
0
220
0
230
1
0
LINE
5
72
100
AcDbEntity
8
SK1
62
256
6
ByLayer
370
-1
48
1
60
0
100
AcDbLine
10
0
20
0.208217
30
0
11
0
21
7.9925
31
0
39
0
210
0
220
0
230
1
0
LINE
5
73
100
AcDbEntity
8
SK1
62
256
6
ByLayer
370
-1
48
1
60
0
100
AcDbLine
10
-48.06
20
-0.208217
30
0
11
-48.06
21
0.208217
31
0
39
0
210
0
220
0
230
1
0
LINE
5
74
100
AcDbEntity
8
SK1
62
256
6
ByLayer
370
-1
48
1
60
0
100
AcDbLine
10
-136.81
20
-7.9925
30
0
11
-136.81
21
7.9925
31
0
39
0
210
0
220
0
230
1
0
LINE
5
75
100
AcDbEntity
8
SK1
62
256
6
ByLayer
370
-1
48
1
60
0
100
AcDbLine
10
-48.06
20
-0.208217
30
0
11
0
21
-0.208217
31
0
39
0
210
0
220
0
230
1
0
LINE
5
76
100
AcDbEntity
8
1
62
256
6
ByLayer
370
-1
48
1
60
0
100
AcDbLine
10
60.21513
20
6.670509
30
0
11
63.347138
21
12.686404
31
0
39
0
210
0
220
0
230
1
0
LINE
5
77
100
AcDbEntity
8
1
62
256
6
ByLayer
370
-1
48
1
60
0
100
AcDbLine
10
64.566825
20
6.797886
30
0
11
64.566825
21
6.784335
31
0
39
0
210
0
220
0
230
1
0
LINE
5
78
100
AcDbEntity
8
1
62
256
6
ByLayer
370
-1
48
1
60
0
100
AcDbLine
10
62.831516
20
6.797886
30
0
11
62.831516
21
6.784335
31
0
39
0
210
0
220
0
230
1
0
LINE
5
79
100
AcDbEntity
8
1
62
256
6
ByLayer
370
-1
48
1
60
0
100
AcDbLine
10
63.009493
20
5.897272
30
0
11
63.009493
21
5.883717
31
0
39
0
210
0
220
0
230
1
0
LINE
5
7A
100
AcDbEntity
8
1
62
256
6
ByLayer
370
-1
48
1
60
0
100
AcDbLine
10
63.521008
20
5.602272
30
0
11
63.521008
21
5.588717
31
0
39
0
210
0
220
0
230
1
0
LINE
5
7B
100
AcDbEntity
8
1
62
256
6
ByLayer
370
-1
48
1
60
0
100
AcDbLine
10
63.877333
20
5.602272
30
0
11
63.877333
21
5.588717
31
0
39
0
210
0
220
0
230
1
0
LINE
5
7C
100
AcDbEntity
8
1
62
256
6
ByLayer
370
-1
48
1
60
0
100
AcDbLine
10
64.388847
20
5.897272
30
0
11
64.388847
21
5.883717
31
0
39
0
210
0
220
0
230
1
0
LINE
5
7D
100
AcDbEntity
8
1
62
256
6
ByLayer
370
-1
48
1
60
0
100
AcDbLine
10
62.951703
20
6.461662
30
0
11
62.951703
21
6.473795
31
0
39
0
210
0
220
0
230
1
0
LINE
5
7E
100
AcDbEntity
8
1
62
256
6
ByLayer
370
-1
48
1
60
0
100
AcDbLine
10
62.951703
20
6.530222
30
0
11
62.951703
21
6.518088
31
0
39
0
210
0
220
0
230
1
0
LINE
5
7F
100
AcDbEntity
8
1
62
256
6
ByLayer
370
-1
48
1
60
0
100
AcDbLine
10
64.446638
20
6.518088
30
0
11
64.446638
21
6.530222
31
0
39
0
210
0
220
0
230
1
0
LINE
5
80
100
AcDbEntity
8
1
62
256
6
ByLayer
370
-1
48
1
60
0
100
AcDbLine
10
64.446638
20
6.473795
30
0
11
64.446638
21
6.461662
31
0
39
0
210
0
220
0
230
1
0
LINE
5
81
100
AcDbEntity
8
2
62
256
6
ByLayer
370
-1
48
1
60
1
100
AcDbLine
10
63.94
20
0
30
0
11
63.941
21
0.001
31
0
39
0
210
0
220
0
230
1
0
MTEXT
5
CD
100
AcDbEntity
8
SK6
62
256
6
ByLayer
370
-1
48
1
60
0
100
AcDbMText
10
-33.31
20
-21.32125
30
0
210
0
220
0
230
1
1
\W00.767;\fsimplex.shx,bigfont.shx;A16R-SDXPR 07-ER 
40
3.5
41
0
44
1.084337
50
0
71
7
72
5
7
DEFAULT
0
DIMENSION
5
100
100
AcDbEntity
8
2
62
256
6
ByLayer
370
-3
48
1
60
0
100
AcDbDimension
2
DimnDraft3D1
10
76.19
20
0
30
0
11
76.19
21
23.155
31
0
70
32
71
5
72
1
41
1
210
0
220
0
230
1
3
Standard
100
AcDbAlignedDimension
13
65.94
23
12.9
33
0
14
65.94
24
0
34
0
50
90
100
AcDbRotatedDimension
1001
ACAD
1000
DSTYLE
1002
{
1070
    74
1070
     0
1070
   279
1070
     0
1070
   172
1070
     1
1070
   173
1070
     1
1070
   340
1005
CE
1070
    77
1070
     1
1070
    73
1070
     0
1070
   171
1070
     4
1070
   274
1070
     4
1070
   177
1070
     2
1070
   176
1070
     2
1070
   178
1070
     7
1070
    78
1070
     8
1070
    41
1041
3.175
1070
   147
1041
2.25
1070
    42
1041
2.0
1070
    44
1041
2.0
1070
   140
1041
4.5
1070
   343
1005
101
1070
   344
1005
101
1002
}
0
DIMENSION
5
116
100
AcDbEntity
8
SK2
62
256
6
ByLayer
370
-3
48
1
60
0
100
AcDbDimension
2
DimnDraft3D2
10
-147.06
20
7.9925
30
0
11
-147.06
21
-4.221711
31
0
70
32
71
5
72
1
41
1
210
0
220
0
230
1
3
Standard
100
AcDbAlignedDimension
13
-139.31
23
-7.9925
33
0
14
-139.31
24
7.9925
34
0
50
90
100
AcDbRotatedDimension
1001
ACAD
1000
DSTYLE
1002
{
1070
    74
1070
     0
1070
   279
1070
     0
1070
   172
1070
     1
1070
   173
1070
     1
1070
   340
1005
CE
1070
    77
1070
     1
1070
    73
1070
     0
1070
   171
1070
     4
1070
   274
1070
     4
1070
   177
1070
     2
1070
   176
1070
     2
1070
   178
1070
     7
1070
    78
1070
     8
1070
    41
1041
3.175
1070
   147
1041
2.25
1070
    42
1041
2.0
1070
    44
1041
2.0
1070
   140
1041
4.5
1070
   343
1005
101
1070
   344
1005
101
1002
}
0
DIMENSION
5
124
100
AcDbEntity
8
SK2
62
256
6
ByLayer
370
-3
48
1
60
0
100
AcDbDimension
2
DimnDraft3D3
10
-137.31
20
25.65
30
0
11
-43.500132
21
25.65
31
0
70
32
71
5
72
1
41
1
210
0
220
0
230
1
3
Standard
100
AcDbAlignedDimension
13
63.94
23
14.9
33
0
14
-137.31
24
9.9925
34
0
50
0
100
AcDbRotatedDimension
1001
ACAD
1000
DSTYLE
1002
{
1070
   279
1070
     0
1070
   172
1070
     1
1070
   173
1070
     1
1070
   340
1005
CE
1070
    77
1070
     1
1070
    73
1070
     0
1070
   171
1070
     4
1070
   274
1070
     4
1070
   177
1070
     2
1070
   176
1070
     2
1070
   178
1070
     7
1070
    78
1070
     8
1070
    41
1041
3.175
1070
   147
1041
2.25
1070
    42
1041
2.0
1070
    44
1041
2.0
1070
   140
1041
4.5
1070
   343
1005
101
1070
   344
1005
101
1002
}
0
DIMENSION
5
132
100
AcDbEntity
8
2
62
256
6
ByLayer
370
-3
48
1
60
0
100
AcDbDimension
2
DimnDraft3D4
10
119.582432
20
0
30
0
11
104.688935
21
-30.035168
31
0
70
34
71
5
72
1
41
1
210
0
220
0
230
1
3
Standard
100
AcDb2LineAngularDimension
13
68.096083
23
4.917083
33
0
14
93.249606
24
-43.397274
34
0
15
65.94
25
0
35
0
16
106.927341
26
-22.0089
36
0
40
0
0
ENDSEC
0
SECTION
2
OBJECTS
0
DICTIONARY
5
163
330
0
100
AcDbDictionary
280
0
281
1
3
ACAD_GROUP
350
164
3
ACAD_MLINESTYLE
350
165
0
DICTIONARY
5
164
330
0
100
AcDbDictionary
280
0
281
1
0
DICTIONARY
5
165
330
0
100
AcDbDictionary
280
0
281
1
3
Standard
350
18
0
MLINESTYLE
5
18
330
165
100
AcDbMlineStyle
2
Standard
70
0
3

62
256
51
90
52
90
71
2
49
-0.5
62
256
6
ByLayer
49
0.5
62
256
6
ByLayer
0
RASTERVARIABLES
5
151
330

100
AcDbRasterVariables
90
0
70
1
71
1
72
1
0
ENDSEC
0
EOF
