0
SECTION
2
HEADER
9
$ACADVER
1
AC1015
9
$DWGCODEPAGE
3
ANSI_1252
9
$HANDSEED
5
177
9
$ANGBASE
50
0
9
$ANGDIR
70
0
9
$ATTMODE
70
1
9
$AUNITS
70
0
9
$AUPREC
70
0
9
$CECOLOR
62
256
9
$CELTSCALE
40
1
9
$CELTYPE
6
ByLayer
9
$CELWEIGHT
370
-1
9
$CLAYER
8
0
9
$CMLJUST
70
0
9
$CMLSCALE
40
1
9
$CMLSTYLE
2
Standard
9
$DIMSTYLE
2
Standard
9
$TEXTSIZE
40
0.2
9
$TEXTSTYLE
7
Standard
9
$LUNITS
70
2
9
$LUPREC
70
4
9
$EXTNAMES
290
1
9
$INSUNITS
70
4
9
$LTSCALE
40
1
9
$LWDISPLAY
290
0
9
$PDMODE
70
0
9
$PDSIZE
40
0
9
$PLINEGEN
70
0
0
ENDSEC
0
SECTION
2
CLASSES
0
CLASS
1
RASTERVARIABLES
2
AcDbRasterVariables
3
ISM
90
0
280
0
281
0
0
ENDSEC
0
SECTION
2
TABLES
0
TABLE
2
VPORT
5
16d
100
AcDbSymbolTable
0
VPORT
5
1
100
AcDbSymbolTableRecord
100
AcDbViewportTableRecord
2
*Active
70
0
10
0
20
0
11
1
21
1
12
-1
22
1
13
0
23
0
14
0.5
24
0.5
15
10
25
10
16
0
26
0
36
1
17
0
27
0
37
0
0
ENDTAB
0
TABLE
2
LTYPE
5
16e
100
AcDbSymbolTable
0
LTYPE
5
14
100
AcDbSymbolTableRecord
100
AcDbLinetypeTableRecord
70
0
2
ByBlock
3

72
65
73
0
40
0
0
LTYPE
5
15
100
AcDbSymbolTableRecord
100
AcDbLinetypeTableRecord
70
0
2
ByLayer
3

72
65
73
0
40
0
0
LTYPE
5
16
100
AcDbSymbolTableRecord
100
AcDbLinetypeTableRecord
70
0
2
CONTINUOUS
3
Solid line
72
65
73
0
40
0
0
LTYPE
5
3B
100
AcDbSymbolTableRecord
100
AcDbLinetypeTableRecord
70
0
2
DASHED
3
__ __ __ __ __ __ __ __ __
72
65
73
2
40
25.72
49
12.86
74
0
49
-12.86
74
0
0
LTYPE
5
3C
100
AcDbSymbolTableRecord
100
AcDbLinetypeTableRecord
70
0
2
HIDDEN
3
_ _ _ _ _ _ _ _ _ _ _ _ _ _ _
72
65
73
2
40
0.5
49
0.25
74
0
49
-0.25
74
0
0
LTYPE
5
3D
100
AcDbSymbolTableRecord
100
AcDbLinetypeTableRecord
70
0
2
PHANTOM
3
____ _ _ ____ _ _ _____ _ _ ____
72
65
73
6
40
50.5
49
18
74
0
49
-6.5
74
0
49
6.5
74
0
49
-6.5
74
0
49
6.5
74
0
49
-6.5
74
0
0
LTYPE
5
3E
100
AcDbSymbolTableRecord
100
AcDbLinetypeTableRecord
70
0
2
CENTER
3
____ _ ____ _ ____ _ ____
72
65
73
4
40
47.5
49
22
74
0
49
-8.5
74
0
49
8.5
74
0
49
-8.5
74
0
0
LTYPE
5
3F
100
AcDbSymbolTableRecord
100
AcDbLinetypeTableRecord
70
0
2
DOT
3
.........................
72
65
73
2
40
10
49
0
74
0
49
-10
74
0
0
LTYPE
5
40
100
AcDbSymbolTableRecord
100
AcDbLinetypeTableRecord
70
0
2
DASHDOT
3
_._._._._._._._._._._._._._._._.
72
65
73
4
40
70
49
31
74
0
49
-13
74
0
49
13
74
0
49
-13
74
0
0
ENDTAB
0
TABLE
2
LAYER
5
16f
100
AcDbSymbolTable
0
LAYER
5
10
100
AcDbSymbolTableRecord
100
AcDbLayerTableRecord
2
0
70
0
62
7
6
CONTINUOUS
290
1
370
-3
390
0
0
LAYER
5
42
100
AcDbSymbolTableRecord
100
AcDbLayerTableRecord
2
80
70
0
62
-6
6
CONTINUOUS
290
1
370
-3
390
0
0
LAYER
5
44
100
AcDbSymbolTableRecord
100
AcDbLayerTableRecord
2
81
70
0
62
-3
6
CONTINUOUS
290
1
370
-3
390
0
0
LAYER
5
46
100
AcDbSymbolTableRecord
100
AcDbLayerTableRecord
2
1
70
0
62
4
6
CONTINUOUS
290
1
370
-3
390
0
0
LAYER
5
48
100
AcDbSymbolTableRecord
100
AcDbLayerTableRecord
2
2
70
0
62
7
6
CONTINUOUS
290
1
370
-3
390
0
0
LAYER
5
4E
100
AcDbSymbolTableRecord
100
AcDbLayerTableRecord
2
4
70
0
62
-2
6
CENTER
290
1
370
-3
390
0
0
LAYER
5
159
100
AcDbSymbolTableRecord
100
AcDbLayerTableRecord
2
SK4
70
0
62
2
6
CENTER
290
1
370
-3
390
0
0
LAYER
5
15a
100
AcDbSymbolTableRecord
100
AcDbLayerTableRecord
2
SK1
70
0
62
4
6
CONTINUOUS
290
1
370
-3
390
0
0
LAYER
5
15b
100
AcDbSymbolTableRecord
100
AcDbLayerTableRecord
2
SK6
70
0
62
5
6
CONTINUOUS
290
1
370
-3
390
0
0
LAYER
5
15c
100
AcDbSymbolTableRecord
100
AcDbLayerTableRecord
2
SK2
70
0
62
7
6
CONTINUOUS
290
1
370
-3
390
0
0
ENDTAB
0
TABLE
2
STYLE
5
170
100
AcDbSymbolTable
0
STYLE
5
11
100
AcDbSymbolTableRecord
100
AcDbTextStyleTableRecord
2
Standard
3
txt
70
0
71
0
40
0
41
1
42
0
50
0
0
STYLE
5
D5
100
AcDbSymbolTableRecord
100
AcDbTextStyleTableRecord
2
DEFAULT
3
simplex.shx
70
0
71
0
40
0
41
1
42
0
50
0
0
STYLE
5
F8
100
AcDbSymbolTableRecord
100
AcDbTextStyleTableRecord
2
DWGDirectTextStyle
3
SIMPLEX
70
0
71
0
40
0
41
1
42
0
50
0
0
ENDTAB
0
TABLE
2
DIMSTYLE
5
171
100
AcDbSymbolTable
100
AcDbDimStyleTable
0
DIMSTYLE
105
27
100
AcDbSymbolTableRecord
100
AcDbDimStyleTableRecord
2
Standard
70
0
3
<>
41
0.18
42
0.0625
44
0.18
140
0.18
147
0.09
73
0
74
0
77
1
271
2
275
0
278
52
280
0
340
11
0
ENDTAB
0
TABLE
2
VIEW
5
172
100
AcDbSymbolTable
0
ENDTAB
0
TABLE
2
UCS
5
173
100
AcDbSymbolTable
0
ENDTAB
0
TABLE
2
APPID
5
174
100
AcDbSymbolTable
0
APPID
5
12
100
AcDbSymbolTableRecord
100
AcDbRegAppTableRecord
2
ACAD
70
0
0
ENDTAB
0
TABLE
2
BLOCK_RECORD
5
175
100
AcDbSymbolTable
0
BLOCK_RECORD
5
1F
100
AcDbSymbolTableRecord
100
AcDbBlockTableRecord
2
*Model_Space
340
0
70
0
0
BLOCK_RECORD
5
1B
100
AcDbSymbolTableRecord
100
AcDbBlockTableRecord
2
*Paper_Space
340
0
70
0
0
BLOCK_RECORD
5
23
100
AcDbSymbolTableRecord
100
AcDbBlockTableRecord
2
*Paper_Space0
340
0
70
0
0
BLOCK_RECORD
5
FA
100
AcDbSymbolTableRecord
100
AcDbBlockTableRecord
2
DimnDraft3D1
340
0
70
0
0
BLOCK_RECORD
5
108
100
AcDbSymbolTableRecord
100
AcDbBlockTableRecord
2
_CLOSED
340
0
70
0
0
BLOCK_RECORD
5
10F
100
AcDbSymbolTableRecord
100
AcDbBlockTableRecord
2
DimnDraft3D2
340
0
70
0
0
BLOCK_RECORD
5
11E
100
AcDbSymbolTableRecord
100
AcDbBlockTableRecord
2
DimnDraft3D3
340
0
70
0
0
BLOCK_RECORD
5
12C
100
AcDbSymbolTableRecord
100
AcDbBlockTableRecord
2
DimnDraft3D4
340
0
70
0
0
ENDTAB
0
ENDSEC
0
SECTION
2
BLOCKS
0
BLOCK
5
20
100
AcDbEntity
8
0
100
AcDbBlockBegin
2
*Model_Space
70
0
10
0
20
0
30
0
3
*Model_Space
0
ENDBLK
5
21
100
AcDbEntity
8
0
100
AcDbBlockEnd
0
BLOCK
5
1C
100
AcDbEntity
8
0
100
AcDbBlockBegin
2
*Paper_Space
70
0
10
0
20
0
30
0
3
*Paper_Space
0
ENDBLK
5
1D
100
AcDbEntity
8
0
100
AcDbBlockEnd
0
BLOCK
5
24
100
AcDbEntity
8
0
100
AcDbBlockBegin
2
*Paper_Space0
70
0
10
0
20
0
30
0
3
*Paper_Space0
0
ENDBLK
5
25
100
AcDbEntity
8
0
100
AcDbBlockEnd
0
BLOCK
5
105
100
AcDbEntity
8
0
100
AcDbBlockBegin
2
DimnDraft3D1
70
0
10
0
20
0
30
0
3
DimnDraft3D1
0
MTEXT
5
FB
100
AcDbEntity
8
2
62
256
6
ByLayer
370
-1
48
1
60
0
100
AcDbMText
10
75.065
20
22.28
30
0
210
0
220
0
230
1
1
\W01.000;\fsimplex.shx,bigfont.shx;11.0 
40
4.5
41
0
44
1.084337
50
90
71
7
72
5
7
DEFAULT
0
LINE
5
FC
100
AcDbEntity
8
2
62
256
6
ByLayer
370
-1
48
1
60
0
100
AcDbLine
10
65.94
20
10.9
30
0
11
78.19
21
10.9
31
0
39
0
210
0
220
0
230
1
0
LINE
5
FD
100
AcDbEntity
8
2
62
256
6
ByLayer
370
-1
48
1
60
0
100
AcDbLine
10
65.94
20
0
30
0
11
78.19
21
0
31
0
39
0
210
0
220
0
230
1
0
LINE
5
FE
100
AcDbEntity
8
2
62
256
6
ByLayer
370
-1
48
1
60
0
100
AcDbLine
10
76.19
20
0
30
0
11
76.19
21
29.231316
31
0
39
0
210
0
220
0
230
1
0
LINE
5
FF
100
AcDbEntity
8
2
62
256
6
ByLayer
370
-1
48
1
60
0
100
AcDbLine
10
76.19
20
10.9
30
0
11
76.607997
21
7.725002
31
0
39
0
210
0
220
0
230
1
0
LINE
5
100
100
AcDbEntity
8
2
62
256
6
ByLayer
370
-1
48
1
60
0
100
AcDbLine
10
76.19
20
10.9
30
0
11
75.772003
21
7.724998
31
0
39
0
210
0
220
0
230
1
0
LINE
5
101
100
AcDbEntity
8
2
62
256
6
ByLayer
370
-1
48
1
60
0
100
AcDbLine
10
76.607997
20
7.725002
30
0
11
75.772003
21
7.724998
31
0
39
0
210
0
220
0
230
1
0
LINE
5
102
100
AcDbEntity
8
2
62
256
6
ByLayer
370
-1
48
1
60
0
100
AcDbLine
10
76.19
20
0
30
0
11
75.772003
21
3.174998
31
0
39
0
210
0
220
0
230
1
0
LINE
5
103
100
AcDbEntity
8
2
62
256
6
ByLayer
370
-1
48
1
60
0
100
AcDbLine
10
76.19
20
0
30
0
11
76.607997
21
3.175002
31
0
39
0
210
0
220
0
230
1
0
LINE
5
104
100
AcDbEntity
8
2
62
256
6
ByLayer
370
-1
48
1
60
0
100
AcDbLine
10
75.772003
20
3.174998
30
0
11
76.607997
21
3.175002
31
0
39
0
210
0
220
0
230
1
0
ENDBLK
5
106
100
AcDbEntity
8
0
100
AcDbBlockEnd
0
BLOCK
5
109
100
AcDbEntity
8
0
100
AcDbBlockBegin
2
_CLOSED
70
0
10
0
20
0
30
0
3
_CLOSED
0
LINE
5
10B
100
AcDbEntity
8
0
62
256
6
ByLayer
370
-2
48
1
60
0
100
AcDbLine
10
-1
20
0.166667
30
0
11
0
21
0
31
0
39
0
210
0
220
0
230
1
0
LINE
5
10C
100
AcDbEntity
8
0
62
256
6
ByLayer
370
-2
48
1
60
0
100
AcDbLine
10
0
20
0
30
0
11
-1
21
-0.166667
31
0
39
0
210
0
220
0
230
1
0
LINE
5
10D
100
AcDbEntity
8
0
62
256
6
ByLayer
370
-2
48
1
60
0
100
AcDbLine
10
-1
20
0.166667
30
0
11
-1
21
-0.166667
31
0
39
0
210
0
220
0
230
1
0
LINE
5
10E
100
AcDbEntity
8
0
62
256
6
ByLayer
370
-2
48
1
60
0
100
AcDbLine
10
0
20
0
30
0
11
-1
21
0
31
0
39
0
210
0
220
0
230
1
0
ENDBLK
5
10A
100
AcDbEntity
8
0
100
AcDbBlockEnd
0
BLOCK
5
11B
100
AcDbEntity
8
0
100
AcDbBlockBegin
2
DimnDraft3D2
70
0
10
0
20
0
30
0
3
DimnDraft3D2
0
MTEXT
5
110
100
AcDbEntity
8
SK2
62
256
6
ByLayer
370
-1
48
1
60
0
100
AcDbMText
10
-148.185
20
-3.096711
30
0
210
0
220
0
230
1
1
\W01.000;\fsimplex.shx,bigfont.shx;%%c16 
40
4.5
41
0
44
1.084337
50
90
71
7
72
5
7
DEFAULT
0
LINE
5
112
100
AcDbEntity
8
SK2
62
256
6
ByLayer
370
-1
48
1
60
0
100
AcDbLine
10
-139.31
20
-7.9925
30
0
11
-149.06
21
-7.9925
31
0
39
0
210
0
220
0
230
1
0
LINE
5
113
100
AcDbEntity
8
SK2
62
256
6
ByLayer
370
-1
48
1
60
0
100
AcDbLine
10
-139.31
20
7.9925
30
0
11
-149.06
21
7.9925
31
0
39
0
210
0
220
0
230
1
0
LINE
5
114
100
AcDbEntity
8
SK2
62
256
6
ByLayer
370
-1
48
1
60
0
100
AcDbLine
10
-147.06
20
-19.2425
30
0
11
-147.06
21
19.2425
31
0
39
0
210
0
220
0
230
1
0
LINE
5
115
100
AcDbEntity
8
SK2
62
256
6
ByLayer
370
-1
48
1
60
0
100
AcDbLine
10
-147.06
20
-7.9925
30
0
11
-146.642003
21
-11.167498
31
0
39
0
210
0
220
0
230
1
0
LINE
5
116
100
AcDbEntity
8
SK2
62
256
6
ByLayer
370
-1
48
1
60
0
100
AcDbLine
10
-147.06
20
-7.9925
30
0
11
-147.477997
21
-11.167502
31
0
39
0
210
0
220
0
230
1
0
LINE
5
117
100
AcDbEntity
8
SK2
62
256
6
ByLayer
370
-1
48
1
60
0
100
AcDbLine
10
-146.642003
20
-11.167498
30
0
11
-147.477997
21
-11.167502
31
0
39
0
210
0
220
0
230
1
0
LINE
5
118
100
AcDbEntity
8
SK2
62
256
6
ByLayer
370
-1
48
1
60
0
100
AcDbLine
10
-147.06
20
7.9925
30
0
11
-147.477997
21
11.167498
31
0
39
0
210
0
220
0
230
1
0
LINE
5
119
100
AcDbEntity
8
SK2
62
256
6
ByLayer
370
-1
48
1
60
0
100
AcDbLine
10
-147.06
20
7.9925
30
0
11
-146.642003
21
11.167502
31
0
39
0
210
0
220
0
230
1
0
LINE
5
11A
100
AcDbEntity
8
SK2
62
256
6
ByLayer
370
-1
48
1
60
0
100
AcDbLine
10
-147.477997
20
11.167498
30
0
11
-146.642003
21
11.167502
31
0
39
0
210
0
220
0
230
1
0
ENDBLK
5
11C
100
AcDbEntity
8
0
100
AcDbBlockEnd
0
BLOCK
5
129
100
AcDbEntity
8
0
100
AcDbBlockBegin
2
DimnDraft3D3
70
0
10
0
20
0
30
0
3
DimnDraft3D3
0
MTEXT
5
11F
100
AcDbEntity
8
SK2
62
256
6
ByLayer
370
-1
48
1
60
0
100
AcDbMText
10
-42.375132
20
24.775
30
0
210
0
220
0
230
1
1
\W01.000;\fsimplex.shx,bigfont.shx;200.0 
40
4.5
41
0
44
1.084337
50
0
71
7
72
5
7
DEFAULT
0
LINE
5
120
100
AcDbEntity
8
SK2
62
256
6
ByLayer
370
-1
48
1
60
0
100
AcDbLine
10
63.94
20
12.9
30
0
11
63.94
21
25.65
31
0
39
0
210
0
220
0
230
1
0
LINE
5
121
100
AcDbEntity
8
SK2
62
256
6
ByLayer
370
-1
48
1
60
0
100
AcDbLine
10
-137.31
20
9.9925
30
0
11
-137.31
21
25.65
31
0
39
0
210
0
220
0
230
1
0
LINE
5
122
100
AcDbEntity
8
SK2
62
256
6
ByLayer
370
-1
48
1
60
0
100
AcDbLine
10
63.94
20
23.65
30
0
11
-137.31
21
23.65
31
0
39
0
210
0
220
0
230
1
0
LINE
5
123
100
AcDbEntity
8
SK2
62
256
6
ByLayer
370
-1
48
1
60
0
100
AcDbLine
10
63.94
20
23.65
30
0
11
60.765002
21
23.232003
31
0
39
0
210
0
220
0
230
1
0
LINE
5
124
100
AcDbEntity
8
SK2
62
256
6
ByLayer
370
-1
48
1
60
0
100
AcDbLine
10
63.94
20
23.65
30
0
11
60.764998
21
24.067997
31
0
39
0
210
0
220
0
230
1
0
LINE
5
125
100
AcDbEntity
8
SK2
62
256
6
ByLayer
370
-1
48
1
60
0
100
AcDbLine
10
60.765002
20
23.232003
30
0
11
60.764998
21
24.067997
31
0
39
0
210
0
220
0
230
1
0
LINE
5
126
100
AcDbEntity
8
SK2
62
256
6
ByLayer
370
-1
48
1
60
0
100
AcDbLine
10
-137.31
20
23.65
30
0
11
-134.135002
21
24.067997
31
0
39
0
210
0
220
0
230
1
0
LINE
5
127
100
AcDbEntity
8
SK2
62
256
6
ByLayer
370
-1
48
1
60
0
100
AcDbLine
10
-137.31
20
23.65
30
0
11
-134.134998
21
23.232003
31
0
39
0
210
0
220
0
230
1
0
LINE
5
128
100
AcDbEntity
8
SK2
62
256
6
ByLayer
370
-1
48
1
60
0
100
AcDbLine
10
-134.135002
20
24.067997
30
0
11
-134.134998
21
23.232003
31
0
39
0
210
0
220
0
230
1
0
ENDBLK
5
12A
100
AcDbEntity
8
0
100
AcDbBlockEnd
0
BLOCK
5
137
100
AcDbEntity
8
0
100
AcDbBlockBegin
2
DimnDraft3D4
70
0
10
0
20
0
30
0
3
DimnDraft3D4
0
MTEXT
5
12D
100
AcDbEntity
8
2
62
256
6
ByLayer
370
-1
48
1
60
0
100
AcDbMText
10
105.220932
20
-29.639702
30
0
210
0
220
0
230
1
1
\W01.000;\fsimplex.shx,bigfont.shx;62%%d27' 
40
4.5
41
0
44
1.084337
50
58.7790579699999
71
7
72
5
7
DEFAULT
0
LINE
5
12E
100
AcDbEntity
8
2
62
256
6
ByLayer
370
-1
48
1
60
0
100
AcDbLine
10
68.103833
20
2.921122
30
0
11
92.263949
21
-43.375316
31
0
39
0
210
0
220
0
230
1
0
LINE
5
12F
100
AcDbEntity
8
2
62
256
6
ByLayer
370
-1
48
1
60
0
100
AcDbLine
10
65.94
20
0
30
0
11
118.554647
21
0
31
0
39
0
210
0
220
0
230
1
0
ARC
5
130
100
AcDbEntity
8
2
62
256
6
ByLayer
370
-1
48
1
60
0
100
AcDbCircle
39
0
10
69.62824
20
0
30
0
40
46.9264068782929
210
0
220
0
230
1
100
AcDbArc
50
297.558116
51
0
0
LINE
5
131
100
AcDbEntity
8
2
62
256
6
ByLayer
370
-1
48
1
60
0
100
AcDbLine
10
91.338653
20
-41.602231
30
0
11
93.928561
21
-39.718695
31
0
39
0
210
0
220
0
230
1
0
LINE
5
132
100
AcDbEntity
8
2
62
256
6
ByLayer
370
-1
48
1
60
0
100
AcDbLine
10
91.338653
20
-41.602231
30
0
11
94.32781
21
-40.453191
31
0
39
0
210
0
220
0
230
1
0
LINE
5
133
100
AcDbEntity
8
2
62
256
6
ByLayer
370
-1
48
1
60
0
100
AcDbLine
10
93.928561
20
-39.718695
30
0
11
94.32781
21
-40.453191
31
0
39
0
210
0
220
0
230
1
0
LINE
5
134
100
AcDbEntity
8
2
62
256
6
ByLayer
370
-1
48
1
60
0
100
AcDbLine
10
116.554647
20
0
30
0
11
116.918903
21
-3.181612
31
0
39
0
210
0
220
0
230
1
0
LINE
5
135
100
AcDbEntity
8
2
62
256
6
ByLayer
370
-1
48
1
60
0
100
AcDbLine
10
116.554647
20
0
30
0
11
116.083029
21
-3.16748
31
0
39
0
210
0
220
0
230
1
0
LINE
5
136
100
AcDbEntity
8
2
62
256
6
ByLayer
370
-1
48
1
60
0
100
AcDbLine
10
116.918903
20
-3.181612
30
0
11
116.083029
21
-3.16748
31
0
39
0
210
0
220
0
230
1
0
ENDBLK
5
138
100
AcDbEntity
8
0
100
AcDbBlockEnd
0
ENDSEC
0
SECTION
2
ENTITIES
0
ELLIPSE
5
84
100
AcDbEntity
8
1
62
256
6
ByLayer
370
-1
48
1
60
0
100
AcDbEllipse
10
63.69917
20
-1.690068
30
0
11
-1.05
21
1.2858366715135E-16
31
0
210
0
220
0
230
1
40
0.997528
41
-0.792631896914936
42
0.225811095758834
0
ELLIPSE
5
85
100
AcDbEntity
8
1
62
256
6
ByLayer
370
-1
48
1
60
0
100
AcDbEllipse
10
61.889361
20
-2.070533
30
0
11
35.8192289543837
21
-35.0829970457791
31
0
210
0
220
0
230
-1
40
0.009818
41
1.76697316701255
42
1.79547313785019
0
ELLIPSE
5
86
100
AcDbEntity
8
1
62
256
6
ByLayer
370
-1
48
1
60
0
100
AcDbEllipse
10
59.057191
20
0
30
0
11
8.14673048452256
21
-7.99174324338071
31
0
210
0
220
0
230
-1
40
0.0135
41
-3.12784466492845
42
-2.98986443064362
0
ELLIPSE
5
87
100
AcDbEntity
8
1
62
256
6
ByLayer
370
-1
48
1
60
0
100
AcDbEllipse
10
52.831491
20
6.16095
30
0
11
1.1531192149772
21
-1.13083159836824
31
0
210
0
220
0
230
-1
40
0.017922
41
0.854461755908235
42
2.4950142850962
0
ELLIPSE
5
88
100
AcDbEntity
8
1
62
256
6
ByLayer
370
-1
48
1
60
0
100
AcDbEllipse
10
63.011952
20
-0.874886
30
0
11
-1.25
21
1.53075794227797E-16
31
0
210
0
220
0
230
1
40
0.997528
41
-0.47996554429844
42
-0.060687321096066
0
ELLIPSE
5
89
100
AcDbEntity
8
1
62
256
6
ByLayer
370
-1
48
1
60
0
100
AcDbEllipse
10
57.528446
20
7.386314
30
0
11
4.18926290853029
21
0.324575930645246
31
0
210
0
220
0
230
-1
40
0.997192
41
0.930278034254063
42
1.0731832607482
0
ELLIPSE
5
8A
100
AcDbEntity
8
1
62
256
6
ByLayer
370
-1
48
1
60
0
100
AcDbEllipse
10
63.69917
20
-1.721688
30
0
11
-1.05
21
1.2858366715135E-16
31
0
210
0
220
0
230
1
40
0.997528
41
-3.0542173240713
42
-2.33449827568389
0
ELLIPSE
5
8B
100
AcDbEntity
8
1
62
256
6
ByLayer
370
-1
48
1
60
0
100
AcDbEllipse
10
63.69917
20
-1.721688
30
0
11
-1.05
21
1.2858366715135E-16
31
0
210
0
220
0
230
1
40
0.997528
41
-0.807094463215154
42
-2.11995104207153E-16
0
ELLIPSE
5
8C
100
AcDbEntity
8
1
62
256
6
ByLayer
370
-1
48
1
60
0
100
AcDbEllipse
10
63.011952
20
-0.723597
30
0
11
-1.25
21
1.53075794227797E-16
31
0
210
0
220
0
230
1
40
0.997528
41
-0.479965544298373
42
1.34199283507818
0
ELLIPSE
5
8D
100
AcDbEntity
8
1
62
256
6
ByLayer
370
-1
48
1
60
0
100
AcDbEllipse
10
63.69917
20
-1.53878
30
0
11
1.05
21
0
31
0
210
0
220
0
230
1
40
0.997528
41
-2.75053918707344
42
0.72195022262077
0
ELLIPSE
5
8E
100
AcDbEntity
8
1
62
256
6
ByLayer
370
-1
48
1
60
0
100
AcDbEllipse
10
61.889465
20
-2.070624
30
0
11
35.8195422084356
21
-35.0833019635635
31
0
210
0
220
0
230
-1
40
0.009818
41
1.84382955416783
42
1.86946738094322
0
ELLIPSE
5
8F
100
AcDbEntity
8
1
62
256
6
ByLayer
370
-1
48
1
60
0
100
AcDbEllipse
10
69.746017
20
7.388847
30
0
11
4.18926300867416
21
0.324574724646558
31
0
210
0
220
0
230
-1
40
0.997192
41
2.18463123316985
42
2.33725959873743
0
ELLIPSE
5
90
100
AcDbEntity
8
1
62
256
6
ByLayer
370
-1
48
1
60
0
100
AcDbEllipse
10
60.567162
20
4.502446
30
0
11
0.396875000000038
21
0
31
0
210
0
220
0
230
1
40
0.997528
41
2.66162710929142
42
-2.6616271092913
0
ELLIPSE
5
91
100
AcDbEntity
8
1
62
256
6
ByLayer
370
-1
48
1
60
0
100
AcDbEllipse
10
63.69917
20
4.447894
30
0
11
1.8247596293947
21
0
31
0
210
0
220
0
230
1
40
0.997528
41
0
42
6.28318530717959
0
ELLIPSE
5
92
100
AcDbEntity
8
1
62
256
6
ByLayer
370
-1
48
1
60
0
100
AcDbEllipse
10
63.69917
20
4.458178
30
0
11
1.875
21
0
31
0
210
0
220
0
230
1
40
0.997528
41
-1.45004161038944
42
-9.49738066848045E-16
0
ELLIPSE
5
93
100
AcDbEntity
8
1
62
256
6
ByLayer
370
-1
48
1
60
0
100
AcDbEllipse
10
63.69917
20
4.458178
30
0
11
1.875
21
0
31
0
210
0
220
0
230
1
40
0.997528
41
0
42
-1.69155145324465
0
ELLIPSE
5
94
100
AcDbEntity
8
1
62
256
6
ByLayer
370
-1
48
1
60
0
100
AcDbEllipse
10
63.69917
20
4.502446
30
0
11
1.91905389152441
21
0
31
0
210
0
220
0
230
1
40
0.997528
41
0
42
6.28318530717959
0
ELLIPSE
5
95
100
AcDbEntity
8
1
62
256
6
ByLayer
370
-1
48
1
60
0
100
AcDbEllipse
10
66.831178
20
4.502446
30
0
11
0.396875000000038
21
0
31
0
210
0
220
0
230
1
40
0.997528
41
-0.479965544298362
42
0.479965544298418
0
ELLIPSE
5
96
100
AcDbEntity
8
1
62
256
6
ByLayer
370
-1
48
1
60
0
100
AcDbEllipse
10
62.963414
20
4.004957
30
0
11
-0.185
21
2.2655217545714E-17
31
0
210
0
220
0
230
1
40
0.997528
41
-0.777086199891974
42
-0.155370331293211
0
ELLIPSE
5
97
100
AcDbEntity
8
1
62
256
6
ByLayer
370
-1
48
1
60
0
100
AcDbEllipse
10
62.530647
20
4.429537
30
0
11
-0.422
21
5.16783881313043E-17
31
0
210
0
220
0
230
1
40
0.997528
41
2.36450645369778
42
3.07467933127301
0
ELLIPSE
5
98
100
AcDbEntity
8
1
62
256
6
ByLayer
370
-1
48
1
60
0
100
AcDbEllipse
10
62.963414
20
4.854116
30
0
11
-0.185
21
2.2655217545714E-17
31
0
210
0
220
0
230
1
40
0.997528
41
-1.82252626887899
42
-0.177704579144761
0
ELLIPSE
5
99
100
AcDbEntity
8
1
62
256
6
ByLayer
370
-1
48
1
60
0
100
AcDbEllipse
10
63.114605
20
5.440532
30
0
11
-0.422
21
5.16783881313043E-17
31
0
210
0
220
0
230
1
40
0.997528
41
1.31906638471069
42
2.09396611256326
0
ELLIPSE
5
9A
100
AcDbEntity
8
1
62
256
6
ByLayer
370
-1
48
1
60
0
100
AcDbEllipse
10
63.69917
20
5.277436
30
0
11
-0.185
21
2.2655217545714E-17
31
0
210
0
220
0
230
1
40
0.997528
41
-2.86886584041563
42
-0.272726813174239
0
ELLIPSE
5
9B
100
AcDbEntity
8
1
62
256
6
ByLayer
370
-1
48
1
60
0
100
AcDbEllipse
10
64.283736
20
5.440532
30
0
11
-0.422
21
5.16783881313043E-17
31
0
210
0
220
0
230
1
40
0.997528
41
0.272726813174098
42
1.04762654102653
0
ELLIPSE
5
9C
100
AcDbEntity
8
1
62
256
6
ByLayer
370
-1
48
1
60
0
100
AcDbEllipse
10
64.434927
20
4.854116
30
0
11
-0.185
21
2.2655217545714E-17
31
0
210
0
220
0
230
1
40
0.997528
41
-2.96945276283903
42
-1.3190663847108
0
ELLIPSE
5
9D
100
AcDbEntity
8
1
62
256
6
ByLayer
370
-1
48
1
60
0
100
AcDbEllipse
10
64.434927
20
4.004957
30
0
11
-0.185
21
2.2655217545714E-17
31
0
210
0
220
0
230
1
40
0.997528
41
-2.94158031499781
42
-2.3645064536976
0
ELLIPSE
5
9E
100
AcDbEntity
8
1
62
256
6
ByLayer
370
-1
48
1
60
0
100
AcDbEllipse
10
63.69917
20
4.429537
30
0
11
-0.748
21
9.16005552659138E-17
31
0
210
0
220
0
230
1
40
0.997528
41
0.0377313519173986
42
0.806418913068482
0
ELLIPSE
5
9F
100
AcDbEntity
8
1
62
256
6
ByLayer
370
-1
48
1
60
0
100
AcDbEllipse
10
63.69917
20
4.488159
30
0
11
0.748
21
0
31
0
210
0
220
0
230
1
40
0.997528
41
3.1038613016724
42
-3.1038613016724
0
ELLIPSE
5
A0
100
AcDbEntity
8
1
62
256
6
ByLayer
370
-1
48
1
60
0
100
AcDbEllipse
10
63.69917
20
4.499802
30
0
11
1.035
21
0
31
0
210
0
220
0
230
1
40
0.997528
41
-2.61713589833154
42
-1.57079632679487
0
ELLIPSE
5
A1
100
AcDbEntity
8
1
62
256
6
ByLayer
370
-1
48
1
60
0
100
AcDbEllipse
10
64.867694
20
4.429537
30
0
11
-0.422
21
5.16783881313043E-17
31
0
210
0
220
0
230
1
40
0.997528
41
0.0669133223155224
42
0.777086199891917
0
ELLIPSE
5
A2
100
AcDbEntity
8
1
62
256
6
ByLayer
370
-1
48
1
60
0
100
AcDbEllipse
10
63.69917
20
4.499802
30
0
11
1.035
21
0
31
0
210
0
220
0
230
1
40
0.997528
41
-1.57079632679487
42
-0.524456755258202
0
ELLIPSE
5
A3
100
AcDbEntity
8
1
62
256
6
ByLayer
370
-1
48
1
60
0
100
AcDbEllipse
10
63.69917
20
4.429537
30
0
11
-0.748
21
9.16005552659138E-17
31
0
210
0
220
0
230
1
40
0.997528
41
1.20374407469208
42
1.91291748442337
0
ELLIPSE
5
A4
100
AcDbEntity
8
1
62
256
6
ByLayer
370
-1
48
1
60
0
100
AcDbEllipse
10
63.69917
20
4.488159
30
0
11
0.748
21
0
31
0
210
0
220
0
230
1
40
0.997528
41
-0.0377313519166882
42
0.037731351916687
0
ELLIPSE
5
A5
100
AcDbEntity
8
1
62
256
6
ByLayer
370
-1
48
1
60
0
100
AcDbEllipse
10
63.69917
20
4.429537
30
0
11
-0.748
21
9.16005552659138E-17
31
0
210
0
220
0
230
1
40
0.997528
41
-2.09396611256323
42
-1.0476265410266
0
ELLIPSE
5
A6
100
AcDbEntity
8
1
62
256
6
ByLayer
370
-1
48
1
60
0
100
AcDbEllipse
10
63.69917
20
4.429537
30
0
11
0.748
21
0
31
0
210
0
220
0
230
1
40
0.997528
41
0.150050583966656
42
1.04762654102656
0
ELLIPSE
5
A7
100
AcDbEntity
8
1
62
256
6
ByLayer
370
-1
48
1
60
0
100
AcDbEllipse
10
63.69917
20
4.499802
30
0
11
1.035
21
0
31
0
210
0
220
0
230
1
40
0.997528
41
-0.524456755258202
42
0.524456755258202
0
ELLIPSE
5
A8
100
AcDbEntity
8
1
62
256
6
ByLayer
370
-1
48
1
60
0
100
AcDbEllipse
10
63.114605
20
5.440532
30
0
11
-0.422
21
5.16783881313043E-17
31
0
210
0
220
0
230
1
40
0.997528
41
2.09396611256326
42
2.8688658404157
0
ELLIPSE
5
A9
100
AcDbEntity
8
1
62
256
6
ByLayer
370
-1
48
1
60
0
100
AcDbEllipse
10
63.69917
20
4.499802
30
0
11
1.035
21
0
31
0
210
0
220
0
230
1
40
0.997528
41
2.61713589833159
42
-2.61713589833154
0
ELLIPSE
5
AA
100
AcDbEntity
8
1
62
256
6
ByLayer
370
-1
48
1
60
0
100
AcDbEllipse
10
63.69917
20
4.499802
30
0
11
1.035
21
0
31
0
210
0
220
0
230
1
40
0.997528
41
0.524456755258203
42
1.5707963267949
0
ELLIPSE
5
AB
100
AcDbEntity
8
1
62
256
6
ByLayer
370
-1
48
1
60
0
100
AcDbEllipse
10
63.69917
20
4.429537
30
0
11
-0.748
21
9.16005552659138E-17
31
0
210
0
220
0
230
1
40
0.997528
41
2.30034793592169
42
3.1038613016731
0
ELLIPSE
5
AC
100
AcDbEntity
8
1
62
256
6
ByLayer
370
-1
48
1
60
0
100
AcDbEllipse
10
63.69917
20
4.499802
30
0
11
1.035
21
0
31
0
210
0
220
0
230
1
40
0.997528
41
1.5707963267949
42
2.61713589833159
0
ELLIPSE
5
AD
100
AcDbEntity
8
1
62
256
6
ByLayer
370
-1
48
1
60
0
100
AcDbEllipse
10
63.69917
20
4.429537
30
0
11
-0.748
21
9.16005552659138E-17
31
0
210
0
220
0
230
1
40
0.997528
41
-1.0476265410266
42
-0.127990424175208
0
ELLIPSE
5
AE
100
AcDbEntity
8
1
62
256
6
ByLayer
370
-1
48
1
60
0
100
AcDbEllipse
10
64.283736
20
5.440532
30
0
11
-0.422
21
5.16783881313043E-17
31
0
210
0
220
0
230
1
40
0.997528
41
1.04762654102653
42
1.82252626887903
0
ELLIPSE
5
AF
100
AcDbEntity
8
1
62
256
6
ByLayer
370
-1
48
1
60
0
100
AcDbEllipse
10
63.69917
20
4.487581
30
0
11
1.725
21
0
31
0
210
0
220
0
230
1
40
0.997528
41
0
42
6.28318530717959
0
ELLIPSE
5
B0
100
AcDbEntity
8
1
62
256
6
ByLayer
370
-1
48
1
60
0
100
AcDbEllipse
10
63.69917
20
4.436563
30
0
11
1.725
21
0
31
0
210
0
220
0
230
1
40
0.997528
41
-3.141592614478
42
0
0
ELLIPSE
5
B1
100
AcDbEntity
8
1
62
256
6
ByLayer
370
-1
48
1
60
0
100
AcDbEllipse
10
63.69917
20
4.499802
30
0
11
1.3
21
0
31
0
210
0
220
0
230
1
40
0.997528
41
0
42
6.28318530717959
0
ELLIPSE
5
B2
100
AcDbEntity
8
1
62
256
6
ByLayer
370
-1
48
1
60
0
100
AcDbEllipse
10
63.69917
20
10.504106
30
0
11
0.396875000000046
21
0
31
0
210
0
220
0
230
1
40
0.997528
41
0.479965544298422
42
2.66162710929144
0
ELLIPSE
5
B3
100
AcDbEntity
8
1
62
256
6
ByLayer
370
-1
48
1
60
0
100
AcDbEllipse
10
63.69917
20
-1.499215
30
0
11
0.396875000000046
21
0
31
0
210
0
220
0
230
1
40
0.997528
41
-2.66162710929137
42
-0.47996554429841
0
POINT
5
41
100
AcDbEntity
8
80
62
256
6
ByLayer
370
-1
48
1
60
0
100
AcDbPoint
10
0
20
0
30
0
39
0
210
0
220
0
230
1
50
360
0
POINT
5
43
100
AcDbEntity
8
81
62
256
6
ByLayer
370
-1
48
1
60
0
100
AcDbPoint
10
63.94
20
10.9
30
0
39
0
210
0
220
0
230
1
50
360
0
POINT
5
45
100
AcDbEntity
8
1
62
256
6
ByLayer
370
-1
48
1
60
0
100
AcDbPoint
10
-137.31
20
0
30
0
39
0
210
0
220
0
230
1
50
360
0
POINT
5
47
100
AcDbEntity
8
2
62
256
6
ByLayer
370
-1
48
1
60
0
100
AcDbPoint
10
63.94
20
10.9
30
0
39
0
210
0
220
0
230
1
50
360
0
SPLINE
5
B4
100
AcDbEntity
8
1
62
256
6
ByLayer
370
-1
48
1
60
0
100
AcDbSpline
70
4
71
3
72
14
73
10
40
0
40
0
40
0
40
0
40
0.0524073519592169
40
0.0524073519592169
40
0.367298196210997
40
0.367298196210997
40
0.67793734965251
40
0.67793734965251
40
1
40
1
40
1
40
1
41
1
10
42.4338795531264
20
-0.208217351629059
30
0
41
1
10
42.4341556860742
20
-0.200711863175002
30
0
41
1
10
42.4342607910821
20
-0.193141968611826
30
0
41
1
10
42.433796410768
20
-0.140218484128525
30
0
41
1
10
42.4270552795551
20
-0.0925624509552563
30
0
41
1
10
42.40318414181
20
-0.0011017404339384
30
0
41
1
10
42.3860179562514
20
0.0437993411298976
30
0
41
1
10
42.3443401946606
20
0.129204264989994
30
0
41
1
10
42.319309057256
20
0.170315714517471
30
0
41
1
10
42.2921658688251
20
0.208217351611239
30
0
0
SPLINE
5
B5
100
AcDbEntity
8
1
62
256
6
ByLayer
370
-1
48
1
60
0
100
AcDbSpline
70
4
71
3
72
8
73
4
40
0
40
0
40
0
40
0
40
1
40
1
40
1
40
1
41
1
10
60.0297146721607
20
-7.81890969981598
30
0
41
1
10
60.1550930143605
20
-7.82103736194952
30
0
41
1
10
60.2805679640897
20
-7.82299447951905
30
0
41
1
10
60.4061214906022
20
-7.82479308153694
30
0
0
SPLINE
5
B6
100
AcDbEntity
8
1
62
256
6
ByLayer
370
-1
48
1
60
0
100
AcDbSpline
70
4
71
3
72
14
73
10
40
0
40
0
40
0
40
0
40
0.25
40
0.25
40
0.5
40
0.5
40
0.75
40
0.75
40
1
40
1
40
1
40
1
41
1
10
59.9547146721607
20
-7.89237015927043
30
0
41
1
10
58.1505224723418
20
-7.86065302130817
30
0
41
1
10
56.3927879945131
20
-7.79903222571067
30
0
41
1
10
52.9694328108276
20
-7.47642820321059
30
0
41
1
10
51.289685815367
20
-7.21009490258362
30
0
41
1
10
48.1676971513346
20
-6.23700355666853
30
0
41
1
10
46.692183578106
20
-5.51504360143144
30
0
41
1
10
44.1536746160913
20
-3.37591003476777
30
0
41
1
10
43.0585602228748
20
-1.91040121502331
30
0
41
1
10
42.4338795531264
20
-0.208217351629145
30
0
0
SPLINE
5
B7
100
AcDbEntity
8
1
62
256
6
ByLayer
370
-1
48
1
60
0
100
AcDbSpline
70
4
71
3
72
8
73
4
40
0
40
0
40
0
40
0
40
1
40
1
40
1
40
1
41
1
10
66.6262972123763
20
-5.51386985224178
30
0
41
1
10
66.6590150475095
20
-5.5017145034858
30
0
41
1
10
66.6744982752256
20
-5.49596216590018
30
0
41
1
10
66.6745412925845
20
-5.49594618406647
30
0
0
SPLINE
5
B8
100
AcDbEntity
8
1
62
256
6
ByLayer
370
-1
48
1
60
0
100
AcDbSpline
70
4
71
3
72
20
73
16
40
0
40
0
40
0
40
0
40
0.249999999999992
40
0.249999999999992
40
0.374999999999988
40
0.374999999999988
40
0.499999999999984
40
0.499999999999984
40
0.562499999999984
40
0.562499999999984
40
0.624999999999984
40
0.624999999999984
40
0.749999999999988
40
0.749999999999988
40
1
40
1
40
1
40
1
41
1
10
53.57337242784
20
5.4028315781303
30
0
41
1
10
52.7565954847979
20
4.66265839566077
30
0
41
1
10
51.8285412678277
20
4.07582147895295
30
0
41
1
10
50.3597707625701
20
3.4334227695193
30
0
41
1
10
49.8632710016067
20
3.26575964306863
30
0
41
1
10
48.8276242337846
20
3.11636597358128
30
0
41
1
10
48.2509775423258
20
3.11138299550538
30
0
41
1
10
47.6032714684154
20
3.63227029694653
30
0
41
1
10
47.4657621083518
20
3.92848210070801
30
0
41
1
10
47.4810998262617
20
4.49405337089087
30
0
41
1
10
47.594250617824
20
4.75155877016383
30
0
41
1
10
48.024300078966
20
5.41229730044037
30
0
41
1
10
48.4407980659219
20
5.73757398189133
30
0
41
1
10
49.7849418836944
20
6.54779825029959
30
0
41
1
10
50.81528593537
20
6.86738044492424
30
0
41
1
10
51.8989196852173
20
7.051072666089
30
0
0
SPLINE
5
B9
100
AcDbEntity
8
1
62
256
6
ByLayer
370
-1
48
1
60
0
100
AcDbSpline
70
4
71
3
72
8
73
4
40
0
40
0
40
0
40
0
40
1
40
1
40
1
40
1
41
1
10
59.9547146721607
20
-7.89237015926963
30
0
41
1
10
59.9797133703221
20
-7.8678937716526
30
0
41
1
10
60.0047134214877
20
-7.84340687579169
30
0
41
1
10
60.0297146721607
20
-7.81890969981609
30
0
0
SPLINE
5
BA
100
AcDbEntity
8
1
62
256
6
ByLayer
370
-1
48
1
60
0
100
AcDbSpline
70
4
71
3
72
14
73
10
40
0
40
0
40
0
40
0
40
0.25
40
0.25
40
0.5
40
0.5
40
0.75
40
0.75
40
1
40
1
40
1
40
1
41
1
10
42.292165868819
20
0.20821735160817
30
0
41
1
10
41.890585285062
20
1.48833965379566
30
0
41
1
10
41.790365710238
20
2.84620342865136
30
0
41
1
10
42.4561045296858
20
5.11857184164728
30
0
41
1
10
43.1892250841302
20
5.94121475980322
30
0
41
1
10
45.0709440930438
20
7.06127294868074
30
0
41
1
10
46.1738272721757
20
7.36708925743341
30
0
41
1
10
48.524833626315
20
7.77179308110033
30
0
41
1
10
49.7525684765905
20
7.86295819515971
30
0
41
1
10
51.0203630156499
20
7.91655233150621
30
0
0
SPLINE
5
BB
100
AcDbEntity
8
1
62
256
6
ByLayer
370
-1
48
1
60
0
100
AcDbSpline
70
4
71
3
72
8
73
4
40
0
40
0
40
0
40
0
40
1
40
1
40
1
40
1
41
1
10
67.5975514709179
20
3.78701183781942
30
0
41
1
10
67.6054687414539
20
3.77883667955507
30
0
41
1
10
67.6104544590173
20
3.77216460018147
30
0
41
1
10
67.6126636606981
20
3.76704311687496
30
0
0
SPLINE
5
BC
100
AcDbEntity
8
1
62
256
6
ByLayer
370
-1
48
1
60
0
100
AcDbSpline
70
4
71
3
72
8
73
4
40
0
40
0
40
0
40
0
40
1
40
1
40
1
40
1
41
1
10
67.7439128500001
20
-3.43901464695497
30
0
41
1
10
67.3726286525654
20
-4.13130390732869
30
0
41
1
10
66.9996249993636
20
-4.82267505213895
30
0
41
1
10
66.6262972123763
20
-5.51386985224178
30
0
0
SPLINE
5
BD
100
AcDbEntity
8
1
62
256
6
ByLayer
370
-1
48
1
60
0
100
AcDbSpline
70
4
71
3
72
14
73
10
40
0
40
0
40
0
40
0
40
0.251839793786597
40
0.251839793786597
40
0.503568171707947
40
0.503568171707947
40
0.756364316111443
40
0.756364316111443
40
1
40
1
40
1
40
1
41
1
10
54.5696172902562
20
4.42296207452659
30
0
41
1
10
54.9094872764736
20
4.08877606843504
30
0
41
1
10
55.3111230862593
20
3.80922423304699
30
0
41
1
10
56.1708880445485
20
3.40426218914854
30
0
41
1
10
56.6410136445427
20
3.27310320342735
30
0
41
1
10
57.587730623827
20
3.17568756576657
30
0
41
1
10
58.0777109012636
20
3.20892226631062
30
0
41
1
10
58.9892901810435
20
3.43230105480993
30
0
41
1
10
59.4248183080102
20
3.6198080782645
30
0
41
1
10
59.8125164436946
20
3.87037106759578
30
0
0
SPLINE
5
BE
100
AcDbEntity
8
1
62
256
6
ByLayer
370
-1
48
1
60
0
100
AcDbSpline
70
4
71
3
72
8
73
4
40
0
40
0
40
0
40
0
40
1
40
1
40
1
40
1
41
1
10
67.5975514709179
20
3.78701183781942
30
0
41
1
10
67.6463681998618
20
3.69613661940909
30
0
41
1
10
67.695157613478
20
3.60524679196897
30
0
41
1
10
67.7439128500001
20
3.51433873053136
30
0
0
SPLINE
5
BF
100
AcDbEntity
8
SK1
62
256
6
ByLayer
370
-1
48
1
60
0
100
AcDbSpline
70
4
71
3
72
24
73
20
40
0
40
0
40
0
40
0
40
0.250000000000022
40
0.250000000000022
40
0.375000000000034
40
0.375000000000034
40
0.437500000000044
40
0.437500000000044
40
0.500000000000053
40
0.500000000000053
40
0.531250000000055
40
0.531250000000055
40
0.562500000000057
40
0.562500000000057
40
0.625000000000052
40
0.625000000000052
40
0.750000000000035
40
0.750000000000035
40
1
40
1
40
1
40
1
41
1
10
-48.06
20
-0.208217351629059
30
0
41
1
10
-48.468842020981
20
-0.208217351629059
30
0
41
1
10
-48.8775700421798
20
-0.200628106757165
30
0
41
1
10
-49.4901123303116
20
-0.171073275450709
30
0
41
1
10
-49.6939608358335
20
-0.158342940298127
30
0
41
1
10
-49.9985633625024
20
-0.129106778533071
30
0
41
1
10
-50.0999152849483
20
-0.11778208857757
30
0
41
1
10
-50.3016559370235
20
-0.0867855292194974
30
0
41
1
10
-50.4176642593246
20
-0.0899171685785518
30
0
41
1
10
-50.5369313789907
20
0.013645893418726
30
0
41
1
10
-50.4484711277943
20
0.0489364234136644
30
0
41
1
10
-50.3478903856417
20
0.0766629766365838
30
0
41
1
10
-50.2966456087818
20
0.0864424784148241
30
0
41
1
10
-50.1421535471276
20
0.112538835792321
30
0
41
1
10
-50.0385119130168
20
0.124684589520399
30
0
41
1
10
-49.7273848627499
20
0.156042093009802
30
0
41
1
10
-49.5192790403735
20
0.169368026065086
30
0
41
1
10
-48.8942101016121
20
0.200370771894711
30
0
41
1
10
-48.4771903882063
20
0.208217351629059
30
0
41
1
10
-48.06
20
0.208217351629059
30
0
0
SPLINE
5
C0
100
AcDbEntity
8
1
62
256
6
ByLayer
370
-1
48
1
60
0
100
AcDbSpline
70
4
71
3
72
18
73
14
40
0
40
0
40
0
40
0
40
0.213393993398662
40
0.213393993398662
40
0.38900346331343
40
0.38900346331343
40
0.566251193345723
40
0.566251193345723
40
0.721173897771091
40
0.721173897771091
40
0.927414386868014
40
0.927414386868014
40
1
40
1
40
1
40
1
41
1
10
63.0094934109185
20
5.09833319088341
30
0
41
1
10
63.0514860905849
20
5.08599028016039
30
0
41
1
10
63.0966027961443
20
5.07992784029
30
0
41
1
10
63.1799268518578
20
5.08324000295977
30
0
41
1
10
63.2188771052233
20
5.09021603449571
30
0
41
1
10
63.2938234786184
20
5.11595844227921
30
0
41
1
10
63.3308517349572
20
5.13532986275663
30
0
41
1
10
63.3919043394365
20
5.18027627379314
30
0
41
1
10
63.4177391549098
20
5.20524683453709
30
0
41
1
10
63.4682932729176
20
5.26772895541885
30
0
41
1
10
63.4908041710045
20
5.30763027475359
30
0
41
1
10
63.5121804279564
20
5.36301542349929
30
0
41
1
10
63.5169915083813
20
5.37777020338669
30
0
41
1
10
63.5210079403543
20
5.39263451309432
30
0
0
SPLINE
5
C1
100
AcDbEntity
8
1
62
256
6
ByLayer
370
-1
48
1
60
0
100
AcDbSpline
70
4
71
3
72
16
73
12
40
0
40
0
40
0
40
0
40
0.151742049313459
40
0.151742049313459
40
0.376009675229183
40
0.376009675229183
40
0.607870828077117
40
0.607870828077117
40
0.858015811030091
40
0.858015811030091
40
1
40
1
40
1
40
1
41
1
10
64.5950622966129
20
5.01679000870774
30
0
41
1
10
64.588706195977
20
5.02775015954299
30
0
41
1
10
64.5811621662128
20
5.03807269080278
30
0
41
1
10
64.56028038356
20
5.06111548323827
30
0
41
1
10
64.5455988247144
20
5.07289621155434
30
0
41
1
10
64.5137290890275
20
5.09131063366803
30
0
41
1
10
64.4960793548781
20
5.09800415362497
30
0
41
1
10
64.4592033116089
20
5.10592428678459
30
0
41
1
10
64.4395058437988
20
5.10679833065328
30
0
41
1
10
64.4098086358196
20
5.10351952330319
30
0
41
1
10
64.3991524085727
20
5.10136218228118
30
0
41
1
10
64.3888472651319
20
5.09833319088341
30
0
0
SPLINE
5
C2
100
AcDbEntity
8
1
62
256
6
ByLayer
370
-1
48
1
60
0
100
AcDbSpline
70
4
71
3
72
14
73
10
40
0
40
0
40
0
40
0
40
0.0516526313323614
40
0.0516526313323614
40
0.388551761449889
40
0.388551761449889
40
0.836592514989172
40
0.836592514989172
40
1
40
1
40
1
40
1
41
1
10
62.9517027217989
20
4.5163057903012
30
0
41
1
10
62.951336269725
20
4.52178384113637
30
0
41
1
10
62.9508634518161
20
4.52725756332217
30
0
41
1
10
62.9465506724603
20
4.5680290596693
30
0
41
1
10
62.9382741061466
20
4.60310673879397
30
0
41
1
10
62.9108226943631
20
4.67884019713784
30
0
41
1
10
62.8886184155435
20
4.71887266990839
30
0
41
1
10
62.8526418073932
20
4.76644366675075
30
0
41
1
10
62.8423356356838
20
4.77864792315651
30
0
41
1
10
62.8315161064817
20
4.79018112169766
30
0
0
SPLINE
5
C3
100
AcDbEntity
8
1
62
256
6
ByLayer
370
-1
48
1
60
0
100
AcDbSpline
70
4
71
3
72
18
73
14
40
0
40
0
40
0
40
0
40
0.212739715782102
40
0.212739715782102
40
0.388462636384495
40
0.388462636384495
40
0.565831500675352
40
0.565831500675352
40
0.720775155133058
40
0.720775155133058
40
0.926898402067927
40
0.926898402067927
40
1
40
1
40
1
40
1
41
1
10
63.8773327356957
20
5.39263451309543
30
0
41
1
10
63.8889760241354
20
5.34954416660213
30
0
41
1
10
63.9075101720025
20
5.30694632984361
30
0
41
1
10
63.9538322454071
20
5.23564648591426
30
0
41
1
10
63.9800552167654
20
5.20507414851602
30
0
41
1
10
64.0406861200806
20
5.15271858402767
30
0
41
1
10
64.0761326426481
20
5.13034866282072
30
0
41
1
10
64.1452748923792
20
5.10032826861001
30
0
41
1
10
64.1794270968351
20
5.09075962460469
30
0
41
1
10
64.2575008917138
20
5.07917383408645
30
0
41
1
10
64.3022548050118
20
5.08033010212148
30
0
41
1
10
64.3594401530705
20
5.0905414477302
30
0
41
1
10
64.3743031317045
20
5.09405823291777
30
0
41
1
10
64.3888472651319
20
5.09833319088338
30
0
0
SPLINE
5
C4
100
AcDbEntity
8
1
62
256
6
ByLayer
370
-1
48
1
60
0
100
AcDbSpline
70
4
71
3
72
14
73
10
40
0
40
0
40
0
40
0
40
0.282392462172212
40
0.282392462172212
40
0.569872458813839
40
0.569872458813839
40
0.830347262066551
40
0.830347262066551
40
1
40
1
40
1
40
1
41
1
10
63.5210079403546
20
3.59742007736364
30
0
41
1
10
63.5266656050459
20
3.5780025677436
30
0
41
1
10
63.5360313172565
20
3.55890012829798
30
0
41
1
10
63.5616668007258
20
3.52445813172349
30
0
41
1
10
63.5784883469551
20
3.5086818712123
30
0
41
1
10
63.6154888003876
20
3.48536229107145
30
0
41
1
10
63.6357818682249
20
3.47686405654775
30
0
41
1
10
63.6706081066217
20
3.4689725298521
30
0
41
1
10
63.6849449695963
20
3.46736034984175
30
0
41
1
10
63.6991703380252
20
3.46736034984175
30
0
0
SPLINE
5
C5
100
AcDbEntity
8
1
62
256
6
ByLayer
370
-1
48
1
60
0
100
AcDbSpline
70
4
71
3
72
16
73
12
40
0
40
0
40
0
40
0
40
0.0443350855615698
40
0.0443350855615698
40
0.269331508342478
40
0.269331508342478
40
0.496031346658693
40
0.496031346658693
40
0.736257255544682
40
0.736257255544682
40
1
40
1
40
1
40
1
41
1
10
62.8032783794374
20
3.98281430627463
30
0
41
1
10
62.8051508459882
20
3.97958551601371
30
0
41
1
10
62.8071226316487
20
3.97640783799471
30
0
41
1
10
62.8195723541089
20
3.95761614954293
30
0
41
1
10
62.8325373312486
20
3.94330182627991
30
0
41
1
10
62.8614726211766
20
3.91946572922763
30
0
41
1
10
62.8778253632251
20
3.90966597588849
30
0
41
1
10
62.9125503493648
20
3.89501019240603
30
0
41
1
10
62.9314128952038
20
3.89028225122945
30
0
41
1
10
62.9701842209784
20
3.88630270534213
30
0
41
1
10
62.9905026822836
20
3.88755921064555
30
0
41
1
10
63.0094934109185
20
3.89172139957557
30
0
0
SPLINE
5
C6
100
AcDbEntity
8
1
62
256
6
ByLayer
370
-1
48
1
60
0
100
AcDbSpline
70
4
71
3
72
18
73
14
40
0
40
0
40
0
40
0
40
0.213393993398683
40
0.213393993398683
40
0.389003463313427
40
0.389003463313427
40
0.566251193345696
40
0.566251193345696
40
0.72117389777108
40
0.72117389777108
40
0.927414386868023
40
0.927414386868023
40
1
40
1
40
1
40
1
41
1
10
64.3888472651319
20
3.89172139957555
30
0
41
1
10
64.3468545854655
20
3.9009249151336
30
0
41
1
10
64.3017378799061
20
3.90403042447719
30
0
41
1
10
64.2184138241925
20
3.89641173863117
30
0
41
1
10
64.1794635708271
20
3.88786283938541
30
0
41
1
10
64.1045171974319
20
3.86032951931668
30
0
41
1
10
64.0674889410932
20
3.84075178266645
30
0
41
1
10
64.0064363366138
20
3.79682615942511
30
0
41
1
10
63.9806015211405
20
3.7729039216199
30
0
41
1
10
63.9300474031327
20
3.71374109130457
30
0
41
1
10
63.9075365050458
20
3.67642936197467
30
0
41
1
10
63.886160248094
20
3.6249060020389
30
0
41
1
10
63.881349167669
20
3.61120475898355
30
0
41
1
10
63.877332735696
20
3.5974200773646
30
0
0
SPLINE
5
C7
100
AcDbEntity
8
1
62
256
6
ByLayer
370
-1
48
1
60
0
100
AcDbSpline
70
4
71
3
72
18
73
14
40
0
40
0
40
0
40
0
40
0.212739715782324
40
0.212739715782324
40
0.388462636384667
40
0.388462636384667
40
0.565831500675472
40
0.565831500675472
40
0.720775155133174
40
0.720775155133174
40
0.926898402068056
40
0.926898402068056
40
1
40
1
40
1
40
1
41
1
10
63.5210079403546
20
3.59742007736364
30
0
41
1
10
63.509364651915
20
3.63738067553086
30
0
41
1
10
63.4908305040478
20
3.67703033204953
30
0
41
1
10
63.4445084306431
20
3.74402311981444
30
0
41
1
10
63.4182854592849
20
3.77301779519254
30
0
41
1
10
63.3576545559697
20
3.82357307531299
30
0
41
1
10
63.3222080334021
20
3.84573211538373
30
0
41
1
10
63.253065783671
20
3.87676724413509
30
0
41
1
10
63.2189135792151
20
3.88738171295301
30
0
41
1
10
63.1408397843364
20
3.90228123717671
30
0
41
1
10
63.0960858710384
20
3.90371096714844
30
0
41
1
10
63.0389005229798
20
3.89736494019849
30
0
41
1
10
63.0240375443458
20
3.89490903035645
30
0
41
1
10
63.0094934109184
20
3.89172139957555
30
0
0
SPLINE
5
C8
100
AcDbEntity
8
1
62
256
6
ByLayer
370
-1
48
1
60
0
100
AcDbSpline
70
4
71
3
72
14
73
10
40
0
40
0
40
0
40
0
40
0.0516526313357603
40
0.0516526313357603
40
0.388551761452646
40
0.388551761452646
40
0.836592514991721
40
0.836592514991721
40
1
40
1
40
1
40
1
41
1
10
64.4466379542514
20
4.46001256396974
30
0
41
1
10
64.4470044063254
20
4.45458096094012
30
0
41
1
10
64.4474772242342
20
4.4491671191532
30
0
41
1
10
64.4517900035901
20
4.40894065744459
30
0
41
1
10
64.4600665699039
20
4.37490670638587
30
0
41
1
10
64.4875179816875
20
4.30248267613402
30
0
41
1
10
64.5097222605071
20
4.26503382224578
30
0
41
1
10
64.5456988686573
20
4.22135405935526
30
0
41
1
10
64.5560050403668
20
4.21024113364876
30
0
41
1
10
64.5668245695686
20
4.199826905647
30
0
0
SPLINE
5
C9
100
AcDbEntity
8
1
62
256
6
ByLayer
370
-1
48
1
60
0
100
AcDbSpline
70
4
71
3
72
14
73
10
40
0
40
0
40
0
40
0
40
0.284523597312321
40
0.284523597312321
40
0.571736866218094
40
0.571736866218094
40
0.831999616286335
40
0.831999616286335
40
1
40
1
40
1
40
1
41
1
10
63.0094934109185
20
5.09833319088341
30
0
41
1
10
62.9889981300387
20
5.10435736995822
30
0
41
1
10
62.9669253610613
20
5.10691349984296
30
0
41
1
10
62.9229510913906
20
5.10380394221954
30
0
41
1
10
62.9003776481097
20
5.09797281224249
30
0
41
1
10
62.8609714467886
20
5.07885366604401
30
0
41
1
10
62.8432221783296
20
5.06599499926509
30
0
41
1
10
62.8188596815253
20
5.04033799716117
30
0
41
1
10
62.810332522933
20
5.02895383070393
30
0
41
1
10
62.8032783794374
20
5.01679000870774
30
0
0
SPLINE
5
CA
100
AcDbEntity
8
1
62
256
6
ByLayer
370
-1
48
1
60
0
100
AcDbSpline
70
4
71
3
72
14
73
10
40
0
40
0
40
0
40
0
40
0.25499408292798
40
0.25499408292798
40
0.545340561833224
40
0.545340561833224
40
0.80806305247308
40
0.80806305247308
40
1
40
1
40
1
40
1
41
1
10
62.8315161064816
20
4.199826905647
30
0
41
1
10
62.8181786858909
20
4.18698910684861
30
0
41
1
10
62.8066171504188
20
4.17166531479876
30
0
41
1
10
62.7878532850045
20
4.1353554688834
30
0
41
1
10
62.7812239359021
20
4.11326651205127
30
0
41
1
10
62.7772621359763
20
4.0698360764992
30
0
41
1
10
62.779084592212
20
4.04796057012308
30
0
41
1
10
62.7889131836809
20
4.01181842247021
30
0
41
1
10
62.795200676999
20
3.99674310353529
30
0
41
1
10
62.8032783794374
20
3.98281430627463
30
0
0
SPLINE
5
CB
100
AcDbEntity
8
1
62
256
6
ByLayer
370
-1
48
1
60
0
100
AcDbSpline
70
4
71
3
72
16
73
12
40
0
40
0
40
0
40
0
40
0.0668218968426821
40
0.0668218968426821
40
0.290671782504026
40
0.290671782504026
40
0.517500078005159
40
0.517500078005159
40
0.758852253027603
40
0.758852253027603
40
1
40
1
40
1
40
1
41
1
10
64.595062296613
20
3.98281430627466
30
0
41
1
10
64.5978870571566
20
3.98768518598624
30
0
41
1
10
64.6004913981766
20
3.99268292096392
30
0
41
1
10
64.6107275507993
20
4.01469956926891
30
0
41
1
10
64.6160026987141
20
4.03292704729316
30
0
41
1
10
64.6207974629621
20
4.06923623509604
30
0
41
1
10
64.6203154572802
20
4.08777340444513
30
0
41
1
10
64.6139238989076
20
4.12379544860641
30
0
41
1
10
64.607608582736
20
4.14159198430383
30
0
41
1
10
64.5904345840466
20
4.17336581073462
30
0
41
1
10
64.5794244996169
20
4.1876989708839
30
0
41
1
10
64.5668245695686
20
4.19982690564703
30
0
0
SPLINE
5
CC
100
AcDbEntity
8
1
62
256
6
ByLayer
370
-1
48
1
60
0
100
AcDbSpline
70
4
71
3
72
14
73
10
40
0
40
0
40
0
40
0
40
0.282392462172543
40
0.282392462172543
40
0.569872458814108
40
0.569872458814108
40
0.830347262066778
40
0.830347262066778
40
1
40
1
40
1
40
1
41
1
10
63.8773327356957
20
5.3926345130954
30
0
41
1
10
63.8716750710044
20
5.41357281872496
30
0
41
1
10
63.8623093587939
20
5.43412108785651
30
0
41
1
10
63.8366738753245
20
5.47111016252745
30
0
41
1
10
63.8198523290952
20
5.48801958236362
30
0
41
1
10
63.7828518756626
20
5.5129921590183
30
0
41
1
10
63.7625588078254
20
5.52208149337287
30
0
41
1
10
63.7277325694285
20
5.53052058555167
30
0
41
1
10
63.713395706454
20
5.53224396514065
30
0
41
1
10
63.6991703380251
20
5.53224396514065
30
0
0
SPLINE
5
CD
100
AcDbEntity
8
1
62
256
6
ByLayer
370
-1
48
1
60
0
100
AcDbSpline
70
4
71
3
72
12
73
8
40
0
40
0
40
0
40
0
40
0.463778916092329
40
0.463778916092329
40
0.845297369192377
40
0.845297369192377
40
1
40
1
40
1
40
1
41
1
10
64.5668245695686
20
4.79018112169763
30
0
41
1
10
64.536387094787
20
4.75773595396521
30
0
41
1
10
64.5097636756889
20
4.71957355245868
30
0
41
1
10
64.4727081107395
20
4.64268463157043
30
0
41
1
10
64.4599123091417
20
4.60435548361315
30
0
41
1
10
64.4497738394227
20
4.5489352392394
30
0
41
1
10
64.4477296640599
20
4.53262563743368
30
0
41
1
10
64.4466379542514
20
4.51630579030069
30
0
0
SPLINE
5
CE
100
AcDbEntity
8
1
62
256
6
ByLayer
370
-1
48
1
60
0
100
AcDbSpline
70
4
71
3
72
14
73
10
40
0
40
0
40
0
40
0
40
0.2845235973123
40
0.2845235973123
40
0.571736866218037
40
0.571736866218037
40
0.83199961628622
40
0.83199961628622
40
1
40
1
40
1
40
1
41
1
10
64.3888472651318
20
3.89172139957557
30
0
41
1
10
64.4093425460116
20
3.88722945864819
30
0
41
1
10
64.4314153149889
20
3.88612962172155
30
0
41
1
10
64.4753895846596
20
3.89178950802025
30
0
41
1
10
64.4979630279406
20
3.89874971042093
30
0
41
1
10
64.5373692292617
20
3.91951423651128
30
0
41
1
10
64.5551184977207
20
3.93296029189648
30
0
41
1
10
64.5794809945249
20
3.95915730039482
30
0
41
1
10
64.5880081531172
20
3.97065048427848
30
0
41
1
10
64.595062296613
20
3.98281430627466
30
0
0
SPLINE
5
CF
100
AcDbEntity
8
1
62
256
6
ByLayer
370
-1
48
1
60
0
100
AcDbSpline
70
4
71
3
72
16
73
12
40
0
40
0
40
0
40
0
40
0.0668343850042707
40
0.0668343850042707
40
0.290726105358722
40
0.290726105358722
40
0.517596792179789
40
0.517596792179789
40
0.758994072850299
40
0.758994072850299
40
1
40
1
40
1
40
1
41
1
10
62.8032783794374
20
5.01679000870774
30
0
41
1
10
62.8004536188936
20
5.0119191289962
30
0
41
1
10
62.7978492778737
20
5.00690415455369
30
0
41
1
10
62.787613125251
20
4.98473889467189
30
0
41
1
10
62.7823379773363
20
4.96620089536466
30
0
41
1
10
62.7775432130882
20
4.92892663767086
30
0
41
1
10
62.7780252187702
20
4.90971864883397
30
0
41
1
10
62.7844167771428
20
4.87203771487745
30
0
41
1
10
62.7907320933143
20
4.85321536097669
30
0
41
1
10
62.8079060920037
20
4.81919188983503
30
0
41
1
10
62.8189161764334
20
4.80361215849567
30
0
41
1
10
62.8315161064817
20
4.79018112169763
30
0
0
SPLINE
5
D0
100
AcDbEntity
8
1
62
256
6
ByLayer
370
-1
48
1
60
0
100
AcDbSpline
70
4
71
3
72
16
73
12
40
0
40
0
40
0
40
0
40
0.0766553330051096
40
0.0766553330051096
40
0.391846769295195
40
0.391846769295195
40
0.673717957633443
40
0.673717957633443
40
0.922465292899754
40
0.922465292899754
40
1
40
1
40
1
40
1
41
1
10
64.5668245695694
20
4.79018112169646
30
0
41
1
10
64.570859044225
20
4.79448171521972
30
0
41
1
10
64.5747237592274
20
4.79898924753635
30
0
41
1
10
64.5933148925533
20
4.82278603616967
30
0
41
1
10
64.6052113474007
20
4.84553257703311
30
0
41
1
10
64.6185836786879
20
4.8916277256385
30
0
41
1
10
64.6211886731243
20
4.91539453522208
30
0
41
1
10
64.6176702984405
20
4.95930922644976
30
0
41
1
10
64.6124555904708
20
4.9801954839763
30
0
41
1
10
64.6013353874313
20
5.00526317405181
30
0
41
1
10
64.598347696756
20
5.01112482447235
30
0
41
1
10
64.5950622966129
20
5.01679000870774
30
0
0
SPLINE
5
D1
100
AcDbEntity
8
1
62
256
6
ByLayer
370
-1
48
1
60
0
100
AcDbSpline
70
4
71
3
72
16
73
12
40
0
40
0
40
0
40
0
40
0.0655166791617591
40
0.0655166791617591
40
0.290169698179013
40
0.290169698179013
40
0.517725183739775
40
0.517725183739775
40
0.759784996339836
40
0.759784996339836
40
1
40
1
40
1
40
1
41
1
10
63.6991703380252
20
3.46736034984175
30
0
41
1
10
63.7046829164892
20
3.46736034984175
30
0
41
1
10
63.7102022004398
20
3.46759861404436
30
0
41
1
10
63.7343766953209
20
3.46968806261239
30
0
41
1
10
63.7529835579194
20
3.47414687658218
30
0
41
1
10
63.7873416783189
20
3.48788167055471
30
0
41
1
10
63.8034961718816
20
3.49738056077632
30
0
41
1
10
63.832317189432
20
3.52046265679681
30
0
41
1
10
63.8450697413646
20
3.53454166256825
30
0
41
1
10
63.8650359077751
20
3.56460626477818
30
0
41
1
10
63.8725143145461
20
3.58088291156582
30
0
41
1
10
63.877332735696
20
3.59742007736463
30
0
0
SPLINE
5
D2
100
AcDbEntity
8
1
62
256
6
ByLayer
370
-1
48
1
60
0
100
AcDbSpline
70
4
71
3
72
12
73
8
40
0
40
0
40
0
40
0
40
0.46377891609043
40
0.46377891609043
40
0.845297369191539
40
0.845297369191539
40
1
40
1
40
1
40
1
41
1
10
62.8315161064817
20
4.19982690564697
30
0
41
1
10
62.8619535812631
20
4.22912418802005
30
0
41
1
10
62.8885770003612
20
4.26431964356951
30
0
41
1
10
62.9256325653107
20
4.33688259303943
30
0
41
1
10
62.9384283669084
20
4.37362922405825
30
0
41
1
10
62.9485668366275
20
4.4277803973556
30
0
41
1
10
62.9506110119904
20
4.44383109107082
30
0
41
1
10
62.9517027217989
20
4.46001256396923
30
0
0
SPLINE
5
D3
100
AcDbEntity
8
1
62
256
6
ByLayer
370
-1
48
1
60
0
100
AcDbSpline
70
4
71
3
72
16
73
12
40
0
40
0
40
0
40
0
40
0.0655166791619791
40
0.0655166791619791
40
0.290169698179254
40
0.290169698179254
40
0.517725183739923
40
0.517725183739923
40
0.75978499634005
40
0.75978499634005
40
1
40
1
40
1
40
1
41
1
10
63.6991703380251
20
5.53224396514065
30
0
41
1
10
63.6936577595612
20
5.53224396514065
30
0
41
1
10
63.6881384756105
20
5.53198924030247
30
0
41
1
10
63.6639639807294
20
5.52975530975178
30
0
41
1
10
63.6453571181309
20
5.52498849217468
30
0
41
1
10
63.6109989977314
20
5.51029334500248
30
0
41
1
10
63.5948445041686
20
5.50012601581037
30
0
41
1
10
63.5660234866183
20
5.47538971303811
30
0
41
1
10
63.5532709346857
20
5.46028730250893
30
0
41
1
10
63.5333047682753
20
5.42798221355059
30
0
41
1
10
63.5258263615042
20
5.41046688390384
30
0
41
1
10
63.5210079403543
20
5.39263451309435
30
0
0
LINE
5
49
100
AcDbEntity
8
80
62
256
6
ByLayer
370
-1
48
1
60
0
100
AcDbLine
10
0
20
0
30
0
11
-10
21
0
31
0
39
0
210
0
220
0
230
1
0
LINE
5
4A
100
AcDbEntity
8
81
62
256
6
ByLayer
370
-1
48
1
60
0
100
AcDbLine
10
63.94
20
10.9
30
0
11
73.94
21
10.9
31
0
39
0
210
0
220
0
230
1
0
LINE
5
4B
100
AcDbEntity
8
SK4
62
256
6
ByLayer
370
-1
48
0.05
60
0
100
AcDbLine
10
-142.31
20
0
30
0
11
72.743913
21
0
31
0
39
0
210
0
220
0
230
1
0
LINE
5
4D
100
AcDbEntity
8
4
62
256
6
ByLayer
370
-1
48
0.05
60
0
100
AcDbLine
10
0
20
0
30
0
11
72.743913
21
0
31
0
39
0
210
0
220
0
230
1
0
LINE
5
4F
100
AcDbEntity
8
SK1
62
256
6
ByLayer
370
-1
48
1
60
0
100
AcDbLine
10
-136.81
20
-7.9925
30
0
11
0
21
-7.9925
31
0
39
0
210
0
220
0
230
1
0
LINE
5
51
100
AcDbEntity
8
SK1
62
256
6
ByLayer
370
-1
48
1
60
0
100
AcDbLine
10
0
20
7.9925
30
0
11
-136.81
21
7.9925
31
0
39
0
210
0
220
0
230
1
0
LINE
5
52
100
AcDbEntity
8
SK1
62
256
6
ByLayer
370
-1
48
1
60
0
100
AcDbLine
10
-136.81
20
7.9925
30
0
11
-137.31
21
7.4925
31
0
39
0
210
0
220
0
230
1
0
LINE
5
53
100
AcDbEntity
8
SK1
62
256
6
ByLayer
370
-1
48
1
60
0
100
AcDbLine
10
-137.31
20
-7.4925
30
0
11
-136.81
21
-7.9925
31
0
39
0
210
0
220
0
230
1
0
LINE
5
54
100
AcDbEntity
8
1
62
256
6
ByLayer
370
-1
48
1
60
0
100
AcDbLine
10
65.42417
20
4.436563
30
0
11
65.42417
21
4.487581
31
0
39
0
210
0
220
0
230
1
0
LINE
5
55
100
AcDbEntity
8
1
62
256
6
ByLayer
370
-1
48
1
60
0
100
AcDbLine
10
61.97417
20
4.487581
30
0
11
61.97417
21
4.436563
31
0
39
0
210
0
220
0
230
1
0
LINE
5
56
100
AcDbEntity
8
1
62
256
6
ByLayer
370
-1
48
1
60
0
100
AcDbLine
10
0
20
-7.9925
30
0
11
59.954715
21
-7.9925
31
0
39
0
210
0
220
0
230
1
0
LINE
5
57
100
AcDbEntity
8
1
62
256
6
ByLayer
370
-1
48
1
60
0
100
AcDbLine
10
50.912717
20
7.9925
30
0
11
0
21
7.9925
31
0
39
0
210
0
220
0
230
1
0
LINE
5
58
100
AcDbEntity
8
1
62
256
6
ByLayer
370
-1
48
1
60
0
100
AcDbLine
10
59.954715
20
-7.9925
30
0
11
60.029715
21
-7.9175
31
0
39
0
210
0
220
0
230
1
0
LINE
5
59
100
AcDbEntity
8
1
62
256
6
ByLayer
370
-1
48
1
60
0
100
AcDbLine
10
60.029715
20
-7.9175
30
0
11
60.156588
21
-7.9175
31
0
39
0
210
0
220
0
230
1
0
LINE
5
5A
100
AcDbEntity
8
1
62
256
6
ByLayer
370
-1
48
1
60
0
100
AcDbLine
10
66.672334
20
-5.505988
30
0
11
67.743913
21
-3.526265
31
0
39
0
210
0
220
0
230
1
0
LINE
5
5B
100
AcDbEntity
8
1
62
256
6
ByLayer
370
-1
48
1
60
0
100
AcDbLine
10
67.743913
20
3.526265
30
0
11
67.606238
21
3.780617
31
0
39
0
210
0
220
0
230
1
0
LINE
5
5C
100
AcDbEntity
8
1
62
256
6
ByLayer
370
-1
48
1
60
0
100
AcDbLine
10
62.264322
20
0.392888
30
0
11
61.903189
21
-0.299127
31
0
39
0
210
0
220
0
230
1
0
LINE
5
5D
100
AcDbEntity
8
1
62
256
6
ByLayer
370
-1
48
1
60
0
100
AcDbLine
10
59.812516
20
3.870371
30
0
11
62.722798
21
-6.9641
31
0
39
0
210
0
220
0
230
1
0
LINE
5
5E
100
AcDbEntity
8
1
62
256
6
ByLayer
370
-1
48
1
60
0
100
AcDbLine
10
62.224851
20
0.468541
30
0
11
61.903189
21
-0.147838
31
0
39
0
210
0
220
0
230
1
0
LINE
5
5F
100
AcDbEntity
8
1
62
256
6
ByLayer
370
-1
48
1
60
0
100
AcDbLine
10
60.029715
20
-7.9175
30
0
11
60.029715
21
-7.81891
31
0
39
0
210
0
220
0
230
1
0
LINE
5
60
100
AcDbEntity
8
1
62
256
6
ByLayer
370
-1
48
1
60
0
100
AcDbLine
10
60.406121
20
-7.824793
30
0
11
62.722798
21
-6.9641
31
0
39
0
210
0
220
0
230
1
0
LINE
5
61
100
AcDbEntity
8
1
62
256
6
ByLayer
370
-1
48
1
60
0
100
AcDbLine
10
67.743913
20
3.514339
30
0
11
67.743913
21
3.526265
31
0
39
0
210
0
220
0
230
1
0
LINE
5
62
100
AcDbEntity
8
1
62
256
6
ByLayer
370
-1
48
1
60
0
100
AcDbLine
10
67.743913
20
-3.526265
30
0
11
67.743913
21
-3.439015
31
0
39
0
210
0
220
0
230
1
0
LINE
5
63
100
AcDbEntity
8
1
62
256
6
ByLayer
370
-1
48
1
60
0
100
AcDbLine
10
60.156588
20
-7.9175
30
0
11
60.406121
21
-7.824793
31
0
39
0
210
0
220
0
230
1
0
LINE
5
64
100
AcDbEntity
8
1
62
256
6
ByLayer
370
-1
48
1
60
0
100
AcDbLine
10
59.954715
20
-7.89237
30
0
11
59.954715
21
-7.9925
31
0
39
0
210
0
220
0
230
1
0
LINE
5
65
100
AcDbEntity
8
1
62
256
6
ByLayer
370
-1
48
1
60
0
100
AcDbLine
10
0
20
-7.9925
30
0
11
0
21
-0.208217
31
0
39
0
210
0
220
0
230
1
0
LINE
5
66
100
AcDbEntity
8
1
62
256
6
ByLayer
370
-1
48
1
60
0
100
AcDbLine
10
0
20
0.208217
30
0
11
0
21
7.9925
31
0
39
0
210
0
220
0
230
1
0
LINE
5
67
100
AcDbEntity
8
1
62
256
6
ByLayer
370
-1
48
1
60
0
100
AcDbLine
10
61.903189
20
-0.299127
30
0
11
61.903189
21
-0.147838
31
0
39
0
210
0
220
0
230
1
0
LINE
5
68
100
AcDbEntity
8
1
62
256
6
ByLayer
370
-1
48
1
60
0
100
AcDbLine
10
42.292166
20
0.208217
30
0
11
0
21
0.208217
31
0
39
0
210
0
220
0
230
1
0
LINE
5
69
100
AcDbEntity
8
1
62
256
6
ByLayer
370
-1
48
1
60
0
100
AcDbLine
10
0
20
-0.208217
30
0
11
0
21
0.208217
31
0
39
0
210
0
220
0
230
1
0
LINE
5
6A
100
AcDbEntity
8
1
62
256
6
ByLayer
370
-1
48
1
60
0
100
AcDbLine
10
0
20
-0.208217
30
0
11
42.43388
21
-0.208217
31
0
39
0
210
0
220
0
230
1
0
LINE
5
6B
100
AcDbEntity
8
1
62
256
6
ByLayer
370
-1
48
1
60
0
100
AcDbLine
10
67.743913
20
3.514339
30
0
11
67.743913
21
-3.439015
31
0
39
0
210
0
220
0
230
1
0
LINE
5
6C
100
AcDbEntity
8
1
62
256
6
ByLayer
370
-1
48
1
60
0
100
AcDbLine
10
62.722798
20
-6.9641
30
0
11
66.626297
21
-5.51387
31
0
39
0
210
0
220
0
230
1
0
LINE
5
6D
100
AcDbEntity
8
SK1
62
256
6
ByLayer
370
-1
48
1
60
0
100
AcDbLine
10
0
20
-0.208217
30
0
11
0
21
0.208217
31
0
39
0
210
0
220
0
230
1
0
LINE
5
6E
100
AcDbEntity
8
SK1
62
256
6
ByLayer
370
-1
48
1
60
0
100
AcDbLine
10
-48.06
20
-0.208217
30
0
11
-48.06
21
0.208217
31
0
39
0
210
0
220
0
230
1
0
LINE
5
6F
100
AcDbEntity
8
SK1
62
256
6
ByLayer
370
-1
48
1
60
0
100
AcDbLine
10
-136.81
20
-7.9925
30
0
11
-136.81
21
7.9925
31
0
39
0
210
0
220
0
230
1
0
LINE
5
70
100
AcDbEntity
8
SK1
62
256
6
ByLayer
370
-1
48
1
60
0
100
AcDbLine
10
-137.31
20
-7.4925
30
0
11
-137.31
21
7.4925
31
0
39
0
210
0
220
0
230
1
0
LINE
5
71
100
AcDbEntity
8
SK1
62
256
6
ByLayer
370
-1
48
1
60
0
100
AcDbLine
10
0
20
-7.9925
30
0
11
0
21
-0.208217
31
0
39
0
210
0
220
0
230
1
0
LINE
5
72
100
AcDbEntity
8
SK1
62
256
6
ByLayer
370
-1
48
1
60
0
100
AcDbLine
10
0
20
0.208217
30
0
11
0
21
7.9925
31
0
39
0
210
0
220
0
230
1
0
LINE
5
73
100
AcDbEntity
8
SK1
62
256
6
ByLayer
370
-1
48
1
60
0
100
AcDbLine
10
0
20
0.208217
30
0
11
-48.06
21
0.208217
31
0
39
0
210
0
220
0
230
1
0
LINE
5
74
100
AcDbEntity
8
SK1
62
256
6
ByLayer
370
-1
48
1
60
0
100
AcDbLine
10
-48.06
20
-0.208217
30
0
11
0
21
-0.208217
31
0
39
0
210
0
220
0
230
1
0
LINE
5
75
100
AcDbEntity
8
1
62
256
6
ByLayer
370
-1
48
1
60
0
100
AcDbLine
10
60.21513
20
4.319642
30
0
11
63.347138
21
-1.682018
31
0
39
0
210
0
220
0
230
1
0
LINE
5
76
100
AcDbEntity
8
1
62
256
6
ByLayer
370
-1
48
1
60
0
100
AcDbLine
10
63.347138
20
10.686909
30
0
11
60.21513
21
4.685249
31
0
39
0
210
0
220
0
230
1
0
LINE
5
77
100
AcDbEntity
8
1
62
256
6
ByLayer
370
-1
48
1
60
0
100
AcDbLine
10
67.183211
20
4.685249
30
0
11
64.051203
21
10.686909
31
0
39
0
210
0
220
0
230
1
0
LINE
5
78
100
AcDbEntity
8
1
62
256
6
ByLayer
370
-1
48
1
60
0
100
AcDbLine
10
64.051203
20
-1.682018
30
0
11
67.183211
21
4.319642
31
0
39
0
210
0
220
0
230
1
0
LINE
5
79
100
AcDbEntity
8
1
62
256
6
ByLayer
370
-1
48
1
60
0
100
AcDbLine
10
64.566825
20
4.134359
30
0
11
64.566825
21
4.199827
31
0
39
0
210
0
220
0
230
1
0
LINE
5
7A
100
AcDbEntity
8
1
62
256
6
ByLayer
370
-1
48
1
60
0
100
AcDbLine
10
64.388847
20
5.032842
30
0
11
64.388847
21
5.098333
31
0
39
0
210
0
220
0
230
1
0
LINE
5
7B
100
AcDbEntity
8
1
62
256
6
ByLayer
370
-1
48
1
60
0
100
AcDbLine
10
63.877333
20
5.327144
30
0
11
63.877333
21
5.392635
31
0
39
0
210
0
220
0
230
1
0
LINE
5
7C
100
AcDbEntity
8
1
62
256
6
ByLayer
370
-1
48
1
60
0
100
AcDbLine
10
63.521008
20
5.327144
30
0
11
63.521008
21
5.392635
31
0
39
0
210
0
220
0
230
1
0
LINE
5
7D
100
AcDbEntity
8
1
62
256
6
ByLayer
370
-1
48
1
60
0
100
AcDbLine
10
63.009493
20
5.032842
30
0
11
63.009493
21
5.098333
31
0
39
0
210
0
220
0
230
1
0
LINE
5
7E
100
AcDbEntity
8
1
62
256
6
ByLayer
370
-1
48
1
60
0
100
AcDbLine
10
62.831516
20
4.134359
30
0
11
62.831516
21
4.199827
31
0
39
0
210
0
220
0
230
1
0
LINE
5
7F
100
AcDbEntity
8
1
62
256
6
ByLayer
370
-1
48
1
60
0
100
AcDbLine
10
62.951703
20
4.460013
30
0
11
62.951703
21
4.40139
31
0
39
0
210
0
220
0
230
1
0
LINE
5
80
100
AcDbEntity
8
1
62
256
6
ByLayer
370
-1
48
1
60
0
100
AcDbLine
10
62.951703
20
4.460013
30
0
11
62.951703
21
4.516306
31
0
39
0
210
0
220
0
230
1
0
LINE
5
81
100
AcDbEntity
8
1
62
256
6
ByLayer
370
-1
48
1
60
0
100
AcDbLine
10
64.446638
20
4.516306
30
0
11
64.446638
21
4.460013
31
0
39
0
210
0
220
0
230
1
0
LINE
5
82
100
AcDbEntity
8
1
62
256
6
ByLayer
370
-1
48
1
60
0
100
AcDbLine
10
64.446638
20
4.40139
30
0
11
64.446638
21
4.460013
31
0
39
0
210
0
220
0
230
1
0
LINE
5
83
100
AcDbEntity
8
2
62
256
6
ByLayer
370
-1
48
1
60
1
100
AcDbLine
10
63.94
20
0
30
0
11
63.941
21
0.001
31
0
39
0
210
0
220
0
230
1
0
MTEXT
5
D4
100
AcDbEntity
8
SK6
62
256
6
ByLayer
370
-1
48
1
60
0
100
AcDbMText
10
-33.31
20
-20.32125
30
0
210
0
220
0
230
1
1
\W00.757;\fsimplex.shx,bigfont.shx;A16R-SDXCR 07-R 
40
3.5
41
0
44
1.084337
50
0
71
7
72
5
7
DEFAULT
0
DIMENSION
5
107
100
AcDbEntity
8
2
62
256
6
ByLayer
370
-3
48
1
60
0
100
AcDbDimension
2
DimnDraft3D1
10
76.19
20
0
30
0
11
76.19
21
21.155
31
0
70
32
71
5
72
1
41
1
210
0
220
0
230
1
3
Standard
100
AcDbAlignedDimension
13
65.94
23
10.9
33
0
14
65.94
24
0
34
0
50
90
100
AcDbRotatedDimension
1001
ACAD
1000
DSTYLE
1002
{
1070
    74
1070
     0
1070
   279
1070
     0
1070
   172
1070
     1
1070
   173
1070
     1
1070
   340
1005
D5
1070
    77
1070
     1
1070
    73
1070
     0
1070
   171
1070
     4
1070
   274
1070
     4
1070
   177
1070
     2
1070
   176
1070
     2
1070
   178
1070
     7
1070
    78
1070
     8
1070
    41
1041
3.175
1070
   147
1041
2.25
1070
    42
1041
2.0
1070
    44
1041
2.0
1070
   140
1041
4.5
1070
   343
1005
108
1070
   344
1005
108
1002
}
0
DIMENSION
5
11D
100
AcDbEntity
8
SK2
62
256
6
ByLayer
370
-3
48
1
60
0
100
AcDbDimension
2
DimnDraft3D2
10
-147.06
20
7.9925
30
0
11
-147.06
21
-4.221711
31
0
70
32
71
5
72
1
41
1
210
0
220
0
230
1
3
Standard
100
AcDbAlignedDimension
13
-139.31
23
-7.9925
33
0
14
-139.31
24
7.9925
34
0
50
90
100
AcDbRotatedDimension
1001
ACAD
1000
DSTYLE
1002
{
1070
    74
1070
     0
1070
   279
1070
     0
1070
   172
1070
     1
1070
   173
1070
     1
1070
   340
1005
D5
1070
    77
1070
     1
1070
    73
1070
     0
1070
   171
1070
     4
1070
   274
1070
     4
1070
   177
1070
     2
1070
   176
1070
     2
1070
   178
1070
     7
1070
    78
1070
     8
1070
    41
1041
3.175
1070
   147
1041
2.25
1070
    42
1041
2.0
1070
    44
1041
2.0
1070
   140
1041
4.5
1070
   343
1005
108
1070
   344
1005
108
1002
}
0
DIMENSION
5
12B
100
AcDbEntity
8
SK2
62
256
6
ByLayer
370
-3
48
1
60
0
100
AcDbDimension
2
DimnDraft3D3
10
-137.31
20
23.65
30
0
11
-43.500132
21
23.65
31
0
70
32
71
5
72
1
41
1
210
0
220
0
230
1
3
Standard
100
AcDbAlignedDimension
13
63.94
23
12.9
33
0
14
-137.31
24
9.9925
34
0
50
0
100
AcDbRotatedDimension
1001
ACAD
1000
DSTYLE
1002
{
1070
   279
1070
     0
1070
   172
1070
     1
1070
   173
1070
     1
1070
   340
1005
D5
1070
    77
1070
     1
1070
    73
1070
     0
1070
   171
1070
     4
1070
   274
1070
     4
1070
   177
1070
     2
1070
   176
1070
     2
1070
   178
1070
     7
1070
    78
1070
     8
1070
    41
1041
3.175
1070
   147
1041
2.25
1070
    42
1041
2.0
1070
    44
1041
2.0
1070
   140
1041
4.5
1070
   343
1005
108
1070
   344
1005
108
1002
}
0
DIMENSION
5
139
100
AcDbEntity
8
2
62
256
6
ByLayer
370
-3
48
1
60
0
100
AcDbDimension
2
DimnDraft3D4
10
118.554647
20
0
30
0
11
103.675728
21
-30.018642
31
0
70
34
71
5
72
1
41
1
210
0
220
0
230
1
3
Standard
100
AcDb2LineAngularDimension
13
68.103833
23
2.921122
33
0
14
92.263949
24
-43.375316
34
0
15
65.94
25
0
35
0
16
105.910237
26
-21.991287
36
0
40
0
0
ENDSEC
0
SECTION
2
OBJECTS
0
DICTIONARY
5
16a
330
0
100
AcDbDictionary
280
0
281
1
3
ACAD_GROUP
350
16b
3
ACAD_MLINESTYLE
350
16c
0
DICTIONARY
5
16b
330
0
100
AcDbDictionary
280
0
281
1
0
DICTIONARY
5
16c
330
0
100
AcDbDictionary
280
0
281
1
3
Standard
350
18
0
MLINESTYLE
5
18
330
16c
100
AcDbMlineStyle
2
Standard
70
0
3

62
256
51
90
52
90
71
2
49
-0.5
62
256
6
ByLayer
49
0.5
62
256
6
ByLayer
0
RASTERVARIABLES
5
158
330

100
AcDbRasterVariables
90
0
70
1
71
1
72
1
0
ENDSEC
0
EOF
