0
SECTION
2
HEADER
9
$ACADVER
1
AC1015
9
$DWGCODEPAGE
3
ANSI_1252
9
$HANDSEED
5
174
9
$ANGBASE
50
0
9
$ANGDIR
70
0
9
$ATTMODE
70
1
9
$AUNITS
70
0
9
$AUPREC
70
0
9
$CECOLOR
62
256
9
$CELTSCALE
40
1
9
$CELTYPE
6
ByLayer
9
$CELWEIGHT
370
-1
9
$CLAYER
8
0
9
$CMLJUST
70
0
9
$CMLSCALE
40
1
9
$CMLSTYLE
2
Standard
9
$DIMSTYLE
2
Standard
9
$TEXTSIZE
40
0.2
9
$TEXTSTYLE
7
Standard
9
$LUNITS
70
2
9
$LUPREC
70
4
9
$EXTNAMES
290
1
9
$INSUNITS
70
4
9
$LTSCALE
40
1
9
$LWDISPLAY
290
0
9
$PDMODE
70
0
9
$PDSIZE
40
0
9
$PLINEGEN
70
0
0
ENDSEC
0
SECTION
2
CLASSES
0
CLASS
1
RASTERVARIABLES
2
AcDbRasterVariables
3
ISM
90
0
280
0
281
0
0
ENDSEC
0
SECTION
2
TABLES
0
TABLE
2
VPORT
5
16a
100
AcDbSymbolTable
0
VPORT
5
1
100
AcDbSymbolTableRecord
100
AcDbViewportTableRecord
2
*Active
70
0
10
0
20
0
11
1
21
1
12
-1
22
1
13
0
23
0
14
0.5
24
0.5
15
10
25
10
16
0
26
0
36
1
17
0
27
0
37
0
0
ENDTAB
0
TABLE
2
LTYPE
5
16b
100
AcDbSymbolTable
0
LTYPE
5
14
100
AcDbSymbolTableRecord
100
AcDbLinetypeTableRecord
70
0
2
ByBlock
3

72
65
73
0
40
0
0
LTYPE
5
15
100
AcDbSymbolTableRecord
100
AcDbLinetypeTableRecord
70
0
2
ByLayer
3

72
65
73
0
40
0
0
LTYPE
5
16
100
AcDbSymbolTableRecord
100
AcDbLinetypeTableRecord
70
0
2
CONTINUOUS
3
Solid line
72
65
73
0
40
0
0
LTYPE
5
3B
100
AcDbSymbolTableRecord
100
AcDbLinetypeTableRecord
70
0
2
DASHED
3
__ __ __ __ __ __ __ __ __
72
65
73
2
40
25.72
49
12.86
74
0
49
-12.86
74
0
0
LTYPE
5
3C
100
AcDbSymbolTableRecord
100
AcDbLinetypeTableRecord
70
0
2
HIDDEN
3
_ _ _ _ _ _ _ _ _ _ _ _ _ _ _
72
65
73
2
40
0.5
49
0.25
74
0
49
-0.25
74
0
0
LTYPE
5
3D
100
AcDbSymbolTableRecord
100
AcDbLinetypeTableRecord
70
0
2
PHANTOM
3
____ _ _ ____ _ _ _____ _ _ ____
72
65
73
6
40
50.5
49
18
74
0
49
-6.5
74
0
49
6.5
74
0
49
-6.5
74
0
49
6.5
74
0
49
-6.5
74
0
0
LTYPE
5
3E
100
AcDbSymbolTableRecord
100
AcDbLinetypeTableRecord
70
0
2
CENTER
3
____ _ ____ _ ____ _ ____
72
65
73
4
40
47.5
49
22
74
0
49
-8.5
74
0
49
8.5
74
0
49
-8.5
74
0
0
LTYPE
5
3F
100
AcDbSymbolTableRecord
100
AcDbLinetypeTableRecord
70
0
2
DOT
3
.........................
72
65
73
2
40
10
49
0
74
0
49
-10
74
0
0
LTYPE
5
40
100
AcDbSymbolTableRecord
100
AcDbLinetypeTableRecord
70
0
2
DASHDOT
3
_._._._._._._._._._._._._._._._.
72
65
73
4
40
70
49
31
74
0
49
-13
74
0
49
13
74
0
49
-13
74
0
0
ENDTAB
0
TABLE
2
LAYER
5
16c
100
AcDbSymbolTable
0
LAYER
5
10
100
AcDbSymbolTableRecord
100
AcDbLayerTableRecord
2
0
70
0
62
7
6
CONTINUOUS
290
1
370
-3
390
0
0
LAYER
5
42
100
AcDbSymbolTableRecord
100
AcDbLayerTableRecord
2
80
70
0
62
-6
6
CONTINUOUS
290
1
370
-3
390
0
0
LAYER
5
44
100
AcDbSymbolTableRecord
100
AcDbLayerTableRecord
2
81
70
0
62
-3
6
CONTINUOUS
290
1
370
-3
390
0
0
LAYER
5
46
100
AcDbSymbolTableRecord
100
AcDbLayerTableRecord
2
1
70
0
62
4
6
CONTINUOUS
290
1
370
-3
390
0
0
LAYER
5
48
100
AcDbSymbolTableRecord
100
AcDbLayerTableRecord
2
2
70
0
62
7
6
CONTINUOUS
290
1
370
-3
390
0
0
LAYER
5
5B
100
AcDbSymbolTableRecord
100
AcDbLayerTableRecord
2
4
70
0
62
-2
6
CENTER
290
1
370
-3
390
0
0
LAYER
5
156
100
AcDbSymbolTableRecord
100
AcDbLayerTableRecord
2
SK1
70
0
62
4
6
CONTINUOUS
290
1
370
-3
390
0
0
LAYER
5
157
100
AcDbSymbolTableRecord
100
AcDbLayerTableRecord
2
SK4
70
0
62
2
6
CENTER
290
1
370
-3
390
0
0
LAYER
5
158
100
AcDbSymbolTableRecord
100
AcDbLayerTableRecord
2
SK6
70
0
62
5
6
CONTINUOUS
290
1
370
-3
390
0
0
LAYER
5
159
100
AcDbSymbolTableRecord
100
AcDbLayerTableRecord
2
SK2
70
0
62
7
6
CONTINUOUS
290
1
370
-3
390
0
0
ENDTAB
0
TABLE
2
STYLE
5
16d
100
AcDbSymbolTable
0
STYLE
5
11
100
AcDbSymbolTableRecord
100
AcDbTextStyleTableRecord
2
Standard
3
txt
70
0
71
0
40
0
41
1
42
0
50
0
0
STYLE
5
D2
100
AcDbSymbolTableRecord
100
AcDbTextStyleTableRecord
2
DEFAULT
3
simplex.shx
70
0
71
0
40
0
41
1
42
0
50
0
0
STYLE
5
F5
100
AcDbSymbolTableRecord
100
AcDbTextStyleTableRecord
2
DWGDirectTextStyle
3
SIMPLEX
70
0
71
0
40
0
41
1
42
0
50
0
0
ENDTAB
0
TABLE
2
DIMSTYLE
5
16e
100
AcDbSymbolTable
100
AcDbDimStyleTable
0
DIMSTYLE
105
27
100
AcDbSymbolTableRecord
100
AcDbDimStyleTableRecord
2
Standard
70
0
3
<>
41
0.18
42
0.0625
44
0.18
140
0.18
147
0.09
73
0
74
0
77
1
271
2
275
0
278
52
280
0
340
11
0
ENDTAB
0
TABLE
2
VIEW
5
16f
100
AcDbSymbolTable
0
ENDTAB
0
TABLE
2
UCS
5
170
100
AcDbSymbolTable
0
ENDTAB
0
TABLE
2
APPID
5
171
100
AcDbSymbolTable
0
APPID
5
12
100
AcDbSymbolTableRecord
100
AcDbRegAppTableRecord
2
ACAD
70
0
0
ENDTAB
0
TABLE
2
BLOCK_RECORD
5
172
100
AcDbSymbolTable
0
BLOCK_RECORD
5
1F
100
AcDbSymbolTableRecord
100
AcDbBlockTableRecord
2
*Model_Space
340
0
70
0
0
BLOCK_RECORD
5
1B
100
AcDbSymbolTableRecord
100
AcDbBlockTableRecord
2
*Paper_Space
340
0
70
0
0
BLOCK_RECORD
5
23
100
AcDbSymbolTableRecord
100
AcDbBlockTableRecord
2
*Paper_Space0
340
0
70
0
0
BLOCK_RECORD
5
F7
100
AcDbSymbolTableRecord
100
AcDbBlockTableRecord
2
DimnDraft3D1
340
0
70
0
0
BLOCK_RECORD
5
105
100
AcDbSymbolTableRecord
100
AcDbBlockTableRecord
2
_CLOSED
340
0
70
0
0
BLOCK_RECORD
5
10C
100
AcDbSymbolTableRecord
100
AcDbBlockTableRecord
2
DimnDraft3D2
340
0
70
0
0
BLOCK_RECORD
5
11B
100
AcDbSymbolTableRecord
100
AcDbBlockTableRecord
2
DimnDraft3D3
340
0
70
0
0
BLOCK_RECORD
5
129
100
AcDbSymbolTableRecord
100
AcDbBlockTableRecord
2
DimnDraft3D4
340
0
70
0
0
ENDTAB
0
ENDSEC
0
SECTION
2
BLOCKS
0
BLOCK
5
20
100
AcDbEntity
8
0
100
AcDbBlockBegin
2
*Model_Space
70
0
10
0
20
0
30
0
3
*Model_Space
0
ENDBLK
5
21
100
AcDbEntity
8
0
100
AcDbBlockEnd
0
BLOCK
5
1C
100
AcDbEntity
8
0
100
AcDbBlockBegin
2
*Paper_Space
70
0
10
0
20
0
30
0
3
*Paper_Space
0
ENDBLK
5
1D
100
AcDbEntity
8
0
100
AcDbBlockEnd
0
BLOCK
5
24
100
AcDbEntity
8
0
100
AcDbBlockBegin
2
*Paper_Space0
70
0
10
0
20
0
30
0
3
*Paper_Space0
0
ENDBLK
5
25
100
AcDbEntity
8
0
100
AcDbBlockEnd
0
BLOCK
5
102
100
AcDbEntity
8
0
100
AcDbBlockBegin
2
DimnDraft3D1
70
0
10
0
20
0
30
0
3
DimnDraft3D1
0
MTEXT
5
F8
100
AcDbEntity
8
2
62
256
6
ByLayer
370
-1
48
1
60
0
100
AcDbMText
10
75.065
20
22.28
30
0
210
0
220
0
230
1
1
\W01.000;\fsimplex.shx,bigfont.shx;11.0 
40
4.5
41
0
44
1.084337
50
90
71
7
72
5
7
DEFAULT
0
LINE
5
F9
100
AcDbEntity
8
2
62
256
6
ByLayer
370
-1
48
1
60
0
100
AcDbLine
10
65.94
20
10.9
30
0
11
78.19
21
10.9
31
0
39
0
210
0
220
0
230
1
0
LINE
5
FA
100
AcDbEntity
8
2
62
256
6
ByLayer
370
-1
48
1
60
0
100
AcDbLine
10
65.94
20
0
30
0
11
78.19
21
0
31
0
39
0
210
0
220
0
230
1
0
LINE
5
FB
100
AcDbEntity
8
2
62
256
6
ByLayer
370
-1
48
1
60
0
100
AcDbLine
10
76.19
20
0
30
0
11
76.19
21
29.231316
31
0
39
0
210
0
220
0
230
1
0
LINE
5
FC
100
AcDbEntity
8
2
62
256
6
ByLayer
370
-1
48
1
60
0
100
AcDbLine
10
76.19
20
10.9
30
0
11
76.607997
21
7.725002
31
0
39
0
210
0
220
0
230
1
0
LINE
5
FD
100
AcDbEntity
8
2
62
256
6
ByLayer
370
-1
48
1
60
0
100
AcDbLine
10
76.19
20
10.9
30
0
11
75.772003
21
7.724998
31
0
39
0
210
0
220
0
230
1
0
LINE
5
FE
100
AcDbEntity
8
2
62
256
6
ByLayer
370
-1
48
1
60
0
100
AcDbLine
10
76.607997
20
7.725002
30
0
11
75.772003
21
7.724998
31
0
39
0
210
0
220
0
230
1
0
LINE
5
FF
100
AcDbEntity
8
2
62
256
6
ByLayer
370
-1
48
1
60
0
100
AcDbLine
10
76.19
20
0
30
0
11
75.772003
21
3.174998
31
0
39
0
210
0
220
0
230
1
0
LINE
5
100
100
AcDbEntity
8
2
62
256
6
ByLayer
370
-1
48
1
60
0
100
AcDbLine
10
76.19
20
0
30
0
11
76.607997
21
3.175002
31
0
39
0
210
0
220
0
230
1
0
LINE
5
101
100
AcDbEntity
8
2
62
256
6
ByLayer
370
-1
48
1
60
0
100
AcDbLine
10
75.772003
20
3.174998
30
0
11
76.607997
21
3.175002
31
0
39
0
210
0
220
0
230
1
0
ENDBLK
5
103
100
AcDbEntity
8
0
100
AcDbBlockEnd
0
BLOCK
5
106
100
AcDbEntity
8
0
100
AcDbBlockBegin
2
_CLOSED
70
0
10
0
20
0
30
0
3
_CLOSED
0
LINE
5
108
100
AcDbEntity
8
0
62
256
6
ByLayer
370
-2
48
1
60
0
100
AcDbLine
10
-1
20
0.166667
30
0
11
0
21
0
31
0
39
0
210
0
220
0
230
1
0
LINE
5
109
100
AcDbEntity
8
0
62
256
6
ByLayer
370
-2
48
1
60
0
100
AcDbLine
10
0
20
0
30
0
11
-1
21
-0.166667
31
0
39
0
210
0
220
0
230
1
0
LINE
5
10A
100
AcDbEntity
8
0
62
256
6
ByLayer
370
-2
48
1
60
0
100
AcDbLine
10
-1
20
0.166667
30
0
11
-1
21
-0.166667
31
0
39
0
210
0
220
0
230
1
0
LINE
5
10B
100
AcDbEntity
8
0
62
256
6
ByLayer
370
-2
48
1
60
0
100
AcDbLine
10
0
20
0
30
0
11
-1
21
0
31
0
39
0
210
0
220
0
230
1
0
ENDBLK
5
107
100
AcDbEntity
8
0
100
AcDbBlockEnd
0
BLOCK
5
118
100
AcDbEntity
8
0
100
AcDbBlockBegin
2
DimnDraft3D2
70
0
10
0
20
0
30
0
3
DimnDraft3D2
0
MTEXT
5
10D
100
AcDbEntity
8
SK2
62
256
6
ByLayer
370
-1
48
1
60
0
100
AcDbMText
10
-148.185
20
-3.096711
30
0
210
0
220
0
230
1
1
\W01.000;\fsimplex.shx,bigfont.shx;%%c16 
40
4.5
41
0
44
1.084337
50
90
71
7
72
5
7
DEFAULT
0
LINE
5
10F
100
AcDbEntity
8
SK2
62
256
6
ByLayer
370
-1
48
1
60
0
100
AcDbLine
10
-139.31
20
-7.9925
30
0
11
-149.06
21
-7.9925
31
0
39
0
210
0
220
0
230
1
0
LINE
5
110
100
AcDbEntity
8
SK2
62
256
6
ByLayer
370
-1
48
1
60
0
100
AcDbLine
10
-139.31
20
7.9925
30
0
11
-149.06
21
7.9925
31
0
39
0
210
0
220
0
230
1
0
LINE
5
111
100
AcDbEntity
8
SK2
62
256
6
ByLayer
370
-1
48
1
60
0
100
AcDbLine
10
-147.06
20
-19.2425
30
0
11
-147.06
21
19.2425
31
0
39
0
210
0
220
0
230
1
0
LINE
5
112
100
AcDbEntity
8
SK2
62
256
6
ByLayer
370
-1
48
1
60
0
100
AcDbLine
10
-147.06
20
-7.9925
30
0
11
-146.642003
21
-11.167498
31
0
39
0
210
0
220
0
230
1
0
LINE
5
113
100
AcDbEntity
8
SK2
62
256
6
ByLayer
370
-1
48
1
60
0
100
AcDbLine
10
-147.06
20
-7.9925
30
0
11
-147.477997
21
-11.167502
31
0
39
0
210
0
220
0
230
1
0
LINE
5
114
100
AcDbEntity
8
SK2
62
256
6
ByLayer
370
-1
48
1
60
0
100
AcDbLine
10
-146.642003
20
-11.167498
30
0
11
-147.477997
21
-11.167502
31
0
39
0
210
0
220
0
230
1
0
LINE
5
115
100
AcDbEntity
8
SK2
62
256
6
ByLayer
370
-1
48
1
60
0
100
AcDbLine
10
-147.06
20
7.9925
30
0
11
-147.477997
21
11.167498
31
0
39
0
210
0
220
0
230
1
0
LINE
5
116
100
AcDbEntity
8
SK2
62
256
6
ByLayer
370
-1
48
1
60
0
100
AcDbLine
10
-147.06
20
7.9925
30
0
11
-146.642003
21
11.167502
31
0
39
0
210
0
220
0
230
1
0
LINE
5
117
100
AcDbEntity
8
SK2
62
256
6
ByLayer
370
-1
48
1
60
0
100
AcDbLine
10
-147.477997
20
11.167498
30
0
11
-146.642003
21
11.167502
31
0
39
0
210
0
220
0
230
1
0
ENDBLK
5
119
100
AcDbEntity
8
0
100
AcDbBlockEnd
0
BLOCK
5
126
100
AcDbEntity
8
0
100
AcDbBlockBegin
2
DimnDraft3D3
70
0
10
0
20
0
30
0
3
DimnDraft3D3
0
MTEXT
5
11C
100
AcDbEntity
8
SK2
62
256
6
ByLayer
370
-1
48
1
60
0
100
AcDbMText
10
-42.375132
20
24.775
30
0
210
0
220
0
230
1
1
\W01.000;\fsimplex.shx,bigfont.shx;200.0 
40
4.5
41
0
44
1.084337
50
0
71
7
72
5
7
DEFAULT
0
LINE
5
11D
100
AcDbEntity
8
SK2
62
256
6
ByLayer
370
-1
48
1
60
0
100
AcDbLine
10
63.94
20
12.9
30
0
11
63.94
21
25.65
31
0
39
0
210
0
220
0
230
1
0
LINE
5
11E
100
AcDbEntity
8
SK2
62
256
6
ByLayer
370
-1
48
1
60
0
100
AcDbLine
10
-137.31
20
9.9925
30
0
11
-137.31
21
25.65
31
0
39
0
210
0
220
0
230
1
0
LINE
5
11F
100
AcDbEntity
8
SK2
62
256
6
ByLayer
370
-1
48
1
60
0
100
AcDbLine
10
63.94
20
23.65
30
0
11
-137.31
21
23.65
31
0
39
0
210
0
220
0
230
1
0
LINE
5
120
100
AcDbEntity
8
SK2
62
256
6
ByLayer
370
-1
48
1
60
0
100
AcDbLine
10
63.94
20
23.65
30
0
11
60.765002
21
23.232003
31
0
39
0
210
0
220
0
230
1
0
LINE
5
121
100
AcDbEntity
8
SK2
62
256
6
ByLayer
370
-1
48
1
60
0
100
AcDbLine
10
63.94
20
23.65
30
0
11
60.764998
21
24.067997
31
0
39
0
210
0
220
0
230
1
0
LINE
5
122
100
AcDbEntity
8
SK2
62
256
6
ByLayer
370
-1
48
1
60
0
100
AcDbLine
10
60.765002
20
23.232003
30
0
11
60.764998
21
24.067997
31
0
39
0
210
0
220
0
230
1
0
LINE
5
123
100
AcDbEntity
8
SK2
62
256
6
ByLayer
370
-1
48
1
60
0
100
AcDbLine
10
-137.31
20
23.65
30
0
11
-134.135002
21
24.067997
31
0
39
0
210
0
220
0
230
1
0
LINE
5
124
100
AcDbEntity
8
SK2
62
256
6
ByLayer
370
-1
48
1
60
0
100
AcDbLine
10
-137.31
20
23.65
30
0
11
-134.134998
21
23.232003
31
0
39
0
210
0
220
0
230
1
0
LINE
5
125
100
AcDbEntity
8
SK2
62
256
6
ByLayer
370
-1
48
1
60
0
100
AcDbLine
10
-134.135002
20
24.067997
30
0
11
-134.134998
21
23.232003
31
0
39
0
210
0
220
0
230
1
0
ENDBLK
5
127
100
AcDbEntity
8
0
100
AcDbBlockEnd
0
BLOCK
5
134
100
AcDbEntity
8
0
100
AcDbBlockBegin
2
DimnDraft3D4
70
0
10
0
20
0
30
0
3
DimnDraft3D4
0
MTEXT
5
12A
100
AcDbEntity
8
2
62
256
6
ByLayer
370
-1
48
1
60
0
100
AcDbMText
10
91.091011
20
-36.834311
30
0
210
0
220
0
230
1
1
\W01.000;\fsimplex.shx,bigfont.shx;93%%d0' 
40
4.5
41
0
44
1.084337
50
43.5
71
7
72
5
7
DEFAULT
0
LINE
5
12B
100
AcDbEntity
8
2
62
256
6
ByLayer
370
-1
48
1
60
0
100
AcDbLine
10
63.468976
20
1.912334
30
0
11
60.808145
21
-48.859355
31
0
39
0
210
0
220
0
230
1
0
LINE
5
12C
100
AcDbEntity
8
2
62
256
6
ByLayer
370
-1
48
1
60
0
100
AcDbLine
10
65.94
20
0
30
0
11
112.295162
21
0
31
0
39
0
210
0
220
0
230
1
0
ARC
5
12D
100
AcDbEntity
8
2
62
256
6
ByLayer
370
-1
48
1
60
0
100
AcDbCircle
39
0
10
63.368755
20
0
30
0
40
46.9264068782928
210
0
220
0
230
1
100
AcDbArc
50
267
51
0
0
LINE
5
12E
100
AcDbEntity
8
2
62
256
6
ByLayer
370
-1
48
1
60
0
100
AcDbLine
10
60.912817
20
-46.862096
30
0
11
64.100636
21
-46.556897
31
0
39
0
210
0
220
0
230
1
0
LINE
5
12F
100
AcDbEntity
8
2
62
256
6
ByLayer
370
-1
48
1
60
0
100
AcDbLine
10
60.912817
20
-46.862096
30
0
11
64.071008
21
-47.392365
31
0
39
0
210
0
220
0
230
1
0
LINE
5
130
100
AcDbEntity
8
2
62
256
6
ByLayer
370
-1
48
1
60
0
100
AcDbLine
10
64.100636
20
-46.556897
30
0
11
64.071008
21
-47.392365
31
0
39
0
210
0
220
0
230
1
0
LINE
5
131
100
AcDbEntity
8
2
62
256
6
ByLayer
370
-1
48
1
60
0
100
AcDbLine
10
110.295162
20
0
30
0
11
110.659418
21
-3.181612
31
0
39
0
210
0
220
0
230
1
0
LINE
5
132
100
AcDbEntity
8
2
62
256
6
ByLayer
370
-1
48
1
60
0
100
AcDbLine
10
110.295162
20
0
30
0
11
109.823544
21
-3.16748
31
0
39
0
210
0
220
0
230
1
0
LINE
5
133
100
AcDbEntity
8
2
62
256
6
ByLayer
370
-1
48
1
60
0
100
AcDbLine
10
110.659418
20
-3.181612
30
0
11
109.823544
21
-3.16748
31
0
39
0
210
0
220
0
230
1
0
ENDBLK
5
135
100
AcDbEntity
8
0
100
AcDbBlockEnd
0
ENDSEC
0
SECTION
2
ENTITIES
0
ELLIPSE
5
88
100
AcDbEntity
8
1
62
256
6
ByLayer
370
-1
48
1
60
0
100
AcDbEllipse
10
57.331873
20
0.170456
30
0
11
1.0544068286404
21
-0.0548788318562839
31
0
210
0
220
0
230
-1
40
0.994437
41
0.227236911167359
42
-3.00734608353545
0
ELLIPSE
5
89
100
AcDbEntity
8
1
62
256
6
ByLayer
370
-1
48
1
60
0
100
AcDbEllipse
10
57.195929
20
1.235518
30
0
11
1.25524622457236
21
-0.0653319426800114
31
0
210
0
220
0
230
-1
40
0.994437
41
2.31909367898802
42
-2.18130388135149
0
ELLIPSE
5
8A
100
AcDbEntity
8
1
62
256
6
ByLayer
370
-1
48
1
60
0
100
AcDbEllipse
10
57.623736
20
0.179355
30
0
11
-0.0319997815272803
21
1.04951227433614
31
0
210
0
220
0
230
1
40
0.994484
41
0.46840624389076
42
1.35360953110265
0
ELLIPSE
5
8B
100
AcDbEntity
8
1
62
256
6
ByLayer
370
-1
48
1
60
0
100
AcDbEllipse
10
57.655186
20
0.180314
30
0
11
-0.0319997815272805
21
1.04951227433614
31
0
210
0
220
0
230
1
40
0.994484
41
0.504110482942404
42
2.98734343978166
0
ELLIPSE
5
8C
100
AcDbEntity
8
1
62
256
6
ByLayer
370
-1
48
1
60
0
100
AcDbEllipse
10
57.489899
20
1.244481
30
0
11
0.0380949780086541
21
-1.24941937420969
31
0
210
0
220
0
230
1
40
0.994484
41
-2.61402532466639
42
-0.831237577826102
0
ELLIPSE
5
8D
100
AcDbEntity
8
1
62
256
6
ByLayer
370
-1
48
1
60
0
100
AcDbEllipse
10
66.18335
20
4.714848
30
0
11
1.48413263051111
21
-2.6071723652844
31
0
210
0
220
0
230
-1
40
1
41
1.5506413754546
42
1.59357245963374
0
ELLIPSE
5
8E
100
AcDbEntity
8
1
62
256
6
ByLayer
370
-1
48
1
60
0
100
AcDbEllipse
10
57.398339
20
0.172483
30
0
11
0.0319997815272694
21
-1.04951227433614
31
0
210
0
220
0
230
1
40
0.994484
41
1.29906020994095
42
1.64192474135711
0
ELLIPSE
5
8F
100
AcDbEntity
8
1
62
256
6
ByLayer
370
-1
48
1
60
0
100
AcDbEllipse
10
247.043401
20
-714.303027
30
0
11
431.382216758354
21
-1609.87888046864
31
-2.62060808954789E-13
210
6.16297582203915E-33
220
1.6278293487427E-16
230
-1
40
0.008441
41
2.03086611849639
42
2.03469530656451
0
ELLIPSE
5
90
100
AcDbEntity
8
1
62
256
6
ByLayer
370
-1
48
1
60
0
100
AcDbEllipse
10
66.18335
20
4.714848
30
0
11
1.33557632437367
21
-2.68630494742565
31
0
210
0
220
0
230
-1
40
1
41
1.5374590926456
42
1.60302238230753
0
ELLIPSE
5
91
100
AcDbEntity
8
1
62
256
6
ByLayer
370
-1
48
1
60
0
100
AcDbEllipse
10
63.190334
20
3.729752
30
0
11
-0.0120951555177517
21
0.396690651311572
31
0
210
0
220
0
230
1
40
0.994484
41
-2.61402532466634
42
-1.65409423606938
0
ELLIPSE
5
92
100
AcDbEntity
8
1
62
256
6
ByLayer
370
-1
48
1
60
0
100
AcDbEllipse
10
60.61326
20
5.324284
30
0
11
0.0227960348403783
21
-0.74765255352707
31
0
210
0
220
0
230
1
40
0.994484
41
-0.0400936678046963
42
0.708602060420095
0
ELLIPSE
5
93
100
AcDbEntity
8
1
62
256
6
ByLayer
370
-1
48
1
60
0
100
AcDbEllipse
10
60.525796
20
5.321617
30
0
11
-0.0227960348403864
21
0.747652553527074
31
0
210
0
220
0
230
1
40
0.994484
41
0.969801521304776
42
1.0452642251391
0
ELLIPSE
5
94
100
AcDbEntity
8
1
62
256
6
ByLayer
370
-1
48
1
60
0
100
AcDbEllipse
10
60.508424
20
5.321088
30
0
11
-0.0315426417911764
21
1.03451924184562
31
0
210
0
220
0
230
1
40
0.994484
41
2.57832920001689
42
-2.65851653562611
0
ELLIPSE
5
95
100
AcDbEntity
8
1
62
256
6
ByLayer
370
-1
48
1
60
0
100
AcDbEllipse
10
60.602271
20
4.154346
30
0
11
0.0128608645757216
21
-0.42180398073319
31
0
210
0
220
0
230
1
40
0.994484
41
3.10149898578512
42
-3.14158611821256
0
ELLIPSE
5
96
100
AcDbEntity
8
1
62
256
6
ByLayer
370
-1
48
1
60
0
100
AcDbEllipse
10
60.508424
20
5.321088
30
0
11
-0.0315426417911764
21
1.03451924184562
31
0
210
0
220
0
230
1
40
0.994484
41
1.53198962848011
42
2.57832920001689
0
ELLIPSE
5
97
100
AcDbEntity
8
1
62
256
6
ByLayer
370
-1
48
1
60
0
100
AcDbEllipse
10
60.61326
20
5.324284
30
0
11
0.0227960348403783
21
-0.74765255352707
31
0
210
0
220
0
230
1
40
0.994484
41
-1.08643323934134
42
-0.193039229200645
0
ELLIPSE
5
98
100
AcDbEntity
8
1
62
256
6
ByLayer
370
-1
48
1
60
0
100
AcDbEllipse
10
60.525796
20
5.321617
30
0
11
-0.0227960348403864
21
0.747652553527074
31
0
210
0
220
0
230
1
40
0.994484
41
-2.17179113228446
42
-2.09632842845136
0
ELLIPSE
5
99
100
AcDbEntity
8
1
62
256
6
ByLayer
370
-1
48
1
60
0
100
AcDbEllipse
10
60.61326
20
5.324284
30
0
11
0.0227960348403783
21
-0.74765255352707
31
0
210
0
220
0
230
1
40
0.994484
41
2.3459441755978
42
3.10149898578517
0
ELLIPSE
5
9A
100
AcDbEntity
8
1
62
256
6
ByLayer
370
-1
48
1
60
0
100
AcDbEllipse
10
60.61326
20
5.324284
30
0
11
0.0227960348403783
21
-0.74765255352707
31
0
210
0
220
0
230
1
40
0.994484
41
1.21232341487265
42
1.83003218300969
0
ELLIPSE
5
9B
100
AcDbEntity
8
1
62
256
6
ByLayer
370
-1
48
1
60
0
100
AcDbEllipse
10
60.508424
20
5.321088
30
0
11
-0.0315426417911764
21
1.03451924184562
31
0
210
0
220
0
230
1
40
0.994484
41
-2.65851653562611
42
-1.60960302510972
0
ELLIPSE
5
9C
100
AcDbEntity
8
1
62
256
6
ByLayer
370
-1
48
1
60
0
100
AcDbEllipse
10
60.624248
20
6.494222
30
0
11
0.0128608645757216
21
-0.42180398073319
31
0
210
0
220
0
230
1
40
0.994484
41
6.28772895817794E-06
42
0.734806060047919
0
ELLIPSE
5
9D
100
AcDbEntity
8
1
62
256
6
ByLayer
370
-1
48
1
60
0
100
AcDbEllipse
10
60.508424
20
5.321088
30
0
11
-0.0315426417911764
21
1.03451924184562
31
0
210
0
220
0
230
1
40
0.994484
41
0.483076117963643
42
1.53198962848011
0
ELLIPSE
5
9E
100
AcDbEntity
8
1
62
256
6
ByLayer
370
-1
48
1
60
0
100
AcDbEllipse
10
60.61326
20
5.324284
30
0
11
-0.0227960348403862
21
0.747652553527069
31
0
210
0
220
0
230
1
40
0.994484
41
0.969801521304795
42
1.045264225139
0
ELLIPSE
5
9F
100
AcDbEntity
8
1
62
256
6
ByLayer
370
-1
48
1
60
0
100
AcDbEllipse
10
59.600636
20
4.748351
30
0
11
0.0128608645757216
21
-0.42180398073319
31
0
210
0
220
0
230
1
40
0.994484
41
2.05515941424849
42
2.83005914210081
0
ELLIPSE
5
A0
100
AcDbEntity
8
1
62
256
6
ByLayer
370
-1
48
1
60
0
100
AcDbEllipse
10
60.508424
20
5.321088
30
0
11
-0.0315426417911764
21
1.03451924184562
31
0
210
0
220
0
230
1
40
0.994484
41
-1.60960302510972
42
-0.56326345357302
0
ELLIPSE
5
A1
100
AcDbEntity
8
1
62
256
6
ByLayer
370
-1
48
1
60
0
100
AcDbEllipse
10
59.612144
20
5.917981
30
0
11
0.0128608645757216
21
-0.42180398073319
31
0
210
0
220
0
230
1
40
0.994484
41
1.07444619553813
42
1.78461907311382
0
ELLIPSE
5
A2
100
AcDbEntity
8
1
62
256
6
ByLayer
370
-1
48
1
60
0
100
AcDbEllipse
10
60.61326
20
5.324284
30
0
11
0.0227960348403783
21
-0.74765255352707
31
0
210
0
220
0
230
1
40
0.994484
41
-2.09632842845081
42
-1.08643323934134
0
ELLIPSE
5
A3
100
AcDbEntity
8
1
62
256
6
ByLayer
370
-1
48
1
60
0
100
AcDbEllipse
10
60.508424
20
5.321088
30
0
11
-0.0315426417911764
21
1.03451924184562
31
0
210
0
220
0
230
1
40
0.994484
41
-0.56326345357302
42
0.483076117963643
0
ELLIPSE
5
A4
100
AcDbEntity
8
1
62
256
6
ByLayer
370
-1
48
1
60
0
100
AcDbEllipse
10
60.61326
20
5.324284
30
0
11
0.0227960348403784
21
-0.747652553527072
31
0
210
0
220
0
230
1
40
0.994484
41
-3.04151634313638
42
-2.17179113228501
0
ELLIPSE
5
A5
100
AcDbEntity
8
1
62
256
6
ByLayer
370
-1
48
1
60
0
100
AcDbEllipse
10
60.184019
20
4.592173
30
0
11
0.00563805674528077
21
-0.184914067383033
31
0
210
0
220
0
230
1
40
0.994484
41
-1.86133296719388
42
-0.29310381300368
0
ELLIPSE
5
A6
100
AcDbEntity
8
1
62
256
6
ByLayer
370
-1
48
1
60
0
100
AcDbEllipse
10
59.600636
20
4.748351
30
0
11
0.0128608645757216
21
-0.42180398073319
31
0
210
0
220
0
230
1
40
0.994484
41
1.28025968639604
42
2.05515941424849
0
ELLIPSE
5
A7
100
AcDbEntity
8
1
62
256
6
ByLayer
370
-1
48
1
60
0
100
AcDbEllipse
10
59.767972
20
5.331504
30
0
11
0.00563805674528077
21
-0.184914067383033
31
0
210
0
220
0
230
1
40
0.994484
41
-2.91114598025993
42
-0.311533511488643
0
ELLIPSE
5
A8
100
AcDbEntity
8
1
62
256
6
ByLayer
370
-1
48
1
60
0
100
AcDbEllipse
10
59.612144
20
5.917981
30
0
11
0.0128608645757216
21
-0.42180398073319
31
0
210
0
220
0
230
1
40
0.994484
41
0.230446673329883
42
0.940619550905608
0
ELLIPSE
5
A9
100
AcDbEntity
8
1
62
256
6
ByLayer
370
-1
48
1
60
0
100
AcDbEllipse
10
60.19785
20
6.064703
30
0
11
0.00563805674528077
21
-0.184914067383033
31
0
210
0
220
0
230
1
40
0.994484
41
-2.88899964147727
42
-1.35697358047604
0
ELLIPSE
5
AA
100
AcDbEntity
8
1
62
256
6
ByLayer
370
-1
48
1
60
0
100
AcDbEllipse
10
61.0425
20
6.056395
30
0
11
0.00563805674528077
21
-0.184914067383033
31
0
210
0
220
0
230
1
40
0.994484
41
-2.86001696069748
42
-2.40678659354232
0
ELLIPSE
5
AB
100
AcDbEntity
8
1
62
256
6
ByLayer
370
-1
48
1
60
0
100
AcDbEllipse
10
61.02867
20
4.583866
30
0
11
0.00563805674528077
21
-0.184914067383033
31
0
210
0
220
0
230
1
40
0.994484
41
-0.81499339565707
42
-0.276142297300264
0
ELLIPSE
5
AC
100
AcDbEntity
8
1
62
256
6
ByLayer
370
-1
48
1
60
0
100
AcDbEllipse
10
60.508424
20
5.321088
30
0
11
-0.039618777129014
21
1.29939614917808
31
0
210
0
220
0
230
1
40
0.994484
41
0
42
6.28318530717959
0
ELLIPSE
5
AD
100
AcDbEntity
8
1
62
256
6
ByLayer
370
-1
48
1
60
0
100
AcDbEllipse
10
60.526658
20
5.321644
30
0
11
-0.0525710696519608
21
1.72419873640937
31
0
210
0
220
0
230
1
40
0.994484
41
0
42
6.28318530717959
0
ELLIPSE
5
AE
100
AcDbEntity
8
1
62
256
6
ByLayer
370
-1
48
1
60
0
100
AcDbEllipse
10
60.602776
20
5.323965
30
0
11
-0.0525710696519611
21
1.72419873640938
31
0
210
0
220
0
230
1
40
0.994484
41
-3.14156958728772
42
-1.60110925614087
0
ELLIPSE
5
AF
100
AcDbEntity
8
1
62
256
6
ByLayer
370
-1
48
1
60
0
100
AcDbEllipse
10
60.602776
20
5.323965
30
0
11
-0.0525710696519611
21
1.72419873640938
31
0
210
0
220
0
230
1
40
0.994484
41
-1.60110925614087
42
0
0
ELLIPSE
5
B0
100
AcDbEntity
8
1
62
256
6
ByLayer
370
-1
48
1
60
0
100
AcDbEllipse
10
57.823729
20
6.912339
30
0
11
-0.0120951555177517
21
0.396690651311572
31
0
210
0
220
0
230
1
40
0.994484
41
0.527567328923383
42
1.48749841752041
0
ELLIPSE
5
B1
100
AcDbEntity
8
1
62
256
6
ByLayer
370
-1
48
1
60
0
100
AcDbEllipse
10
60.507032
20
5.321045
30
0
11
0.0580472818999866
21
-1.90380471172812
31
0
210
0
220
0
230
1
40
0.994484
41
0
42
6.28318530717959
0
ELLIPSE
5
B2
100
AcDbEntity
8
1
62
256
6
ByLayer
370
-1
48
1
60
0
100
AcDbEllipse
10
60.589581
20
5.323562
30
0
11
0.0548998808889647
21
-1.80057788217897
31
0
210
0
220
0
230
1
40
0.994484
41
0
42
6.28318530717959
0
ELLIPSE
5
B3
100
AcDbEntity
8
1
62
256
6
ByLayer
370
-1
48
1
60
0
100
AcDbEllipse
10
60.563381
20
5.322763
30
0
11
-0.0573320788016738
21
1.8803478506335
31
0
210
0
220
0
230
1
40
0.994484
41
-0.426840664533684
42
-9.49494464717959E-16
0
ELLIPSE
5
B4
100
AcDbEntity
8
1
62
256
6
ByLayer
370
-1
48
1
60
0
100
AcDbEllipse
10
60.563381
20
5.322763
30
0
11
-0.0573320788016738
21
1.8803478506335
31
0
210
0
220
0
230
1
40
0.994484
41
0
42
-2.7147054817474
0
ELLIPSE
5
B5
100
AcDbEntity
8
1
62
256
6
ByLayer
370
-1
48
1
60
0
100
AcDbEllipse
10
57.468751
20
0.138963
30
0
11
-0.012095155517752
21
0.396690651311583
31
0
210
0
220
0
230
1
40
0.994484
41
1.48749841752027
42
-2.61402532466638
0
ELLIPSE
5
B6
100
AcDbEntity
8
1
62
256
6
ByLayer
370
-1
48
1
60
0
100
AcDbEllipse
10
63.545312
20
10.503127
30
0
11
-0.012095155517752
21
0.396690651311583
31
0
210
0
220
0
230
1
40
0.994484
41
-1.6540942360695
42
0.527567328923353
0
POINT
5
41
100
AcDbEntity
8
80
62
256
6
ByLayer
370
-1
48
1
60
0
100
AcDbPoint
10
0
20
0
30
0
39
0
210
0
220
0
230
1
50
360
0
POINT
5
43
100
AcDbEntity
8
81
62
256
6
ByLayer
370
-1
48
1
60
0
100
AcDbPoint
10
63.94
20
10.9
30
0
39
0
210
0
220
0
230
1
50
360
0
POINT
5
45
100
AcDbEntity
8
1
62
256
6
ByLayer
370
-1
48
1
60
0
100
AcDbPoint
10
-137.31
20
0
30
0
39
0
210
0
220
0
230
1
50
360
0
POINT
5
47
100
AcDbEntity
8
2
62
256
6
ByLayer
370
-1
48
1
60
0
100
AcDbPoint
10
63.94
20
10.9
30
0
39
0
210
0
220
0
230
1
50
360
0
POINT
5
49
100
AcDbEntity
8
2
62
256
6
ByLayer
370
-1
48
1
60
0
100
AcDbPoint
10
63.960266
20
9.926485
30
0
39
0
210
0
220
0
230
1
50
360
0
SPLINE
5
B7
100
AcDbEntity
8
1
62
256
6
ByLayer
370
-1
48
1
60
0
100
AcDbSpline
70
4
71
3
72
10
73
6
40
0
40
0
40
0
40
0
40
0.663732756711919
40
0.663732756711919
40
1
40
1
40
1
40
1
41
1
10
50.1738338948639
20
7.00749999999999
30
0
41
1
10
50.4087252802182
20
6.91233692912027
30
0
41
1
10
50.6577019803388
20
6.84660052981795
30
0
41
1
10
51.0389187673354
20
6.79655062270527
30
0
41
1
10
51.1696251583789
20
6.78797807197677
30
0
41
1
10
51.3003070153955
20
6.78797807197731
30
0
0
SPLINE
5
B8
100
AcDbEntity
8
1
62
256
6
ByLayer
370
-1
48
1
60
0
100
AcDbSpline
70
4
71
3
72
10
73
6
40
0
40
0
40
0
40
0
40
0.5
40
0.5
40
1
40
1
40
1
40
1
41
1
10
54.7527696779579
20
-7.99207811242803
30
0
41
1
10
52.201852572392
20
-7.99751944540128
30
0
41
1
10
49.7996019468325
20
-7.99716998477277
30
0
41
1
10
45.8559390726187
20
-6.59485109185661
30
0
41
1
10
44.3630465721771
20
-5.04795131645088
30
0
41
1
10
43.3294368399888
20
-2.76225564530171
30
0
0
SPLINE
5
B9
100
AcDbEntity
8
1
62
256
6
ByLayer
370
-1
48
1
60
0
100
AcDbSpline
70
4
71
3
72
10
73
6
40
0
40
0
40
0
40
0
40
0.5
40
0.5
40
1
40
1
40
1
40
1
41
1
10
41.8739497865639
20
2.76225564530131
30
0
41
1
10
41.8041032273365
20
3.72045055658901
30
0
41
1
10
41.8685213304037
20
4.6046348365937
30
0
41
1
10
42.3965283868305
20
6.0621138861116
30
0
41
1
10
42.8668538914436
20
6.62175260841252
30
0
41
1
10
43.498367757797
20
7.00750000000005
30
0
0
SPLINE
5
BA
100
AcDbEntity
8
1
62
256
6
ByLayer
370
-1
48
1
60
0
100
AcDbSpline
70
4
71
3
72
26
73
22
40
-0.124999999999997
40
-0.124999999999997
40
0
40
0
40
0.125000000000002
40
0.125000000000002
40
0.187500000000003
40
0.187500000000003
40
0.250000000000004
40
0.250000000000004
40
0.375000000000006
40
0.375000000000006
40
0.500000000000008
40
0.500000000000008
40
0.62500000000001
40
0.62500000000001
40
0.687500000000008
40
0.687500000000008
40
0.750000000000007
40
0.750000000000007
40
0.875000000000003
40
0.875000000000003
40
1
40
1
40
1.125
40
1.125
41
1
10
48.0498705756187
20
2.35159850499898
30
0
41
1
10
47.089227087655
20
1.9348492436541
30
0
41
1
10
46.5824023825637
20
1.81270745904925
30
0
41
1
10
45.8594972658316
20
2.05733118676557
30
0
41
1
10
45.6276533816554
20
2.22670740062188
30
0
41
1
10
45.3269457504124
20
2.7341520131713
30
0
41
1
10
45.2705799234332
20
3.05888139599722
30
0
41
1
10
45.3653691935537
20
3.93419706810926
30
0
41
1
10
45.7085506372307
20
4.37050860548578
30
0
41
1
10
46.5152641841323
20
4.99075282788496
30
0
41
1
10
47.0046177541821
20
5.19336017015769
30
0
41
1
10
48.0387149758687
20
5.44573146042745
30
0
41
1
10
48.6027265603375
20
5.50954181591243
30
0
41
1
10
49.4556369826426
20
5.41074950783252
30
0
41
1
10
49.7618446335093
20
5.3559217231014
30
0
41
1
10
50.208500301368
20
4.95394405636318
30
0
41
1
10
50.1732537623609
20
4.58592258741481
30
0
41
1
10
49.785927424414
20
3.78424665997491
30
0
41
1
10
49.3569023026291
20
3.37739134496121
30
0
41
1
10
48.5022850772659
20
2.65377670619085
30
0
41
1
10
48.0498705756187
20
2.35159850499898
30
0
41
1
10
47.089227087655
20
1.9348492436541
30
0
0
SPLINE
5
BB
100
AcDbEntity
8
SK1
62
256
6
ByLayer
370
-1
48
1
60
0
100
AcDbSpline
70
4
71
3
72
10
73
6
40
0
40
0
40
0
40
0
40
0.5
40
0.5
40
1
40
1
40
1
40
1
41
1
10
-135.31
20
2.76225564530151
30
0
41
1
10
-135.618496949467
20
1.86962940601529
30
0
41
1
10
-135.802263903757
20
0.947191057260369
30
0
41
1
10
-135.802735629345
20
-0.943448469663423
30
0
41
1
10
-135.615124150977
20
-1.87938849257091
30
0
41
1
10
-135.31
20
-2.76225564530151
30
0
0
SPLINE
5
BC
100
AcDbEntity
8
1
62
256
6
ByLayer
370
-1
48
1
60
0
100
AcDbSpline
70
4
71
3
72
18
73
14
40
0
40
0
40
0
40
0
40
0.20816852927029
40
0.20816852927029
40
0.384674729537522
40
0.384674729537522
40
0.56288012441211
40
0.56288012441211
40
0.717967665236083
40
0.717967665236083
40
0.923267139203213
40
0.923267139203213
40
1
40
1
40
1
40
1
41
1
10
60.2300951587013
20
6.19263142681208
30
0
41
1
10
60.2621559858486
20
6.16281309260674
30
0
41
1
10
60.2995957135268
20
6.13657629957137
30
0
41
1
10
60.3757246265009
20
6.09894319728386
30
0
41
1
10
60.4142601928152
20
6.08555749272247
30
0
41
1
10
60.4935747811832
20
6.06990677442843
30
0
41
1
10
60.5355507370997
20
6.06763175007598
30
0
41
1
10
60.6099519659429
20
6.07456957405785
30
0
41
1
10
60.6438123330469
20
6.08236020645171
30
0
41
1
10
60.7155274658217
20
6.1087140482162
30
0
41
1
10
60.7524399482261
20
6.13026319355009
30
0
41
1
10
60.7956977006219
20
6.1656298577995
30
0
41
1
10
60.8068703090049
20
6.17597186949257
30
0
41
1
10
60.8173149703658
20
6.18685588025932
30
0
0
SPLINE
5
BD
100
AcDbEntity
8
1
62
256
6
ByLayer
370
-1
48
1
60
0
100
AcDbSpline
70
4
71
3
72
16
73
12
40
0
40
0
40
0
40
0
40
0.0610770615516246
40
0.0610770615516246
40
0.28571853557142
40
0.28571853557142
40
0.513013026046314
40
0.513013026046314
40
0.754604602484327
40
0.754604602484327
40
1
40
1
40
1
40
1
41
1
10
61.5376868252973
20
5.31229655199411
30
0
41
1
10
61.5377285467226
20
5.31743950592272
30
0
41
1
10
61.537567173153
20
5.32259006158284
30
0
41
1
10
61.5358784722948
20
5.34643678991057
30
0
41
1
10
61.5317626054968
20
5.36512785351417
30
0
41
1
10
61.5187725030942
20
5.39971550532724
30
0
41
1
10
61.5096904065897
20
5.41602260687381
30
0
41
1
10
61.4874934639135
20
5.4452075746195
30
0
41
1
10
61.4738978100273
20
5.45818352303553
30
0
41
1
10
61.4444656098949
20
5.47885987362497
30
0
41
1
10
61.4282884239344
20
5.48672223456461
30
0
41
1
10
61.4118367443955
20
5.49181693013779
30
0
0
SPLINE
5
BE
100
AcDbEntity
8
1
62
256
6
ByLayer
370
-1
48
1
60
0
100
AcDbSpline
70
4
71
3
72
14
73
10
40
0
40
0
40
0
40
0
40
0.0493490326921555
40
0.0493490326921555
40
0.38636561617784
40
0.38636561617784
40
0.833774102760561
40
0.833774102760561
40
1
40
1
40
1
40
1
41
1
10
59.8996623521434
20
5.72568952586562
30
0
41
1
10
59.901968088895
20
5.73036727410485
30
0
41
1
10
59.9041763293555
20
5.73508531753802
30
0
41
1
10
59.9205566817705
20
5.77199931446711
30
0
41
1
10
59.930249061415
20
5.80602362465453
30
0
41
1
10
59.9418909267879
20
5.88381083305711
30
0
41
1
10
59.9406361664326
20
5.92843672028039
30
0
41
1
10
59.9300813379384
20
5.9862608832602
30
0
41
1
10
59.9262897178992
20
6.00180546274314
30
0
41
1
10
59.9216632899564
20
6.01700707370046
30
0
0
SPLINE
5
BF
100
AcDbEntity
8
1
62
256
6
ByLayer
370
-1
48
1
60
0
100
AcDbSpline
70
4
71
3
72
18
73
14
40
0
40
0
40
0
40
0
40
0.209627495892269
40
0.209627495892269
40
0.385889656236857
40
0.385889656236857
40
0.563834178550028
40
0.563834178550028
40
0.718879464236077
40
0.718879464236077
40
0.924446049805078
40
0.924446049805078
40
1
40
1
40
1
40
1
41
1
10
61.1225911164277
20
6.00581634400311
30
0
41
1
10
61.1140068118054
20
5.96472760572496
30
0
41
1
10
61.1112192301502
20
5.92058558984988
30
0
41
1
10
61.1186842224295
20
5.83805418744245
30
0
41
1
10
61.1271047430142
20
5.79893329766361
30
0
41
1
10
61.1541293218486
20
5.72343914743087
30
0
41
1
10
61.1733184455606
20
5.68601608119352
30
0
41
1
10
61.2162627459748
20
5.62422027789523
30
0
41
1
10
61.2395909895964
20
5.59801989269636
30
0
41
1
10
61.2971326453992
20
5.54669387679567
30
0
41
1
10
61.3333380993861
20
5.52369594792521
30
0
41
1
10
61.3839439732278
20
5.50134193275417
30
0
41
1
10
61.3978457302556
20
5.49614961590638
30
0
41
1
10
61.4118367443955
20
5.49181693013779
30
0
0
SPLINE
5
C0
100
AcDbEntity
8
1
62
256
6
ByLayer
370
-1
48
1
60
0
100
AcDbSpline
70
4
71
3
72
14
73
10
40
0
40
0
40
0
40
0
40
0.272358350094231
40
0.272358350094231
40
0.561094655191871
40
0.561094655191871
40
0.822575959296642
40
0.822575959296642
40
1
40
1
40
1
40
1
41
1
10
59.9085056724249
20
4.63679348786468
30
0
41
1
10
59.9022337473031
20
4.61718211848489
30
0
41
1
10
59.8991331003182
20
4.59611644665426
30
0
41
1
10
59.9005162577991
20
4.55289104784092
30
0
41
1
10
59.9055363112204
20
4.53006502703602
30
0
41
1
10
59.9233497828992
20
4.49003688817095
30
0
41
1
10
59.9356689198081
20
4.47191935151594
30
0
41
1
10
59.9611810233706
20
4.44639366847878
30
0
41
1
10
59.9730176878605
20
4.43719200805572
30
0
41
1
10
59.9857610482294
20
4.42963474529114
30
0
0
SPLINE
5
C1
100
AcDbEntity
8
1
62
256
6
ByLayer
370
-1
48
1
60
0
100
AcDbSpline
70
4
71
3
72
18
73
14
40
0
40
0
40
0
40
0
40
0.0252423822365963
40
0.0252423822365963
40
0.250748273175912
40
0.250748273175912
40
0.476859388883359
40
0.476859388883359
40
0.715603467205667
40
0.715603467205667
40
0.976554196141734
40
0.976554196141734
40
1
40
1
40
1
40
1
41
1
10
59.4791618858545
20
5.32987885391708
30
0
41
1
10
59.4791445802016
20
5.32774560524351
30
0
41
1
10
59.4791658187319
20
5.3256117084112
30
0
41
1
10
59.4797534448676
20
5.30464006385432
30
0
41
1
10
59.4833911970447
20
5.28565724009761
30
0
41
1
10
59.4961074057197
20
5.25041490978845
30
0
41
1
10
59.5053499994
20
5.23370740255282
30
0
41
1
10
59.5284383413738
20
5.20361801587941
30
0
41
1
10
59.5427860630644
20
5.19008506232862
30
0
41
1
10
59.5754802452132
20
5.16728489093205
30
0
41
1
10
59.5944714375544
20
5.15822716926559
30
0
41
1
10
59.6157063200258
20
5.15179034033861
30
0
41
1
10
59.6174806993831
20
5.15127915446763
30
0
41
1
10
59.6192600444551
20
5.15079290173045
30
0
0
SPLINE
5
C2
100
AcDbEntity
8
1
62
256
6
ByLayer
370
-1
48
1
60
0
100
AcDbSpline
70
4
71
3
72
18
73
14
40
0
40
0
40
0
40
0
40
0.212922094905998
40
0.212922094905998
40
0.388605903353572
40
0.388605903353572
40
0.56593336866267
40
0.56593336866267
40
0.720865469077091
40
0.720865469077091
40
0.927015470094294
40
0.927015470094294
40
1
40
1
40
1
40
1
41
1
10
60.8010016301512
20
4.44997840505559
30
0
41
1
10
60.772882275218
20
4.4806202766097
30
0
41
1
10
60.7388447091467
20
4.50751661444221
30
0
41
1
10
60.6680150641866
20
4.5452412708309
30
0
41
1
10
60.6318881597411
20
4.55839416789544
30
0
41
1
10
60.5555143333758
20
4.573567924803
30
0
41
1
10
60.5140694532704
20
4.57559579171004
30
0
41
1
10
60.4384810363138
20
4.56825873104975
30
0
41
1
10
60.4031805254273
20
4.56026796271723
30
0
41
1
10
60.3266000586655
20
4.53339741706176
30
0
41
1
10
60.2858406422114
20
4.51146736819067
30
0
41
1
10
60.2375131649145
20
4.47607080884046
30
0
41
1
10
60.2253380874534
20
4.46615864217347
30
0
41
1
10
60.2137818184868
20
4.45575395160836
30
0
0
SPLINE
5
C3
100
AcDbEntity
8
1
62
256
6
ByLayer
370
-1
48
1
60
0
100
AcDbSpline
70
4
71
3
72
18
73
14
40
0
40
0
40
0
40
0
40
0.213115199956533
40
0.213115199956533
40
0.388767083464704
40
0.388767083464704
40
0.566060386643276
40
0.566060386643276
40
0.720987486881615
40
0.720987486881615
40
0.927173321206215
40
0.927173321206215
40
1
40
1
40
1
40
1
41
1
10
59.9085056724248
20
4.63679348786468
30
0
41
1
10
59.9219111231278
20
4.67871032206361
30
0
41
1
10
59.929051687961
20
4.72379025945787
30
0
41
1
10
59.9275300394179
20
4.80720186475304
30
0
41
1
10
59.9212964820998
20
4.84626277026572
30
0
41
1
10
59.8967092258482
20
4.92150024670968
30
0
41
1
10
59.8777574544056
20
4.958714634296
30
0
41
1
10
59.8332029564329
20
5.02014490443366
30
0
41
1
10
59.8082646908839
20
5.04617275961834
30
0
41
1
10
59.7455820498682
20
5.09718044358939
30
0
41
1
10
59.7053596629373
20
5.11996765941902
30
0
41
1
10
59.6493332800196
20
5.14174190618411
30
0
41
1
10
59.6343580424579
20
5.14666697755186
30
0
41
1
10
59.6192600444551
20
5.15079290173045
30
0
0
SPLINE
5
C4
100
AcDbEntity
8
1
62
256
6
ByLayer
370
-1
48
1
60
0
100
AcDbSpline
70
4
71
3
72
14
73
10
40
0
40
0
40
0
40
0
40
0.0296520237476863
40
0.0296520237476863
40
0.36794687627098
40
0.36794687627098
40
0.810105921810514
40
0.810105921810514
40
1
40
1
40
1
40
1
41
1
10
61.1519287410268
20
4.91754518031485
30
0
41
1
10
61.1505010958542
20
4.91472850235638
30
0
41
1
10
61.1491022281529
20
4.91189723440161
30
0
41
1
10
61.1322722201373
20
4.87694192820857
30
0
41
1
10
61.1205198190644
20
4.84280758743307
30
0
41
1
10
61.1030516100491
20
4.76526785474221
30
0
41
1
10
61.0998729582504
20
4.72093229215852
30
0
41
1
10
61.1038468339651
20
4.66089643654075
30
0
41
1
10
61.1061584214252
20
4.64302541309621
30
0
41
1
10
61.1095029705203
20
4.62560487636711
30
0
0
SPLINE
5
C5
100
AcDbEntity
8
1
62
256
6
ByLayer
370
-1
48
1
60
0
100
AcDbSpline
70
4
71
3
72
16
73
12
40
0
40
0
40
0
40
0
40
0.0895275551572922
40
0.0895275551572922
40
0.404335563930301
40
0.404335563930301
40
0.685299757057763
40
0.685299757057763
40
0.93345585787001
40
0.93345585787001
40
1
40
1
40
1
40
1
41
1
10
60.2300951587031
20
6.19263142681339
30
0
41
1
10
60.2250195743331
20
6.19735199969006
30
0
41
1
10
60.2196639009683
20
6.20184590588173
30
0
41
1
10
60.1945434409313
20
6.22078134719723
30
0
41
1
10
60.1714533645628
20
6.23245801410692
30
0
41
1
10
60.1249736024637
20
6.24541938124835
30
0
41
1
10
60.1011435631627
20
6.2478403238832
30
0
41
1
10
60.0572879817029
20
6.2440660850973
30
0
41
1
10
60.0365052368064
20
6.23876068082902
30
0
41
1
10
60.0124824170771
20
6.22795720709868
30
0
41
1
10
60.0074698249217
20
6.22541667996308
30
0
41
1
10
60.0026017120467
20
6.2226562397783
30
0
0
SPLINE
5
C6
100
AcDbEntity
8
1
62
256
6
ByLayer
370
-1
48
1
60
0
100
AcDbSpline
70
4
71
3
72
14
73
10
40
0
40
0
40
0
40
0
40
0.228152600162072
40
0.228152600162072
40
0.521843977632291
40
0.521843977632291
40
0.787381184453485
40
0.787381184453485
40
1
40
1
40
1
40
1
41
1
10
59.622802390697
20
5.5072708270003
30
0
41
1
10
59.6055231799456
20
5.50285326683095
30
0
41
1
10
59.5885246273153
20
5.49603133756125
30
0
41
1
10
59.5525329208335
20
5.47529730403855
30
0
41
1
10
59.5337957429547
20
5.45950364675997
30
0
41
1
10
59.5052791520874
20
5.4237686022054
30
0
41
1
10
59.4944120534165
20
5.40379961192394
30
0
41
1
10
59.4822342165341
20
5.36579792888128
30
0
41
1
10
59.4793067799885
20
5.34773979349202
30
0
41
1
10
59.4791618858545
20
5.32987885391708
30
0
0
SPLINE
5
C7
100
AcDbEntity
8
1
62
256
6
ByLayer
370
-1
48
1
60
0
100
AcDbSpline
70
4
71
3
72
16
73
12
40
0
40
0
40
0
40
0
40
0.034384047017789
40
0.034384047017789
40
0.258826830118379
40
0.258826830118379
40
0.484405723867553
40
0.484405723867553
40
0.72300628478395
40
0.72300628478395
40
1
40
1
40
1
40
1
41
1
10
61.0142469991051
20
4.41951916613289
30
0
41
1
10
61.0167703451489
20
4.42095001747063
30
0
41
1
10
61.0192643146251
20
4.42244145785
30
0
41
1
10
61.0376206267956
20
4.43400174583311
30
0
41
1
10
61.0522767515828
20
4.44664421805237
30
0
41
1
10
61.0769298465193
20
4.47504816660316
30
0
41
1
10
61.0872281446158
20
4.49117912527595
30
0
41
1
10
61.1030118365235
20
4.52556307999177
30
0
41
1
10
61.1084005233498
20
4.54430834016239
30
0
41
1
10
61.113996613615
20
4.58409209806402
30
0
41
1
10
61.1133481635676
20
4.60557666783745
30
0
41
1
10
61.1095029705202
20
4.62560487636708
30
0
0
SPLINE
5
C8
100
AcDbEntity
8
1
62
256
6
ByLayer
370
-1
48
1
60
0
100
AcDbSpline
70
4
71
3
72
14
73
10
40
0
40
0
40
0
40
0
40
0.283633766202741
40
0.283633766202741
40
0.570958398007755
40
0.570958398007755
40
0.831309614292511
40
0.831309614292511
40
1
40
1
40
1
40
1
41
1
10
61.1225911164277
20
6.00581634400311
30
0
41
1
10
61.1268429031203
20
6.02616750327735
30
0
41
1
10
61.1277658443037
20
6.04811567085684
30
0
41
1
10
61.1219051712337
20
6.09200623482553
30
0
41
1
10
61.1148915623337
20
6.11462033184986
30
0
41
1
10
61.0941363909334
20
6.1541878621841
30
0
41
1
10
61.0807432887185
20
6.17205286612074
30
0
41
1
10
61.0546660436773
20
6.19669051801009
30
0
41
1
10
61.043206180056
20
6.205353951962
30
0
41
1
10
61.0310876629224
20
6.21254066061999
30
0
0
SPLINE
5
C9
100
AcDbEntity
8
1
62
256
6
ByLayer
370
-1
48
1
60
0
100
AcDbSpline
70
4
71
3
72
12
73
8
40
0
40
0
40
0
40
0
40
0.429302516371435
40
0.429302516371435
40
0.816716264742703
40
0.816716264742703
40
1
40
1
40
1
40
1
41
1
10
61.4083638697795
20
5.13534112306786
30
0
41
1
10
61.3719168572339
20
5.12504383400272
30
0
41
1
10
61.3356809340689
20
5.10881084201392
30
0
41
1
10
61.2709367199821
20
5.06660353236211
30
0
41
1
10
61.2413094399674
20
5.04115182307061
30
0
41
1
10
61.2028423892991
20
4.9972800543996
30
0
41
1
10
61.1911471215516
20
4.98209627160568
30
0
41
1
10
61.1804266221056
20
4.96615108017011
30
0
0
SPLINE
5
CA
100
AcDbEntity
8
1
62
256
6
ByLayer
370
-1
48
1
60
0
100
AcDbSpline
70
4
71
3
72
14
73
10
40
0
40
0
40
0
40
0
40
0.239035753549503
40
0.239035753549503
40
0.531939129357121
40
0.531939129357121
40
0.79685330339455
40
0.79685330339455
40
1
40
1
40
1
40
1
41
1
10
60.801001630151
20
4.44997840505542
30
0
41
1
10
60.8125639599558
20
4.43737884771903
30
0
41
1
10
60.8263054159004
20
4.42632246912058
30
0
41
1
10
60.8602903765253
20
4.4070212665915
30
0
41
1
10
60.8818965608495
20
4.39970614126977
30
0
41
1
10
60.9247749186258
20
4.39448607669948
30
0
41
1
10
60.9465396288758
20
4.39570973511405
30
0
41
1
10
60.9835407230567
20
4.40481308292735
30
0
41
1
10
60.9995048794295
20
4.41115971749102
30
0
41
1
10
61.0142469991051
20
4.41951916613289
30
0
0
SPLINE
5
CB
100
AcDbEntity
8
1
62
256
6
ByLayer
370
-1
48
1
60
0
100
AcDbSpline
70
4
71
3
72
16
73
12
40
0
40
0
40
0
40
0
40
0.161932617274506
40
0.161932617274506
40
0.385630096020488
40
0.385630096020488
40
0.617457653184782
40
0.617457653184782
40
0.867959955744041
40
0.867959955744041
40
1
40
1
40
1
40
1
41
1
10
60.0026017120467
20
6.2226562397783
30
0
41
1
10
59.9908395651989
20
6.21598657051399
30
0
41
1
10
59.9798120540016
20
6.2079462809599
30
0
41
1
10
59.956412009208
20
6.18641569802904
30
0
41
1
10
59.9448540235575
20
6.17171638440104
30
0
41
1
10
59.9269295044505
20
6.13980895073394
30
0
41
1
10
59.9205253338193
20
6.12213549055568
30
0
41
1
10
59.9132536161531
20
6.0852072272383
30
0
41
1
10
59.9127613622168
20
6.06548238226821
30
0
41
1
10
59.9165745037433
20
6.0365320270032
30
0
41
1
10
59.9187374370827
20
6.02662090053443
30
0
41
1
10
59.9216632899564
20
6.01700707370046
30
0
0
SPLINE
5
CC
100
AcDbEntity
8
1
62
256
6
ByLayer
370
-1
48
1
60
0
100
AcDbSpline
70
4
71
3
72
14
73
10
40
0
40
0
40
0
40
0
40
0.278315389008283
40
0.278315389008283
40
0.565744820671068
40
0.565744820671068
40
0.826091994555898
40
0.826091994555898
40
1
40
1
40
1
40
1
41
1
10
61.4083638697795
20
5.13534112306772
30
0
41
1
10
61.4271814004849
20
5.14065759593154
30
0
41
1
10
61.4457463596303
20
5.14959570257
30
0
41
1
10
61.4796604040001
20
5.17445394340899
30
0
41
1
10
61.4953894936704
20
5.19101602440645
30
0
41
1
10
61.5188153081781
20
5.22766256817053
30
0
41
1
10
61.5274523924398
20
5.2478423047379
30
0
41
1
10
61.5357778538304
20
5.28295048779287
30
0
41
1
10
61.5375682108434
20
5.29767507950777
30
0
41
1
10
61.5376868252973
20
5.31229655199411
30
0
0
SPLINE
5
CD
100
AcDbEntity
8
1
62
256
6
ByLayer
370
-1
48
1
60
0
100
AcDbSpline
70
4
71
3
72
16
73
12
40
0
40
0
40
0
40
0
40
0.0582741424683205
40
0.0582741424683205
40
0.282970751087162
40
0.282970751087162
40
0.510162244482277
40
0.510162244482277
40
0.751522607514873
40
0.751522607514873
40
1
40
1
40
1
40
1
41
1
10
59.9857610482294
20
4.42963474529114
30
0
41
1
10
59.9899662277952
20
4.42714092529152
30
0
41
1
10
59.9942840690271
20
4.42481362890871
30
0
41
1
10
60.0155535030065
20
4.41444440694298
30
0
41
1
10
60.0340173482422
20
4.40879558608705
30
0
41
1
10
60.0713128308371
20
4.40328278701625
30
0
41
1
10
60.0906190322381
20
4.40339892968257
30
0
41
1
10
60.1286588942137
20
4.40907801026006
30
0
41
1
10
60.1477610260899
20
4.41503155534974
30
0
41
1
10
60.1830461837939
20
4.43180350827384
30
0
41
1
10
60.1995334922366
20
4.44292546638258
30
0
41
1
10
60.2137818184868
20
4.45575395160836
30
0
0
SPLINE
5
CE
100
AcDbEntity
8
1
62
256
6
ByLayer
370
-1
48
1
60
0
100
AcDbSpline
70
4
71
3
72
12
73
8
40
0
40
0
40
0
40
0
40
0.460219064474811
40
0.460219064474811
40
0.842331808758502
40
0.842331808758502
40
1
40
1
40
1
40
1
41
1
10
59.6228023906971
20
5.50727082699987
30
0
41
1
10
59.66651948533
20
5.51844743099809
30
0
41
1
10
59.7097746728303
20
5.53646287038865
30
0
41
1
10
59.7824170525727
20
5.5818989226604
30
0
41
1
10
59.8136678663664
20
5.60780271244698
30
0
41
1
10
59.8513765140946
20
5.65017252580861
30
0
41
1
10
59.8617226881937
20
5.6633468443878
30
0
41
1
10
59.8711644710641
20
5.67708362600953
30
0
0
SPLINE
5
CF
100
AcDbEntity
8
1
62
256
6
ByLayer
370
-1
48
1
60
0
100
AcDbSpline
70
4
71
3
72
16
73
12
40
0
40
0
40
0
40
0
40
0.0663525757500793
40
0.0663525757500793
40
0.290789789371451
40
0.290789789371451
40
0.518177092836655
40
0.518177092836655
40
0.760096497546215
40
0.760096497546215
40
1
40
1
40
1
40
1
41
1
10
61.0310876629224
20
6.21254066061999
30
0
41
1
10
61.0263006951922
20
6.21537950154851
30
0
41
1
10
61.0213921544224
20
6.21800360276248
30
0
41
1
10
60.999617985472
20
6.22842754790429
30
0
41
1
10
60.9815684213556
20
6.23388246504317
30
0
41
1
10
60.9456504883392
20
6.23904347605884
30
0
41
1
10
60.9273319336616
20
6.23875357148165
30
0
41
1
10
60.8917756518228
20
6.23274572216852
30
0
41
1
10
60.8742326495574
20
6.22662666173298
30
0
41
1
10
60.8430970807289
20
6.20988879751346
30
0
41
1
10
60.8291279183303
20
6.19916573391484
30
0
41
1
10
60.8173149703657
20
6.18685588025949
30
0
0
SPLINE
5
D0
100
AcDbEntity
8
SK1
62
256
6
ByLayer
370
-1
48
1
60
0
100
AcDbSpline
70
4
71
3
72
8
73
4
40
0
40
0
40
0
40
0
40
1
40
1
40
1
40
1
41
1
10
-136.294989802577
20
7.00749999999999
30
0
41
1
10
-136.297269309068
20
7.00749999999999
30
0
41
1
10
-135.893332978056
20
7.00749999999999
30
0
41
1
10
-135.31
20
7.00749999999999
30
0
0
LINE
5
4A
100
AcDbEntity
8
80
62
256
6
ByLayer
370
-1
48
1
60
0
100
AcDbLine
10
0
20
0
30
0
11
-10
21
0
31
0
39
0
210
0
220
0
230
1
0
LINE
5
4B
100
AcDbEntity
8
1
62
256
6
ByLayer
370
-1
48
1
60
0
100
AcDbLine
10
63.939453
20
10.482108
30
0
11
63.584476
21
3.708733
31
0
39
0
210
0
220
0
230
1
0
LINE
5
4C
100
AcDbEntity
8
1
62
256
6
ByLayer
370
-1
48
1
60
0
100
AcDbLine
10
63.399391
20
3.393053
30
0
11
57.677808
21
-0.197735
31
0
39
0
210
0
220
0
230
1
0
LINE
5
4D
100
AcDbEntity
8
1
62
256
6
ByLayer
370
-1
48
1
60
0
100
AcDbLine
10
57.07461
20
0.159982
30
0
11
57.429588
21
6.933357
31
0
39
0
210
0
220
0
230
1
0
LINE
5
4E
100
AcDbEntity
8
SK1
62
256
6
ByLayer
370
-1
48
1
60
0
100
AcDbLine
10
-135.31
20
-7.9925
30
0
11
0
21
-7.9925
31
0
39
0
210
0
220
0
230
1
0
LINE
5
50
100
AcDbEntity
8
SK1
62
256
6
ByLayer
370
-1
48
1
60
0
100
AcDbLine
10
-136.295
20
7.0075
30
0
11
-137.31
21
5.9925
31
0
39
0
210
0
220
0
230
1
0
LINE
5
51
100
AcDbEntity
8
SK1
62
256
6
ByLayer
370
-1
48
1
60
0
100
AcDbLine
10
-137.31
20
-5.9925
30
0
11
-135.31
21
-7.9925
31
0
39
0
210
0
220
0
230
1
0
LINE
5
52
100
AcDbEntity
8
1
62
256
6
ByLayer
370
-1
48
1
60
0
100
AcDbLine
10
0
20
-7.9925
30
0
11
54.448806
21
-7.9925
31
0
39
0
210
0
220
0
230
1
0
LINE
5
53
100
AcDbEntity
8
1
62
256
6
ByLayer
370
-1
48
1
60
0
100
AcDbLine
10
60.550205
20
7.048163
30
0
11
60.474087
21
7.045842
31
0
39
0
210
0
220
0
230
1
0
LINE
5
54
100
AcDbEntity
8
1
62
256
6
ByLayer
370
-1
48
1
60
0
100
AcDbLine
10
60.579229
20
3.597445
30
0
11
60.655347
21
3.599766
31
0
39
0
210
0
220
0
230
1
0
LINE
5
55
100
AcDbEntity
8
1
62
256
6
ByLayer
370
-1
48
1
60
0
100
AcDbLine
10
60.549335
20
6.069742
30
0
11
60.637109
21
6.072418
31
0
39
0
210
0
220
0
230
1
0
LINE
5
56
100
AcDbEntity
8
1
62
256
6
ByLayer
370
-1
48
1
60
0
100
AcDbLine
10
60.589411
20
4.57615
30
0
11
60.501622
21
4.573473
31
0
39
0
210
0
220
0
230
1
0
LINE
5
57
100
AcDbEntity
8
81
62
256
6
ByLayer
370
-1
48
1
60
0
100
AcDbLine
10
63.94
20
10.9
30
0
11
73.94
21
10.9
31
0
39
0
210
0
220
0
230
1
0
LINE
5
58
100
AcDbEntity
8
SK4
62
256
6
ByLayer
370
-1
48
0.05
60
0
100
AcDbLine
10
-142.31
20
0
30
0
11
68.960266
21
0
31
0
39
0
210
0
220
0
230
1
0
LINE
5
5A
100
AcDbEntity
8
4
62
256
6
ByLayer
370
-1
48
0.05
60
0
100
AcDbLine
10
0
20
0
30
0
11
68.960266
21
0
31
0
39
0
210
0
220
0
230
1
0
LINE
5
5C
100
AcDbEntity
8
1
62
256
6
ByLayer
370
-1
48
1
60
0
100
AcDbLine
10
63.606618
20
3.178473
30
0
11
63.41695
21
-0.440605
31
0
39
0
210
0
220
0
230
1
0
LINE
5
5D
100
AcDbEntity
8
1
62
256
6
ByLayer
370
-1
48
1
60
0
100
AcDbLine
10
53.853212
20
6.787978
30
0
11
57.23415
21
-5.829372
31
0
39
0
210
0
220
0
230
1
0
LINE
5
5E
100
AcDbEntity
8
1
62
256
6
ByLayer
370
-1
48
1
60
0
100
AcDbLine
10
56.829977
20
2.482382
30
0
11
56.903292
21
2.484617
31
0
39
0
210
0
220
0
230
1
0
LINE
5
5F
100
AcDbEntity
8
1
62
256
6
ByLayer
370
-1
48
1
60
0
100
AcDbLine
10
0
20
7.0075
30
0
11
43.498368
21
7.0075
31
0
39
0
210
0
220
0
230
1
0
LINE
5
60
100
AcDbEntity
8
1
62
256
6
ByLayer
370
-1
48
1
60
0
100
AcDbLine
10
0
20
-2.762256
30
0
11
43.329437
21
-2.762256
31
0
39
0
210
0
220
0
230
1
0
LINE
5
61
100
AcDbEntity
8
1
62
256
6
ByLayer
370
-1
48
1
60
0
100
AcDbLine
10
63.533214
20
3.102714
30
0
11
58.346879
21
-0.119234
31
0
39
0
210
0
220
0
230
1
0
LINE
5
62
100
AcDbEntity
8
1
62
256
6
ByLayer
370
-1
48
1
60
0
100
AcDbLine
10
57.23415
20
-5.829372
30
0
11
63.41695
21
-0.440605
31
0
39
0
210
0
220
0
230
1
0
LINE
5
63
100
AcDbEntity
8
1
62
256
6
ByLayer
370
-1
48
1
60
0
100
AcDbLine
10
57.147552
20
6.787978
30
0
11
56.903292
21
2.484617
31
0
39
0
210
0
220
0
230
1
0
LINE
5
64
100
AcDbEntity
8
1
62
256
6
ByLayer
370
-1
48
1
60
0
100
AcDbLine
10
56.829977
20
2.482382
30
0
11
57.074572
21
6.787978
31
0
39
0
210
0
220
0
230
1
0
LINE
5
65
100
AcDbEntity
8
1
62
256
6
ByLayer
370
-1
48
1
60
0
100
AcDbLine
10
43.498368
20
7.0075
30
0
11
50.173834
21
7.0075
31
0
39
0
210
0
220
0
230
1
0
LINE
5
66
100
AcDbEntity
8
1
62
256
6
ByLayer
370
-1
48
1
60
0
100
AcDbLine
10
57.147552
20
6.787978
30
0
11
57.421968
21
6.787978
31
0
39
0
210
0
220
0
230
1
0
LINE
5
67
100
AcDbEntity
8
1
62
256
6
ByLayer
370
-1
48
1
60
0
100
AcDbLine
10
57.074572
20
6.787978
30
0
11
57.147552
21
6.787978
31
0
39
0
210
0
220
0
230
1
0
LINE
5
68
100
AcDbEntity
8
1
62
256
6
ByLayer
370
-1
48
1
60
0
100
AcDbLine
10
57.074572
20
6.787978
30
0
11
53.853212
21
6.787978
31
0
39
0
210
0
220
0
230
1
0
LINE
5
69
100
AcDbEntity
8
1
62
256
6
ByLayer
370
-1
48
1
60
0
100
AcDbLine
10
56.294257
20
0.365182
30
0
11
56.597636
21
0.374432
31
0
39
0
210
0
220
0
230
1
0
LINE
5
6A
100
AcDbEntity
8
1
62
256
6
ByLayer
370
-1
48
1
60
0
100
AcDbLine
10
53.853212
20
6.787978
30
0
11
51.300307
21
6.787978
31
0
39
0
210
0
220
0
230
1
0
LINE
5
6B
100
AcDbEntity
8
1
62
256
6
ByLayer
370
-1
48
1
60
0
100
AcDbLine
10
54.75277
20
-7.992078
30
0
11
57.23415
21
-5.829372
31
0
39
0
210
0
220
0
230
1
0
LINE
5
6C
100
AcDbEntity
8
1
62
256
6
ByLayer
370
-1
48
1
60
0
100
AcDbLine
10
56.529549
20
2.295745
30
0
11
56.831454
21
2.30495
31
0
39
0
210
0
220
0
230
1
0
LINE
5
6D
100
AcDbEntity
8
1
62
256
6
ByLayer
370
-1
48
1
60
0
100
AcDbLine
10
0
20
7.0075
30
0
11
0
21
2.762256
31
0
39
0
210
0
220
0
230
1
0
LINE
5
6E
100
AcDbEntity
8
1
62
256
6
ByLayer
370
-1
48
1
60
0
100
AcDbLine
10
57.206406
20
2.674848
30
0
11
56.903292
21
2.484617
31
0
39
0
210
0
220
0
230
1
0
LINE
5
6F
100
AcDbEntity
8
1
62
256
6
ByLayer
370
-1
48
1
60
0
100
AcDbLine
10
0
20
-2.762256
30
0
11
0
21
2.762256
31
0
39
0
210
0
220
0
230
1
0
LINE
5
70
100
AcDbEntity
8
1
62
256
6
ByLayer
370
-1
48
1
60
0
100
AcDbLine
10
0
20
-7.9925
30
0
11
0
21
-2.762256
31
0
39
0
210
0
220
0
230
1
0
LINE
5
71
100
AcDbEntity
8
1
62
256
6
ByLayer
370
-1
48
1
60
0
100
AcDbLine
10
57.199127
20
2.535696
30
0
11
56.831454
21
2.30495
31
0
39
0
210
0
220
0
230
1
0
LINE
5
72
100
AcDbEntity
8
1
62
256
6
ByLayer
370
-1
48
1
60
0
100
AcDbLine
10
63.543054
20
3.290477
30
0
11
63.533214
21
3.102714
31
0
39
0
210
0
220
0
230
1
0
LINE
5
73
100
AcDbEntity
8
1
62
256
6
ByLayer
370
-1
48
1
60
0
100
AcDbLine
10
56.529549
20
2.295745
30
0
11
56.829977
21
2.482382
31
0
39
0
210
0
220
0
230
1
0
LINE
5
74
100
AcDbEntity
8
1
62
256
6
ByLayer
370
-1
48
1
60
0
100
AcDbLine
10
41.87395
20
2.762256
30
0
11
0
21
2.762256
31
0
39
0
210
0
220
0
230
1
0
LINE
5
75
100
AcDbEntity
8
SK1
62
256
6
ByLayer
370
-1
48
1
60
0
100
AcDbLine
10
-135.31
20
7.0075
30
0
11
0
21
7.0075
31
0
39
0
210
0
220
0
230
1
0
LINE
5
76
100
AcDbEntity
8
SK1
62
256
6
ByLayer
370
-1
48
1
60
0
100
AcDbLine
10
0
20
-7.9925
30
0
11
0
21
-2.762256
31
0
39
0
210
0
220
0
230
1
0
LINE
5
77
100
AcDbEntity
8
SK1
62
256
6
ByLayer
370
-1
48
1
60
0
100
AcDbLine
10
-135.31
20
2.762256
30
0
11
-135.31
21
7.0075
31
0
39
0
210
0
220
0
230
1
0
LINE
5
78
100
AcDbEntity
8
SK1
62
256
6
ByLayer
370
-1
48
1
60
0
100
AcDbLine
10
0
20
2.762256
30
0
11
-135.31
21
2.762256
31
0
39
0
210
0
220
0
230
1
0
LINE
5
79
100
AcDbEntity
8
SK1
62
256
6
ByLayer
370
-1
48
1
60
0
100
AcDbLine
10
0
20
7.0075
30
0
11
0
21
2.762256
31
0
39
0
210
0
220
0
230
1
0
LINE
5
7A
100
AcDbEntity
8
SK1
62
256
6
ByLayer
370
-1
48
1
60
0
100
AcDbLine
10
-135.31
20
-2.762256
30
0
11
0
21
-2.762256
31
0
39
0
210
0
220
0
230
1
0
LINE
5
7B
100
AcDbEntity
8
1
62
256
6
ByLayer
370
-1
48
1
60
0
100
AcDbLine
10
59.871164
20
5.677084
30
0
11
59.958629
21
5.67975
31
0
39
0
210
0
220
0
230
1
0
LINE
5
7C
100
AcDbEntity
8
1
62
256
6
ByLayer
370
-1
48
1
60
0
100
AcDbLine
10
59.987127
20
5.728356
30
0
11
59.899662
21
5.72569
31
0
39
0
210
0
220
0
230
1
0
LINE
5
7D
100
AcDbEntity
8
1
62
256
6
ByLayer
370
-1
48
1
60
0
100
AcDbLine
10
60.915026
20
6.189835
30
0
11
60.817315
21
6.186856
31
0
39
0
210
0
220
0
230
1
0
LINE
5
7E
100
AcDbEntity
8
1
62
256
6
ByLayer
370
-1
48
1
60
0
100
AcDbLine
10
60.01934
20
6.019985
30
0
11
59.921663
21
6.017007
31
0
39
0
210
0
220
0
230
1
0
LINE
5
7F
100
AcDbEntity
8
1
62
256
6
ByLayer
370
-1
48
1
60
0
100
AcDbLine
10
59.720479
20
5.510249
30
0
11
59.622802
21
5.507271
31
0
39
0
210
0
220
0
230
1
0
LINE
5
80
100
AcDbEntity
8
1
62
256
6
ByLayer
370
-1
48
1
60
0
100
AcDbLine
10
59.716971
20
5.153772
30
0
11
59.61926
21
5.150793
31
0
39
0
210
0
220
0
230
1
0
LINE
5
81
100
AcDbEntity
8
1
62
256
6
ByLayer
370
-1
48
1
60
0
100
AcDbLine
10
60.006217
20
4.639773
30
0
11
59.908506
21
4.636793
31
0
39
0
210
0
220
0
230
1
0
LINE
5
82
100
AcDbEntity
8
1
62
256
6
ByLayer
370
-1
48
1
60
0
100
AcDbLine
10
60.898713
20
4.452958
30
0
11
60.801002
21
4.449978
31
0
39
0
210
0
220
0
230
1
0
LINE
5
83
100
AcDbEntity
8
1
62
256
6
ByLayer
370
-1
48
1
60
0
100
AcDbLine
10
57.614673
20
7.249037
30
0
11
63.336256
21
10.839826
31
0
39
0
210
0
220
0
230
1
0
LINE
5
84
100
AcDbEntity
8
SK1
62
256
6
ByLayer
370
-1
48
1
60
0
100
AcDbLine
10
0
20
-2.762256
30
0
11
0
21
2.762256
31
0
39
0
210
0
220
0
230
1
0
LINE
5
85
100
AcDbEntity
8
SK1
62
256
6
ByLayer
370
-1
48
1
60
0
100
AcDbLine
10
-135.31
20
-7.9925
30
0
11
-135.31
21
-2.762256
31
0
39
0
210
0
220
0
230
1
0
LINE
5
86
100
AcDbEntity
8
SK1
62
256
6
ByLayer
370
-1
48
1
60
0
100
AcDbLine
10
-137.31
20
-5.9925
30
0
11
-137.31
21
5.9925
31
0
39
0
210
0
220
0
230
1
0
LINE
5
87
100
AcDbEntity
8
2
62
256
6
ByLayer
370
-1
48
1
60
1
100
AcDbLine
10
63.94
20
0
30
0
11
63.941
21
0.001
31
0
39
0
210
0
220
0
230
1
0
MTEXT
5
D1
100
AcDbEntity
8
SK6
62
256
6
ByLayer
370
-1
48
1
60
0
100
AcDbMText
10
-33.31
20
-20.32125
30
0
210
0
220
0
230
1
1
\W00.760;\fsimplex.shx,bigfont.shx;A16R-SDUPR 07 
40
3.5
41
0
44
1.084337
50
0
71
7
72
5
7
DEFAULT
0
DIMENSION
5
104
100
AcDbEntity
8
2
62
256
6
ByLayer
370
-3
48
1
60
0
100
AcDbDimension
2
DimnDraft3D1
10
76.19
20
0
30
0
11
76.19
21
21.155
31
0
70
32
71
5
72
1
41
1
210
0
220
0
230
1
3
Standard
100
AcDbAlignedDimension
13
65.94
23
10.9
33
0
14
65.94
24
0
34
0
50
90
100
AcDbRotatedDimension
1001
ACAD
1000
DSTYLE
1002
{
1070
    74
1070
     0
1070
   279
1070
     0
1070
   172
1070
     1
1070
   173
1070
     1
1070
   340
1005
D2
1070
    77
1070
     1
1070
    73
1070
     0
1070
   171
1070
     4
1070
   274
1070
     4
1070
   177
1070
     2
1070
   176
1070
     2
1070
   178
1070
     7
1070
    78
1070
     8
1070
    41
1041
3.175
1070
   147
1041
2.25
1070
    42
1041
2.0
1070
    44
1041
2.0
1070
   140
1041
4.5
1070
   343
1005
105
1070
   344
1005
105
1002
}
0
DIMENSION
5
11A
100
AcDbEntity
8
SK2
62
256
6
ByLayer
370
-3
48
1
60
0
100
AcDbDimension
2
DimnDraft3D2
10
-147.06
20
7.9925
30
0
11
-147.06
21
-4.221711
31
0
70
32
71
5
72
1
41
1
210
0
220
0
230
1
3
Standard
100
AcDbAlignedDimension
13
-139.31
23
-7.9925
33
0
14
-139.31
24
7.9925
34
0
50
90
100
AcDbRotatedDimension
1001
ACAD
1000
DSTYLE
1002
{
1070
    74
1070
     0
1070
   279
1070
     0
1070
   172
1070
     1
1070
   173
1070
     1
1070
   340
1005
D2
1070
    77
1070
     1
1070
    73
1070
     0
1070
   171
1070
     4
1070
   274
1070
     4
1070
   177
1070
     2
1070
   176
1070
     2
1070
   178
1070
     7
1070
    78
1070
     8
1070
    41
1041
3.175
1070
   147
1041
2.25
1070
    42
1041
2.0
1070
    44
1041
2.0
1070
   140
1041
4.5
1070
   343
1005
105
1070
   344
1005
105
1002
}
0
DIMENSION
5
128
100
AcDbEntity
8
SK2
62
256
6
ByLayer
370
-3
48
1
60
0
100
AcDbDimension
2
DimnDraft3D3
10
-137.31
20
23.65
30
0
11
-43.500132
21
23.65
31
0
70
32
71
5
72
1
41
1
210
0
220
0
230
1
3
Standard
100
AcDbAlignedDimension
13
63.94
23
12.9
33
0
14
-137.31
24
9.9925
34
0
50
0
100
AcDbRotatedDimension
1001
ACAD
1000
DSTYLE
1002
{
1070
   279
1070
     0
1070
   172
1070
     1
1070
   173
1070
     1
1070
   340
1005
D2
1070
    77
1070
     1
1070
    73
1070
     0
1070
   171
1070
     4
1070
   274
1070
     4
1070
   177
1070
     2
1070
   176
1070
     2
1070
   178
1070
     7
1070
    78
1070
     8
1070
    41
1041
3.175
1070
   147
1041
2.25
1070
    42
1041
2.0
1070
    44
1041
2.0
1070
   140
1041
4.5
1070
   343
1005
105
1070
   344
1005
105
1002
}
0
DIMENSION
5
136
100
AcDbEntity
8
2
62
256
6
ByLayer
370
-3
48
1
60
0
100
AcDbDimension
2
DimnDraft3D4
10
112.295162
20
0
30
0
11
89.500566
21
-36.792664
31
0
70
34
71
5
72
1
41
1
210
0
220
0
230
1
3
Standard
100
AcDb2LineAngularDimension
13
63.468976
23
1.912334
33
0
14
60.808145
24
-48.859355
34
0
15
65.94
25
0
35
0
16
92.573167
26
-30.775028
36
0
40
0
0
ENDSEC
0
SECTION
2
OBJECTS
0
DICTIONARY
5
167
330
0
100
AcDbDictionary
280
0
281
1
3
ACAD_GROUP
350
168
3
ACAD_MLINESTYLE
350
169
0
DICTIONARY
5
168
330
0
100
AcDbDictionary
280
0
281
1
0
DICTIONARY
5
169
330
0
100
AcDbDictionary
280
0
281
1
3
Standard
350
18
0
MLINESTYLE
5
18
330
169
100
AcDbMlineStyle
2
Standard
70
0
3

62
256
51
90
52
90
71
2
49
-0.5
62
256
6
ByLayer
49
0.5
62
256
6
ByLayer
0
RASTERVARIABLES
5
155
330

100
AcDbRasterVariables
90
0
70
1
71
1
72
1
0
ENDSEC
0
EOF
