0
SECTION
2
HEADER
9
$ACADVER
1
AC1015
9
$DWGCODEPAGE
3
ANSI_1252
9
$HANDSEED
5
174
9
$ANGBASE
50
0
9
$ANGDIR
70
0
9
$ATTMODE
70
1
9
$AUNITS
70
0
9
$AUPREC
70
0
9
$CECOLOR
62
256
9
$CELTSCALE
40
1
9
$CELTYPE
6
ByLayer
9
$CELWEIGHT
370
-1
9
$CLAYER
8
0
9
$CMLJUST
70
0
9
$CMLSCALE
40
1
9
$CMLSTYLE
2
Standard
9
$DIMSTYLE
2
Standard
9
$TEXTSIZE
40
0.2
9
$TEXTSTYLE
7
Standard
9
$LUNITS
70
2
9
$LUPREC
70
4
9
$EXTNAMES
290
1
9
$INSUNITS
70
4
9
$LTSCALE
40
1
9
$LWDISPLAY
290
0
9
$PDMODE
70
0
9
$PDSIZE
40
0
9
$PLINEGEN
70
0
0
ENDSEC
0
SECTION
2
CLASSES
0
CLASS
1
RASTERVARIABLES
2
AcDbRasterVariables
3
ISM
90
0
280
0
281
0
0
ENDSEC
0
SECTION
2
TABLES
0
TABLE
2
VPORT
5
16a
100
AcDbSymbolTable
0
VPORT
5
1
100
AcDbSymbolTableRecord
100
AcDbViewportTableRecord
2
*Active
70
0
10
0
20
0
11
1
21
1
12
-1
22
1
13
0
23
0
14
0.5
24
0.5
15
10
25
10
16
0
26
0
36
1
17
0
27
0
37
0
0
ENDTAB
0
TABLE
2
LTYPE
5
16b
100
AcDbSymbolTable
0
LTYPE
5
14
100
AcDbSymbolTableRecord
100
AcDbLinetypeTableRecord
70
0
2
ByBlock
3

72
65
73
0
40
0
0
LTYPE
5
15
100
AcDbSymbolTableRecord
100
AcDbLinetypeTableRecord
70
0
2
ByLayer
3

72
65
73
0
40
0
0
LTYPE
5
16
100
AcDbSymbolTableRecord
100
AcDbLinetypeTableRecord
70
0
2
CONTINUOUS
3
Solid line
72
65
73
0
40
0
0
LTYPE
5
3B
100
AcDbSymbolTableRecord
100
AcDbLinetypeTableRecord
70
0
2
DASHED
3
__ __ __ __ __ __ __ __ __
72
65
73
2
40
25.72
49
12.86
74
0
49
-12.86
74
0
0
LTYPE
5
3C
100
AcDbSymbolTableRecord
100
AcDbLinetypeTableRecord
70
0
2
HIDDEN
3
_ _ _ _ _ _ _ _ _ _ _ _ _ _ _
72
65
73
2
40
0.5
49
0.25
74
0
49
-0.25
74
0
0
LTYPE
5
3D
100
AcDbSymbolTableRecord
100
AcDbLinetypeTableRecord
70
0
2
PHANTOM
3
____ _ _ ____ _ _ _____ _ _ ____
72
65
73
6
40
50.5
49
18
74
0
49
-6.5
74
0
49
6.5
74
0
49
-6.5
74
0
49
6.5
74
0
49
-6.5
74
0
0
LTYPE
5
3E
100
AcDbSymbolTableRecord
100
AcDbLinetypeTableRecord
70
0
2
CENTER
3
____ _ ____ _ ____ _ ____
72
65
73
4
40
47.5
49
22
74
0
49
-8.5
74
0
49
8.5
74
0
49
-8.5
74
0
0
LTYPE
5
3F
100
AcDbSymbolTableRecord
100
AcDbLinetypeTableRecord
70
0
2
DOT
3
.........................
72
65
73
2
40
10
49
0
74
0
49
-10
74
0
0
LTYPE
5
40
100
AcDbSymbolTableRecord
100
AcDbLinetypeTableRecord
70
0
2
DASHDOT
3
_._._._._._._._._._._._._._._._.
72
65
73
4
40
70
49
31
74
0
49
-13
74
0
49
13
74
0
49
-13
74
0
0
ENDTAB
0
TABLE
2
LAYER
5
16c
100
AcDbSymbolTable
0
LAYER
5
10
100
AcDbSymbolTableRecord
100
AcDbLayerTableRecord
2
0
70
0
62
7
6
CONTINUOUS
290
1
370
-3
390
0
0
LAYER
5
42
100
AcDbSymbolTableRecord
100
AcDbLayerTableRecord
2
80
70
0
62
-6
6
CONTINUOUS
290
1
370
-3
390
0
0
LAYER
5
44
100
AcDbSymbolTableRecord
100
AcDbLayerTableRecord
2
81
70
0
62
-3
6
CONTINUOUS
290
1
370
-3
390
0
0
LAYER
5
46
100
AcDbSymbolTableRecord
100
AcDbLayerTableRecord
2
1
70
0
62
4
6
CONTINUOUS
290
1
370
-3
390
0
0
LAYER
5
48
100
AcDbSymbolTableRecord
100
AcDbLayerTableRecord
2
2
70
0
62
7
6
CONTINUOUS
290
1
370
-3
390
0
0
LAYER
5
4E
100
AcDbSymbolTableRecord
100
AcDbLayerTableRecord
2
4
70
0
62
-2
6
CENTER
290
1
370
-3
390
0
0
LAYER
5
156
100
AcDbSymbolTableRecord
100
AcDbLayerTableRecord
2
SK4
70
0
62
2
6
CENTER
290
1
370
-3
390
0
0
LAYER
5
157
100
AcDbSymbolTableRecord
100
AcDbLayerTableRecord
2
SK1
70
0
62
4
6
CONTINUOUS
290
1
370
-3
390
0
0
LAYER
5
158
100
AcDbSymbolTableRecord
100
AcDbLayerTableRecord
2
SK6
70
0
62
5
6
CONTINUOUS
290
1
370
-3
390
0
0
LAYER
5
159
100
AcDbSymbolTableRecord
100
AcDbLayerTableRecord
2
SK2
70
0
62
7
6
CONTINUOUS
290
1
370
-3
390
0
0
ENDTAB
0
TABLE
2
STYLE
5
16d
100
AcDbSymbolTable
0
STYLE
5
11
100
AcDbSymbolTableRecord
100
AcDbTextStyleTableRecord
2
Standard
3
txt
70
0
71
0
40
0
41
1
42
0
50
0
0
STYLE
5
D2
100
AcDbSymbolTableRecord
100
AcDbTextStyleTableRecord
2
DEFAULT
3
simplex.shx
70
0
71
0
40
0
41
1
42
0
50
0
0
STYLE
5
F5
100
AcDbSymbolTableRecord
100
AcDbTextStyleTableRecord
2
DWGDirectTextStyle
3
SIMPLEX
70
0
71
0
40
0
41
1
42
0
50
0
0
ENDTAB
0
TABLE
2
DIMSTYLE
5
16e
100
AcDbSymbolTable
100
AcDbDimStyleTable
0
DIMSTYLE
105
27
100
AcDbSymbolTableRecord
100
AcDbDimStyleTableRecord
2
Standard
70
0
3
<>
41
0.18
42
0.0625
44
0.18
140
0.18
147
0.09
73
0
74
0
77
1
271
2
275
0
278
52
280
0
340
11
0
ENDTAB
0
TABLE
2
VIEW
5
16f
100
AcDbSymbolTable
0
ENDTAB
0
TABLE
2
UCS
5
170
100
AcDbSymbolTable
0
ENDTAB
0
TABLE
2
APPID
5
171
100
AcDbSymbolTable
0
APPID
5
12
100
AcDbSymbolTableRecord
100
AcDbRegAppTableRecord
2
ACAD
70
0
0
ENDTAB
0
TABLE
2
BLOCK_RECORD
5
172
100
AcDbSymbolTable
0
BLOCK_RECORD
5
1F
100
AcDbSymbolTableRecord
100
AcDbBlockTableRecord
2
*Model_Space
340
0
70
0
0
BLOCK_RECORD
5
1B
100
AcDbSymbolTableRecord
100
AcDbBlockTableRecord
2
*Paper_Space
340
0
70
0
0
BLOCK_RECORD
5
23
100
AcDbSymbolTableRecord
100
AcDbBlockTableRecord
2
*Paper_Space0
340
0
70
0
0
BLOCK_RECORD
5
F7
100
AcDbSymbolTableRecord
100
AcDbBlockTableRecord
2
DimnDraft3D1
340
0
70
0
0
BLOCK_RECORD
5
105
100
AcDbSymbolTableRecord
100
AcDbBlockTableRecord
2
_CLOSED
340
0
70
0
0
BLOCK_RECORD
5
10C
100
AcDbSymbolTableRecord
100
AcDbBlockTableRecord
2
DimnDraft3D2
340
0
70
0
0
BLOCK_RECORD
5
11B
100
AcDbSymbolTableRecord
100
AcDbBlockTableRecord
2
DimnDraft3D3
340
0
70
0
0
BLOCK_RECORD
5
129
100
AcDbSymbolTableRecord
100
AcDbBlockTableRecord
2
DimnDraft3D4
340
0
70
0
0
ENDTAB
0
ENDSEC
0
SECTION
2
BLOCKS
0
BLOCK
5
20
100
AcDbEntity
8
0
100
AcDbBlockBegin
2
*Model_Space
70
0
10
0
20
0
30
0
3
*Model_Space
0
ENDBLK
5
21
100
AcDbEntity
8
0
100
AcDbBlockEnd
0
BLOCK
5
1C
100
AcDbEntity
8
0
100
AcDbBlockBegin
2
*Paper_Space
70
0
10
0
20
0
30
0
3
*Paper_Space
0
ENDBLK
5
1D
100
AcDbEntity
8
0
100
AcDbBlockEnd
0
BLOCK
5
24
100
AcDbEntity
8
0
100
AcDbBlockBegin
2
*Paper_Space0
70
0
10
0
20
0
30
0
3
*Paper_Space0
0
ENDBLK
5
25
100
AcDbEntity
8
0
100
AcDbBlockEnd
0
BLOCK
5
102
100
AcDbEntity
8
0
100
AcDbBlockBegin
2
DimnDraft3D1
70
0
10
0
20
0
30
0
3
DimnDraft3D1
0
MTEXT
5
F8
100
AcDbEntity
8
2
62
256
6
ByLayer
370
-1
48
1
60
0
100
AcDbMText
10
75.065
20
-28.106316
30
0
210
0
220
0
230
1
1
\W01.000;\fsimplex.shx,bigfont.shx;11.0 
40
4.5
41
0
44
1.084337
50
90
71
7
72
5
7
DEFAULT
0
LINE
5
F9
100
AcDbEntity
8
2
62
256
6
ByLayer
370
-1
48
1
60
0
100
AcDbLine
10
65.94
20
-10.9
30
0
11
78.19
21
-10.9
31
0
39
0
210
0
220
0
230
1
0
LINE
5
FA
100
AcDbEntity
8
2
62
256
6
ByLayer
370
-1
48
1
60
0
100
AcDbLine
10
65.94
20
0
30
0
11
78.19
21
0
31
0
39
0
210
0
220
0
230
1
0
LINE
5
FB
100
AcDbEntity
8
2
62
256
6
ByLayer
370
-1
48
1
60
0
100
AcDbLine
10
76.19
20
0
30
0
11
76.19
21
-29.231316
31
0
39
0
210
0
220
0
230
1
0
LINE
5
FC
100
AcDbEntity
8
2
62
256
6
ByLayer
370
-1
48
1
60
0
100
AcDbLine
10
76.19
20
-10.9
30
0
11
75.772003
21
-7.725002
31
0
39
0
210
0
220
0
230
1
0
LINE
5
FD
100
AcDbEntity
8
2
62
256
6
ByLayer
370
-1
48
1
60
0
100
AcDbLine
10
76.19
20
-10.9
30
0
11
76.607997
21
-7.724998
31
0
39
0
210
0
220
0
230
1
0
LINE
5
FE
100
AcDbEntity
8
2
62
256
6
ByLayer
370
-1
48
1
60
0
100
AcDbLine
10
75.772003
20
-7.725002
30
0
11
76.607997
21
-7.724998
31
0
39
0
210
0
220
0
230
1
0
LINE
5
FF
100
AcDbEntity
8
2
62
256
6
ByLayer
370
-1
48
1
60
0
100
AcDbLine
10
76.19
20
0
30
0
11
76.607997
21
-3.174998
31
0
39
0
210
0
220
0
230
1
0
LINE
5
100
100
AcDbEntity
8
2
62
256
6
ByLayer
370
-1
48
1
60
0
100
AcDbLine
10
76.19
20
0
30
0
11
75.772003
21
-3.175002
31
0
39
0
210
0
220
0
230
1
0
LINE
5
101
100
AcDbEntity
8
2
62
256
6
ByLayer
370
-1
48
1
60
0
100
AcDbLine
10
76.607997
20
-3.174998
30
0
11
75.772003
21
-3.175002
31
0
39
0
210
0
220
0
230
1
0
ENDBLK
5
103
100
AcDbEntity
8
0
100
AcDbBlockEnd
0
BLOCK
5
106
100
AcDbEntity
8
0
100
AcDbBlockBegin
2
_CLOSED
70
0
10
0
20
0
30
0
3
_CLOSED
0
LINE
5
108
100
AcDbEntity
8
0
62
256
6
ByLayer
370
-2
48
1
60
0
100
AcDbLine
10
-1
20
0.166667
30
0
11
0
21
0
31
0
39
0
210
0
220
0
230
1
0
LINE
5
109
100
AcDbEntity
8
0
62
256
6
ByLayer
370
-2
48
1
60
0
100
AcDbLine
10
0
20
0
30
0
11
-1
21
-0.166667
31
0
39
0
210
0
220
0
230
1
0
LINE
5
10A
100
AcDbEntity
8
0
62
256
6
ByLayer
370
-2
48
1
60
0
100
AcDbLine
10
-1
20
0.166667
30
0
11
-1
21
-0.166667
31
0
39
0
210
0
220
0
230
1
0
LINE
5
10B
100
AcDbEntity
8
0
62
256
6
ByLayer
370
-2
48
1
60
0
100
AcDbLine
10
0
20
0
30
0
11
-1
21
0
31
0
39
0
210
0
220
0
230
1
0
ENDBLK
5
107
100
AcDbEntity
8
0
100
AcDbBlockEnd
0
BLOCK
5
118
100
AcDbEntity
8
0
100
AcDbBlockBegin
2
DimnDraft3D2
70
0
10
0
20
0
30
0
3
DimnDraft3D2
0
MTEXT
5
10D
100
AcDbEntity
8
SK2
62
256
6
ByLayer
370
-1
48
1
60
0
100
AcDbMText
10
-148.185
20
-3.096711
30
0
210
0
220
0
230
1
1
\W01.000;\fsimplex.shx,bigfont.shx;%%c16 
40
4.5
41
0
44
1.084337
50
90
71
7
72
5
7
DEFAULT
0
LINE
5
10F
100
AcDbEntity
8
SK2
62
256
6
ByLayer
370
-1
48
1
60
0
100
AcDbLine
10
-139.31
20
-7.9925
30
0
11
-149.06
21
-7.9925
31
0
39
0
210
0
220
0
230
1
0
LINE
5
110
100
AcDbEntity
8
SK2
62
256
6
ByLayer
370
-1
48
1
60
0
100
AcDbLine
10
-139.31
20
7.9925
30
0
11
-149.06
21
7.9925
31
0
39
0
210
0
220
0
230
1
0
LINE
5
111
100
AcDbEntity
8
SK2
62
256
6
ByLayer
370
-1
48
1
60
0
100
AcDbLine
10
-147.06
20
-19.2425
30
0
11
-147.06
21
19.2425
31
0
39
0
210
0
220
0
230
1
0
LINE
5
112
100
AcDbEntity
8
SK2
62
256
6
ByLayer
370
-1
48
1
60
0
100
AcDbLine
10
-147.06
20
-7.9925
30
0
11
-146.642003
21
-11.167498
31
0
39
0
210
0
220
0
230
1
0
LINE
5
113
100
AcDbEntity
8
SK2
62
256
6
ByLayer
370
-1
48
1
60
0
100
AcDbLine
10
-147.06
20
-7.9925
30
0
11
-147.477997
21
-11.167502
31
0
39
0
210
0
220
0
230
1
0
LINE
5
114
100
AcDbEntity
8
SK2
62
256
6
ByLayer
370
-1
48
1
60
0
100
AcDbLine
10
-146.642003
20
-11.167498
30
0
11
-147.477997
21
-11.167502
31
0
39
0
210
0
220
0
230
1
0
LINE
5
115
100
AcDbEntity
8
SK2
62
256
6
ByLayer
370
-1
48
1
60
0
100
AcDbLine
10
-147.06
20
7.9925
30
0
11
-147.477997
21
11.167498
31
0
39
0
210
0
220
0
230
1
0
LINE
5
116
100
AcDbEntity
8
SK2
62
256
6
ByLayer
370
-1
48
1
60
0
100
AcDbLine
10
-147.06
20
7.9925
30
0
11
-146.642003
21
11.167502
31
0
39
0
210
0
220
0
230
1
0
LINE
5
117
100
AcDbEntity
8
SK2
62
256
6
ByLayer
370
-1
48
1
60
0
100
AcDbLine
10
-147.477997
20
11.167498
30
0
11
-146.642003
21
11.167502
31
0
39
0
210
0
220
0
230
1
0
ENDBLK
5
119
100
AcDbEntity
8
0
100
AcDbBlockEnd
0
BLOCK
5
126
100
AcDbEntity
8
0
100
AcDbBlockBegin
2
DimnDraft3D3
70
0
10
0
20
0
30
0
3
DimnDraft3D3
0
MTEXT
5
11C
100
AcDbEntity
8
SK2
62
256
6
ByLayer
370
-1
48
1
60
0
100
AcDbMText
10
-42.375132
20
-27.025
30
0
210
0
220
0
230
1
1
\W01.000;\fsimplex.shx,bigfont.shx;200.0 
40
4.5
41
0
44
1.084337
50
0
71
7
72
5
7
DEFAULT
0
LINE
5
11D
100
AcDbEntity
8
SK2
62
256
6
ByLayer
370
-1
48
1
60
0
100
AcDbLine
10
-137.31
20
-9.9925
30
0
11
-137.31
21
-30.15
31
0
39
0
210
0
220
0
230
1
0
LINE
5
11E
100
AcDbEntity
8
SK2
62
256
6
ByLayer
370
-1
48
1
60
0
100
AcDbLine
10
63.94
20
-12.9
30
0
11
63.94
21
-30.15
31
0
39
0
210
0
220
0
230
1
0
LINE
5
11F
100
AcDbEntity
8
SK2
62
256
6
ByLayer
370
-1
48
1
60
0
100
AcDbLine
10
-137.31
20
-28.15
30
0
11
63.94
21
-28.15
31
0
39
0
210
0
220
0
230
1
0
LINE
5
120
100
AcDbEntity
8
SK2
62
256
6
ByLayer
370
-1
48
1
60
0
100
AcDbLine
10
-137.31
20
-28.15
30
0
11
-134.135002
21
-27.732003
31
0
39
0
210
0
220
0
230
1
0
LINE
5
121
100
AcDbEntity
8
SK2
62
256
6
ByLayer
370
-1
48
1
60
0
100
AcDbLine
10
-137.31
20
-28.15
30
0
11
-134.134998
21
-28.567997
31
0
39
0
210
0
220
0
230
1
0
LINE
5
122
100
AcDbEntity
8
SK2
62
256
6
ByLayer
370
-1
48
1
60
0
100
AcDbLine
10
-134.135002
20
-27.732003
30
0
11
-134.134998
21
-28.567997
31
0
39
0
210
0
220
0
230
1
0
LINE
5
123
100
AcDbEntity
8
SK2
62
256
6
ByLayer
370
-1
48
1
60
0
100
AcDbLine
10
63.94
20
-28.15
30
0
11
60.765002
21
-28.567997
31
0
39
0
210
0
220
0
230
1
0
LINE
5
124
100
AcDbEntity
8
SK2
62
256
6
ByLayer
370
-1
48
1
60
0
100
AcDbLine
10
63.94
20
-28.15
30
0
11
60.764998
21
-27.732003
31
0
39
0
210
0
220
0
230
1
0
LINE
5
125
100
AcDbEntity
8
SK2
62
256
6
ByLayer
370
-1
48
1
60
0
100
AcDbLine
10
60.765002
20
-28.567997
30
0
11
60.764998
21
-27.732003
31
0
39
0
210
0
220
0
230
1
0
ENDBLK
5
127
100
AcDbEntity
8
0
100
AcDbBlockEnd
0
BLOCK
5
134
100
AcDbEntity
8
0
100
AcDbBlockBegin
2
DimnDraft3D4
70
0
10
0
20
0
30
0
3
DimnDraft3D4
0
MTEXT
5
12A
100
AcDbEntity
8
2
62
256
6
ByLayer
370
-1
48
1
60
0
100
AcDbMText
10
85.501326
20
32.335899
30
0
210
0
220
0
230
1
1
\W01.000;\fsimplex.shx,bigfont.shx;95%%d0' 
40
4.5
41
0
44
1.084337
50
317.5
71
7
72
5
7
DEFAULT
0
LINE
5
12B
100
AcDbEntity
8
2
62
256
6
ByLayer
370
-1
48
1
60
0
100
AcDbLine
10
63.242754
20
-2.930442
30
0
11
59.506558
21
39.774475
31
0
39
0
210
0
220
0
230
1
0
LINE
5
12C
100
AcDbEntity
8
2
62
256
6
ByLayer
370
-1
48
1
60
0
100
AcDbLine
10
65.94
20
0
30
0
11
102.91278
21
0
31
0
39
0
210
0
220
0
230
1
0
ARC
5
12D
100
AcDbEntity
8
2
62
256
6
ByLayer
370
-1
48
1
60
0
100
AcDbCircle
39
0
10
62.986374
20
0
30
0
40
37.9264068640929
210
0
220
0
230
1
100
AcDbArc
50
0
51
95
0
LINE
5
12E
100
AcDbEntity
8
2
62
256
6
ByLayer
370
-1
48
1
60
0
100
AcDbLine
10
59.680869
20
37.782085
30
0
11
62.821168
21
38.409669
31
0
39
0
210
0
220
0
230
1
0
LINE
5
12F
100
AcDbEntity
8
2
62
256
6
ByLayer
370
-1
48
1
60
0
100
AcDbLine
10
59.680869
20
37.782085
30
0
11
62.876599
21
37.575515
31
0
39
0
210
0
220
0
230
1
0
LINE
5
130
100
AcDbEntity
8
2
62
256
6
ByLayer
370
-1
48
1
60
0
100
AcDbLine
10
62.821168
20
38.409669
30
0
11
62.876599
21
37.575515
31
0
39
0
210
0
220
0
230
1
0
LINE
5
131
100
AcDbEntity
8
2
62
256
6
ByLayer
370
-1
48
1
60
0
100
AcDbLine
10
100.91278
20
0
30
0
11
100.42847
21
3.165562
31
0
39
0
210
0
220
0
230
1
0
LINE
5
132
100
AcDbEntity
8
2
62
256
6
ByLayer
370
-1
48
1
60
0
100
AcDbLine
10
100.91278
20
0
30
0
11
101.264281
21
3.183049
31
0
39
0
210
0
220
0
230
1
0
LINE
5
133
100
AcDbEntity
8
2
62
256
6
ByLayer
370
-1
48
1
60
0
100
AcDbLine
10
100.42847
20
3.165562
30
0
11
101.264281
21
3.183049
31
0
39
0
210
0
220
0
230
1
0
ENDBLK
5
135
100
AcDbEntity
8
0
100
AcDbBlockEnd
0
ENDSEC
0
SECTION
2
ENTITIES
0
ELLIPSE
5
86
100
AcDbEntity
8
1
62
256
6
ByLayer
370
-1
48
1
60
0
100
AcDbEllipse
10
21.439444
20
-134.948596
30
0
11
56.8595896132067
21
211.400604106372
31
0
210
3.94430452610506E-31
220
1.6278293487427E-16
230
1
40
0.084274
41
0.884223661406931
42
0.918164137916538
0
ELLIPSE
5
87
100
AcDbEntity
8
1
62
256
6
ByLayer
370
-1
48
1
60
0
100
AcDbEllipse
10
57.671206
20
-5.40424
30
0
11
-1.24524337261468
21
-0.108944678434568
31
0
210
0
220
0
230
1
40
0.995971
41
0.0775566136750036
42
1.11689977333405
0
ELLIPSE
5
88
100
AcDbEntity
8
1
62
256
6
ByLayer
370
-1
48
1
60
0
100
AcDbEllipse
10
57.500868
20
-4.292344
30
0
11
-1.04600443299633
21
-0.0915135298850364
31
0
210
0
220
0
230
1
40
0.995971
41
0.185678771189551
42
1.10109552289397
0
ELLIPSE
5
89
100
AcDbEntity
8
1
62
256
6
ByLayer
370
-1
48
1
60
0
100
AcDbEllipse
10
57.497351
20
-4.252146
30
0
11
1.04600443299633
21
0.0915135298850395
31
0
210
0
220
0
230
1
40
0.995971
41
-3.02981745807228
42
-2.0405106212528
0
ELLIPSE
5
8A
100
AcDbEntity
8
1
62
256
6
ByLayer
370
-1
48
1
60
0
100
AcDbEllipse
10
57.68801
20
-5.596309
30
0
11
1.24524337261468
21
0.108944678434571
31
0
210
0
220
0
230
1
40
0.995971
41
2.96705972839035
42
-2.02468978391303
0
ELLIPSE
5
8B
100
AcDbEntity
8
1
62
256
6
ByLayer
370
-1
48
1
60
0
100
AcDbEllipse
10
57.517672
20
-4.484414
30
0
11
-1.04600443299633
21
-0.0915135298850364
31
0
210
0
220
0
230
1
40
0.995971
41
-2.8763084666895
42
0.185678771189508
0
ELLIPSE
5
8C
100
AcDbEntity
8
1
62
256
6
ByLayer
370
-1
48
1
60
0
100
AcDbEllipse
10
60.482873
20
-7.401142
30
0
11
1.867865058922
21
0.163417017651855
31
0
210
0
220
0
230
1
40
0.995971
41
3.05397497042939
42
-9.51222790971636E-16
0
ELLIPSE
5
8D
100
AcDbEntity
8
1
62
256
6
ByLayer
370
-1
48
1
60
0
100
AcDbEllipse
10
60.482873
20
-7.401142
30
0
11
1.867865058922
21
0.163417017651855
31
0
210
0
220
0
230
1
40
0.995971
41
0
42
0.889319295554921
0
ELLIPSE
5
8E
100
AcDbEntity
8
1
62
256
6
ByLayer
370
-1
48
1
60
0
100
AcDbEllipse
10
60.482873
20
-7.401142
30
0
11
1.867865058922
21
0.163417017651855
31
0
210
0
220
0
230
1
40
0.995971
41
2.2521814684687
42
3.05397497042939
0
ELLIPSE
5
8F
100
AcDbEntity
8
1
62
256
6
ByLayer
370
-1
48
1
60
0
100
AcDbEllipse
10
57.433375
20
-4.419199
30
0
11
0.395489295142434
21
0.0346008298708207
31
0
210
0
220
0
230
1
40
0.995971
41
1.39626340159566
42
-3.14159265358975
0
ELLIPSE
5
90
100
AcDbEntity
8
1
62
256
6
ByLayer
370
-1
48
1
60
0
100
AcDbEllipse
10
63.543
20
-10.504575
30
0
11
0.395489295142392
21
0.034600829870817
31
0
210
0
220
0
230
1
40
0.995971
41
-1.74532925199444
42
-1.25791427017668E-13
0
ELLIPSE
5
91
100
AcDbEntity
8
1
62
256
6
ByLayer
370
-1
48
1
60
0
100
AcDbEllipse
10
57.923102
20
-10.016799
30
0
11
0.395489295142381
21
0.034600829870816
31
0
210
0
220
0
230
1
40
0.995971
41
3.14159265358978
42
-1.74532925199438
0
ELLIPSE
5
92
100
AcDbEntity
8
1
62
256
6
ByLayer
370
-1
48
1
60
0
100
AcDbEllipse
10
60.488187
20
-7.461887
30
0
11
1.91523434805459
21
0.167561293450237
31
0
210
0
220
0
230
1
40
0.995971
41
0
42
6.28318530717959
0
ELLIPSE
5
93
100
AcDbEntity
8
1
62
256
6
ByLayer
370
-1
48
1
60
0
100
AcDbEllipse
10
63.053273
20
-4.906975
30
0
11
0.395489295142436
21
0.0346008298708208
31
0
210
0
220
0
230
1
40
0.995971
41
0
42
1.39626340159544
0
ELLIPSE
5
94
100
AcDbEntity
8
1
62
256
6
ByLayer
370
-1
48
1
60
0
100
AcDbEllipse
10
60.486955
20
-7.447805
30
0
11
0.745153634172637
21
0.0651924955752482
31
0
210
0
220
0
230
1
40
0.995971
41
-2.48119230470943
42
-2.40572960087465
0
ELLIPSE
5
95
100
AcDbEntity
8
1
62
256
6
ByLayer
370
-1
48
1
60
0
100
AcDbEllipse
10
60.486955
20
-7.447805
30
0
11
0.745153634172637
21
0.0651924955752482
31
0
210
0
220
0
230
1
40
0.995971
41
0.66040034888109
42
0.735863052714313
0
ELLIPSE
5
96
100
AcDbEntity
8
1
62
256
6
ByLayer
370
-1
48
1
60
0
100
AcDbEllipse
10
59.350573
20
-7.071582
30
0
11
-0.420394162594717
21
-0.0367797234395098
31
0
210
0
220
0
230
1
40
0.995971
41
-3.14158362578159
42
-2.71618776596617
0
ELLIPSE
5
97
100
AcDbEntity
8
1
62
256
6
ByLayer
370
-1
48
1
60
0
100
AcDbEllipse
10
60.488251
20
-7.462607
30
0
11
1.03106151252495
21
0.0902061937438238
31
0
210
0
220
0
230
1
40
0.995971
41
-1.91900419753381
42
-0.872664625997111
0
ELLIPSE
5
98
100
AcDbEntity
8
1
62
256
6
ByLayer
370
-1
48
1
60
0
100
AcDbEllipse
10
61.301712
20
-7.154575
30
0
11
-0.184296019146973
21
-0.016123812408316
31
0
210
0
220
0
230
1
40
0.995971
41
2.01719808550827
42
2.79029845740395
0
ELLIPSE
5
99
100
AcDbEntity
8
1
62
256
6
ByLayer
370
-1
48
1
60
0
100
AcDbEllipse
10
60.480435
20
-7.373277
30
0
11
0.745153634172624
21
0.065192495575247
31
0
210
0
220
0
230
1
40
0.995971
41
-1.39583441176545
42
-0.349494840228819
0
ELLIPSE
5
9A
100
AcDbEntity
8
1
62
256
6
ByLayer
370
-1
48
1
60
0
100
AcDbEllipse
10
60.488251
20
-7.462607
30
0
11
1.03106151252495
21
0.0902061937438238
31
0
210
0
220
0
230
1
40
0.995971
41
-0.872664625997111
42
0.173674945539515
0
ELLIPSE
5
9B
100
AcDbEntity
8
1
62
256
6
ByLayer
370
-1
48
1
60
0
100
AcDbEllipse
10
60.488251
20
-7.462607
30
0
11
1.03106151252495
21
0.0902061937438238
31
0
210
0
220
0
230
1
40
0.995971
41
0.173674945539516
42
1.22258845605588
0
ELLIPSE
5
9C
100
AcDbEntity
8
1
62
256
6
ByLayer
370
-1
48
1
60
0
100
AcDbEllipse
10
60.480435
20
-7.373277
30
0
11
-0.745153634172633
21
-0.0651924955752455
31
0
210
0
220
0
230
1
40
0.995971
41
-1.12633662949581
42
-0.349494840228872
0
ELLIPSE
5
9D
100
AcDbEntity
8
1
62
256
6
ByLayer
370
-1
48
1
60
0
100
AcDbEllipse
10
60.488251
20
-7.462607
30
0
11
1.03106151252495
21
0.0902061937438238
31
0
210
0
220
0
230
1
40
0.995971
41
2.26892802759256
42
-2.96791770805028
0
ELLIPSE
5
9E
100
AcDbEntity
8
1
62
256
6
ByLayer
370
-1
48
1
60
0
100
AcDbEllipse
10
60.260863
20
-8.191296
30
0
11
-0.184296019146973
21
-0.016123812408316
31
0
210
0
220
0
230
1
40
0.995971
41
0.345799571813476
42
2.52065796967661
0
ELLIPSE
5
9F
100
AcDbEntity
8
1
62
256
6
ByLayer
370
-1
48
1
60
0
100
AcDbEllipse
10
60.480435
20
-7.373277
30
0
11
-0.745153634172633
21
-0.0651924955752455
31
0
210
0
220
0
230
1
40
0.995971
41
2.79209781336098
42
-2.67042119303899
0
ELLIPSE
5
A0
100
AcDbEntity
8
1
62
256
6
ByLayer
370
-1
48
1
60
0
100
AcDbEllipse
10
59.653901
20
-8.196533
30
0
11
-0.420394162594717
21
-0.0367797234395098
31
0
210
0
220
0
230
1
40
0.995971
41
-3.14158590855983
42
-2.51037427510913
0
ELLIPSE
5
A1
100
AcDbEntity
8
1
62
256
6
ByLayer
370
-1
48
1
60
0
100
AcDbEllipse
10
60.488251
20
-7.462607
30
0
11
1.03106151252495
21
0.0902061937438238
31
0
210
0
220
0
230
1
40
0.995971
41
1.22258845605588
42
2.26892802759256
0
ELLIPSE
5
A2
100
AcDbEntity
8
1
62
256
6
ByLayer
370
-1
48
1
60
0
100
AcDbEllipse
10
60.480435
20
-7.373277
30
0
11
0.745153634172624
21
0.065192495575247
31
0
210
0
220
0
230
1
40
0.995971
41
-2.48119230470962
42
-2.40572960087445
0
ELLIPSE
5
A3
100
AcDbEntity
8
1
62
256
6
ByLayer
370
-1
48
1
60
0
100
AcDbEllipse
10
61.610298
20
-7.674972
30
0
11
-0.420394162594717
21
-0.0367797234395098
31
0
210
0
220
0
230
1
40
0.995971
41
-1.12439456808127
42
-0.349494840228797
0
ELLIPSE
5
A4
100
AcDbEntity
8
1
62
256
6
ByLayer
370
-1
48
1
60
0
100
AcDbEllipse
10
60.488251
20
-7.462607
30
0
11
1.29505310751928
21
0.113302465571954
31
0
210
0
220
0
230
1
40
0.995971
41
0
42
6.28318530717959
0
ELLIPSE
5
A5
100
AcDbEntity
8
1
62
256
6
ByLayer
370
-1
48
1
60
0
100
AcDbEllipse
10
60.480435
20
-7.373277
30
0
11
-0.745153634172633
21
-0.0651924955752455
31
0
210
0
220
0
230
1
40
0.995971
41
-0.140573398525423
42
0.660400348880183
0
ELLIPSE
5
A6
100
AcDbEntity
8
1
62
256
6
ByLayer
370
-1
48
1
60
0
100
AcDbEllipse
10
60.783334
20
-8.498657
30
0
11
-0.420394162594717
21
-0.0367797234395098
31
0
210
0
220
0
230
1
40
0.995971
41
-1.39583441176544
42
-0.620934683913
0
ELLIPSE
5
A7
100
AcDbEntity
8
1
62
256
6
ByLayer
370
-1
48
1
60
0
100
AcDbEllipse
10
59.659158
20
-7.591979
30
0
11
-0.184296019146973
21
-0.016123812408316
31
0
210
0
220
0
230
1
40
0.995971
41
0.241090306519673
42
1.47521790069013
0
ELLIPSE
5
A8
100
AcDbEntity
8
1
62
256
6
ByLayer
370
-1
48
1
60
0
100
AcDbEllipse
10
60.488251
20
-7.462607
30
0
11
1.03106151252495
21
0.0902061937438238
31
0
210
0
220
0
230
1
40
0.995971
41
-2.96791770805028
42
-1.91900419753381
0
ELLIPSE
5
A9
100
AcDbEntity
8
1
62
256
6
ByLayer
370
-1
48
1
60
0
100
AcDbEllipse
10
60.480435
20
-7.373277
30
0
11
-0.745153634172633
21
-0.0651924955752455
31
0
210
0
220
0
230
1
40
0.995971
41
0.735863052715336
42
1.74575824182434
0
ELLIPSE
5
AA
100
AcDbEntity
8
1
62
256
6
ByLayer
370
-1
48
1
60
0
100
AcDbEllipse
10
61.610298
20
-7.674972
30
0
11
-0.420394162594717
21
-0.0367797234395098
31
0
210
0
220
0
230
1
40
0.995971
41
-0.349494840228797
42
8.78428288403577E-06
0
ELLIPSE
5
AB
100
AcDbEntity
8
1
62
256
6
ByLayer
370
-1
48
1
60
0
100
AcDbEllipse
10
60.480435
20
-7.373277
30
0
11
-0.745153634172633
21
-0.0651924955752455
31
0
210
0
220
0
230
1
40
0.995971
41
-2.2948934148299
42
-1.62956240599495
0
ELLIPSE
5
AC
100
AcDbEntity
8
1
62
256
6
ByLayer
370
-1
48
1
60
0
100
AcDbEllipse
10
61.081247
20
-7.971705
30
0
11
-0.184296019146973
21
-0.016123812408316
31
0
210
0
220
0
230
1
40
0.995971
41
0.97085851397182
42
2.93970420766008
0
ELLIPSE
5
AD
100
AcDbEntity
8
1
62
256
6
ByLayer
370
-1
48
1
60
0
100
AcDbEllipse
10
59.653901
20
-8.196533
30
0
11
-0.420394162594717
21
-0.0367797234395098
31
0
210
0
220
0
230
1
40
0.995971
41
-2.37654763047475
42
-1.6663747529001
0
ELLIPSE
5
AE
100
AcDbEntity
8
1
62
256
6
ByLayer
370
-1
48
1
60
0
100
AcDbEllipse
10
60.486891
20
-7.447071
30
0
11
1.71843585420826
21
0.150343656239708
31
0
210
0
220
0
230
1
40
0.995971
41
0
42
6.28318530717959
0
ELLIPSE
5
AF
100
AcDbEntity
8
1
62
256
6
ByLayer
370
-1
48
1
60
0
100
AcDbEllipse
10
60.481217
20
-7.38221
30
0
11
1.71843585420826
21
0.150343656239707
31
0
210
0
220
0
230
1
40
0.995971
41
3.05397497042942
42
-3.14154037133422
0
ELLIPSE
5
B0
100
AcDbEntity
8
1
62
256
6
ByLayer
370
-1
48
1
60
0
100
AcDbEllipse
10
60.481217
20
-7.38221
30
0
11
1.71843585420826
21
0.150343656239707
31
0
210
0
220
0
230
1
40
0.995971
41
0
42
3.05397517581489
0
ELLIPSE
5
B1
100
AcDbEntity
8
1
62
256
6
ByLayer
370
-1
48
1
60
0
100
AcDbEllipse
10
60.783334
20
-8.498657
30
0
11
-0.420394162594717
21
-0.0367797234395098
31
0
210
0
220
0
230
1
40
0.995971
41
-2.17073413961802
42
-1.39583441176544
0
POINT
5
41
100
AcDbEntity
8
80
62
256
6
ByLayer
370
-1
48
1
60
0
100
AcDbPoint
10
0
20
0
30
0
39
0
210
0
220
0
230
1
50
360
0
POINT
5
43
100
AcDbEntity
8
81
62
256
6
ByLayer
370
-1
48
1
60
0
100
AcDbPoint
10
63.94
20
-10.9
30
0
39
0
210
0
220
0
230
1
50
360
0
POINT
5
45
100
AcDbEntity
8
1
62
256
6
ByLayer
370
-1
48
1
60
0
100
AcDbPoint
10
-137.31
20
0
30
0
39
0
210
0
220
0
230
1
50
360
0
POINT
5
47
100
AcDbEntity
8
2
62
256
6
ByLayer
370
-1
48
1
60
0
100
AcDbPoint
10
63.94
20
10.9
30
0
39
0
210
0
220
0
230
1
50
360
0
SPLINE
5
B2
100
AcDbEntity
8
1
62
256
6
ByLayer
370
-1
48
1
60
0
100
AcDbSpline
70
4
71
3
72
8
73
4
40
0
40
0
40
0
40
0
40
1
40
1
40
1
40
1
41
1
10
52.0354054971512
20
-7.90932098963123
30
0
41
1
10
52.8853770903026
20
-8.40983434891854
30
0
41
1
10
53.7480734573049
20
-8.90640910008125
30
0
41
1
10
54.6180089230994
20
-9.40853640595668
30
0
0
SPLINE
5
B3
100
AcDbEntity
8
1
62
256
6
ByLayer
370
-1
48
1
60
0
100
AcDbSpline
70
4
71
3
72
8
73
4
40
0
40
0
40
0
40
0
40
1
40
1
40
1
40
1
41
1
10
50.1653093077188
20
7.10546248105302
30
0
41
1
10
50.1902991702345
20
7.08645906097945
30
0
41
1
10
50.2152993251701
20
7.06739001607087
30
0
41
1
10
50.2403093077191
20
7.04825645567317
30
0
0
SPLINE
5
B4
100
AcDbEntity
8
1
62
256
6
ByLayer
370
-1
48
1
60
0
100
AcDbSpline
70
4
71
3
72
8
73
4
40
0
40
0
40
0
40
0
40
1
40
1
40
1
40
1
41
1
10
54.6180089230994
20
-9.40853640595671
30
0
41
1
10
54.7255152904001
20
-9.4705891497517
30
0
41
1
10
54.8330243715249
20
-9.5326372330311
30
0
41
1
10
54.9405360100001
20
-9.59468092322797
30
0
0
SPLINE
5
B5
100
AcDbEntity
8
1
62
256
6
ByLayer
370
-1
48
1
60
0
100
AcDbSpline
70
4
71
3
72
8
73
4
40
0
40
0
40
0
40
0
40
1
40
1
40
1
40
1
41
1
10
52.0354054971514
20
-7.90932098963091
30
0
41
1
10
51.6441924052125
20
-7.90641079986241
30
0
41
1
10
51.2547766491336
20
-7.90219705695179
30
0
41
1
10
50.8684124161919
20
-7.89560310619211
30
0
0
SPLINE
5
B6
100
AcDbEntity
8
1
62
256
6
ByLayer
370
-1
48
1
60
0
100
AcDbSpline
70
4
71
3
72
8
73
4
40
0
40
0
40
0
40
0
40
1
40
1
40
1
40
1
41
1
10
57.5073909415905
20
-9.82052278072459
30
0
41
1
10
56.6517703524345
20
-9.74526765822023
30
0
41
1
10
55.7961519866901
20
-9.66998764794047
30
0
41
1
10
54.9405360100001
20
-9.59468092322797
30
0
0
SPLINE
5
B7
100
AcDbEntity
8
1
62
256
6
ByLayer
370
-1
48
1
60
0
100
AcDbSpline
70
4
71
3
72
10
73
6
40
0
40
0
40
0
40
0
40
0.5
40
0.5
40
1
40
1
40
1
40
1
41
1
10
50.1653093077191
20
7.10546248105345
30
0
41
1
10
48.8533857351132
20
6.7841215646981
30
0
41
1
10
47.6527890828926
20
6.32030025844762
30
0
41
1
10
45.4565909424794
20
4.90146664119081
30
0
41
1
10
44.4861147836237
20
3.94536164699815
30
0
41
1
10
43.7031317337373
20
2.76225564530128
30
0
0
SPLINE
5
B8
100
AcDbEntity
8
1
62
256
6
ByLayer
370
-1
48
1
60
0
100
AcDbSpline
70
4
71
3
72
8
73
4
40
0
40
0
40
0
40
0
40
1
40
1
40
1
40
1
41
1
10
50.2403093077191
20
7.04825645567314
30
0
41
1
10
50.5276063396796
20
7.11736436482096
30
0
41
1
10
50.818928886136
20
7.17924371312091
30
0
41
1
10
51.1136055077634
20
7.23482180795472
30
0
0
SPLINE
5
B9
100
AcDbEntity
8
1
62
256
6
ByLayer
370
-1
48
1
60
0
100
AcDbSpline
70
4
71
3
72
28
73
24
40
-0.124999999999988
40
-0.124999999999988
40
0
40
0
40
0.125000000000002
40
0.125000000000002
40
0.187500000000005
40
0.187500000000005
40
0.250000000000008
40
0.250000000000008
40
0.375000000000013
40
0.375000000000013
40
0.500000000000018
40
0.500000000000018
40
0.625000000000023
40
0.625000000000023
40
0.687500000000026
40
0.687500000000026
40
0.718750000000025
40
0.718750000000025
40
0.750000000000024
40
0.750000000000024
40
0.875000000000012
40
0.875000000000012
40
1
40
1
40
1.125
40
1.125
41
1
10
50.2192002753114
20
-3.38482006437423
30
0
41
1
10
48.9755633343356
20
-2.8346520074123
30
0
41
1
10
48.3386775488391
20
-2.63061302159559
30
0
41
1
10
47.3470701671762
20
-2.7093902316075
30
0
41
1
10
46.999718385169
20
-2.81105532483016
30
0
41
1
10
46.4918296423428
20
-3.32635386536012
30
0
41
1
10
46.4034714292451
20
-3.74338848643003
30
0
41
1
10
46.6382388283366
20
-4.76967311212397
30
0
41
1
10
47.1874602449369
20
-5.21073493366063
30
0
41
1
10
48.3236839460947
20
-5.8718013923031
30
0
41
1
10
48.9734168796792
20
-6.0970739305304
30
0
41
1
10
50.314422332107
20
-6.42306544253259
30
0
41
1
10
51.0099018529799
20
-6.53161513440094
30
0
41
1
10
52.0998178774959
20
-6.56729666261427
30
0
41
1
10
52.4747212373071
20
-6.57468912057752
30
0
41
1
10
53.0008910601737
20
-6.40074272930011
30
0
41
1
10
53.1783724565212
20
-6.26281971502993
30
0
41
1
10
53.1633053638805
20
-5.89226643723325
30
0
41
1
10
53.0556049777606
20
-5.73142246752127
30
0
41
1
10
52.5194297827184
20
-4.99691857173642
30
0
41
1
10
51.9418718072153
20
-4.55726460719083
30
0
41
1
10
50.8064532040191
20
-3.73977523488159
30
0
41
1
10
50.2192002753114
20
-3.38482006437423
30
0
41
1
10
48.9755633343356
20
-2.8346520074123
30
0
0
SPLINE
5
BA
100
AcDbEntity
8
1
62
256
6
ByLayer
370
-1
48
1
60
0
100
AcDbSpline
70
4
71
3
72
10
73
6
40
0
40
0
40
0
40
0
40
0.5
40
0.5
40
1
40
1
40
1
40
1
41
1
10
41.8147899893955
20
-2.76225564530173
30
0
41
1
10
41.771762343096
20
-3.74790013995144
30
0
41
1
10
41.9333246302601
20
-4.67673784460237
30
0
41
1
10
42.7321300488398
20
-6.12997209430964
30
0
41
1
10
43.3574721411654
20
-6.64998770012826
30
0
41
1
10
44.1073874253603
20
-7.00750000000048
30
0
0
SPLINE
5
BB
100
AcDbEntity
8
1
62
256
6
ByLayer
370
-1
48
1
60
0
100
AcDbSpline
70
4
71
3
72
12
73
8
40
0
40
0
40
0
40
0
40
0.462594138436103
40
0.462594138436103
40
0.844310006966349
40
0.844310006966349
40
1
40
1
40
1
40
1
41
1
10
61.3105961535239
20
-7.05355074501927
30
0
41
1
10
61.2671273895295
20
-7.05121154242204
30
0
41
1
10
61.2222606601223
20
-7.04223600820507
30
0
41
1
10
61.1429414819265
20
-7.0129539364319
30
0
41
1
10
61.1071760302751
20
-6.99448884603473
30
0
41
1
10
61.0609925816649
20
-6.9621204269713
30
0
41
1
10
61.0479809342032
20
-6.95191611519965
30
0
41
1
10
61.0356080014423
20
-6.94105952010179
30
0
0
SPLINE
5
BC
100
AcDbEntity
8
1
62
256
6
ByLayer
370
-1
48
1
60
0
100
AcDbSpline
70
4
71
3
72
14
73
10
40
0
40
0
40
0
40
0
40
0.279596494869605
40
0.279596494869605
40
0.567426496503728
40
0.567426496503728
40
0.828180425734239
40
0.828180425734239
40
1
40
1
40
1
40
1
41
1
10
60.427384577996
20
-8.36823251882987
30
0
41
1
10
60.416883104842
20
-8.38702682796912
30
0
41
1
10
60.4029588713151
20
-8.40450580310281
30
0
41
1
10
60.3693457972115
20
-8.43398848661502
30
0
41
1
10
60.3489489681612
20
-8.44624158900342
30
0
41
1
10
60.3070554692767
20
-8.46124546102106
30
0
41
1
10
60.2851991816143
20
-8.46497152364816
30
0
41
1
10
60.2492714513563
20
-8.46436582275567
30
0
41
1
10
60.2348059637601
20
-8.46236267433545
30
0
41
1
10
60.2208890444696
20
-8.45866570877794
30
0
0
SPLINE
5
BD
100
AcDbEntity
8
1
62
256
6
ByLayer
370
-1
48
1
60
0
100
AcDbSpline
70
4
71
3
72
14
73
10
40
0
40
0
40
0
40
0
40
0.222907190143796
40
0.222907190143796
40
0.517817262021014
40
0.517817262021014
40
0.784439175457133
40
0.784439175457133
40
1
40
1
40
1
40
1
41
1
10
60.5480542463172
20
-6.54484163779432
30
0
41
1
10
60.5565672279496
20
-6.53137275944755
30
0
41
1
10
60.5672122800657
20
-6.51870836676147
30
0
41
1
10
60.5960105584756
20
-6.49293897056455
30
0
41
1
10
60.6160181109701
20
-6.4806191740953
30
0
41
1
10
60.6577735572617
20
-6.46488857442731
30
0
41
1
10
60.6798234765637
20
-6.46053416595737
30
0
41
1
10
60.7197978172117
20
-6.4597309575708
30
0
41
1
10
60.7381692231732
20
-6.46191565194252
30
0
41
1
10
60.7556119610864
20
-6.46654923498971
30
0
0
SPLINE
5
BE
100
AcDbEntity
8
1
62
256
6
ByLayer
370
-1
48
1
60
0
100
AcDbSpline
70
4
71
3
72
16
73
12
40
0
40
0
40
0
40
0
40
0.0632950530506234
40
0.0632950530506234
40
0.287251063975808
40
0.287251063975808
40
0.51398721349935
40
0.51398721349935
40
0.755088872946643
40
0.755088872946643
40
1
40
1
40
1
40
1
41
1
10
60.2208890444696
20
-8.45866570877794
30
0
41
1
10
60.2157265555126
20
-8.45729431734665
30
0
41
1
10
60.2106172811924
20
-8.45568807561284
30
0
41
1
10
60.1879480365048
20
-8.44742832965497
30
0
41
1
10
60.1711206283373
20
-8.43805207952138
30
0
41
1
10
60.1414948689932
20
-8.41499017291045
30
0
41
1
10
60.1283627981086
20
-8.40097083931823
30
0
41
1
10
60.1065439171059
20
-8.36952514439031
30
0
41
1
10
60.0979017279794
20
-8.35155718510296
30
0
41
1
10
60.0863466747268
20
-8.31457392161386
30
0
41
1
10
60.0833751426854
20
-8.29514990459981
30
0
41
1
10
60.083156124451
20
-8.27612257675287
30
0
0
SPLINE
5
BF
100
AcDbEntity
8
1
62
256
6
ByLayer
370
-1
48
1
60
0
100
AcDbSpline
70
4
71
3
72
14
73
10
40
0
40
0
40
0
40
0
40
0.0392748163444261
40
0.0392748163444261
40
0.376888084537443
40
0.376888084537443
40
0.821581980367633
40
0.821581980367633
40
1
40
1
40
1
40
1
41
1
10
59.9781917643783
20
-7.99428189776029
30
0
41
1
10
59.9809386482165
20
-7.99743144254697
30
0
41
1
10
59.9836376929632
20
-8.00062463537429
30
0
41
1
10
60.0088394976154
20
-8.03138861273166
30
0
41
1
10
60.0278713057156
20
-8.06219868966693
30
0
41
1
10
60.0616743338555
20
-8.13547741168711
30
0
41
1
10
60.0738976055301
20
-8.17972673338329
30
0
41
1
10
60.0817434074688
20
-8.24090383553431
30
0
41
1
10
60.0829541576347
20
-8.25857660009797
30
0
41
1
10
60.083156124451
20
-8.27612257675287
30
0
0
SPLINE
5
C0
100
AcDbEntity
8
1
62
256
6
ByLayer
370
-1
48
1
60
0
100
AcDbSpline
70
4
71
3
72
20
73
16
40
0
40
0
40
0
40
0
40
0.0711899514889249
40
0.0711899514889249
40
0.275804338918036
40
0.275804338918036
40
0.440906958012695
40
0.440906958012695
40
0.606907784219524
40
0.606907784219524
40
0.761293383326796
40
0.761293383326796
40
0.979036881249775
40
0.979036881249775
40
1
40
1
40
1
40
1
41
1
10
59.7256645653594
20
-6.94854688528548
30
0
41
1
10
59.7327313492799
20
-6.96049187115435
30
0
41
1
10
59.7392001836823
20
-6.97291948797206
30
0
41
1
10
59.7615945276264
20
-7.02253921581894
30
0
41
1
10
59.7729472540682
20
-7.06356754188909
30
0
41
1
10
59.7806943354389
20
-7.14159870567735
30
0
41
1
10
59.7795391501721
20
-7.17873536751861
30
0
41
1
10
59.7670256109192
20
-7.25225071159201
30
0
41
1
10
59.7553950489838
20
-7.28958792710071
30
0
41
1
10
59.7248534800158
20
-7.35604572880587
30
0
41
1
10
59.7062102364751
20
-7.38635890464718
30
0
41
1
10
59.655694265743
20
-7.45121144244442
30
0
41
1
10
59.6207348014553
20
-7.48363945117228
30
0
41
1
10
59.5797538294161
20
-7.51180792188194
30
0
41
1
10
59.5760860377608
20
-7.51425069575265
30
0
41
1
10
59.5723924715206
20
-7.51663380271728
30
0
0
SPLINE
5
C1
100
AcDbEntity
8
1
62
256
6
ByLayer
370
-1
48
1
60
0
100
AcDbSpline
70
4
71
3
72
16
73
12
40
0
40
0
40
0
40
0
40
0.170832682608473
40
0.170832682608473
40
0.478015043238938
40
0.478015043238938
40
0.749890127292274
40
0.749890127292274
40
0.991552128714892
40
0.991552128714892
40
1
40
1
40
1
40
1
41
1
10
61.2497742589598
20
-7.96452727133422
30
0
41
1
10
61.2560600081039
20
-7.9761496875231
30
0
41
1
10
61.2612847530283
20
-7.9885644290095
30
0
41
1
10
61.2722629498565
20
-8.02454520295922
30
0
41
1
10
61.275243083735
20
-8.04985709481926
30
0
41
1
10
61.2714177404984
20
-8.09688387999861
30
0
41
1
10
61.2655921295383
20
-8.1193975989359
30
0
41
1
10
61.2473672536707
20
-8.15813212108833
30
0
41
1
10
61.2354893542391
20
-8.17532032154358
30
0
41
1
10
61.2208410943465
20
-8.19026551391036
30
0
41
1
10
61.2203358473047
20
-8.19077484374134
30
0
41
1
10
61.2198276366121
20
-8.1912810387999
30
0
0
SPLINE
5
C2
100
AcDbEntity
8
1
62
256
6
ByLayer
370
-1
48
1
60
0
100
AcDbSpline
70
4
71
3
72
18
73
14
40
0
40
0
40
0
40
0
40
0.205222972546418
40
0.205222972546418
40
0.382259154093188
40
0.382259154093188
40
0.561029098572691
40
0.561029098572691
40
0.716232836048888
40
0.716232836048888
40
0.921024014228481
40
0.921024014228481
40
1
40
1
40
1
40
1
41
1
10
60.427384577996
20
-8.36823251882987
30
0
41
1
10
60.448439836274
20
-8.33055027870145
30
0
41
1
10
60.4755796919215
20
-8.29500357120017
30
0
41
1
10
60.5362198830852
20
-8.23773462084336
30
0
41
1
10
60.5691007439052
20
-8.21421387271275
30
0
41
1
10
60.6409892710553
20
-8.17798015030803
30
0
41
1
10
60.6811789647323
20
-8.1649590616864
30
0
41
1
10
60.7562490064033
20
-8.15319354480721
30
0
41
1
10
60.792017883645
20
-8.1525928910514
30
0
41
1
10
60.8709849446209
20
-8.16134166713749
30
0
41
1
10
60.9142811497444
20
-8.17391474157404
30
0
41
1
10
60.9687517626431
20
-8.19899555497028
30
0
41
1
10
60.9835353444891
20
-8.20690073086473
30
0
41
1
10
60.9977341597697
20
-8.21556774454405
30
0
0
SPLINE
5
C3
100
AcDbEntity
8
1
62
256
6
ByLayer
370
-1
48
1
60
0
100
AcDbSpline
70
4
71
3
72
16
73
12
40
0
40
0
40
0
40
0
40
0.0456958654740245
40
0.0456958654740245
40
0.270653615860567
40
0.270653615860567
40
0.497392450486617
40
0.497392450486617
40
0.737720107218003
40
0.737720107218003
40
1
40
1
40
1
40
1
41
1
10
59.7566733689438
20
-6.73393390496773
30
0
41
1
10
59.7593992423967
20
-6.73121884270697
30
0
41
1
10
59.7622115291312
20
-6.72858195131948
30
0
41
1
10
59.7791988066113
20
-6.71358908944052
30
0
41
1
10
59.7953948282254
20
-6.70309501256406
30
0
41
1
10
59.8293778091594
20
-6.6874464168292
30
0
41
1
10
59.8476043354258
20
-6.68212241090561
30
0
41
1
10
59.8846633571808
20
-6.67671396091328
30
0
41
1
10
59.903929026466
20
-6.67687564731432
30
0
41
1
10
59.9418631592999
20
-6.68268613577283
30
0
41
1
10
59.9607952118629
20
-6.68888379880192
30
0
41
1
10
59.9777046645447
20
-6.69750641207884
30
0
0
SPLINE
5
C4
100
AcDbEntity
8
1
62
256
6
ByLayer
370
-1
48
1
60
0
100
AcDbSpline
70
4
71
3
72
18
73
14
40
0
40
0
40
0
40
0
40
0.205241204428988
40
0.205241204428988
40
0.382274154968307
40
0.382274154968307
40
0.561040656007915
40
0.561040656007915
40
0.716243701944268
40
0.716243701944268
40
0.921038059262969
40
0.921038059262969
40
1
40
1
40
1
40
1
41
1
10
61.2497742589551
20
-7.9645272713374
30
0
41
1
10
61.2291650032096
20
-7.92642054099684
30
0
41
1
10
61.2133730874953
20
-7.88419779881093
30
0
41
1
10
61.1962691297378
20
-7.80169335106956
30
0
41
1
10
61.1931710532107
20
-7.76098464495843
30
0
41
1
10
61.1987265169907
20
-7.68018712686808
30
0
41
1
10
61.2076986842656
20
-7.63892950968656
30
0
41
1
10
61.2346152868843
20
-7.56866987605099
30
0
41
1
10
61.2514926644441
20
-7.53790354219294
30
0
41
1
10
61.2969815092571
20
-7.47538614696069
30
0
41
1
10
61.3282801527991
20
-7.4452771014202
30
0
41
1
10
61.3753354013718
20
-7.41228870844876
30
0
41
1
10
61.3890145410877
20
-7.40391648687745
30
0
41
1
10
61.4030463527939
20
-7.39644035390583
30
0
0
SPLINE
5
C5
100
AcDbEntity
8
1
62
256
6
ByLayer
370
-1
48
1
60
0
100
AcDbSpline
70
4
71
3
72
14
73
10
40
0
40
0
40
0
40
0
40
0.254776387551278
40
0.254776387551278
40
0.545713536753329
40
0.545713536753329
40
0.808989420989399
40
0.808989420989399
40
1
40
1
40
1
40
1
41
1
10
59.7256645653594
20
-6.94854688528557
30
0
41
1
10
59.716448545998
20
-6.93296904644413
30
0
41
1
10
59.7095704558755
20
-6.91545923773563
30
0
41
1
10
59.7014256483702
20
-6.87604934565496
30
0
41
1
10
59.7010167544359
20
-6.8532293341504
30
0
41
1
10
59.7088538578495
20
-6.81061861095679
30
0
41
1
10
59.7164383376872
20
-6.79010615987784
30
0
41
1
10
59.7354116540546
20
-6.75800933917307
30
0
41
1
10
59.7453501283508
20
-6.7452122360186
30
0
41
1
10
59.7566733689438
20
-6.73393390496773
30
0
0
SPLINE
5
C6
100
AcDbEntity
8
1
62
256
6
ByLayer
370
-1
48
1
60
0
100
AcDbSpline
70
4
71
3
72
18
73
14
40
0
40
0
40
0
40
0
40
0.0446740349107753
40
0.0446740349107753
40
0.269670392075143
40
0.269670392075143
40
0.496389483381531
40
0.496389483381531
40
0.736650770850541
40
0.736650770850541
40
0.999798277384904
40
0.999798277384904
40
1
40
1
40
1
40
1
41
1
10
61.4882759962268
20
-7.1963053893939
30
0
41
1
10
61.4892467242309
20
-7.19993065497849
30
0
41
1
10
61.4901062181529
20
-7.20358276053412
30
0
41
1
10
61.4945736605623
20
-7.225555128569
30
0
41
1
10
61.4954252782961
20
-7.24452093458936
30
0
41
1
10
61.4914650202637
20
-7.28084132846675
30
0
41
1
10
61.4865733891817
20
-7.29864793136286
30
0
41
1
10
61.4717286350585
20
-7.33187862816632
30
0
41
1
10
61.4613227324945
20
-7.34752165895611
30
0
41
1
10
61.4357933136016
20
-7.37533446976786
30
0
41
1
10
61.4200111097735
20
-7.38739600832704
30
0
41
1
10
61.4030725960524
20
-7.39642636938237
30
0
41
1
10
61.4030594748215
20
-7.39643336250478
30
0
41
1
10
61.4030463527942
20
-7.39644035390569
30
0
0
SPLINE
5
C7
100
AcDbEntity
8
1
62
256
6
ByLayer
370
-1
48
1
60
0
100
AcDbSpline
70
4
71
3
72
18
73
14
40
0
40
0
40
0
40
0
40
0.0230372481634579
40
0.0230372481634579
40
0.247961987624329
40
0.247961987624329
40
0.473366505690398
40
0.473366505690398
40
0.711267148985984
40
0.711267148985984
40
0.971235080215693
40
0.971235080215693
40
1
40
1
40
1
40
1
41
1
10
60.7556119610864
20
-6.46654923498971
30
0
41
1
10
60.7574986354027
20
-6.46705042133849
30
0
41
1
10
60.7593774926882
20
-6.46758014817598
30
0
41
1
10
60.779292843801
20
-6.47352253390207
30
0
41
1
10
60.7966868667551
20
-6.48168449585916
30
0
41
1
10
60.827452945012
20
-6.50207469178716
30
0
41
1
10
60.8412178288532
20
-6.51456173927156
30
0
41
1
10
60.8643665170534
20
-6.54267630102524
30
0
41
1
10
60.8737708274743
20
-6.55878067846751
30
0
41
1
10
60.8874567709613
20
-6.59331075301651
30
0
41
1
10
60.8913750926726
20
-6.61223895134128
30
0
41
1
10
60.8922223142565
20
-6.63277087064242
30
0
41
1
10
60.8922690059124
20
-6.63483373302745
30
0
41
1
10
60.8922775208171
20
-6.63689238309868
30
0
0
SPLINE
5
C8
100
AcDbEntity
8
1
62
256
6
ByLayer
370
-1
48
1
60
0
100
AcDbSpline
70
4
71
3
72
14
73
10
40
0
40
0
40
0
40
0
40
0.25546609232573
40
0.25546609232573
40
0.545753585322432
40
0.545753585322432
40
0.808427330214736
40
0.808427330214736
40
1
40
1
40
1
40
1
41
1
10
61.3105961535239
20
-7.05355074501918
30
0
41
1
10
61.329727507172
20
-7.05458026847535
30
0
41
1
10
61.3493409137017
20
-7.05856483005206
30
0
41
1
10
61.3893958810551
20
-7.07348820900935
30
0
41
1
10
61.4102151288021
20
-7.08559299916104
30
0
41
1
10
61.4444921935072
20
-7.11520584165919
30
0
41
1
10
61.4589561767216
20
-7.13256890683925
30
0
41
1
10
61.4778501041062
20
-7.16562997577685
30
0
41
1
10
61.4841276765315
20
-7.18081313969799
30
0
41
1
10
61.4882759962268
20
-7.1963053893939
30
0
0
SPLINE
5
C9
100
AcDbEntity
8
1
62
256
6
ByLayer
370
-1
48
1
60
0
100
AcDbSpline
70
4
71
3
72
16
73
12
40
0
40
0
40
0
40
0
40
0.0636982727190968
40
0.0636982727190968
40
0.28829023941233
40
0.28829023941233
40
0.515682795443567
40
0.515682795443567
40
0.757492053218001
40
0.757492053218001
40
1
40
1
40
1
40
1
41
1
10
59.4882250093291
20
-7.7289095543737
30
0
41
1
10
59.4868433525705
20
-7.72374964070468
30
0
41
1
10
59.4856851485359
20
-7.71851372610496
30
0
41
1
10
59.4815099014689
20
-7.69476044933299
30
0
41
1
10
59.4811205823719
20
-7.67546897889846
30
0
41
1
10
59.4858975125973
20
-7.63812155472087
30
0
41
1
10
59.4911792290886
20
-7.61960675273539
30
0
41
1
10
59.5067363908152
20
-7.58462992727939
30
0
41
1
10
59.5174839025021
20
-7.56792624716411
30
0
41
1
10
59.5424544011102
20
-7.5390710855319
30
0
41
1
10
59.5569351581495
20
-7.52660693674332
30
0
41
1
10
59.5723924715206
20
-7.51663380271728
30
0
0
SPLINE
5
CA
100
AcDbEntity
8
1
62
256
6
ByLayer
370
-1
48
1
60
0
100
AcDbSpline
70
4
71
3
72
12
73
8
40
0
40
0
40
0
40
0
40
0.44451273378278
40
0.44451273378278
40
0.829287474777264
40
0.829287474777264
40
1
40
1
40
1
40
1
41
1
10
59.6648374917434
20
-7.85946421483234
30
0
41
1
10
59.7062807513699
20
-7.85787585109821
30
0
41
1
10
59.7490023754494
20
-7.86262136686452
30
0
41
1
10
59.8265822197277
20
-7.88488017453577
30
0
41
1
10
59.8625863228993
20
-7.90095645782068
30
0
41
1
10
59.9104641541257
20
-7.93211346397985
30
0
41
1
10
59.9247611075795
20
-7.94284826175283
30
0
41
1
10
59.9383029911136
20
-7.95455143961669
30
0
0
SPLINE
5
CB
100
AcDbEntity
8
1
62
256
6
ByLayer
370
-1
48
1
60
0
100
AcDbSpline
70
4
71
3
72
18
73
14
40
0
40
0
40
0
40
0
40
0.211899349054838
40
0.211899349054838
40
0.387760065577207
40
0.387760065577207
40
0.565276427420534
40
0.565276427420534
40
0.720241206969205
40
0.720241206969205
40
0.926207749192866
40
0.926207749192866
40
1
40
1
40
1
40
1
41
1
10
60.5480542463177
20
-6.54484163779455
30
0
41
1
10
60.5259659251383
20
-6.57978884239157
30
0
41
1
10
60.4973888810246
20
-6.61270925139777
30
0
41
1
10
60.4346928318366
20
-6.66476216735424
30
0
41
1
10
60.4015679361584
20
-6.68581295313257
30
0
41
1
10
60.3295600273274
20
-6.71884778226865
30
0
41
1
10
60.289518205777
20
-6.73114558203477
30
0
41
1
10
60.2148404299816
20
-6.74356721939594
30
0
41
1
10
60.1792815728237
20
-6.74523242008326
30
0
41
1
10
60.1006221821106
20
-6.74013963455434
30
0
41
1
10
60.0575094481972
20
-6.73047230197537
30
0
41
1
10
60.0044969439453
20
-6.71027647734729
30
0
41
1
10
59.9908449786834
20
-6.70420703387231
30
0
41
1
10
59.9777046645447
20
-6.69750641207889
30
0
0
SPLINE
5
CC
100
AcDbEntity
8
1
62
256
6
ByLayer
370
-1
48
1
60
0
100
AcDbSpline
70
4
71
3
72
16
73
12
40
0
40
0
40
0
40
0
40
0.218097872867148
40
0.218097872867148
40
0.443303540532875
40
0.443303540532875
40
0.67952338036118
40
0.67952338036118
40
0.936712104639498
40
0.936712104639498
40
1
40
1
40
1
40
1
41
1
10
61.2198276366121
20
-8.1912810387999
30
0
41
1
10
61.2069351428257
20
-8.2041223991684
30
0
41
1
10
61.1919078594397
20
-8.21505268300294
30
0
41
1
10
61.1594600256314
20
-8.2317999171494
30
0
41
1
10
61.1415642990131
20
-8.23765777806034
30
0
41
1
10
61.1049059110446
20
-8.24373841890474
30
0
41
1
10
61.0856864991366
20
-8.24376678273242
30
0
41
1
10
61.0474260472559
20
-8.23800998969426
30
0
41
1
10
61.028070124102
20
-8.23165860696585
30
0
41
1
10
61.0061609636922
20
-8.22049377579233
30
0
41
1
10
61.00189368118
20
-8.2181067330618
30
0
41
1
10
60.9977341597697
20
-8.21556774454405
30
0
0
SPLINE
5
CD
100
AcDbEntity
8
1
62
256
6
ByLayer
370
-1
48
1
60
0
100
AcDbSpline
70
4
71
3
72
14
73
10
40
0
40
0
40
0
40
0
40
0.281947963393322
40
0.281947963393322
40
0.568922961150359
40
0.568922961150359
40
0.828906449595094
40
0.828906449595094
40
1
40
1
40
1
40
1
41
1
10
59.6648374917434
20
-7.85946421483231
30
0
41
1
10
59.6438994442716
20
-7.86026669117135
30
0
41
1
10
59.6223312593977
20
-7.85735827891645
30
0
41
1
10
59.5811923349105
20
-7.84364611023744
30
0
41
1
10
59.5610403518995
20
-7.83245134898419
30
0
41
1
10
59.5281028698288
20
-7.8042072695126
30
0
41
1
10
59.5143311925587
20
-7.78735304789527
30
0
41
1
10
59.4973143640764
20
-7.75619287922615
30
0
41
1
10
59.491931570966
20
-7.7427520213503
30
0
41
1
10
59.4882250093291
20
-7.7289095543737
30
0
0
SPLINE
5
CE
100
AcDbEntity
8
1
62
256
6
ByLayer
370
-1
48
1
60
0
100
AcDbSpline
70
4
71
3
72
14
73
10
40
0
40
0
40
0
40
0
40
0.0508426108550614
40
0.0508426108550614
40
0.387498685914036
40
0.387498685914036
40
0.834954282367696
40
0.834954282367696
40
1
40
1
40
1
40
1
41
1
10
60.9957192281786
20
-6.90132906195899
30
0
41
1
10
60.9921690717544
20
-6.89731083524768
30
0
41
1
10
60.9887002786539
20
-6.89323574558907
30
0
41
1
10
60.9631126183421
20
-6.86203067536803
30
0
41
1
10
60.9445178385174
20
-6.83247651698267
30
0
41
1
10
60.911593389414
20
-6.76297916043242
30
0
41
1
10
60.899970393728
20
-6.72165542311302
30
0
41
1
10
60.8932591025384
20
-6.66651265535137
30
0
41
1
10
60.8923384863315
20
-6.65163202665082
30
0
41
1
10
60.8922775208171
20
-6.63689238309868
30
0
0
SPLINE
5
CF
100
AcDbEntity
8
SK1
62
256
6
ByLayer
370
-1
48
1
60
0
100
AcDbSpline
70
4
71
3
72
8
73
4
40
0
40
0
40
0
40
0
40
1
40
1
40
1
40
1
41
1
10
-136.294989802579
20
-7.00749999999999
30
0
41
1
10
-136.297269308855
20
-7.00749999999999
30
0
41
1
10
-135.893332977901
20
-7.00749999999999
30
0
41
1
10
-135.31
20
-7.00749999999999
30
0
0
SPLINE
5
D0
100
AcDbEntity
8
SK1
62
256
6
ByLayer
370
-1
48
1
60
0
100
AcDbSpline
70
4
71
3
72
10
73
6
40
0
40
0
40
0
40
0
40
0.5
40
0.5
40
1
40
1
40
1
40
1
41
1
10
-135.31
20
-2.76225564530151
30
0
41
1
10
-135.618496949467
20
-1.86962940601529
30
0
41
1
10
-135.802263903757
20
-0.947191057260369
30
0
41
1
10
-135.802735629345
20
0.943448469663423
30
0
41
1
10
-135.615124150977
20
1.87938849257091
30
0
41
1
10
-135.31
20
2.76225564530151
30
0
0
LINE
5
49
100
AcDbEntity
8
80
62
256
6
ByLayer
370
-1
48
1
60
0
100
AcDbLine
10
0
20
0
30
0
11
-10
21
0
31
0
39
0
210
0
220
0
230
1
0
LINE
5
4A
100
AcDbEntity
8
81
62
256
6
ByLayer
370
-1
48
1
60
0
100
AcDbLine
10
63.94
20
-10.9
30
0
11
73.94
21
-10.9
31
0
39
0
210
0
220
0
230
1
0
LINE
5
4B
100
AcDbEntity
8
SK4
62
256
6
ByLayer
370
-1
48
0.05
60
0
100
AcDbLine
10
-142.31
20
0
30
0
11
68.301171
21
0
31
0
39
0
210
0
220
0
230
1
0
LINE
5
4D
100
AcDbEntity
8
4
62
256
6
ByLayer
370
-1
48
0.05
60
0
100
AcDbLine
10
0
20
0
30
0
11
68.301171
21
0
31
0
39
0
210
0
220
0
230
1
0
LINE
5
4F
100
AcDbEntity
8
SK1
62
256
6
ByLayer
370
-1
48
1
60
0
100
AcDbLine
10
-135.31
20
7.9925
30
0
11
-137.31
21
5.9925
31
0
39
0
210
0
220
0
230
1
0
LINE
5
51
100
AcDbEntity
8
SK1
62
256
6
ByLayer
370
-1
48
1
60
0
100
AcDbLine
10
-137.31
20
-5.9925
30
0
11
-136.295
21
-7.0075
31
0
39
0
210
0
220
0
230
1
0
LINE
5
52
100
AcDbEntity
8
SK1
62
256
6
ByLayer
370
-1
48
1
60
0
100
AcDbLine
10
0
20
7.9925
30
0
11
-135.31
21
7.9925
31
0
39
0
210
0
220
0
230
1
0
LINE
5
53
100
AcDbEntity
8
1
62
256
6
ByLayer
370
-1
48
1
60
0
100
AcDbLine
10
60.889221
20
-6.617038
30
0
11
60.893728
21
-6.668552
31
0
39
0
210
0
220
0
230
1
0
LINE
5
54
100
AcDbEntity
8
1
62
256
6
ByLayer
370
-1
48
1
60
0
100
AcDbLine
10
59.777666
20
-7.11138
30
0
11
59.770967
21
-7.034802
31
0
39
0
210
0
220
0
230
1
0
LINE
5
55
100
AcDbEntity
8
1
62
256
6
ByLayer
370
-1
48
1
60
0
100
AcDbLine
10
58.762781
20
-7.532554
30
0
11
58.768455
21
-7.597414
31
0
39
0
210
0
220
0
230
1
0
LINE
5
56
100
AcDbEntity
8
1
62
256
6
ByLayer
370
-1
48
1
60
0
100
AcDbLine
10
62.205327
20
-7.296727
30
0
11
62.199653
21
-7.231867
31
0
39
0
210
0
220
0
230
1
0
LINE
5
57
100
AcDbEntity
8
1
62
256
6
ByLayer
370
-1
48
1
60
0
100
AcDbLine
10
61.189903
20
-7.711752
30
0
11
61.196622
21
-7.78855
31
0
39
0
210
0
220
0
230
1
0
LINE
5
58
100
AcDbEntity
8
1
62
256
6
ByLayer
370
-1
48
1
60
0
100
AcDbLine
10
60.081448
20
-8.241511
30
0
11
60.074295
21
-8.159754
31
0
39
0
210
0
220
0
230
1
0
LINE
5
59
100
AcDbEntity
8
1
62
256
6
ByLayer
370
-1
48
1
60
0
100
AcDbLine
10
50.165309
20
7.9925
30
0
11
0
21
7.9925
31
0
39
0
210
0
220
0
230
1
0
LINE
5
5A
100
AcDbEntity
8
1
62
256
6
ByLayer
370
-1
48
1
60
0
100
AcDbLine
10
50.240309
20
7.9175
30
0
11
50.165309
21
7.9925
31
0
39
0
210
0
220
0
230
1
0
LINE
5
5B
100
AcDbEntity
8
1
62
256
6
ByLayer
370
-1
48
1
60
0
100
AcDbLine
10
50.259178
20
7.9175
30
0
11
50.240309
21
7.9175
31
0
39
0
210
0
220
0
230
1
0
LINE
5
5C
100
AcDbEntity
8
1
62
256
6
ByLayer
370
-1
48
1
60
0
100
AcDbLine
10
50.890309
20
-7.9175
30
0
11
52.035405
21
-7.9175
31
0
39
0
210
0
220
0
230
1
0
LINE
5
5D
100
AcDbEntity
8
1
62
256
6
ByLayer
370
-1
48
1
60
0
100
AcDbLine
10
52.035405
20
-7.9175
30
0
11
54.388136
21
-9.275849
31
0
39
0
210
0
220
0
230
1
0
LINE
5
5E
100
AcDbEntity
8
1
62
256
6
ByLayer
370
-1
48
1
60
0
100
AcDbLine
10
50.868412
20
-7.895603
30
0
11
50.890309
21
-7.9175
31
0
39
0
210
0
220
0
230
1
0
LINE
5
5F
100
AcDbEntity
8
1
62
256
6
ByLayer
370
-1
48
1
60
0
100
AcDbLine
10
54.618009
20
-9.408536
30
0
11
57.682785
21
1.98612
31
0
39
0
210
0
220
0
230
1
0
LINE
5
60
100
AcDbEntity
8
1
62
256
6
ByLayer
370
-1
48
1
60
0
100
AcDbLine
10
0
20
-2.762256
30
0
11
0
21
2.762256
31
0
39
0
210
0
220
0
230
1
0
LINE
5
61
100
AcDbEntity
8
1
62
256
6
ByLayer
370
-1
48
1
60
0
100
AcDbLine
10
50.240309
20
7.9175
30
0
11
50.240309
21
7.048256
31
0
39
0
210
0
220
0
230
1
0
LINE
5
62
100
AcDbEntity
8
1
62
256
6
ByLayer
370
-1
48
1
60
0
100
AcDbLine
10
41.81479
20
-2.762256
30
0
11
0
21
-2.762256
31
0
39
0
210
0
220
0
230
1
0
LINE
5
63
100
AcDbEntity
8
1
62
256
6
ByLayer
370
-1
48
1
60
0
100
AcDbLine
10
56.48967
20
-4.574614
30
0
11
56.506474
21
-4.766683
31
0
39
0
210
0
220
0
230
1
0
LINE
5
64
100
AcDbEntity
8
1
62
256
6
ByLayer
370
-1
48
1
60
0
100
AcDbLine
10
50.165309
20
7.105462
30
0
11
50.165309
21
7.9925
31
0
39
0
210
0
220
0
230
1
0
LINE
5
65
100
AcDbEntity
8
1
62
256
6
ByLayer
370
-1
48
1
60
0
100
AcDbLine
10
49.980309
20
-7.0075
30
0
11
50.868412
21
-7.895603
31
0
39
0
210
0
220
0
230
1
0
LINE
5
66
100
AcDbEntity
8
1
62
256
6
ByLayer
370
-1
48
1
60
0
100
AcDbLine
10
0
20
-7.0075
30
0
11
44.107387
21
-7.0075
31
0
39
0
210
0
220
0
230
1
0
LINE
5
67
100
AcDbEntity
8
1
62
256
6
ByLayer
370
-1
48
1
60
0
100
AcDbLine
10
63.079979
20
-4.512338
30
0
11
62.87434
21
-2.161875
31
0
39
0
210
0
220
0
230
1
0
LINE
5
68
100
AcDbEntity
8
1
62
256
6
ByLayer
370
-1
48
1
60
0
100
AcDbLine
10
0
20
-2.762256
30
0
11
0
21
-7.0075
31
0
39
0
210
0
220
0
230
1
0
LINE
5
69
100
AcDbEntity
8
1
62
256
6
ByLayer
370
-1
48
1
60
0
100
AcDbLine
10
57.682785
20
1.98612
30
0
11
62.87434
21
-2.161875
31
0
39
0
210
0
220
0
230
1
0
LINE
5
6A
100
AcDbEntity
8
1
62
256
6
ByLayer
370
-1
48
1
60
0
100
AcDbLine
10
56.442843
20
-5.488235
30
0
11
56.506474
21
-4.766683
31
0
39
0
210
0
220
0
230
1
0
LINE
5
6B
100
AcDbEntity
8
1
62
256
6
ByLayer
370
-1
48
1
60
0
100
AcDbLine
10
51.113606
20
7.234822
30
0
11
57.682785
21
1.98612
31
0
39
0
210
0
220
0
230
1
0
LINE
5
6C
100
AcDbEntity
8
1
62
256
6
ByLayer
370
-1
48
1
60
0
100
AcDbLine
10
44.107387
20
-7.0075
30
0
11
49.980309
21
-7.0075
31
0
39
0
210
0
220
0
230
1
0
LINE
5
6D
100
AcDbEntity
8
1
62
256
6
ByLayer
370
-1
48
1
60
0
100
AcDbLine
10
50.259178
20
7.9175
30
0
11
51.113606
21
7.234822
31
0
39
0
210
0
220
0
230
1
0
LINE
5
6E
100
AcDbEntity
8
1
62
256
6
ByLayer
370
-1
48
1
60
0
100
AcDbLine
10
0
20
2.762256
30
0
11
43.703132
21
2.762256
31
0
39
0
210
0
220
0
230
1
0
LINE
5
6F
100
AcDbEntity
8
1
62
256
6
ByLayer
370
-1
48
1
60
0
100
AcDbLine
10
52.035405
20
-7.9175
30
0
11
52.035405
21
-7.909321
31
0
39
0
210
0
220
0
230
1
0
LINE
5
70
100
AcDbEntity
8
1
62
256
6
ByLayer
370
-1
48
1
60
0
100
AcDbLine
10
0
20
2.762256
30
0
11
0
21
7.9925
31
0
39
0
210
0
220
0
230
1
0
LINE
5
71
100
AcDbEntity
8
SK1
62
256
6
ByLayer
370
-1
48
1
60
0
100
AcDbLine
10
0
20
-2.762256
30
0
11
0
21
2.762256
31
0
39
0
210
0
220
0
230
1
0
LINE
5
72
100
AcDbEntity
8
SK1
62
256
6
ByLayer
370
-1
48
1
60
0
100
AcDbLine
10
0
20
-2.762256
30
0
11
-135.31
21
-2.762256
31
0
39
0
210
0
220
0
230
1
0
LINE
5
73
100
AcDbEntity
8
SK1
62
256
6
ByLayer
370
-1
48
1
60
0
100
AcDbLine
10
0
20
7.9925
30
0
11
0
21
2.762256
31
0
39
0
210
0
220
0
230
1
0
LINE
5
74
100
AcDbEntity
8
1
62
256
6
ByLayer
370
-1
48
1
60
0
100
AcDbLine
10
57.037886
20
-4.4538
30
0
11
57.527613
21
-10.0514
31
0
39
0
210
0
220
0
230
1
0
LINE
5
75
100
AcDbEntity
8
1
62
256
6
ByLayer
370
-1
48
1
60
0
100
AcDbLine
10
63.938489
20
-10.469974
30
0
11
63.448762
21
-4.872374
31
0
39
0
210
0
220
0
230
1
0
LINE
5
76
100
AcDbEntity
8
1
62
256
6
ByLayer
370
-1
48
1
60
0
100
AcDbLine
10
57.888364
20
-10.410719
30
0
11
63.508262
21
-10.898495
31
0
39
0
210
0
220
0
230
1
0
LINE
5
77
100
AcDbEntity
8
1
62
256
6
ByLayer
370
-1
48
1
60
0
100
AcDbLine
10
63.088011
20
-4.513054
30
0
11
57.468113
21
-4.025279
31
0
39
0
210
0
220
0
230
1
0
LINE
5
78
100
AcDbEntity
8
1
62
256
6
ByLayer
370
-1
48
1
60
0
100
AcDbLine
10
59.657556
20
-7.776234
30
0
11
59.664837
21
-7.859464
31
0
39
0
210
0
220
0
230
1
0
LINE
5
79
100
AcDbEntity
8
1
62
256
6
ByLayer
370
-1
48
1
60
0
100
AcDbLine
10
61.395762
20
-7.31318
30
0
11
61.403046
21
-7.39644
31
0
39
0
210
0
220
0
230
1
0
LINE
5
7A
100
AcDbEntity
8
1
62
256
6
ByLayer
370
-1
48
1
60
0
100
AcDbLine
10
60.99045
20
-8.132308
30
0
11
60.997734
21
-8.215568
31
0
39
0
210
0
220
0
230
1
0
LINE
5
7B
100
AcDbEntity
8
1
62
256
6
ByLayer
370
-1
48
1
60
0
100
AcDbLine
10
59.71838
20
-6.865287
30
0
11
59.725665
21
-6.948547
31
0
39
0
210
0
220
0
230
1
0
LINE
5
7C
100
AcDbEntity
8
1
62
256
6
ByLayer
370
-1
48
1
60
0
100
AcDbLine
10
59.971671
20
-7.919754
30
0
11
59.978192
21
-7.994282
31
0
39
0
210
0
220
0
230
1
0
LINE
5
7D
100
AcDbEntity
8
1
62
256
6
ByLayer
370
-1
48
1
60
0
100
AcDbLine
10
60.4201
20
-8.284973
30
0
11
60.427385
21
-8.368233
31
0
39
0
210
0
220
0
230
1
0
LINE
5
7E
100
AcDbEntity
8
1
62
256
6
ByLayer
370
-1
48
1
60
0
100
AcDbLine
10
59.938303
20
-7.954551
30
0
11
59.931783
21
-7.880023
31
0
39
0
210
0
220
0
230
1
0
LINE
5
7F
100
AcDbEntity
8
SK1
62
256
6
ByLayer
370
-1
48
1
60
0
100
AcDbLine
10
-135.31
20
-7.0075
30
0
11
0
21
-7.0075
31
0
39
0
210
0
220
0
230
1
0
LINE
5
80
100
AcDbEntity
8
SK1
62
256
6
ByLayer
370
-1
48
1
60
0
100
AcDbLine
10
0
20
-2.762256
30
0
11
0
21
-7.0075
31
0
39
0
210
0
220
0
230
1
0
LINE
5
81
100
AcDbEntity
8
SK1
62
256
6
ByLayer
370
-1
48
1
60
0
100
AcDbLine
10
-137.31
20
5.9925
30
0
11
-137.31
21
-5.9925
31
0
39
0
210
0
220
0
230
1
0
LINE
5
82
100
AcDbEntity
8
SK1
62
256
6
ByLayer
370
-1
48
1
60
0
100
AcDbLine
10
-135.31
20
-2.762256
30
0
11
-135.31
21
-7.0075
31
0
39
0
210
0
220
0
230
1
0
LINE
5
83
100
AcDbEntity
8
SK1
62
256
6
ByLayer
370
-1
48
1
60
0
100
AcDbLine
10
-135.31
20
7.9925
30
0
11
-135.31
21
2.762256
31
0
39
0
210
0
220
0
230
1
0
LINE
5
84
100
AcDbEntity
8
SK1
62
256
6
ByLayer
370
-1
48
1
60
0
100
AcDbLine
10
-135.31
20
2.762256
30
0
11
0
21
2.762256
31
0
39
0
210
0
220
0
230
1
0
LINE
5
85
100
AcDbEntity
8
2
62
256
6
ByLayer
370
-1
48
1
60
1
100
AcDbLine
10
63.94
20
0
30
0
11
63.941
21
0.001
31
0
39
0
210
0
220
0
230
1
0
MTEXT
5
D1
100
AcDbEntity
8
SK6
62
256
6
ByLayer
370
-1
48
1
60
0
100
AcDbMText
10
-33.31
20
15.43963
30
0
210
0
220
0
230
1
1
\W00.753;\fsimplex.shx,bigfont.shx;A16R-SCLCL 06 
40
3.5
41
0
44
1.084337
50
0
71
7
72
5
7
DEFAULT
0
DIMENSION
5
104
100
AcDbEntity
8
2
62
256
6
ByLayer
370
-3
48
1
60
0
100
AcDbDimension
2
DimnDraft3D1
10
76.19
20
0
30
0
11
76.19
21
-29.231316
31
0
70
32
71
5
72
1
41
1
210
0
220
0
230
1
3
Standard
100
AcDbAlignedDimension
13
65.94
23
-10.9
33
0
14
65.94
24
0
34
0
50
90
100
AcDbRotatedDimension
1001
ACAD
1000
DSTYLE
1002
{
1070
    74
1070
     0
1070
   279
1070
     0
1070
   172
1070
     1
1070
   173
1070
     1
1070
   340
1005
D2
1070
    77
1070
     1
1070
    73
1070
     0
1070
   171
1070
     4
1070
   274
1070
     4
1070
   177
1070
     2
1070
   176
1070
     2
1070
   178
1070
     7
1070
    78
1070
     8
1070
    41
1041
3.175
1070
   147
1041
2.25
1070
    42
1041
2.0
1070
    44
1041
2.0
1070
   140
1041
4.5
1070
   343
1005
105
1070
   344
1005
105
1002
}
0
DIMENSION
5
11A
100
AcDbEntity
8
SK2
62
256
6
ByLayer
370
-3
48
1
60
0
100
AcDbDimension
2
DimnDraft3D2
10
-147.06
20
7.9925
30
0
11
-147.06
21
-4.221711
31
0
70
32
71
5
72
1
41
1
210
0
220
0
230
1
3
Standard
100
AcDbAlignedDimension
13
-139.31
23
-7.9925
33
0
14
-139.31
24
7.9925
34
0
50
90
100
AcDbRotatedDimension
1001
ACAD
1000
DSTYLE
1002
{
1070
    74
1070
     0
1070
   279
1070
     0
1070
   172
1070
     1
1070
   173
1070
     1
1070
   340
1005
D2
1070
    77
1070
     1
1070
    73
1070
     0
1070
   171
1070
     4
1070
   274
1070
     4
1070
   177
1070
     2
1070
   176
1070
     2
1070
   178
1070
     7
1070
    78
1070
     8
1070
    41
1041
3.175
1070
   147
1041
2.25
1070
    42
1041
2.0
1070
    44
1041
2.0
1070
   140
1041
4.5
1070
   343
1005
105
1070
   344
1005
105
1002
}
0
DIMENSION
5
128
100
AcDbEntity
8
SK2
62
256
6
ByLayer
370
-3
48
1
60
0
100
AcDbDimension
2
DimnDraft3D3
10
63.94
20
-28.15
30
0
11
-43.500132
21
-28.15
31
0
70
32
71
5
72
1
41
1
210
0
220
0
230
1
3
Standard
100
AcDbAlignedDimension
13
-137.31
23
-9.9925
33
0
14
63.94
24
-12.9
34
0
50
0
100
AcDbRotatedDimension
1001
ACAD
1000
DSTYLE
1002
{
1070
   279
1070
     0
1070
   172
1070
     1
1070
   173
1070
     1
1070
   340
1005
D2
1070
    77
1070
     1
1070
    73
1070
     0
1070
   171
1070
     4
1070
   274
1070
     4
1070
   177
1070
     2
1070
   176
1070
     2
1070
   178
1070
     7
1070
    78
1070
     8
1070
    41
1041
3.175
1070
   147
1041
2.25
1070
    42
1041
2.0
1070
    44
1041
2.0
1070
   140
1041
4.5
1070
   343
1005
105
1070
   344
1005
105
1002
}
0
DIMENSION
5
136
100
AcDbEntity
8
2
62
256
6
ByLayer
370
-3
48
1
60
0
100
AcDbDimension
2
DimnDraft3D4
10
102.91278
20
0
30
0
11
85.431928
21
33.925375
31
0
70
34
71
5
72
1
41
1
210
0
220
0
230
1
3
Standard
100
AcDb2LineAngularDimension
13
63.242754
23
-2.930442
33
0
14
59.506558
24
39.774475
34
0
15
65.94
25
0
35
0
16
91.649239
26
31.280028
36
0
40
0
0
ENDSEC
0
SECTION
2
OBJECTS
0
DICTIONARY
5
167
330
0
100
AcDbDictionary
280
0
281
1
3
ACAD_GROUP
350
168
3
ACAD_MLINESTYLE
350
169
0
DICTIONARY
5
168
330
0
100
AcDbDictionary
280
0
281
1
0
DICTIONARY
5
169
330
0
100
AcDbDictionary
280
0
281
1
3
Standard
350
18
0
MLINESTYLE
5
18
330
169
100
AcDbMlineStyle
2
Standard
70
0
3

62
256
51
90
52
90
71
2
49
-0.5
62
256
6
ByLayer
49
0.5
62
256
6
ByLayer
0
RASTERVARIABLES
5
155
330

100
AcDbRasterVariables
90
0
70
1
71
1
72
1
0
ENDSEC
0
EOF
