0
SECTION
2
HEADER
9
$ACADVER
1
AC1015
9
$DWGCODEPAGE
3
ANSI_1252
9
$HANDSEED
5
188
9
$ANGBASE
50
0
9
$ANGDIR
70
0
9
$ATTMODE
70
1
9
$AUNITS
70
0
9
$AUPREC
70
0
9
$CECOLOR
62
256
9
$CELTSCALE
40
1
9
$CELTYPE
6
ByLayer
9
$CELWEIGHT
370
-1
9
$CLAYER
8
0
9
$CMLJUST
70
0
9
$CMLSCALE
40
1
9
$CMLSTYLE
2
Standard
9
$DIMSTYLE
2
Standard
9
$TEXTSIZE
40
0.2
9
$TEXTSTYLE
7
Standard
9
$LUNITS
70
2
9
$LUPREC
70
4
9
$EXTNAMES
290
1
9
$INSUNITS
70
4
9
$LTSCALE
40
1
9
$LWDISPLAY
290
0
9
$PDMODE
70
0
9
$PDSIZE
40
0
9
$PLINEGEN
70
0
0
ENDSEC
0
SECTION
2
CLASSES
0
CLASS
1
RASTERVARIABLES
2
AcDbRasterVariables
3
ISM
90
0
280
0
281
0
0
ENDSEC
0
SECTION
2
TABLES
0
TABLE
2
VPORT
5
17e
100
AcDbSymbolTable
0
VPORT
5
1
100
AcDbSymbolTableRecord
100
AcDbViewportTableRecord
2
*Active
70
0
10
0
20
0
11
1
21
1
12
-1
22
1
13
0
23
0
14
0.5
24
0.5
15
10
25
10
16
0
26
0
36
1
17
0
27
0
37
0
0
ENDTAB
0
TABLE
2
LTYPE
5
17f
100
AcDbSymbolTable
0
LTYPE
5
14
100
AcDbSymbolTableRecord
100
AcDbLinetypeTableRecord
70
0
2
ByBlock
3

72
65
73
0
40
0
0
LTYPE
5
15
100
AcDbSymbolTableRecord
100
AcDbLinetypeTableRecord
70
0
2
ByLayer
3

72
65
73
0
40
0
0
LTYPE
5
16
100
AcDbSymbolTableRecord
100
AcDbLinetypeTableRecord
70
0
2
CONTINUOUS
3
Solid line
72
65
73
0
40
0
0
LTYPE
5
3B
100
AcDbSymbolTableRecord
100
AcDbLinetypeTableRecord
70
0
2
DASHED
3
__ __ __ __ __ __ __ __ __
72
65
73
2
40
25.72
49
12.86
74
0
49
-12.86
74
0
0
LTYPE
5
3C
100
AcDbSymbolTableRecord
100
AcDbLinetypeTableRecord
70
0
2
HIDDEN
3
_ _ _ _ _ _ _ _ _ _ _ _ _ _ _
72
65
73
2
40
0.5
49
0.25
74
0
49
-0.25
74
0
0
LTYPE
5
3D
100
AcDbSymbolTableRecord
100
AcDbLinetypeTableRecord
70
0
2
PHANTOM
3
____ _ _ ____ _ _ _____ _ _ ____
72
65
73
6
40
50.5
49
18
74
0
49
-6.5
74
0
49
6.5
74
0
49
-6.5
74
0
49
6.5
74
0
49
-6.5
74
0
0
LTYPE
5
3E
100
AcDbSymbolTableRecord
100
AcDbLinetypeTableRecord
70
0
2
CENTER
3
____ _ ____ _ ____ _ ____
72
65
73
4
40
47.5
49
22
74
0
49
-8.5
74
0
49
8.5
74
0
49
-8.5
74
0
0
LTYPE
5
3F
100
AcDbSymbolTableRecord
100
AcDbLinetypeTableRecord
70
0
2
DOT
3
.........................
72
65
73
2
40
10
49
0
74
0
49
-10
74
0
0
LTYPE
5
40
100
AcDbSymbolTableRecord
100
AcDbLinetypeTableRecord
70
0
2
DASHDOT
3
_._._._._._._._._._._._._._._._.
72
65
73
4
40
70
49
31
74
0
49
-13
74
0
49
13
74
0
49
-13
74
0
0
ENDTAB
0
TABLE
2
LAYER
5
180
100
AcDbSymbolTable
0
LAYER
5
10
100
AcDbSymbolTableRecord
100
AcDbLayerTableRecord
2
0
70
0
62
7
6
CONTINUOUS
290
1
370
-3
390
0
0
LAYER
5
42
100
AcDbSymbolTableRecord
100
AcDbLayerTableRecord
2
80
70
0
62
-6
6
CONTINUOUS
290
1
370
-3
390
0
0
LAYER
5
44
100
AcDbSymbolTableRecord
100
AcDbLayerTableRecord
2
81
70
0
62
-3
6
CONTINUOUS
290
1
370
-3
390
0
0
LAYER
5
46
100
AcDbSymbolTableRecord
100
AcDbLayerTableRecord
2
1
70
0
62
4
6
CONTINUOUS
290
1
370
-3
390
0
0
LAYER
5
48
100
AcDbSymbolTableRecord
100
AcDbLayerTableRecord
2
2
70
0
62
7
6
CONTINUOUS
290
1
370
-3
390
0
0
LAYER
5
4E
100
AcDbSymbolTableRecord
100
AcDbLayerTableRecord
2
4
70
0
62
-2
6
CENTER
290
1
370
-3
390
0
0
LAYER
5
16a
100
AcDbSymbolTableRecord
100
AcDbLayerTableRecord
2
SK4
70
0
62
2
6
CENTER
290
1
370
-3
390
0
0
LAYER
5
16b
100
AcDbSymbolTableRecord
100
AcDbLayerTableRecord
2
SK1
70
0
62
4
6
CONTINUOUS
290
1
370
-3
390
0
0
LAYER
5
16c
100
AcDbSymbolTableRecord
100
AcDbLayerTableRecord
2
SK6
70
0
62
5
6
CONTINUOUS
290
1
370
-3
390
0
0
LAYER
5
16d
100
AcDbSymbolTableRecord
100
AcDbLayerTableRecord
2
SK2
70
0
62
7
6
CONTINUOUS
290
1
370
-3
390
0
0
ENDTAB
0
TABLE
2
STYLE
5
181
100
AcDbSymbolTable
0
STYLE
5
11
100
AcDbSymbolTableRecord
100
AcDbTextStyleTableRecord
2
Standard
3
txt
70
0
71
0
40
0
41
1
42
0
50
0
0
STYLE
5
E6
100
AcDbSymbolTableRecord
100
AcDbTextStyleTableRecord
2
DEFAULT
3
simplex.shx
70
0
71
0
40
0
41
1
42
0
50
0
0
STYLE
5
109
100
AcDbSymbolTableRecord
100
AcDbTextStyleTableRecord
2
DWGDirectTextStyle
3
SIMPLEX
70
0
71
0
40
0
41
1
42
0
50
0
0
ENDTAB
0
TABLE
2
DIMSTYLE
5
182
100
AcDbSymbolTable
100
AcDbDimStyleTable
0
DIMSTYLE
105
27
100
AcDbSymbolTableRecord
100
AcDbDimStyleTableRecord
2
Standard
70
0
3
<>
41
0.18
42
0.0625
44
0.18
140
0.18
147
0.09
73
0
74
0
77
1
271
2
275
0
278
52
280
0
340
11
0
ENDTAB
0
TABLE
2
VIEW
5
183
100
AcDbSymbolTable
0
ENDTAB
0
TABLE
2
UCS
5
184
100
AcDbSymbolTable
0
ENDTAB
0
TABLE
2
APPID
5
185
100
AcDbSymbolTable
0
APPID
5
12
100
AcDbSymbolTableRecord
100
AcDbRegAppTableRecord
2
ACAD
70
0
0
ENDTAB
0
TABLE
2
BLOCK_RECORD
5
186
100
AcDbSymbolTable
0
BLOCK_RECORD
5
1F
100
AcDbSymbolTableRecord
100
AcDbBlockTableRecord
2
*Model_Space
340
0
70
0
0
BLOCK_RECORD
5
1B
100
AcDbSymbolTableRecord
100
AcDbBlockTableRecord
2
*Paper_Space
340
0
70
0
0
BLOCK_RECORD
5
23
100
AcDbSymbolTableRecord
100
AcDbBlockTableRecord
2
*Paper_Space0
340
0
70
0
0
BLOCK_RECORD
5
10B
100
AcDbSymbolTableRecord
100
AcDbBlockTableRecord
2
DimnDraft3D1
340
0
70
0
0
BLOCK_RECORD
5
119
100
AcDbSymbolTableRecord
100
AcDbBlockTableRecord
2
_CLOSED
340
0
70
0
0
BLOCK_RECORD
5
120
100
AcDbSymbolTableRecord
100
AcDbBlockTableRecord
2
DimnDraft3D2
340
0
70
0
0
BLOCK_RECORD
5
12F
100
AcDbSymbolTableRecord
100
AcDbBlockTableRecord
2
DimnDraft3D3
340
0
70
0
0
BLOCK_RECORD
5
13D
100
AcDbSymbolTableRecord
100
AcDbBlockTableRecord
2
DimnDraft3D4
340
0
70
0
0
ENDTAB
0
ENDSEC
0
SECTION
2
BLOCKS
0
BLOCK
5
20
100
AcDbEntity
8
0
100
AcDbBlockBegin
2
*Model_Space
70
0
10
0
20
0
30
0
3
*Model_Space
0
ENDBLK
5
21
100
AcDbEntity
8
0
100
AcDbBlockEnd
0
BLOCK
5
1C
100
AcDbEntity
8
0
100
AcDbBlockBegin
2
*Paper_Space
70
0
10
0
20
0
30
0
3
*Paper_Space
0
ENDBLK
5
1D
100
AcDbEntity
8
0
100
AcDbBlockEnd
0
BLOCK
5
24
100
AcDbEntity
8
0
100
AcDbBlockBegin
2
*Paper_Space0
70
0
10
0
20
0
30
0
3
*Paper_Space0
0
ENDBLK
5
25
100
AcDbEntity
8
0
100
AcDbBlockEnd
0
BLOCK
5
116
100
AcDbEntity
8
0
100
AcDbBlockBegin
2
DimnDraft3D1
70
0
10
0
20
0
30
0
3
DimnDraft3D1
0
MTEXT
5
10C
100
AcDbEntity
8
2
62
256
6
ByLayer
370
-1
48
1
60
0
100
AcDbMText
10
59.065
20
20.28
30
0
210
0
220
0
230
1
1
\W01.000;\fsimplex.shx,bigfont.shx;9.0 
40
4.5
41
0
44
1.084337
50
90
71
7
72
5
7
DEFAULT
0
LINE
5
10D
100
AcDbEntity
8
2
62
256
6
ByLayer
370
-1
48
1
60
0
100
AcDbLine
10
49.94
20
8.9
30
0
11
62.19
21
8.9
31
0
39
0
210
0
220
0
230
1
0
LINE
5
10E
100
AcDbEntity
8
2
62
256
6
ByLayer
370
-1
48
1
60
0
100
AcDbLine
10
49.94
20
0
30
0
11
62.19
21
0
31
0
39
0
210
0
220
0
230
1
0
LINE
5
10F
100
AcDbEntity
8
2
62
256
6
ByLayer
370
-1
48
1
60
0
100
AcDbLine
10
60.19
20
0
30
0
11
60.19
21
26.177368
31
0
39
0
210
0
220
0
230
1
0
LINE
5
110
100
AcDbEntity
8
2
62
256
6
ByLayer
370
-1
48
1
60
0
100
AcDbLine
10
60.19
20
8.9
30
0
11
60.607997
21
5.725002
31
0
39
0
210
0
220
0
230
1
0
LINE
5
111
100
AcDbEntity
8
2
62
256
6
ByLayer
370
-1
48
1
60
0
100
AcDbLine
10
60.19
20
8.9
30
0
11
59.772003
21
5.724998
31
0
39
0
210
0
220
0
230
1
0
LINE
5
112
100
AcDbEntity
8
2
62
256
6
ByLayer
370
-1
48
1
60
0
100
AcDbLine
10
60.607997
20
5.725002
30
0
11
59.772003
21
5.724998
31
0
39
0
210
0
220
0
230
1
0
LINE
5
113
100
AcDbEntity
8
2
62
256
6
ByLayer
370
-1
48
1
60
0
100
AcDbLine
10
60.19
20
0
30
0
11
59.772003
21
3.174998
31
0
39
0
210
0
220
0
230
1
0
LINE
5
114
100
AcDbEntity
8
2
62
256
6
ByLayer
370
-1
48
1
60
0
100
AcDbLine
10
60.19
20
0
30
0
11
60.607997
21
3.175002
31
0
39
0
210
0
220
0
230
1
0
LINE
5
115
100
AcDbEntity
8
2
62
256
6
ByLayer
370
-1
48
1
60
0
100
AcDbLine
10
59.772003
20
3.174998
30
0
11
60.607997
21
3.175002
31
0
39
0
210
0
220
0
230
1
0
ENDBLK
5
117
100
AcDbEntity
8
0
100
AcDbBlockEnd
0
BLOCK
5
11A
100
AcDbEntity
8
0
100
AcDbBlockBegin
2
_CLOSED
70
0
10
0
20
0
30
0
3
_CLOSED
0
LINE
5
11C
100
AcDbEntity
8
0
62
256
6
ByLayer
370
-2
48
1
60
0
100
AcDbLine
10
-1
20
0.166667
30
0
11
0
21
0
31
0
39
0
210
0
220
0
230
1
0
LINE
5
11D
100
AcDbEntity
8
0
62
256
6
ByLayer
370
-2
48
1
60
0
100
AcDbLine
10
0
20
0
30
0
11
-1
21
-0.166667
31
0
39
0
210
0
220
0
230
1
0
LINE
5
11E
100
AcDbEntity
8
0
62
256
6
ByLayer
370
-2
48
1
60
0
100
AcDbLine
10
-1
20
0.166667
30
0
11
-1
21
-0.166667
31
0
39
0
210
0
220
0
230
1
0
LINE
5
11F
100
AcDbEntity
8
0
62
256
6
ByLayer
370
-2
48
1
60
0
100
AcDbLine
10
0
20
0
30
0
11
-1
21
0
31
0
39
0
210
0
220
0
230
1
0
ENDBLK
5
11B
100
AcDbEntity
8
0
100
AcDbBlockEnd
0
BLOCK
5
12C
100
AcDbEntity
8
0
100
AcDbBlockBegin
2
DimnDraft3D2
70
0
10
0
20
0
30
0
3
DimnDraft3D2
0
MTEXT
5
121
100
AcDbEntity
8
SK2
62
256
6
ByLayer
370
-1
48
1
60
0
100
AcDbMText
10
-114.185
20
17.3725
30
0
210
0
220
0
230
1
1
\W01.000;\fsimplex.shx,bigfont.shx;%%c12 
40
4.5
41
0
44
1.084337
50
90
71
7
72
5
7
DEFAULT
0
LINE
5
123
100
AcDbEntity
8
SK2
62
256
6
ByLayer
370
-1
48
1
60
0
100
AcDbLine
10
-105.31
20
-5.9925
30
0
11
-115.06
21
-5.9925
31
0
39
0
210
0
220
0
230
1
0
LINE
5
124
100
AcDbEntity
8
SK2
62
256
6
ByLayer
370
-1
48
1
60
0
100
AcDbLine
10
-105.31
20
5.9925
30
0
11
-115.06
21
5.9925
31
0
39
0
210
0
220
0
230
1
0
LINE
5
125
100
AcDbEntity
8
SK2
62
256
6
ByLayer
370
-1
48
1
60
0
100
AcDbLine
10
-113.06
20
-5.9925
30
0
11
-113.06
21
24.690921
31
0
39
0
210
0
220
0
230
1
0
LINE
5
126
100
AcDbEntity
8
SK2
62
256
6
ByLayer
370
-1
48
1
60
0
100
AcDbLine
10
-113.06
20
-5.9925
30
0
11
-113.477997
21
-2.817502
31
0
39
0
210
0
220
0
230
1
0
LINE
5
127
100
AcDbEntity
8
SK2
62
256
6
ByLayer
370
-1
48
1
60
0
100
AcDbLine
10
-113.06
20
-5.9925
30
0
11
-112.642003
21
-2.817498
31
0
39
0
210
0
220
0
230
1
0
LINE
5
128
100
AcDbEntity
8
SK2
62
256
6
ByLayer
370
-1
48
1
60
0
100
AcDbLine
10
-113.477997
20
-2.817502
30
0
11
-112.642003
21
-2.817498
31
0
39
0
210
0
220
0
230
1
0
LINE
5
129
100
AcDbEntity
8
SK2
62
256
6
ByLayer
370
-1
48
1
60
0
100
AcDbLine
10
-113.06
20
5.9925
30
0
11
-112.642003
21
2.817502
31
0
39
0
210
0
220
0
230
1
0
LINE
5
12A
100
AcDbEntity
8
SK2
62
256
6
ByLayer
370
-1
48
1
60
0
100
AcDbLine
10
-113.06
20
5.9925
30
0
11
-113.477997
21
2.817498
31
0
39
0
210
0
220
0
230
1
0
LINE
5
12B
100
AcDbEntity
8
SK2
62
256
6
ByLayer
370
-1
48
1
60
0
100
AcDbLine
10
-112.642003
20
2.817502
30
0
11
-113.477997
21
2.817498
31
0
39
0
210
0
220
0
230
1
0
ENDBLK
5
12D
100
AcDbEntity
8
0
100
AcDbBlockEnd
0
BLOCK
5
13A
100
AcDbEntity
8
0
100
AcDbBlockBegin
2
DimnDraft3D3
70
0
10
0
20
0
30
0
3
DimnDraft3D3
0
MTEXT
5
130
100
AcDbEntity
8
SK2
62
256
6
ByLayer
370
-1
48
1
60
0
100
AcDbMText
10
-32.812632
20
22.775
30
0
210
0
220
0
230
1
1
\W01.000;\fsimplex.shx,bigfont.shx;150.0 
40
4.5
41
0
44
1.084337
50
0
71
7
72
5
7
DEFAULT
0
LINE
5
131
100
AcDbEntity
8
SK2
62
256
6
ByLayer
370
-1
48
1
60
0
100
AcDbLine
10
47.94
20
10.9
30
0
11
47.94
21
23.65
31
0
39
0
210
0
220
0
230
1
0
LINE
5
132
100
AcDbEntity
8
SK2
62
256
6
ByLayer
370
-1
48
1
60
0
100
AcDbLine
10
-103.31
20
7.9925
30
0
11
-103.31
21
23.65
31
0
39
0
210
0
220
0
230
1
0
LINE
5
133
100
AcDbEntity
8
SK2
62
256
6
ByLayer
370
-1
48
1
60
0
100
AcDbLine
10
47.94
20
21.65
30
0
11
-103.31
21
21.65
31
0
39
0
210
0
220
0
230
1
0
LINE
5
134
100
AcDbEntity
8
SK2
62
256
6
ByLayer
370
-1
48
1
60
0
100
AcDbLine
10
47.94
20
21.65
30
0
11
44.765002
21
21.232003
31
0
39
0
210
0
220
0
230
1
0
LINE
5
135
100
AcDbEntity
8
SK2
62
256
6
ByLayer
370
-1
48
1
60
0
100
AcDbLine
10
47.94
20
21.65
30
0
11
44.764998
21
22.067997
31
0
39
0
210
0
220
0
230
1
0
LINE
5
136
100
AcDbEntity
8
SK2
62
256
6
ByLayer
370
-1
48
1
60
0
100
AcDbLine
10
44.765002
20
21.232003
30
0
11
44.764998
21
22.067997
31
0
39
0
210
0
220
0
230
1
0
LINE
5
137
100
AcDbEntity
8
SK2
62
256
6
ByLayer
370
-1
48
1
60
0
100
AcDbLine
10
-103.31
20
21.65
30
0
11
-100.135002
21
22.067997
31
0
39
0
210
0
220
0
230
1
0
LINE
5
138
100
AcDbEntity
8
SK2
62
256
6
ByLayer
370
-1
48
1
60
0
100
AcDbLine
10
-103.31
20
21.65
30
0
11
-100.134998
21
21.232003
31
0
39
0
210
0
220
0
230
1
0
LINE
5
139
100
AcDbEntity
8
SK2
62
256
6
ByLayer
370
-1
48
1
60
0
100
AcDbLine
10
-100.135002
20
22.067997
30
0
11
-100.134998
21
21.232003
31
0
39
0
210
0
220
0
230
1
0
ENDBLK
5
13B
100
AcDbEntity
8
0
100
AcDbBlockEnd
0
BLOCK
5
148
100
AcDbEntity
8
0
100
AcDbBlockBegin
2
DimnDraft3D4
70
0
10
0
20
0
30
0
3
DimnDraft3D4
0
MTEXT
5
13E
100
AcDbEntity
8
2
62
256
6
ByLayer
370
-1
48
1
60
0
100
AcDbMText
10
76.546734
20
-35.950619
30
0
210
0
220
0
230
1
1
\W01.000;\fsimplex.shx,bigfont.shx;91%%d0' 
40
4.5
41
0
44
1.084337
50
44.4999999999998
71
7
72
5
7
DEFAULT
0
LINE
5
13F
100
AcDbEntity
8
2
62
256
6
ByLayer
370
-1
48
1
60
0
100
AcDbLine
10
47.748024
20
-2.098325
30
0
11
46.930766
21
-48.918955
31
0
39
0
210
0
220
0
230
1
0
LINE
5
140
100
AcDbEntity
8
2
62
256
6
ByLayer
370
-1
48
1
60
0
100
AcDbLine
10
49.94
20
0
30
0
11
96.711057
21
0
31
0
39
0
210
0
220
0
230
1
0
ARC
5
141
100
AcDbEntity
8
2
62
256
6
ByLayer
370
-1
48
1
60
0
100
AcDbCircle
39
0
10
47.78465
20
0
30
0
40
46.9264068782929
210
0
220
0
230
1
100
AcDbArc
50
269
51
0
0
LINE
5
142
100
AcDbEntity
8
2
62
256
6
ByLayer
370
-1
48
1
60
0
100
AcDbLine
10
46.965671
20
-46.91926
30
0
11
50.140897
21
-46.502993
31
0
39
0
210
0
220
0
230
1
0
LINE
5
143
100
AcDbEntity
8
2
62
256
6
ByLayer
370
-1
48
1
60
0
100
AcDbLine
10
46.965671
20
-46.91926
30
0
11
50.140444
21
-47.338987
31
0
39
0
210
0
220
0
230
1
0
LINE
5
144
100
AcDbEntity
8
2
62
256
6
ByLayer
370
-1
48
1
60
0
100
AcDbLine
10
50.140897
20
-46.502993
30
0
11
50.140444
21
-47.338987
31
0
39
0
210
0
220
0
230
1
0
LINE
5
145
100
AcDbEntity
8
2
62
256
6
ByLayer
370
-1
48
1
60
0
100
AcDbLine
10
94.711057
20
0
30
0
11
95.075312
21
-3.181612
31
0
39
0
210
0
220
0
230
1
0
LINE
5
146
100
AcDbEntity
8
2
62
256
6
ByLayer
370
-1
48
1
60
0
100
AcDbLine
10
94.711057
20
0
30
0
11
94.239438
21
-3.16748
31
0
39
0
210
0
220
0
230
1
0
LINE
5
147
100
AcDbEntity
8
2
62
256
6
ByLayer
370
-1
48
1
60
0
100
AcDbLine
10
95.075312
20
-3.181612
30
0
11
94.239438
21
-3.16748
31
0
39
0
210
0
220
0
230
1
0
ENDBLK
5
149
100
AcDbEntity
8
0
100
AcDbBlockEnd
0
ENDSEC
0
SECTION
2
ENTITIES
0
ELLIPSE
5
90
100
AcDbEntity
8
1
62
256
6
ByLayer
370
-1
48
1
60
0
100
AcDbEllipse
10
40.083826
20
4.206228
30
0
11
0.874866733261842
21
-0.0152708556326223
31
0
210
0
220
0
230
1
40
0.993199
41
1.22895055084282
42
2.96654611842049
0
ELLIPSE
5
91
100
AcDbEntity
8
1
62
256
6
ByLayer
370
-1
48
1
60
0
100
AcDbEllipse
10
30.418672
20
36.174694
30
0
11
20.5525019288948
21
-76.1864716167206
31
-1.65409838379682E-14
210
1.23259516440783E-32
220
2.17111824277448E-16
230
-1
40
0.111926
41
1.07065505324636
42
1.14160523605349
0
ELLIPSE
5
92
100
AcDbEntity
8
1
62
256
6
ByLayer
370
-1
48
1
60
0
100
AcDbEllipse
10
40.08911
20
4.508918
30
0
11
-0.874866733261842
21
0.0152708556326234
31
0
210
0
220
0
230
1
40
0.993199
41
-1.41224493287841
42
2.32851568125978
0
ELLIPSE
5
93
100
AcDbEntity
8
1
62
256
6
ByLayer
370
-1
48
1
60
0
100
AcDbEllipse
10
40.978454
20
4.956659
30
0
11
1.09418586688477
21
-0.0190990853500108
31
0
210
0
220
0
230
1
40
0.993199
41
1.04719755119659
42
2.76970596283256
0
ELLIPSE
5
94
100
AcDbEntity
8
1
62
256
6
ByLayer
370
-1
48
1
60
0
100
AcDbEllipse
10
44.735108
20
0.003028
30
0
11
0.0372087205026212
21
8.11119082390783
31
0
210
0
220
0
230
-1
40
0.110229
41
0.0067921689235684
42
0.111835315659601
0
ELLIPSE
5
95
100
AcDbEntity
8
1
62
256
6
ByLayer
370
-1
48
1
60
0
100
AcDbEllipse
10
40.974085
20
4.706356
30
0
11
-0.999847695156391
21
0.0174524064372839
31
0
210
0
220
0
230
1
40
0.993199
41
-2.02547063349526
42
-0.420333385341373
0
ELLIPSE
5
96
100
AcDbEntity
8
1
62
256
6
ByLayer
370
-1
48
1
60
0
100
AcDbEllipse
10
40.976727
20
4.857695
30
0
11
-0.999847695156391
21
0.0174524064372839
31
0
210
0
220
0
230
1
40
0.993199
41
-2.0943951023932
42
-0.420333385341359
0
ELLIPSE
5
97
100
AcDbEntity
8
1
62
256
6
ByLayer
370
-1
48
1
60
0
100
AcDbEllipse
10
40.084741
20
4.258615
30
0
11
-0.874866733261842
21
0.0152708556326234
31
0
210
0
220
0
230
1
40
0.993199
41
-1.97931988536357
42
-1.53472160386994
0
ELLIPSE
5
98
100
AcDbEntity
8
1
62
256
6
ByLayer
370
-1
48
1
60
0
100
AcDbEllipse
10
40.323541
20
4.531598
30
0
11
0.396939534977109
21
-0.0069286053556016
31
0
210
0
220
0
230
1
40
0.993199
41
2.0943951023933
42
-2.09439510239309
0
ELLIPSE
5
99
100
AcDbEntity
8
1
62
256
6
ByLayer
370
-1
48
1
60
0
100
AcDbEllipse
10
45.087807
20
4.35397
30
0
11
-0.74788607597697
21
0.0130544000150882
31
0
210
0
220
0
230
1
40
0.993199
41
1.86038077757416
42
2.49857153518901
0
ELLIPSE
5
9A
100
AcDbEntity
8
1
62
256
6
ByLayer
370
-1
48
1
60
0
100
AcDbEllipse
10
45.089502
20
4.451095
30
0
11
0.747886075976969
21
-0.0130544000150872
31
0
210
0
220
0
230
1
40
0.993199
41
2.58026252607507
42
2.6557252299079
0
ELLIPSE
5
9B
100
AcDbEntity
8
1
62
256
6
ByLayer
370
-1
48
1
60
0
100
AcDbEllipse
10
45.089839
20
4.470385
30
0
11
1.03484236448686
21
-0.0180632406625875
31
0
210
0
220
0
230
1
40
0.993199
41
-2.09439510239328
42
-1.04805553085662
0
ELLIPSE
5
9C
100
AcDbEntity
8
1
62
256
6
ByLayer
370
-1
48
1
60
0
100
AcDbEllipse
10
46.089496
20
3.756109
30
0
11
-0.421935727355997
21
0.0073649155165338
31
0
210
0
220
0
230
1
40
0.993199
41
-1.05632730190377E-05
42
0.253487424293614
0
ELLIPSE
5
9D
100
AcDbEntity
8
1
62
256
6
ByLayer
370
-1
48
1
60
0
100
AcDbEllipse
10
45.089839
20
4.470385
30
0
11
1.03484236448686
21
-0.0180632406625875
31
0
210
0
220
0
230
1
40
0.993199
41
-3.1407346739299
42
-2.09439510239328
0
ELLIPSE
5
9E
100
AcDbEntity
8
1
62
256
6
ByLayer
370
-1
48
1
60
0
100
AcDbEllipse
10
45.087807
20
4.35397
30
0
11
-0.74788607597697
21
0.0130544000150882
31
0
210
0
220
0
230
1
40
0.993199
41
0.627124825002264
42
1.27351756405515
0
ELLIPSE
5
9F
100
AcDbEntity
8
1
62
256
6
ByLayer
370
-1
48
1
60
0
100
AcDbEllipse
10
45.089502
20
4.451095
30
0
11
0.747886075976969
21
-0.0130544000150872
31
0
210
0
220
0
230
1
40
0.993199
41
-0.561330127515537
42
-0.485867423681137
0
ELLIPSE
5
A0
100
AcDbEntity
8
1
62
256
6
ByLayer
370
-1
48
1
60
0
100
AcDbEllipse
10
45.087807
20
4.35397
30
0
11
0.747886075976976
21
-0.0130544000150874
31
0
210
0
220
0
230
1
40
0.993199
41
0.524027765428301
42
1.57036733696501
0
ELLIPSE
5
A1
100
AcDbEntity
8
1
62
256
6
ByLayer
370
-1
48
1
60
0
100
AcDbEllipse
10
45.087807
20
4.35397
30
0
11
-0.74788607597697
21
0.0130544000150882
31
0
210
0
220
0
230
1
40
0.993199
41
-1.57122531662479
42
-0.561330127514715
0
ELLIPSE
5
A2
100
AcDbEntity
8
1
62
256
6
ByLayer
370
-1
48
1
60
0
100
AcDbEllipse
10
45.089839
20
4.470385
30
0
11
1.03484236448686
21
-0.0180632406625875
31
0
210
0
220
0
230
1
40
0.993199
41
-1.04805553085662
42
0.000857979659871016
0
ELLIPSE
5
A3
100
AcDbEntity
8
1
62
256
6
ByLayer
370
-1
48
1
60
0
100
AcDbEllipse
10
45.108589
20
5.515827
30
0
11
-0.421935727355997
21
0.0073649155165338
31
0
210
0
220
0
230
1
40
0.993199
41
1.57036733696508
42
2.3452670648175
0
ELLIPSE
5
A4
100
AcDbEntity
8
1
62
256
6
ByLayer
370
-1
48
1
60
0
100
AcDbEllipse
10
45.089839
20
4.470385
30
0
11
1.03484236448686
21
-0.0180632406625875
31
0
210
0
220
0
230
1
40
0.993199
41
2.09353712273328
42
-3.1407346739299
0
ELLIPSE
5
A5
100
AcDbEntity
8
1
62
256
6
ByLayer
370
-1
48
1
60
0
100
AcDbEllipse
10
45.087807
20
4.35397
30
0
11
0.747886075976976
21
-0.0130544000150874
31
0
210
0
220
0
230
1
40
0.993199
41
2.58026252607508
42
2.65572522990791
0
ELLIPSE
5
A6
100
AcDbEntity
8
1
62
256
6
ByLayer
370
-1
48
1
60
0
100
AcDbEllipse
10
45.089839
20
4.470385
30
0
11
1.03484236448686
21
-0.0180632406625875
31
0
210
0
220
0
230
1
40
0.993199
41
0.000857979659871016
42
1.04719755119669
0
ELLIPSE
5
A7
100
AcDbEntity
8
1
62
256
6
ByLayer
370
-1
48
1
60
0
100
AcDbEllipse
10
44.086117
20
4.951831
30
0
11
-0.421935727355997
21
0.0073649155165338
31
0
210
0
220
0
230
1
40
0.993199
41
2.68490720030664
42
3.14158274443009
0
ELLIPSE
5
A8
100
AcDbEntity
8
1
62
256
6
ByLayer
370
-1
48
1
60
0
100
AcDbEllipse
10
45.087807
20
4.35397
30
0
11
-0.74788607597697
21
0.0130544000150882
31
0
210
0
220
0
230
1
40
0.993199
41
-0.48586742368185
42
0.258536343290173
0
ELLIPSE
5
A9
100
AcDbEntity
8
1
62
256
6
ByLayer
370
-1
48
1
60
0
100
AcDbEllipse
10
45.089839
20
4.470385
30
0
11
1.03484236448686
21
-0.0180632406625875
31
0
210
0
220
0
230
1
40
0.993199
41
1.04719755119669
42
2.09353712273328
0
ELLIPSE
5
AA
100
AcDbEntity
8
1
62
256
6
ByLayer
370
-1
48
1
60
0
100
AcDbEllipse
10
45.087807
20
4.35397
30
0
11
-0.74788607597697
21
0.0130544000150882
31
0
210
0
220
0
230
1
40
0.993199
41
2.86786572858711
42
-2.61756488816146
0
ELLIPSE
5
AB
100
AcDbEntity
8
1
62
256
6
ByLayer
370
-1
48
1
60
0
100
AcDbEllipse
10
46.110799
20
4.917655
30
0
11
-0.421935727355997
21
0.0073649155165338
31
0
210
0
220
0
230
1
40
0.993199
41
0.524027765428349
42
1.29892749328083
0
ELLIPSE
5
AC
100
AcDbEntity
8
1
62
256
6
ByLayer
370
-1
48
1
60
0
100
AcDbEllipse
10
44.064815
20
3.790285
30
0
11
-0.421935727355997
21
0.0073649155165338
31
0
210
0
220
0
230
1
40
0.993199
41
2.96035292052349
42
-3.14158944113837
0
ELLIPSE
5
AD
100
AcDbEntity
8
1
62
256
6
ByLayer
370
-1
48
1
60
0
100
AcDbEllipse
10
44.237924
20
4.368081
30
0
11
-0.184971823603932
21
0.00322869519089751
31
0
210
0
220
0
230
1
40
0.993199
41
-1.30068497549054
42
-0.303817007784395
0
ELLIPSE
5
AE
100
AcDbEntity
8
1
62
256
6
ByLayer
370
-1
48
1
60
0
100
AcDbEllipse
10
44.086117
20
4.951831
30
0
11
-0.421935727355997
21
0.0073649155165338
31
0
210
0
220
0
230
1
40
0.993199
41
1.84090767809964
42
2.55108055567649
0
ELLIPSE
5
AF
100
AcDbEntity
8
1
62
256
6
ByLayer
370
-1
48
1
60
0
100
AcDbEllipse
10
44.676269
20
5.092742
30
0
11
-0.184971823603932
21
0.00322869519089751
31
0
210
0
220
0
230
1
40
0.993199
41
-2.34612504447719
42
-0.342798089041956
0
ELLIPSE
5
B0
100
AcDbEntity
8
1
62
256
6
ByLayer
370
-1
48
1
60
0
100
AcDbEllipse
10
45.108589
20
5.515827
30
0
11
-0.421935727355997
21
0.0073649155165338
31
0
210
0
220
0
230
1
40
0.993199
41
0.795467609112515
42
1.57036733696508
0
ELLIPSE
5
B1
100
AcDbEntity
8
1
62
256
6
ByLayer
370
-1
48
1
60
0
100
AcDbEllipse
10
45.525502
20
5.077557
30
0
11
-0.184971823603932
21
0.00322869519089751
31
0
210
0
220
0
230
1
40
0.993199
41
-2.77665237367104
42
-0.796325588772333
0
ELLIPSE
5
B2
100
AcDbEntity
8
1
62
256
6
ByLayer
370
-1
48
1
60
0
100
AcDbEllipse
10
46.110799
20
4.917655
30
0
11
-0.421935727355997
21
0.0073649155165338
31
0
210
0
220
0
230
1
40
0.993199
41
8.26555839916686E-07
42
0.524027765428349
0
ELLIPSE
5
B3
100
AcDbEntity
8
1
62
256
6
ByLayer
370
-1
48
1
60
0
100
AcDbEllipse
10
45.93769
20
4.33986
30
0
11
-0.184971823603932
21
0.00322869519089751
31
0
210
0
220
0
230
1
40
0.993199
41
-2.8100486455018
42
-1.842665160309
0
ELLIPSE
5
B4
100
AcDbEntity
8
1
62
256
6
ByLayer
370
-1
48
1
60
0
100
AcDbEllipse
10
45.089464
20
4.448897
30
0
11
1.54976392749242
21
-0.0270512299777884
31
0
210
0
220
0
230
1
40
0.993199
41
0
42
6.28318530717959
0
ELLIPSE
5
B5
100
AcDbEntity
8
1
62
256
6
ByLayer
370
-1
48
1
60
0
100
AcDbEllipse
10
45.089839
20
4.470385
30
0
11
1.09983246467203
21
-0.0191976470810109
31
0
210
0
220
0
230
1
40
0.993199
41
0
42
6.28318530717959
0
ELLIPSE
5
B6
100
AcDbEntity
8
1
62
256
6
ByLayer
370
-1
48
1
60
0
100
AcDbEllipse
10
45.08801
20
4.365612
30
0
11
1.54976392749241
21
-0.0270512299777882
31
0
210
0
220
0
230
1
40
0.993199
41
3.14153560931131
42
0
0
ELLIPSE
5
B7
100
AcDbEntity
8
1
62
256
6
ByLayer
370
-1
48
1
60
0
100
AcDbEllipse
10
45.087408
20
4.36779
30
0
11
-1.60734660482144
21
0.0280563393493089
31
0
210
0
220
0
230
1
40
0.993199
41
0.0175726930012357
42
3.13289654952157
0
ELLIPSE
5
B8
100
AcDbEntity
8
1
62
256
6
ByLayer
370
-1
48
1
60
0
100
AcDbEllipse
10
45.087408
20
4.36779
30
0
11
-1.60734660482144
21
0.0280563393493089
31
0
210
0
220
0
230
1
40
0.993199
41
-0.808329616301916
42
0
0
ELLIPSE
5
B9
100
AcDbEntity
8
1
62
256
6
ByLayer
370
-1
48
1
60
0
100
AcDbEllipse
10
45.087408
20
4.36779
30
0
11
-1.60734660482144
21
0.0280563393493089
31
0
210
0
220
0
230
1
40
0.993199
41
0
42
0.0175729474177915
0
ELLIPSE
5
BA
100
AcDbEntity
8
1
62
256
6
ByLayer
370
-1
48
1
60
0
100
AcDbEllipse
10
45.087699
20
4.38444
30
0
11
1.65537097473
21
-0.0288946078441976
31
0
210
0
220
0
230
1
40
0.993199
41
-0.639076721032313
42
0
0
ELLIPSE
5
BB
100
AcDbEntity
8
1
62
256
6
ByLayer
370
-1
48
1
60
0
100
AcDbEllipse
10
45.087699
20
4.38444
30
0
11
1.65537097473
21
-0.0288946078441976
31
0
210
0
220
0
230
1
40
0.993199
41
0
42
0.0175727539621594
0
ELLIPSE
5
BC
100
AcDbEntity
8
1
62
256
6
ByLayer
370
-1
48
1
60
0
100
AcDbEllipse
10
45.087699
20
4.38444
30
0
11
1.65537097473
21
-0.0288946078441976
31
0
210
0
220
0
230
1
40
0.993199
41
0.0175728438917104
42
-2.50253196411801
0
ELLIPSE
5
BD
100
AcDbEntity
8
1
62
256
6
ByLayer
370
-1
48
1
60
0
100
AcDbEllipse
10
45.088816
20
4.44842
30
0
11
1.6937958789114
21
-0.0295653170415444
31
0
210
0
220
0
230
1
40
0.993199
41
0
42
6.28318530717959
0
ELLIPSE
5
BE
100
AcDbEntity
8
1
62
256
6
ByLayer
370
-1
48
1
60
0
100
AcDbEllipse
10
47.542997
20
8.505611
30
0
11
0.396939534977131
21
-0.00692860535560198
31
0
210
0
220
0
230
1
40
0.993199
41
0
42
2.09439510239336
0
ELLIPSE
5
BF
100
AcDbEntity
8
1
62
256
6
ByLayer
370
-1
48
1
60
0
100
AcDbEllipse
10
47.399908
20
0.30805
30
0
11
0.396939534977076
21
-0.00692860535560102
31
0
210
0
220
0
230
1
40
0.993199
41
-2.09439510239312
42
-1.28113485255149E-14
0
POINT
5
41
100
AcDbEntity
8
80
62
256
6
ByLayer
370
-1
48
1
60
0
100
AcDbPoint
10
0
20
0
30
0
39
0
210
0
220
0
230
1
50
360
0
POINT
5
43
100
AcDbEntity
8
81
62
256
6
ByLayer
370
-1
48
1
60
0
100
AcDbPoint
10
47.94
20
8.9
30
0
39
0
210
0
220
0
230
1
50
360
0
POINT
5
45
100
AcDbEntity
8
1
62
256
6
ByLayer
370
-1
48
1
60
0
100
AcDbPoint
10
-103.31
20
0
30
0
39
0
210
0
220
0
230
1
50
360
0
POINT
5
47
100
AcDbEntity
8
2
62
256
6
ByLayer
370
-1
48
1
60
0
100
AcDbPoint
10
47.94
20
8.9
30
0
39
0
210
0
220
0
230
1
50
360
0
SPLINE
5
C0
100
AcDbEntity
8
1
62
256
6
ByLayer
370
-1
48
1
60
0
100
AcDbSpline
70
4
71
3
72
8
73
4
40
0
40
0
40
0
40
0
40
1
40
1
40
1
40
1
41
1
10
35.9922693944839
20
-5.2245322663068
30
0
41
1
10
35.9922570516263
20
-5.24080312939691
30
0
41
1
10
35.9922447467864
20
-5.25684412674065
30
0
41
1
10
35.9922324797215
20
-5.27265672651919
30
0
0
SPLINE
5
C1
100
AcDbEntity
8
1
62
256
6
ByLayer
370
-1
48
1
60
0
100
AcDbSpline
70
4
71
3
72
8
73
4
40
0
40
0
40
0
40
0
40
1
40
1
40
1
40
1
41
1
10
35.9922693944838
20
-5.2245322663068
30
0
41
1
10
35.8900552769135
20
-5.12926628260703
30
0
41
1
10
35.7891953420199
20
-5.03248778708306
30
0
41
1
10
35.689755277082
20
-4.93401024133274
30
0
0
SPLINE
5
C2
100
AcDbEntity
8
1
62
256
6
ByLayer
370
-1
48
1
60
0
100
AcDbSpline
70
4
71
3
72
8
73
4
40
0
40
0
40
0
40
0
40
1
40
1
40
1
40
1
41
1
10
33.8196590876498
20
-3.74890601426009
30
0
41
1
10
33.4294484147193
20
-3.35112288163469
30
0
41
1
10
33.0928883427029
20
-2.89469790806669
30
0
41
1
10
32.7918406433402
20
-2.37908727246415
30
0
0
SPLINE
5
C3
100
AcDbEntity
8
1
62
256
6
ByLayer
370
-1
48
1
60
0
100
AcDbSpline
70
4
71
3
72
8
73
4
40
0
40
0
40
0
40
0
40
1
40
1
40
1
40
1
41
1
10
37.9358822827812
20
7.2142895471641
30
0
41
1
10
38.1628921321967
20
7.34532453446206
30
0
41
1
10
38.3899239979716
20
7.47632191194899
30
0
41
1
10
38.61697459
20
7.60728726568803
30
0
0
SPLINE
5
C4
100
AcDbEntity
8
1
62
256
6
ByLayer
370
-1
48
1
60
0
100
AcDbSpline
70
4
71
3
72
50
73
46
40
-0.130221331761468
40
-0.130221331761468
40
0
40
0
40
0.103641790708385
40
0.103641790708385
40
0.103641790708385
40
0.13873064392301
40
0.13873064392301
40
0.174307381797037
40
0.174307381797037
40
0.198543603140003
40
0.198543603140003
40
0.222929079310395
40
0.222929079310395
40
0.245419243732871
40
0.245419243732871
40
0.269438303587977
40
0.269438303587977
40
0.307524497685262
40
0.307524497685262
40
0.364100065281288
40
0.364100065281288
40
0.453009430520417
40
0.453009430520417
40
0.585272046910616
40
0.585272046910616
40
0.585272046910616
40
0.63486195281515
40
0.63486195281515
40
0.684928603891289
40
0.684928603891289
40
0.701649391369243
40
0.701649391369243
40
0.713121434530606
40
0.713121434530606
40
0.722658046937605
40
0.722658046937605
40
0.732178721270952
40
0.732178721270952
40
0.746451498771687
40
0.746451498771687
40
0.774511820274745
40
0.774511820274745
40
0.869778668238532
40
0.869778668238532
40
1
40
1
40
1.10364179070839
40
1.10364179070839
41
1
10
35.3562739599163
20
2.17119822999726
30
0
41
1
10
34.7595540576702
20
1.89601415352061
30
0
41
1
10
34.4791987065281
20
1.81198340494373
30
0
41
1
10
34.2005348146356
20
1.82139823038912
30
0
41
1
10
34.1044265122455
20
1.824645306588
30
0
41
1
10
34.0073504371648
20
1.83956669083963
30
0
41
1
10
33.8180993267177
20
1.90157066975525
30
0
41
1
10
33.7235630886388
20
1.95024595434788
30
0
41
1
10
33.5816292292806
20
2.0654380129539
30
0
41
1
10
33.5275573916431
20
2.12268960554218
30
0
41
1
10
33.4364427612914
20
2.25211870616306
30
0
41
1
10
33.3983518325821
20
2.32621458075104
30
0
41
1
10
33.3463978040071
20
2.47298349293862
30
0
41
1
10
33.3301637027627
20
2.54705901407473
30
0
41
1
10
33.3146714181192
20
2.69641102293119
30
0
41
1
10
33.3163348866681
20
2.77312074798093
30
0
41
1
10
33.3407519538474
20
2.95992090206829
30
0
41
1
10
33.3753063363122
20
3.06685115053494
30
0
41
1
10
33.4912287963786
20
3.30330786811413
30
0
41
1
10
33.5888584384306
20
3.42401625588803
30
0
41
1
10
33.8759599372067
20
3.68436577378824
30
0
41
1
10
34.0914694451567
20
3.80227939247217
30
0
41
1
10
34.6662499480547
20
4.02149365391162
30
0
41
1
10
35.0563661390923
20
4.09458031513893
30
0
41
1
10
35.4589664892578
20
4.11526050477988
30
0
41
1
10
35.611564207099
20
4.12309892256175
30
0
41
1
10
35.7673490392202
20
4.1232197025243
30
0
41
1
10
36.0814755545788
20
4.09892356340353
30
0
41
1
10
36.2436841022071
20
4.07666779511331
30
0
41
1
10
36.4470249726161
20
3.99998957573612
30
0
41
1
10
36.4976179548771
20
3.97598179063073
30
0
41
1
10
36.5743891005876
20
3.92268971465401
30
0
41
1
10
36.6036874938565
20
3.89684928746925
30
0
41
1
10
36.6471577741441
20
3.8419743097958
30
0
41
1
10
36.6633096123218
20
3.81359370909161
30
0
41
1
10
36.6848683094158
20
3.75407746266256
30
0
41
1
10
36.6905803522886
20
3.72232927731878
30
0
41
1
10
36.6938012498644
20
3.64430879852691
30
0
41
1
10
36.6863342587256
20
3.59737857264372
30
0
41
1
10
36.6500797581219
20
3.46580427847846
30
0
41
1
10
36.6082324544455
20
3.38461761520676
30
0
41
1
10
36.4047072447625
20
3.05379249470838
30
0
41
1
10
36.1909434332236
20
2.84108408637428
30
0
41
1
10
35.6782760822504
20
2.39144286897067
30
0
41
1
10
35.3562739599163
20
2.17119822999726
30
0
41
1
10
34.7595540576702
20
1.89601415352061
30
0
0
SPLINE
5
C5
100
AcDbEntity
8
1
62
256
6
ByLayer
370
-1
48
1
60
0
100
AcDbSpline
70
4
71
3
72
8
73
4
40
0
40
0
40
0
40
0
40
1
40
1
40
1
40
1
41
1
10
44.7783889956547
20
8.11400364847825
30
0
41
1
10
42.7245768287673
20
7.94518630036333
30
0
41
1
10
40.6707715244302
20
7.77628679968035
30
0
41
1
10
38.61697459
20
7.607287265688
30
0
0
SPLINE
5
C6
100
AcDbEntity
8
1
62
256
6
ByLayer
370
-1
48
1
60
0
100
AcDbSpline
70
4
71
3
72
10
73
6
40
0
40
0
40
0
40
0
40
0.5
40
0.5
40
1
40
1
40
1
40
1
41
1
10
31.2174595486706
20
2.37908727246381
30
0
41
1
10
31.1294552339448
20
3.11934181833723
30
0
41
1
10
31.1464502027053
20
3.80455221828504
30
0
41
1
10
31.5471300514762
20
4.88243540249618
30
0
41
1
10
31.9472528769844
20
5.26997400336995
30
0
41
1
10
32.4904082866894
20
5.50749999999999
30
0
0
SPLINE
5
C7
100
AcDbEntity
8
1
62
256
6
ByLayer
370
-1
48
1
60
0
100
AcDbSpline
70
4
71
3
72
8
73
4
40
0
40
0
40
0
40
0
40
1
40
1
40
1
40
1
41
1
10
35.6897552770822
20
5.89486125971325
30
0
41
1
10
35.2656542086702
20
5.88369003193307
30
0
41
1
10
34.8554665844312
20
5.86599857085363
30
0
41
1
10
34.4605774074337
20
5.83341831743351
30
0
0
SPLINE
5
C8
100
AcDbEntity
8
1
62
256
6
ByLayer
370
-1
48
1
60
0
100
AcDbSpline
70
4
71
3
72
8
73
4
40
0
40
0
40
0
40
0
40
1
40
1
40
1
40
1
41
1
10
40.0709858852876
20
5.27885562620853
30
0
41
1
10
40.0365208018993
20
5.31120915070937
30
0
41
1
10
40.0014661124396
20
5.34145634360223
30
0
41
1
10
39.9659557660077
20
5.36934659703584
30
0
0
SPLINE
5
C9
100
AcDbEntity
8
1
62
256
6
ByLayer
370
-1
48
1
60
0
100
AcDbSpline
70
4
71
3
72
8
73
4
40
0
40
0
40
0
40
0
40
1
40
1
40
1
40
1
41
1
10
35.689755277082
20
5.89486125971351
30
0
41
1
10
36.4123052207983
20
6.33999682473609
30
0
41
1
10
37.1666777715176
20
6.77028809250268
30
0
41
1
10
37.9358822827812
20
7.2142895471641
30
0
0
SPLINE
5
CA
100
AcDbEntity
8
1
62
256
6
ByLayer
370
-1
48
1
60
0
100
AcDbSpline
70
4
71
3
72
8
73
4
40
0
40
0
40
0
40
0
40
1
40
1
40
1
40
1
41
1
10
45.5460361555036
20
7.85721981754321
30
0
41
1
10
45.3197899478815
20
7.8385850700258
30
0
41
1
10
45.0935438462756
20
7.81994905646204
30
0
41
1
10
44.8672978528929
20
7.8013117507443
30
0
0
SPLINE
5
CB
100
AcDbEntity
8
1
62
256
6
ByLayer
370
-1
48
1
60
0
100
AcDbSpline
70
4
71
3
72
8
73
4
40
0
40
0
40
0
40
0
40
1
40
1
40
1
40
1
41
1
10
33.8196590876499
20
-3.74890601426071
30
0
41
1
10
33.844537236825
20
-3.74909760472767
30
0
41
1
10
33.869540087457
20
-3.74881421055556
30
0
41
1
10
33.89465908765
20
-3.74806369499365
30
0
0
SPLINE
5
CC
100
AcDbEntity
8
1
62
256
6
ByLayer
370
-1
48
1
60
0
100
AcDbSpline
70
4
71
3
72
8
73
4
40
0
40
0
40
0
40
0
40
1
40
1
40
1
40
1
41
1
10
36.0619904518845
20
-5.24954367210344
30
0
41
1
10
36.0386919541533
20
-5.24132017126328
30
0
41
1
10
36.0154516420167
20
-5.23298381284502
30
0
41
1
10
35.9922693944838
20
-5.2245322663068
30
0
0
SPLINE
5
CD
100
AcDbEntity
8
1
62
256
6
ByLayer
370
-1
48
1
60
0
100
AcDbSpline
70
4
71
3
72
8
73
4
40
0
40
0
40
0
40
0
40
1
40
1
40
1
40
1
41
1
10
33.8946590876498
20
-3.74806369499265
30
0
41
1
10
34.4211542931681
20
-4.26658293330922
30
0
41
1
10
35.0127568765428
20
-4.64937124491081
30
0
41
1
10
35.6897552770822
20
-4.93401024133254
30
0
0
SPLINE
5
CE
100
AcDbEntity
8
1
62
256
6
ByLayer
370
-1
48
1
60
0
100
AcDbSpline
70
4
71
3
72
8
73
4
40
0
40
0
40
0
40
0
40
1
40
1
40
1
40
1
41
1
10
35.6897552770817
20
-5.37287712896733
30
0
41
1
10
35.7828107121557
20
-5.34204487757216
30
0
41
1
10
35.884246225645
20
-5.30843603731671
30
0
41
1
10
35.9922324797215
20
-5.27265672651919
30
0
0
SPLINE
5
CF
100
AcDbEntity
8
1
62
256
6
ByLayer
370
-1
48
1
60
0
100
AcDbSpline
70
4
71
3
72
18
73
14
40
0
40
0
40
0
40
0
40
0.209995181122946
40
0.209995181122946
40
0.386194216122984
40
0.386194216122984
40
0.564071332431866
40
0.564071332431866
40
0.71910485909227
40
0.71910485909227
40
0.924737553896419
40
0.924737553896419
40
1
40
1
40
1
40
1
41
1
10
44.8099245046464
20
5.33019250718479
30
0
41
1
10
44.8398303973101
20
5.29744387176027
30
0
41
1
10
44.8754131238679
20
5.26841630940453
30
0
41
1
10
44.9487852431485
20
5.22680933334107
30
0
41
1
10
44.9861789566914
20
5.21196464402388
30
0
41
1
10
45.064295759529
20
5.19442850622332
30
0
41
1
10
45.1062249441189
20
5.19172826410778
30
0
41
1
10
45.1817244766749
20
5.19897865768024
30
0
41
1
10
45.2165815748899
20
5.20737090752942
30
0
41
1
10
45.2913972472911
20
5.23587436423705
30
0
41
1
10
45.3306545246446
20
5.2592448209266
30
0
41
1
10
45.3771447468614
20
5.29724050163063
30
0
41
1
10
45.3890769252146
20
5.30816377110023
30
0
41
1
10
45.4003300267677
20
5.31963530660704
30
0
0
SPLINE
5
D0
100
AcDbEntity
8
1
62
256
6
ByLayer
370
-1
48
1
60
0
100
AcDbSpline
70
4
71
3
72
16
73
12
40
0
40
0
40
0
40
0
40
0.0596462575898173
40
0.0596462575898173
40
0.284216317631648
40
0.284216317631648
40
0.511359063794265
40
0.511359063794265
40
0.752728428794779
40
0.752728428794779
40
1
40
1
40
1
40
1
41
1
10
46.1246961553038
20
4.45320353893266
30
0
41
1
10
46.1247789550434
20
4.45819419301608
30
0
41
1
10
46.124656399942
20
4.46318197710559
30
0
41
1
10
46.1231082678891
20
4.48665972271155
30
0
41
1
10
46.1189298052215
20
4.50501665405992
30
0
41
1
10
46.1054949698566
20
4.53870566499162
30
0
41
1
10
46.0960235350643
20
4.5544356891748
30
0
41
1
10
46.0727506937148
20
4.58225949747481
30
0
41
1
10
46.0584393250758
20
4.59442534411136
30
0
41
1
10
46.0272371624674
20
4.61342204277844
30
0
41
1
10
46.0099637253637
20
4.62035853882176
30
0
41
1
10
45.9923433895539
20
4.62446279495637
30
0
0
SPLINE
5
D1
100
AcDbEntity
8
1
62
256
6
ByLayer
370
-1
48
1
60
0
100
AcDbSpline
70
4
71
3
72
14
73
10
40
0
40
0
40
0
40
0
40
0.0484207465490351
40
0.0484207465490351
40
0.385473868010716
40
0.385473868010716
40
0.832612442977971
40
0.832612442977971
40
1
40
1
40
1
40
1
41
1
10
44.4632825088153
20
4.85754780873367
30
0
41
1
10
44.465629110188
20
4.86212499736237
30
0
41
1
10
44.4678906534361
20
4.86675144640787
30
0
41
1
10
44.4850633801028
20
4.90363241056187
30
0
41
1
10
44.4959114348397
20
4.93822147162899
30
0
41
1
10
44.5108321168472
20
5.01814215832809
30
0
41
1
10
44.5119416214224
20
5.06462667918493
30
0
41
1
10
44.5048253782014
20
5.12553541958832
30
0
41
1
10
44.5019771378072
20
5.14205505047207
30
0
41
1
10
44.4982974152417
20
5.15826066545426
30
0
0
SPLINE
5
D2
100
AcDbEntity
8
1
62
256
6
ByLayer
370
-1
48
1
60
0
100
AcDbSpline
70
4
71
3
72
18
73
14
40
0
40
0
40
0
40
0
40
0.203898191612954
40
0.203898191612954
40
0.381169449084595
40
0.381169449084595
40
0.56018989198892
40
0.56018989198892
40
0.715444437751386
40
0.715444437751386
40
0.920005051462066
40
0.920005051462066
40
1
40
1
40
1
40
1
41
1
10
45.7057811377244
20
5.13732603584887
30
0
41
1
10
45.6947592565277
20
5.09516855977679
30
0
41
1
10
45.6893552898653
20
5.0502629385262
30
0
41
1
10
45.6921086670201
20
4.96571194936965
30
0
41
1
10
45.6987230680127
20
4.9251895081328
30
0
41
1
10
45.7233915854243
20
4.84781355899324
30
0
41
1
10
45.7420415104436
20
4.80990349984825
30
0
41
1
10
45.7852695544111
20
4.7484443986838
30
0
41
1
10
45.8092052130251
20
4.7228827116021
30
0
41
1
10
45.8688019353673
20
4.67390424242851
30
0
41
1
10
45.9067019563606
20
4.65276487085751
30
0
41
1
10
45.9609415736133
20
4.63279116228014
30
0
41
1
10
45.9765768529057
20
4.62813525077434
30
0
41
1
10
45.9923433895539
20
4.62446279495632
30
0
0
SPLINE
5
D3
100
AcDbEntity
8
1
62
256
6
ByLayer
370
-1
48
1
60
0
100
AcDbSpline
70
4
71
3
72
14
73
10
40
0
40
0
40
0
40
0
40
0.249298019401457
40
0.249298019401457
40
0.540920139284326
40
0.540920139284326
40
0.804762921708461
40
0.804762921708461
40
1
40
1
40
1
40
1
41
1
10
44.4736202503215
20
3.78762204897606
30
0
41
1
10
44.468723718391
20
3.77097008310304
30
0
41
1
10
44.4664403356267
20
3.75306002031783
30
0
41
1
10
44.4680836391596
20
3.71384416540857
30
0
41
1
10
44.4732154428912
20
3.69183875441345
30
0
41
1
10
44.4911312360614
20
3.652680269575
30
0
41
1
10
44.5034482230402
20
3.6346850924183
30
0
41
1
10
44.5298303586306
20
3.60791100318684
30
0
41
1
10
44.5428556571189
20
3.59768310103777
30
0
41
1
10
44.5568807672326
20
3.58931217847317
30
0
0
SPLINE
5
D4
100
AcDbEntity
8
1
62
256
6
ByLayer
370
-1
48
1
60
0
100
AcDbSpline
70
4
71
3
72
16
73
12
40
0
40
0
40
0
40
0
40
0.0647854195862868
40
0.0647854195862868
40
0.289325095599638
40
0.289325095599638
40
0.516726591525327
40
0.516726591525327
40
0.758592668414261
40
0.758592668414261
40
1
40
1
40
1
40
1
41
1
10
44.0549814031393
20
4.48756633731298
30
0
41
1
10
44.0548915366741
20
4.48214974489875
30
0
41
1
10
44.0550432024216
20
4.47670933652373
30
0
41
1
10
44.0567826782643
20
4.45260302555047
30
0
41
1
10
44.0610782440354
20
4.43378833447412
30
0
41
1
10
44.0747154031588
20
4.39862464833035
30
0
41
1
10
44.0842804277759
20
4.3818573396465
30
0
41
1
10
44.1077180499393
20
4.3514505730956
30
0
41
1
10
44.1221039204027
20
4.33768491958193
30
0
41
1
10
44.1530294220396
20
4.31541907738637
30
0
41
1
10
44.1698767152475
20
4.30664871955304
30
0
41
1
10
44.1870579984927
20
4.30048528987064
30
0
0
SPLINE
5
D5
100
AcDbEntity
8
1
62
256
6
ByLayer
370
-1
48
1
60
0
100
AcDbSpline
70
4
71
3
72
18
73
14
40
0
40
0
40
0
40
0
40
0.213058057550077
40
0.213058057550077
40
0.388723613911325
40
0.388723613911325
40
0.566031334407998
40
0.566031334407998
40
0.720963127787729
40
0.720963127787729
40
0.927141696838685
40
0.927141696838685
40
1
40
1
40
1
40
1
41
1
10
45.3694768834001
20
3.59475557764228
30
0
41
1
10
45.339043284135
20
3.62278968591232
30
0
41
1
10
45.3027590750349
20
3.64730196109025
30
0
41
1
10
45.2285281296359
20
3.68170904121689
30
0
41
1
10
45.1911070557873
20
3.69372942690418
30
0
41
1
10
45.1130698679529
20
3.7078940929708
30
0
41
1
10
45.0712586870168
20
3.71006501446095
30
0
41
1
10
44.9959784440485
20
3.70424868864527
30
0
41
1
10
44.9612203340353
20
3.69748268780492
30
0
41
1
10
44.8865313446819
20
3.67421618735273
30
0
41
1
10
44.8473432558993
20
3.6549495659859
30
0
41
1
10
44.8014302742934
20
3.6234597020844
30
0
41
1
10
44.789932599739
20
3.61462157100456
30
0
41
1
10
44.7790713612789
20
3.60531277821991
30
0
0
SPLINE
5
D6
100
AcDbEntity
8
1
62
256
6
ByLayer
370
-1
48
1
60
0
100
AcDbSpline
70
4
71
3
72
18
73
14
40
0
40
0
40
0
40
0
40
0.0784913771195237
40
0.0784913771195237
40
0.281318094091048
40
0.281318094091048
40
0.44558013640827
40
0.44558013640827
40
0.61067582094558
40
0.61067582094558
40
0.765084939005278
40
0.765084939005278
40
1
40
1
40
1
40
1
41
1
10
44.4736202503216
20
3.78762204897603
30
0
41
1
10
44.4778508271098
20
3.80200925635037
30
0
41
1
10
44.481237579084
20
3.81679778974674
30
0
41
1
10
44.490072515117
20
3.87074438744764
30
0
41
1
10
44.490394980937
20
3.91243968306568
30
0
41
1
10
44.4779319145586
20
3.9887176464778
30
0
41
1
10
44.4673891882359
20
4.02399055674803
30
0
41
1
10
44.4368722743969
20
4.09148751939796
30
0
41
1
10
44.4164087248372
20
4.12456318511101
30
0
41
1
10
44.370587886347
20
4.18142044685052
30
0
41
1
10
44.345147353051
20
4.20636380075121
30
0
41
1
10
44.2776959348095
20
4.2595965392166
30
0
41
1
10
44.2326384751205
20
4.28413423747381
30
0
41
1
10
44.1870579984927
20
4.30048528987064
30
0
0
SPLINE
5
D7
100
AcDbEntity
8
1
62
256
6
ByLayer
370
-1
48
1
60
0
100
AcDbSpline
70
4
71
3
72
14
73
10
40
0
40
0
40
0
40
0
40
0.0515024903523936
40
0.0515024903523936
40
0.388150216176994
40
0.388150216176994
40
0.835818836018831
40
0.835818836018831
40
1
40
1
40
1
40
1
41
1
10
45.7157216382651
20
4.04464235639372
30
0
41
1
10
45.713225940493
20
4.03984852117085
30
0
41
1
10
45.7108269052747
20
4.035020966096
30
0
41
1
10
45.6936272679013
20
3.99871526075267
30
0
41
1
10
45.6828960718422
20
3.96585527973042
30
0
41
1
10
45.6682300555221
20
3.89133552372493
30
0
41
1
10
45.6672994266355
20
3.84905635894407
30
0
41
1
10
45.6746395493483
20
3.79492563868271
30
0
41
1
10
45.6774734346482
20
3.78059530962972
30
0
41
1
10
45.6811026262369
20
3.76661027454185
30
0
0
SPLINE
5
D8
100
AcDbEntity
8
1
62
256
6
ByLayer
370
-1
48
1
60
0
100
AcDbSpline
70
4
71
3
72
14
73
10
40
0
40
0
40
0
40
0
40
0.283435469161974
40
0.283435469161974
40
0.570784919212291
40
0.570784919212291
40
0.83115586451935
40
0.83115586451935
40
1
40
1
40
1
40
1
41
1
10
44.8099245046464
20
5.33019250718485
30
0
41
1
10
44.7951483838365
20
5.34637319099963
30
0
41
1
10
44.7772736315613
20
5.36038693520735
30
0
41
1
10
44.7374501916275
20
5.38127567593452
30
0
41
1
10
44.714815183011
20
5.38833608085719
30
0
41
1
10
44.670754613547
20
5.39290208065836
30
0
41
1
10
44.6487485839411
20
5.39127326170603
30
0
41
1
10
44.614403041948
20
5.38208092697278
30
0
41
1
10
44.6011189932494
20
5.37675326239992
30
0
41
1
10
44.5887312287767
20
5.36994810333959
30
0
0
SPLINE
5
D9
100
AcDbEntity
8
1
62
256
6
ByLayer
370
-1
48
1
60
0
100
AcDbSpline
70
4
71
3
72
14
73
10
40
0
40
0
40
0
40
0
40
0.28346586014376
40
0.28346586014376
40
0.570251000089791
40
0.570251000089791
40
0.830083041238852
40
0.830083041238852
40
1
40
1
40
1
40
1
41
1
10
44.1935499640784
20
4.65445985609847
30
0
41
1
10
44.173106754363
20
4.65048418780216
30
0
41
1
10
44.1529454340666
20
4.64270919938761
30
0
41
1
10
44.1166081690567
20
4.61992559225831
30
0
41
1
10
44.0999420302277
20
4.60444767301493
30
0
41
1
10
44.0751059036162
20
4.56949513555526
30
0
41
1
10
44.0659413342928
20
4.54998411915076
30
0
41
1
10
44.0571391061837
20
4.51593486848304
30
0
41
1
10
44.0552168066887
20
4.50175500130504
30
0
41
1
10
44.0549814031393
20
4.48756633731298
30
0
0
SPLINE
5
DA
100
AcDbEntity
8
1
62
256
6
ByLayer
370
-1
48
1
60
0
100
AcDbSpline
70
4
71
3
72
16
73
12
40
0
40
0
40
0
40
0
40
0.0588929313327994
40
0.0588929313327994
40
0.28281199811383
40
0.28281199811383
40
0.509263580639245
40
0.509263580639245
40
0.749873399694335
40
0.749873399694335
40
1
40
1
40
1
40
1
41
1
10
45.5909463296665
20
3.5708217729061
30
0
41
1
10
45.5953010758125
20
3.57321403183681
30
0
41
1
10
45.5995624816973
20
3.575772526744
30
0
41
1
10
45.6193455120478
20
3.58870903060191
30
0
41
1
10
45.6335088767653
20
3.60131723564046
30
0
41
1
10
45.6569103580901
20
3.62925319866682
30
0
41
1
10
45.6664006270815
20
3.64495733894381
30
0
41
1
10
45.6802762956264
20
3.67814800853967
30
0
41
1
10
45.6844979235935
20
3.69609363316093
30
0
41
1
10
45.6871810882313
20
3.73171044733081
30
0
41
1
10
45.6854778226419
20
3.74975052113797
30
0
41
1
10
45.681102626237
20
3.76661027454185
30
0
0
SPLINE
5
DB
100
AcDbEntity
8
1
62
256
6
ByLayer
370
-1
48
1
60
0
100
AcDbSpline
70
4
71
3
72
16
73
12
40
0
40
0
40
0
40
0
40
0.133247737204094
40
0.133247737204094
40
0.444117321191157
40
0.444117321191157
40
0.720208586320938
40
0.720208586320938
40
0.964799566741337
40
0.964799566741337
40
1
40
1
40
1
40
1
41
1
10
45.7057811377292
20
5.13732603584739
30
0
41
1
10
45.7084252805103
20
5.14743958942594
30
0
41
1
10
45.7103214416226
20
5.1578516020036
30
0
41
1
10
45.7138875459704
20
5.19282804074587
30
0
41
1
10
45.7118902257335
20
5.21862029665988
30
0
41
1
10
45.6988253053103
20
5.26467897648683
30
0
41
1
10
45.6885479871287
20
5.28594063540294
30
0
41
1
10
45.6626436053172
20
5.3207181441604
30
0
41
1
10
45.6473660748133
20
5.33532874682732
30
0
41
1
10
45.6278751051425
20
5.34833898777347
30
0
41
1
10
45.6253541204028
20
5.34993134935397
30
0
41
1
10
45.6227967912104
20
5.3514576977725
30
0
0
SPLINE
5
DC
100
AcDbEntity
8
1
62
256
6
ByLayer
370
-1
48
1
60
0
100
AcDbSpline
70
4
71
3
72
12
73
8
40
0
40
0
40
0
40
0
40
0.463607900248108
40
0.463607900248108
40
0.845154826019432
40
0.845154826019432
40
1
40
1
40
1
40
1
41
1
10
45.9858500774002
20
4.27041108389761
30
0
41
1
10
45.9437921050308
20
4.2570361679719
30
0
41
1
10
45.9020083537368
20
4.23690866463389
30
0
41
1
10
45.8316143541816
20
4.1885308865663
30
0
41
1
10
45.8012404845264
20
4.16173401695229
30
0
41
1
10
45.7642344323397
20
4.11910678096194
30
0
41
1
10
45.7541159891605
20
4.10611875194672
30
0
41
1
10
45.7447808315018
20
4.09268228262121
30
0
0
SPLINE
5
DD
100
AcDbEntity
8
1
62
256
6
ByLayer
370
-1
48
1
60
0
100
AcDbSpline
70
4
71
3
72
14
73
10
40
0
40
0
40
0
40
0
40
0.273499318971098
40
0.273499318971098
40
0.562092750114896
40
0.562092750114896
40
0.823458943422139
40
0.823458943422139
40
1
40
1
40
1
40
1
41
1
10
45.3694768834001
20
3.59475557764225
30
0
41
1
10
45.3837792131787
20
3.58158089337184
30
0
41
1
10
45.400951933119
20
3.57031166551815
30
0
41
1
10
45.4399466163608
20
3.55345728729966
30
0
41
1
10
45.4626056657825
20
3.54799540909642
30
0
41
1
10
45.5068034667355
20
3.54567756662422
30
0
41
1
10
45.5289166889142
20
3.54805996959729
30
0
41
1
10
45.5640571386129
20
3.55800893204227
30
0
41
1
10
45.5779961612508
20
3.56370765993435
30
0
41
1
10
45.5909463296665
20
3.5708217729061
30
0
0
SPLINE
5
DE
100
AcDbEntity
8
1
62
256
6
ByLayer
370
-1
48
1
60
0
100
AcDbSpline
70
4
71
3
72
16
73
12
40
0
40
0
40
0
40
0
40
0.0660521325360549
40
0.0660521325360549
40
0.289957748830859
40
0.289957748830859
40
0.516798433661627
40
0.516798433661627
40
0.758130153748382
40
0.758130153748382
40
1
40
1
40
1
40
1
41
1
10
44.5887312287767
20
5.36994810333959
30
0
41
1
10
44.5838528104224
20
5.3672681675904
30
0
41
1
10
44.5790904723165
20
5.36435123372661
30
0
41
1
10
44.5589485103874
20
5.35067200629524
30
0
41
1
10
44.5449171881725
20
5.33744040472811
30
0
41
1
10
44.5217697979208
20
5.30772112412211
30
0
41
1
10
44.5124141419995
20
5.29082430323388
30
0
41
1
10
44.4988108256501
20
5.25475043258916
30
0
41
1
10
44.4947384461104
20
5.23505245102913
30
0
41
1
10
44.492400798924
20
5.19626186273723
30
0
41
1
10
44.4940972170266
20
5.17675847171861
30
0
41
1
10
44.4982974152417
20
5.15826066545426
30
0
0
SPLINE
5
DF
100
AcDbEntity
8
1
62
256
6
ByLayer
370
-1
48
1
60
0
100
AcDbSpline
70
4
71
3
72
14
73
10
40
0
40
0
40
0
40
0
40
0.276366706031681
40
0.276366706031681
40
0.564039947271724
40
0.564039947271724
40
0.824582937741716
40
0.824582937741716
40
1
40
1
40
1
40
1
41
1
10
45.9858500774002
20
4.27041108389764
30
0
41
1
10
46.0058260696367
20
4.27676367774953
30
0
41
1
10
46.025524315967
20
4.28660250961252
30
0
41
1
10
46.0617231305665
20
4.312994871304
30
0
41
1
10
46.0786012323608
20
4.33025471430378
30
0
41
1
10
46.1038387249846
20
4.36784369043218
30
0
41
1
10
46.1132010330569
20
4.3883176999631
30
0
41
1
10
46.1224070498804
20
4.42371898525656
30
0
41
1
10
46.1244531619666
20
4.4385574096747
30
0
41
1
10
46.1246961553038
20
4.45320353893266
30
0
0
SPLINE
5
E0
100
AcDbEntity
8
1
62
256
6
ByLayer
370
-1
48
1
60
0
100
AcDbSpline
70
4
71
3
72
16
73
12
40
0
40
0
40
0
40
0
40
0.0417912919441489
40
0.0417912919441489
40
0.266826949636246
40
0.266826949636246
40
0.493420737309034
40
0.493420737309034
40
0.733421335425283
40
0.733421335425283
40
1
40
1
40
1
40
1
41
1
10
44.5568807672326
20
3.58931217847317
30
0
41
1
10
44.5599034153256
20
3.58750810328792
30
0
41
1
10
44.5629794477007
20
3.58578347559154
30
0
41
1
10
44.5827500585827
20
3.57539104297248
30
0
41
1
10
44.6009581774585
20
3.56898232522681
30
0
41
1
10
44.6375992842679
20
3.56165435002799
30
0
41
1
10
44.6564983551859
20
3.56066640638667
30
0
41
1
10
44.693592758453
20
3.56384502266681
30
0
41
1
10
44.7121478123258
20
3.56834091689882
30
0
41
1
10
44.7476642960582
20
3.58256930695518
30
0
41
1
10
44.7646913435844
20
3.59298816114691
30
0
41
1
10
44.7790713612789
20
3.60531277821991
30
0
0
SPLINE
5
E1
100
AcDbEntity
8
1
62
256
6
ByLayer
370
-1
48
1
60
0
100
AcDbSpline
70
4
71
3
72
12
73
8
40
0
40
0
40
0
40
0
40
0.458784041778099
40
0.458784041778099
40
0.841137304922616
40
0.841137304922616
40
1
40
1
40
1
40
1
41
1
10
44.1935499640784
20
4.65445985609847
30
0
41
1
10
44.2350826162123
20
4.66253686800852
30
0
41
1
10
44.2763436632642
20
4.67751649162941
30
0
41
1
10
44.3463878871145
20
4.71824775135011
30
0
41
1
10
44.3768454904185
20
4.74234941684955
30
0
41
1
10
44.4142583913234
20
4.7830946379994
30
0
41
1
10
44.4246515644508
20
4.79596034321119
30
0
41
1
10
44.4342233155791
20
4.80950788250715
30
0
0
SPLINE
5
E2
100
AcDbEntity
8
1
62
256
6
ByLayer
370
-1
48
1
60
0
100
AcDbSpline
70
4
71
3
72
16
73
12
40
0
40
0
40
0
40
0
40
0.192332030285838
40
0.192332030285838
40
0.417027219021179
40
0.417027219021179
40
0.651426809164334
40
0.651426809164334
40
0.905776305680187
40
0.905776305680187
40
1
40
1
40
1
40
1
41
1
10
45.6227967912104
20
5.3514576977725
30
0
41
1
10
45.6090167400552
20
5.35968235627584
30
0
41
1
10
45.593993244215
20
5.36604361397715
30
0
41
1
10
45.5607225647664
20
5.37505626496394
30
0
41
1
10
45.5419305386835
20
5.37700284096633
30
0
41
1
10
45.5047303159778
20
5.37513880953341
30
0
41
1
10
45.4859051069831
20
5.37107107445237
30
0
41
1
10
45.449658963528
20
5.35729187292472
30
0
41
1
10
45.4320329408768
20
5.34697795528274
30
0
41
1
10
45.410940662521
20
5.32986269079029
30
0
41
1
10
45.4054778295973
20
5.3248830334372
30
0
41
1
10
45.4003300267676
20
5.31963530660704
30
0
0
SPLINE
5
E3
100
AcDbEntity
8
SK1
62
256
6
ByLayer
370
-1
48
1
60
0
100
AcDbSpline
70
4
71
3
72
8
73
4
40
0
40
0
40
0
40
0
40
1
40
1
40
1
40
1
41
1
10
-102.294999997074
20
5.50749999999999
30
0
41
1
10
-102.295019051864
20
5.50749999999999
30
0
41
1
10
-102.108837467164
20
5.50749999999999
30
0
41
1
10
-101.81
20
5.50749999999999
30
0
0
SPLINE
5
E4
100
AcDbEntity
8
SK1
62
256
6
ByLayer
370
-1
48
1
60
0
100
AcDbSpline
70
4
71
3
72
10
73
6
40
0
40
0
40
0
40
0
40
0.5
40
0.5
40
1
40
1
40
1
40
1
41
1
10
-101.81
20
2.37908727246406
30
0
41
1
10
-102.110605723759
20
1.62191462878994
30
0
41
1
10
-102.302681606333
20
0.818569788065645
30
0
41
1
10
-102.302318123354
20
-0.821008410924293
30
0
41
1
10
-102.107009922509
20
-1.63097181607304
30
0
41
1
10
-101.81
20
-2.37908727246398
30
0
0
LINE
5
49
100
AcDbEntity
8
80
62
256
6
ByLayer
370
-1
48
1
60
0
100
AcDbLine
10
0
20
0
30
0
11
-10
21
0
31
0
39
0
210
0
220
0
230
1
0
LINE
5
4A
100
AcDbEntity
8
81
62
256
6
ByLayer
370
-1
48
1
60
0
100
AcDbLine
10
47.94
20
8.9
30
0
11
57.94
21
8.9
31
0
39
0
210
0
220
0
230
1
0
LINE
5
4B
100
AcDbEntity
8
SK4
62
256
6
ByLayer
370
-1
48
0.05
60
0
100
AcDbLine
10
-108.31
20
0
30
0
11
52.361262
21
0
31
0
39
0
210
0
220
0
230
1
0
LINE
5
4D
100
AcDbEntity
8
4
62
256
6
ByLayer
370
-1
48
0.05
60
0
100
AcDbLine
10
0
20
0
30
0
11
52.361262
21
0
31
0
39
0
210
0
220
0
230
1
0
LINE
5
4F
100
AcDbEntity
8
1
62
256
6
ByLayer
370
-1
48
1
60
0
100
AcDbLine
10
0
20
-5.9925
30
0
11
33.819659
21
-5.9925
31
0
39
0
210
0
220
0
230
1
0
LINE
5
50
100
AcDbEntity
8
1
62
256
6
ByLayer
370
-1
48
1
60
0
100
AcDbLine
10
33.819659
20
-5.9925
30
0
11
33.894659
21
-5.9175
31
0
39
0
210
0
220
0
230
1
0
LINE
5
51
100
AcDbEntity
8
1
62
256
6
ByLayer
370
-1
48
1
60
0
100
AcDbLine
10
35.689755
20
5.9175
30
0
11
34.544659
21
5.9175
31
0
39
0
210
0
220
0
230
1
0
LINE
5
52
100
AcDbEntity
8
1
62
256
6
ByLayer
370
-1
48
1
60
0
100
AcDbLine
10
33.894659
20
-5.9175
30
0
11
34.046018
21
-5.9175
31
0
39
0
210
0
220
0
230
1
0
LINE
5
53
100
AcDbEntity
8
1
62
256
6
ByLayer
370
-1
48
1
60
0
100
AcDbLine
10
37.848015
20
7.163572
30
0
11
35.689755
21
5.9175
31
0
39
0
210
0
220
0
230
1
0
LINE
5
54
100
AcDbEntity
8
1
62
256
6
ByLayer
370
-1
48
1
60
0
100
AcDbLine
10
44.48675
20
3.78292
30
0
11
44.48855
21
3.886011
31
0
39
0
210
0
220
0
230
1
0
LINE
5
55
100
AcDbEntity
8
1
62
256
6
ByLayer
370
-1
48
1
60
0
100
AcDbLine
10
45.669358
20
3.86647
30
0
11
45.66756
21
3.763474
31
0
39
0
210
0
220
0
230
1
0
LINE
5
56
100
AcDbEntity
8
1
62
256
6
ByLayer
370
-1
48
1
60
0
100
AcDbLine
10
46.637774
20
4.338561
30
0
11
46.639228
21
4.421846
31
0
39
0
210
0
220
0
230
1
0
LINE
5
57
100
AcDbEntity
8
1
62
256
6
ByLayer
370
-1
48
1
60
0
100
AcDbLine
10
43.5397
20
4.475949
30
0
11
43.538246
21
4.392663
31
0
39
0
210
0
220
0
230
1
0
LINE
5
58
100
AcDbEntity
8
1
62
256
6
ByLayer
370
-1
48
1
60
0
100
AcDbLine
10
45.69066
20
5.027935
30
0
11
45.688863
21
4.92502
31
0
39
0
210
0
220
0
230
1
0
LINE
5
59
100
AcDbEntity
8
1
62
256
6
ByLayer
370
-1
48
1
60
0
100
AcDbLine
10
44.508053
20
4.944466
30
0
11
44.509851
21
5.047461
31
0
39
0
210
0
220
0
230
1
0
LINE
5
5A
100
AcDbEntity
8
SK1
62
256
6
ByLayer
370
-1
48
1
60
0
100
AcDbLine
10
-102.295
20
5.5075
30
0
11
-103.31
21
4.4925
31
0
39
0
210
0
220
0
230
1
0
LINE
5
5C
100
AcDbEntity
8
SK1
62
256
6
ByLayer
370
-1
48
1
60
0
100
AcDbLine
10
-103.31
20
-4.4925
30
0
11
-101.81
21
-5.9925
31
0
39
0
210
0
220
0
230
1
0
LINE
5
5D
100
AcDbEntity
8
SK1
62
256
6
ByLayer
370
-1
48
1
60
0
100
AcDbLine
10
-101.81
20
-5.9925
30
0
11
0
21
-5.9925
31
0
39
0
210
0
220
0
230
1
0
LINE
5
5E
100
AcDbEntity
8
1
62
256
6
ByLayer
370
-1
48
1
60
0
100
AcDbLine
10
0
20
5.5075
30
0
11
0
21
2.379087
31
0
39
0
210
0
220
0
230
1
0
LINE
5
5F
100
AcDbEntity
8
1
62
256
6
ByLayer
370
-1
48
1
60
0
100
AcDbLine
10
36.06199
20
-5.249544
30
0
11
35.992232
21
-5.272657
31
0
39
0
210
0
220
0
230
1
0
LINE
5
60
100
AcDbEntity
8
1
62
256
6
ByLayer
370
-1
48
1
60
0
100
AcDbLine
10
36.06199
20
-5.249544
30
0
11
40.868575
21
-3.656968
31
0
39
0
210
0
220
0
230
1
0
LINE
5
61
100
AcDbEntity
8
1
62
256
6
ByLayer
370
-1
48
1
60
0
100
AcDbLine
10
47.361262
20
-0.120874
30
0
11
47.262078
21
-0.061675
31
0
39
0
210
0
220
0
230
1
0
LINE
5
62
100
AcDbEntity
8
1
62
256
6
ByLayer
370
-1
48
1
60
0
100
AcDbLine
10
32.490408
20
5.5075
30
0
11
34.134659
21
5.5075
31
0
39
0
210
0
220
0
230
1
0
LINE
5
63
100
AcDbEntity
8
1
62
256
6
ByLayer
370
-1
48
1
60
0
100
AcDbLine
10
47.295622
20
-0.072372
30
0
11
47.361262
21
-0.11155
31
0
39
0
210
0
220
0
230
1
0
LINE
5
64
100
AcDbEntity
8
1
62
256
6
ByLayer
370
-1
48
1
60
0
100
AcDbLine
10
33.819659
20
-3.748906
30
0
11
33.819659
21
-5.9925
31
0
39
0
210
0
220
0
230
1
0
LINE
5
65
100
AcDbEntity
8
1
62
256
6
ByLayer
370
-1
48
1
60
0
100
AcDbLine
10
40.070986
20
5.278856
30
0
11
40.068344
21
5.127517
31
0
39
0
210
0
220
0
230
1
0
LINE
5
66
100
AcDbEntity
8
1
62
256
6
ByLayer
370
-1
48
1
60
0
100
AcDbLine
10
47.361262
20
-0.120874
30
0
11
47.361262
21
-0.11155
31
0
39
0
210
0
220
0
230
1
0
LINE
5
67
100
AcDbEntity
8
1
62
256
6
ByLayer
370
-1
48
1
60
0
100
AcDbLine
10
34.460577
20
5.833418
30
0
11
34.544659
21
5.9175
31
0
39
0
210
0
220
0
230
1
0
LINE
5
68
100
AcDbEntity
8
1
62
256
6
ByLayer
370
-1
48
1
60
0
100
AcDbLine
10
35.689755
20
-4.93401
30
0
11
35.689755
21
-5.372877
31
0
39
0
210
0
220
0
230
1
0
LINE
5
69
100
AcDbEntity
8
1
62
256
6
ByLayer
370
-1
48
1
60
0
100
AcDbLine
10
0
20
-2.379087
30
0
11
0
21
2.379087
31
0
39
0
210
0
220
0
230
1
0
LINE
5
6A
100
AcDbEntity
8
1
62
256
6
ByLayer
370
-1
48
1
60
0
100
AcDbLine
10
41.541975
20
5.888257
30
0
11
41.746893
21
5.765951
31
0
39
0
210
0
220
0
230
1
0
LINE
5
6B
100
AcDbEntity
8
1
62
256
6
ByLayer
370
-1
48
1
60
0
100
AcDbLine
10
33.894659
20
-5.9175
30
0
11
33.894659
21
-3.748064
31
0
39
0
210
0
220
0
230
1
0
LINE
5
6C
100
AcDbEntity
8
1
62
256
6
ByLayer
370
-1
48
1
60
0
100
AcDbLine
10
41.49019
20
5.624646
30
0
11
41.491662
21
5.708973
31
0
39
0
210
0
220
0
230
1
0
LINE
5
6D
100
AcDbEntity
8
1
62
256
6
ByLayer
370
-1
48
1
60
0
100
AcDbLine
10
47.361262
20
-1.505732
30
0
11
47.361262
21
-0.120874
31
0
39
0
210
0
220
0
230
1
0
LINE
5
6E
100
AcDbEntity
8
1
62
256
6
ByLayer
370
-1
48
1
60
0
100
AcDbLine
10
31.21746
20
2.379087
30
0
11
0
21
2.379087
31
0
39
0
210
0
220
0
230
1
0
LINE
5
6F
100
AcDbEntity
8
1
62
256
6
ByLayer
370
-1
48
1
60
0
100
AcDbLine
10
44.766416
20
7.428076
30
0
11
44.778389
21
8.114004
31
0
39
0
210
0
220
0
230
1
0
LINE
5
70
100
AcDbEntity
8
1
62
256
6
ByLayer
370
-1
48
1
60
0
100
AcDbLine
10
37.935882
20
7.21429
30
0
11
40.868575
21
-3.656968
31
0
39
0
210
0
220
0
230
1
0
LINE
5
71
100
AcDbEntity
8
1
62
256
6
ByLayer
370
-1
48
1
60
0
100
AcDbLine
10
44.871867
20
8.06309
30
0
11
44.861699
21
7.480529
31
0
39
0
210
0
220
0
230
1
0
LINE
5
72
100
AcDbEntity
8
1
62
256
6
ByLayer
370
-1
48
1
60
0
100
AcDbLine
10
34.046018
20
-5.9175
30
0
11
35.689755
21
-5.372877
31
0
39
0
210
0
220
0
230
1
0
LINE
5
73
100
AcDbEntity
8
1
62
256
6
ByLayer
370
-1
48
1
60
0
100
AcDbLine
10
0
20
5.5075
30
0
11
32.490408
21
5.5075
31
0
39
0
210
0
220
0
230
1
0
LINE
5
74
100
AcDbEntity
8
1
62
256
6
ByLayer
370
-1
48
1
60
0
100
AcDbLine
10
41.541975
20
5.888257
30
0
11
41.491662
21
5.708973
31
0
39
0
210
0
220
0
230
1
0
LINE
5
75
100
AcDbEntity
8
1
62
256
6
ByLayer
370
-1
48
1
60
0
100
AcDbLine
10
40.868575
20
-3.656968
30
0
11
47.361262
21
-1.505732
31
0
39
0
210
0
220
0
230
1
0
LINE
5
76
100
AcDbEntity
8
1
62
256
6
ByLayer
370
-1
48
1
60
0
100
AcDbLine
10
41.564458
20
5.665524
30
0
11
41.491662
21
5.708973
31
0
39
0
210
0
220
0
230
1
0
LINE
5
77
100
AcDbEntity
8
1
62
256
6
ByLayer
370
-1
48
1
60
0
100
AcDbLine
10
0
20
-2.379087
30
0
11
32.791841
21
-2.379087
31
0
39
0
210
0
220
0
230
1
0
LINE
5
78
100
AcDbEntity
8
1
62
256
6
ByLayer
370
-1
48
1
60
0
100
AcDbLine
10
34.134659
20
5.5075
30
0
11
34.460577
21
5.833418
31
0
39
0
210
0
220
0
230
1
0
LINE
5
79
100
AcDbEntity
8
1
62
256
6
ByLayer
370
-1
48
1
60
0
100
AcDbLine
10
0
20
-5.9925
30
0
11
0
21
-2.379087
31
0
39
0
210
0
220
0
230
1
0
LINE
5
7A
100
AcDbEntity
8
1
62
256
6
ByLayer
370
-1
48
1
60
0
100
AcDbLine
10
35.689755
20
5.9175
30
0
11
35.689755
21
5.894861
31
0
39
0
210
0
220
0
230
1
0
LINE
5
7B
100
AcDbEntity
8
SK1
62
256
6
ByLayer
370
-1
48
1
60
0
100
AcDbLine
10
0
20
5.5075
30
0
11
0
21
2.379087
31
0
39
0
210
0
220
0
230
1
0
LINE
5
7C
100
AcDbEntity
8
SK1
62
256
6
ByLayer
370
-1
48
1
60
0
100
AcDbLine
10
0
20
-5.9925
30
0
11
0
21
-2.379087
31
0
39
0
210
0
220
0
230
1
0
LINE
5
7D
100
AcDbEntity
8
SK1
62
256
6
ByLayer
370
-1
48
1
60
0
100
AcDbLine
10
0
20
-2.379087
30
0
11
0
21
2.379087
31
0
39
0
210
0
220
0
230
1
0
LINE
5
7E
100
AcDbEntity
8
SK1
62
256
6
ByLayer
370
-1
48
1
60
0
100
AcDbLine
10
-101.81
20
2.379087
30
0
11
-101.81
21
5.5075
31
0
39
0
210
0
220
0
230
1
0
LINE
5
7F
100
AcDbEntity
8
SK1
62
256
6
ByLayer
370
-1
48
1
60
0
100
AcDbLine
10
-101.81
20
-2.379087
30
0
11
0
21
-2.379087
31
0
39
0
210
0
220
0
230
1
0
LINE
5
80
100
AcDbEntity
8
1
62
256
6
ByLayer
370
-1
48
1
60
0
100
AcDbLine
10
44.434223
20
4.809508
30
0
11
44.432528
21
4.712383
31
0
39
0
210
0
220
0
230
1
0
LINE
5
81
100
AcDbEntity
8
1
62
256
6
ByLayer
370
-1
48
1
60
0
100
AcDbLine
10
44.461587
20
4.760423
30
0
11
44.463283
21
4.857548
31
0
39
0
210
0
220
0
230
1
0
LINE
5
82
100
AcDbEntity
8
1
62
256
6
ByLayer
370
-1
48
1
60
0
100
AcDbLine
10
45.679738
20
3.688417
30
0
11
45.681103
21
3.76661
31
0
39
0
210
0
220
0
230
1
0
LINE
5
83
100
AcDbEntity
8
1
62
256
6
ByLayer
370
-1
48
1
60
0
100
AcDbLine
10
45.990449
20
4.515959
30
0
11
45.992343
21
4.624463
31
0
39
0
210
0
220
0
230
1
0
LINE
5
84
100
AcDbEntity
8
1
62
256
6
ByLayer
370
-1
48
1
60
0
100
AcDbLine
10
45.398436
20
5.211132
30
0
11
45.40033
21
5.319635
31
0
39
0
210
0
220
0
230
1
0
LINE
5
85
100
AcDbEntity
8
1
62
256
6
ByLayer
370
-1
48
1
60
0
100
AcDbLine
10
44.808031
20
5.221689
30
0
11
44.809925
21
5.330193
31
0
39
0
210
0
220
0
230
1
0
LINE
5
86
100
AcDbEntity
8
1
62
256
6
ByLayer
370
-1
48
1
60
0
100
AcDbLine
10
44.191657
20
4.545995
30
0
11
44.19355
21
4.65446
31
0
39
0
210
0
220
0
230
1
0
LINE
5
87
100
AcDbEntity
8
1
62
256
6
ByLayer
370
-1
48
1
60
0
100
AcDbLine
10
44.472331
20
3.713765
30
0
11
44.47362
21
3.787622
31
0
39
0
210
0
220
0
230
1
0
LINE
5
88
100
AcDbEntity
8
1
62
256
6
ByLayer
370
-1
48
1
60
0
100
AcDbLine
10
47.350487
20
8.850497
30
0
11
40.131031
21
4.876484
31
0
39
0
210
0
220
0
230
1
0
LINE
5
89
100
AcDbEntity
8
1
62
256
6
ByLayer
370
-1
48
1
60
0
100
AcDbLine
10
47.796848
20
0.301122
30
0
11
47.939937
21
8.498682
31
0
39
0
210
0
220
0
230
1
0
LINE
5
8A
100
AcDbEntity
8
1
62
256
6
ByLayer
370
-1
48
1
60
0
100
AcDbLine
10
40.119112
20
4.19364
30
0
11
47.195479
21
-0.029907
31
0
39
0
210
0
220
0
230
1
0
LINE
5
8B
100
AcDbEntity
8
SK1
62
256
6
ByLayer
370
-1
48
1
60
0
100
AcDbLine
10
-101.81
20
5.5075
30
0
11
0
21
5.5075
31
0
39
0
210
0
220
0
230
1
0
LINE
5
8C
100
AcDbEntity
8
SK1
62
256
6
ByLayer
370
-1
48
1
60
0
100
AcDbLine
10
0
20
2.379087
30
0
11
-101.81
21
2.379087
31
0
39
0
210
0
220
0
230
1
0
LINE
5
8D
100
AcDbEntity
8
SK1
62
256
6
ByLayer
370
-1
48
1
60
0
100
AcDbLine
10
-103.31
20
-4.4925
30
0
11
-103.31
21
4.4925
31
0
39
0
210
0
220
0
230
1
0
LINE
5
8E
100
AcDbEntity
8
SK1
62
256
6
ByLayer
370
-1
48
1
60
0
100
AcDbLine
10
-101.81
20
-5.9925
30
0
11
-101.81
21
-2.379087
31
0
39
0
210
0
220
0
230
1
0
LINE
5
8F
100
AcDbEntity
8
2
62
256
6
ByLayer
370
-1
48
1
60
1
100
AcDbLine
10
47.94
20
0
30
0
11
47.941
21
0.001
31
0
39
0
210
0
220
0
230
1
0
MTEXT
5
E5
100
AcDbEntity
8
SK6
62
256
6
ByLayer
370
-1
48
1
60
0
100
AcDbMText
10
-24.31
20
-18.51744
30
0
210
0
220
0
230
1
1
\W00.773;\fsimplex.shx,bigfont.shx;A12M-STFCR 09 
40
3.5
41
0
44
1.084337
50
0
71
7
72
5
7
DEFAULT
0
DIMENSION
5
118
100
AcDbEntity
8
2
62
256
6
ByLayer
370
-3
48
1
60
0
100
AcDbDimension
2
DimnDraft3D1
10
60.19
20
0
30
0
11
60.19
21
19.155
31
0
70
32
71
5
72
1
41
1
210
0
220
0
230
1
3
Standard
100
AcDbAlignedDimension
13
49.94
23
8.9
33
0
14
49.94
24
0
34
0
50
90
100
AcDbRotatedDimension
1001
ACAD
1000
DSTYLE
1002
{
1070
    74
1070
     0
1070
   279
1070
     0
1070
   172
1070
     1
1070
   173
1070
     1
1070
   340
1005
E6
1070
    77
1070
     1
1070
    73
1070
     0
1070
   171
1070
     4
1070
   274
1070
     4
1070
   177
1070
     2
1070
   176
1070
     2
1070
   178
1070
     7
1070
    78
1070
     8
1070
    41
1041
3.175
1070
   147
1041
2.25
1070
    42
1041
2.0
1070
    44
1041
2.0
1070
   140
1041
4.5
1070
   343
1005
119
1070
   344
1005
119
1002
}
0
DIMENSION
5
12E
100
AcDbEntity
8
SK2
62
256
6
ByLayer
370
-3
48
1
60
0
100
AcDbDimension
2
DimnDraft3D2
10
-113.06
20
5.9925
30
0
11
-113.06
21
16.2475
31
0
70
32
71
5
72
1
41
1
210
0
220
0
230
1
3
Standard
100
AcDbAlignedDimension
13
-105.31
23
-5.9925
33
0
14
-105.31
24
5.9925
34
0
50
90
100
AcDbRotatedDimension
1001
ACAD
1000
DSTYLE
1002
{
1070
    74
1070
     0
1070
   279
1070
     0
1070
   172
1070
     1
1070
   173
1070
     1
1070
   340
1005
E6
1070
    77
1070
     1
1070
    73
1070
     0
1070
   171
1070
     4
1070
   274
1070
     4
1070
   177
1070
     2
1070
   176
1070
     2
1070
   178
1070
     7
1070
    78
1070
     8
1070
    41
1041
3.175
1070
   147
1041
2.25
1070
    42
1041
2.0
1070
    44
1041
2.0
1070
   140
1041
4.5
1070
   343
1005
119
1070
   344
1005
119
1002
}
0
DIMENSION
5
13C
100
AcDbEntity
8
SK2
62
256
6
ByLayer
370
-3
48
1
60
0
100
AcDbDimension
2
DimnDraft3D3
10
-103.31
20
21.65
30
0
11
-33.937632
21
21.65
31
0
70
32
71
5
72
1
41
1
210
0
220
0
230
1
3
Standard
100
AcDbAlignedDimension
13
47.94
23
10.9
33
0
14
-103.31
24
7.9925
34
0
50
0
100
AcDbRotatedDimension
1001
ACAD
1000
DSTYLE
1002
{
1070
   279
1070
     0
1070
   172
1070
     1
1070
   173
1070
     1
1070
   340
1005
E6
1070
    77
1070
     1
1070
    73
1070
     0
1070
   171
1070
     4
1070
   274
1070
     4
1070
   177
1070
     2
1070
   176
1070
     2
1070
   178
1070
     7
1070
    78
1070
     8
1070
    41
1041
3.175
1070
   147
1041
2.25
1070
    42
1041
2.0
1070
    44
1041
2.0
1070
   140
1041
4.5
1070
   343
1005
119
1070
   344
1005
119
1002
}
0
DIMENSION
5
14A
100
AcDbEntity
8
2
62
256
6
ByLayer
370
-3
48
1
60
0
100
AcDbDimension
2
DimnDraft3D4
10
96.711057
20
0
30
0
11
74.955805
21
-35.936736
31
0
70
34
71
5
72
1
41
1
210
0
220
0
230
1
3
Standard
100
AcDb2LineAngularDimension
13
47.748024
23
-2.098325
33
0
14
46.930766
24
-48.918955
34
0
15
49.94
25
0
35
0
16
77.521712
26
-30.260654
36
0
40
0
0
ENDSEC
0
SECTION
2
OBJECTS
0
DICTIONARY
5
17b
330
0
100
AcDbDictionary
280
0
281
1
3
ACAD_GROUP
350
17c
3
ACAD_MLINESTYLE
350
17d
0
DICTIONARY
5
17c
330
0
100
AcDbDictionary
280
0
281
1
0
DICTIONARY
5
17d
330
0
100
AcDbDictionary
280
0
281
1
3
Standard
350
18
0
MLINESTYLE
5
18
330
17d
100
AcDbMlineStyle
2
Standard
70
0
3

62
256
51
90
52
90
71
2
49
-0.5
62
256
6
ByLayer
49
0.5
62
256
6
ByLayer
0
RASTERVARIABLES
5
169
330

100
AcDbRasterVariables
90
0
70
1
71
1
72
1
0
ENDSEC
0
EOF
