0
SECTION
2
HEADER
9
$ACADVER
1
AC1015
9
$DWGCODEPAGE
3
ANSI_1252
9
$HANDSEED
5
184
9
$ANGBASE
50
0
9
$ANGDIR
70
0
9
$ATTMODE
70
1
9
$AUNITS
70
0
9
$AUPREC
70
0
9
$CECOLOR
62
256
9
$CELTSCALE
40
1
9
$CELTYPE
6
ByLayer
9
$CELWEIGHT
370
-1
9
$CLAYER
8
0
9
$CMLJUST
70
0
9
$CMLSCALE
40
1
9
$CMLSTYLE
2
Standard
9
$DIMSTYLE
2
Standard
9
$TEXTSIZE
40
0.2
9
$TEXTSTYLE
7
Standard
9
$LUNITS
70
2
9
$LUPREC
70
4
9
$EXTNAMES
290
1
9
$INSUNITS
70
4
9
$LTSCALE
40
1
9
$LWDISPLAY
290
0
9
$PDMODE
70
0
9
$PDSIZE
40
0
9
$PLINEGEN
70
0
0
ENDSEC
0
SECTION
2
CLASSES
0
CLASS
1
RASTERVARIABLES
2
AcDbRasterVariables
3
ISM
90
0
280
0
281
0
0
ENDSEC
0
SECTION
2
TABLES
0
TABLE
2
VPORT
5
17a
100
AcDbSymbolTable
0
VPORT
5
1
100
AcDbSymbolTableRecord
100
AcDbViewportTableRecord
2
*Active
70
0
10
0
20
0
11
1
21
1
12
-1
22
1
13
0
23
0
14
0.5
24
0.5
15
10
25
10
16
0
26
0
36
1
17
0
27
0
37
0
0
ENDTAB
0
TABLE
2
LTYPE
5
17b
100
AcDbSymbolTable
0
LTYPE
5
14
100
AcDbSymbolTableRecord
100
AcDbLinetypeTableRecord
70
0
2
ByBlock
3

72
65
73
0
40
0
0
LTYPE
5
15
100
AcDbSymbolTableRecord
100
AcDbLinetypeTableRecord
70
0
2
ByLayer
3

72
65
73
0
40
0
0
LTYPE
5
16
100
AcDbSymbolTableRecord
100
AcDbLinetypeTableRecord
70
0
2
CONTINUOUS
3
Solid line
72
65
73
0
40
0
0
LTYPE
5
3B
100
AcDbSymbolTableRecord
100
AcDbLinetypeTableRecord
70
0
2
DASHED
3
__ __ __ __ __ __ __ __ __
72
65
73
2
40
25.72
49
12.86
74
0
49
-12.86
74
0
0
LTYPE
5
3C
100
AcDbSymbolTableRecord
100
AcDbLinetypeTableRecord
70
0
2
HIDDEN
3
_ _ _ _ _ _ _ _ _ _ _ _ _ _ _
72
65
73
2
40
0.5
49
0.25
74
0
49
-0.25
74
0
0
LTYPE
5
3D
100
AcDbSymbolTableRecord
100
AcDbLinetypeTableRecord
70
0
2
PHANTOM
3
____ _ _ ____ _ _ _____ _ _ ____
72
65
73
6
40
50.5
49
18
74
0
49
-6.5
74
0
49
6.5
74
0
49
-6.5
74
0
49
6.5
74
0
49
-6.5
74
0
0
LTYPE
5
3E
100
AcDbSymbolTableRecord
100
AcDbLinetypeTableRecord
70
0
2
CENTER
3
____ _ ____ _ ____ _ ____
72
65
73
4
40
47.5
49
22
74
0
49
-8.5
74
0
49
8.5
74
0
49
-8.5
74
0
0
LTYPE
5
3F
100
AcDbSymbolTableRecord
100
AcDbLinetypeTableRecord
70
0
2
DOT
3
.........................
72
65
73
2
40
10
49
0
74
0
49
-10
74
0
0
LTYPE
5
40
100
AcDbSymbolTableRecord
100
AcDbLinetypeTableRecord
70
0
2
DASHDOT
3
_._._._._._._._._._._._._._._._.
72
65
73
4
40
70
49
31
74
0
49
-13
74
0
49
13
74
0
49
-13
74
0
0
ENDTAB
0
TABLE
2
LAYER
5
17c
100
AcDbSymbolTable
0
LAYER
5
10
100
AcDbSymbolTableRecord
100
AcDbLayerTableRecord
2
0
70
0
62
7
6
CONTINUOUS
290
1
370
-3
390
0
0
LAYER
5
42
100
AcDbSymbolTableRecord
100
AcDbLayerTableRecord
2
80
70
0
62
-6
6
CONTINUOUS
290
1
370
-3
390
0
0
LAYER
5
44
100
AcDbSymbolTableRecord
100
AcDbLayerTableRecord
2
81
70
0
62
-3
6
CONTINUOUS
290
1
370
-3
390
0
0
LAYER
5
46
100
AcDbSymbolTableRecord
100
AcDbLayerTableRecord
2
1
70
0
62
4
6
CONTINUOUS
290
1
370
-3
390
0
0
LAYER
5
48
100
AcDbSymbolTableRecord
100
AcDbLayerTableRecord
2
2
70
0
62
7
6
CONTINUOUS
290
1
370
-3
390
0
0
LAYER
5
4F
100
AcDbSymbolTableRecord
100
AcDbLayerTableRecord
2
4
70
0
62
-2
6
CENTER
290
1
370
-3
390
0
0
LAYER
5
166
100
AcDbSymbolTableRecord
100
AcDbLayerTableRecord
2
SK4
70
0
62
2
6
CENTER
290
1
370
-3
390
0
0
LAYER
5
167
100
AcDbSymbolTableRecord
100
AcDbLayerTableRecord
2
SK1
70
0
62
4
6
CONTINUOUS
290
1
370
-3
390
0
0
LAYER
5
168
100
AcDbSymbolTableRecord
100
AcDbLayerTableRecord
2
SK6
70
0
62
5
6
CONTINUOUS
290
1
370
-3
390
0
0
LAYER
5
169
100
AcDbSymbolTableRecord
100
AcDbLayerTableRecord
2
SK2
70
0
62
7
6
CONTINUOUS
290
1
370
-3
390
0
0
ENDTAB
0
TABLE
2
STYLE
5
17d
100
AcDbSymbolTable
0
STYLE
5
11
100
AcDbSymbolTableRecord
100
AcDbTextStyleTableRecord
2
Standard
3
txt
70
0
71
0
40
0
41
1
42
0
50
0
0
STYLE
5
E2
100
AcDbSymbolTableRecord
100
AcDbTextStyleTableRecord
2
DEFAULT
3
simplex.shx
70
0
71
0
40
0
41
1
42
0
50
0
0
STYLE
5
105
100
AcDbSymbolTableRecord
100
AcDbTextStyleTableRecord
2
DWGDirectTextStyle
3
SIMPLEX
70
0
71
0
40
0
41
1
42
0
50
0
0
ENDTAB
0
TABLE
2
DIMSTYLE
5
17e
100
AcDbSymbolTable
100
AcDbDimStyleTable
0
DIMSTYLE
105
27
100
AcDbSymbolTableRecord
100
AcDbDimStyleTableRecord
2
Standard
70
0
3
<>
41
0.18
42
0.0625
44
0.18
140
0.18
147
0.09
73
0
74
0
77
1
271
2
275
0
278
52
280
0
340
11
0
ENDTAB
0
TABLE
2
VIEW
5
17f
100
AcDbSymbolTable
0
ENDTAB
0
TABLE
2
UCS
5
180
100
AcDbSymbolTable
0
ENDTAB
0
TABLE
2
APPID
5
181
100
AcDbSymbolTable
0
APPID
5
12
100
AcDbSymbolTableRecord
100
AcDbRegAppTableRecord
2
ACAD
70
0
0
ENDTAB
0
TABLE
2
BLOCK_RECORD
5
182
100
AcDbSymbolTable
0
BLOCK_RECORD
5
1F
100
AcDbSymbolTableRecord
100
AcDbBlockTableRecord
2
*Model_Space
340
0
70
0
0
BLOCK_RECORD
5
1B
100
AcDbSymbolTableRecord
100
AcDbBlockTableRecord
2
*Paper_Space
340
0
70
0
0
BLOCK_RECORD
5
23
100
AcDbSymbolTableRecord
100
AcDbBlockTableRecord
2
*Paper_Space0
340
0
70
0
0
BLOCK_RECORD
5
107
100
AcDbSymbolTableRecord
100
AcDbBlockTableRecord
2
DimnDraft3D1
340
0
70
0
0
BLOCK_RECORD
5
115
100
AcDbSymbolTableRecord
100
AcDbBlockTableRecord
2
_CLOSED
340
0
70
0
0
BLOCK_RECORD
5
11C
100
AcDbSymbolTableRecord
100
AcDbBlockTableRecord
2
DimnDraft3D2
340
0
70
0
0
BLOCK_RECORD
5
12B
100
AcDbSymbolTableRecord
100
AcDbBlockTableRecord
2
DimnDraft3D3
340
0
70
0
0
BLOCK_RECORD
5
139
100
AcDbSymbolTableRecord
100
AcDbBlockTableRecord
2
DimnDraft3D4
340
0
70
0
0
ENDTAB
0
ENDSEC
0
SECTION
2
BLOCKS
0
BLOCK
5
20
100
AcDbEntity
8
0
100
AcDbBlockBegin
2
*Model_Space
70
0
10
0
20
0
30
0
3
*Model_Space
0
ENDBLK
5
21
100
AcDbEntity
8
0
100
AcDbBlockEnd
0
BLOCK
5
1C
100
AcDbEntity
8
0
100
AcDbBlockBegin
2
*Paper_Space
70
0
10
0
20
0
30
0
3
*Paper_Space
0
ENDBLK
5
1D
100
AcDbEntity
8
0
100
AcDbBlockEnd
0
BLOCK
5
24
100
AcDbEntity
8
0
100
AcDbBlockBegin
2
*Paper_Space0
70
0
10
0
20
0
30
0
3
*Paper_Space0
0
ENDBLK
5
25
100
AcDbEntity
8
0
100
AcDbBlockEnd
0
BLOCK
5
112
100
AcDbEntity
8
0
100
AcDbBlockBegin
2
DimnDraft3D1
70
0
10
0
20
0
30
0
3
DimnDraft3D1
0
MTEXT
5
108
100
AcDbEntity
8
2
62
256
6
ByLayer
370
-1
48
1
60
0
100
AcDbMText
10
59.065
20
22.28
30
0
210
0
220
0
230
1
1
\W01.000;\fsimplex.shx,bigfont.shx;11.0 
40
4.5
41
0
44
1.084337
50
90
71
7
72
5
7
DEFAULT
0
LINE
5
109
100
AcDbEntity
8
2
62
256
6
ByLayer
370
-1
48
1
60
0
100
AcDbLine
10
49.94
20
10.9
30
0
11
62.19
21
10.9
31
0
39
0
210
0
220
0
230
1
0
LINE
5
10A
100
AcDbEntity
8
2
62
256
6
ByLayer
370
-1
48
1
60
0
100
AcDbLine
10
49.94
20
0
30
0
11
62.19
21
0
31
0
39
0
210
0
220
0
230
1
0
LINE
5
10B
100
AcDbEntity
8
2
62
256
6
ByLayer
370
-1
48
1
60
0
100
AcDbLine
10
60.19
20
0
30
0
11
60.19
21
29.231316
31
0
39
0
210
0
220
0
230
1
0
LINE
5
10C
100
AcDbEntity
8
2
62
256
6
ByLayer
370
-1
48
1
60
0
100
AcDbLine
10
60.19
20
10.9
30
0
11
60.607997
21
7.725002
31
0
39
0
210
0
220
0
230
1
0
LINE
5
10D
100
AcDbEntity
8
2
62
256
6
ByLayer
370
-1
48
1
60
0
100
AcDbLine
10
60.19
20
10.9
30
0
11
59.772003
21
7.724998
31
0
39
0
210
0
220
0
230
1
0
LINE
5
10E
100
AcDbEntity
8
2
62
256
6
ByLayer
370
-1
48
1
60
0
100
AcDbLine
10
60.607997
20
7.725002
30
0
11
59.772003
21
7.724998
31
0
39
0
210
0
220
0
230
1
0
LINE
5
10F
100
AcDbEntity
8
2
62
256
6
ByLayer
370
-1
48
1
60
0
100
AcDbLine
10
60.19
20
0
30
0
11
59.772003
21
3.174998
31
0
39
0
210
0
220
0
230
1
0
LINE
5
110
100
AcDbEntity
8
2
62
256
6
ByLayer
370
-1
48
1
60
0
100
AcDbLine
10
60.19
20
0
30
0
11
60.607997
21
3.175002
31
0
39
0
210
0
220
0
230
1
0
LINE
5
111
100
AcDbEntity
8
2
62
256
6
ByLayer
370
-1
48
1
60
0
100
AcDbLine
10
59.772003
20
3.174998
30
0
11
60.607997
21
3.175002
31
0
39
0
210
0
220
0
230
1
0
ENDBLK
5
113
100
AcDbEntity
8
0
100
AcDbBlockEnd
0
BLOCK
5
116
100
AcDbEntity
8
0
100
AcDbBlockBegin
2
_CLOSED
70
0
10
0
20
0
30
0
3
_CLOSED
0
LINE
5
118
100
AcDbEntity
8
0
62
256
6
ByLayer
370
-2
48
1
60
0
100
AcDbLine
10
-1
20
0.166667
30
0
11
0
21
0
31
0
39
0
210
0
220
0
230
1
0
LINE
5
119
100
AcDbEntity
8
0
62
256
6
ByLayer
370
-2
48
1
60
0
100
AcDbLine
10
0
20
0
30
0
11
-1
21
-0.166667
31
0
39
0
210
0
220
0
230
1
0
LINE
5
11A
100
AcDbEntity
8
0
62
256
6
ByLayer
370
-2
48
1
60
0
100
AcDbLine
10
-1
20
0.166667
30
0
11
-1
21
-0.166667
31
0
39
0
210
0
220
0
230
1
0
LINE
5
11B
100
AcDbEntity
8
0
62
256
6
ByLayer
370
-2
48
1
60
0
100
AcDbLine
10
0
20
0
30
0
11
-1
21
0
31
0
39
0
210
0
220
0
230
1
0
ENDBLK
5
117
100
AcDbEntity
8
0
100
AcDbBlockEnd
0
BLOCK
5
128
100
AcDbEntity
8
0
100
AcDbBlockBegin
2
DimnDraft3D2
70
0
10
0
20
0
30
0
3
DimnDraft3D2
0
MTEXT
5
11D
100
AcDbEntity
8
SK2
62
256
6
ByLayer
370
-1
48
1
60
0
100
AcDbMText
10
-114.185
20
17.3725
30
0
210
0
220
0
230
1
1
\W01.000;\fsimplex.shx,bigfont.shx;%%c12 
40
4.5
41
0
44
1.084337
50
90
71
7
72
5
7
DEFAULT
0
LINE
5
11F
100
AcDbEntity
8
SK2
62
256
6
ByLayer
370
-1
48
1
60
0
100
AcDbLine
10
-105.31
20
-5.9925
30
0
11
-115.06
21
-5.9925
31
0
39
0
210
0
220
0
230
1
0
LINE
5
120
100
AcDbEntity
8
SK2
62
256
6
ByLayer
370
-1
48
1
60
0
100
AcDbLine
10
-105.31
20
5.9925
30
0
11
-115.06
21
5.9925
31
0
39
0
210
0
220
0
230
1
0
LINE
5
121
100
AcDbEntity
8
SK2
62
256
6
ByLayer
370
-1
48
1
60
0
100
AcDbLine
10
-113.06
20
-5.9925
30
0
11
-113.06
21
24.690921
31
0
39
0
210
0
220
0
230
1
0
LINE
5
122
100
AcDbEntity
8
SK2
62
256
6
ByLayer
370
-1
48
1
60
0
100
AcDbLine
10
-113.06
20
-5.9925
30
0
11
-113.477997
21
-2.817502
31
0
39
0
210
0
220
0
230
1
0
LINE
5
123
100
AcDbEntity
8
SK2
62
256
6
ByLayer
370
-1
48
1
60
0
100
AcDbLine
10
-113.06
20
-5.9925
30
0
11
-112.642003
21
-2.817498
31
0
39
0
210
0
220
0
230
1
0
LINE
5
124
100
AcDbEntity
8
SK2
62
256
6
ByLayer
370
-1
48
1
60
0
100
AcDbLine
10
-113.477997
20
-2.817502
30
0
11
-112.642003
21
-2.817498
31
0
39
0
210
0
220
0
230
1
0
LINE
5
125
100
AcDbEntity
8
SK2
62
256
6
ByLayer
370
-1
48
1
60
0
100
AcDbLine
10
-113.06
20
5.9925
30
0
11
-112.642003
21
2.817502
31
0
39
0
210
0
220
0
230
1
0
LINE
5
126
100
AcDbEntity
8
SK2
62
256
6
ByLayer
370
-1
48
1
60
0
100
AcDbLine
10
-113.06
20
5.9925
30
0
11
-113.477997
21
2.817498
31
0
39
0
210
0
220
0
230
1
0
LINE
5
127
100
AcDbEntity
8
SK2
62
256
6
ByLayer
370
-1
48
1
60
0
100
AcDbLine
10
-112.642003
20
2.817502
30
0
11
-113.477997
21
2.817498
31
0
39
0
210
0
220
0
230
1
0
ENDBLK
5
129
100
AcDbEntity
8
0
100
AcDbBlockEnd
0
BLOCK
5
136
100
AcDbEntity
8
0
100
AcDbBlockBegin
2
DimnDraft3D3
70
0
10
0
20
0
30
0
3
DimnDraft3D3
0
MTEXT
5
12C
100
AcDbEntity
8
SK2
62
256
6
ByLayer
370
-1
48
1
60
0
100
AcDbMText
10
-32.812632
20
24.775
30
0
210
0
220
0
230
1
1
\W01.000;\fsimplex.shx,bigfont.shx;150.0 
40
4.5
41
0
44
1.084337
50
0
71
7
72
5
7
DEFAULT
0
LINE
5
12D
100
AcDbEntity
8
SK2
62
256
6
ByLayer
370
-1
48
1
60
0
100
AcDbLine
10
47.94
20
12.9
30
0
11
47.94
21
25.65
31
0
39
0
210
0
220
0
230
1
0
LINE
5
12E
100
AcDbEntity
8
SK2
62
256
6
ByLayer
370
-1
48
1
60
0
100
AcDbLine
10
-103.31
20
7.9925
30
0
11
-103.31
21
25.65
31
0
39
0
210
0
220
0
230
1
0
LINE
5
12F
100
AcDbEntity
8
SK2
62
256
6
ByLayer
370
-1
48
1
60
0
100
AcDbLine
10
47.94
20
23.65
30
0
11
-103.31
21
23.65
31
0
39
0
210
0
220
0
230
1
0
LINE
5
130
100
AcDbEntity
8
SK2
62
256
6
ByLayer
370
-1
48
1
60
0
100
AcDbLine
10
47.94
20
23.65
30
0
11
44.765002
21
23.232003
31
0
39
0
210
0
220
0
230
1
0
LINE
5
131
100
AcDbEntity
8
SK2
62
256
6
ByLayer
370
-1
48
1
60
0
100
AcDbLine
10
47.94
20
23.65
30
0
11
44.764998
21
24.067997
31
0
39
0
210
0
220
0
230
1
0
LINE
5
132
100
AcDbEntity
8
SK2
62
256
6
ByLayer
370
-1
48
1
60
0
100
AcDbLine
10
44.765002
20
23.232003
30
0
11
44.764998
21
24.067997
31
0
39
0
210
0
220
0
230
1
0
LINE
5
133
100
AcDbEntity
8
SK2
62
256
6
ByLayer
370
-1
48
1
60
0
100
AcDbLine
10
-103.31
20
23.65
30
0
11
-100.135002
21
24.067997
31
0
39
0
210
0
220
0
230
1
0
LINE
5
134
100
AcDbEntity
8
SK2
62
256
6
ByLayer
370
-1
48
1
60
0
100
AcDbLine
10
-103.31
20
23.65
30
0
11
-100.134998
21
23.232003
31
0
39
0
210
0
220
0
230
1
0
LINE
5
135
100
AcDbEntity
8
SK2
62
256
6
ByLayer
370
-1
48
1
60
0
100
AcDbLine
10
-100.135002
20
24.067997
30
0
11
-100.134998
21
23.232003
31
0
39
0
210
0
220
0
230
1
0
ENDBLK
5
137
100
AcDbEntity
8
0
100
AcDbBlockEnd
0
BLOCK
5
144
100
AcDbEntity
8
0
100
AcDbBlockBegin
2
DimnDraft3D4
70
0
10
0
20
0
30
0
3
DimnDraft3D4
0
MTEXT
5
13A
100
AcDbEntity
8
2
62
256
6
ByLayer
370
-1
48
1
60
0
100
AcDbMText
10
75.091011
20
-36.834311
30
0
210
0
220
0
230
1
1
\W01.000;\fsimplex.shx,bigfont.shx;93%%d0' 
40
4.5
41
0
44
1.084337
50
43.5
71
7
72
5
7
DEFAULT
0
LINE
5
13B
100
AcDbEntity
8
2
62
256
6
ByLayer
370
-1
48
1
60
0
100
AcDbLine
10
47.468976
20
1.912334
30
0
11
44.808145
21
-48.859355
31
0
39
0
210
0
220
0
230
1
0
LINE
5
13C
100
AcDbEntity
8
2
62
256
6
ByLayer
370
-1
48
1
60
0
100
AcDbLine
10
49.94
20
0
30
0
11
96.295162
21
0
31
0
39
0
210
0
220
0
230
1
0
ARC
5
13D
100
AcDbEntity
8
2
62
256
6
ByLayer
370
-1
48
1
60
0
100
AcDbCircle
39
0
10
47.368755
20
0
30
0
40
46.9264068782928
210
0
220
0
230
1
100
AcDbArc
50
267
51
0
0
LINE
5
13E
100
AcDbEntity
8
2
62
256
6
ByLayer
370
-1
48
1
60
0
100
AcDbLine
10
44.912817
20
-46.862096
30
0
11
48.100636
21
-46.556897
31
0
39
0
210
0
220
0
230
1
0
LINE
5
13F
100
AcDbEntity
8
2
62
256
6
ByLayer
370
-1
48
1
60
0
100
AcDbLine
10
44.912817
20
-46.862096
30
0
11
48.071008
21
-47.392365
31
0
39
0
210
0
220
0
230
1
0
LINE
5
140
100
AcDbEntity
8
2
62
256
6
ByLayer
370
-1
48
1
60
0
100
AcDbLine
10
48.100636
20
-46.556897
30
0
11
48.071008
21
-47.392365
31
0
39
0
210
0
220
0
230
1
0
LINE
5
141
100
AcDbEntity
8
2
62
256
6
ByLayer
370
-1
48
1
60
0
100
AcDbLine
10
94.295162
20
0
30
0
11
94.659418
21
-3.181612
31
0
39
0
210
0
220
0
230
1
0
LINE
5
142
100
AcDbEntity
8
2
62
256
6
ByLayer
370
-1
48
1
60
0
100
AcDbLine
10
94.295162
20
0
30
0
11
93.823544
21
-3.16748
31
0
39
0
210
0
220
0
230
1
0
LINE
5
143
100
AcDbEntity
8
2
62
256
6
ByLayer
370
-1
48
1
60
0
100
AcDbLine
10
94.659418
20
-3.181612
30
0
11
93.823544
21
-3.16748
31
0
39
0
210
0
220
0
230
1
0
ENDBLK
5
145
100
AcDbEntity
8
0
100
AcDbBlockEnd
0
ENDSEC
0
SECTION
2
ENTITIES
0
ELLIPSE
5
8F
100
AcDbEntity
8
1
62
256
6
ByLayer
370
-1
48
1
60
0
100
AcDbEllipse
10
41.414853
20
-0.057542
30
0
11
-1.0485610114923
21
0.0549527540550638
31
0
210
0
220
0
230
1
40
0.995729
41
-2.78398620744039
42
-2.7272631359825
0
ELLIPSE
5
90
100
AcDbEntity
8
1
62
256
6
ByLayer
370
-1
48
1
60
0
100
AcDbEllipse
10
41.414853
20
-0.057542
30
0
11
-1.0485610114923
21
0.0549527540550638
31
0
210
0
220
0
230
1
40
0.995729
41
-1.19431339985299
42
-0.0889120777820761
0
ELLIPSE
5
91
100
AcDbEntity
8
1
62
256
6
ByLayer
370
-1
48
1
60
0
100
AcDbEllipse
10
37.923029
20
7.538359
30
0
11
8.82968177192425
21
-0.000265617836624838
31
0
210
0
220
0
230
-1
40
0.08906
41
1.57546103979559
42
1.70133766204237
0
ELLIPSE
5
92
100
AcDbEntity
8
1
62
256
6
ByLayer
370
-1
48
1
60
0
100
AcDbEllipse
10
41.247659
20
1.189445
30
0
11
-1.24828691844322
21
0.0654199453036471
31
0
210
0
220
0
230
1
40
0.995729
41
-0.959931088596877
42
0.862027290779767
0
ELLIPSE
5
93
100
AcDbEntity
8
1
62
256
6
ByLayer
370
-1
48
1
60
0
100
AcDbEllipse
10
41.425257
20
0.140975
30
0
11
1.0485610114923
21
-0.0549527540550859
31
0
210
0
220
0
230
1
40
0.995729
41
3.0526805758077
42
0.263164752213128
0
ELLIPSE
5
94
100
AcDbEntity
8
1
62
256
6
ByLayer
370
-1
48
1
60
0
100
AcDbEllipse
10
41.412679
20
-0.099032
30
0
11
-1.0485610114923
21
0.0549527540550638
31
0
210
0
220
0
230
1
40
0.995729
41
-3.02642164264965
42
-2.69419842082627
0
ELLIPSE
5
95
100
AcDbEntity
8
1
62
256
6
ByLayer
370
-1
48
1
60
0
100
AcDbEllipse
10
41.412679
20
-0.099032
30
0
11
-1.0485610114923
21
0.0549527540550638
31
0
210
0
220
0
230
1
40
0.995729
41
-1.1943820310919
42
-0.115146791452159
0
ELLIPSE
5
96
100
AcDbEntity
8
1
62
256
6
ByLayer
370
-1
48
1
60
0
100
AcDbEllipse
10
41.237255
20
0.990928
30
0
11
-1.24828691844322
21
0.0654199453036471
31
0
210
0
220
0
230
1
40
0.995729
41
-0.959931088596897
42
-0.0799251521569508
0
ELLIPSE
5
97
100
AcDbEntity
8
1
62
256
6
ByLayer
370
-1
48
1
60
0
100
AcDbEllipse
10
40.719113
20
10.932843
30
0
11
-4.19424404596921
21
0.219811016220254
31
0
210
0
220
0
230
1
40
0.995729
41
1.62293296801675
42
1.78284166784591
0
ELLIPSE
5
98
100
AcDbEntity
8
1
62
256
6
ByLayer
370
-1
48
1
60
0
100
AcDbEllipse
10
51.244303
20
4.757831
30
0
11
-4.19424404596925
21
0.219811016220256
31
0
210
0
220
0
230
1
40
0.995729
41
0.391928592698274
42
0.439975954790941
0
ELLIPSE
5
99
100
AcDbEntity
8
1
62
256
6
ByLayer
370
-1
48
1
60
0
100
AcDbEllipse
10
47.189655
20
3.760114
30
0
11
0.396331096605723
21
-0.0207708326339165
31
0
210
0
220
0
230
1
40
0.995729
41
-0.959931088596881
42
-9.43962210693972E-14
0
ELLIPSE
5
9A
100
AcDbEntity
8
1
62
256
6
ByLayer
370
-1
48
1
60
0
100
AcDbEllipse
10
41.791749
20
6.927006
30
0
11
0.396331096605723
21
-0.0207708326339165
31
0
210
0
220
0
230
1
40
0.995729
41
2.18166156499292
42
-3.1415926535897
0
ELLIPSE
5
9B
100
AcDbEntity
8
1
62
256
6
ByLayer
370
-1
48
1
60
0
100
AcDbEllipse
10
44.485688
20
5.247891
30
0
11
-0.746974891996417
21
0.0391472952697021
31
0
210
0
220
0
230
1
40
0.995729
41
1.87141330332109
42
2.55056793538826
0
ELLIPSE
5
9C
100
AcDbEntity
8
1
62
256
6
ByLayer
370
-1
48
1
60
0
100
AcDbEllipse
10
44.48972
20
5.324814
30
0
11
0.746974891996409
21
-0.0391472952697178
31
0
210
0
220
0
230
1
40
0.995729
41
2.62389575737434
42
2.69935846120826
0
ELLIPSE
5
9D
100
AcDbEntity
8
1
62
256
6
ByLayer
370
-1
48
1
60
0
100
AcDbEllipse
10
44.49052
20
5.340091
30
0
11
1.03358156847098
21
-0.0541677147114417
31
0
210
0
220
0
230
1
40
0.995729
41
-2.0507618710933
42
-1.00442229955662
0
ELLIPSE
5
9E
100
AcDbEntity
8
1
62
256
6
ByLayer
370
-1
48
1
60
0
100
AcDbEllipse
10
45.492643
20
4.657122
30
0
11
-0.421421663666431
21
0.0220857735345113
31
0
210
0
220
0
230
1
40
0.995729
41
-9.8023195444018E-06
42
0.297120655593507
0
ELLIPSE
5
9F
100
AcDbEntity
8
1
62
256
6
ByLayer
370
-1
48
1
60
0
100
AcDbEllipse
10
44.49052
20
5.340091
30
0
11
1.03358156847098
21
-0.0541677147114417
31
0
210
0
220
0
230
1
40
0.995729
41
-3.09710144263005
42
-2.0507618710933
0
ELLIPSE
5
A0
100
AcDbEntity
8
1
62
256
6
ByLayer
370
-1
48
1
60
0
100
AcDbEllipse
10
44.485688
20
5.247891
30
0
11
-0.746974891996417
21
0.0391472952697021
31
0
210
0
220
0
230
1
40
0.995729
41
0.675924248770119
42
1.3526449339407
0
ELLIPSE
5
A1
100
AcDbEntity
8
1
62
256
6
ByLayer
370
-1
48
1
60
0
100
AcDbEllipse
10
44.48972
20
5.324814
30
0
11
0.746974891996409
21
-0.0391472952697178
31
0
210
0
220
0
230
1
40
0.995729
41
-0.517696896215075
42
-0.442234192381804
0
ELLIPSE
5
A2
100
AcDbEntity
8
1
62
256
6
ByLayer
370
-1
48
1
60
0
100
AcDbEllipse
10
44.485688
20
5.247891
30
0
11
0.74697489199642
21
-0.0391472952697183
31
0
210
0
220
0
230
1
40
0.995729
41
0.56766099672815
42
1.61400056826477
0
ELLIPSE
5
A3
100
AcDbEntity
8
1
62
256
6
ByLayer
370
-1
48
1
60
0
100
AcDbEllipse
10
44.485688
20
5.247891
30
0
11
-0.746974891996417
21
0.0391472952697021
31
0
210
0
220
0
230
1
40
0.995729
41
2.86554978930192
42
-2.57393165686165
0
ELLIPSE
5
A4
100
AcDbEntity
8
1
62
256
6
ByLayer
370
-1
48
1
60
0
100
AcDbEllipse
10
44.49052
20
5.340091
30
0
11
1.03358156847098
21
-0.0541677147114417
31
0
210
0
220
0
230
1
40
0.995729
41
-1.00442229955662
42
0.0444912109597956
0
ELLIPSE
5
A5
100
AcDbEntity
8
1
62
256
6
ByLayer
370
-1
48
1
60
0
100
AcDbEllipse
10
44.496139
20
6.412856
30
0
11
-0.421421663666431
21
0.0220857735345113
31
0
210
0
220
0
230
1
40
0.995729
41
1.61400056826481
42
2.38890029611737
0
ELLIPSE
5
A6
100
AcDbEntity
8
1
62
256
6
ByLayer
370
-1
48
1
60
0
100
AcDbEllipse
10
44.49052
20
5.340091
30
0
11
1.03358156847098
21
-0.0541677147114417
31
0
210
0
220
0
230
1
40
0.995729
41
2.13717035403308
42
-3.09710144263005
0
ELLIPSE
5
A7
100
AcDbEntity
8
1
62
256
6
ByLayer
370
-1
48
1
60
0
100
AcDbEllipse
10
44.485688
20
5.247891
30
0
11
0.74697489199642
21
-0.0391472952697183
31
0
210
0
220
0
230
1
40
0.995729
41
2.62389575737425
42
2.69935846120838
0
ELLIPSE
5
A8
100
AcDbEntity
8
1
62
256
6
ByLayer
370
-1
48
1
60
0
100
AcDbEllipse
10
44.49052
20
5.340091
30
0
11
1.03358156847098
21
-0.0541677147114417
31
0
210
0
220
0
230
1
40
0.995729
41
0.0444912109597965
42
1.0908307824964
0
ELLIPSE
5
A9
100
AcDbEntity
8
1
62
256
6
ByLayer
370
-1
48
1
60
0
100
AcDbEllipse
10
43.478734
20
5.83866
30
0
11
-0.421421663666431
21
0.0220857735345113
31
0
210
0
220
0
230
1
40
0.995729
41
2.72854043160757
42
3.14158427043972
0
ELLIPSE
5
AA
100
AcDbEntity
8
1
62
256
6
ByLayer
370
-1
48
1
60
0
100
AcDbEllipse
10
44.485688
20
5.247891
30
0
11
-0.746974891996417
21
0.0391472952697021
31
0
210
0
220
0
230
1
40
0.995729
41
-0.442234192381397
42
0.32872610745215
0
ELLIPSE
5
AB
100
AcDbEntity
8
1
62
256
6
ByLayer
370
-1
48
1
60
0
100
AcDbEllipse
10
44.49052
20
5.340091
30
0
11
1.03358156847098
21
-0.0541677147114417
31
0
210
0
220
0
230
1
40
0.995729
41
1.0908307824964
42
2.13717035403308
0
ELLIPSE
5
AC
100
AcDbEntity
8
1
62
256
6
ByLayer
370
-1
48
1
60
0
100
AcDbEllipse
10
44.485688
20
5.247891
30
0
11
-0.746974891996417
21
0.0391472952697021
31
0
210
0
220
0
230
1
40
0.995729
41
-1.52759208532498
42
-0.517696896215576
0
ELLIPSE
5
AD
100
AcDbEntity
8
1
62
256
6
ByLayer
370
-1
48
1
60
0
100
AcDbEllipse
10
45.503617
20
5.82178
30
0
11
-0.421421663666431
21
0.0220857735345113
31
0
210
0
220
0
230
1
40
0.995729
41
0.567660996728048
42
1.34256072458056
0
ELLIPSE
5
AE
100
AcDbEntity
8
1
62
256
6
ByLayer
370
-1
48
1
60
0
100
AcDbEllipse
10
43.635723
20
5.25474
30
0
11
-0.184746463929596
21
0.00968215190493974
31
0
210
0
220
0
230
1
40
0.995729
41
-1.25705174419014
42
-0.240397786289299
0
ELLIPSE
5
AF
100
AcDbEntity
8
1
62
256
6
ByLayer
370
-1
48
1
60
0
100
AcDbEllipse
10
43.478734
20
5.83866
30
0
11
-0.421421663666431
21
0.0220857735345113
31
0
210
0
220
0
230
1
40
0.995729
41
1.88454090939943
42
2.59471378697515
0
ELLIPSE
5
B0
100
AcDbEntity
8
1
62
256
6
ByLayer
370
-1
48
1
60
0
100
AcDbEllipse
10
44.067603
20
5.984993
30
0
11
-0.184746463929596
21
0.00968215190493974
31
0
210
0
220
0
230
1
40
0.995729
41
-2.30249181317758
42
-0.224956520917321
0
ELLIPSE
5
B1
100
AcDbEntity
8
1
62
256
6
ByLayer
370
-1
48
1
60
0
100
AcDbEllipse
10
44.496139
20
6.412856
30
0
11
-0.421421663666431
21
0.0220857735345113
31
0
210
0
220
0
230
1
40
0.995729
41
0.839100840412498
42
1.61400056826481
0
ELLIPSE
5
B2
100
AcDbEntity
8
1
62
256
6
ByLayer
370
-1
48
1
60
0
100
AcDbEllipse
10
44.916927
20
5.97706
30
0
11
-0.184746463929596
21
0.00968215190493974
31
0
210
0
220
0
230
1
40
0.995729
41
-2.85102187615104
42
-0.752692357472682
0
ELLIPSE
5
B3
100
AcDbEntity
8
1
62
256
6
ByLayer
370
-1
48
1
60
0
100
AcDbEllipse
10
45.503617
20
5.82178
30
0
11
-0.421421663666431
21
0.0220857735345113
31
0
210
0
220
0
230
1
40
0.995729
41
9.43753324896566E-06
42
0.567660996728048
0
ELLIPSE
5
B4
100
AcDbEntity
8
1
62
256
6
ByLayer
370
-1
48
1
60
0
100
AcDbEllipse
10
45.335654
20
5.241041
30
0
11
-0.184746463929596
21
0.00968215190493974
31
0
210
0
220
0
230
1
40
0.995729
41
-2.89976590084382
42
-1.79903192900939
0
ELLIPSE
5
B5
100
AcDbEntity
8
1
62
256
6
ByLayer
370
-1
48
1
60
0
100
AcDbEllipse
10
44.486172
20
5.257111
30
0
11
1.72263594745165
21
-0.0902795245190704
31
0
210
0
220
0
230
1
40
0.995729
41
3.14151174633453
42
0
0
ELLIPSE
5
B6
100
AcDbEntity
8
1
62
256
6
ByLayer
370
-1
48
1
60
0
100
AcDbEllipse
10
44.49052
20
5.340091
30
0
11
1.29821839518097
21
-0.068036743115822
31
0
210
0
220
0
230
1
40
0.995729
41
0
42
6.28318530717959
0
ELLIPSE
5
B7
100
AcDbEntity
8
1
62
256
6
ByLayer
370
-1
48
1
60
0
100
AcDbEllipse
10
44.48968
20
5.324055
30
0
11
1.72263594745164
21
-0.0902795245190698
31
0
210
0
220
0
230
1
40
0.995729
41
0
42
6.28318530717959
0
ELLIPSE
5
B8
100
AcDbEntity
8
1
62
256
6
ByLayer
370
-1
48
1
60
0
100
AcDbEllipse
10
47.54313
20
10.504816
30
0
11
0.396331096605749
21
-0.0207708326339179
31
0
210
0
220
0
230
1
40
0.995729
41
0
42
2.18166156499289
0
ELLIPSE
5
B9
100
AcDbEntity
8
1
62
256
6
ByLayer
370
-1
48
1
60
0
100
AcDbEllipse
10
41.438275
20
0.182304
30
0
11
0.396331096605749
21
-0.0207708326339179
31
0
210
0
220
0
230
1
40
0.995729
41
3.14159265358977
42
-0.959931088596837
0
ELLIPSE
5
BA
100
AcDbEntity
8
1
62
256
6
ByLayer
370
-1
48
1
60
0
100
AcDbEllipse
10
44.486951
20
5.271979
30
0
11
1.82225885974134
21
-0.0955005401178817
31
0
210
0
220
0
230
1
40
0.995729
41
0
42
6.28318530717959
0
ELLIPSE
5
BB
100
AcDbEntity
8
1
62
256
6
ByLayer
370
-1
48
1
60
0
100
AcDbEllipse
10
44.487658
20
5.285474
30
0
11
1.87243037766482
21
-0.0981299179555104
31
0
210
0
220
0
230
1
40
0.995729
41
-0.854299767855748
42
-9.51453974270915E-16
0
ELLIPSE
5
BC
100
AcDbEntity
8
1
62
256
6
ByLayer
370
-1
48
1
60
0
100
AcDbEllipse
10
44.487658
20
5.285474
30
0
11
1.87243037766482
21
-0.0981299179555104
31
0
210
0
220
0
230
1
40
0.995729
41
0
42
0.0525838583008073
0
ELLIPSE
5
BD
100
AcDbEntity
8
1
62
256
6
ByLayer
370
-1
48
1
60
0
100
AcDbEllipse
10
44.487658
20
5.285474
30
0
11
1.87243037766482
21
-0.0981299179555104
31
0
210
0
220
0
230
1
40
0.995729
41
0.0525839410907149
42
-2.28725864818679
0
ELLIPSE
5
BE
100
AcDbEntity
8
1
62
256
6
ByLayer
370
-1
48
1
60
0
100
AcDbEllipse
10
44.490702
20
5.34356
30
0
11
1.91642389486198
21
-0.100435520494664
31
0
210
0
220
0
230
1
40
0.995729
41
0
42
6.28318530717959
0
POINT
5
41
100
AcDbEntity
8
80
62
256
6
ByLayer
370
-1
48
1
60
0
100
AcDbPoint
10
0
20
0
30
0
39
0
210
0
220
0
230
1
50
360
0
POINT
5
43
100
AcDbEntity
8
81
62
256
6
ByLayer
370
-1
48
1
60
0
100
AcDbPoint
10
47.94
20
10.9
30
0
39
0
210
0
220
0
230
1
50
360
0
POINT
5
45
100
AcDbEntity
8
1
62
256
6
ByLayer
370
-1
48
1
60
0
100
AcDbPoint
10
-103.31
20
0
30
0
39
0
210
0
220
0
230
1
50
360
0
POINT
5
47
100
AcDbEntity
8
2
62
256
6
ByLayer
370
-1
48
1
60
0
100
AcDbPoint
10
47.94
20
10.9
30
0
39
0
210
0
220
0
230
1
50
360
0
POINT
5
49
100
AcDbEntity
8
2
62
256
6
ByLayer
370
-1
48
1
60
0
100
AcDbPoint
10
47.708974
20
9.907554
30
0
39
0
210
0
220
0
230
1
50
360
0
SPLINE
5
BF
100
AcDbEntity
8
1
62
256
6
ByLayer
370
-1
48
1
60
0
100
AcDbSpline
70
4
71
3
72
8
73
4
40
0
40
0
40
0
40
0
40
1
40
1
40
1
40
1
41
1
10
34.0018514049999
20
-4.04774268142774
30
0
41
1
10
33.0033496671916
20
-3.11551284225152
30
0
41
1
10
32.3172102641113
20
-1.73291449295519
30
0
41
1
10
31.825091251168
20
-0.205965906324195
30
0
0
SPLINE
5
C0
100
AcDbEntity
8
1
62
256
6
ByLayer
370
-1
48
1
60
0
100
AcDbSpline
70
4
71
3
72
8
73
4
40
0
40
0
40
0
40
0
40
1
40
1
40
1
40
1
41
1
10
35.9268514049999
20
5.89093494664144
30
0
41
1
10
35.2793139815142
20
5.87495074095582
30
0
41
1
10
34.6608173037807
20
5.84700398047261
30
0
41
1
10
34.0768514049999
20
5.77543839110379
30
0
0
SPLINE
5
C1
100
AcDbEntity
8
1
62
256
6
ByLayer
370
-1
48
1
60
0
100
AcDbSpline
70
4
71
3
72
8
73
4
40
0
40
0
40
0
40
0
40
1
40
1
40
1
40
1
41
1
10
34.0018514050001
20
-4.04774268142833
30
0
41
1
10
34.0267285531182
20
-4.04589015605285
30
0
41
1
10
34.0517314764372
20
-4.04356694023306
30
0
41
1
10
34.0768514050001
20
-4.04078235772627
30
0
0
SPLINE
5
C2
100
AcDbEntity
8
1
62
256
6
ByLayer
370
-1
48
1
60
0
100
AcDbSpline
70
4
71
3
72
8
73
4
40
0
40
0
40
0
40
0
40
1
40
1
40
1
40
1
41
1
10
36.7429931389239
20
6.73322478982018
30
0
41
1
10
36.7512473823087
20
6.74173731326007
30
0
41
1
10
36.7614512000546
20
6.75023539502027
30
0
41
1
10
36.7736384394358
20
6.75871352224297
30
0
0
SPLINE
5
C3
100
AcDbEntity
8
1
62
256
6
ByLayer
370
-1
48
1
60
0
100
AcDbSpline
70
4
71
3
72
8
73
4
40
0
40
0
40
0
40
0
40
1
40
1
40
1
40
1
41
1
10
36.1008514870815
20
-6.0915
30
0
41
1
10
36.1010175460264
20
-6.0915
30
0
41
1
10
36.101222046621
20
-5.83993712912707
30
0
41
1
10
36.1014467981315
20
-5.35982595673934
30
0
0
SPLINE
5
C4
100
AcDbEntity
8
1
62
256
6
ByLayer
370
-1
48
1
60
0
100
AcDbSpline
70
4
71
3
72
8
73
4
40
0
40
0
40
0
40
0
40
1
40
1
40
1
40
1
41
1
10
35.9268514049998
20
-5.12708657143645
30
0
41
1
10
35.9845786352994
20
-5.2050137154508
30
0
41
1
10
36.042787948741
20
-5.28258509009186
30
0
41
1
10
36.1014467981313
20
-5.35982595673934
30
0
0
SPLINE
5
C5
100
AcDbEntity
8
1
62
256
6
ByLayer
370
-1
48
1
60
0
100
AcDbSpline
70
4
71
3
72
8
73
4
40
0
40
0
40
0
40
0
40
1
40
1
40
1
40
1
41
1
10
34.0768514049999
20
5.77543839110382
30
0
41
1
10
34.0518480339702
20
5.79938765145582
30
0
41
1
10
34.0268478835811
20
5.82331252665202
30
0
41
1
10
34.0018514049998
20
5.84721203253969
30
0
0
SPLINE
5
C6
100
AcDbEntity
8
1
62
256
6
ByLayer
370
-1
48
1
60
0
100
AcDbSpline
70
4
71
3
72
12
73
8
40
0
40
0
40
0
40
0
40
0.405623225393595
40
0.405623225393595
40
0.840129957031253
40
0.840129957031253
40
1
40
1
40
1
40
1
41
1
10
31.825091251168
20
-0.205965906324195
30
0
41
1
10
31.8166610190465
20
-0.150841648027892
30
0
41
1
10
31.8038149107437
20
-0.0926627792615022
30
0
41
1
10
31.7704664056861
20
0.0253519468803631
30
0
41
1
10
31.7491042197507
20
0.0864674574173989
30
0
41
1
10
31.7168119478028
20
0.164930421388647
30
0
41
1
10
31.7077519895914
20
0.185715900352165
30
0
41
1
10
31.6984401384588
20
0.205965906325702
30
0
0
SPLINE
5
C7
100
AcDbEntity
8
1
62
256
6
ByLayer
370
-1
48
1
60
0
100
AcDbSpline
70
4
71
3
72
49
73
45
40
-0.0754477958851658
40
-0.0754477958851658
40
0
40
0
40
0.0803122478783792
40
0.0803122478783792
40
0.119776029176776
40
0.119776029176776
40
0.152639461981008
40
0.152639461981008
40
0.177044411133164
40
0.177044411133164
40
0.201648433600569
40
0.201648433600569
40
0.223685300753403
40
0.223685300753403
40
0.246784575197457
40
0.246784575197457
40
0.282888170684968
40
0.282888170684968
40
0.335811797637813
40
0.335811797637813
40
0.417491059704319
40
0.417491059704319
40
0.540086480551003
40
0.540086480551003
40
0.631522017815455
40
0.631522017815455
40
0.677225128875341
40
0.677225128875341
40
0.692149601340521
40
0.692149601340521
40
0.702314690680258
40
0.702314690680258
40
0.712603420161336
40
0.712603420161336
40
0.721561556912757
40
0.721561556912757
40
0.737705020967113
40
0.737705020967113
40
0.782675895559703
40
0.782675895559703
40
0.924552204114834
40
0.924552204114834
40
0.924552204114834
40
1
40
1
40
1.08031224787838
40
1.08031224787838
41
1
10
34.9737325930102
20
2.61828933551487
30
0
41
1
10
34.5845567777521
20
2.40004683525709
30
0
41
1
10
34.373861308398
20
2.31164265627513
30
0
41
1
10
34.052593800808
20
2.25913889619341
30
0
41
1
10
33.9437078859618
20
2.25496721901587
30
0
41
1
10
33.7470412245154
20
2.28476771199877
30
0
41
1
10
33.6569247222859
20
2.31307955906908
30
0
41
1
10
33.5103905392819
20
2.39527040352087
30
0
41
1
10
33.4499613081604
20
2.44175653182731
30
0
41
1
10
33.3435731321583
20
2.55481033531723
30
0
41
1
10
33.2963388125441
20
2.6232727574785
30
0
41
1
10
33.227287479723
20
2.76287558810117
30
0
41
1
10
33.202406176189
20
2.83463998832377
30
0
41
1
10
33.1689925458737
20
2.98159580624375
30
0
41
1
10
33.1607979652841
20
3.05842905390401
30
0
41
1
10
33.159520230535
20
3.24780828325913
30
0
41
1
10
33.1771169480547
20
3.35962353081322
30
0
41
1
10
33.2509447977402
20
3.61171097643202
30
0
41
1
10
33.3222222652107
20
3.74645675424986
30
0
41
1
10
33.5421391262329
20
4.04495907327157
30
0
41
1
10
33.7157313571541
20
4.19199870823056
30
0
41
1
10
34.196080332152
20
4.48956417484251
30
0
41
1
10
34.5354742642439
20
4.61335541081672
30
0
41
1
10
35.1628529739114
20
4.75222567377205
30
0
41
1
10
35.4482878311988
20
4.79050466414193
30
0
41
1
10
35.8842601289142
20
4.78165566868623
30
0
41
1
10
36.0351472820352
20
4.76924635072376
30
0
41
1
10
36.2231686132296
20
4.70399493395016
30
0
41
1
10
36.2692923013896
20
4.68304836689973
30
0
41
1
10
36.3385144367032
20
4.63527227611084
30
0
41
1
10
36.3646610186957
20
4.61189198536374
30
0
41
1
10
36.4070630878825
20
4.55761509012132
30
0
41
1
10
36.4235551152206
20
4.5258010727714
30
0
41
1
10
36.4422966256135
20
4.46386544034505
30
0
41
1
10
36.4464760913618
20
4.43344115073927
30
0
41
1
10
36.4481728089723
20
4.34970693521527
30
0
41
1
10
36.4383438089239
20
4.2959961233118
30
0
41
1
10
36.383191661729
20
4.10396762381038
30
0
41
1
10
36.3083624157356
20
3.97538601950984
30
0
41
1
10
35.9799426260449
20
3.47976389898412
30
0
41
1
10
35.6604617235511
20
3.16084657445356
30
0
41
1
10
35.3323713300439
20
2.89187300772699
30
0
41
1
10
35.1566639023317
20
2.74782534748647
30
0
41
1
10
34.9737325930102
20
2.61828933551487
30
0
41
1
10
34.5845567777521
20
2.40004683525709
30
0
0
SPLINE
5
C8
100
AcDbEntity
8
1
62
256
6
ByLayer
370
-1
48
1
60
0
100
AcDbSpline
70
4
71
3
72
8
73
4
40
0
40
0
40
0
40
0
40
1
40
1
40
1
40
1
41
1
10
34.0768514049999
20
-4.04078235772533
30
0
41
1
10
34.6192658705247
20
-4.52904413830166
30
0
41
1
10
35.229289295258
20
-4.87631376120922
30
0
41
1
10
35.9268514049999
20
-5.12708657143631
30
0
0
SPLINE
5
C9
100
AcDbEntity
8
1
62
256
6
ByLayer
370
-1
48
1
60
0
100
AcDbSpline
70
4
71
3
72
12
73
8
40
0
40
0
40
0
40
0
40
0.5
40
0.5
40
0.75
40
0.75
40
1
40
1
40
1
40
1
41
1
10
31.6984401384587
20
0.20596590632573
30
0
41
1
10
31.2804450516209
20
1.63342034458003
30
0
41
1
10
31.0141975912886
20
3.13581040745225
30
0
41
1
10
31.4960511788352
20
4.70173886473467
30
0
41
1
10
31.8233039188455
20
5.1017533948351
30
0
41
1
10
32.7538221030555
20
5.62651994972262
30
0
41
1
10
33.3464534740631
20
5.76497217676953
30
0
41
1
10
34.0018514049998
20
5.84721203253977
30
0
0
SPLINE
5
CA
100
AcDbEntity
8
1
62
256
6
ByLayer
370
-1
48
1
60
0
100
AcDbSpline
70
4
71
3
72
8
73
4
40
0
40
0
40
0
40
0
40
1
40
1
40
1
40
1
41
1
10
40.8332445392266
20
-5.93473230754131
30
0
41
1
10
39.1401886008628
20
-5.91339560791056
30
0
41
1
10
37.4911943292083
20
-5.81776482038396
30
0
41
1
10
36.1014467981313
20
-5.35982595673934
30
0
0
SPLINE
5
CB
100
AcDbEntity
8
1
62
256
6
ByLayer
370
-1
48
1
60
0
100
AcDbSpline
70
4
71
3
72
8
73
4
40
0
40
0
40
0
40
0
40
1
40
1
40
1
40
1
41
1
10
36.7736384394354
20
6.75871352224263
30
0
41
1
10
36.4862674599511
20
6.46812627669033
30
0
41
1
10
36.2024202716149
20
6.17882697765916
30
0
41
1
10
35.9268514049998
20
5.89093494664161
30
0
0
SPLINE
5
CC
100
AcDbEntity
8
SK1
62
256
6
ByLayer
370
-1
48
1
60
0
100
AcDbSpline
70
4
71
3
72
24
73
20
40
0
40
0
40
0
40
0
40
0.250000000000021
40
0.250000000000021
40
0.375000000000035
40
0.375000000000035
40
0.437500000000043
40
0.437500000000043
40
0.50000000000005
40
0.50000000000005
40
0.53125000000005
40
0.53125000000005
40
0.562500000000051
40
0.562500000000051
40
0.625000000000044
40
0.625000000000044
40
0.750000000000029
40
0.750000000000029
40
1
40
1
40
1
40
1
41
1
10
-36.06
20
-0.205965906324167
30
0
41
1
10
-36.4686343160637
20
-0.205965906324167
30
0
41
1
10
-36.8771555453826
20
-0.198452469570327
30
0
41
1
10
-37.4894028804979
20
-0.169226931094073
30
0
41
1
10
-37.6931603208312
20
-0.156639601261418
30
0
41
1
10
-37.9976543175629
20
-0.127755978988347
30
0
41
1
10
-38.0989743184841
20
-0.116569291728922
30
0
41
1
10
-38.3006761329046
20
-0.0859785784400344
30
0
41
1
10
-38.4156960546351
20
-0.0885727857958045
30
0
41
1
10
-38.5368423438109
20
0.0124242265503085
30
0
41
1
10
-38.448845174621
20
0.0482532820548442
30
0
41
1
10
-38.3481780242785
20
0.0757348561222955
30
0
41
1
10
-38.2969166658135
20
0.0854113493555815
30
0
41
1
10
-38.1424015195539
20
0.111238405852816
30
0
41
1
10
-38.0387091696868
20
0.123262241085399
30
0
41
1
10
-37.7275189777037
20
0.15429910626429
30
0
41
1
10
-37.5194067051518
20
0.167490929837157
30
0
41
1
10
-36.894297633513
20
0.198188957833423
30
0
41
1
10
-36.4772192765597
20
0.205965906324138
30
0
41
1
10
-36.06
20
0.205965906324138
30
0
0
SPLINE
5
CD
100
AcDbEntity
8
1
62
256
6
ByLayer
370
-1
48
1
60
0
100
AcDbSpline
70
4
71
3
72
18
73
14
40
0
40
0
40
0
40
0
40
0.205451175568224
40
0.205451175568224
40
0.382447151759473
40
0.382447151759473
40
0.561174235978479
40
0.561174235978479
40
0.716369506923704
40
0.716369506923704
40
0.921200669931083
40
0.921200669931083
40
1
40
1
40
1
40
1
41
1
10
44.2027147351375
20
6.20133079116272
30
0
41
1
10
44.2321739511308
20
6.16998915308386
30
0
41
1
10
44.2670234119713
20
6.14224466669219
30
0
41
1
10
44.3395631939663
20
6.10182103581602
30
0
41
1
10
44.3770719831226
20
6.08722585584772
30
0
41
1
10
44.4554882240548
20
6.07006013807126
30
0
41
1
10
44.4976181690129
20
6.06748663083135
30
0
41
1
10
44.5733620184087
20
6.07486658168457
30
0
41
1
10
44.6082754097064
20
6.08324256819276
30
0
41
1
10
44.682972544688
20
6.11151532133403
30
0
41
1
10
44.7220825455051
20
6.13456806483129
30
0
41
1
10
44.7690229810859
20
6.17253212880078
30
0
41
1
10
44.781478473243
20
6.18387897832153
30
0
41
1
10
44.7931841879726
20
6.1958156790156
30
0
0
SPLINE
5
CE
100
AcDbEntity
8
1
62
256
6
ByLayer
370
-1
48
1
60
0
100
AcDbSpline
70
4
71
3
72
16
73
12
40
0
40
0
40
0
40
0
40
0.0520406006403295
40
0.0520406006403295
40
0.276728748282204
40
0.276728748282204
40
0.503559378007201
40
0.503559378007201
40
0.744265508080221
40
0.744265508080221
40
1
40
1
40
1
40
1
41
1
10
45.5254780282432
20
5.33175098875884
30
0
41
1
10
45.5255115798814
20
5.33612070302186
30
0
41
1
10
45.5253883621913
20
5.34048821582547
30
0
41
1
10
45.5239134020956
20
5.36344645638709
30
0
41
1
10
45.519751013663
20
5.38193991981217
30
0
41
1
10
45.5063327796003
20
5.41592829061332
30
0
41
1
10
45.4968711564403
20
5.43183194871594
30
0
41
1
10
45.4736218408578
20
5.46003751559405
30
0
41
1
10
45.4593291561623
20
5.47242580475663
30
0
41
1
10
45.4275864821497
20
5.49226714496933
30
0
41
1
10
45.4096366174645
20
5.49963583500852
30
0
41
1
10
45.3913486144911
20
5.5039724898767
30
0
0
SPLINE
5
CF
100
AcDbEntity
8
1
62
256
6
ByLayer
370
-1
48
1
60
0
100
AcDbSpline
70
4
71
3
72
14
73
10
40
0
40
0
40
0
40
0
40
0.0437787642813189
40
0.0437787642813189
40
0.381109464511052
40
0.381109464511052
40
0.827007988592454
40
0.827007988592454
40
1
40
1
40
1
40
1
41
1
10
43.8599179367774
20
5.72691536162299
30
0
41
1
10
43.8620045293375
20
5.7310770871436
30
0
41
1
10
43.8640214063769
20
5.73527682075837
30
0
41
1
10
43.8808178223778
20
5.77182327153827
30
0
41
1
10
43.8915153349893
20
5.80641699880726
30
0
41
1
10
43.9060508072423
20
5.88598037354996
30
0
41
1
10
43.9069718159469
20
5.93203618367471
30
0
41
1
10
43.8995852862524
20
5.99284659527063
30
0
41
1
10
43.8965501127646
20
6.00974746206717
30
0
41
1
10
43.8926308981219
20
6.02629810933018
30
0
0
SPLINE
5
D0
100
AcDbEntity
8
1
62
256
6
ByLayer
370
-1
48
1
60
0
100
AcDbSpline
70
4
71
3
72
18
73
14
40
0
40
0
40
0
40
0
40
0.205824764536716
40
0.205824764536716
40
0.38275498813942
40
0.38275498813942
40
0.56141197232646
40
0.56141197232646
40
0.716593475814435
40
0.716593475814435
40
0.921490176355551
40
0.921490176355551
40
1
40
1
40
1
40
1
41
1
10
45.1002408018378
20
6.01566897247889
30
0
41
1
10
45.0894110378114
20
5.97343853918014
30
0
41
1
10
45.0843354263024
20
5.9284116468952
30
0
41
1
10
45.0879826989446
20
5.84404847395052
30
0
41
1
10
45.0950139189425
20
5.80384905432282
30
0
41
1
10
45.1204724295236
20
5.72703048053546
30
0
41
1
10
45.1395027399187
20
5.68936162942828
30
0
41
1
10
45.1833637818159
20
5.62814429802887
30
0
41
1
10
45.2075838178224
20
5.60262104607409
30
0
41
1
10
45.2678172486992
20
5.55356694635114
30
0
41
1
10
45.3060653557173
20
5.53231301208604
30
0
41
1
10
45.3603935798052
20
5.51228650661051
30
0
41
1
10
45.3758114333062
20
5.50765683925701
30
0
41
1
10
45.391348614491
20
5.50397248987667
30
0
0
SPLINE
5
D1
100
AcDbEntity
8
1
62
256
6
ByLayer
370
-1
48
1
60
0
100
AcDbSpline
70
4
71
3
72
14
73
10
40
0
40
0
40
0
40
0
40
0.257245730621354
40
0.257245730621354
40
0.547873963583462
40
0.547873963583462
40
0.810895498398428
40
0.810895498398428
40
1
40
1
40
1
40
1
41
1
10
43.8801432034474
20
4.65198282003806
30
0
41
1
10
43.8752819933952
20
4.63447342951466
30
0
41
1
10
43.8732143143267
20
4.61564751415105
30
0
41
1
10
43.8757237724426
20
4.57536220701292
30
0
41
1
10
43.8812928886022
20
4.55323107537916
30
0
41
1
10
43.8999332671705
20
4.51405952347827
30
0
41
1
10
43.9125598021523
20
4.49615717473912
30
0
41
1
10
43.9390288344106
20
4.47002140365561
30
0
41
1
10
43.9517655129027
20
4.46023393721822
30
0
41
1
10
43.9654233765651
20
4.45222102023155
30
0
0
SPLINE
5
D2
100
AcDbEntity
8
1
62
256
6
ByLayer
370
-1
48
1
60
0
100
AcDbSpline
70
4
71
3
72
16
73
12
40
0
40
0
40
0
40
0
40
0.0642352683248555
40
0.0642352683248555
40
0.288841808800711
40
0.288841808800711
40
0.516279050050983
40
0.516279050050983
40
0.75815871194896
40
0.75815871194896
40
1
40
1
40
1
40
1
41
1
10
43.4555626914235
20
5.34843166063433
30
0
41
1
10
43.4555213532929
20
5.34304784546168
30
0
41
1
10
43.4557171193509
20
5.33764542400002
30
0
41
1
10
43.457644742907
20
5.31356358573407
30
0
41
1
10
43.4620851819146
20
5.29478750369242
30
0
41
1
10
43.4759829223697
20
5.25980925351948
30
0
41
1
10
43.485665963509
20
5.24319183433727
30
0
41
1
10
43.5093044028009
20
5.21318313009527
30
0
41
1
10
43.5237726720376
20
5.19967545058284
30
0
41
1
10
43.5548574229134
20
5.17795900843512
30
0
41
1
10
43.5717912296003
20
5.16949900374379
30
0
41
1
10
43.5890353907942
20
5.1636793026403
30
0
0
SPLINE
5
D3
100
AcDbEntity
8
1
62
256
6
ByLayer
370
-1
48
1
60
0
100
AcDbSpline
70
4
71
3
72
18
73
14
40
0
40
0
40
0
40
0
40
0.212734980703522
40
0.212734980703522
40
0.388453057932096
40
0.388453057932096
40
0.565817024050046
40
0.565817024050046
40
0.720756520490097
40
0.720756520490097
40
0.926874442935478
40
0.926874442935478
40
1
40
1
40
1
40
1
41
1
10
44.777669270147
20
4.466321001355
30
0
41
1
10
44.7469486542353
20
4.49466888367715
30
0
41
1
10
44.7104327299478
20
4.51941432566181
30
0
41
1
10
44.635858789578
20
4.55402982056805
30
0
41
1
10
44.5982875412181
20
4.56605309217278
30
0
41
1
10
44.5200650598173
20
4.57993141880394
30
0
41
1
10
44.4782177923997
20
4.58180103551928
30
0
41
1
10
44.4030007432808
20
4.57516795524376
30
0
41
1
10
44.3683258517253
20
4.56791326533167
30
0
41
1
10
44.2939344908901
20
4.54339111831845
30
0
41
1
10
44.2549906378979
20
4.52330454281517
30
0
41
1
10
44.2094168960984
20
4.49065783976084
30
0
41
1
10
44.1979854453008
20
4.48148407637632
30
0
41
1
10
44.1871998173126
20
4.47183611350133
30
0
0
SPLINE
5
D4
100
AcDbEntity
8
1
62
256
6
ByLayer
370
-1
48
1
60
0
100
AcDbSpline
70
4
71
3
72
18
73
14
40
0
40
0
40
0
40
0
40
0.0862445009140661
40
0.0862445009140661
40
0.287330517840567
40
0.287330517840567
40
0.450836378781292
40
0.450836378781292
40
0.61510849685564
40
0.61510849685564
40
0.76967639855852
40
0.76967639855852
40
1
40
1
40
1
40
1
41
1
10
43.8801432034475
20
4.65198282003803
30
0
41
1
10
43.8846135599982
20
4.66808441157292
30
0
41
1
10
43.8880635147852
20
4.68465925284855
30
0
41
1
10
43.8958331690714
20
4.7408897587909
30
0
41
1
10
43.895259633137
20
4.78288417437125
30
0
41
1
10
43.8813534799123
20
4.85937797864858
30
0
41
1
10
43.8701730956853
20
4.89465396050122
30
0
41
1
10
43.8385864732296
20
4.96171393366137
30
0
41
1
10
43.8176902716159
20
4.99433427216982
30
0
41
1
10
43.7711537418398
20
5.0502045746305
30
0
41
1
10
43.7453723774075
20
5.07458507499433
30
0
41
1
10
43.6780774600193
20
5.12556126390149
30
0
41
1
10
43.6337805964787
20
5.1485783232439
30
0
41
1
10
43.5890353907942
20
5.1636793026403
30
0
0
SPLINE
5
D5
100
AcDbEntity
8
1
62
256
6
ByLayer
370
-1
48
1
60
0
100
AcDbSpline
70
4
71
3
72
14
73
10
40
0
40
0
40
0
40
0
40
0.0511624032727601
40
0.0511624032727601
40
0.387827814516548
40
0.387827814516548
40
0.835403796560439
40
0.835403796560439
40
1
40
1
40
1
40
1
41
1
10
45.1195214565634
20
4.92271216126483
30
0
41
1
10
45.1170858908337
20
4.91790850812299
30
0
41
1
10
45.1147463761917
20
4.91307001887625
30
0
41
1
10
45.097889490156
20
4.87646332881394
30
0
41
1
10
45.0874700038325
20
4.84324479907352
30
0
41
1
10
45.0735400864855
20
4.76783947509358
30
0
41
1
10
45.0730444050918
20
4.72500096557584
30
0
41
1
10
45.0809599509759
20
4.67008319374338
30
0
41
1
10
45.0839564570677
20
4.65551290153559
30
0
41
1
10
45.0877499051162
20
4.64129258449009
30
0
0
SPLINE
5
D6
100
AcDbEntity
8
1
62
256
6
ByLayer
370
-1
48
1
60
0
100
AcDbSpline
70
4
71
3
72
14
73
10
40
0
40
0
40
0
40
0
40
0.282383416927776
40
0.282383416927776
40
0.569864545755155
40
0.569864545755155
40
0.830340250330069
40
0.830340250330069
40
1
40
1
40
1
40
1
41
1
10
44.2027147351375
20
6.20133079116272
30
0
41
1
10
44.1878922051961
20
6.2171004697901
30
0
41
1
10
44.1700127034949
20
6.23069994045724
30
0
41
1
10
44.1301706066234
20
6.25087399517608
30
0
41
1
10
44.1075053682162
20
6.25759273502047
30
0
41
1
10
44.0634413351383
20
6.2615609973065
30
0
41
1
10
44.04145718057
20
6.2596625281216
30
0
41
1
10
44.0071273743342
20
6.25007673101462
30
0
41
1
10
43.9938257487887
20
6.24458308064484
30
0
41
1
10
43.9814398092403
20
6.23762107056217
30
0
0
SPLINE
5
D7
100
AcDbEntity
8
1
62
256
6
ByLayer
370
-1
48
1
60
0
100
AcDbSpline
70
4
71
3
72
14
73
10
40
0
40
0
40
0
40
0
40
0.282681858761501
40
0.282681858761501
40
0.569565058568372
40
0.569565058568372
40
0.82947528444407
40
0.82947528444407
40
1
40
1
40
1
40
1
41
1
10
43.5923784135642
20
5.51861043757611
30
0
41
1
10
43.5720695801004
20
5.51419393590811
30
0
41
1
10
43.5520735052451
20
5.5060057450057
30
0
41
1
10
43.5160328798366
20
5.48247469442916
30
0
41
1
10
43.4995163043357
20
5.46662946125883
30
0
41
1
10
43.4749983452092
20
5.43110209242846
30
0
41
1
10
43.4660039886034
20
5.41136364722018
30
0
41
1
10
43.4574780117149
20
5.37701176072415
30
0
41
1
10
43.4556723146177
20
5.36270881849072
30
0
41
1
10
43.4555626914235
20
5.34843166063433
30
0
0
SPLINE
5
D8
100
AcDbEntity
8
1
62
256
6
ByLayer
370
-1
48
1
60
0
100
AcDbSpline
70
4
71
3
72
16
73
12
40
0
40
0
40
0
40
0
40
0.0483330700464555
40
0.0483330700464555
40
0.272445239702251
40
0.272445239702251
40
0.498491581125422
40
0.498491581125422
40
0.738208926002391
40
0.738208926002391
40
1
40
1
40
1
40
1
41
1
10
44.9996009104264
20
4.442561578831
30
0
41
1
10
45.003161219523
20
4.44456279220125
30
0
41
1
10
45.0066568129439
20
4.44667717318018
30
0
41
1
10
45.025787097455
20
4.4590999814252
30
0
41
1
10
45.0400396500331
20
4.47174552834798
30
0
41
1
10
45.0635850450886
20
4.49983241853471
30
0
41
1
10
45.0731456066077
20
4.51564659229865
30
0
41
1
10
45.0871546649304
20
4.54911484784822
30
0
41
1
10
45.0914530526144
20
4.5672348735327
30
0
41
1
10
45.094377317029
20
4.60418971026428
30
0
41
1
10
45.0925223660638
20
4.62340228867149
30
0
41
1
10
45.0877499051163
20
4.64129258449009
30
0
0
SPLINE
5
D9
100
AcDbEntity
8
1
62
256
6
ByLayer
370
-1
48
1
60
0
100
AcDbSpline
70
4
71
3
72
14
73
10
40
0
40
0
40
0
40
0
40
0.271311856329063
40
0.271311856329063
40
0.567708036422881
40
0.567708036422881
40
0.828673635175607
40
0.828673635175607
40
1
40
1
40
1
40
1
41
1
10
45.1002408018382
20
6.01566897247881
30
0
41
1
10
45.1054550783034
20
6.03600193208217
30
0
41
1
10
45.1075692991424
20
6.05771758204767
30
0
41
1
10
45.1044043313037
20
6.1028373261079
30
0
41
1
10
45.0982897864998
20
6.12695580957657
30
0
41
1
10
45.0785458867185
20
6.16829740738569
30
0
41
1
10
45.0655685750194
20
6.18660568886258
30
0
41
1
10
45.0396346942632
20
6.21181809776834
30
0
41
1
10
45.0280121349606
20
6.22068974237976
30
0
41
1
10
45.0156173431016
20
6.22796162916154
30
0
0
SPLINE
5
DA
100
AcDbEntity
8
1
62
256
6
ByLayer
370
-1
48
1
60
0
100
AcDbSpline
70
4
71
3
72
12
73
8
40
0
40
0
40
0
40
0
40
0.463082433000099
40
0.463082433000099
40
0.844716893358493
40
0.844716893358493
40
1
40
1
40
1
40
1
41
1
10
45.3880023896739
20
5.14898025624413
30
0
41
1
10
45.346026970121
20
5.13577460277796
30
0
41
1
10
45.3043908757383
20
5.1157860682271
30
0
41
1
10
45.2343364548301
20
5.06748934130741
30
0
41
1
10
45.2041449385363
20
5.04064556388349
30
0
41
1
10
45.1674369238329
20
4.99778495854181
30
0
41
1
10
45.1573969417745
20
4.98468707046379
30
0
41
1
10
45.1481520322586
20
4.97112271925596
30
0
0
SPLINE
5
DB
100
AcDbEntity
8
1
62
256
6
ByLayer
370
-1
48
1
60
0
100
AcDbSpline
70
4
71
3
72
14
73
10
40
0
40
0
40
0
40
0
40
0.258709063942578
40
0.258709063942578
40
0.549154191821576
40
0.549154191821576
40
0.812025348366139
40
0.812025348366139
40
1
40
1
40
1
40
1
41
1
10
44.777669270147
20
4.466321001355
30
0
41
1
10
44.7913489214985
20
4.45369790981815
30
0
41
1
10
44.8075634903669
20
4.44282303016544
30
0
41
1
10
44.8454416809694
20
4.42556611684842
30
0
41
1
10
44.8681626576568
20
4.41966834723033
30
0
41
1
10
44.9125529062674
20
4.41669633128612
30
0
41
1
10
44.9347932076
20
4.41883059598669
30
0
41
1
10
44.971018124201
20
4.42876342403224
30
0
41
1
10
44.9858836780608
20
4.43485126265659
30
0
41
1
10
44.9996009104264
20
4.442561578831
30
0
0
SPLINE
5
DC
100
AcDbEntity
8
1
62
256
6
ByLayer
370
-1
48
1
60
0
100
AcDbSpline
70
4
71
3
72
16
73
12
40
0
40
0
40
0
40
0
40
0.0652961434362532
40
0.0652961434362532
40
0.289215358084433
40
0.289215358084433
40
0.516027192176533
40
0.516027192176533
40
0.757295673229962
40
0.757295673229962
40
1
40
1
40
1
40
1
41
1
10
43.9814398092403
20
6.23762107056217
30
0
41
1
10
43.9766407140724
20
6.23492354819697
30
0
41
1
10
43.9719567349625
20
6.2319977059249
30
0
41
1
10
43.9519702633305
20
6.21819348050099
30
0
41
1
10
43.9380338372772
20
6.20487549996309
30
0
41
1
10
43.9150955635874
20
6.17507371643558
30
0
41
1
10
43.9058559505867
20
6.15818124975894
30
0
41
1
10
43.892494776345
20
6.12220652800781
30
0
41
1
10
43.8885507587732
20
6.10261010700808
30
0
41
1
10
43.8864540802576
20
6.06403180767941
30
0
41
1
10
43.8882872389794
20
6.04464116447087
30
0
41
1
10
43.8926308981219
20
6.02629810933018
30
0
0
SPLINE
5
DD
100
AcDbEntity
8
1
62
256
6
ByLayer
370
-1
48
1
60
0
100
AcDbSpline
70
4
71
3
72
14
73
10
40
0
40
0
40
0
40
0
40
0.265796993029175
40
0.265796993029175
40
0.554792682097992
40
0.554792682097992
40
0.816406354756475
40
0.816406354756475
40
1
40
1
40
1
40
1
41
1
10
45.3880023896738
20
5.14898025624413
30
0
41
1
10
45.4072007658257
20
5.15502015066986
30
0
41
1
10
45.4261012338106
20
5.16429331180206
30
0
41
1
10
45.4618100751075
20
5.18969090530854
30
0
41
1
10
45.4788314154184
20
5.20678673769359
30
0
41
1
10
45.5043059584553
20
5.2442239505796
30
0
41
1
10
45.5137716962448
20
5.26469208250504
30
0
41
1
10
45.5232623157405
20
5.30080630505299
30
0
41
1
10
45.5253600382079
20
5.31638414627324
30
0
41
1
10
45.5254780282432
20
5.33175098875884
30
0
0
SPLINE
5
DE
100
AcDbEntity
8
1
62
256
6
ByLayer
370
-1
48
1
60
0
100
AcDbSpline
70
4
71
3
72
16
73
12
40
0
40
0
40
0
40
0
40
0.0474598156620134
40
0.0474598156620134
40
0.272389811695096
40
0.272389811695096
40
0.499201371327781
40
0.499201371327781
40
0.739684078444621
40
0.739684078444621
40
1
40
1
40
1
40
1
41
1
10
43.9654233765651
20
4.45222102023155
30
0
41
1
10
43.9688716581438
20
4.45019795171075
30
0
41
1
10
43.9723878272371
20
4.44827944447269
30
0
41
1
10
43.9927387167391
20
4.43798145130307
30
0
41
1
10
44.0110235636271
20
4.43189850309028
30
0
41
1
10
44.0477351795328
20
4.42528457063179
30
0
41
1
10
44.0666280368959
20
4.42470229008669
30
0
41
1
10
44.1036317965445
20
4.42875137560338
30
0
41
1
10
44.1220935604781
20
4.43373070576661
30
0
41
1
10
44.1568594728426
20
4.4487801412906
30
0
41
1
10
44.1732979780195
20
4.45940063644437
30
0
41
1
10
44.1871998173126
20
4.4718361135013
30
0
0
SPLINE
5
DF
100
AcDbEntity
8
1
62
256
6
ByLayer
370
-1
48
1
60
0
100
AcDbSpline
70
4
71
3
72
12
73
8
40
0
40
0
40
0
40
0
40
0.451562275683495
40
0.451562275683495
40
0.835134211539201
40
0.835134211539201
40
1
40
1
40
1
40
1
41
1
10
43.5923784135641
20
5.51861043757614
30
0
41
1
10
43.6331044465871
20
5.52746700696483
30
0
41
1
10
43.6735009407749
20
5.54298979366507
30
0
41
1
10
43.7427283395841
20
5.58446452825476
30
0
41
1
10
43.7731208298517
20
5.60906456035971
30
0
41
1
10
43.8107956891262
20
5.65080305233184
30
0
41
1
10
43.8214857443592
20
5.66430218734996
30
0
41
1
10
43.831287361082
20
5.67850480363145
30
0
0
SPLINE
5
E0
100
AcDbEntity
8
1
62
256
6
ByLayer
370
-1
48
1
60
0
100
AcDbSpline
70
4
71
3
72
16
73
12
40
0
40
0
40
0
40
0
40
0.0637440137339936
40
0.0637440137339936
40
0.288306529133811
40
0.288306529133811
40
0.51567200751615
40
0.51567200751615
40
0.757454814716476
40
0.757454814716476
40
1
40
1
40
1
40
1
41
1
10
45.0156173431016
20
6.22796162916154
30
0
41
1
10
45.0109922887873
20
6.23067509718226
30
0
41
1
10
45.0062425417929
20
6.23318054720121
30
0
41
1
10
44.9844590372389
20
6.24344225268362
30
0
41
1
10
44.9660762943155
20
6.24872649667893
30
0
41
1
10
44.929214838197
20
6.25333011527368
30
0
41
1
10
44.910270412645
20
6.25264785765029
30
0
41
1
10
44.8732109040428
20
6.24566194171621
30
0
41
1
10
44.8547570619858
20
6.23893720240585
30
0
41
1
10
44.821442832161
20
6.22075399923042
30
0
41
1
10
44.8062237962401
20
6.20911259463782
30
0
41
1
10
44.7931841879726
20
6.19581567901557
30
0
0
LINE
5
4A
100
AcDbEntity
8
80
62
256
6
ByLayer
370
-1
48
1
60
0
100
AcDbLine
10
0
20
0
30
0
11
-10
21
0
31
0
39
0
210
0
220
0
230
1
0
LINE
5
4B
100
AcDbEntity
8
81
62
256
6
ByLayer
370
-1
48
1
60
0
100
AcDbLine
10
47.94
20
10.9
30
0
11
57.94
21
10.9
31
0
39
0
210
0
220
0
230
1
0
LINE
5
4C
100
AcDbEntity
8
SK4
62
256
6
ByLayer
370
-1
48
0.05
60
0
100
AcDbLine
10
-108.31
20
0
30
0
11
52.708974
21
0
31
0
39
0
210
0
220
0
230
1
0
LINE
5
4E
100
AcDbEntity
8
4
62
256
6
ByLayer
370
-1
48
0.05
60
0
100
AcDbLine
10
0
20
0
30
0
11
52.708974
21
0
31
0
39
0
210
0
220
0
230
1
0
LINE
5
50
100
AcDbEntity
8
1
62
256
6
ByLayer
370
-1
48
1
60
0
100
AcDbLine
10
0
20
-5.9925
30
0
11
34.001851
21
-5.9925
31
0
39
0
210
0
220
0
230
1
0
LINE
5
51
100
AcDbEntity
8
1
62
256
6
ByLayer
370
-1
48
1
60
0
100
AcDbLine
10
34.001851
20
5.9925
30
0
11
0
21
5.9925
31
0
39
0
210
0
220
0
230
1
0
LINE
5
52
100
AcDbEntity
8
1
62
256
6
ByLayer
370
-1
48
1
60
0
100
AcDbLine
10
34.001851
20
-5.9925
30
0
11
34.076851
21
-5.9175
31
0
39
0
210
0
220
0
230
1
0
LINE
5
53
100
AcDbEntity
8
1
62
256
6
ByLayer
370
-1
48
1
60
0
100
AcDbLine
10
34.076851
20
5.9175
30
0
11
34.001851
21
5.9925
31
0
39
0
210
0
220
0
230
1
0
LINE
5
54
100
AcDbEntity
8
1
62
256
6
ByLayer
370
-1
48
1
60
0
100
AcDbLine
10
35.926851
20
5.9175
30
0
11
34.076851
21
5.9175
31
0
39
0
210
0
220
0
230
1
0
LINE
5
55
100
AcDbEntity
8
1
62
256
6
ByLayer
370
-1
48
1
60
0
100
AcDbLine
10
34.076851
20
-5.9175
30
0
11
35.926851
21
-5.9175
31
0
39
0
210
0
220
0
230
1
0
LINE
5
56
100
AcDbEntity
8
1
62
256
6
ByLayer
370
-1
48
1
60
0
100
AcDbLine
10
36.748466
20
6.739115
30
0
11
35.926851
21
5.9175
31
0
39
0
210
0
220
0
230
1
0
LINE
5
57
100
AcDbEntity
8
1
62
256
6
ByLayer
370
-1
48
1
60
0
100
AcDbLine
10
35.926851
20
-5.9175
30
0
11
36.100827
21
-6.091476
31
0
39
0
210
0
220
0
230
1
0
LINE
5
58
100
AcDbEntity
8
SK1
62
256
6
ByLayer
370
-1
48
1
60
0
100
AcDbLine
10
-102.81
20
-5.9925
30
0
11
0
21
-5.9925
31
0
39
0
210
0
220
0
230
1
0
LINE
5
5A
100
AcDbEntity
8
SK1
62
256
6
ByLayer
370
-1
48
1
60
0
100
AcDbLine
10
0
20
5.9925
30
0
11
-102.81
21
5.9925
31
0
39
0
210
0
220
0
230
1
0
LINE
5
5B
100
AcDbEntity
8
SK1
62
256
6
ByLayer
370
-1
48
1
60
0
100
AcDbLine
10
-102.81
20
5.9925
30
0
11
-103.31
21
5.4925
31
0
39
0
210
0
220
0
230
1
0
LINE
5
5C
100
AcDbEntity
8
SK1
62
256
6
ByLayer
370
-1
48
1
60
0
100
AcDbLine
10
-103.31
20
-5.4925
30
0
11
-102.81
21
-5.9925
31
0
39
0
210
0
220
0
230
1
0
LINE
5
5D
100
AcDbEntity
8
1
62
256
6
ByLayer
370
-1
48
1
60
0
100
AcDbLine
10
43.889182
20
4.651916
30
0
11
43.893495
21
4.734216
31
0
39
0
210
0
220
0
230
1
0
LINE
5
5E
100
AcDbEntity
8
1
62
256
6
ByLayer
370
-1
48
1
60
0
100
AcDbLine
10
45.075461
20
4.760108
30
0
11
45.071221
21
4.679208
31
0
39
0
210
0
220
0
230
1
0
LINE
5
5F
100
AcDbEntity
8
1
62
256
6
ByLayer
370
-1
48
1
60
0
100
AcDbLine
10
46.208807
20
5.166831
30
0
11
46.212316
21
5.233776
31
0
39
0
210
0
220
0
230
1
0
LINE
5
60
100
AcDbEntity
8
1
62
256
6
ByLayer
370
-1
48
1
60
0
100
AcDbLine
10
42.767044
20
5.414335
30
0
11
42.763536
21
5.34739
31
0
39
0
210
0
220
0
230
1
0
LINE
5
61
100
AcDbEntity
8
1
62
256
6
ByLayer
370
-1
48
1
60
0
100
AcDbLine
10
45.086507
20
5.92615
30
0
11
45.082195
21
5.843866
31
0
39
0
210
0
220
0
230
1
0
LINE
5
62
100
AcDbEntity
8
1
62
256
6
ByLayer
370
-1
48
1
60
0
100
AcDbLine
10
43.900156
20
5.816574
30
0
11
43.904396
21
5.897478
31
0
39
0
210
0
220
0
230
1
0
LINE
5
63
100
AcDbEntity
8
1
62
256
6
ByLayer
370
-1
48
1
60
0
100
AcDbLine
10
34.076851
20
-4.040782
30
0
11
34.076851
21
-5.9175
31
0
39
0
210
0
220
0
230
1
0
LINE
5
64
100
AcDbEntity
8
1
62
256
6
ByLayer
370
-1
48
1
60
0
100
AcDbLine
10
34.076851
20
5.9175
30
0
11
34.076851
21
5.775438
31
0
39
0
210
0
220
0
230
1
0
LINE
5
65
100
AcDbEntity
8
1
62
256
6
ByLayer
370
-1
48
1
60
0
100
AcDbLine
10
37.881818
20
6.751998
30
0
11
41.20935
21
-5.615249
31
0
39
0
210
0
220
0
230
1
0
LINE
5
66
100
AcDbEntity
8
1
62
256
6
ByLayer
370
-1
48
1
60
0
100
AcDbLine
10
41.20935
20
-5.615249
30
0
11
47.160385
21
-0.560138
31
0
39
0
210
0
220
0
230
1
0
LINE
5
67
100
AcDbEntity
8
1
62
256
6
ByLayer
370
-1
48
1
60
0
100
AcDbLine
10
40.833245
20
-5.934732
30
0
11
40.648693
21
-6.0915
31
0
39
0
210
0
220
0
230
1
0
LINE
5
68
100
AcDbEntity
8
1
62
256
6
ByLayer
370
-1
48
1
60
0
100
AcDbLine
10
42.419926
20
0.32691
30
0
11
42.416233
21
0.256445
31
0
39
0
210
0
220
0
230
1
0
LINE
5
69
100
AcDbEntity
8
1
62
256
6
ByLayer
370
-1
48
1
60
0
100
AcDbLine
10
41.167964
20
2.607767
30
0
11
40.585031
21
2.245137
31
0
39
0
210
0
220
0
230
1
0
LINE
5
6A
100
AcDbEntity
8
1
62
256
6
ByLayer
370
-1
48
1
60
0
100
AcDbLine
10
40.574627
20
2.04662
30
0
11
40.585031
21
2.245137
31
0
39
0
210
0
220
0
230
1
0
LINE
5
6B
100
AcDbEntity
8
1
62
256
6
ByLayer
370
-1
48
1
60
0
100
AcDbLine
10
41.157556
20
2.409248
30
0
11
40.574627
21
2.04662
31
0
39
0
210
0
220
0
230
1
0
LINE
5
6C
100
AcDbEntity
8
1
62
256
6
ByLayer
370
-1
48
1
60
0
100
AcDbLine
10
0
20
-0.205966
30
0
11
0
21
0.205966
31
0
39
0
210
0
220
0
230
1
0
LINE
5
6D
100
AcDbEntity
8
1
62
256
6
ByLayer
370
-1
48
1
60
0
100
AcDbLine
10
34.001851
20
-4.047743
30
0
11
34.001851
21
-5.9925
31
0
39
0
210
0
220
0
230
1
0
LINE
5
6E
100
AcDbEntity
8
1
62
256
6
ByLayer
370
-1
48
1
60
0
100
AcDbLine
10
34.001851
20
5.9925
30
0
11
34.001851
21
5.847212
31
0
39
0
210
0
220
0
230
1
0
LINE
5
6F
100
AcDbEntity
8
1
62
256
6
ByLayer
370
-1
48
1
60
0
100
AcDbLine
10
0
20
-5.9925
30
0
11
0
21
-0.205966
31
0
39
0
210
0
220
0
230
1
0
LINE
5
70
100
AcDbEntity
8
1
62
256
6
ByLayer
370
-1
48
1
60
0
100
AcDbLine
10
0
20
0.205966
30
0
11
0
21
5.9925
31
0
39
0
210
0
220
0
230
1
0
LINE
5
71
100
AcDbEntity
8
1
62
256
6
ByLayer
370
-1
48
1
60
0
100
AcDbLine
10
47.356289
20
3.177935
30
0
11
47.160385
21
-0.560138
31
0
39
0
210
0
220
0
230
1
0
LINE
5
72
100
AcDbEntity
8
1
62
256
6
ByLayer
370
-1
48
1
60
0
100
AcDbLine
10
0
20
-0.205966
30
0
11
31.825091
21
-0.205966
31
0
39
0
210
0
220
0
230
1
0
LINE
5
73
100
AcDbEntity
8
1
62
256
6
ByLayer
370
-1
48
1
60
0
100
AcDbLine
10
40.375979
20
0.103002
30
0
11
40.385697
21
0.28842
31
0
39
0
210
0
220
0
230
1
0
LINE
5
74
100
AcDbEntity
8
1
62
256
6
ByLayer
370
-1
48
1
60
0
100
AcDbLine
10
40.648693
20
-6.0915
30
0
11
36.100851
21
-6.0915
31
0
39
0
210
0
220
0
230
1
0
LINE
5
75
100
AcDbEntity
8
1
62
256
6
ByLayer
370
-1
48
1
60
0
100
AcDbLine
10
31.69844
20
0.205966
30
0
11
0
21
0.205966
31
0
39
0
210
0
220
0
230
1
0
LINE
5
76
100
AcDbEntity
8
1
62
256
6
ByLayer
370
-1
48
1
60
0
100
AcDbLine
10
40.719113
20
6.750734
30
0
11
37.881818
21
6.751998
31
0
39
0
210
0
220
0
230
1
0
LINE
5
77
100
AcDbEntity
8
1
62
256
6
ByLayer
370
-1
48
1
60
0
100
AcDbLine
10
40.833245
20
-5.934732
30
0
11
41.20935
21
-5.615249
31
0
39
0
210
0
220
0
230
1
0
LINE
5
78
100
AcDbEntity
8
1
62
256
6
ByLayer
370
-1
48
1
60
0
100
AcDbLine
10
35.926851
20
-5.127087
30
0
11
35.926851
21
-5.9175
31
0
39
0
210
0
220
0
230
1
0
LINE
5
79
100
AcDbEntity
8
1
62
256
6
ByLayer
370
-1
48
1
60
0
100
AcDbLine
10
35.926851
20
5.9175
30
0
11
35.926851
21
5.890935
31
0
39
0
210
0
220
0
230
1
0
LINE
5
7A
100
AcDbEntity
8
SK1
62
256
6
ByLayer
370
-1
48
1
60
0
100
AcDbLine
10
0
20
-0.205966
30
0
11
0
21
0.205966
31
0
39
0
210
0
220
0
230
1
0
LINE
5
7B
100
AcDbEntity
8
SK1
62
256
6
ByLayer
370
-1
48
1
60
0
100
AcDbLine
10
-36.06
20
-0.205966
30
0
11
0
21
-0.205966
31
0
39
0
210
0
220
0
230
1
0
LINE
5
7C
100
AcDbEntity
8
SK1
62
256
6
ByLayer
370
-1
48
1
60
0
100
AcDbLine
10
-36.06
20
-0.205966
30
0
11
-36.06
21
0.205966
31
0
39
0
210
0
220
0
230
1
0
LINE
5
7D
100
AcDbEntity
8
SK1
62
256
6
ByLayer
370
-1
48
1
60
0
100
AcDbLine
10
-102.81
20
-5.9925
30
0
11
-102.81
21
5.9925
31
0
39
0
210
0
220
0
230
1
0
LINE
5
7E
100
AcDbEntity
8
SK1
62
256
6
ByLayer
370
-1
48
1
60
0
100
AcDbLine
10
-103.31
20
-5.4925
30
0
11
-103.31
21
5.4925
31
0
39
0
210
0
220
0
230
1
0
LINE
5
7F
100
AcDbEntity
8
SK1
62
256
6
ByLayer
370
-1
48
1
60
0
100
AcDbLine
10
0
20
-5.9925
30
0
11
0
21
-0.205966
31
0
39
0
210
0
220
0
230
1
0
LINE
5
80
100
AcDbEntity
8
SK1
62
256
6
ByLayer
370
-1
48
1
60
0
100
AcDbLine
10
0
20
0.205966
30
0
11
0
21
5.9925
31
0
39
0
210
0
220
0
230
1
0
LINE
5
81
100
AcDbEntity
8
SK1
62
256
6
ByLayer
370
-1
48
1
60
0
100
AcDbLine
10
0
20
0.205966
30
0
11
-36.06
21
0.205966
31
0
39
0
210
0
220
0
230
1
0
LINE
5
82
100
AcDbEntity
8
1
62
256
6
ByLayer
370
-1
48
1
60
0
100
AcDbLine
10
43.831287
20
5.678505
30
0
11
43.827256
21
5.601582
31
0
39
0
210
0
220
0
230
1
0
LINE
5
83
100
AcDbEntity
8
1
62
256
6
ByLayer
370
-1
48
1
60
0
100
AcDbLine
10
43.855887
20
5.649993
30
0
11
43.859918
21
5.726915
31
0
39
0
210
0
220
0
230
1
0
LINE
5
84
100
AcDbEntity
8
1
62
256
6
ByLayer
370
-1
48
1
60
0
100
AcDbLine
10
45.083248
20
4.555388
30
0
11
45.08775
21
4.641293
31
0
39
0
210
0
220
0
230
1
0
LINE
5
85
100
AcDbEntity
8
1
62
256
6
ByLayer
370
-1
48
1
60
0
100
AcDbLine
10
45.386845
20
5.418038
30
0
11
45.391349
21
5.503972
31
0
39
0
210
0
220
0
230
1
0
LINE
5
86
100
AcDbEntity
8
1
62
256
6
ByLayer
370
-1
48
1
60
0
100
AcDbLine
10
44.788681
20
6.109881
30
0
11
44.793184
21
6.195816
31
0
39
0
210
0
220
0
230
1
0
LINE
5
87
100
AcDbEntity
8
1
62
256
6
ByLayer
370
-1
48
1
60
0
100
AcDbLine
10
44.198211
20
6.115396
30
0
11
44.202715
21
6.201331
31
0
39
0
210
0
220
0
230
1
0
LINE
5
88
100
AcDbEntity
8
1
62
256
6
ByLayer
370
-1
48
1
60
0
100
AcDbLine
10
43.587876
20
5.432706
30
0
11
43.592378
21
5.51861
31
0
39
0
210
0
220
0
230
1
0
LINE
5
89
100
AcDbEntity
8
1
62
256
6
ByLayer
370
-1
48
1
60
0
100
AcDbLine
10
43.876769
20
4.587591
30
0
11
43.880143
21
4.651983
31
0
39
0
210
0
220
0
230
1
0
LINE
5
8A
100
AcDbEntity
8
1
62
256
6
ByLayer
370
-1
48
1
60
0
100
AcDbLine
10
41.395418
20
6.947776
30
0
11
41.041944
21
0.203075
31
0
39
0
210
0
220
0
230
1
0
LINE
5
8B
100
AcDbEntity
8
1
62
256
6
ByLayer
370
-1
48
1
60
0
100
AcDbLine
10
47.332745
20
10.839998
30
0
11
41.581365
21
7.262188
31
0
39
0
210
0
220
0
230
1
0
LINE
5
8C
100
AcDbEntity
8
1
62
256
6
ByLayer
370
-1
48
1
60
0
100
AcDbLine
10
47.585986
20
3.739344
30
0
11
47.939461
21
10.484045
31
0
39
0
210
0
220
0
230
1
0
LINE
5
8D
100
AcDbEntity
8
1
62
256
6
ByLayer
370
-1
48
1
60
0
100
AcDbLine
10
41.648659
20
-0.152878
30
0
11
47.400039
21
3.424932
31
0
39
0
210
0
220
0
230
1
0
LINE
5
8E
100
AcDbEntity
8
2
62
256
6
ByLayer
370
-1
48
1
60
1
100
AcDbLine
10
47.94
20
0
30
0
11
47.941
21
0.001
31
0
39
0
210
0
220
0
230
1
0
MTEXT
5
E1
100
AcDbEntity
8
SK6
62
256
6
ByLayer
370
-1
48
1
60
0
100
AcDbMText
10
-24.31
20
-19.702528
30
0
210
0
220
0
230
1
1
\W00.749;\fsimplex.shx,bigfont.shx;A12M-SDUCR 07-ER 
40
3.5
41
0
44
1.084337
50
0
71
7
72
5
7
DEFAULT
0
DIMENSION
5
114
100
AcDbEntity
8
2
62
256
6
ByLayer
370
-3
48
1
60
0
100
AcDbDimension
2
DimnDraft3D1
10
60.19
20
0
30
0
11
60.19
21
21.155
31
0
70
32
71
5
72
1
41
1
210
0
220
0
230
1
3
Standard
100
AcDbAlignedDimension
13
49.94
23
10.9
33
0
14
49.94
24
0
34
0
50
90
100
AcDbRotatedDimension
1001
ACAD
1000
DSTYLE
1002
{
1070
    74
1070
     0
1070
   279
1070
     0
1070
   172
1070
     1
1070
   173
1070
     1
1070
   340
1005
E2
1070
    77
1070
     1
1070
    73
1070
     0
1070
   171
1070
     4
1070
   274
1070
     4
1070
   177
1070
     2
1070
   176
1070
     2
1070
   178
1070
     7
1070
    78
1070
     8
1070
    41
1041
3.175
1070
   147
1041
2.25
1070
    42
1041
2.0
1070
    44
1041
2.0
1070
   140
1041
4.5
1070
   343
1005
115
1070
   344
1005
115
1002
}
0
DIMENSION
5
12A
100
AcDbEntity
8
SK2
62
256
6
ByLayer
370
-3
48
1
60
0
100
AcDbDimension
2
DimnDraft3D2
10
-113.06
20
5.9925
30
0
11
-113.06
21
16.2475
31
0
70
32
71
5
72
1
41
1
210
0
220
0
230
1
3
Standard
100
AcDbAlignedDimension
13
-105.31
23
-5.9925
33
0
14
-105.31
24
5.9925
34
0
50
90
100
AcDbRotatedDimension
1001
ACAD
1000
DSTYLE
1002
{
1070
    74
1070
     0
1070
   279
1070
     0
1070
   172
1070
     1
1070
   173
1070
     1
1070
   340
1005
E2
1070
    77
1070
     1
1070
    73
1070
     0
1070
   171
1070
     4
1070
   274
1070
     4
1070
   177
1070
     2
1070
   176
1070
     2
1070
   178
1070
     7
1070
    78
1070
     8
1070
    41
1041
3.175
1070
   147
1041
2.25
1070
    42
1041
2.0
1070
    44
1041
2.0
1070
   140
1041
4.5
1070
   343
1005
115
1070
   344
1005
115
1002
}
0
DIMENSION
5
138
100
AcDbEntity
8
SK2
62
256
6
ByLayer
370
-3
48
1
60
0
100
AcDbDimension
2
DimnDraft3D3
10
-103.31
20
23.65
30
0
11
-33.937632
21
23.65
31
0
70
32
71
5
72
1
41
1
210
0
220
0
230
1
3
Standard
100
AcDbAlignedDimension
13
47.94
23
12.9
33
0
14
-103.31
24
7.9925
34
0
50
0
100
AcDbRotatedDimension
1001
ACAD
1000
DSTYLE
1002
{
1070
   279
1070
     0
1070
   172
1070
     1
1070
   173
1070
     1
1070
   340
1005
E2
1070
    77
1070
     1
1070
    73
1070
     0
1070
   171
1070
     4
1070
   274
1070
     4
1070
   177
1070
     2
1070
   176
1070
     2
1070
   178
1070
     7
1070
    78
1070
     8
1070
    41
1041
3.175
1070
   147
1041
2.25
1070
    42
1041
2.0
1070
    44
1041
2.0
1070
   140
1041
4.5
1070
   343
1005
115
1070
   344
1005
115
1002
}
0
DIMENSION
5
146
100
AcDbEntity
8
2
62
256
6
ByLayer
370
-3
48
1
60
0
100
AcDbDimension
2
DimnDraft3D4
10
96.295162
20
0
30
0
11
73.500566
21
-36.792664
31
0
70
34
71
5
72
1
41
1
210
0
220
0
230
1
3
Standard
100
AcDb2LineAngularDimension
13
47.468976
23
1.912334
33
0
14
44.808145
24
-48.859355
34
0
15
49.94
25
0
35
0
16
76.573167
26
-30.775028
36
0
40
0
0
ENDSEC
0
SECTION
2
OBJECTS
0
DICTIONARY
5
177
330
0
100
AcDbDictionary
280
0
281
1
3
ACAD_GROUP
350
178
3
ACAD_MLINESTYLE
350
179
0
DICTIONARY
5
178
330
0
100
AcDbDictionary
280
0
281
1
0
DICTIONARY
5
179
330
0
100
AcDbDictionary
280
0
281
1
3
Standard
350
18
0
MLINESTYLE
5
18
330
179
100
AcDbMlineStyle
2
Standard
70
0
3

62
256
51
90
52
90
71
2
49
-0.5
62
256
6
ByLayer
49
0.5
62
256
6
ByLayer
0
RASTERVARIABLES
5
165
330

100
AcDbRasterVariables
90
0
70
1
71
1
72
1
0
ENDSEC
0
EOF
