0
SECTION
2
HEADER
9
$ACADVER
1
AC1015
9
$DWGCODEPAGE
3
ANSI_1252
9
$HANDSEED
5
184
9
$ANGBASE
50
0
9
$ANGDIR
70
0
9
$ATTMODE
70
1
9
$AUNITS
70
0
9
$AUPREC
70
0
9
$CECOLOR
62
256
9
$CELTSCALE
40
1
9
$CELTYPE
6
ByLayer
9
$CELWEIGHT
370
-1
9
$CLAYER
8
0
9
$CMLJUST
70
0
9
$CMLSCALE
40
1
9
$CMLSTYLE
2
Standard
9
$DIMSTYLE
2
Standard
9
$TEXTSIZE
40
0.2
9
$TEXTSTYLE
7
Standard
9
$LUNITS
70
2
9
$LUPREC
70
4
9
$EXTNAMES
290
1
9
$INSUNITS
70
4
9
$LTSCALE
40
1
9
$LWDISPLAY
290
0
9
$PDMODE
70
0
9
$PDSIZE
40
0
9
$PLINEGEN
70
0
0
ENDSEC
0
SECTION
2
CLASSES
0
CLASS
1
RASTERVARIABLES
2
AcDbRasterVariables
3
ISM
90
0
280
0
281
0
0
ENDSEC
0
SECTION
2
TABLES
0
TABLE
2
VPORT
5
17a
100
AcDbSymbolTable
0
VPORT
5
1
100
AcDbSymbolTableRecord
100
AcDbViewportTableRecord
2
*Active
70
0
10
0
20
0
11
1
21
1
12
-1
22
1
13
0
23
0
14
0.5
24
0.5
15
10
25
10
16
0
26
0
36
1
17
0
27
0
37
0
0
ENDTAB
0
TABLE
2
LTYPE
5
17b
100
AcDbSymbolTable
0
LTYPE
5
14
100
AcDbSymbolTableRecord
100
AcDbLinetypeTableRecord
70
0
2
ByBlock
3

72
65
73
0
40
0
0
LTYPE
5
15
100
AcDbSymbolTableRecord
100
AcDbLinetypeTableRecord
70
0
2
ByLayer
3

72
65
73
0
40
0
0
LTYPE
5
16
100
AcDbSymbolTableRecord
100
AcDbLinetypeTableRecord
70
0
2
CONTINUOUS
3
Solid line
72
65
73
0
40
0
0
LTYPE
5
3B
100
AcDbSymbolTableRecord
100
AcDbLinetypeTableRecord
70
0
2
DASHED
3
__ __ __ __ __ __ __ __ __
72
65
73
2
40
25.72
49
12.86
74
0
49
-12.86
74
0
0
LTYPE
5
3C
100
AcDbSymbolTableRecord
100
AcDbLinetypeTableRecord
70
0
2
HIDDEN
3
_ _ _ _ _ _ _ _ _ _ _ _ _ _ _
72
65
73
2
40
0.5
49
0.25
74
0
49
-0.25
74
0
0
LTYPE
5
3D
100
AcDbSymbolTableRecord
100
AcDbLinetypeTableRecord
70
0
2
PHANTOM
3
____ _ _ ____ _ _ _____ _ _ ____
72
65
73
6
40
50.5
49
18
74
0
49
-6.5
74
0
49
6.5
74
0
49
-6.5
74
0
49
6.5
74
0
49
-6.5
74
0
0
LTYPE
5
3E
100
AcDbSymbolTableRecord
100
AcDbLinetypeTableRecord
70
0
2
CENTER
3
____ _ ____ _ ____ _ ____
72
65
73
4
40
47.5
49
22
74
0
49
-8.5
74
0
49
8.5
74
0
49
-8.5
74
0
0
LTYPE
5
3F
100
AcDbSymbolTableRecord
100
AcDbLinetypeTableRecord
70
0
2
DOT
3
.........................
72
65
73
2
40
10
49
0
74
0
49
-10
74
0
0
LTYPE
5
40
100
AcDbSymbolTableRecord
100
AcDbLinetypeTableRecord
70
0
2
DASHDOT
3
_._._._._._._._._._._._._._._._.
72
65
73
4
40
70
49
31
74
0
49
-13
74
0
49
13
74
0
49
-13
74
0
0
ENDTAB
0
TABLE
2
LAYER
5
17c
100
AcDbSymbolTable
0
LAYER
5
10
100
AcDbSymbolTableRecord
100
AcDbLayerTableRecord
2
0
70
0
62
7
6
CONTINUOUS
290
1
370
-3
390
0
0
LAYER
5
42
100
AcDbSymbolTableRecord
100
AcDbLayerTableRecord
2
80
70
0
62
-6
6
CONTINUOUS
290
1
370
-3
390
0
0
LAYER
5
44
100
AcDbSymbolTableRecord
100
AcDbLayerTableRecord
2
81
70
0
62
-3
6
CONTINUOUS
290
1
370
-3
390
0
0
LAYER
5
46
100
AcDbSymbolTableRecord
100
AcDbLayerTableRecord
2
1
70
0
62
4
6
CONTINUOUS
290
1
370
-3
390
0
0
LAYER
5
48
100
AcDbSymbolTableRecord
100
AcDbLayerTableRecord
2
2
70
0
62
7
6
CONTINUOUS
290
1
370
-3
390
0
0
LAYER
5
4F
100
AcDbSymbolTableRecord
100
AcDbLayerTableRecord
2
4
70
0
62
-2
6
CENTER
290
1
370
-3
390
0
0
LAYER
5
166
100
AcDbSymbolTableRecord
100
AcDbLayerTableRecord
2
SK4
70
0
62
2
6
CENTER
290
1
370
-3
390
0
0
LAYER
5
167
100
AcDbSymbolTableRecord
100
AcDbLayerTableRecord
2
SK1
70
0
62
4
6
CONTINUOUS
290
1
370
-3
390
0
0
LAYER
5
168
100
AcDbSymbolTableRecord
100
AcDbLayerTableRecord
2
SK6
70
0
62
5
6
CONTINUOUS
290
1
370
-3
390
0
0
LAYER
5
169
100
AcDbSymbolTableRecord
100
AcDbLayerTableRecord
2
SK2
70
0
62
7
6
CONTINUOUS
290
1
370
-3
390
0
0
ENDTAB
0
TABLE
2
STYLE
5
17d
100
AcDbSymbolTable
0
STYLE
5
11
100
AcDbSymbolTableRecord
100
AcDbTextStyleTableRecord
2
Standard
3
txt
70
0
71
0
40
0
41
1
42
0
50
0
0
STYLE
5
E2
100
AcDbSymbolTableRecord
100
AcDbTextStyleTableRecord
2
DEFAULT
3
simplex.shx
70
0
71
0
40
0
41
1
42
0
50
0
0
STYLE
5
105
100
AcDbSymbolTableRecord
100
AcDbTextStyleTableRecord
2
DWGDirectTextStyle
3
SIMPLEX
70
0
71
0
40
0
41
1
42
0
50
0
0
ENDTAB
0
TABLE
2
DIMSTYLE
5
17e
100
AcDbSymbolTable
100
AcDbDimStyleTable
0
DIMSTYLE
105
27
100
AcDbSymbolTableRecord
100
AcDbDimStyleTableRecord
2
Standard
70
0
3
<>
41
0.18
42
0.0625
44
0.18
140
0.18
147
0.09
73
0
74
0
77
1
271
2
275
0
278
52
280
0
340
11
0
ENDTAB
0
TABLE
2
VIEW
5
17f
100
AcDbSymbolTable
0
ENDTAB
0
TABLE
2
UCS
5
180
100
AcDbSymbolTable
0
ENDTAB
0
TABLE
2
APPID
5
181
100
AcDbSymbolTable
0
APPID
5
12
100
AcDbSymbolTableRecord
100
AcDbRegAppTableRecord
2
ACAD
70
0
0
ENDTAB
0
TABLE
2
BLOCK_RECORD
5
182
100
AcDbSymbolTable
0
BLOCK_RECORD
5
1F
100
AcDbSymbolTableRecord
100
AcDbBlockTableRecord
2
*Model_Space
340
0
70
0
0
BLOCK_RECORD
5
1B
100
AcDbSymbolTableRecord
100
AcDbBlockTableRecord
2
*Paper_Space
340
0
70
0
0
BLOCK_RECORD
5
23
100
AcDbSymbolTableRecord
100
AcDbBlockTableRecord
2
*Paper_Space0
340
0
70
0
0
BLOCK_RECORD
5
107
100
AcDbSymbolTableRecord
100
AcDbBlockTableRecord
2
DimnDraft3D1
340
0
70
0
0
BLOCK_RECORD
5
115
100
AcDbSymbolTableRecord
100
AcDbBlockTableRecord
2
_CLOSED
340
0
70
0
0
BLOCK_RECORD
5
11C
100
AcDbSymbolTableRecord
100
AcDbBlockTableRecord
2
DimnDraft3D2
340
0
70
0
0
BLOCK_RECORD
5
12B
100
AcDbSymbolTableRecord
100
AcDbBlockTableRecord
2
DimnDraft3D3
340
0
70
0
0
BLOCK_RECORD
5
139
100
AcDbSymbolTableRecord
100
AcDbBlockTableRecord
2
DimnDraft3D4
340
0
70
0
0
ENDTAB
0
ENDSEC
0
SECTION
2
BLOCKS
0
BLOCK
5
20
100
AcDbEntity
8
0
100
AcDbBlockBegin
2
*Model_Space
70
0
10
0
20
0
30
0
3
*Model_Space
0
ENDBLK
5
21
100
AcDbEntity
8
0
100
AcDbBlockEnd
0
BLOCK
5
1C
100
AcDbEntity
8
0
100
AcDbBlockBegin
2
*Paper_Space
70
0
10
0
20
0
30
0
3
*Paper_Space
0
ENDBLK
5
1D
100
AcDbEntity
8
0
100
AcDbBlockEnd
0
BLOCK
5
24
100
AcDbEntity
8
0
100
AcDbBlockBegin
2
*Paper_Space0
70
0
10
0
20
0
30
0
3
*Paper_Space0
0
ENDBLK
5
25
100
AcDbEntity
8
0
100
AcDbBlockEnd
0
BLOCK
5
112
100
AcDbEntity
8
0
100
AcDbBlockBegin
2
DimnDraft3D1
70
0
10
0
20
0
30
0
3
DimnDraft3D1
0
MTEXT
5
108
100
AcDbEntity
8
2
62
256
6
ByLayer
370
-1
48
1
60
0
100
AcDbMText
10
59.065
20
-25.052368
30
0
210
0
220
0
230
1
1
\W01.000;\fsimplex.shx,bigfont.shx;9.0 
40
4.5
41
0
44
1.084337
50
90
71
7
72
5
7
DEFAULT
0
LINE
5
109
100
AcDbEntity
8
2
62
256
6
ByLayer
370
-1
48
1
60
0
100
AcDbLine
10
49.94
20
-8.9
30
0
11
62.19
21
-8.9
31
0
39
0
210
0
220
0
230
1
0
LINE
5
10A
100
AcDbEntity
8
2
62
256
6
ByLayer
370
-1
48
1
60
0
100
AcDbLine
10
49.94
20
0
30
0
11
62.19
21
0
31
0
39
0
210
0
220
0
230
1
0
LINE
5
10B
100
AcDbEntity
8
2
62
256
6
ByLayer
370
-1
48
1
60
0
100
AcDbLine
10
60.19
20
0
30
0
11
60.19
21
-26.177368
31
0
39
0
210
0
220
0
230
1
0
LINE
5
10C
100
AcDbEntity
8
2
62
256
6
ByLayer
370
-1
48
1
60
0
100
AcDbLine
10
60.19
20
-8.9
30
0
11
59.772003
21
-5.725002
31
0
39
0
210
0
220
0
230
1
0
LINE
5
10D
100
AcDbEntity
8
2
62
256
6
ByLayer
370
-1
48
1
60
0
100
AcDbLine
10
60.19
20
-8.9
30
0
11
60.607997
21
-5.724998
31
0
39
0
210
0
220
0
230
1
0
LINE
5
10E
100
AcDbEntity
8
2
62
256
6
ByLayer
370
-1
48
1
60
0
100
AcDbLine
10
59.772003
20
-5.725002
30
0
11
60.607997
21
-5.724998
31
0
39
0
210
0
220
0
230
1
0
LINE
5
10F
100
AcDbEntity
8
2
62
256
6
ByLayer
370
-1
48
1
60
0
100
AcDbLine
10
60.19
20
0
30
0
11
60.607997
21
-3.174998
31
0
39
0
210
0
220
0
230
1
0
LINE
5
110
100
AcDbEntity
8
2
62
256
6
ByLayer
370
-1
48
1
60
0
100
AcDbLine
10
60.19
20
0
30
0
11
59.772003
21
-3.175002
31
0
39
0
210
0
220
0
230
1
0
LINE
5
111
100
AcDbEntity
8
2
62
256
6
ByLayer
370
-1
48
1
60
0
100
AcDbLine
10
60.607997
20
-3.174998
30
0
11
59.772003
21
-3.175002
31
0
39
0
210
0
220
0
230
1
0
ENDBLK
5
113
100
AcDbEntity
8
0
100
AcDbBlockEnd
0
BLOCK
5
116
100
AcDbEntity
8
0
100
AcDbBlockBegin
2
_CLOSED
70
0
10
0
20
0
30
0
3
_CLOSED
0
LINE
5
118
100
AcDbEntity
8
0
62
256
6
ByLayer
370
-2
48
1
60
0
100
AcDbLine
10
-1
20
0.166667
30
0
11
0
21
0
31
0
39
0
210
0
220
0
230
1
0
LINE
5
119
100
AcDbEntity
8
0
62
256
6
ByLayer
370
-2
48
1
60
0
100
AcDbLine
10
0
20
0
30
0
11
-1
21
-0.166667
31
0
39
0
210
0
220
0
230
1
0
LINE
5
11A
100
AcDbEntity
8
0
62
256
6
ByLayer
370
-2
48
1
60
0
100
AcDbLine
10
-1
20
0.166667
30
0
11
-1
21
-0.166667
31
0
39
0
210
0
220
0
230
1
0
LINE
5
11B
100
AcDbEntity
8
0
62
256
6
ByLayer
370
-2
48
1
60
0
100
AcDbLine
10
0
20
0
30
0
11
-1
21
0
31
0
39
0
210
0
220
0
230
1
0
ENDBLK
5
117
100
AcDbEntity
8
0
100
AcDbBlockEnd
0
BLOCK
5
128
100
AcDbEntity
8
0
100
AcDbBlockBegin
2
DimnDraft3D2
70
0
10
0
20
0
30
0
3
DimnDraft3D2
0
MTEXT
5
11D
100
AcDbEntity
8
SK2
62
256
6
ByLayer
370
-1
48
1
60
0
100
AcDbMText
10
-114.185
20
17.3725
30
0
210
0
220
0
230
1
1
\W01.000;\fsimplex.shx,bigfont.shx;%%c12 
40
4.5
41
0
44
1.084337
50
90
71
7
72
5
7
DEFAULT
0
LINE
5
11F
100
AcDbEntity
8
SK2
62
256
6
ByLayer
370
-1
48
1
60
0
100
AcDbLine
10
-105.31
20
-5.9925
30
0
11
-115.06
21
-5.9925
31
0
39
0
210
0
220
0
230
1
0
LINE
5
120
100
AcDbEntity
8
SK2
62
256
6
ByLayer
370
-1
48
1
60
0
100
AcDbLine
10
-105.31
20
5.9925
30
0
11
-115.06
21
5.9925
31
0
39
0
210
0
220
0
230
1
0
LINE
5
121
100
AcDbEntity
8
SK2
62
256
6
ByLayer
370
-1
48
1
60
0
100
AcDbLine
10
-113.06
20
-5.9925
30
0
11
-113.06
21
24.690921
31
0
39
0
210
0
220
0
230
1
0
LINE
5
122
100
AcDbEntity
8
SK2
62
256
6
ByLayer
370
-1
48
1
60
0
100
AcDbLine
10
-113.06
20
-5.9925
30
0
11
-113.477997
21
-2.817502
31
0
39
0
210
0
220
0
230
1
0
LINE
5
123
100
AcDbEntity
8
SK2
62
256
6
ByLayer
370
-1
48
1
60
0
100
AcDbLine
10
-113.06
20
-5.9925
30
0
11
-112.642003
21
-2.817498
31
0
39
0
210
0
220
0
230
1
0
LINE
5
124
100
AcDbEntity
8
SK2
62
256
6
ByLayer
370
-1
48
1
60
0
100
AcDbLine
10
-113.477997
20
-2.817502
30
0
11
-112.642003
21
-2.817498
31
0
39
0
210
0
220
0
230
1
0
LINE
5
125
100
AcDbEntity
8
SK2
62
256
6
ByLayer
370
-1
48
1
60
0
100
AcDbLine
10
-113.06
20
5.9925
30
0
11
-112.642003
21
2.817502
31
0
39
0
210
0
220
0
230
1
0
LINE
5
126
100
AcDbEntity
8
SK2
62
256
6
ByLayer
370
-1
48
1
60
0
100
AcDbLine
10
-113.06
20
5.9925
30
0
11
-113.477997
21
2.817498
31
0
39
0
210
0
220
0
230
1
0
LINE
5
127
100
AcDbEntity
8
SK2
62
256
6
ByLayer
370
-1
48
1
60
0
100
AcDbLine
10
-112.642003
20
2.817502
30
0
11
-113.477997
21
2.817498
31
0
39
0
210
0
220
0
230
1
0
ENDBLK
5
129
100
AcDbEntity
8
0
100
AcDbBlockEnd
0
BLOCK
5
136
100
AcDbEntity
8
0
100
AcDbBlockBegin
2
DimnDraft3D3
70
0
10
0
20
0
30
0
3
DimnDraft3D3
0
MTEXT
5
12C
100
AcDbEntity
8
SK2
62
256
6
ByLayer
370
-1
48
1
60
0
100
AcDbMText
10
-32.812632
20
-25.025
30
0
210
0
220
0
230
1
1
\W01.000;\fsimplex.shx,bigfont.shx;150.0 
40
4.5
41
0
44
1.084337
50
0
71
7
72
5
7
DEFAULT
0
LINE
5
12D
100
AcDbEntity
8
SK2
62
256
6
ByLayer
370
-1
48
1
60
0
100
AcDbLine
10
-103.31
20
-7.9925
30
0
11
-103.31
21
-28.15
31
0
39
0
210
0
220
0
230
1
0
LINE
5
12E
100
AcDbEntity
8
SK2
62
256
6
ByLayer
370
-1
48
1
60
0
100
AcDbLine
10
47.94
20
-10.9
30
0
11
47.94
21
-28.15
31
0
39
0
210
0
220
0
230
1
0
LINE
5
12F
100
AcDbEntity
8
SK2
62
256
6
ByLayer
370
-1
48
1
60
0
100
AcDbLine
10
-103.31
20
-26.15
30
0
11
47.94
21
-26.15
31
0
39
0
210
0
220
0
230
1
0
LINE
5
130
100
AcDbEntity
8
SK2
62
256
6
ByLayer
370
-1
48
1
60
0
100
AcDbLine
10
-103.31
20
-26.15
30
0
11
-100.135002
21
-25.732003
31
0
39
0
210
0
220
0
230
1
0
LINE
5
131
100
AcDbEntity
8
SK2
62
256
6
ByLayer
370
-1
48
1
60
0
100
AcDbLine
10
-103.31
20
-26.15
30
0
11
-100.134998
21
-26.567997
31
0
39
0
210
0
220
0
230
1
0
LINE
5
132
100
AcDbEntity
8
SK2
62
256
6
ByLayer
370
-1
48
1
60
0
100
AcDbLine
10
-100.135002
20
-25.732003
30
0
11
-100.134998
21
-26.567997
31
0
39
0
210
0
220
0
230
1
0
LINE
5
133
100
AcDbEntity
8
SK2
62
256
6
ByLayer
370
-1
48
1
60
0
100
AcDbLine
10
47.94
20
-26.15
30
0
11
44.765002
21
-26.567997
31
0
39
0
210
0
220
0
230
1
0
LINE
5
134
100
AcDbEntity
8
SK2
62
256
6
ByLayer
370
-1
48
1
60
0
100
AcDbLine
10
47.94
20
-26.15
30
0
11
44.764998
21
-25.732003
31
0
39
0
210
0
220
0
230
1
0
LINE
5
135
100
AcDbEntity
8
SK2
62
256
6
ByLayer
370
-1
48
1
60
0
100
AcDbLine
10
44.765002
20
-26.567997
30
0
11
44.764998
21
-25.732003
31
0
39
0
210
0
220
0
230
1
0
ENDBLK
5
137
100
AcDbEntity
8
0
100
AcDbBlockEnd
0
BLOCK
5
144
100
AcDbEntity
8
0
100
AcDbBlockBegin
2
DimnDraft3D4
70
0
10
0
20
0
30
0
3
DimnDraft3D4
0
MTEXT
5
13A
100
AcDbEntity
8
2
62
256
6
ByLayer
370
-1
48
1
60
0
100
AcDbMText
10
61.783838
20
36.215882
30
0
210
0
220
0
230
1
1
\W01.000;\fsimplex.shx,bigfont.shx;107%%d30' 
40
4.5
41
0
44
1.084337
50
323.75
71
7
72
5
7
DEFAULT
0
LINE
5
13B
100
AcDbEntity
8
2
62
256
6
ByLayer
370
-1
48
1
60
0
100
AcDbLine
10
45.233648
20
-0.316547
30
0
11
33.127739
21
38.078491
31
0
39
0
210
0
220
0
230
1
0
LINE
5
13C
100
AcDbEntity
8
2
62
256
6
ByLayer
370
-1
48
1
60
0
100
AcDbLine
10
49.94
20
0
30
0
11
85.060248
21
0
31
0
39
0
210
0
220
0
230
1
0
ARC
5
13D
100
AcDbEntity
8
2
62
256
6
ByLayer
370
-1
48
1
60
0
100
AcDbCircle
39
0
10
45.133841
20
0
30
0
40
37.9264068640928
210
0
220
0
230
1
100
AcDbArc
50
0
51
107.5
0
LINE
5
13E
100
AcDbEntity
8
2
62
256
6
ByLayer
370
-1
48
1
60
0
100
AcDbLine
10
33.72915
20
36.171057
30
0
11
36.659177
21
37.463449
31
0
39
0
210
0
220
0
230
1
0
LINE
5
13F
100
AcDbEntity
8
2
62
256
6
ByLayer
370
-1
48
1
60
0
100
AcDbLine
10
33.72915
20
36.171057
30
0
11
36.893838
21
36.661066
31
0
39
0
210
0
220
0
230
1
0
LINE
5
140
100
AcDbEntity
8
2
62
256
6
ByLayer
370
-1
48
1
60
0
100
AcDbLine
10
36.659177
20
37.463449
30
0
11
36.893838
21
36.661066
31
0
39
0
210
0
220
0
230
1
0
LINE
5
141
100
AcDbEntity
8
2
62
256
6
ByLayer
370
-1
48
1
60
0
100
AcDbLine
10
83.060248
20
0
30
0
11
82.575937
21
3.165562
31
0
39
0
210
0
220
0
230
1
0
LINE
5
142
100
AcDbEntity
8
2
62
256
6
ByLayer
370
-1
48
1
60
0
100
AcDbLine
10
83.060248
20
0
30
0
11
83.411748
21
3.183049
31
0
39
0
210
0
220
0
230
1
0
LINE
5
143
100
AcDbEntity
8
2
62
256
6
ByLayer
370
-1
48
1
60
0
100
AcDbLine
10
82.575937
20
3.165562
30
0
11
83.411748
21
3.183049
31
0
39
0
210
0
220
0
230
1
0
ENDBLK
5
145
100
AcDbEntity
8
0
100
AcDbBlockEnd
0
ENDSEC
0
SECTION
2
ENTITIES
0
ELLIPSE
5
8D
100
AcDbEntity
8
1
62
256
6
ByLayer
370
-1
48
1
60
0
100
AcDbEllipse
10
49.691158
20
-2.026045
30
0
11
-4.00561119314247
21
-1.26296435791786
31
0
210
0
220
0
230
1
40
0.992418
41
-0.439975954790847
42
-0.391928592698238
0
ELLIPSE
5
8E
100
AcDbEntity
8
1
62
256
6
ByLayer
370
-1
48
1
60
0
100
AcDbEllipse
10
39.043985
20
-0.834849
30
0
11
-1.19214618843529
21
-0.375882249380326
31
0
210
0
220
0
230
1
40
0.992418
41
0.106856169341843
42
0.959931088596863
0
ELLIPSE
5
8F
100
AcDbEntity
8
1
62
256
6
ByLayer
370
-1
48
1
60
0
100
AcDbEllipse
10
39.123564
20
-1.08724
30
0
11
-1.19214618843529
21
-0.375882249380326
31
0
210
0
220
0
230
1
40
0.992418
41
-0.862027290779723
42
0.959931088596829
0
ELLIPSE
5
90
100
AcDbEntity
8
1
62
256
6
ByLayer
370
-1
48
1
60
0
100
AcDbEllipse
10
69.947948
20
0.000176
30
0
11
162.026400758157
21
0.70393022296659
31
0
210
0
220
0
230
-1
40
0.03673
41
1.77691750664279
42
1.78329161997149
0
ELLIPSE
5
91
100
AcDbEntity
8
1
62
256
6
ByLayer
370
-1
48
1
60
0
100
AcDbEllipse
10
38.954449
20
0.2214
30
0
11
-1.00140279828564
21
-0.315741089479474
31
0
210
0
220
0
230
1
40
0.992418
41
2.66856127680209
42
2.7839862074404
0
ELLIPSE
5
92
100
AcDbEntity
8
1
62
256
6
ByLayer
370
-1
48
1
60
0
100
AcDbEllipse
10
38.954449
20
0.2214
30
0
11
-1.00140279828564
21
-0.315741089479474
31
0
210
0
220
0
230
1
40
0.992418
41
0.127358550890293
42
1.19431310282464
0
ELLIPSE
5
93
100
AcDbEntity
8
1
62
256
6
ByLayer
370
-1
48
1
60
0
100
AcDbEllipse
10
38.937817
20
0.27415
30
0
11
-1.00140279828564
21
-0.315741089479474
31
0
210
0
220
0
230
1
40
0.992418
41
2.62476041620925
42
2.83397115414442
0
ELLIPSE
5
94
100
AcDbEntity
8
1
62
256
6
ByLayer
370
-1
48
1
60
0
100
AcDbEllipse
10
38.937817
20
0.27415
30
0
11
-1.00140279828564
21
-0.315741089479474
31
0
210
0
220
0
230
1
40
0.992418
41
0.154093323229639
42
1.19425483380355
0
ELLIPSE
5
95
100
AcDbEntity
8
1
62
256
6
ByLayer
370
-1
48
1
60
0
100
AcDbEllipse
10
38.937817
20
0.27415
30
0
11
-1.00140279828564
21
-0.315741089479474
31
0
210
0
220
0
230
1
40
0.992418
41
2.83397019516115
42
2.98751596464392
0
ELLIPSE
5
96
100
AcDbEntity
8
1
62
256
6
ByLayer
370
-1
48
1
60
0
100
AcDbEllipse
10
69.946876
20
-1.5E-05
30
0
11
159.995869163617
21
0.695070348653381
31
0
210
0
220
0
230
-1
40
0.036729
41
1.7682982845028
42
1.77908374853183
0
ELLIPSE
5
97
100
AcDbEntity
8
1
62
256
6
ByLayer
370
-1
48
1
60
0
100
AcDbEllipse
10
39.034027
20
-0.030991
30
0
11
1.00140279828564
21
0.315741089479474
31
0
210
0
220
0
230
1
40
0.992418
41
-0.26316475221312
42
-3.0526805758077
0
ELLIPSE
5
98
100
AcDbEntity
8
1
62
256
6
ByLayer
370
-1
48
1
60
0
100
AcDbEllipse
10
41.041704
20
-10.621857
30
0
11
-4.00561119314258
21
-1.2629643579179
31
0
210
0
220
0
230
1
40
0.992418
41
-1.78284331330838
42
-1.72628751139576
0
ELLIPSE
5
99
100
AcDbEntity
8
1
62
256
6
ByLayer
370
-1
48
1
60
0
100
AcDbEllipse
10
47.543396
20
-8.505861
30
0
11
0.378506414828264
21
0.119342614178272
31
0
210
0
220
0
230
1
40
0.992418
41
-2.18166156499272
42
9.02010997950217E-14
0
ELLIPSE
5
9A
100
AcDbEntity
8
1
62
256
6
ByLayer
370
-1
48
1
60
0
100
AcDbEllipse
10
43.27254
20
-4.199116
30
0
11
1.74030418959479
21
0.548715803260234
31
0
210
0
220
0
230
1
40
0.992418
41
2.83397067032111
42
-9.80911702135528E-16
0
ELLIPSE
5
9B
100
AcDbEntity
8
1
62
256
6
ByLayer
370
-1
48
1
60
0
100
AcDbEllipse
10
43.27254
20
-4.199116
30
0
11
1.74030418959479
21
0.548715803260234
31
0
210
0
220
0
230
1
40
0.992418
41
0
42
1.36910466342538
0
ELLIPSE
5
9C
100
AcDbEntity
8
1
62
256
6
ByLayer
370
-1
48
1
60
0
100
AcDbEllipse
10
43.27254
20
-4.199116
30
0
11
1.74030418959479
21
0.548715803260234
31
0
210
0
220
0
230
1
40
0.992418
41
1.77240676109087
42
2.83397067032111
0
ELLIPSE
5
9D
100
AcDbEntity
8
1
62
256
6
ByLayer
370
-1
48
1
60
0
100
AcDbEllipse
10
39.059072
20
-0.074385
30
0
11
0.378506414828264
21
0.119342614178272
31
0
210
0
220
0
230
1
40
0.992418
41
0.959931088596922
42
3.14159265358976
0
ELLIPSE
5
9E
100
AcDbEntity
8
1
62
256
6
ByLayer
370
-1
48
1
60
0
100
AcDbEllipse
10
45.519195
20
-2.085917
30
0
11
0.378506414828211
21
0.119342614178256
31
0
210
0
220
0
230
1
40
0.992418
41
0
42
0.959931088596824
0
ELLIPSE
5
9F
100
AcDbEntity
8
1
62
256
6
ByLayer
370
-1
48
1
60
0
100
AcDbEllipse
10
43.301234
20
-4.290123
30
0
11
1.83023422574619
21
0.577070634742611
31
0
210
0
220
0
230
1
40
0.992418
41
0
42
6.28318530717959
0
ELLIPSE
5
A0
100
AcDbEntity
8
1
62
256
6
ByLayer
370
-1
48
1
60
0
100
AcDbEllipse
10
41.083273
20
-6.494329
30
0
11
0.378506414828211
21
0.119342614178256
31
0
210
0
220
0
230
1
40
0.992418
41
-3.14159265358976
42
-2.18166156499299
0
ELLIPSE
5
A1
100
AcDbEntity
8
1
62
256
6
ByLayer
370
-1
48
1
60
0
100
AcDbEllipse
10
43.277949
20
-4.216273
30
0
11
1.78821928265293
21
0.563823374070489
31
0
210
0
220
0
230
1
40
0.992418
41
2.8339703869578
42
-9.54628306164137E-16
0
ELLIPSE
5
A2
100
AcDbEntity
8
1
62
256
6
ByLayer
370
-1
48
1
60
0
100
AcDbEllipse
10
43.277949
20
-4.216273
30
0
11
1.78821928265293
21
0.563823374070489
31
0
210
0
220
0
230
1
40
0.992418
41
0
42
0.582920875005331
0
ELLIPSE
5
A3
100
AcDbEntity
8
1
62
256
6
ByLayer
370
-1
48
1
60
0
100
AcDbEllipse
10
43.277949
20
-4.216273
30
0
11
1.78821928265293
21
0.563823374070489
31
0
210
0
220
0
230
1
40
0.992418
41
2.55859017218319
42
2.8339703869578
0
ELLIPSE
5
A4
100
AcDbEntity
8
1
62
256
6
ByLayer
370
-1
48
1
60
0
100
AcDbEllipse
10
43.299844
20
-4.285713
30
0
11
0.987097044024422
21
0.311230502486911
31
0
210
0
220
0
230
1
40
0.992418
41
3.09710144263004
42
-2.1371703540332
0
ELLIPSE
5
A5
100
AcDbEntity
8
1
62
256
6
ByLayer
370
-1
48
1
60
0
100
AcDbEllipse
10
43.041956
20
-4.984529
30
0
11
-0.176437635888423
21
-0.0556305729082883
31
0
210
0
220
0
230
1
40
0.992418
41
0.344006250461151
42
2.30249181317757
0
ELLIPSE
5
A6
100
AcDbEntity
8
1
62
256
6
ByLayer
370
-1
48
1
60
0
100
AcDbEllipse
10
43.26658
20
-4.180213
30
0
11
1.64516174004071
21
0.518717504144854
31
0
210
0
220
0
230
1
40
0.992418
41
2.83397015346625
42
-3.14153556449164
0
ELLIPSE
5
A7
100
AcDbEntity
8
1
62
256
6
ByLayer
370
-1
48
1
60
0
100
AcDbEllipse
10
43.26658
20
-4.180213
30
0
11
1.64516174004071
21
0.518717504144854
31
0
210
0
220
0
230
1
40
0.992418
41
0
42
2.83397046634418
0
ELLIPSE
5
A8
100
AcDbEntity
8
1
62
256
6
ByLayer
370
-1
48
1
60
0
100
AcDbEllipse
10
43.299844
20
-4.285713
30
0
11
1.23983203597272
21
0.390917539355547
31
0
210
0
220
0
230
1
40
0.992418
41
0
42
6.28318530717959
0
ELLIPSE
5
A9
100
AcDbEntity
8
1
62
256
6
ByLayer
370
-1
48
1
60
0
100
AcDbEllipse
10
43.293415
20
-4.265325
30
0
11
1.6451617400407
21
0.51871750414485
31
0
210
0
220
0
230
1
40
0.992418
41
0
42
6.28318530717959
0
ELLIPSE
5
AA
100
AcDbEntity
8
1
62
256
6
ByLayer
370
-1
48
1
60
0
100
AcDbEllipse
10
43.563521
20
-5.290041
30
0
11
-0.402468553215753
21
-0.126897847390798
31
0
210
0
220
0
230
1
40
0.992418
41
-2.38890029611741
42
-1.61400056826481
0
ELLIPSE
5
AB
100
AcDbEntity
8
1
62
256
6
ByLayer
370
-1
48
1
60
0
100
AcDbEllipse
10
42.435383
20
-4.99086
30
0
11
-0.402468553215753
21
-0.126897847390798
31
0
210
0
220
0
230
1
40
0.992418
41
-3.14158244737427
42
-2.72854043160798
0
ELLIPSE
5
AC
100
AcDbEntity
8
1
62
256
6
ByLayer
370
-1
48
1
60
0
100
AcDbEllipse
10
43.293719
20
-4.266289
30
0
11
0.7133802791597
21
0.224927938029195
31
0
210
0
220
0
230
1
40
0.992418
41
-2.6993584612089
42
-2.62389575737386
0
ELLIPSE
5
AD
100
AcDbEntity
8
1
62
256
6
ByLayer
370
-1
48
1
60
0
100
AcDbEllipse
10
43.262884
20
-4.168491
30
0
11
-0.713380279159687
21
-0.22492793802919
31
0
210
0
220
0
230
1
40
0.992418
41
-0.286958033843905
42
0.442234192381109
0
ELLIPSE
5
AE
100
AcDbEntity
8
1
62
256
6
ByLayer
370
-1
48
1
60
0
100
AcDbEllipse
10
42.441744
20
-4.388056
30
0
11
-0.176437635888423
21
-0.0556305729082883
31
0
210
0
220
0
230
1
40
0.992418
41
0.330655427237598
42
1.25705174419075
0
ELLIPSE
5
AF
100
AcDbEntity
8
1
62
256
6
ByLayer
370
-1
48
1
60
0
100
AcDbEllipse
10
43.299844
20
-4.285713
30
0
11
0.987097044024422
21
0.311230502486911
31
0
210
0
220
0
230
1
40
0.992418
41
-2.1371703540332
42
-1.09083078249648
0
ELLIPSE
5
B0
100
AcDbEntity
8
1
62
256
6
ByLayer
370
-1
48
1
60
0
100
AcDbEllipse
10
43.299844
20
-4.285713
30
0
11
0.987097044024422
21
0.311230502486911
31
0
210
0
220
0
230
1
40
0.992418
41
2.05076187109332
42
3.09710144263004
0
ELLIPSE
5
B1
100
AcDbEntity
8
1
62
256
6
ByLayer
370
-1
48
1
60
0
100
AcDbEllipse
10
43.299844
20
-4.285713
30
0
11
0.987097044024422
21
0.311230502486911
31
0
210
0
220
0
230
1
40
0.992418
41
-0.0444912109598196
42
1.00442229955658
0
ELLIPSE
5
B2
100
AcDbEntity
8
1
62
256
6
ByLayer
370
-1
48
1
60
0
100
AcDbEllipse
10
43.262884
20
-4.168491
30
0
11
-0.713380279159687
21
-0.22492793802919
31
0
210
0
220
0
230
1
40
0.992418
41
-2.55257127724973
42
-1.91916177284002
0
ELLIPSE
5
B3
100
AcDbEntity
8
1
62
256
6
ByLayer
370
-1
48
1
60
0
100
AcDbEllipse
10
43.262884
20
-4.168491
30
0
11
-0.713380279159687
21
-0.22492793802919
31
0
210
0
220
0
230
1
40
0.992418
41
-1.31175536184144
42
-0.680599528959424
0
ELLIPSE
5
B4
100
AcDbEntity
8
1
62
256
6
ByLayer
370
-1
48
1
60
0
100
AcDbEllipse
10
42.435383
20
-4.99086
30
0
11
-0.402468553215753
21
-0.126897847390798
31
0
210
0
220
0
230
1
40
0.992418
41
-2.59471378697469
42
-1.88454090939964
0
ELLIPSE
5
B5
100
AcDbEntity
8
1
62
256
6
ByLayer
370
-1
48
1
60
0
100
AcDbEllipse
10
43.293719
20
-4.266289
30
0
11
0.7133802791597
21
0.224927938029195
31
0
210
0
220
0
230
1
40
0.992418
41
0.442234192381367
42
0.517696896215373
0
ELLIPSE
5
B6
100
AcDbEntity
8
1
62
256
6
ByLayer
370
-1
48
1
60
0
100
AcDbEllipse
10
43.262884
20
-4.168491
30
0
11
0.713380279159686
21
0.22492793802919
31
0
210
0
220
0
230
1
40
0.992418
41
-1.61400056826481
42
-0.567660996728173
0
ELLIPSE
5
B7
100
AcDbEntity
8
1
62
256
6
ByLayer
370
-1
48
1
60
0
100
AcDbEllipse
10
43.563521
20
-5.290041
30
0
11
-0.402468553215753
21
-0.126897847390798
31
0
210
0
220
0
230
1
40
0.992418
41
-1.61400056826481
42
-0.839100840412315
0
ELLIPSE
5
B8
100
AcDbEntity
8
1
62
256
6
ByLayer
370
-1
48
1
60
0
100
AcDbEllipse
10
44.084023
20
-3.948926
30
0
11
-0.176437635888423
21
-0.0556305729082883
31
0
210
0
220
0
230
1
40
0.992418
41
1.79903192900939
42
2.80134519262837
0
ELLIPSE
5
B9
100
AcDbEntity
8
1
62
256
6
ByLayer
370
-1
48
1
60
0
100
AcDbEllipse
10
43.299844
20
-4.285713
30
0
11
0.987097044024422
21
0.311230502486911
31
0
210
0
220
0
230
1
40
0.992418
41
1.00442229955658
42
2.05076187109332
0
ELLIPSE
5
BA
100
AcDbEntity
8
1
62
256
6
ByLayer
370
-1
48
1
60
0
100
AcDbEllipse
10
43.262884
20
-4.168491
30
0
11
-0.713380279159687
21
-0.22492793802919
31
0
210
0
220
0
230
1
40
0.992418
41
2.57393165686162
42
-2.91429189915012
0
ELLIPSE
5
BB
100
AcDbEntity
8
1
62
256
6
ByLayer
370
-1
48
1
60
0
100
AcDbEllipse
10
44.090384
20
-3.346122
30
0
11
-0.402468553215753
21
-0.126897847390798
31
0
210
0
220
0
230
1
40
0.992418
41
-0.297120655593442
42
1.00326237044667E-05
0
ELLIPSE
5
BC
100
AcDbEntity
8
1
62
256
6
ByLayer
370
-1
48
1
60
0
100
AcDbEllipse
10
44.391452
20
-4.467245
30
0
11
-0.402468553215753
21
-0.126897847390798
31
0
210
0
220
0
230
1
40
0.992418
41
-1.34256072458068
42
-0.567660996728139
0
ELLIPSE
5
BD
100
AcDbEntity
8
1
62
256
6
ByLayer
370
-1
48
1
60
0
100
AcDbEllipse
10
43.262884
20
-4.168491
30
0
11
-0.713380279159687
21
-0.22492793802919
31
0
210
0
220
0
230
1
40
0.992418
41
0.517696896215742
42
1.52759208532494
0
ELLIPSE
5
BE
100
AcDbEntity
8
1
62
256
6
ByLayer
370
-1
48
1
60
0
100
AcDbEllipse
10
43.299844
20
-4.285713
30
0
11
0.987097044024422
21
0.311230502486911
31
0
210
0
220
0
230
1
40
0.992418
41
-1.09083078249648
42
-0.0444912109598196
0
ELLIPSE
5
BF
100
AcDbEntity
8
1
62
256
6
ByLayer
370
-1
48
1
60
0
100
AcDbEllipse
10
43.262884
20
-4.168491
30
0
11
0.713380279159686
21
0.22492793802919
31
0
210
0
220
0
230
1
40
0.992418
41
-2.6993584612087
42
-2.62389575737409
0
ELLIPSE
5
C0
100
AcDbEntity
8
1
62
256
6
ByLayer
370
-1
48
1
60
0
100
AcDbEllipse
10
44.391452
20
-4.467245
30
0
11
-0.402468553215753
21
-0.126897847390798
31
0
210
0
220
0
230
1
40
0.992418
41
-0.567660996728139
42
-9.69888491023469E-06
0
ELLIPSE
5
C1
100
AcDbEntity
8
1
62
256
6
ByLayer
370
-1
48
1
60
0
100
AcDbEllipse
10
43.862205
20
-4.764079
30
0
11
-0.176437635888423
21
-0.0556305729082883
31
0
210
0
220
0
230
1
40
0.992418
41
0.752692357472788
42
2.74843337960237
0
POINT
5
41
100
AcDbEntity
8
80
62
256
6
ByLayer
370
-1
48
1
60
0
100
AcDbPoint
10
0
20
0
30
0
39
0
210
0
220
0
230
1
50
360
0
POINT
5
43
100
AcDbEntity
8
81
62
256
6
ByLayer
370
-1
48
1
60
0
100
AcDbPoint
10
47.94
20
-8.9
30
0
39
0
210
0
220
0
230
1
50
360
0
POINT
5
45
100
AcDbEntity
8
1
62
256
6
ByLayer
370
-1
48
1
60
0
100
AcDbPoint
10
-103.31
20
0
30
0
39
0
210
0
220
0
230
1
50
360
0
POINT
5
47
100
AcDbEntity
8
2
62
256
6
ByLayer
370
-1
48
1
60
0
100
AcDbPoint
10
47.94
20
8.9
30
0
39
0
210
0
220
0
230
1
50
360
0
POINT
5
49
100
AcDbEntity
8
2
62
256
6
ByLayer
370
-1
48
1
60
0
100
AcDbPoint
10
47.56399
20
7.916466
30
0
39
0
210
0
220
0
230
1
50
360
0
SPLINE
5
C2
100
AcDbEntity
8
1
62
256
6
ByLayer
370
-1
48
1
60
0
100
AcDbSpline
70
4
71
3
72
8
73
4
40
0
40
0
40
0
40
0
40
1
40
1
40
1
40
1
41
1
10
36.8871653001464
20
-5.8932541626171
30
0
41
1
10
36.8621677005123
20
-5.91854128831486
30
0
41
1
10
36.8371676696223
20
-5.94382604095736
30
0
41
1
10
36.8121653001464
20
-5.9691085097007
30
0
0
SPLINE
5
C3
100
AcDbEntity
8
1
62
256
6
ByLayer
370
-1
48
1
60
0
100
AcDbSpline
70
4
71
3
72
14
73
10
40
0
40
0
40
0
40
0
40
0.25
40
0.25
40
0.5
40
0.5
40
0.75
40
0.75
40
1
40
1
40
1
40
1
41
1
10
31.7014539492815
20
-0.205965906324167
30
0
41
1
10
31.442369737525
20
-1.12378556442641
30
0
41
1
10
31.2066628983556
20
-2.05093920700068
30
0
41
1
10
30.9494277203404
20
-3.70832269362975
30
0
41
1
10
30.9408369972538
20
-4.46306816453017
30
0
41
1
10
31.570054902486
20
-5.47142910105882
30
0
41
1
10
32.2325692172661
20
-5.7222371787002
30
0
41
1
10
33.8802137561921
20
-5.95127110863297
30
0
41
1
10
34.8332267665808
20
-5.9621478416623
30
0
41
1
10
35.8018985508923
20
-5.96561556130394
30
0
0
SPLINE
5
C4
100
AcDbEntity
8
1
62
256
6
ByLayer
370
-1
48
1
60
0
100
AcDbSpline
70
4
71
3
72
10
73
6
40
0
40
0
40
0
40
0
40
0.5
40
0.5
40
1
40
1
40
1
40
1
41
1
10
36.8121653001464
20
5.55116373607143
30
0
41
1
10
35.4331133046939
20
5.34259412533285
30
0
41
1
10
34.3080231960615
20
4.86535964234503
30
0
41
1
10
32.7174584971294
20
2.9742206510972
30
0
41
1
10
32.2380103478732
20
1.61893082760665
30
0
41
1
10
31.8204096200564
20
0.205965906324195
30
0
0
SPLINE
5
C5
100
AcDbEntity
8
1
62
256
6
ByLayer
370
-1
48
1
60
0
100
AcDbSpline
70
4
71
3
72
14
73
10
40
0
40
0
40
0
40
0
40
0.0250871647378147
40
0.0250871647378147
40
0.484092811497682
40
0.484092811497682
40
0.964161404204732
40
0.964161404204732
40
1
40
1
40
1
40
1
41
1
10
31.8204096200564
20
0.205965906324195
30
0
41
1
10
31.8196581652073
20
0.20257966476197
30
0
41
1
10
31.8188984006332
20
0.199183747832507
30
0
41
1
10
31.8042451001263
20
0.134214305944369
30
0
41
1
10
31.7874260833306
20
0.0689273342819376
30
0
41
1
10
31.7497314449534
20
-0.0619699374239531
30
0
41
1
10
31.7282205026697
20
-0.129195231646406
30
0
41
1
10
31.7047559800232
20
-0.196573344352402
30
0
41
1
10
31.7031061574409
20
-0.201280857209639
30
0
41
1
10
31.7014539492815
20
-0.205965906324167
30
0
0
SPLINE
5
C6
100
AcDbEntity
8
1
62
256
6
ByLayer
370
-1
48
1
60
0
100
AcDbSpline
70
4
71
3
72
46
73
42
40
-0.122204416309149
40
-0.122204416309149
40
0
40
0
40
0.0838836097514151
40
0.0838836097514151
40
0.127291026735009
40
0.127291026735009
40
0.163806400778778
40
0.163806400778778
40
0.20072503006149
40
0.20072503006149
40
0.231967990367185
40
0.231967990367185
40
0.261693273438943
40
0.261693273438943
40
0.293431548913031
40
0.293431548913031
40
0.329774874388624
40
0.329774874388624
40
0.385493178106342
40
0.385493178106342
40
0.46268648699336
40
0.46268648699336
40
0.569953498480671
40
0.569953498480671
40
0.652169679773832
40
0.652169679773832
40
0.693190413176424
40
0.693190413176424
40
0.708162878518836
40
0.708162878518836
40
0.723404051668905
40
0.723404051668905
40
0.736838092887182
40
0.736838092887182
40
0.753517552503644
40
0.753517552503644
40
0.784462310266719
40
0.784462310266719
40
0.877795583690851
40
0.877795583690851
40
1
40
1
40
1.08388360975142
40
1.08388360975142
41
1
10
34.3083201716552
20
-1.42627155128511
30
0
41
1
10
33.851069385589
20
-1.23659191464972
30
0
41
1
10
33.6561918723215
20
-1.18990339898164
30
0
41
1
10
33.3658425848423
20
-1.2068968133726
30
0
41
1
10
33.2654296185552
20
-1.22905494536624
30
0
41
1
10
33.0897299337458
20
-1.30763222702572
30
0
41
1
10
33.0112260809661
20
-1.35914740016358
30
0
41
1
10
32.8695892550118
20
-1.49193110589809
30
0
41
1
10
32.8044542050022
20
-1.57588184422255
30
0
41
1
10
32.7085607555093
20
-1.7476114266374
30
0
41
1
10
32.6727332577493
20
-1.83513860527717
30
0
41
1
10
32.6241809424062
20
-2.00707788726297
30
0
41
1
10
32.6097531482913
20
-2.0935655175353
30
0
41
1
10
32.5996179007282
20
-2.26503881389007
30
0
41
1
10
32.6050551437054
20
-2.35158748117885
30
0
41
1
10
32.6366473603241
20
-2.52314278600451
30
0
41
1
10
32.665972729424
20
-2.60814744542412
30
0
41
1
10
32.763870592658
20
-2.79917907667004
30
0
41
1
10
32.8464962091995
20
-2.89605344204972
30
0
41
1
10
33.0761090396382
20
-3.0821945556616
30
0
41
1
10
33.2394033024166
20
-3.15854674779433
30
0
41
1
10
33.6604717701625
20
-3.28270781286153
30
0
41
1
10
33.9380289100716
20
-3.31202701413
30
0
41
1
10
34.4435795885644
20
-3.30355584501777
30
0
41
1
10
34.6739584779175
20
-3.28148440933859
30
0
41
1
10
35.0124239627818
20
-3.1937923779773
30
0
41
1
10
35.1270718929401
20
-3.15509408260689
30
0
41
1
10
35.2664109476488
20
-3.06970995957454
30
0
41
1
10
35.3024388917608
20
-3.04293019096468
30
0
41
1
10
35.3653749277258
20
-2.97979671086767
30
0
41
1
10
35.3926925736242
20
-2.94214513545791
30
0
41
1
10
35.4267975646966
20
-2.86499034342427
30
0
41
1
10
35.4359567435313
20
-2.8253351043827
30
0
41
1
10
35.4415289239914
20
-2.73765196452916
30
0
41
1
10
35.4349451567123
20
-2.68857022674828
30
0
41
1
10
35.4010634979854
20
-2.55600726913968
30
0
41
1
10
35.3615184266697
20
-2.47537166328451
30
0
41
1
10
35.1833361236256
20
-2.17613940230257
30
0
41
1
10
35.0015377558117
20
-1.98700112543315
30
0
41
1
10
34.573630061904
20
-1.60603820091203
30
0
41
1
10
34.3083201716552
20
-1.42627155128511
30
0
41
1
10
33.851069385589
20
-1.23659191464972
30
0
0
SPLINE
5
C7
100
AcDbEntity
8
1
62
256
6
ByLayer
370
-1
48
1
60
0
100
AcDbSpline
70
4
71
3
72
8
73
4
40
0
40
0
40
0
40
0
40
1
40
1
40
1
40
1
41
1
10
36.8121653001466
20
5.5511637360712
30
0
41
1
10
36.8371376091005
20
5.53016957026512
30
0
41
1
10
36.86213897942
20
5.50903408614391
30
0
41
1
10
36.8871653001466
20
5.48776373192771
30
0
0
SPLINE
5
C8
100
AcDbEntity
8
1
62
256
6
ByLayer
370
-1
48
1
60
0
100
AcDbSpline
70
4
71
3
72
8
73
4
40
0
40
0
40
0
40
0
40
1
40
1
40
1
40
1
41
1
10
40.320717246983
20
-6.47451972074819
30
0
41
1
10
40.3491007284872
20
-6.48356411511944
30
0
41
1
10
40.3834950856161
20
-6.49163007596644
30
0
41
1
10
40.4237681146769
20
-6.49898661479301
30
0
0
SPLINE
5
C9
100
AcDbEntity
8
1
62
256
6
ByLayer
370
-1
48
1
60
0
100
AcDbSpline
70
4
71
3
72
8
73
4
40
0
40
0
40
0
40
0
40
1
40
1
40
1
40
1
41
1
10
38.5774451079435
20
-5.89868287785154
30
0
41
1
10
39.1926128202139
20
-6.09960266113109
30
0
41
1
10
39.8080806565351
20
-6.29962668407418
30
0
41
1
10
40.4237681146769
20
-6.49898661479301
30
0
0
SPLINE
5
CA
100
AcDbEntity
8
1
62
256
6
ByLayer
370
-1
48
1
60
0
100
AcDbSpline
70
4
71
3
72
8
73
4
40
0
40
0
40
0
40
0
40
1
40
1
40
1
40
1
41
1
10
36.8871653001464
20
5.48776373192746
30
0
41
1
10
37.1299288473564
20
5.5225817564581
30
0
41
1
10
37.378799497417
20
5.54994897611397
30
0
41
1
10
37.6310612282911
20
5.57115989929528
30
0
0
SPLINE
5
CB
100
AcDbEntity
8
SK1
62
256
6
ByLayer
370
-1
48
1
60
0
100
AcDbSpline
70
4
71
3
72
24
73
20
40
0
40
0
40
0
40
0
40
0.250000000000021
40
0.250000000000021
40
0.375000000000035
40
0.375000000000035
40
0.437500000000043
40
0.437500000000043
40
0.50000000000005
40
0.50000000000005
40
0.53125000000005
40
0.53125000000005
40
0.562500000000051
40
0.562500000000051
40
0.625000000000044
40
0.625000000000044
40
0.750000000000029
40
0.750000000000029
40
1
40
1
40
1
40
1
41
1
10
-36.06
20
0.205965906324167
30
0
41
1
10
-36.4686343160637
20
0.205965906324167
30
0
41
1
10
-36.8771555453826
20
0.198452469570327
30
0
41
1
10
-37.4894028804979
20
0.169226931094073
30
0
41
1
10
-37.6931603208312
20
0.156639601261418
30
0
41
1
10
-37.9976543175629
20
0.127755978988347
30
0
41
1
10
-38.0989743184841
20
0.116569291728922
30
0
41
1
10
-38.3006761329046
20
0.0859785784400344
30
0
41
1
10
-38.4156960546351
20
0.0885727857958045
30
0
41
1
10
-38.5368423438109
20
-0.0124242265503085
30
0
41
1
10
-38.448845174621
20
-0.0482532820548442
30
0
41
1
10
-38.3481780242785
20
-0.0757348561222955
30
0
41
1
10
-38.2969166658135
20
-0.0854113493555815
30
0
41
1
10
-38.1424015195539
20
-0.111238405852816
30
0
41
1
10
-38.0387091696868
20
-0.123262241085399
30
0
41
1
10
-37.7275189777037
20
-0.15429910626429
30
0
41
1
10
-37.5194067051518
20
-0.167490929837157
30
0
41
1
10
-36.894297633513
20
-0.198188957833423
30
0
41
1
10
-36.4772192765597
20
-0.205965906324138
30
0
41
1
10
-36.06
20
-0.205965906324138
30
0
0
SPLINE
5
CC
100
AcDbEntity
8
1
62
256
6
ByLayer
370
-1
48
1
60
0
100
AcDbSpline
70
4
71
3
72
12
73
8
40
0
40
0
40
0
40
0
40
0.158974127213585
40
0.158974127213585
40
0.79173750170146
40
0.79173750170146
40
1
40
1
40
1
40
1
41
1
10
38.9215716801269
20
0.29611463247204
30
0
41
1
10
38.9234645659074
20
0.296997531789572
30
0
41
1
10
38.9253750026394
20
0.297840868453306
30
0
41
1
10
38.9349648757225
20
0.301837654526878
30
0
41
1
10
38.9429214245117
20
0.304407192298242
30
0
41
1
10
38.9536675157278
20
0.306921816179653
30
0
41
1
10
38.9563484885093
20
0.30747251242974
30
0
41
1
10
38.9590433215725
20
0.307950310297201
30
0
0
SPLINE
5
CD
100
AcDbEntity
8
1
62
256
6
ByLayer
370
-1
48
1
60
0
100
AcDbSpline
70
4
71
3
72
18
73
14
40
0
40
0
40
0
40
0
40
0.202832076364537
40
0.202832076364537
40
0.380289787354202
40
0.380289787354202
40
0.559509014792167
40
0.559509014792167
40
0.714802833440123
40
0.714802833440123
40
0.919176031026442
40
0.919176031026442
40
1
40
1
40
1
40
1
41
1
10
43.2353661953628
20
-5.18689884308131
30
0
41
1
10
43.2556084967238
20
-5.14912768171641
30
0
41
1
10
43.2818151665674
20
-5.11346609807225
30
0
41
1
10
43.3410636239237
20
-5.05548840440233
30
0
41
1
10
43.3735976578321
20
-5.03148257984896
30
0
41
1
10
43.4451296788205
20
-4.99451441559
30
0
41
1
10
43.4853198685656
20
-4.98124158979729
30
0
41
1
10
43.5606566043678
20
-4.96933572581821
30
0
41
1
10
43.5966483905907
20
-4.96878108797895
30
0
41
1
10
43.6762018359485
20
-4.97781558286763
30
0
41
1
10
43.7199379898016
20
-4.99064884121202
30
0
41
1
10
43.7755070498094
20
-5.01632586233461
30
0
41
1
10
43.7908679284132
20
-5.02458020887519
30
0
41
1
10
43.8056215358986
20
-5.03363711952537
30
0
0
SPLINE
5
CE
100
AcDbEntity
8
1
62
256
6
ByLayer
370
-1
48
1
60
0
100
AcDbSpline
70
4
71
3
72
16
73
12
40
0
40
0
40
0
40
0
40
0.148219819457482
40
0.148219819457482
40
0.451543000222784
40
0.451543000222784
40
0.725818501885826
40
0.725818501885826
40
0.969271754720345
40
0.969271754720345
40
1
40
1
40
1
40
1
41
1
10
44.1203978260419
20
-3.87442211976838
30
0
41
1
10
44.1316855221424
20
-3.87516002719443
30
0
41
1
10
44.1430935517893
20
-3.87687472046534
30
0
41
1
10
44.1773174798938
20
-3.88510851435666
30
0
41
1
10
44.2003132493761
20
-3.89502764413231
30
0
41
1
10
44.2393281014577
20
-3.92145080572757
30
0
41
1
10
44.256383258368
20
-3.93768051160865
30
0
41
1
10
44.281902352781
20
-3.9726847419366
30
0
41
1
10
44.2914655172994
20
-3.99148767812179
30
0
41
1
10
44.29831063069
20
-4.01336061519254
30
0
41
1
10
44.2990332818325
20
-4.01585511601021
30
0
41
1
10
44.2997012908956
20
-4.01836015455044
30
0
0
SPLINE
5
CF
100
AcDbEntity
8
1
62
256
6
ByLayer
370
-1
48
1
60
0
100
AcDbSpline
70
4
71
3
72
18
73
14
40
0
40
0
40
0
40
0
40
0.202806348366488
40
0.202806348366488
40
0.38026861825884
40
0.38026861825884
40
0.559492703016163
40
0.559492703016163
40
0.714787519857473
40
0.714787519857473
40
0.919156244791302
40
0.919156244791302
40
1
40
1
40
1
40
1
41
1
10
44.0579563551997
20
-4.78286723317621
30
0
41
1
10
44.0370514466974
20
-4.74476109788569
30
0
41
1
10
44.0208917877049
20
-4.70268230258125
30
0
41
1
10
44.002852749436
20
-4.62012382145039
30
0
41
1
10
43.9993395303691
20
-4.57914086549093
30
0
41
1
10
44.0043842119629
20
-4.49797903164335
30
0
41
1
10
44.0132661141828
20
-4.45662784841591
30
0
41
1
10
44.0403529855419
20
-4.38649856423254
30
0
41
1
10
44.0574266521153
20
-4.35591229096491
30
0
41
1
10
44.1035040192073
20
-4.29405405776234
30
0
41
1
10
44.1352365829476
20
-4.26444388950313
30
0
41
1
10
44.1833041264353
20
-4.23192865927831
30
0
41
1
10
44.1975496300448
20
-4.22357018951061
30
0
41
1
10
44.2121688487469
20
-4.21615413550879
30
0
0
SPLINE
5
D0
100
AcDbEntity
8
1
62
256
6
ByLayer
370
-1
48
1
60
0
100
AcDbSpline
70
4
71
3
72
16
73
12
40
0
40
0
40
0
40
0
40
0.0382802243927928
40
0.0382802243927928
40
0.263312449541823
40
0.263312449541823
40
0.48970202585874
40
0.48970202585874
40
0.729330291965871
40
0.729330291965871
40
1
40
1
40
1
40
1
41
1
10
42.5700812364874
20
-3.56049617114741
30
0
41
1
10
42.5723702256179
20
-3.55822137789573
30
0
41
1
10
42.5747184782875
20
-3.55600033317069
30
0
41
1
10
42.5911052750923
20
-3.5412497384404
30
0
41
1
10
42.607172251155
20
-3.53053838689417
30
0
41
1
10
42.6408493901315
20
-3.51437664063562
30
0
41
1
10
42.6588928601677
20
-3.50873962985796
30
0
41
1
10
42.6955403799454
20
-3.50262159464228
30
0
41
1
10
42.7145727849216
20
-3.50236576493242
30
0
41
1
10
42.7526735968196
20
-3.50734059645802
30
0
41
1
10
42.771946447383
20
-3.51331985395854
30
0
41
1
10
42.7890423741367
20
-3.52185714035221
30
0
0
SPLINE
5
D1
100
AcDbEntity
8
1
62
256
6
ByLayer
370
-1
48
1
60
0
100
AcDbSpline
70
4
71
3
72
16
73
12
40
0
40
0
40
0
40
0
40
0.0513768436196843
40
0.0513768436196843
40
0.275576122833842
40
0.275576122833842
40
0.501882017692579
40
0.501882017692579
40
0.742007248870181
40
0.742007248870181
40
1
40
1
40
1
40
1
41
1
10
43.0308323351582
20
-5.27935982435864
30
0
41
1
10
43.0266421695579
20
-5.27825635610964
30
0
41
1
10
43.0224859615186
20
-5.27699649096209
30
0
41
1
10
43.0006170675456
20
-5.26948047882487
30
0
41
1
10
42.9835805072684
20
-5.26037149967982
30
0
41
1
10
42.9534552064182
20
-5.23772068937376
30
0
41
1
10
42.9400123337858
20
-5.22386113019647
30
0
41
1
10
42.9174779864139
20
-5.19263194641078
30
0
41
1
10
42.9084040143603
20
-5.17472047362293
30
0
41
1
10
42.8955363673873
20
-5.1366351994138
30
0
41
1
10
42.8920072452601
20
-5.1159382116445
30
0
41
1
10
42.8915225044584
20
-5.09567618840825
30
0
0
SPLINE
5
D2
100
AcDbEntity
8
1
62
256
6
ByLayer
370
-1
48
1
60
0
100
AcDbSpline
70
4
71
3
72
16
73
12
40
0
40
0
40
0
40
0
40
0.0579080026609789
40
0.0579080026609789
40
0.282611980976986
40
0.282611980976986
40
0.509790162466929
40
0.509790162466929
40
0.751120441364925
40
0.751120441364925
40
1
40
1
40
1
40
1
41
1
10
42.2999858141063
20
-4.55306564436961
30
0
41
1
10
42.2987385262673
20
-4.54838830647131
30
0
41
1
10
42.2976734409194
20
-4.54364582158865
30
0
41
1
10
42.2934170598597
20
-4.5204496592963
30
0
41
1
10
42.2928521876262
20
-4.50114858319964
30
0
41
1
10
42.297220582513
20
-4.46367838273875
30
0
41
1
10
42.3022557099093
20
-4.44504518866088
30
0
41
1
10
42.3172560857752
20
-4.4097297206977
30
0
41
1
10
42.3276788421152
20
-4.39279110317921
30
0
41
1
10
42.3523191406162
20
-4.36295218055736
30
0
41
1
10
42.3669038840799
20
-4.34984233198713
30
0
41
1
10
42.3824950612902
20
-4.33934012436973
30
0
0
SPLINE
5
D3
100
AcDbEntity
8
1
62
256
6
ByLayer
370
-1
48
1
60
0
100
AcDbSpline
70
4
71
3
72
20
73
16
40
0
40
0
40
0
40
0
40
0.0802454719793605
40
0.0802454719793605
40
0.282800476699788
40
0.282800476699788
40
0.44698550584327
40
0.44698550584327
40
0.611989763097485
40
0.611989763097485
40
0.766517290075891
40
0.766517290075891
40
0.985722044187724
40
0.985722044187724
40
1
40
1
40
1
40
1
41
1
10
42.5367075548367
20
-3.77262702670114
30
0
41
1
10
42.5443910541146
20
-3.78579163171264
30
0
41
1
10
42.5513229456049
20
-3.7995773769621
30
0
41
1
10
42.5727038716659
20
-3.84993292166723
30
0
41
1
10
42.5828475181248
20
-3.89017208349259
30
0
41
1
10
42.5888378148672
20
-3.9669835516801
30
0
41
1
10
42.5869994930155
20
-4.00368230427807
30
0
41
1
10
42.5735236311443
20
-4.07641779942563
30
0
41
1
10
42.5616180264507
20
-4.11339609697345
30
0
41
1
10
42.5308898191963
20
-4.17960293869518
30
0
41
1
10
42.5122512150161
20
-4.20996888416269
30
0
41
1
10
42.4618309047931
20
-4.2753161491145
30
0
41
1
10
42.4270067174712
20
-4.30817892536959
30
0
41
1
10
42.3874289255127
20
-4.33598144330159
30
0
41
1
10
42.3849678606218
20
-4.33767444822311
30
0
41
1
10
42.3824950612902
20
-4.33934012436973
30
0
0
SPLINE
5
D4
100
AcDbEntity
8
1
62
256
6
ByLayer
370
-1
48
1
60
0
100
AcDbSpline
70
4
71
3
72
12
73
8
40
0
40
0
40
0
40
0
40
0.457421553455194
40
0.457421553455194
40
0.84000368316455
40
0.84000368316455
40
1
40
1
40
1
40
1
41
1
10
44.1203978260403
20
-3.87442211977117
30
0
41
1
10
44.076797251029
20
-3.87157183147315
30
0
41
1
10
44.0318890864552
20
-3.86229238888791
30
0
41
1
10
43.9521303712711
20
-3.83280970524899
30
0
41
1
10
43.9159669969317
20
-3.81422632760373
30
0
41
1
10
43.8690718964753
20
-3.78161109533184
30
0
41
1
10
43.8556546600099
20
-3.77114465595224
30
0
41
1
10
43.8429405641073
20
-3.76001665331404
30
0
0
SPLINE
5
D5
100
AcDbEntity
8
1
62
256
6
ByLayer
370
-1
48
1
60
0
100
AcDbSpline
70
4
71
3
72
12
73
8
40
0
40
0
40
0
40
0
40
0.334597414258696
40
0.334597414258696
40
0.688072122102465
40
0.688072122102465
40
1
40
1
40
1
40
1
41
1
10
42.7842878498411
20
-4.8121038031303
30
0
41
1
10
42.8074334225781
20
-4.83858434345768
30
0
41
1
10
42.8273926344817
20
-4.86860095618817
30
0
41
1
10
42.8597046161119
20
-4.93271402998431
30
0
41
1
10
42.8719968027103
20
-4.96764784731962
30
0
41
1
10
42.8869952581785
20
-5.03346218803921
30
0
41
1
10
42.8907836168259
20
-5.0647909022326
30
0
41
1
10
42.8915225044585
20
-5.09567618840825
30
0
0
SPLINE
5
D6
100
AcDbEntity
8
1
62
256
6
ByLayer
370
-1
48
1
60
0
100
AcDbSpline
70
4
71
3
72
12
73
8
40
0
40
0
40
0
40
0
40
0.368965098286319
40
0.368965098286319
40
0.767415344574399
40
0.767415344574399
40
1
40
1
40
1
40
1
41
1
10
42.4742415915956
20
-4.68099446015665
30
0
41
1
10
42.5081380528469
20
-4.67911284002722
30
0
41
1
10
42.5428512852442
20
-4.68159742499537
30
0
41
1
10
42.6140981163415
20
-4.69696612804805
30
0
41
1
10
42.6513999911658
20
-4.71097015029855
30
0
41
1
10
42.7064818553803
20
-4.74282564042699
30
0
41
1
10
42.7261758799628
20
-4.75677591859088
30
0
41
1
10
42.7444980283522
20
-4.77256182689075
30
0
0
SPLINE
5
D7
100
AcDbEntity
8
1
62
256
6
ByLayer
370
-1
48
1
60
0
100
AcDbSpline
70
4
71
3
72
14
73
10
40
0
40
0
40
0
40
0
40
0.262934412829095
40
0.262934412829095
40
0.552850686703086
40
0.552850686703086
40
0.815289102861603
40
0.815289102861603
40
1
40
1
40
1
40
1
41
1
10
43.2353661953628
20
-5.18689884308128
30
0
41
1
10
43.2257580447694
20
-5.20482719025938
30
0
41
1
10
43.2131300919754
20
-5.2215753246773
30
0
41
1
10
43.1815358446444
20
-5.25141628474589
30
0
41
1
10
43.1615134962251
20
-5.26439401185152
30
0
41
1
10
43.1200543440801
20
-5.28068476985317
30
0
41
1
10
43.0982907962669
20
-5.28500629548833
30
0
41
1
10
43.0613309051328
20
-5.28524666865403
30
0
41
1
10
43.0457718905757
20
-5.2832941139859
30
0
41
1
10
43.0308323351582
20
-5.27935982435864
30
0
0
SPLINE
5
D8
100
AcDbEntity
8
1
62
256
6
ByLayer
370
-1
48
1
60
0
100
AcDbSpline
70
4
71
3
72
14
73
10
40
0
40
0
40
0
40
0
40
0.244380354284196
40
0.244380354284196
40
0.536616794538945
40
0.536616794538945
40
0.800971468386885
40
0.800971468386885
40
1
40
1
40
1
40
1
41
1
10
42.5367075548366
20
-3.7726270267012
30
0
41
1
10
42.5281740422802
20
-3.75800604242011
30
0
41
1
10
42.5217827177179
20
-3.74160717902671
30
0
41
1
10
42.5138535304129
20
-3.70366551864765
30
0
41
1
10
42.5134391733122
20
-3.68110552437298
30
0
41
1
10
42.5212204840456
20
-3.63876952816619
30
0
41
1
10
42.5287560628436
20
-3.61829527521644
30
0
41
1
10
42.5479262774845
20
-3.58558759433933
30
0
41
1
10
42.5582710171952
20
-3.57223314568722
30
0
41
1
10
42.5700812364874
20
-3.56049617114741
30
0
0
SPLINE
5
D9
100
AcDbEntity
8
1
62
256
6
ByLayer
370
-1
48
1
60
0
100
AcDbSpline
70
4
71
3
72
14
73
10
40
0
40
0
40
0
40
0
40
0.195239872395063
40
0.195239872395063
40
0.499885956294552
40
0.499885956294552
40
0.769027467024525
40
0.769027467024525
40
1
40
1
40
1
40
1
41
1
10
43.35929771467
20
-3.36859541679516
30
0
41
1
10
43.366983974644
20
-3.357039462095
30
0
41
1
10
43.3762790975137
20
-3.34609724427503
30
0
41
1
10
43.4035447065979
20
-3.32094944503913
30
0
41
1
10
43.4240372141349
20
-3.30794135842652
30
0
41
1
10
43.4665771431154
20
-3.29131701263608
30
0
41
1
10
43.4888349334786
20
-3.28656785182375
30
0
41
1
10
43.5303744311396
20
-3.28500402797801
30
0
41
1
10
43.5501813463374
20
-3.28714838134303
30
0
41
1
10
43.5688547698436
20
-3.29206597456133
30
0
0
SPLINE
5
DA
100
AcDbEntity
8
1
62
256
6
ByLayer
370
-1
48
1
60
0
100
AcDbSpline
70
4
71
3
72
14
73
10
40
0
40
0
40
0
40
0
40
0.235149257394732
40
0.235149257394732
40
0.535481230909373
40
0.535481230909373
40
0.800264301052075
40
0.800264301052075
40
1
40
1
40
1
40
1
41
1
10
44.0579563552016
20
-4.78286723317532
30
0
41
1
10
44.0668189307608
20
-4.79902221913159
30
0
41
1
10
44.0736756167554
20
-4.81671853532893
30
0
41
1
10
44.0833606752117
20
-4.85852334935777
30
0
41
1
10
44.0846243822002
20
-4.88379496678635
30
0
41
1
10
44.0777699724284
20
-4.9298321594633
30
0
41
1
10
44.0705981726352
20
-4.95146943424862
30
0
41
1
10
44.051770790745
20
-4.98546038705763
30
0
41
1
10
44.0414683012947
20
-4.99914076356288
30
0
41
1
10
44.0296058685144
20
-5.01092962777261
30
0
0
SPLINE
5
DB
100
AcDbEntity
8
1
62
256
6
ByLayer
370
-1
48
1
60
0
100
AcDbSpline
70
4
71
3
72
18
73
14
40
0
40
0
40
0
40
0
40
0.0375091886099825
40
0.0375091886099825
40
0.26268285102796
40
0.26268285102796
40
0.48916878992881
40
0.48916878992881
40
0.728863615078124
40
0.728863615078124
40
0.991196909831391
40
0.991196909831391
40
1
40
1
40
1
40
1
41
1
10
44.0296058685144
20
-5.01092962777261
30
0
41
1
10
44.0273640026176
20
-5.01315759003995
30
0
41
1
10
44.0250624587922
20
-5.01532493659511
30
0
41
1
10
44.0086996402295
20
-5.02992294785324
30
0
41
1
10
43.9925035420878
20
-5.04021489394646
30
0
41
1
10
43.9583799350064
20
-5.05495191908938
30
0
41
1
10
43.9400128257208
20
-5.05956395095441
30
0
41
1
10
43.9025469674502
20
-5.06310032898628
30
0
41
1
10
43.8830008067707
20
-5.06174148892316
30
0
41
1
10
43.8442905118352
20
-5.05309659658943
30
0
41
1
10
43.8248465778346
20
-5.04517667217348
30
0
41
1
10
43.8067995657524
20
-5.03435605952996
30
0
41
1
10
43.8062095376985
20
-5.0339980807187
30
0
41
1
10
43.8056215358986
20
-5.03363711952534
30
0
0
SPLINE
5
DC
100
AcDbEntity
8
1
62
256
6
ByLayer
370
-1
48
1
60
0
100
AcDbSpline
70
4
71
3
72
14
73
10
40
0
40
0
40
0
40
0
40
0.273916556166598
40
0.273916556166598
40
0.561896363637019
40
0.561896363637019
40
0.822686266435613
40
0.822686266435613
40
1
40
1
40
1
40
1
41
1
10
42.4742415915959
20
-4.68099446016194
30
0
41
1
10
42.4542190610237
20
-4.68210592711679
30
0
41
1
10
42.4336037922903
20
-4.67971636016685
30
0
41
1
10
42.3934510561404
20
-4.66724051848979
30
0
41
1
10
42.3734083281367
20
-4.65652604750076
30
0
41
1
10
42.3405466963705
20
-4.62902065786213
30
0
41
1
10
42.3267529816239
20
-4.61245384301591
30
0
41
1
10
42.3093871790973
20
-4.58120094827981
30
0
41
1
10
42.3037977920317
20
-4.56736058757423
30
0
41
1
10
42.2999858141063
20
-4.55306564436961
30
0
0
SPLINE
5
DD
100
AcDbEntity
8
1
62
256
6
ByLayer
370
-1
48
1
60
0
100
AcDbSpline
70
4
71
3
72
18
73
14
40
0
40
0
40
0
40
0
40
0.0088795410839192
40
0.0088795410839192
40
0.234231629965253
40
0.234231629965253
40
0.45923660958993
40
0.45923660958993
40
0.696062825857329
40
0.696062825857329
40
0.954443280901513
40
0.954443280901513
40
1
40
1
40
1
40
1
41
1
10
43.5688547698436
20
-3.29206597456133
30
0
41
1
10
43.5695824491754
20
-3.29225760685338
30
0
41
1
10
43.5703088657738
20
-3.29245341441887
30
0
41
1
10
43.5891935653385
20
-3.29766144445986
30
0
41
1
10
43.6067238800448
20
-3.30542751615928
30
0
41
1
10
43.6376982237438
20
-3.32502260736223
30
0
41
1
10
43.651553043864
20
-3.33708620754075
30
0
41
1
10
43.6748435218127
20
-3.36433693400511
30
0
41
1
10
43.6843161348397
20
-3.37998540723535
30
0
41
1
10
43.6981310171298
20
-3.41360138984101
30
0
41
1
10
43.7021219972594
20
-3.43206406223811
30
0
41
1
10
43.7031095886516
20
-3.45333011826221
30
0
41
1
10
43.7031613126593
20
-3.45654087467886
30
0
41
1
10
43.7031169131861
20
-3.45974039152546
30
0
0
SPLINE
5
DE
100
AcDbEntity
8
1
62
256
6
ByLayer
370
-1
48
1
60
0
100
AcDbSpline
70
4
71
3
72
16
73
12
40
0
40
0
40
0
40
0
40
0.196510438699473
40
0.196510438699473
40
0.421233135259446
40
0.421233135259446
40
0.655874223552885
40
0.655874223552885
40
0.910630210030453
40
0.910630210030453
40
1
40
1
40
1
40
1
41
1
10
44.2997012908956
20
-4.01836015455044
30
0
41
1
10
44.3039018580847
20
-4.03411231014263
30
0
41
1
10
44.3059396892561
20
-4.05048200086088
30
0
41
1
10
44.30550233163
20
-4.08468044492733
30
0
41
1
10
44.3023194129735
20
-4.10281613736785
30
0
41
1
10
44.2906827013204
20
-4.13692602134068
30
0
41
1
10
44.2818736476742
20
-4.15320469648759
30
0
41
1
10
44.2593683242034
20
-4.18265723235146
30
0
41
1
10
44.2450539585568
20
-4.19582711601086
30
0
41
1
10
44.2238112945165
20
-4.20983172148755
30
0
41
1
10
44.2180646433076
20
-4.21316331009353
30
0
41
1
10
44.2121688487469
20
-4.21615413550882
30
0
0
SPLINE
5
DF
100
AcDbEntity
8
1
62
256
6
ByLayer
370
-1
48
1
60
0
100
AcDbSpline
70
4
71
3
72
14
73
10
40
0
40
0
40
0
40
0
40
0.0475085218327131
40
0.0475085218327131
40
0.384370009801421
40
0.384370009801421
40
0.830951928730176
40
0.830951928730176
40
1
40
1
40
1
40
1
41
1
10
43.803150742619
20
-3.72047467707506
30
0
41
1
10
43.7998506400351
20
-3.71674468655806
30
0
41
1
10
43.7966240855387
20
-3.71296739836939
30
0
41
1
10
43.7713442450947
20
-3.68230874116386
30
0
41
1
10
43.7529385094018
20
-3.65309065096176
30
0
41
1
10
43.7206986084403
20
-3.58461067540659
30
0
41
1
10
43.709602207153
20
-3.54402890533703
30
0
41
1
10
43.7036131275669
20
-3.48954572812738
30
0
41
1
10
43.702911167218
20
-3.47456686677191
30
0
41
1
10
43.7031169131861
20
-3.45974039152546
30
0
0
SPLINE
5
E0
100
AcDbEntity
8
1
62
256
6
ByLayer
370
-1
48
1
60
0
100
AcDbSpline
70
4
71
3
72
18
73
14
40
0
40
0
40
0
40
0
40
0.207299716014902
40
0.207299716014902
40
0.38392914767926
40
0.38392914767926
40
0.562267348564171
40
0.562267348564171
40
0.717363573193928
40
0.717363573193928
40
0.922486723449121
40
0.922486723449121
40
1
40
1
40
1
40
1
41
1
10
43.3592977146743
20
-3.36859541679721
30
0
41
1
10
43.3370011871121
20
-3.40211726791191
30
0
41
1
10
43.3085508924175
20
-3.43373892205034
30
0
41
1
10
43.2459807988926
20
-3.48471075584572
30
0
41
1
10
43.2125437719007
20
-3.50570519672411
30
0
41
1
10
43.1400662816567
20
-3.53892589704373
30
0
41
1
10
43.0998547306327
20
-3.55147586082077
30
0
41
1
10
43.0252082367585
20
-3.56456320276914
30
0
41
1
10
42.9898176042527
20
-3.56665021968013
30
0
41
1
10
42.9119376556138
20
-3.56269687418711
30
0
41
1
10
42.8694717516418
20
-3.55387444667767
30
0
41
1
10
42.8166422473217
20
-3.53466846226215
30
0
41
1
10
42.8025570256647
20
-3.52860602576115
30
0
41
1
10
42.7890423741366
20
-3.52185714035275
30
0
0
LINE
5
4A
100
AcDbEntity
8
80
62
256
6
ByLayer
370
-1
48
1
60
0
100
AcDbLine
10
0
20
0
30
0
11
-10
21
0
31
0
39
0
210
0
220
0
230
1
0
LINE
5
4B
100
AcDbEntity
8
81
62
256
6
ByLayer
370
-1
48
1
60
0
100
AcDbLine
10
47.94
20
-8.9
30
0
11
57.94
21
-8.9
31
0
39
0
210
0
220
0
230
1
0
LINE
5
4C
100
AcDbEntity
8
SK4
62
256
6
ByLayer
370
-1
48
0.05
60
0
100
AcDbLine
10
-108.31
20
0
30
0
11
52.56399
21
0
31
0
39
0
210
0
220
0
230
1
0
LINE
5
4E
100
AcDbEntity
8
4
62
256
6
ByLayer
370
-1
48
0.05
60
0
100
AcDbLine
10
0
20
0
30
0
11
52.56399
21
0
31
0
39
0
210
0
220
0
230
1
0
LINE
5
50
100
AcDbEntity
8
1
62
256
6
ByLayer
370
-1
48
1
60
0
100
AcDbLine
10
38.991193
20
0.313641
30
0
11
38.959103
21
0.307962
31
0
39
0
210
0
220
0
230
1
0
LINE
5
51
100
AcDbEntity
8
1
62
256
6
ByLayer
370
-1
48
1
60
0
100
AcDbLine
10
38.921657
20
0.296155
30
0
11
38.892113
21
0.282401
31
0
39
0
210
0
220
0
230
1
0
LINE
5
52
100
AcDbEntity
8
1
62
256
6
ByLayer
370
-1
48
1
60
0
100
AcDbLine
10
0
20
-5.9925
30
0
11
36.812165
21
-5.9925
31
0
39
0
210
0
220
0
230
1
0
LINE
5
53
100
AcDbEntity
8
1
62
256
6
ByLayer
370
-1
48
1
60
0
100
AcDbLine
10
36.812165
20
5.9925
30
0
11
0
21
5.9925
31
0
39
0
210
0
220
0
230
1
0
LINE
5
54
100
AcDbEntity
8
1
62
256
6
ByLayer
370
-1
48
1
60
0
100
AcDbLine
10
36.812165
20
-5.9925
30
0
11
36.887165
21
-5.9175
31
0
39
0
210
0
220
0
230
1
0
LINE
5
55
100
AcDbEntity
8
1
62
256
6
ByLayer
370
-1
48
1
60
0
100
AcDbLine
10
36.887165
20
5.9175
30
0
11
36.812165
21
5.9925
31
0
39
0
210
0
220
0
230
1
0
LINE
5
56
100
AcDbEntity
8
1
62
256
6
ByLayer
370
-1
48
1
60
0
100
AcDbLine
10
36.957932
20
5.9175
30
0
11
36.887165
21
5.9175
31
0
39
0
210
0
220
0
230
1
0
LINE
5
57
100
AcDbEntity
8
1
62
256
6
ByLayer
370
-1
48
1
60
0
100
AcDbLine
10
36.887165
20
-5.9175
30
0
11
38.577445
21
-5.9175
31
0
39
0
210
0
220
0
230
1
0
LINE
5
58
100
AcDbEntity
8
1
62
256
6
ByLayer
370
-1
48
1
60
0
100
AcDbLine
10
38.577445
20
-5.9175
30
0
11
40.326506
21
-6.476376
31
0
39
0
210
0
220
0
230
1
0
LINE
5
59
100
AcDbEntity
8
SK1
62
256
6
ByLayer
370
-1
48
1
60
0
100
AcDbLine
10
-102.81
20
5.9925
30
0
11
-103.31
21
5.4925
31
0
39
0
210
0
220
0
230
1
0
LINE
5
5B
100
AcDbEntity
8
SK1
62
256
6
ByLayer
370
-1
48
1
60
0
100
AcDbLine
10
-103.31
20
-5.4925
30
0
11
-102.81
21
-5.9925
31
0
39
0
210
0
220
0
230
1
0
LINE
5
5C
100
AcDbEntity
8
SK1
62
256
6
ByLayer
370
-1
48
1
60
0
100
AcDbLine
10
-102.81
20
-5.9925
30
0
11
0
21
-5.9925
31
0
39
0
210
0
220
0
230
1
0
LINE
5
5D
100
AcDbEntity
8
SK1
62
256
6
ByLayer
370
-1
48
1
60
0
100
AcDbLine
10
0
20
5.9925
30
0
11
-102.81
21
5.9925
31
0
39
0
210
0
220
0
230
1
0
LINE
5
5E
100
AcDbEntity
8
1
62
256
6
ByLayer
370
-1
48
1
60
0
100
AcDbLine
10
42.569779
20
-3.84749
30
0
11
42.536783
21
-3.742839
31
0
39
0
210
0
220
0
230
1
0
LINE
5
5F
100
AcDbEntity
8
1
62
256
6
ByLayer
370
-1
48
1
60
0
100
AcDbLine
10
41.621418
20
-4.69893
30
0
11
41.648253
21
-4.784042
31
0
39
0
210
0
220
0
230
1
0
LINE
5
60
100
AcDbEntity
8
1
62
256
6
ByLayer
370
-1
48
1
60
0
100
AcDbLine
10
44.938577
20
-3.746607
30
0
11
44.911741
21
-3.661495
31
0
39
0
210
0
220
0
230
1
0
LINE
5
61
100
AcDbEntity
8
1
62
256
6
ByLayer
370
-1
48
1
60
0
100
AcDbLine
10
43.687916
20
-3.47302
30
0
11
43.720347
21
-3.575877
31
0
39
0
210
0
220
0
230
1
0
LINE
5
62
100
AcDbEntity
8
1
62
256
6
ByLayer
370
-1
48
1
60
0
100
AcDbLine
10
43.988984
20
-4.594143
30
0
11
44.021965
21
-4.698745
31
0
39
0
210
0
220
0
230
1
0
LINE
5
63
100
AcDbEntity
8
1
62
256
6
ByLayer
370
-1
48
1
60
0
100
AcDbLine
10
42.870245
20
-4.966702
30
0
11
42.837851
21
-4.863962
31
0
39
0
210
0
220
0
230
1
0
LINE
5
64
100
AcDbEntity
8
1
62
256
6
ByLayer
370
-1
48
1
60
0
100
AcDbLine
10
0
20
-5.9925
30
0
11
0
21
-0.205966
31
0
39
0
210
0
220
0
230
1
0
LINE
5
65
100
AcDbEntity
8
1
62
256
6
ByLayer
370
-1
48
1
60
0
100
AcDbLine
10
0
20
0.205966
30
0
11
0
21
5.9925
31
0
39
0
210
0
220
0
230
1
0
LINE
5
66
100
AcDbEntity
8
1
62
256
6
ByLayer
370
-1
48
1
60
0
100
AcDbLine
10
37.631061
20
5.57116
30
0
11
38.75338
21
4.993702
31
0
39
0
210
0
220
0
230
1
0
LINE
5
67
100
AcDbEntity
8
1
62
256
6
ByLayer
370
-1
48
1
60
0
100
AcDbLine
10
36.957932
20
5.9175
30
0
11
37.631061
21
5.57116
31
0
39
0
210
0
220
0
230
1
0
LINE
5
68
100
AcDbEntity
8
1
62
256
6
ByLayer
370
-1
48
1
60
0
100
AcDbLine
10
39.320532
20
-2.223469
30
0
11
38.665769
21
-2.019591
31
0
39
0
210
0
220
0
230
1
0
LINE
5
69
100
AcDbEntity
8
1
62
256
6
ByLayer
370
-1
48
1
60
0
100
AcDbLine
10
38.577445
20
-5.9175
30
0
11
38.577445
21
-5.898683
31
0
39
0
210
0
220
0
230
1
0
LINE
5
6A
100
AcDbEntity
8
1
62
256
6
ByLayer
370
-1
48
1
60
0
100
AcDbLine
10
35.801899
20
-5.965616
30
0
11
38.75338
21
4.993702
31
0
39
0
210
0
220
0
230
1
0
LINE
5
6B
100
AcDbEntity
8
1
62
256
6
ByLayer
370
-1
48
1
60
0
100
AcDbLine
10
38.008757
20
-0.257242
30
0
11
38.064404
21
-0.43373
31
0
39
0
210
0
220
0
230
1
0
LINE
5
6C
100
AcDbEntity
8
1
62
256
6
ByLayer
370
-1
48
1
60
0
100
AcDbLine
10
36.887165
20
5.487764
30
0
11
36.887165
21
5.9175
31
0
39
0
210
0
220
0
230
1
0
LINE
5
6D
100
AcDbEntity
8
1
62
256
6
ByLayer
370
-1
48
1
60
0
100
AcDbLine
10
36.887165
20
-5.9175
30
0
11
36.887165
21
-5.893254
31
0
39
0
210
0
220
0
230
1
0
LINE
5
6E
100
AcDbEntity
8
1
62
256
6
ByLayer
370
-1
48
1
60
0
100
AcDbLine
10
36.812165
20
5.551164
30
0
11
36.812165
21
5.9925
31
0
39
0
210
0
220
0
230
1
0
LINE
5
6F
100
AcDbEntity
8
1
62
256
6
ByLayer
370
-1
48
1
60
0
100
AcDbLine
10
45.533193
20
-1.475603
30
0
11
44.411304
21
2.082575
31
0
39
0
210
0
220
0
230
1
0
LINE
5
70
100
AcDbEntity
8
1
62
256
6
ByLayer
370
-1
48
1
60
0
100
AcDbLine
10
0
20
0.205966
30
0
11
31.82041
21
0.205966
31
0
39
0
210
0
220
0
230
1
0
LINE
5
71
100
AcDbEntity
8
1
62
256
6
ByLayer
370
-1
48
1
60
0
100
AcDbLine
10
38.665769
20
-2.019591
30
0
11
38.745347
21
-2.271982
31
0
39
0
210
0
220
0
230
1
0
LINE
5
72
100
AcDbEntity
8
1
62
256
6
ByLayer
370
-1
48
1
60
0
100
AcDbLine
10
36.812165
20
-5.9925
30
0
11
36.812165
21
-5.969109
31
0
39
0
210
0
220
0
230
1
0
LINE
5
73
100
AcDbEntity
8
1
62
256
6
ByLayer
370
-1
48
1
60
0
100
AcDbLine
10
40.045465
20
0.032024
30
0
11
40.002182
21
0.1693
31
0
39
0
210
0
220
0
230
1
0
LINE
5
74
100
AcDbEntity
8
1
62
256
6
ByLayer
370
-1
48
1
60
0
100
AcDbLine
10
38.75338
20
4.993702
30
0
11
44.411304
21
2.082575
31
0
39
0
210
0
220
0
230
1
0
LINE
5
75
100
AcDbEntity
8
1
62
256
6
ByLayer
370
-1
48
1
60
0
100
AcDbLine
10
0
20
-0.205966
30
0
11
0
21
0.205966
31
0
39
0
210
0
220
0
230
1
0
LINE
5
76
100
AcDbEntity
8
1
62
256
6
ByLayer
370
-1
48
1
60
0
100
AcDbLine
10
31.701454
20
-0.205966
30
0
11
0
21
-0.205966
31
0
39
0
210
0
220
0
230
1
0
LINE
5
77
100
AcDbEntity
8
1
62
256
6
ByLayer
370
-1
48
1
60
0
100
AcDbLine
10
39.400115
20
-2.475862
30
0
11
38.745347
21
-2.271982
31
0
39
0
210
0
220
0
230
1
0
LINE
5
78
100
AcDbEntity
8
SK1
62
256
6
ByLayer
370
-1
48
1
60
0
100
AcDbLine
10
-103.31
20
5.4925
30
0
11
-103.31
21
-5.4925
31
0
39
0
210
0
220
0
230
1
0
LINE
5
79
100
AcDbEntity
8
SK1
62
256
6
ByLayer
370
-1
48
1
60
0
100
AcDbLine
10
-102.81
20
5.9925
30
0
11
-102.81
21
-5.9925
31
0
39
0
210
0
220
0
230
1
0
LINE
5
7A
100
AcDbEntity
8
SK1
62
256
6
ByLayer
370
-1
48
1
60
0
100
AcDbLine
10
-36.06
20
0.205966
30
0
11
-36.06
21
-0.205966
31
0
39
0
210
0
220
0
230
1
0
LINE
5
7B
100
AcDbEntity
8
SK1
62
256
6
ByLayer
370
-1
48
1
60
0
100
AcDbLine
10
-36.06
20
0.205966
30
0
11
0
21
0.205966
31
0
39
0
210
0
220
0
230
1
0
LINE
5
7C
100
AcDbEntity
8
1
62
256
6
ByLayer
370
-1
48
1
60
0
100
AcDbLine
10
45.897702
20
-1.966574
30
0
11
47.921903
21
-8.386519
31
0
39
0
210
0
220
0
230
1
0
LINE
5
7D
100
AcDbEntity
8
1
62
256
6
ByLayer
370
-1
48
1
60
0
100
AcDbLine
10
40.704766
20
-6.613672
30
0
11
38.680565
21
-0.193727
31
0
39
0
210
0
220
0
230
1
0
LINE
5
7E
100
AcDbEntity
8
1
62
256
6
ByLayer
370
-1
48
1
60
0
100
AcDbLine
10
39.179156
20
0.301771
30
0
11
45.639279
21
-1.709761
31
0
39
0
210
0
220
0
230
1
0
LINE
5
7F
100
AcDbEntity
8
1
62
256
6
ByLayer
370
-1
48
1
60
0
100
AcDbLine
10
47.423312
20
-8.882017
30
0
11
40.963189
21
-6.870484
31
0
39
0
210
0
220
0
230
1
0
LINE
5
80
100
AcDbEntity
8
1
62
256
6
ByLayer
370
-1
48
1
60
0
100
AcDbLine
10
42.744498
20
-4.772562
30
0
11
42.713662
21
-4.674763
31
0
39
0
210
0
220
0
230
1
0
LINE
5
81
100
AcDbEntity
8
1
62
256
6
ByLayer
370
-1
48
1
60
0
100
AcDbLine
10
42.439805
20
-4.571777
30
0
11
42.474242
21
-4.680994
31
0
39
0
210
0
220
0
230
1
0
LINE
5
82
100
AcDbEntity
8
1
62
256
6
ByLayer
370
-1
48
1
60
0
100
AcDbLine
10
43.200918
20
-5.077642
30
0
11
43.235366
21
-5.186899
31
0
39
0
210
0
220
0
230
1
0
LINE
5
83
100
AcDbEntity
8
1
62
256
6
ByLayer
370
-1
48
1
60
0
100
AcDbLine
10
42.753452
20
-4.714305
30
0
11
42.784288
21
-4.812104
31
0
39
0
210
0
220
0
230
1
0
LINE
5
84
100
AcDbEntity
8
1
62
256
6
ByLayer
370
-1
48
1
60
0
100
AcDbLine
10
43.674696
20
-3.3696
30
0
11
43.703117
21
-3.45974
31
0
39
0
210
0
220
0
230
1
0
LINE
5
85
100
AcDbEntity
8
1
62
256
6
ByLayer
370
-1
48
1
60
0
100
AcDbLine
10
43.771173
20
-4.924381
30
0
11
43.805622
21
-5.033637
31
0
39
0
210
0
220
0
230
1
0
LINE
5
86
100
AcDbEntity
8
1
62
256
6
ByLayer
370
-1
48
1
60
0
100
AcDbLine
10
44.17772
20
-4.106898
30
0
11
44.212169
21
-4.216154
31
0
39
0
210
0
220
0
230
1
0
LINE
5
87
100
AcDbEntity
8
1
62
256
6
ByLayer
370
-1
48
1
60
0
100
AcDbLine
10
42.51806
20
-3.713483
30
0
11
42.536708
21
-3.772627
31
0
39
0
210
0
220
0
230
1
0
LINE
5
88
100
AcDbEntity
8
SK1
62
256
6
ByLayer
370
-1
48
1
60
0
100
AcDbLine
10
0
20
-0.205966
30
0
11
0
21
0.205966
31
0
39
0
210
0
220
0
230
1
0
LINE
5
89
100
AcDbEntity
8
SK1
62
256
6
ByLayer
370
-1
48
1
60
0
100
AcDbLine
10
0
20
-0.205966
30
0
11
-36.06
21
-0.205966
31
0
39
0
210
0
220
0
230
1
0
LINE
5
8A
100
AcDbEntity
8
SK1
62
256
6
ByLayer
370
-1
48
1
60
0
100
AcDbLine
10
0
20
-5.9925
30
0
11
0
21
-0.205966
31
0
39
0
210
0
220
0
230
1
0
LINE
5
8B
100
AcDbEntity
8
SK1
62
256
6
ByLayer
370
-1
48
1
60
0
100
AcDbLine
10
0
20
0.205966
30
0
11
0
21
5.9925
31
0
39
0
210
0
220
0
230
1
0
LINE
5
8C
100
AcDbEntity
8
2
62
256
6
ByLayer
370
-1
48
1
60
1
100
AcDbLine
10
47.94
20
0
30
0
11
47.941
21
0.001
31
0
39
0
210
0
220
0
230
1
0
MTEXT
5
E1
100
AcDbEntity
8
SK6
62
256
6
ByLayer
370
-1
48
1
60
0
100
AcDbMText
10
-24.31
20
13.66375
30
0
210
0
220
0
230
1
1
\W00.754;\fsimplex.shx,bigfont.shx;A12M-SDQCL 07-R 
40
3.5
41
0
44
1.084337
50
0
71
7
72
5
7
DEFAULT
0
DIMENSION
5
114
100
AcDbEntity
8
2
62
256
6
ByLayer
370
-3
48
1
60
0
100
AcDbDimension
2
DimnDraft3D1
10
60.19
20
0
30
0
11
60.19
21
-26.177368
31
0
70
32
71
5
72
1
41
1
210
0
220
0
230
1
3
Standard
100
AcDbAlignedDimension
13
49.94
23
-8.9
33
0
14
49.94
24
0
34
0
50
90
100
AcDbRotatedDimension
1001
ACAD
1000
DSTYLE
1002
{
1070
    74
1070
     0
1070
   279
1070
     0
1070
   172
1070
     1
1070
   173
1070
     1
1070
   340
1005
E2
1070
    77
1070
     1
1070
    73
1070
     0
1070
   171
1070
     4
1070
   274
1070
     4
1070
   177
1070
     2
1070
   176
1070
     2
1070
   178
1070
     7
1070
    78
1070
     8
1070
    41
1041
3.175
1070
   147
1041
2.25
1070
    42
1041
2.0
1070
    44
1041
2.0
1070
   140
1041
4.5
1070
   343
1005
115
1070
   344
1005
115
1002
}
0
DIMENSION
5
12A
100
AcDbEntity
8
SK2
62
256
6
ByLayer
370
-3
48
1
60
0
100
AcDbDimension
2
DimnDraft3D2
10
-113.06
20
5.9925
30
0
11
-113.06
21
16.2475
31
0
70
32
71
5
72
1
41
1
210
0
220
0
230
1
3
Standard
100
AcDbAlignedDimension
13
-105.31
23
-5.9925
33
0
14
-105.31
24
5.9925
34
0
50
90
100
AcDbRotatedDimension
1001
ACAD
1000
DSTYLE
1002
{
1070
    74
1070
     0
1070
   279
1070
     0
1070
   172
1070
     1
1070
   173
1070
     1
1070
   340
1005
E2
1070
    77
1070
     1
1070
    73
1070
     0
1070
   171
1070
     4
1070
   274
1070
     4
1070
   177
1070
     2
1070
   176
1070
     2
1070
   178
1070
     7
1070
    78
1070
     8
1070
    41
1041
3.175
1070
   147
1041
2.25
1070
    42
1041
2.0
1070
    44
1041
2.0
1070
   140
1041
4.5
1070
   343
1005
115
1070
   344
1005
115
1002
}
0
DIMENSION
5
138
100
AcDbEntity
8
SK2
62
256
6
ByLayer
370
-3
48
1
60
0
100
AcDbDimension
2
DimnDraft3D3
10
47.94
20
-26.15
30
0
11
-33.937632
21
-26.15
31
0
70
32
71
5
72
1
41
1
210
0
220
0
230
1
3
Standard
100
AcDbAlignedDimension
13
-103.31
23
-7.9925
33
0
14
47.94
24
-10.9
34
0
50
0
100
AcDbRotatedDimension
1001
ACAD
1000
DSTYLE
1002
{
1070
   279
1070
     0
1070
   172
1070
     1
1070
   173
1070
     1
1070
   340
1005
E2
1070
    77
1070
     1
1070
    73
1070
     0
1070
   171
1070
     4
1070
   274
1070
     4
1070
   177
1070
     2
1070
   176
1070
     2
1070
   178
1070
     7
1070
    78
1070
     8
1070
    41
1041
3.175
1070
   147
1041
2.25
1070
    42
1041
2.0
1070
    44
1041
2.0
1070
   140
1041
4.5
1070
   343
1005
115
1070
   344
1005
115
1002
}
0
DIMENSION
5
146
100
AcDbEntity
8
2
62
256
6
ByLayer
370
-3
48
1
60
0
100
AcDbDimension
2
DimnDraft3D4
10
85.060248
20
0
30
0
11
61.541811
21
37.788356
31
0
70
34
71
5
72
1
41
1
210
0
220
0
230
1
3
Standard
100
AcDb2LineAngularDimension
13
45.233648
23
-0.316547
33
0
14
33.127739
24
38.078491
34
0
15
49.94
25
0
35
0
16
70.220985
26
34.214547
36
0
40
0
0
ENDSEC
0
SECTION
2
OBJECTS
0
DICTIONARY
5
177
330
0
100
AcDbDictionary
280
0
281
1
3
ACAD_GROUP
350
178
3
ACAD_MLINESTYLE
350
179
0
DICTIONARY
5
178
330
0
100
AcDbDictionary
280
0
281
1
0
DICTIONARY
5
179
330
0
100
AcDbDictionary
280
0
281
1
3
Standard
350
18
0
MLINESTYLE
5
18
330
179
100
AcDbMlineStyle
2
Standard
70
0
3

62
256
51
90
52
90
71
2
49
-0.5
62
256
6
ByLayer
49
0.5
62
256
6
ByLayer
0
RASTERVARIABLES
5
165
330

100
AcDbRasterVariables
90
0
70
1
71
1
72
1
0
ENDSEC
0
EOF
