0
SECTION
2
HEADER
9
$ACADVER
1
AC1015
9
$DWGCODEPAGE
3
ANSI_1252
9
$HANDSEED
5
188
9
$ANGBASE
50
0
9
$ANGDIR
70
0
9
$ATTMODE
70
1
9
$AUNITS
70
0
9
$AUPREC
70
0
9
$CECOLOR
62
256
9
$CELTSCALE
40
1
9
$CELTYPE
6
ByLayer
9
$CELWEIGHT
370
-1
9
$CLAYER
8
0
9
$CMLJUST
70
0
9
$CMLSCALE
40
1
9
$CMLSTYLE
2
Standard
9
$DIMSTYLE
2
Standard
9
$TEXTSIZE
40
0.2
9
$TEXTSTYLE
7
Standard
9
$LUNITS
70
2
9
$LUPREC
70
4
9
$EXTNAMES
290
1
9
$INSUNITS
70
4
9
$LTSCALE
40
1
9
$LWDISPLAY
290
0
9
$PDMODE
70
0
9
$PDSIZE
40
0
9
$PLINEGEN
70
0
0
ENDSEC
0
SECTION
2
CLASSES
0
CLASS
1
RASTERVARIABLES
2
AcDbRasterVariables
3
ISM
90
0
280
0
281
0
0
ENDSEC
0
SECTION
2
TABLES
0
TABLE
2
VPORT
5
17e
100
AcDbSymbolTable
0
VPORT
5
1
100
AcDbSymbolTableRecord
100
AcDbViewportTableRecord
2
*Active
70
0
10
0
20
0
11
1
21
1
12
-1
22
1
13
0
23
0
14
0.5
24
0.5
15
10
25
10
16
0
26
0
36
1
17
0
27
0
37
0
0
ENDTAB
0
TABLE
2
LTYPE
5
17f
100
AcDbSymbolTable
0
LTYPE
5
14
100
AcDbSymbolTableRecord
100
AcDbLinetypeTableRecord
70
0
2
ByBlock
3

72
65
73
0
40
0
0
LTYPE
5
15
100
AcDbSymbolTableRecord
100
AcDbLinetypeTableRecord
70
0
2
ByLayer
3

72
65
73
0
40
0
0
LTYPE
5
16
100
AcDbSymbolTableRecord
100
AcDbLinetypeTableRecord
70
0
2
CONTINUOUS
3
Solid line
72
65
73
0
40
0
0
LTYPE
5
3B
100
AcDbSymbolTableRecord
100
AcDbLinetypeTableRecord
70
0
2
DASHED
3
__ __ __ __ __ __ __ __ __
72
65
73
2
40
25.72
49
12.86
74
0
49
-12.86
74
0
0
LTYPE
5
3C
100
AcDbSymbolTableRecord
100
AcDbLinetypeTableRecord
70
0
2
HIDDEN
3
_ _ _ _ _ _ _ _ _ _ _ _ _ _ _
72
65
73
2
40
0.5
49
0.25
74
0
49
-0.25
74
0
0
LTYPE
5
3D
100
AcDbSymbolTableRecord
100
AcDbLinetypeTableRecord
70
0
2
PHANTOM
3
____ _ _ ____ _ _ _____ _ _ ____
72
65
73
6
40
50.5
49
18
74
0
49
-6.5
74
0
49
6.5
74
0
49
-6.5
74
0
49
6.5
74
0
49
-6.5
74
0
0
LTYPE
5
3E
100
AcDbSymbolTableRecord
100
AcDbLinetypeTableRecord
70
0
2
CENTER
3
____ _ ____ _ ____ _ ____
72
65
73
4
40
47.5
49
22
74
0
49
-8.5
74
0
49
8.5
74
0
49
-8.5
74
0
0
LTYPE
5
3F
100
AcDbSymbolTableRecord
100
AcDbLinetypeTableRecord
70
0
2
DOT
3
.........................
72
65
73
2
40
10
49
0
74
0
49
-10
74
0
0
LTYPE
5
40
100
AcDbSymbolTableRecord
100
AcDbLinetypeTableRecord
70
0
2
DASHDOT
3
_._._._._._._._._._._._._._._._.
72
65
73
4
40
70
49
31
74
0
49
-13
74
0
49
13
74
0
49
-13
74
0
0
ENDTAB
0
TABLE
2
LAYER
5
180
100
AcDbSymbolTable
0
LAYER
5
10
100
AcDbSymbolTableRecord
100
AcDbLayerTableRecord
2
0
70
0
62
7
6
CONTINUOUS
290
1
370
-3
390
0
0
LAYER
5
42
100
AcDbSymbolTableRecord
100
AcDbLayerTableRecord
2
80
70
0
62
-6
6
CONTINUOUS
290
1
370
-3
390
0
0
LAYER
5
44
100
AcDbSymbolTableRecord
100
AcDbLayerTableRecord
2
81
70
0
62
-3
6
CONTINUOUS
290
1
370
-3
390
0
0
LAYER
5
46
100
AcDbSymbolTableRecord
100
AcDbLayerTableRecord
2
1
70
0
62
4
6
CONTINUOUS
290
1
370
-3
390
0
0
LAYER
5
48
100
AcDbSymbolTableRecord
100
AcDbLayerTableRecord
2
2
70
0
62
7
6
CONTINUOUS
290
1
370
-3
390
0
0
LAYER
5
4F
100
AcDbSymbolTableRecord
100
AcDbLayerTableRecord
2
4
70
0
62
-2
6
CENTER
290
1
370
-3
390
0
0
LAYER
5
16a
100
AcDbSymbolTableRecord
100
AcDbLayerTableRecord
2
SK4
70
0
62
2
6
CENTER
290
1
370
-3
390
0
0
LAYER
5
16b
100
AcDbSymbolTableRecord
100
AcDbLayerTableRecord
2
SK1
70
0
62
4
6
CONTINUOUS
290
1
370
-3
390
0
0
LAYER
5
16c
100
AcDbSymbolTableRecord
100
AcDbLayerTableRecord
2
SK6
70
0
62
5
6
CONTINUOUS
290
1
370
-3
390
0
0
LAYER
5
16d
100
AcDbSymbolTableRecord
100
AcDbLayerTableRecord
2
SK2
70
0
62
7
6
CONTINUOUS
290
1
370
-3
390
0
0
ENDTAB
0
TABLE
2
STYLE
5
181
100
AcDbSymbolTable
0
STYLE
5
11
100
AcDbSymbolTableRecord
100
AcDbTextStyleTableRecord
2
Standard
3
txt
70
0
71
0
40
0
41
1
42
0
50
0
0
STYLE
5
E6
100
AcDbSymbolTableRecord
100
AcDbTextStyleTableRecord
2
DEFAULT
3
simplex.shx
70
0
71
0
40
0
41
1
42
0
50
0
0
STYLE
5
109
100
AcDbSymbolTableRecord
100
AcDbTextStyleTableRecord
2
DWGDirectTextStyle
3
SIMPLEX
70
0
71
0
40
0
41
1
42
0
50
0
0
ENDTAB
0
TABLE
2
DIMSTYLE
5
182
100
AcDbSymbolTable
100
AcDbDimStyleTable
0
DIMSTYLE
105
27
100
AcDbSymbolTableRecord
100
AcDbDimStyleTableRecord
2
Standard
70
0
3
<>
41
0.18
42
0.0625
44
0.18
140
0.18
147
0.09
73
0
74
0
77
1
271
2
275
0
278
52
280
0
340
11
0
ENDTAB
0
TABLE
2
VIEW
5
183
100
AcDbSymbolTable
0
ENDTAB
0
TABLE
2
UCS
5
184
100
AcDbSymbolTable
0
ENDTAB
0
TABLE
2
APPID
5
185
100
AcDbSymbolTable
0
APPID
5
12
100
AcDbSymbolTableRecord
100
AcDbRegAppTableRecord
2
ACAD
70
0
0
ENDTAB
0
TABLE
2
BLOCK_RECORD
5
186
100
AcDbSymbolTable
0
BLOCK_RECORD
5
1F
100
AcDbSymbolTableRecord
100
AcDbBlockTableRecord
2
*Model_Space
340
0
70
0
0
BLOCK_RECORD
5
1B
100
AcDbSymbolTableRecord
100
AcDbBlockTableRecord
2
*Paper_Space
340
0
70
0
0
BLOCK_RECORD
5
23
100
AcDbSymbolTableRecord
100
AcDbBlockTableRecord
2
*Paper_Space0
340
0
70
0
0
BLOCK_RECORD
5
10B
100
AcDbSymbolTableRecord
100
AcDbBlockTableRecord
2
DimnDraft3D1
340
0
70
0
0
BLOCK_RECORD
5
119
100
AcDbSymbolTableRecord
100
AcDbBlockTableRecord
2
_CLOSED
340
0
70
0
0
BLOCK_RECORD
5
120
100
AcDbSymbolTableRecord
100
AcDbBlockTableRecord
2
DimnDraft3D2
340
0
70
0
0
BLOCK_RECORD
5
12F
100
AcDbSymbolTableRecord
100
AcDbBlockTableRecord
2
DimnDraft3D3
340
0
70
0
0
BLOCK_RECORD
5
13D
100
AcDbSymbolTableRecord
100
AcDbBlockTableRecord
2
DimnDraft3D4
340
0
70
0
0
ENDTAB
0
ENDSEC
0
SECTION
2
BLOCKS
0
BLOCK
5
20
100
AcDbEntity
8
0
100
AcDbBlockBegin
2
*Model_Space
70
0
10
0
20
0
30
0
3
*Model_Space
0
ENDBLK
5
21
100
AcDbEntity
8
0
100
AcDbBlockEnd
0
BLOCK
5
1C
100
AcDbEntity
8
0
100
AcDbBlockBegin
2
*Paper_Space
70
0
10
0
20
0
30
0
3
*Paper_Space
0
ENDBLK
5
1D
100
AcDbEntity
8
0
100
AcDbBlockEnd
0
BLOCK
5
24
100
AcDbEntity
8
0
100
AcDbBlockBegin
2
*Paper_Space0
70
0
10
0
20
0
30
0
3
*Paper_Space0
0
ENDBLK
5
25
100
AcDbEntity
8
0
100
AcDbBlockEnd
0
BLOCK
5
116
100
AcDbEntity
8
0
100
AcDbBlockBegin
2
DimnDraft3D1
70
0
10
0
20
0
30
0
3
DimnDraft3D1
0
MTEXT
5
10C
100
AcDbEntity
8
2
62
256
6
ByLayer
370
-1
48
1
60
0
100
AcDbMText
10
51.075
20
18.28
30
0
210
0
220
0
230
1
1
\W01.000;\fsimplex.shx,bigfont.shx;7.0 
40
4.5
41
0
44
1.084337
50
90
71
7
72
5
7
DEFAULT
0
LINE
5
10D
100
AcDbEntity
8
2
62
256
6
ByLayer
370
-1
48
1
60
0
100
AcDbLine
10
41.95
20
6.9
30
0
11
54.2
21
6.9
31
0
39
0
210
0
220
0
230
1
0
LINE
5
10E
100
AcDbEntity
8
2
62
256
6
ByLayer
370
-1
48
1
60
0
100
AcDbLine
10
41.95
20
0
30
0
11
54.2
21
0
31
0
39
0
210
0
220
0
230
1
0
LINE
5
10F
100
AcDbEntity
8
2
62
256
6
ByLayer
370
-1
48
1
60
0
100
AcDbLine
10
52.2
20
-11.25
30
0
11
52.2
21
24.177368
31
0
39
0
210
0
220
0
230
1
0
LINE
5
110
100
AcDbEntity
8
2
62
256
6
ByLayer
370
-1
48
1
60
0
100
AcDbLine
10
52.2
20
6.9
30
0
11
51.782003
21
10.074998
31
0
39
0
210
0
220
0
230
1
0
LINE
5
111
100
AcDbEntity
8
2
62
256
6
ByLayer
370
-1
48
1
60
0
100
AcDbLine
10
52.2
20
6.9
30
0
11
52.617997
21
10.075002
31
0
39
0
210
0
220
0
230
1
0
LINE
5
112
100
AcDbEntity
8
2
62
256
6
ByLayer
370
-1
48
1
60
0
100
AcDbLine
10
51.782003
20
10.074998
30
0
11
52.617997
21
10.075002
31
0
39
0
210
0
220
0
230
1
0
LINE
5
113
100
AcDbEntity
8
2
62
256
6
ByLayer
370
-1
48
1
60
0
100
AcDbLine
10
52.2
20
0
30
0
11
52.617997
21
-3.174998
31
0
39
0
210
0
220
0
230
1
0
LINE
5
114
100
AcDbEntity
8
2
62
256
6
ByLayer
370
-1
48
1
60
0
100
AcDbLine
10
52.2
20
0
30
0
11
51.782003
21
-3.175002
31
0
39
0
210
0
220
0
230
1
0
LINE
5
115
100
AcDbEntity
8
2
62
256
6
ByLayer
370
-1
48
1
60
0
100
AcDbLine
10
52.617997
20
-3.174998
30
0
11
51.782003
21
-3.175002
31
0
39
0
210
0
220
0
230
1
0
ENDBLK
5
117
100
AcDbEntity
8
0
100
AcDbBlockEnd
0
BLOCK
5
11A
100
AcDbEntity
8
0
100
AcDbBlockBegin
2
_CLOSED
70
0
10
0
20
0
30
0
3
_CLOSED
0
LINE
5
11C
100
AcDbEntity
8
0
62
256
6
ByLayer
370
-2
48
1
60
0
100
AcDbLine
10
-1
20
0.166667
30
0
11
0
21
0
31
0
39
0
210
0
220
0
230
1
0
LINE
5
11D
100
AcDbEntity
8
0
62
256
6
ByLayer
370
-2
48
1
60
0
100
AcDbLine
10
0
20
0
30
0
11
-1
21
-0.166667
31
0
39
0
210
0
220
0
230
1
0
LINE
5
11E
100
AcDbEntity
8
0
62
256
6
ByLayer
370
-2
48
1
60
0
100
AcDbLine
10
-1
20
0.166667
30
0
11
-1
21
-0.166667
31
0
39
0
210
0
220
0
230
1
0
LINE
5
11F
100
AcDbEntity
8
0
62
256
6
ByLayer
370
-2
48
1
60
0
100
AcDbLine
10
0
20
0
30
0
11
-1
21
0
31
0
39
0
210
0
220
0
230
1
0
ENDBLK
5
11B
100
AcDbEntity
8
0
100
AcDbBlockEnd
0
BLOCK
5
12C
100
AcDbEntity
8
0
100
AcDbBlockBegin
2
DimnDraft3D2
70
0
10
0
20
0
30
0
3
DimnDraft3D2
0
MTEXT
5
121
100
AcDbEntity
8
SK2
62
256
6
ByLayer
370
-1
48
1
60
0
100
AcDbMText
10
-97.175
20
16.37375
30
0
210
0
220
0
230
1
1
\W01.000;\fsimplex.shx,bigfont.shx;%%c10 
40
4.5
41
0
44
1.084337
50
90
71
7
72
5
7
DEFAULT
0
LINE
5
123
100
AcDbEntity
8
SK2
62
256
6
ByLayer
370
-1
48
1
60
0
100
AcDbLine
10
-88.3
20
-4.99375
30
0
11
-98.05
21
-4.99375
31
0
39
0
210
0
220
0
230
1
0
LINE
5
124
100
AcDbEntity
8
SK2
62
256
6
ByLayer
370
-1
48
1
60
0
100
AcDbLine
10
-88.3
20
4.99375
30
0
11
-98.05
21
4.99375
31
0
39
0
210
0
220
0
230
1
0
LINE
5
125
100
AcDbEntity
8
SK2
62
256
6
ByLayer
370
-1
48
1
60
0
100
AcDbLine
10
-96.05
20
-4.99375
30
0
11
-96.05
21
23.692171
31
0
39
0
210
0
220
0
230
1
0
LINE
5
126
100
AcDbEntity
8
SK2
62
256
6
ByLayer
370
-1
48
1
60
0
100
AcDbLine
10
-96.05
20
-4.99375
30
0
11
-96.467997
21
-1.818752
31
0
39
0
210
0
220
0
230
1
0
LINE
5
127
100
AcDbEntity
8
SK2
62
256
6
ByLayer
370
-1
48
1
60
0
100
AcDbLine
10
-96.05
20
-4.99375
30
0
11
-95.632003
21
-1.818748
31
0
39
0
210
0
220
0
230
1
0
LINE
5
128
100
AcDbEntity
8
SK2
62
256
6
ByLayer
370
-1
48
1
60
0
100
AcDbLine
10
-96.467997
20
-1.818752
30
0
11
-95.632003
21
-1.818748
31
0
39
0
210
0
220
0
230
1
0
LINE
5
129
100
AcDbEntity
8
SK2
62
256
6
ByLayer
370
-1
48
1
60
0
100
AcDbLine
10
-96.05
20
4.99375
30
0
11
-95.632003
21
1.818752
31
0
39
0
210
0
220
0
230
1
0
LINE
5
12A
100
AcDbEntity
8
SK2
62
256
6
ByLayer
370
-1
48
1
60
0
100
AcDbLine
10
-96.05
20
4.99375
30
0
11
-96.467997
21
1.818748
31
0
39
0
210
0
220
0
230
1
0
LINE
5
12B
100
AcDbEntity
8
SK2
62
256
6
ByLayer
370
-1
48
1
60
0
100
AcDbLine
10
-95.632003
20
1.818752
30
0
11
-96.467997
21
1.818748
31
0
39
0
210
0
220
0
230
1
0
ENDBLK
5
12D
100
AcDbEntity
8
0
100
AcDbBlockEnd
0
BLOCK
5
13A
100
AcDbEntity
8
0
100
AcDbBlockBegin
2
DimnDraft3D3
70
0
10
0
20
0
30
0
3
DimnDraft3D3
0
MTEXT
5
130
100
AcDbEntity
8
SK2
62
256
6
ByLayer
370
-1
48
1
60
0
100
AcDbMText
10
-28.302632
20
20.775
30
0
210
0
220
0
230
1
1
\W01.000;\fsimplex.shx,bigfont.shx;125.0 
40
4.5
41
0
44
1.084337
50
0
71
7
72
5
7
DEFAULT
0
LINE
5
131
100
AcDbEntity
8
SK2
62
256
6
ByLayer
370
-1
48
1
60
0
100
AcDbLine
10
39.95
20
8.9
30
0
11
39.95
21
21.65
31
0
39
0
210
0
220
0
230
1
0
LINE
5
132
100
AcDbEntity
8
SK2
62
256
6
ByLayer
370
-1
48
1
60
0
100
AcDbLine
10
-86.3
20
6.99375
30
0
11
-86.3
21
21.65
31
0
39
0
210
0
220
0
230
1
0
LINE
5
133
100
AcDbEntity
8
SK2
62
256
6
ByLayer
370
-1
48
1
60
0
100
AcDbLine
10
39.95
20
19.65
30
0
11
-86.3
21
19.65
31
0
39
0
210
0
220
0
230
1
0
LINE
5
134
100
AcDbEntity
8
SK2
62
256
6
ByLayer
370
-1
48
1
60
0
100
AcDbLine
10
39.95
20
19.65
30
0
11
36.775002
21
19.232003
31
0
39
0
210
0
220
0
230
1
0
LINE
5
135
100
AcDbEntity
8
SK2
62
256
6
ByLayer
370
-1
48
1
60
0
100
AcDbLine
10
39.95
20
19.65
30
0
11
36.774998
21
20.067997
31
0
39
0
210
0
220
0
230
1
0
LINE
5
136
100
AcDbEntity
8
SK2
62
256
6
ByLayer
370
-1
48
1
60
0
100
AcDbLine
10
36.775002
20
19.232003
30
0
11
36.774998
21
20.067997
31
0
39
0
210
0
220
0
230
1
0
LINE
5
137
100
AcDbEntity
8
SK2
62
256
6
ByLayer
370
-1
48
1
60
0
100
AcDbLine
10
-86.3
20
19.65
30
0
11
-83.125002
21
20.067997
31
0
39
0
210
0
220
0
230
1
0
LINE
5
138
100
AcDbEntity
8
SK2
62
256
6
ByLayer
370
-1
48
1
60
0
100
AcDbLine
10
-86.3
20
19.65
30
0
11
-83.124998
21
19.232003
31
0
39
0
210
0
220
0
230
1
0
LINE
5
139
100
AcDbEntity
8
SK2
62
256
6
ByLayer
370
-1
48
1
60
0
100
AcDbLine
10
-83.125002
20
20.067997
30
0
11
-83.124998
21
19.232003
31
0
39
0
210
0
220
0
230
1
0
ENDBLK
5
13B
100
AcDbEntity
8
0
100
AcDbBlockEnd
0
BLOCK
5
148
100
AcDbEntity
8
0
100
AcDbBlockBegin
2
DimnDraft3D4
70
0
10
0
20
0
30
0
3
DimnDraft3D4
0
MTEXT
5
13E
100
AcDbEntity
8
2
62
256
6
ByLayer
370
-1
48
1
60
0
100
AcDbMText
10
67.310642
20
-36.834311
30
0
210
0
220
0
230
1
1
\W01.000;\fsimplex.shx,bigfont.shx;93%%d0' 
40
4.5
41
0
44
1.084337
50
43.5
71
7
72
5
7
DEFAULT
0
LINE
5
13F
100
AcDbEntity
8
2
62
256
6
ByLayer
370
-1
48
1
60
0
100
AcDbLine
10
39.478976
20
-2.087666
30
0
11
37.027776
21
-48.859355
31
0
39
0
210
0
220
0
230
1
0
LINE
5
140
100
AcDbEntity
8
2
62
256
6
ByLayer
370
-1
48
1
60
0
100
AcDbLine
10
41.95
20
0
30
0
11
88.514793
21
0
31
0
39
0
210
0
220
0
230
1
0
ARC
5
141
100
AcDbEntity
8
2
62
256
6
ByLayer
370
-1
48
1
60
0
100
AcDbCircle
39
0
10
39.588386
20
0
30
0
40
46.9264068782928
210
0
220
0
230
1
100
AcDbArc
50
267
51
0
0
LINE
5
142
100
AcDbEntity
8
2
62
256
6
ByLayer
370
-1
48
1
60
0
100
AcDbLine
10
37.132448
20
-46.862096
30
0
11
40.320267
21
-46.556897
31
0
39
0
210
0
220
0
230
1
0
LINE
5
143
100
AcDbEntity
8
2
62
256
6
ByLayer
370
-1
48
1
60
0
100
AcDbLine
10
37.132448
20
-46.862096
30
0
11
40.290639
21
-47.392365
31
0
39
0
210
0
220
0
230
1
0
LINE
5
144
100
AcDbEntity
8
2
62
256
6
ByLayer
370
-1
48
1
60
0
100
AcDbLine
10
40.320267
20
-46.556897
30
0
11
40.290639
21
-47.392365
31
0
39
0
210
0
220
0
230
1
0
LINE
5
145
100
AcDbEntity
8
2
62
256
6
ByLayer
370
-1
48
1
60
0
100
AcDbLine
10
86.514793
20
0
30
0
11
86.879049
21
-3.181612
31
0
39
0
210
0
220
0
230
1
0
LINE
5
146
100
AcDbEntity
8
2
62
256
6
ByLayer
370
-1
48
1
60
0
100
AcDbLine
10
86.514793
20
0
30
0
11
86.043175
21
-3.16748
31
0
39
0
210
0
220
0
230
1
0
LINE
5
147
100
AcDbEntity
8
2
62
256
6
ByLayer
370
-1
48
1
60
0
100
AcDbLine
10
86.879049
20
-3.181612
30
0
11
86.043175
21
-3.16748
31
0
39
0
210
0
220
0
230
1
0
ENDBLK
5
149
100
AcDbEntity
8
0
100
AcDbBlockEnd
0
ENDSEC
0
SECTION
2
ENTITIES
0
ELLIPSE
5
94
100
AcDbEntity
8
1
62
256
6
ByLayer
370
-1
48
1
60
0
100
AcDbEllipse
10
29.590998
20
4.691202
30
0
11
7.44929772347888
21
-27.4689425811976
31
-7.15659868173152E-15
210
-4.93038065763132E-32
220
2.60534189132937E-16
230
-1
40
0.149101
41
1.35915116633617
42
1.51919104240701
0
ELLIPSE
5
95
100
AcDbEntity
8
1
62
256
6
ByLayer
370
-1
48
1
60
0
100
AcDbEllipse
10
34.569713
20
0
30
0
11
0.283295621543844
21
4.99374998993314
31
0
210
0
220
0
230
-1
40
0.000683
41
3.14147292262289
42
-2.80395150231324
0
ELLIPSE
5
96
100
AcDbEntity
8
1
62
256
6
ByLayer
370
-1
48
1
60
0
100
AcDbEllipse
10
143.631288
20
0.002019
30
0
11
599.729751336263
21
-0.769785476920905
31
0
210
0
220
0
230
-1
40
0.008104
41
1.7509171000489
42
1.75394073255011
0
ELLIPSE
5
97
100
AcDbEntity
8
1
62
256
6
ByLayer
370
-1
48
1
60
0
100
AcDbEllipse
10
-118.942232
20
0.001792
30
0
11
608.854132904505
21
-0.782309473174315
31
0
210
0
220
0
230
-1
40
0.008104
41
1.31638050865792
42
1.3197787518927
0
ELLIPSE
5
98
100
AcDbEntity
8
1
62
256
6
ByLayer
370
-1
48
1
60
0
100
AcDbEllipse
10
32.566496
20
0
30
0
11
0.283295622305855
21
4.99375000334375
31
0
210
0
220
0
230
-1
40
0.000683
41
3.04776830524078
42
-2.80060586648946
0
ELLIPSE
5
99
100
AcDbEntity
8
1
62
256
6
ByLayer
370
-1
48
1
60
0
100
AcDbEllipse
10
32.72667
20
6.919503
30
0
11
-4.1942440459692
21
0.219811016220294
31
0
210
0
220
0
230
1
40
0.98764
41
0.837758040957282
42
1.78322636193377
0
ELLIPSE
5
9A
100
AcDbEntity
8
1
62
256
6
ByLayer
370
-1
48
1
60
0
100
AcDbEllipse
10
43.255786
20
0.789153
30
0
11
-4.19424404596922
21
0.219811016220295
31
0
210
0
220
0
230
1
40
0.98764
41
0.391542433397313
42
0.439975954790899
0
ELLIPSE
5
9B
100
AcDbEntity
8
1
62
256
6
ByLayer
370
-1
48
1
60
0
100
AcDbEllipse
10
29.531226
20
4.911611
30
0
11
5.98816591663379
21
-5.95130378101612
31
0
210
0
220
0
230
-1
40
0.058792
41
1.5182359647366
42
1.56183699678141
0
ELLIPSE
5
9C
100
AcDbEntity
8
1
62
256
6
ByLayer
370
-1
48
1
60
0
100
AcDbEllipse
10
143.462534
20
0.001817
30
0
11
620.981637915188
21
-0.797309824263611
31
0
210
0
220
0
230
-1
40
0.008103
41
1.73955577710378
42
1.74387474262344
0
ELLIPSE
5
9D
100
AcDbEntity
8
1
62
256
6
ByLayer
370
-1
48
1
60
0
100
AcDbEllipse
10
33.610341
20
-2.796557
30
0
11
1.19835544170549
21
-0.0628031474915312
31
0
210
0
220
0
230
1
40
0.98764
41
2.18166156499293
42
3.1372293304598
0
ELLIPSE
5
9E
100
AcDbEntity
8
1
62
256
6
ByLayer
370
-1
48
1
60
0
100
AcDbEllipse
10
33.628004
20
-2.459541
30
0
11
-1.19835544170549
21
0.0628031474915129
31
0
210
0
220
0
230
1
40
0.98764
41
-0.959931088596839
42
-0.00436332312998535
0
ELLIPSE
5
9F
100
AcDbEntity
8
1
62
256
6
ByLayer
370
-1
48
1
60
0
100
AcDbEllipse
10
39.202535
20
-0.181893
30
0
11
0.396331096605722
21
-0.0207708326339179
31
0
210
0
220
0
230
1
40
0.98764
41
-0.959931088596704
42
1.0812767434483E-13
0
ELLIPSE
5
A0
100
AcDbEntity
8
1
62
256
6
ByLayer
370
-1
48
1
60
0
100
AcDbEllipse
10
33.803405
20
2.961634
30
0
11
0.396331096605722
21
-0.0207708326339179
31
0
210
0
220
0
230
1
40
0.98764
41
2.181661564993
42
-3.14159265358979
0
ELLIPSE
5
A1
100
AcDbEntity
8
1
62
256
6
ByLayer
370
-1
48
1
60
0
100
AcDbEllipse
10
36.496602
20
1.26835
30
0
11
1.82225885974135
21
-0.0955005401178888
31
0
210
0
220
0
230
1
40
0.98764
41
-0.849973828164279
42
-2.46414288002193E-16
0
ELLIPSE
5
A2
100
AcDbEntity
8
1
62
256
6
ByLayer
370
-1
48
1
60
0
100
AcDbEllipse
10
36.496602
20
1.26835
30
0
11
1.82225885974135
21
-0.0955005401178888
31
0
210
0
220
0
230
1
40
0.98764
41
0
42
0.0530138707418831
0
ELLIPSE
5
A3
100
AcDbEntity
8
1
62
256
6
ByLayer
370
-1
48
1
60
0
100
AcDbEllipse
10
36.496602
20
1.26835
30
0
11
1.82225885974135
21
-0.0955005401178888
31
0
210
0
220
0
230
1
40
0.98764
41
0.0530139911458173
42
-2.29157193291001
0
ELLIPSE
5
A4
100
AcDbEntity
8
1
62
256
6
ByLayer
370
-1
48
1
60
0
100
AcDbEllipse
10
36.497802
20
1.291259
30
0
11
1.87243037766483
21
-0.0981299179555176
31
0
210
0
220
0
230
1
40
0.98764
41
-0.432436686733108
42
-2.39811650587966E-16
0
ELLIPSE
5
A5
100
AcDbEntity
8
1
62
256
6
ByLayer
370
-1
48
1
60
0
100
AcDbEllipse
10
36.497802
20
1.291259
30
0
11
1.87243037766483
21
-0.0981299179555176
31
0
210
0
220
0
230
1
40
0.98764
41
0
42
0.0530141154278818
0
ELLIPSE
5
A6
100
AcDbEntity
8
1
62
256
6
ByLayer
370
-1
48
1
60
0
100
AcDbEllipse
10
36.497802
20
1.291259
30
0
11
1.87243037766483
21
-0.0981299179555176
31
0
210
0
220
0
230
1
40
0.98764
41
0.0530140807295405
42
-2.70920771066342
0
ELLIPSE
5
A7
100
AcDbEntity
8
1
62
256
6
ByLayer
370
-1
48
1
60
0
100
AcDbEllipse
10
36.50297
20
1.389871
30
0
11
1.91642389486198
21
-0.10043552049467
31
0
210
0
220
0
230
1
40
0.98764
41
0
42
6.28318530717959
0
ELLIPSE
5
A8
100
AcDbEntity
8
1
62
256
6
ByLayer
370
-1
48
1
60
0
100
AcDbEllipse
10
35.644509
20
1.234611
30
0
11
-0.184746463929596
21
0.00968215190494155
31
0
210
0
220
0
230
1
40
0.98764
41
-1.25705174419038
42
-0.438376563795953
0
ELLIPSE
5
A9
100
AcDbEntity
8
1
62
256
6
ByLayer
370
-1
48
1
60
0
100
AcDbEllipse
10
35.487276
20
1.813867
30
0
11
-0.421421663666431
21
0.0220857735345154
31
0
210
0
220
0
230
1
40
0.98764
41
1.88454090939941
42
2.59471378697473
0
ELLIPSE
5
AA
100
AcDbEntity
8
1
62
256
6
ByLayer
370
-1
48
1
60
0
100
AcDbEllipse
10
36.076069
20
1.958764
30
0
11
-0.184746463929596
21
0.00968215190494155
31
0
210
0
220
0
230
1
40
0.98764
41
-2.30249181317763
42
-0.465051074566786
0
ELLIPSE
5
AB
100
AcDbEntity
8
1
62
256
6
ByLayer
370
-1
48
1
60
0
100
AcDbEllipse
10
36.504414
20
2.382979
30
0
11
-0.421421663666431
21
0.0220857735345154
31
0
210
0
220
0
230
1
40
0.98764
41
0.839100840412383
42
1.61400056826475
0
ELLIPSE
5
AC
100
AcDbEntity
8
1
62
256
6
ByLayer
370
-1
48
1
60
0
100
AcDbEllipse
10
36.925378
20
1.950535
30
0
11
-0.184746463929596
21
0.00968215190494155
31
0
210
0
220
0
230
1
40
0.98764
41
-2.63164879370281
42
-0.752692357472561
0
ELLIPSE
5
AD
100
AcDbEntity
8
1
62
256
6
ByLayer
370
-1
48
1
60
0
100
AcDbEllipse
10
37.51212
20
1.796264
30
0
11
-0.421421663666431
21
0.0220857735345154
31
0
210
0
220
0
230
1
40
0.98764
41
1.12983382842864E-05
42
0.567660996728075
0
ELLIPSE
5
AE
100
AcDbEntity
8
1
62
256
6
ByLayer
370
-1
48
1
60
0
100
AcDbEllipse
10
37.344408
20
1.220301
30
0
11
-0.184746463929596
21
0.00968215190494155
31
0
210
0
220
0
230
1
40
0.98764
41
-2.69658633304368
42
-1.79903192900931
0
ELLIPSE
5
AF
100
AcDbEntity
8
1
62
256
6
ByLayer
370
-1
48
1
60
0
100
AcDbEllipse
10
36.494458
20
1.227456
30
0
11
-0.746974891996414
21
0.0391472952697093
31
0
210
0
220
0
230
1
40
0.98764
41
2.01177363414682
42
2.53485158339813
0
ELLIPSE
5
B0
100
AcDbEntity
8
1
62
256
6
ByLayer
370
-1
48
1
60
0
100
AcDbEllipse
10
36.501302
20
1.358046
30
0
11
0.746974891996417
21
-0.0391472952697208
31
0
210
0
220
0
230
1
40
0.98764
41
2.62389575737401
42
2.69935846120864
0
ELLIPSE
5
B1
100
AcDbEntity
8
1
62
256
6
ByLayer
370
-1
48
1
60
0
100
AcDbEllipse
10
36.502662
20
1.383982
30
0
11
1.03358156847098
21
-0.0541677147114454
31
0
210
0
220
0
230
1
40
0.98764
41
-2.05076187109334
42
-1.00442229955657
0
ELLIPSE
5
B2
100
AcDbEntity
8
1
62
256
6
ByLayer
370
-1
48
1
60
0
100
AcDbEllipse
10
37.501641
20
0.641046
30
0
11
-0.421421663666431
21
0.0220857735345154
31
0
210
0
220
0
230
1
40
0.98764
41
-9.10754522778929E-06
42
0.213365603309391
0
ELLIPSE
5
B3
100
AcDbEntity
8
1
62
256
6
ByLayer
370
-1
48
1
60
0
100
AcDbEllipse
10
36.502662
20
1.383982
30
0
11
1.03358156847098
21
-0.0541677147114454
31
0
210
0
220
0
230
1
40
0.98764
41
-3.09710144263007
42
-2.05076187109334
0
ELLIPSE
5
B4
100
AcDbEntity
8
1
62
256
6
ByLayer
370
-1
48
1
60
0
100
AcDbEllipse
10
36.494458
20
1.227456
30
0
11
-0.746974891996414
21
0.0391472952697093
31
0
210
0
220
0
230
1
40
0.98764
41
0.715635740907628
42
1.23511077723502
0
ELLIPSE
5
B5
100
AcDbEntity
8
1
62
256
6
ByLayer
370
-1
48
1
60
0
100
AcDbEllipse
10
36.501302
20
1.358046
30
0
11
0.746974891996417
21
-0.0391472952697208
31
0
210
0
220
0
230
1
40
0.98764
41
-0.51769689621523
42
-0.442234192381607
0
ELLIPSE
5
B6
100
AcDbEntity
8
1
62
256
6
ByLayer
370
-1
48
1
60
0
100
AcDbEllipse
10
36.494458
20
1.227456
30
0
11
0.746974891996417
21
-0.0391472952697208
31
0
210
0
220
0
230
1
40
0.98764
41
0.567660996728144
42
1.61400056826477
0
ELLIPSE
5
B7
100
AcDbEntity
8
1
62
256
6
ByLayer
370
-1
48
1
60
0
100
AcDbEllipse
10
36.494458
20
1.227456
30
0
11
-0.746974891996414
21
0.0391472952697093
31
0
210
0
220
0
230
1
40
0.98764
41
-1.52759208532504
42
-0.517696896215763
0
ELLIPSE
5
B8
100
AcDbEntity
8
1
62
256
6
ByLayer
370
-1
48
1
60
0
100
AcDbEllipse
10
36.502662
20
1.383982
30
0
11
1.03358156847098
21
-0.0541677147114454
31
0
210
0
220
0
230
1
40
0.98764
41
-1.00442229955657
42
0.0444912109597985
0
ELLIPSE
5
B9
100
AcDbEntity
8
1
62
256
6
ByLayer
370
-1
48
1
60
0
100
AcDbEllipse
10
36.504414
20
2.382979
30
0
11
-0.421421663666431
21
0.0220857735345154
31
0
210
0
220
0
230
1
40
0.98764
41
1.61400056826475
42
2.38890029611719
0
ELLIPSE
5
BA
100
AcDbEntity
8
1
62
256
6
ByLayer
370
-1
48
1
60
0
100
AcDbEllipse
10
36.502662
20
1.383982
30
0
11
1.03358156847098
21
-0.0541677147114454
31
0
210
0
220
0
230
1
40
0.98764
41
2.13717035403311
42
-3.09710144263007
0
ELLIPSE
5
BB
100
AcDbEntity
8
1
62
256
6
ByLayer
370
-1
48
1
60
0
100
AcDbEllipse
10
36.494458
20
1.227456
30
0
11
0.746974891996417
21
-0.0391472952697208
31
0
210
0
220
0
230
1
40
0.98764
41
2.62389575737406
42
2.6993584612086
0
ELLIPSE
5
BC
100
AcDbEntity
8
1
62
256
6
ByLayer
370
-1
48
1
60
0
100
AcDbEllipse
10
36.502662
20
1.383982
30
0
11
1.03358156847098
21
-0.0541677147114454
31
0
210
0
220
0
230
1
40
0.98764
41
0.0444912109597985
42
1.09083078249645
0
ELLIPSE
5
BD
100
AcDbEntity
8
1
62
256
6
ByLayer
370
-1
48
1
60
0
100
AcDbEllipse
10
35.487276
20
1.813867
30
0
11
-0.421421663666431
21
0.0220857735345154
31
0
210
0
220
0
230
1
40
0.98764
41
2.72854043160786
42
3.14158393607588
0
ELLIPSE
5
BE
100
AcDbEntity
8
1
62
256
6
ByLayer
370
-1
48
1
60
0
100
AcDbEllipse
10
36.494458
20
1.227456
30
0
11
-0.746974891996414
21
0.0391472952697093
31
0
210
0
220
0
230
1
40
0.98764
41
-0.442234192381198
42
0.239728495414341
0
ELLIPSE
5
BF
100
AcDbEntity
8
1
62
256
6
ByLayer
370
-1
48
1
60
0
100
AcDbEllipse
10
36.502662
20
1.383982
30
0
11
1.03358156847098
21
-0.0541677147114454
31
0
210
0
220
0
230
1
40
0.98764
41
1.09083078249645
42
2.13717035403311
0
ELLIPSE
5
C0
100
AcDbEntity
8
1
62
256
6
ByLayer
370
-1
48
1
60
0
100
AcDbEllipse
10
36.494458
20
1.227456
30
0
11
-0.746974891996414
21
0.0391472952697093
31
0
210
0
220
0
230
1
40
0.98764
41
2.96857487083932
42
-2.57393165686168
0
ELLIPSE
5
C1
100
AcDbEntity
8
1
62
256
6
ByLayer
370
-1
48
1
60
0
100
AcDbEllipse
10
37.51212
20
1.796264
30
0
11
-0.421421663666431
21
0.0220857735345154
31
0
210
0
220
0
230
1
40
0.98764
41
0.567660996728075
42
1.34256072458056
0
ELLIPSE
5
C2
100
AcDbEntity
8
1
62
256
6
ByLayer
370
-1
48
1
60
0
100
AcDbEllipse
10
36.501235
20
1.356758
30
0
11
1.72263594745164
21
-0.090279524519076
31
0
210
0
220
0
230
1
40
0.98764
41
0
42
6.28318530717959
0
ELLIPSE
5
C3
100
AcDbEntity
8
1
62
256
6
ByLayer
370
-1
48
1
60
0
100
AcDbEllipse
10
36.495279
20
1.243109
30
0
11
1.72263594745164
21
-0.090279524519076
31
0
210
0
220
0
230
1
40
0.98764
41
3.14151802122843
42
-2.60664837595616E-16
0
ELLIPSE
5
C4
100
AcDbEntity
8
1
62
256
6
ByLayer
370
-1
48
1
60
0
100
AcDbEllipse
10
36.502662
20
1.383982
30
0
11
1.29821839518095
21
-0.0680367431158256
31
0
210
0
220
0
230
1
40
0.98764
41
0
42
6.28318530717959
0
ELLIPSE
5
C5
100
AcDbEntity
8
1
62
256
6
ByLayer
370
-1
48
1
60
0
100
AcDbEllipse
10
39.553138
20
6.508017
30
0
11
0.396331096605761
21
-0.0207708326339199
31
0
210
0
220
0
230
1
40
0.98764
41
0
42
2.18166156499291
0
ELLIPSE
5
C6
100
AcDbEntity
8
1
62
256
6
ByLayer
370
-1
48
1
60
0
100
AcDbEllipse
10
33.452802
20
-3.728275
30
0
11
0.396331096605761
21
-0.0207708326339199
31
0
210
0
220
0
230
1
40
0.98764
41
-3.14159265358963
42
-0.95993108859675
0
POINT
5
41
100
AcDbEntity
8
80
62
256
6
ByLayer
370
-1
48
1
60
0
100
AcDbPoint
10
0
20
0
30
0
39
0
210
0
220
0
230
1
50
360
0
POINT
5
43
100
AcDbEntity
8
81
62
256
6
ByLayer
370
-1
48
1
60
0
100
AcDbPoint
10
39.95
20
6.9
30
0
39
0
210
0
220
0
230
1
50
360
0
POINT
5
45
100
AcDbEntity
8
1
62
256
6
ByLayer
370
-1
48
1
60
0
100
AcDbPoint
10
-86.3
20
0
30
0
39
0
210
0
220
0
230
1
50
360
0
POINT
5
47
100
AcDbEntity
8
2
62
256
6
ByLayer
370
-1
48
1
60
0
100
AcDbPoint
10
39.95
20
6.9
30
0
39
0
210
0
220
0
230
1
50
360
0
POINT
5
49
100
AcDbEntity
8
2
62
256
6
ByLayer
370
-1
48
1
60
0
100
AcDbPoint
10
39.711096
20
5.760284
30
0
39
0
210
0
220
0
230
1
50
360
0
SPLINE
5
C7
100
AcDbEntity
8
1
62
256
6
ByLayer
370
-1
48
1
60
0
100
AcDbSpline
70
4
71
3
72
8
73
4
40
0
40
0
40
0
40
0
40
1
40
1
40
1
40
1
41
1
10
36.5134557216044
20
-4.81748644164082
30
0
41
1
10
36.5131902176077
20
-5.00050049897601
30
0
41
1
10
36.5129521541143
20
-5.09275
30
0
41
1
10
36.5127419864239
20
-5.09275
30
0
0
SPLINE
5
C8
100
AcDbEntity
8
1
62
256
6
ByLayer
370
-1
48
1
60
0
100
AcDbSpline
70
4
71
3
72
48
73
44
40
-0.0443381438044695
40
-0.0443381438044695
40
0
40
0
40
0.0649498089788473
40
0.0649498089788473
40
0.112758658661807
40
0.112758658661807
40
0.161140179974022
40
0.161140179974022
40
0.202317066527905
40
0.202317066527905
40
0.239874148200592
40
0.239874148200592
40
0.277704043272182
40
0.277704043272182
40
0.31748387423837
40
0.31748387423837
40
0.360317465817796
40
0.360317465817796
40
0.407665263430876
40
0.407665263430876
40
0.461955493984401
40
0.461955493984401
40
0.541967706698721
40
0.541967706698721
40
0.62306834519219
40
0.62306834519219
40
0.668573514853804
40
0.668573514853804
40
0.702828943285537
40
0.702828943285537
40
0.72325532749904
40
0.72325532749904
40
0.743987356834597
40
0.743987356834597
40
0.761676873423516
40
0.761676873423516
40
0.791069592214367
40
0.791069592214367
40
0.849654584436914
40
0.849654584436914
40
0.95566185619553
40
0.95566185619553
40
1
40
1
40
1.06494980897885
40
1.06494980897885
41
1
10
27.7252111484328
20
0.933499033824859
30
0
41
1
10
27.5343581751018
20
0.852483888715568
30
0
41
1
10
27.4174009851506
20
0.825358243736162
30
0
41
1
10
27.2181455908989
20
0.834027806585937
30
0
41
1
10
27.1329487823718
20
0.855648310536822
30
0
41
1
10
26.9707558563954
20
0.941038641332881
30
0
41
1
10
26.8913120074525
20
1.00709675373818
30
0
41
1
10
26.7608580152825
20
1.16328265915672
30
0
41
1
10
26.7054188048748
20
1.25059618936854
30
0
41
1
10
26.6158789186803
20
1.43017818162986
30
0
41
1
10
26.5790620651782
20
1.52367698282367
30
0
41
1
10
26.5213926603494
20
1.71090927779378
30
0
41
1
10
26.4998789055789
20
1.80705622728945
30
0
41
1
10
26.4737685649656
20
1.99433661725104
30
0
41
1
10
26.4697776554203
20
2.08735830153816
30
0
41
1
10
26.4820944771448
20
2.26244934349967
30
0
41
1
10
26.5001579558777
20
2.34535033332554
30
0
41
1
10
26.5608381782391
20
2.4954905378577
30
0
41
1
10
26.6065437510379
20
2.56207257050096
30
0
41
1
10
26.7278081882553
20
2.67658510898821
30
0
41
1
10
26.8080596525655
20
2.72188903348547
30
0
41
1
10
27.0305067462007
20
2.79911524132149
30
0
41
1
10
27.1876419613449
20
2.81670593539423
30
0
41
1
10
27.5249561053037
20
2.80858756680223
30
0
41
1
10
27.709973455848
20
2.78294571508559
30
0
41
1
10
28.0017336294484
20
2.70538977437622
30
0
41
1
10
28.108971116008
20
2.66942613566113
30
0
41
1
10
28.2904553369311
20
2.58406922048025
30
0
41
1
10
28.3678138475571
20
2.53951521341401
30
0
41
1
10
28.4763855295888
20
2.44842089527833
30
0
41
1
10
28.5141524640376
20
2.40901740278736
30
0
41
1
10
28.5748236755505
20
2.32034913749743
30
0
41
1
10
28.5979337245582
20
2.26951977249999
30
0
41
1
10
28.6213070823919
20
2.17324401411494
30
0
41
1
10
28.6248988912319
20
2.12711166306335
30
0
41
1
10
28.6194981652608
20
2.00837198000875
30
0
41
1
10
28.6013739084266
20
1.93615784489461
30
0
41
1
10
28.5277969875183
20
1.73511937574113
30
0
41
1
10
28.4530958897843
20
1.61469038634169
30
0
41
1
10
28.2272006508478
20
1.31146157808425
30
0
41
1
10
28.0546980059482
20
1.14760974670799
30
0
41
1
10
27.802191773243
20
0.976684051847229
30
0
41
1
10
27.7252111484328
20
0.933499033824859
30
0
41
1
10
27.5343581751018
20
0.852483888715568
30
0
0
SPLINE
5
C9
100
AcDbEntity
8
1
62
256
6
ByLayer
370
-1
48
1
60
0
100
AcDbSpline
70
4
71
3
72
8
73
4
40
0
40
0
40
0
40
0
40
1
40
1
40
1
40
1
41
1
10
25.8850680124705
20
2.16507253054013
30
0
41
1
10
25.6290793221796
20
3.17305727773754
30
0
41
1
10
25.4460861577618
20
4.05308996153181
30
0
41
1
10
25.8836290355433
20
4.50624999999999
30
0
0
SPLINE
5
CA
100
AcDbEntity
8
1
62
256
6
ByLayer
370
-1
48
1
60
0
100
AcDbSpline
70
4
71
3
72
10
73
6
40
0
40
0
40
0
40
0
40
0.5
40
0.5
40
1
40
1
40
1
40
1
41
1
10
31.9242440410559
20
-4.70512572022542
30
0
41
1
10
30.8159944681719
20
-4.70202711316549
30
0
41
1
10
29.7445413609943
20
-4.58649084971864
30
0
41
1
10
28.0836752398319
20
-3.80233296729992
30
0
41
1
10
27.5340325279603
20
-3.09164205403209
30
0
41
1
10
27.1516143247718
20
-2.16507253054038
30
0
0
SPLINE
5
CB
100
AcDbEntity
8
1
62
256
6
ByLayer
370
-1
48
1
60
0
100
AcDbSpline
70
4
71
2
72
6
73
3
40
0
40
0
40
0
40
1
40
1
40
1
41
0.499987079741788
10
32.2983711617778
20
-4.7061707793557
30
0
41
0.500012920258212
10
32.1112967095296
20
-4.70564870957123
30
0
41
0.499987079741788
10
31.924244041056
20
-4.70512572022543
30
0
0
SPLINE
5
CC
100
AcDbEntity
8
1
62
256
6
ByLayer
370
-1
48
1
60
0
100
AcDbSpline
70
4
71
3
72
8
73
4
40
0
40
0
40
0
40
0
40
1
40
1
40
1
40
1
41
1
10
34.3259996215941
20
-4.71180052026409
30
0
41
1
10
34.3510025592619
20
-4.68676722397248
30
0
41
1
10
34.3760026051471
20
-4.66173110952852
30
0
41
1
10
34.4009996215942
20
-4.63669204484572
30
0
0
SPLINE
5
CD
100
AcDbEntity
8
1
62
256
6
ByLayer
370
-1
48
1
60
0
100
AcDbSpline
70
4
71
3
72
8
73
4
40
0
40
0
40
0
40
0
40
1
40
1
40
1
40
1
41
1
10
36.5134557216044
20
-4.81748644164082
30
0
41
1
10
36.4037973034818
20
-4.7588987050535
30
0
41
1
10
36.2941542323539
20
-4.70028288691452
30
0
41
1
10
36.1845282733845
20
-4.64163581910481
30
0
0
SPLINE
5
CE
100
AcDbEntity
8
SK1
62
256
6
ByLayer
370
-1
48
1
60
0
100
AcDbSpline
70
4
71
3
72
10
73
6
40
0
40
0
40
0
40
0
40
0.5
40
0.5
40
1
40
1
40
1
40
1
41
1
10
-85.3000000000002
20
2.16507253054036
30
0
41
1
10
-85.5951148187382
20
1.48438880965591
30
0
41
1
10
-85.7936931348086
20
0.753297629610387
30
0
41
1
10
-85.7938068395366
20
-0.752618081247988
30
0
41
1
10
-85.5930579130502
20
-1.48913307232292
30
0
41
1
10
-85.3
20
-2.16507253054027
30
0
0
SPLINE
5
CF
100
AcDbEntity
8
1
62
256
6
ByLayer
370
-1
48
1
60
0
100
AcDbSpline
70
4
71
3
72
24
73
20
40
0
40
0
40
0
40
0
40
0.0757090495185444
40
0.0757090495185444
40
0.20379311805292
40
0.20379311805292
40
0.331877186587872
40
0.331877186587872
40
0.459961255125065
40
0.459961255125065
40
0.588045323668135
40
0.588045323668135
40
0.716129392230231
40
0.716129392230231
40
0.84421346089837
40
0.84421346089837
40
0.972297535666169
40
0.972297535666169
40
1
40
1
40
1
40
1
41
1
10
33.3352876048753
20
-4.15237315626737
30
0
41
1
10
33.3389218584051
20
-4.15564806191173
30
0
41
1
10
33.3427197468989
20
-4.15874846629839
30
0
41
1
10
33.353311677397
20
-4.16656173779089
30
0
41
1
10
33.3604065165617
20
-4.17093999511573
30
0
41
1
10
33.3751797889676
20
-4.17845152941027
30
0
41
1
10
33.3829088911236
20
-4.181610569209
30
0
41
1
10
33.398733903725
20
-4.18660517057714
30
0
41
1
10
33.4068840903116
20
-4.18845786247653
30
0
41
1
10
33.4233243689434
20
-4.19079777340087
30
0
41
1
10
33.4316708473506
20
-4.1912930177802
30
0
41
1
10
33.4482729480189
20
-4.19091370051564
30
0
41
1
10
33.4565855116553
20
-4.19003783790046
30
0
41
1
10
33.4728915270994
20
-4.18694975451237
30
0
41
1
10
33.4809409047882
20
-4.18472694231914
30
0
41
1
10
33.4965010943948
20
-4.17901526605519
30
0
41
1
10
33.5040652758526
20
-4.17550681097998
30
0
41
1
10
33.5128135089767
20
-4.17053359217908
30
0
41
1
10
33.5143529968237
20
-4.16962167608457
30
0
41
1
10
33.5158756876296
20
-4.16868246144978
30
0
0
SPLINE
5
D0
100
AcDbEntity
8
1
62
256
6
ByLayer
370
-1
48
1
60
0
100
AcDbSpline
70
4
71
3
72
18
73
14
40
0
40
0
40
0
40
0
40
0.19984117737259
40
0.19984117737259
40
0.377835500426486
40
0.377835500426486
40
0.557626061503334
40
0.557626061503334
40
0.713042594418408
40
0.713042594418408
40
0.916902100306241
40
0.916902100306241
40
1
40
1
40
1
40
1
41
1
10
36.2142648908157
20
2.23394457229241
30
0
41
1
10
36.2428606011968
20
2.20233226734518
30
0
41
1
10
36.2765403292106
20
2.17418051572992
30
0
41
1
10
36.3476676892828
20
2.13196083225273
30
0
41
1
10
36.3851762113754
20
2.1163099979843
30
0
41
1
10
36.4637928994889
20
2.0976226813514
30
0
41
1
10
36.5061439502365
20
2.09458486651732
30
0
41
1
10
36.5822607189408
20
2.10184226240381
30
0
41
1
10
36.6173255917191
20
2.11040834390002
30
0
41
1
10
36.6921490224465
20
2.13945962849505
30
0
41
1
10
36.7312985428677
20
2.16315535362284
30
0
41
1
10
36.7791542827345
20
2.20278562116482
30
0
41
1
10
36.7923561494698
20
2.21517183271772
30
0
41
1
10
36.8047235466228
20
2.22822344053731
30
0
0
SPLINE
5
D1
100
AcDbEntity
8
1
62
256
6
ByLayer
370
-1
48
1
60
0
100
AcDbSpline
70
4
71
3
72
18
73
14
40
0
40
0
40
0
40
0
40
0.0430106242429129
40
0.0430106242429129
40
0.268047205457127
40
0.268047205457127
40
0.494711519839488
40
0.494711519839488
40
0.73484085620051
40
0.73484085620051
40
0.997799213726276
40
0.997799213726276
40
1
40
1
40
1
40
1
41
1
10
37.5375997073479
20
1.3752700864645
30
0
41
1
10
37.5376259101361
20
1.37885325520026
30
0
41
1
10
37.5375448607347
20
1.38243128788463
30
0
41
1
10
37.5363824039383
20
1.40446269939022
30
0
41
1
10
37.5324299454234
20
1.42276893804248
30
0
41
1
10
37.5193839245443
20
1.45626793735571
30
0
41
1
10
37.5101001540736
20
1.47187039715089
30
0
41
1
10
37.4871763820265
20
1.49938650865934
30
0
41
1
10
37.4730386172618
20
1.51138353783321
30
0
41
1
10
37.4410148366923
20
1.53073356739796
30
0
41
1
10
37.4225107307672
20
1.53779859593132
30
0
41
1
10
37.4034878136383
20
1.54166693451592
30
0
41
1
10
37.4033281293528
20
1.54169917499371
30
0
41
1
10
37.4031684040771
20
1.54173119241602
30
0
0
SPLINE
5
D2
100
AcDbEntity
8
1
62
256
6
ByLayer
370
-1
48
1
60
0
100
AcDbSpline
70
4
71
3
72
14
73
10
40
0
40
0
40
0
40
0
40
0.0382117660226189
40
0.0382117660226189
40
0.375876211202093
40
0.375876211202093
40
0.82026334271046
40
0.82026334271046
40
1
40
1
40
1
40
1
41
1
10
35.8713437949849
20
1.75715740567472
30
0
41
1
10
35.8731652774044
20
1.76077757361577
30
0
41
1
10
35.8749337193349
20
1.76442982781376
30
0
41
1
10
35.8916485490084
20
1.80032310689083
30
0
41
1
10
35.902511491758
20
1.8351061473322
30
0
41
1
10
35.9173735333929
20
1.91538199684686
30
0
41
1
10
35.9185204503275
20
1.96210951028317
30
0
41
1
10
35.911404585422
20
2.02483586435247
30
0
41
1
10
35.9083091197114
20
2.04281805831863
30
0
41
1
10
35.9042611383978
20
2.06043999556727
30
0
0
SPLINE
5
D3
100
AcDbEntity
8
1
62
256
6
ByLayer
370
-1
48
1
60
0
100
AcDbSpline
70
4
71
3
72
18
73
14
40
0
40
0
40
0
40
0
40
0.200820805238603
40
0.200820805238603
40
0.378639893712558
40
0.378639893712558
40
0.558243879458628
40
0.558243879458628
40
0.713620267861414
40
0.713620267861414
40
0.917648221716706
40
0.917648221716706
40
1
40
1
40
1
40
1
41
1
10
37.1118498142947
20
2.04940580780146
30
0
41
1
10
37.1012294203859
20
2.0071725201677
30
0
41
1
10
37.0960913291232
20
1.96239251395553
30
0
41
1
10
37.0989997073777
20
1.87768103384073
30
0
41
1
10
37.105743262995
20
1.83682284502334
30
0
41
1
10
37.1307809581311
20
1.75917676993581
30
0
41
1
10
37.1496852409057
20
1.72133612899421
30
0
41
1
10
37.1934297863817
20
1.66052896571347
30
0
41
1
10
37.217605626473
20
1.63547454202652
30
0
41
1
10
37.2776379604923
20
1.58801990270265
30
0
41
1
10
37.3157156017915
20
1.56794577747019
30
0
41
1
10
37.3706443731484
20
1.5493241772013
30
0
41
1
10
37.3868412817356
20
1.54500401426097
30
0
41
1
10
37.4031684040771
20
1.54173119241602
30
0
0
SPLINE
5
D4
100
AcDbEntity
8
1
62
256
6
ByLayer
370
-1
48
1
60
0
100
AcDbSpline
70
4
71
3
72
14
73
10
40
0
40
0
40
0
40
0
40
0.235589405978755
40
0.235589405978755
40
0.528922379796915
40
0.528922379796915
40
0.79419905372517
40
0.79419905372517
40
1
40
1
40
1
40
1
41
1
10
35.8923583543886
20
0.6972854666366
30
0
41
1
10
35.8879426070077
20
0.68196444014265
30
0
41
1
10
35.8858667987997
20
0.665541224385066
30
0
41
1
10
35.8872562997791
20
0.628216095129716
30
0
41
1
10
35.892291260234
20
0.606578726557245
30
0
41
1
10
35.9100884930825
20
0.567916556975035
30
0
41
1
10
35.9223740621268
20
0.550074403787676
30
0
41
1
10
35.9493082848915
20
0.522855373739048
30
0
41
1
10
35.9630916222295
20
0.512180748365381
30
0
41
1
10
35.9779531969568
20
0.50352791762046
30
0
0
SPLINE
5
D5
100
AcDbEntity
8
1
62
256
6
ByLayer
370
-1
48
1
60
0
100
AcDbSpline
70
4
71
3
72
16
73
12
40
0
40
0
40
0
40
0
40
0.0635522945997096
40
0.0635522945997096
40
0.288166192582148
40
0.288166192582148
40
0.515572402568963
40
0.515572402568963
40
0.757389640499353
40
0.757389640499353
40
1
40
1
40
1
40
1
41
1
10
35.4677233462795
20
1.39269445997576
30
0
41
1
10
35.4676847069225
20
1.38741062013784
30
0
41
1
10
35.4678778084008
20
1.38210149989192
30
0
41
1
10
35.469785578334
20
1.35820369584812
30
0
41
1
10
35.4742098585886
20
1.33943148770297
30
0
41
1
10
35.4880686223422
20
1.30427664024461
30
0
41
1
10
35.4977274723125
20
1.28747396715033
30
0
41
1
10
35.5213101372186
20
1.25691746524646
30
0
41
1
10
35.535745382288
20
1.24302959459382
30
0
41
1
10
35.5668130297826
20
1.22037476630922
30
0
41
1
10
35.5837718163159
20
1.21136294333275
30
0
41
1
10
35.6010397646064
20
1.20496008202196
30
0
0
SPLINE
5
D6
100
AcDbEntity
8
1
62
256
6
ByLayer
370
-1
48
1
60
0
100
AcDbSpline
70
4
71
3
72
18
73
14
40
0
40
0
40
0
40
0
40
0.212341590757131
40
0.212341590757131
40
0.388123644976091
40
0.388123644976091
40
0.565556121111486
40
0.565556121111486
40
0.720505070976798
40
0.720505070976798
40
0.926549200220624
40
0.926549200220624
40
1
40
1
40
1
40
1
41
1
10
36.7899432778646
20
0.512746702149059
30
0
41
1
10
36.7591918191984
20
0.539379797885829
30
0
41
1
10
36.7226738449034
20
0.56253830121841
30
0
41
1
10
36.6480756676666
20
0.59491916650228
30
0
41
1
10
36.6104591063381
20
0.606151961589916
30
0
41
1
10
36.5321712258724
20
0.619156548613432
30
0
41
1
10
36.4903028230925
20
0.620948928840562
30
0
41
1
10
36.4150902876821
20
0.614896091013463
30
0
41
1
10
36.3804357129503
20
0.608209966927035
30
0
41
1
10
36.3061324285318
20
0.585478781042099
30
0
41
1
10
36.2672610643542
20
0.56678808033422
30
0
41
1
10
36.2217370230114
20
0.536205276092204
30
0
41
1
10
36.2102847355745
20
0.527567652930827
30
0
41
1
10
36.1994846220604
20
0.518467833900218
30
0
0
SPLINE
5
D7
100
AcDbEntity
8
1
62
256
6
ByLayer
370
-1
48
1
60
0
100
AcDbSpline
70
4
71
3
72
18
73
14
40
0
40
0
40
0
40
0
40
0.0867972168787803
40
0.0867972168787803
40
0.287726902415972
40
0.287726902415972
40
0.451154234747277
40
0.451154234747277
40
0.615342802605182
40
0.615342802605182
40
0.769900658565152
40
0.769900658565152
40
1
40
1
40
1
40
1
41
1
10
35.8923583543889
20
0.697285466636487
30
0
41
1
10
35.8968197417889
20
0.712764847284205
30
0
41
1
10
35.9002481167865
20
0.728737281625939
30
0
41
1
10
35.9078622728286
20
0.782793893678672
30
0
41
1
10
35.9071778587857
20
0.823286087017095
30
0
41
1
10
35.8931117493486
20
0.89762953534759
30
0
41
1
10
35.8818702627482
20
0.932137583885009
30
0
41
1
10
35.8502049618185
20
0.998284482608
30
0
41
1
10
35.8292914836518
20
1.03075528959772
30
0
41
1
10
35.7827541138472
20
1.08693945189501
30
0
41
1
10
35.756983893456
20
1.11174168281826
30
0
41
1
10
35.6898064039559
20
1.16414959049874
30
0
41
1
10
35.6456432055101
20
1.18842136871987
30
0
41
1
10
35.6010397646064
20
1.20496008202196
30
0
0
SPLINE
5
D8
100
AcDbEntity
8
1
62
256
6
ByLayer
370
-1
48
1
60
0
100
AcDbSpline
70
4
71
3
72
14
73
10
40
0
40
0
40
0
40
0
40
0.0507559797248512
40
0.0507559797248512
40
0.387442652041058
40
0.387442652041058
40
0.834907952079335
40
0.834907952079335
40
1
40
1
40
1
40
1
41
1
10
37.1312607334188
20
0.958934589380277
30
0
41
1
10
37.1288476146135
20
0.954229712086004
30
0
41
1
10
37.1265293660491
20
0.949496813087819
30
0
41
1
10
37.1097065507617
20
0.913483614182809
30
0
41
1
10
37.0993153371423
20
0.881019142303984
30
0
41
1
10
37.0854769871281
20
0.807767493715289
30
0
41
1
10
37.0850483626469
20
0.766478305387267
30
0
41
1
10
37.0930675619191
20
0.713764709509547
30
0
41
1
10
37.0961034609511
20
0.699775175635438
30
0
41
1
10
37.0999415942636
20
0.686147553386803
30
0
0
SPLINE
5
D9
100
AcDbEntity
8
1
62
256
6
ByLayer
370
-1
48
1
60
0
100
AcDbSpline
70
4
71
3
72
14
73
10
40
0
40
0
40
0
40
0
40
0.281089732879745
40
0.281089732879745
40
0.56873279930226
40
0.56873279930226
40
0.829337526742648
40
0.829337526742648
40
1
40
1
40
1
40
1
41
1
10
36.2142648908157
20
2.23394457229244
30
0
41
1
10
36.1995404597578
20
2.25022230061413
30
0
41
1
10
36.1817879539702
20
2.26433324392454
30
0
41
1
10
36.1421173000083
20
2.28556248586082
30
0
41
1
10
36.1194779765525
20
2.29280164169364
30
0
41
1
10
36.0754411132135
20
2.2975934171003
30
0
41
1
10
36.0534606240155
20
2.2960264382574
30
0
41
1
10
36.0190475299567
20
2.28681264115724
30
0
41
1
10
36.0056668366082
20
2.28139787377472
30
0
41
1
10
35.993211233264
20
2.27445690319178
30
0
0
SPLINE
5
DA
100
AcDbEntity
8
1
62
256
6
ByLayer
370
-1
48
1
60
0
100
AcDbSpline
70
4
71
3
72
14
73
10
40
0
40
0
40
0
40
0
40
0.281738306237864
40
0.281738306237864
40
0.568739529433273
40
0.568739529433273
40
0.828743960554456
40
0.828743960554456
40
1
40
1
40
1
40
1
41
1
10
35.6042308873619
20
1.55699279203725
30
0
41
1
10
35.5840289318255
20
1.5533407352539
30
0
41
1
10
35.5641384871925
20
1.54593875295029
30
0
41
1
10
35.52819772637
20
1.52387864442935
30
0
41
1
10
35.5116919616008
20
1.50871132536034
30
0
41
1
10
35.487182963543
20
1.47427081014064
30
0
41
1
10
35.4781876843634
20
1.45497668307195
30
0
41
1
10
35.4696394060249
20
1.42111106812007
30
0
41
1
10
35.4678273476981
20
1.40691640573502
30
0
41
1
10
35.4677233462795
20
1.39269445997576
30
0
0
SPLINE
5
DB
100
AcDbEntity
8
1
62
256
6
ByLayer
370
-1
48
1
60
0
100
AcDbSpline
70
4
71
3
72
18
73
14
40
0
40
0
40
0
40
0
40
0.0353409152151596
40
0.0353409152151596
40
0.259928023885605
40
0.259928023885605
40
0.485705638206709
40
0.485705638206709
40
0.724558271449321
40
0.724558271449321
40
0.985913165253221
40
0.985913165253221
40
1
40
1
40
1
40
1
41
1
10
37.0121118203634
20
0.493507643248478
30
0
41
1
10
37.0147160757767
20
0.494958882479068
30
0
41
1
10
37.0172852295646
20
0.496467751501371
30
0
41
1
10
37.0357262086491
20
0.507868355861916
30
0
41
1
10
37.050225089041
20
0.520077082378606
30
0
41
1
10
37.0742513423924
20
0.547171556706274
30
0
41
1
10
37.0840697026504
20
0.562409072131345
30
0
41
1
10
37.0986056955909
20
0.594613973062053
30
0
41
1
10
37.1031954123852
20
0.612027410663444
30
0
41
1
10
37.1067439507122
20
0.647603368843221
30
0
41
1
10
37.1051985852828
20
0.6661271304813
30
0
41
1
10
37.1004577116891
20
0.684280984195652
30
0
41
1
10
37.1002039809539
20
0.68521592688856
30
0
41
1
10
37.0999415942636
20
0.686147553386832
30
0
0
SPLINE
5
DC
100
AcDbEntity
8
1
62
256
6
ByLayer
370
-1
48
1
60
0
100
AcDbSpline
70
4
71
3
72
16
73
12
40
0
40
0
40
0
40
0
40
0.0768195702620302
40
0.0768195702620302
40
0.392687391923477
40
0.392687391923477
40
0.6750578620475
40
0.6750578620475
40
0.924281684925772
40
0.924281684925772
40
1
40
1
40
1
40
1
41
1
10
37.111849814296
20
2.04940580780087
30
0
41
1
10
37.113346807054
20
2.05535878151127
30
0
41
1
10
37.114591784025
20
2.06140250407955
30
0
41
1
10
37.1195514154407
20
2.09233646581504
30
0
41
1
10
37.1190626582939
20
2.11875138044743
30
0
41
1
10
37.1085381625716
20
2.16655521278494
30
0
41
1
10
37.0993057408556
20
2.18891582127861
30
0
41
1
10
37.0748678048946
20
2.22583716860046
30
0
41
1
10
37.0601080964664
20
2.24152916514962
30
0
41
1
10
37.0382246826479
20
2.25771038818783
30
0
41
1
10
37.0328776726578
20
2.26122982197825
30
0
41
1
10
37.0273698566705
20
2.26443662881974
30
0
0
SPLINE
5
DD
100
AcDbEntity
8
1
62
256
6
ByLayer
370
-1
48
1
60
0
100
AcDbSpline
70
4
71
3
72
12
73
8
40
0
40
0
40
0
40
0
40
0.462454152809167
40
0.462454152809167
40
0.844193371372464
40
0.844193371372464
40
1
40
1
40
1
40
1
41
1
10
37.3999718452984
20
1.18959475691665
30
0
41
1
10
37.3579834252311
20
1.17507803973643
30
0
41
1
10
37.3163417310628
20
1.15393553262223
30
0
41
1
10
37.2462329810513
20
1.10411854149288
30
0
41
1
10
37.2159979845114
20
1.07677632483353
30
0
41
1
10
37.1792203593196
20
1.0336516424025
30
0
41
1
10
37.1691434032578
20
1.02050093453582
30
0
41
1
10
37.1598701180365
20
1.0069407975237
30
0
0
SPLINE
5
DE
100
AcDbEntity
8
1
62
256
6
ByLayer
370
-1
48
1
60
0
100
AcDbSpline
70
4
71
3
72
14
73
10
40
0
40
0
40
0
40
0
40
0.240352304342915
40
0.240352304342915
40
0.53309146875829
40
0.53309146875829
40
0.797867516795564
40
0.797867516795564
40
1
40
1
40
1
40
1
41
1
10
36.7899432778644
20
0.512746702148917
30
0
41
1
10
36.8026919439797
20
0.501705390292756
30
0
41
1
10
36.8176098865291
20
0.492140264810075
30
0
41
1
10
36.8539138817171
20
0.475899246837173
30
0
41
1
10
36.8766314408558
20
0.470090023548352
30
0
41
1
10
36.9212030368062
20
0.467049981201569
30
0
41
1
10
36.9436146170568
20
0.469044867043266
30
0
41
1
10
36.9812823619564
20
0.478865529422279
30
0
41
1
10
36.9973699726518
20
0.485292647276225
30
0
41
1
10
37.0121118203634
20
0.493507643248478
30
0
0
SPLINE
5
DF
100
AcDbEntity
8
1
62
256
6
ByLayer
370
-1
48
1
60
0
100
AcDbSpline
70
4
71
3
72
16
73
12
40
0
40
0
40
0
40
0
40
0.0643669619652063
40
0.0643669619652063
40
0.288303117778517
40
0.288303117778517
40
0.515079685422152
40
0.515079685422152
40
0.756270601866785
40
0.756270601866785
40
1
40
1
40
1
40
1
41
1
10
35.993211233264
20
2.27445690319178
30
0
41
1
10
35.9884812843441
20
2.27182110664265
30
0
41
1
10
35.9838629899498
20
2.2689578121738
30
0
41
1
10
35.9639247546019
20
2.25527733220005
30
0
41
1
10
35.9499683889767
20
2.24194771316019
30
0
41
1
10
35.9269831346921
20
2.2119820220048
30
0
41
1
10
35.9177145684479
20
2.19493420999348
30
0
41
1
10
35.904287011558
20
2.1585137023514
30
0
41
1
10
35.9003032300219
20
2.138613534
30
0
41
1
10
35.8981157295409
20
2.09922745708536
30
0
41
1
10
35.8999234420972
20
2.07932313906295
30
0
41
1
10
35.9042611383978
20
2.06043999556724
30
0
0
SPLINE
5
E0
100
AcDbEntity
8
1
62
256
6
ByLayer
370
-1
48
1
60
0
100
AcDbSpline
70
4
71
3
72
14
73
10
40
0
40
0
40
0
40
0
40
0.253138036218728
40
0.253138036218728
40
0.543716422259614
40
0.543716422259614
40
0.806630852199054
40
0.806630852199054
40
1
40
1
40
1
40
1
41
1
10
37.3999718452984
20
1.18959475691662
30
0
41
1
10
37.4182893870673
20
1.19592770711742
30
0
41
1
10
37.4363226385832
20
1.20513196348406
30
0
41
1
10
37.471671903942
20
1.23038685449185
30
0
41
1
10
37.4890296536228
20
1.24770290656878
30
0
41
1
10
37.515158060836
20
1.28543111621266
30
0
41
1
10
37.5249529519766
20
1.30598554342248
30
0
41
1
10
37.5351612044985
20
1.34286306179592
30
0
41
1
10
37.5374823349449
20
1.35921969051307
30
0
41
1
10
37.5375997073479
20
1.3752700864645
30
0
0
SPLINE
5
E1
100
AcDbEntity
8
1
62
256
6
ByLayer
370
-1
48
1
60
0
100
AcDbSpline
70
4
71
3
72
16
73
12
40
0
40
0
40
0
40
0
40
0.0320498430033968
40
0.0320498430033968
40
0.257254045063246
40
0.257254045063246
40
0.483457326733416
40
0.483457326733416
40
0.722608289863995
40
0.722608289863995
40
1
40
1
40
1
40
1
41
1
10
35.9779531969568
20
0.50352791762046
30
0
41
1
10
35.9802872370876
20
0.502168973189981
30
0
41
1
10
35.9826518969702
20
0.500855825940249
30
0
41
1
10
36.0016743127753
20
0.490791542399904
30
0
41
1
10
36.0198776466353
20
0.484258854925713
30
0
41
1
10
36.0564826702704
20
0.476576612435849
30
0
41
1
10
36.075350425102
20
0.475339958820399
30
0
41
1
10
36.112358156236
20
0.477900237996522
30
0
41
1
10
36.1308612006188
20
0.482002941556203
30
0
41
1
10
36.1670857718011
20
0.495610889441991
30
0
41
1
10
36.1847339459816
20
0.506039401298864
30
0
41
1
10
36.1994846220604
20
0.518467833900246
30
0
0
SPLINE
5
E2
100
AcDbEntity
8
1
62
256
6
ByLayer
370
-1
48
1
60
0
100
AcDbSpline
70
4
71
3
72
12
73
8
40
0
40
0
40
0
40
0
40
0.442845738438059
40
0.442845738438059
40
0.827906796995294
40
0.827906796995294
40
1
40
1
40
1
40
1
41
1
10
35.6042308873619
20
1.55699279203722
30
0
41
1
10
35.6440976332253
20
1.5641997982793
30
0
41
1
10
35.6836354249246
20
1.57783827849394
30
0
41
1
10
35.7523323403681
20
1.61609505529466
30
0
41
1
10
35.7829085647924
20
1.63959384739292
30
0
41
1
10
35.8213320144271
20
1.68072868476648
30
0
41
1
10
35.8325162382407
20
1.69452577693414
30
0
41
1
10
35.8427344103668
20
1.70915119753067
30
0
0
SPLINE
5
E3
100
AcDbEntity
8
1
62
256
6
ByLayer
370
-1
48
1
60
0
100
AcDbSpline
70
4
71
3
72
16
73
12
40
0
40
0
40
0
40
0
40
0.153631011334661
40
0.153631011334661
40
0.377841181285091
40
0.377841181285091
40
0.609744559704146
40
0.609744559704146
40
0.860007296099475
40
0.860007296099475
40
1
40
1
40
1
40
1
41
1
10
37.0273698566705
20
2.26443662881974
30
0
41
1
10
37.0162902500783
20
2.27088749034158
30
0
41
1
10
37.0044441758208
20
2.27612168381762
30
0
41
1
10
36.9745910117633
20
2.28553974158919
30
0
41
1
10
36.9558563465104
20
2.28822151690321
30
0
41
1
10
36.9186521087485
20
2.28770831145582
30
0
41
1
10
36.8997444279654
20
2.28431983393429
30
0
41
1
10
36.8631682305525
20
2.2718488697773
30
0
41
1
10
36.8452525693466
20
2.26220166879676
30
0
41
1
10
36.820606796821
20
2.2436626462262
30
0
41
1
10
36.8123123197235
20
2.23623205294916
30
0
41
1
10
36.8047235466228
20
2.22822344053731
30
0
0
SPLINE
5
E4
100
AcDbEntity
8
SK1
62
256
6
ByLayer
370
-1
48
1
60
0
100
AcDbSpline
70
4
71
3
72
8
73
4
40
0
40
0
40
0
40
0
40
1
40
1
40
1
40
1
41
1
10
-85.7874999953241
20
4.50624999999999
30
0
41
1
10
-85.787524445444
20
4.50624999999999
30
0
41
1
10
-85.5956382351615
20
4.50624999999999
30
0
41
1
10
-85.3000000000001
20
4.50624999999999
30
0
0
LINE
5
4A
100
AcDbEntity
8
80
62
256
6
ByLayer
370
-1
48
1
60
0
100
AcDbLine
10
0
20
0
30
0
11
-10
21
0
31
0
39
0
210
0
220
0
230
1
0
LINE
5
4B
100
AcDbEntity
8
81
62
256
6
ByLayer
370
-1
48
1
60
0
100
AcDbLine
10
39.95
20
6.9
30
0
11
49.95
21
6.9
31
0
39
0
210
0
220
0
230
1
0
LINE
5
4C
100
AcDbEntity
8
SK4
62
256
6
ByLayer
370
-1
48
0.05
60
0
100
AcDbLine
10
-91.3
20
0
30
0
11
44.711096
21
0
31
0
39
0
210
0
220
0
230
1
0
LINE
5
4E
100
AcDbEntity
8
4
62
256
6
ByLayer
370
-1
48
0.05
60
0
100
AcDbLine
10
0
20
0
30
0
11
44.711096
21
0
31
0
39
0
210
0
220
0
230
1
0
LINE
5
50
100
AcDbEntity
8
1
62
256
6
ByLayer
370
-1
48
1
60
0
100
AcDbLine
10
33.185824
20
-4.017958
30
0
11
33.335408
21
-4.152482
31
0
39
0
210
0
220
0
230
1
0
LINE
5
51
100
AcDbEntity
8
1
62
256
6
ByLayer
370
-1
48
1
60
0
100
AcDbLine
10
39.29959
20
-0.598163
30
0
11
39.437771
21
-0.497895
31
0
39
0
210
0
220
0
230
1
0
LINE
5
52
100
AcDbEntity
8
1
62
256
6
ByLayer
370
-1
48
1
60
0
100
AcDbLine
10
33.509452
20
-4.172428
30
0
11
33.556213
21
-4.146692
31
0
39
0
210
0
220
0
230
1
0
LINE
5
53
100
AcDbEntity
8
1
62
256
6
ByLayer
370
-1
48
1
60
0
100
AcDbLine
10
38.217915
20
1.152829
30
0
11
38.223871
21
1.266479
31
0
39
0
210
0
220
0
230
1
0
LINE
5
54
100
AcDbEntity
8
1
62
256
6
ByLayer
370
-1
48
1
60
0
100
AcDbLine
10
34.778599
20
1.447038
30
0
11
34.772643
21
1.333388
31
0
39
0
210
0
220
0
230
1
0
LINE
5
55
100
AcDbEntity
8
1
62
256
6
ByLayer
370
-1
48
1
60
0
100
AcDbLine
10
35.898218
20
0.636563
30
0
11
35.90554
21
0.776279
31
0
39
0
210
0
220
0
230
1
0
LINE
5
56
100
AcDbEntity
8
1
62
256
6
ByLayer
370
-1
48
1
60
0
100
AcDbLine
10
37.087417
20
0.800474
30
0
11
37.080219
21
0.663132
31
0
39
0
210
0
220
0
230
1
0
LINE
5
57
100
AcDbEntity
8
1
62
256
6
ByLayer
370
-1
48
1
60
0
100
AcDbLine
10
37.098018
20
1.958014
30
0
11
37.090699
21
1.81835
31
0
39
0
210
0
220
0
230
1
0
LINE
5
58
100
AcDbEntity
8
1
62
256
6
ByLayer
370
-1
48
1
60
0
100
AcDbLine
10
35.908697
20
1.791781
30
0
11
35.915896
21
1.929133
31
0
39
0
210
0
220
0
230
1
0
LINE
5
59
100
AcDbEntity
8
1
62
256
6
ByLayer
370
-1
48
1
60
0
100
AcDbLine
10
34.286417
20
-4.99375
30
0
11
34.326
21
-4.99375
31
0
39
0
210
0
220
0
230
1
0
LINE
5
5A
100
AcDbEntity
8
1
62
256
6
ByLayer
370
-1
48
1
60
0
100
AcDbLine
10
0
20
-4.99375
30
0
11
32.283201
21
-4.99375
31
0
39
0
210
0
220
0
230
1
0
LINE
5
5B
100
AcDbEntity
8
1
62
256
6
ByLayer
370
-1
48
1
60
0
100
AcDbLine
10
34.326
20
-4.99375
30
0
11
34.401
21
-4.91875
31
0
39
0
210
0
220
0
230
1
0
LINE
5
5C
100
AcDbEntity
8
1
62
256
6
ByLayer
370
-1
48
1
60
0
100
AcDbLine
10
36.184528
20
-4.91875
30
0
11
36.512731
21
-5.092745
31
0
39
0
210
0
220
0
230
1
0
LINE
5
5D
100
AcDbEntity
8
1
62
256
6
ByLayer
370
-1
48
1
60
0
100
AcDbLine
10
34.401
20
-4.91875
30
0
11
36.184528
21
-4.91875
31
0
39
0
210
0
220
0
230
1
0
LINE
5
5E
100
AcDbEntity
8
SK1
62
256
6
ByLayer
370
-1
48
1
60
0
100
AcDbLine
10
-85.3
20
-4.99375
30
0
11
0
21
-4.99375
31
0
39
0
210
0
220
0
230
1
0
LINE
5
60
100
AcDbEntity
8
SK1
62
256
6
ByLayer
370
-1
48
1
60
0
100
AcDbLine
10
-85.7875
20
4.50625
30
0
11
-86.3
21
3.99375
31
0
39
0
210
0
220
0
230
1
0
LINE
5
61
100
AcDbEntity
8
SK1
62
256
6
ByLayer
370
-1
48
1
60
0
100
AcDbLine
10
-86.3
20
-3.99375
30
0
11
-85.3
21
-4.99375
31
0
39
0
210
0
220
0
230
1
0
LINE
5
62
100
AcDbEntity
8
1
62
256
6
ByLayer
370
-1
48
1
60
0
100
AcDbLine
10
33.562639
20
-4.142945
30
0
11
34.361707
21
-3.650087
31
0
39
0
210
0
220
0
230
1
0
LINE
5
63
100
AcDbEntity
8
1
62
256
6
ByLayer
370
-1
48
1
60
0
100
AcDbLine
10
32.42993
20
-2.391574
30
0
11
32.298371
21
-4.706171
31
0
39
0
210
0
220
0
230
1
0
LINE
5
64
100
AcDbEntity
8
1
62
256
6
ByLayer
370
-1
48
1
60
0
100
AcDbLine
10
25.885068
20
2.165073
30
0
11
0
21
2.165073
31
0
39
0
210
0
220
0
230
1
0
LINE
5
65
100
AcDbEntity
8
1
62
256
6
ByLayer
370
-1
48
1
60
0
100
AcDbLine
10
29.496415
20
4.247382
30
0
11
31.924244
21
-4.705126
31
0
39
0
210
0
220
0
230
1
0
LINE
5
66
100
AcDbEntity
8
1
62
256
6
ByLayer
370
-1
48
1
60
0
100
AcDbLine
10
25.883629
20
4.50625
30
0
11
29.235
21
4.50625
31
0
39
0
210
0
220
0
230
1
0
LINE
5
67
100
AcDbEntity
8
1
62
256
6
ByLayer
370
-1
48
1
60
0
100
AcDbLine
10
36.184528
20
-4.91875
30
0
11
36.184528
21
-4.641636
31
0
39
0
210
0
220
0
230
1
0
LINE
5
68
100
AcDbEntity
8
1
62
256
6
ByLayer
370
-1
48
1
60
0
100
AcDbLine
10
32.42993
20
-2.391574
30
0
11
32.412268
21
-2.72859
31
0
39
0
210
0
220
0
230
1
0
LINE
5
69
100
AcDbEntity
8
1
62
256
6
ByLayer
370
-1
48
1
60
0
100
AcDbLine
10
32.973802
20
-1.791032
30
0
11
33.163022
21
-1.674323
31
0
39
0
210
0
220
0
230
1
0
LINE
5
6A
100
AcDbEntity
8
1
62
256
6
ByLayer
370
-1
48
1
60
0
100
AcDbLine
10
33.180685
20
-1.337307
30
0
11
32.991465
21
-1.454016
31
0
39
0
210
0
220
0
230
1
0
LINE
5
6B
100
AcDbEntity
8
1
62
256
6
ByLayer
370
-1
48
1
60
0
100
AcDbLine
10
0
20
-2.165073
30
0
11
0
21
2.165073
31
0
39
0
210
0
220
0
230
1
0
LINE
5
6C
100
AcDbEntity
8
1
62
256
6
ByLayer
370
-1
48
1
60
0
100
AcDbLine
10
32.991465
20
-1.454016
30
0
11
32.973802
21
-1.791032
31
0
39
0
210
0
220
0
230
1
0
LINE
5
6D
100
AcDbEntity
8
1
62
256
6
ByLayer
370
-1
48
1
60
0
100
AcDbLine
10
0
20
4.50625
30
0
11
25.883629
21
4.50625
31
0
39
0
210
0
220
0
230
1
0
LINE
5
6E
100
AcDbEntity
8
1
62
256
6
ByLayer
370
-1
48
1
60
0
100
AcDbLine
10
34.326
20
-4.99375
30
0
11
34.326
21
-4.711801
31
0
39
0
210
0
220
0
230
1
0
LINE
5
6F
100
AcDbEntity
8
1
62
256
6
ByLayer
370
-1
48
1
60
0
100
AcDbLine
10
34.36269
20
-3.63136
30
0
11
39.296109
21
-0.588472
31
0
39
0
210
0
220
0
230
1
0
LINE
5
70
100
AcDbEntity
8
1
62
256
6
ByLayer
370
-1
48
1
60
0
100
AcDbLine
10
34.401
20
-4.91875
30
0
11
34.401
21
-4.636692
31
0
39
0
210
0
220
0
230
1
0
LINE
5
71
100
AcDbEntity
8
1
62
256
6
ByLayer
370
-1
48
1
60
0
100
AcDbLine
10
0
20
4.50625
30
0
11
0
21
2.165073
31
0
39
0
210
0
220
0
230
1
0
LINE
5
72
100
AcDbEntity
8
1
62
256
6
ByLayer
370
-1
48
1
60
0
100
AcDbLine
10
34.301283
20
-4.711732
30
0
11
34.36269
21
-3.63136
31
0
39
0
210
0
220
0
230
1
0
LINE
5
73
100
AcDbEntity
8
1
62
256
6
ByLayer
370
-1
48
1
60
0
100
AcDbLine
10
32.284766
20
-4.971804
30
0
11
32.412268
21
-2.72859
31
0
39
0
210
0
220
0
230
1
0
LINE
5
74
100
AcDbEntity
8
1
62
256
6
ByLayer
370
-1
48
1
60
0
100
AcDbLine
10
39.368529
20
-0.776293
30
0
11
39.156367
21
-4.824576
31
0
39
0
210
0
220
0
230
1
0
LINE
5
75
100
AcDbEntity
8
1
62
256
6
ByLayer
370
-1
48
1
60
0
100
AcDbLine
10
0
20
-2.165073
30
0
11
27.151614
21
-2.165073
31
0
39
0
210
0
220
0
230
1
0
LINE
5
76
100
AcDbEntity
8
1
62
256
6
ByLayer
370
-1
48
1
60
0
100
AcDbLine
10
0
20
-4.99375
30
0
11
0
21
-2.165073
31
0
39
0
210
0
220
0
230
1
0
LINE
5
77
100
AcDbEntity
8
1
62
256
6
ByLayer
370
-1
48
1
60
0
100
AcDbLine
10
39.142313
20
-5.09275
30
0
11
39.156367
21
-4.824576
31
0
39
0
210
0
220
0
230
1
0
LINE
5
78
100
AcDbEntity
8
1
62
256
6
ByLayer
370
-1
48
1
60
0
100
AcDbLine
10
29.75884
20
3.988181
30
0
11
29.496415
21
4.247382
31
0
39
0
210
0
220
0
230
1
0
LINE
5
79
100
AcDbEntity
8
1
62
256
6
ByLayer
370
-1
48
1
60
0
100
AcDbLine
10
39.142313
20
-5.09275
30
0
11
36.512742
21
-5.09275
31
0
39
0
210
0
220
0
230
1
0
LINE
5
7A
100
AcDbEntity
8
SK1
62
256
6
ByLayer
370
-1
48
1
60
0
100
AcDbLine
10
0
20
-2.165073
30
0
11
0
21
2.165073
31
0
39
0
210
0
220
0
230
1
0
LINE
5
7B
100
AcDbEntity
8
SK1
62
256
6
ByLayer
370
-1
48
1
60
0
100
AcDbLine
10
-85.3
20
2.165073
30
0
11
-85.3
21
4.50625
31
0
39
0
210
0
220
0
230
1
0
LINE
5
7C
100
AcDbEntity
8
SK1
62
256
6
ByLayer
370
-1
48
1
60
0
100
AcDbLine
10
0
20
2.165073
30
0
11
-85.3
21
2.165073
31
0
39
0
210
0
220
0
230
1
0
LINE
5
7D
100
AcDbEntity
8
SK1
62
256
6
ByLayer
370
-1
48
1
60
0
100
AcDbLine
10
0
20
4.50625
30
0
11
0
21
2.165073
31
0
39
0
210
0
220
0
230
1
0
LINE
5
7E
100
AcDbEntity
8
SK1
62
256
6
ByLayer
370
-1
48
1
60
0
100
AcDbLine
10
0
20
-4.99375
30
0
11
0
21
-2.165073
31
0
39
0
210
0
220
0
230
1
0
LINE
5
7F
100
AcDbEntity
8
1
62
256
6
ByLayer
370
-1
48
1
60
0
100
AcDbLine
10
39.299386
20
-0.597593
30
0
11
39.413057
21
-0.514449
31
0
39
0
210
0
220
0
230
1
0
LINE
5
80
100
AcDbEntity
8
1
62
256
6
ByLayer
370
-1
48
1
60
0
100
AcDbLine
10
33.515876
20
-4.168682
30
0
11
33.562639
21
-4.142945
31
0
39
0
210
0
220
0
230
1
0
LINE
5
81
100
AcDbEntity
8
1
62
256
6
ByLayer
370
-1
48
1
60
0
100
AcDbLine
10
33.55621
20
-4.146693
30
0
11
33.562639
21
-4.142945
31
0
39
0
210
0
220
0
230
1
0
LINE
5
82
100
AcDbEntity
8
1
62
256
6
ByLayer
370
-1
48
1
60
0
100
AcDbLine
10
37.095034
20
0.592511
30
0
11
37.099942
21
0.686148
31
0
39
0
210
0
220
0
230
1
0
LINE
5
83
100
AcDbEntity
8
1
62
256
6
ByLayer
370
-1
48
1
60
0
100
AcDbLine
10
37.395523
20
1.395842
30
0
11
37.403168
21
1.541731
31
0
39
0
210
0
220
0
230
1
0
LINE
5
84
100
AcDbEntity
8
1
62
256
6
ByLayer
370
-1
48
1
60
0
100
AcDbLine
10
36.797078
20
2.082334
30
0
11
36.804724
21
2.228223
31
0
39
0
210
0
220
0
230
1
0
LINE
5
85
100
AcDbEntity
8
1
62
256
6
ByLayer
370
-1
48
1
60
0
100
AcDbLine
10
36.206619
20
2.088055
30
0
11
36.214265
21
2.233945
31
0
39
0
210
0
220
0
230
1
0
LINE
5
86
100
AcDbEntity
8
1
62
256
6
ByLayer
370
-1
48
1
60
0
100
AcDbLine
10
35.596588
20
1.411155
30
0
11
35.604231
21
1.556993
31
0
39
0
210
0
220
0
230
1
0
LINE
5
87
100
AcDbEntity
8
1
62
256
6
ByLayer
370
-1
48
1
60
0
100
AcDbLine
10
35.889228
20
0.637555
30
0
11
35.892358
21
0.697285
31
0
39
0
210
0
220
0
230
1
0
LINE
5
88
100
AcDbEntity
8
1
62
256
6
ByLayer
370
-1
48
1
60
0
100
AcDbLine
10
35.842734
20
1.709151
30
0
11
35.83589
21
1.578562
31
0
39
0
210
0
220
0
230
1
0
LINE
5
89
100
AcDbEntity
8
1
62
256
6
ByLayer
370
-1
48
1
60
0
100
AcDbLine
10
35.8645
20
1.626568
30
0
11
35.871344
21
1.757157
31
0
39
0
210
0
220
0
230
1
0
LINE
5
8A
100
AcDbEntity
8
1
62
256
6
ByLayer
370
-1
48
1
60
0
100
AcDbLine
10
33.407074
20
2.982405
30
0
11
33.056471
21
-3.707504
31
0
39
0
210
0
220
0
230
1
0
LINE
5
8B
100
AcDbEntity
8
1
62
256
6
ByLayer
370
-1
48
1
60
0
100
AcDbLine
10
39.342616
20
6.840573
30
0
11
33.592883
21
3.29419
31
0
39
0
210
0
220
0
230
1
0
LINE
5
8C
100
AcDbEntity
8
1
62
256
6
ByLayer
370
-1
48
1
60
0
100
AcDbLine
10
39.598866
20
-0.202663
30
0
11
39.949469
21
6.487246
31
0
39
0
210
0
220
0
230
1
0
LINE
5
8D
100
AcDbEntity
8
1
62
256
6
ByLayer
370
-1
48
1
60
0
100
AcDbLine
10
33.663324
20
-4.060832
30
0
11
39.413057
21
-0.514449
31
0
39
0
210
0
220
0
230
1
0
LINE
5
8E
100
AcDbEntity
8
1
62
256
6
ByLayer
370
-1
48
1
60
0
100
AcDbLine
10
33.663324
20
-4.060832
30
0
11
33.515876
21
-4.168682
31
0
39
0
210
0
220
0
230
1
0
LINE
5
8F
100
AcDbEntity
8
SK1
62
256
6
ByLayer
370
-1
48
1
60
0
100
AcDbLine
10
-85.3
20
4.50625
30
0
11
0
21
4.50625
31
0
39
0
210
0
220
0
230
1
0
LINE
5
90
100
AcDbEntity
8
SK1
62
256
6
ByLayer
370
-1
48
1
60
0
100
AcDbLine
10
-85.3
20
-2.165073
30
0
11
0
21
-2.165073
31
0
39
0
210
0
220
0
230
1
0
LINE
5
91
100
AcDbEntity
8
SK1
62
256
6
ByLayer
370
-1
48
1
60
0
100
AcDbLine
10
-85.3
20
-4.99375
30
0
11
-85.3
21
-2.165073
31
0
39
0
210
0
220
0
230
1
0
LINE
5
92
100
AcDbEntity
8
SK1
62
256
6
ByLayer
370
-1
48
1
60
0
100
AcDbLine
10
-86.3
20
-3.99375
30
0
11
-86.3
21
3.99375
31
0
39
0
210
0
220
0
230
1
0
LINE
5
93
100
AcDbEntity
8
2
62
256
6
ByLayer
370
-1
48
1
60
1
100
AcDbLine
10
39.95
20
0
30
0
11
39.951
21
0.001
31
0
39
0
210
0
220
0
230
1
0
MTEXT
5
E5
100
AcDbEntity
8
SK6
62
256
6
ByLayer
370
-1
48
1
60
0
100
AcDbMText
10
-19.8
20
-17.059147
30
0
210
0
220
0
230
1
1
\W00.752;\fsimplex.shx,bigfont.shx;A10K-SDUCR 07 
40
3.5
41
0
44
1.084337
50
0
71
7
72
5
7
DEFAULT
0
DIMENSION
5
118
100
AcDbEntity
8
2
62
256
6
ByLayer
370
-3
48
1
60
0
100
AcDbDimension
2
DimnDraft3D1
10
52.2
20
0
30
0
11
52.2
21
17.155
31
0
70
32
71
5
72
1
41
1
210
0
220
0
230
1
3
Standard
100
AcDbAlignedDimension
13
41.95
23
6.9
33
0
14
41.95
24
0
34
0
50
90
100
AcDbRotatedDimension
1001
ACAD
1000
DSTYLE
1002
{
1070
    74
1070
     0
1070
   279
1070
     0
1070
   172
1070
     1
1070
   173
1070
     1
1070
   340
1005
E6
1070
    77
1070
     1
1070
    73
1070
     0
1070
   171
1070
     4
1070
   274
1070
     4
1070
   177
1070
     2
1070
   176
1070
     2
1070
   178
1070
     7
1070
    78
1070
     8
1070
    41
1041
3.175
1070
   147
1041
2.25
1070
    42
1041
2.0
1070
    44
1041
2.0
1070
   140
1041
4.5
1070
   343
1005
119
1070
   344
1005
119
1002
}
0
DIMENSION
5
12E
100
AcDbEntity
8
SK2
62
256
6
ByLayer
370
-3
48
1
60
0
100
AcDbDimension
2
DimnDraft3D2
10
-96.05
20
4.99375
30
0
11
-96.05
21
15.24875
31
0
70
32
71
5
72
1
41
1
210
0
220
0
230
1
3
Standard
100
AcDbAlignedDimension
13
-88.3
23
-4.99375
33
0
14
-88.3
24
4.99375
34
0
50
90
100
AcDbRotatedDimension
1001
ACAD
1000
DSTYLE
1002
{
1070
    74
1070
     0
1070
   279
1070
     0
1070
   172
1070
     1
1070
   173
1070
     1
1070
   340
1005
E6
1070
    77
1070
     1
1070
    73
1070
     0
1070
   171
1070
     4
1070
   274
1070
     4
1070
   177
1070
     2
1070
   176
1070
     2
1070
   178
1070
     7
1070
    78
1070
     8
1070
    41
1041
3.175
1070
   147
1041
2.25
1070
    42
1041
2.0
1070
    44
1041
2.0
1070
   140
1041
4.5
1070
   343
1005
119
1070
   344
1005
119
1002
}
0
DIMENSION
5
13C
100
AcDbEntity
8
SK2
62
256
6
ByLayer
370
-3
48
1
60
0
100
AcDbDimension
2
DimnDraft3D3
10
-86.3
20
19.65
30
0
11
-29.427632
21
19.65
31
0
70
32
71
5
72
1
41
1
210
0
220
0
230
1
3
Standard
100
AcDbAlignedDimension
13
39.95
23
8.9
33
0
14
-86.3
24
6.99375
34
0
50
0
100
AcDbRotatedDimension
1001
ACAD
1000
DSTYLE
1002
{
1070
   279
1070
     0
1070
   172
1070
     1
1070
   173
1070
     1
1070
   340
1005
E6
1070
    77
1070
     1
1070
    73
1070
     0
1070
   171
1070
     4
1070
   274
1070
     4
1070
   177
1070
     2
1070
   176
1070
     2
1070
   178
1070
     7
1070
    78
1070
     8
1070
    41
1041
3.175
1070
   147
1041
2.25
1070
    42
1041
2.0
1070
    44
1041
2.0
1070
   140
1041
4.5
1070
   343
1005
119
1070
   344
1005
119
1002
}
0
DIMENSION
5
14A
100
AcDbEntity
8
2
62
256
6
ByLayer
370
-3
48
1
60
0
100
AcDbDimension
2
DimnDraft3D4
10
88.514793
20
0
30
0
11
65.720197
21
-36.792664
31
0
70
34
71
5
72
1
41
1
210
0
220
0
230
1
3
Standard
100
AcDb2LineAngularDimension
13
39.478976
23
-2.087666
33
0
14
37.027776
24
-48.859355
34
0
15
41.95
25
0
35
0
16
68.792798
26
-30.775028
36
0
40
0
0
ENDSEC
0
SECTION
2
OBJECTS
0
DICTIONARY
5
17b
330
0
100
AcDbDictionary
280
0
281
1
3
ACAD_GROUP
350
17c
3
ACAD_MLINESTYLE
350
17d
0
DICTIONARY
5
17c
330
0
100
AcDbDictionary
280
0
281
1
0
DICTIONARY
5
17d
330
0
100
AcDbDictionary
280
0
281
1
3
Standard
350
18
0
MLINESTYLE
5
18
330
17d
100
AcDbMlineStyle
2
Standard
70
0
3

62
256
51
90
52
90
71
2
49
-0.5
62
256
6
ByLayer
49
0.5
62
256
6
ByLayer
0
RASTERVARIABLES
5
169
330

100
AcDbRasterVariables
90
0
70
1
71
1
72
1
0
ENDSEC
0
EOF
