0
SECTION
2
HEADER
9
$ACADVER
1
AC1015
9
$DWGCODEPAGE
3
ANSI_1252
9
$HANDSEED
5
186
9
$ANGBASE
50
0
9
$ANGDIR
70
0
9
$ATTMODE
70
1
9
$AUNITS
70
0
9
$AUPREC
70
0
9
$CECOLOR
62
256
9
$CELTSCALE
40
1
9
$CELTYPE
6
ByLayer
9
$CELWEIGHT
370
-1
9
$CLAYER
8
0
9
$CMLJUST
70
0
9
$CMLSCALE
40
1
9
$CMLSTYLE
2
Standard
9
$DIMSTYLE
2
Standard
9
$TEXTSIZE
40
0.2
9
$TEXTSTYLE
7
Standard
9
$LUNITS
70
2
9
$LUPREC
70
4
9
$EXTNAMES
290
1
9
$INSUNITS
70
4
9
$LTSCALE
40
1
9
$LWDISPLAY
290
0
9
$PDMODE
70
0
9
$PDSIZE
40
0
9
$PLINEGEN
70
0
0
ENDSEC
0
SECTION
2
CLASSES
0
CLASS
1
RASTERVARIABLES
2
AcDbRasterVariables
3
ISM
90
0
280
0
281
0
0
ENDSEC
0
SECTION
2
TABLES
0
TABLE
2
VPORT
5
17c
100
AcDbSymbolTable
0
VPORT
5
1
100
AcDbSymbolTableRecord
100
AcDbViewportTableRecord
2
*Active
70
0
10
0
20
0
11
1
21
1
12
-1
22
1
13
0
23
0
14
0.5
24
0.5
15
10
25
10
16
0
26
0
36
1
17
0
27
0
37
0
0
ENDTAB
0
TABLE
2
LTYPE
5
17d
100
AcDbSymbolTable
0
LTYPE
5
14
100
AcDbSymbolTableRecord
100
AcDbLinetypeTableRecord
70
0
2
ByBlock
3

72
65
73
0
40
0
0
LTYPE
5
15
100
AcDbSymbolTableRecord
100
AcDbLinetypeTableRecord
70
0
2
ByLayer
3

72
65
73
0
40
0
0
LTYPE
5
16
100
AcDbSymbolTableRecord
100
AcDbLinetypeTableRecord
70
0
2
CONTINUOUS
3
Solid line
72
65
73
0
40
0
0
LTYPE
5
3B
100
AcDbSymbolTableRecord
100
AcDbLinetypeTableRecord
70
0
2
DASHED
3
__ __ __ __ __ __ __ __ __
72
65
73
2
40
25.72
49
12.86
74
0
49
-12.86
74
0
0
LTYPE
5
3C
100
AcDbSymbolTableRecord
100
AcDbLinetypeTableRecord
70
0
2
HIDDEN
3
_ _ _ _ _ _ _ _ _ _ _ _ _ _ _
72
65
73
2
40
0.5
49
0.25
74
0
49
-0.25
74
0
0
LTYPE
5
3D
100
AcDbSymbolTableRecord
100
AcDbLinetypeTableRecord
70
0
2
PHANTOM
3
____ _ _ ____ _ _ _____ _ _ ____
72
65
73
6
40
50.5
49
18
74
0
49
-6.5
74
0
49
6.5
74
0
49
-6.5
74
0
49
6.5
74
0
49
-6.5
74
0
0
LTYPE
5
3E
100
AcDbSymbolTableRecord
100
AcDbLinetypeTableRecord
70
0
2
CENTER
3
____ _ ____ _ ____ _ ____
72
65
73
4
40
47.5
49
22
74
0
49
-8.5
74
0
49
8.5
74
0
49
-8.5
74
0
0
LTYPE
5
3F
100
AcDbSymbolTableRecord
100
AcDbLinetypeTableRecord
70
0
2
DOT
3
.........................
72
65
73
2
40
10
49
0
74
0
49
-10
74
0
0
LTYPE
5
40
100
AcDbSymbolTableRecord
100
AcDbLinetypeTableRecord
70
0
2
DASHDOT
3
_._._._._._._._._._._._._._._._.
72
65
73
4
40
70
49
31
74
0
49
-13
74
0
49
13
74
0
49
-13
74
0
0
ENDTAB
0
TABLE
2
LAYER
5
17e
100
AcDbSymbolTable
0
LAYER
5
10
100
AcDbSymbolTableRecord
100
AcDbLayerTableRecord
2
0
70
0
62
7
6
CONTINUOUS
290
1
370
-3
390
0
0
LAYER
5
42
100
AcDbSymbolTableRecord
100
AcDbLayerTableRecord
2
80
70
0
62
-6
6
CONTINUOUS
290
1
370
-3
390
0
0
LAYER
5
44
100
AcDbSymbolTableRecord
100
AcDbLayerTableRecord
2
81
70
0
62
-3
6
CONTINUOUS
290
1
370
-3
390
0
0
LAYER
5
46
100
AcDbSymbolTableRecord
100
AcDbLayerTableRecord
2
1
70
0
62
4
6
CONTINUOUS
290
1
370
-3
390
0
0
LAYER
5
48
100
AcDbSymbolTableRecord
100
AcDbLayerTableRecord
2
2
70
0
62
7
6
CONTINUOUS
290
1
370
-3
390
0
0
LAYER
5
5A
100
AcDbSymbolTableRecord
100
AcDbLayerTableRecord
2
4
70
0
62
-2
6
CENTER
290
1
370
-3
390
0
0
LAYER
5
168
100
AcDbSymbolTableRecord
100
AcDbLayerTableRecord
2
SK1
70
0
62
4
6
CONTINUOUS
290
1
370
-3
390
0
0
LAYER
5
169
100
AcDbSymbolTableRecord
100
AcDbLayerTableRecord
2
SK4
70
0
62
2
6
CENTER
290
1
370
-3
390
0
0
LAYER
5
16a
100
AcDbSymbolTableRecord
100
AcDbLayerTableRecord
2
SK6
70
0
62
5
6
CONTINUOUS
290
1
370
-3
390
0
0
LAYER
5
16b
100
AcDbSymbolTableRecord
100
AcDbLayerTableRecord
2
SK2
70
0
62
7
6
CONTINUOUS
290
1
370
-3
390
0
0
ENDTAB
0
TABLE
2
STYLE
5
17f
100
AcDbSymbolTable
0
STYLE
5
11
100
AcDbSymbolTableRecord
100
AcDbTextStyleTableRecord
2
Standard
3
txt
70
0
71
0
40
0
41
1
42
0
50
0
0
STYLE
5
E4
100
AcDbSymbolTableRecord
100
AcDbTextStyleTableRecord
2
DEFAULT
3
simplex.shx
70
0
71
0
40
0
41
1
42
0
50
0
0
STYLE
5
107
100
AcDbSymbolTableRecord
100
AcDbTextStyleTableRecord
2
DWGDirectTextStyle
3
SIMPLEX
70
0
71
0
40
0
41
1
42
0
50
0
0
ENDTAB
0
TABLE
2
DIMSTYLE
5
180
100
AcDbSymbolTable
100
AcDbDimStyleTable
0
DIMSTYLE
105
27
100
AcDbSymbolTableRecord
100
AcDbDimStyleTableRecord
2
Standard
70
0
3
<>
41
0.18
42
0.0625
44
0.18
140
0.18
147
0.09
73
0
74
0
77
1
271
2
275
0
278
52
280
0
340
11
0
ENDTAB
0
TABLE
2
VIEW
5
181
100
AcDbSymbolTable
0
ENDTAB
0
TABLE
2
UCS
5
182
100
AcDbSymbolTable
0
ENDTAB
0
TABLE
2
APPID
5
183
100
AcDbSymbolTable
0
APPID
5
12
100
AcDbSymbolTableRecord
100
AcDbRegAppTableRecord
2
ACAD
70
0
0
ENDTAB
0
TABLE
2
BLOCK_RECORD
5
184
100
AcDbSymbolTable
0
BLOCK_RECORD
5
1F
100
AcDbSymbolTableRecord
100
AcDbBlockTableRecord
2
*Model_Space
340
0
70
0
0
BLOCK_RECORD
5
1B
100
AcDbSymbolTableRecord
100
AcDbBlockTableRecord
2
*Paper_Space
340
0
70
0
0
BLOCK_RECORD
5
23
100
AcDbSymbolTableRecord
100
AcDbBlockTableRecord
2
*Paper_Space0
340
0
70
0
0
BLOCK_RECORD
5
109
100
AcDbSymbolTableRecord
100
AcDbBlockTableRecord
2
DimnDraft3D1
340
0
70
0
0
BLOCK_RECORD
5
117
100
AcDbSymbolTableRecord
100
AcDbBlockTableRecord
2
_CLOSED
340
0
70
0
0
BLOCK_RECORD
5
11E
100
AcDbSymbolTableRecord
100
AcDbBlockTableRecord
2
DimnDraft3D2
340
0
70
0
0
BLOCK_RECORD
5
12D
100
AcDbSymbolTableRecord
100
AcDbBlockTableRecord
2
DimnDraft3D3
340
0
70
0
0
BLOCK_RECORD
5
13B
100
AcDbSymbolTableRecord
100
AcDbBlockTableRecord
2
DimnDraft3D4
340
0
70
0
0
ENDTAB
0
ENDSEC
0
SECTION
2
BLOCKS
0
BLOCK
5
20
100
AcDbEntity
8
0
100
AcDbBlockBegin
2
*Model_Space
70
0
10
0
20
0
30
0
3
*Model_Space
0
ENDBLK
5
21
100
AcDbEntity
8
0
100
AcDbBlockEnd
0
BLOCK
5
1C
100
AcDbEntity
8
0
100
AcDbBlockBegin
2
*Paper_Space
70
0
10
0
20
0
30
0
3
*Paper_Space
0
ENDBLK
5
1D
100
AcDbEntity
8
0
100
AcDbBlockEnd
0
BLOCK
5
24
100
AcDbEntity
8
0
100
AcDbBlockBegin
2
*Paper_Space0
70
0
10
0
20
0
30
0
3
*Paper_Space0
0
ENDBLK
5
25
100
AcDbEntity
8
0
100
AcDbBlockEnd
0
BLOCK
5
114
100
AcDbEntity
8
0
100
AcDbBlockBegin
2
DimnDraft3D1
70
0
10
0
20
0
30
0
3
DimnDraft3D1
0
MTEXT
5
10A
100
AcDbEntity
8
2
62
256
6
ByLayer
370
-1
48
1
60
0
100
AcDbMText
10
43.075
20
16.28
30
0
210
0
220
0
230
1
1
\W01.000;\fsimplex.shx,bigfont.shx;5.0 
40
4.5
41
0
44
1.084337
50
90
71
7
72
5
7
DEFAULT
0
LINE
5
10B
100
AcDbEntity
8
2
62
256
6
ByLayer
370
-1
48
1
60
0
100
AcDbLine
10
33.95
20
4.9
30
0
11
46.2
21
4.9
31
0
39
0
210
0
220
0
230
1
0
LINE
5
10C
100
AcDbEntity
8
2
62
256
6
ByLayer
370
-1
48
1
60
0
100
AcDbLine
10
33.95
20
0
30
0
11
46.2
21
0
31
0
39
0
210
0
220
0
230
1
0
LINE
5
10D
100
AcDbEntity
8
2
62
256
6
ByLayer
370
-1
48
1
60
0
100
AcDbLine
10
44.2
20
-11.25
30
0
11
44.2
21
22.177368
31
0
39
0
210
0
220
0
230
1
0
LINE
5
10E
100
AcDbEntity
8
2
62
256
6
ByLayer
370
-1
48
1
60
0
100
AcDbLine
10
44.2
20
4.9
30
0
11
43.782003
21
8.074998
31
0
39
0
210
0
220
0
230
1
0
LINE
5
10F
100
AcDbEntity
8
2
62
256
6
ByLayer
370
-1
48
1
60
0
100
AcDbLine
10
44.2
20
4.9
30
0
11
44.617997
21
8.075002
31
0
39
0
210
0
220
0
230
1
0
LINE
5
110
100
AcDbEntity
8
2
62
256
6
ByLayer
370
-1
48
1
60
0
100
AcDbLine
10
43.782003
20
8.074998
30
0
11
44.617997
21
8.075002
31
0
39
0
210
0
220
0
230
1
0
LINE
5
111
100
AcDbEntity
8
2
62
256
6
ByLayer
370
-1
48
1
60
0
100
AcDbLine
10
44.2
20
0
30
0
11
44.617997
21
-3.174998
31
0
39
0
210
0
220
0
230
1
0
LINE
5
112
100
AcDbEntity
8
2
62
256
6
ByLayer
370
-1
48
1
60
0
100
AcDbLine
10
44.2
20
0
30
0
11
43.782003
21
-3.175002
31
0
39
0
210
0
220
0
230
1
0
LINE
5
113
100
AcDbEntity
8
2
62
256
6
ByLayer
370
-1
48
1
60
0
100
AcDbLine
10
44.617997
20
-3.174998
30
0
11
43.782003
21
-3.175002
31
0
39
0
210
0
220
0
230
1
0
ENDBLK
5
115
100
AcDbEntity
8
0
100
AcDbBlockEnd
0
BLOCK
5
118
100
AcDbEntity
8
0
100
AcDbBlockBegin
2
_CLOSED
70
0
10
0
20
0
30
0
3
_CLOSED
0
LINE
5
11A
100
AcDbEntity
8
0
62
256
6
ByLayer
370
-2
48
1
60
0
100
AcDbLine
10
-1
20
0.166667
30
0
11
0
21
0
31
0
39
0
210
0
220
0
230
1
0
LINE
5
11B
100
AcDbEntity
8
0
62
256
6
ByLayer
370
-2
48
1
60
0
100
AcDbLine
10
0
20
0
30
0
11
-1
21
-0.166667
31
0
39
0
210
0
220
0
230
1
0
LINE
5
11C
100
AcDbEntity
8
0
62
256
6
ByLayer
370
-2
48
1
60
0
100
AcDbLine
10
-1
20
0.166667
30
0
11
-1
21
-0.166667
31
0
39
0
210
0
220
0
230
1
0
LINE
5
11D
100
AcDbEntity
8
0
62
256
6
ByLayer
370
-2
48
1
60
0
100
AcDbLine
10
0
20
0
30
0
11
-1
21
0
31
0
39
0
210
0
220
0
230
1
0
ENDBLK
5
119
100
AcDbEntity
8
0
100
AcDbBlockEnd
0
BLOCK
5
12A
100
AcDbEntity
8
0
100
AcDbBlockBegin
2
DimnDraft3D2
70
0
10
0
20
0
30
0
3
DimnDraft3D2
0
MTEXT
5
11F
100
AcDbEntity
8
SK2
62
256
6
ByLayer
370
-1
48
1
60
0
100
AcDbMText
10
-105.175
20
15.37375
30
0
210
0
220
0
230
1
1
\W01.000;\fsimplex.shx,bigfont.shx;%%c8 
40
4.5
41
0
44
1.084337
50
90
71
7
72
5
7
DEFAULT
0
LINE
5
121
100
AcDbEntity
8
SK2
62
256
6
ByLayer
370
-1
48
1
60
0
100
AcDbLine
10
-96.3
20
-3.99375
30
0
11
-106.05
21
-3.99375
31
0
39
0
210
0
220
0
230
1
0
LINE
5
122
100
AcDbEntity
8
SK2
62
256
6
ByLayer
370
-1
48
1
60
0
100
AcDbLine
10
-96.3
20
3.99375
30
0
11
-106.05
21
3.99375
31
0
39
0
210
0
220
0
230
1
0
LINE
5
123
100
AcDbEntity
8
SK2
62
256
6
ByLayer
370
-1
48
1
60
0
100
AcDbLine
10
-104.05
20
20.513224
30
0
11
-104.05
21
-15.24375
31
0
39
0
210
0
220
0
230
1
0
LINE
5
124
100
AcDbEntity
8
SK2
62
256
6
ByLayer
370
-1
48
1
60
0
100
AcDbLine
10
-104.05
20
-3.99375
30
0
11
-103.632003
21
-7.168748
31
0
39
0
210
0
220
0
230
1
0
LINE
5
125
100
AcDbEntity
8
SK2
62
256
6
ByLayer
370
-1
48
1
60
0
100
AcDbLine
10
-104.05
20
-3.99375
30
0
11
-104.467997
21
-7.168752
31
0
39
0
210
0
220
0
230
1
0
LINE
5
126
100
AcDbEntity
8
SK2
62
256
6
ByLayer
370
-1
48
1
60
0
100
AcDbLine
10
-103.632003
20
-7.168748
30
0
11
-104.467997
21
-7.168752
31
0
39
0
210
0
220
0
230
1
0
LINE
5
127
100
AcDbEntity
8
SK2
62
256
6
ByLayer
370
-1
48
1
60
0
100
AcDbLine
10
-104.05
20
3.99375
30
0
11
-104.467997
21
7.168748
31
0
39
0
210
0
220
0
230
1
0
LINE
5
128
100
AcDbEntity
8
SK2
62
256
6
ByLayer
370
-1
48
1
60
0
100
AcDbLine
10
-104.05
20
3.99375
30
0
11
-103.632003
21
7.168752
31
0
39
0
210
0
220
0
230
1
0
LINE
5
129
100
AcDbEntity
8
SK2
62
256
6
ByLayer
370
-1
48
1
60
0
100
AcDbLine
10
-104.467997
20
7.168748
30
0
11
-103.632003
21
7.168752
31
0
39
0
210
0
220
0
230
1
0
ENDBLK
5
12B
100
AcDbEntity
8
0
100
AcDbBlockEnd
0
BLOCK
5
138
100
AcDbEntity
8
0
100
AcDbBlockBegin
2
DimnDraft3D3
70
0
10
0
20
0
30
0
3
DimnDraft3D3
0
MTEXT
5
12E
100
AcDbEntity
8
SK2
62
256
6
ByLayer
370
-1
48
1
60
0
100
AcDbMText
10
-36.302632
20
18.775
30
0
210
0
220
0
230
1
1
\W01.000;\fsimplex.shx,bigfont.shx;125.0 
40
4.5
41
0
44
1.084337
50
0
71
7
72
5
7
DEFAULT
0
LINE
5
12F
100
AcDbEntity
8
SK2
62
256
6
ByLayer
370
-1
48
1
60
0
100
AcDbLine
10
31.95
20
6.9
30
0
11
31.95
21
19.65
31
0
39
0
210
0
220
0
230
1
0
LINE
5
130
100
AcDbEntity
8
SK2
62
256
6
ByLayer
370
-1
48
1
60
0
100
AcDbLine
10
-94.3
20
5.99375
30
0
11
-94.3
21
19.65
31
0
39
0
210
0
220
0
230
1
0
LINE
5
131
100
AcDbEntity
8
SK2
62
256
6
ByLayer
370
-1
48
1
60
0
100
AcDbLine
10
31.95
20
17.65
30
0
11
-94.3
21
17.65
31
0
39
0
210
0
220
0
230
1
0
LINE
5
132
100
AcDbEntity
8
SK2
62
256
6
ByLayer
370
-1
48
1
60
0
100
AcDbLine
10
31.95
20
17.65
30
0
11
28.775002
21
17.232003
31
0
39
0
210
0
220
0
230
1
0
LINE
5
133
100
AcDbEntity
8
SK2
62
256
6
ByLayer
370
-1
48
1
60
0
100
AcDbLine
10
31.95
20
17.65
30
0
11
28.774998
21
18.067997
31
0
39
0
210
0
220
0
230
1
0
LINE
5
134
100
AcDbEntity
8
SK2
62
256
6
ByLayer
370
-1
48
1
60
0
100
AcDbLine
10
28.775002
20
17.232003
30
0
11
28.774998
21
18.067997
31
0
39
0
210
0
220
0
230
1
0
LINE
5
135
100
AcDbEntity
8
SK2
62
256
6
ByLayer
370
-1
48
1
60
0
100
AcDbLine
10
-94.3
20
17.65
30
0
11
-91.125002
21
18.067997
31
0
39
0
210
0
220
0
230
1
0
LINE
5
136
100
AcDbEntity
8
SK2
62
256
6
ByLayer
370
-1
48
1
60
0
100
AcDbLine
10
-94.3
20
17.65
30
0
11
-91.124998
21
17.232003
31
0
39
0
210
0
220
0
230
1
0
LINE
5
137
100
AcDbEntity
8
SK2
62
256
6
ByLayer
370
-1
48
1
60
0
100
AcDbLine
10
-91.125002
20
18.067997
30
0
11
-91.124998
21
17.232003
31
0
39
0
210
0
220
0
230
1
0
ENDBLK
5
139
100
AcDbEntity
8
0
100
AcDbBlockEnd
0
BLOCK
5
146
100
AcDbEntity
8
0
100
AcDbBlockBegin
2
DimnDraft3D4
70
0
10
0
20
0
30
0
3
DimnDraft3D4
0
MTEXT
5
13C
100
AcDbEntity
8
2
62
256
6
ByLayer
370
-1
48
1
60
0
100
AcDbMText
10
60.626555
20
-35.950619
30
0
210
0
220
0
230
1
1
\W01.000;\fsimplex.shx,bigfont.shx;91%%d0' 
40
4.5
41
0
44
1.084337
50
44.4999999999999
71
7
72
5
7
DEFAULT
0
LINE
5
13D
100
AcDbEntity
8
2
62
256
6
ByLayer
370
-1
48
1
60
0
100
AcDbLine
10
31.810381
20
-3.098782
30
0
11
31.010587
21
-48.918955
31
0
39
0
210
0
220
0
230
1
0
LINE
5
13E
100
AcDbEntity
8
2
62
256
6
ByLayer
370
-1
48
1
60
0
100
AcDbLine
10
33.95
20
0
30
0
11
80.790877
21
0
31
0
39
0
210
0
220
0
230
1
0
ARC
5
13F
100
AcDbEntity
8
2
62
256
6
ByLayer
370
-1
48
1
60
0
100
AcDbCircle
39
0
10
31.86447
20
0
30
0
40
46.926406878293
210
0
220
0
230
1
100
AcDbArc
50
269
51
0
0
LINE
5
140
100
AcDbEntity
8
2
62
256
6
ByLayer
370
-1
48
1
60
0
100
AcDbLine
10
31.045491
20
-46.91926
30
0
11
34.220717
21
-46.502993
31
0
39
0
210
0
220
0
230
1
0
LINE
5
141
100
AcDbEntity
8
2
62
256
6
ByLayer
370
-1
48
1
60
0
100
AcDbLine
10
31.045491
20
-46.91926
30
0
11
34.220265
21
-47.338987
31
0
39
0
210
0
220
0
230
1
0
LINE
5
142
100
AcDbEntity
8
2
62
256
6
ByLayer
370
-1
48
1
60
0
100
AcDbLine
10
34.220717
20
-46.502993
30
0
11
34.220265
21
-47.338987
31
0
39
0
210
0
220
0
230
1
0
LINE
5
143
100
AcDbEntity
8
2
62
256
6
ByLayer
370
-1
48
1
60
0
100
AcDbLine
10
78.790877
20
0
30
0
11
79.155133
21
-3.181612
31
0
39
0
210
0
220
0
230
1
0
LINE
5
144
100
AcDbEntity
8
2
62
256
6
ByLayer
370
-1
48
1
60
0
100
AcDbLine
10
78.790877
20
0
30
0
11
78.319259
21
-3.16748
31
0
39
0
210
0
220
0
230
1
0
LINE
5
145
100
AcDbEntity
8
2
62
256
6
ByLayer
370
-1
48
1
60
0
100
AcDbLine
10
79.155133
20
-3.181612
30
0
11
78.319259
21
-3.16748
31
0
39
0
210
0
220
0
230
1
0
ENDBLK
5
147
100
AcDbEntity
8
0
100
AcDbBlockEnd
0
ENDSEC
0
SECTION
2
ENTITIES
0
ELLIPSE
5
91
100
AcDbEntity
8
1
62
256
6
ByLayer
370
-1
48
1
60
0
100
AcDbEllipse
10
26.515944
20
1.439485
30
0
11
-0.876067887200456
21
-0.206167545981739
31
0
210
0
220
0
230
1
40
0.990077
41
-2.24520097611488
42
-2.11651482715833
0
ELLIPSE
5
92
100
AcDbEntity
8
1
62
256
6
ByLayer
370
-1
48
1
60
0
100
AcDbEllipse
10
26.454002
20
1.702696
30
0
11
0.900466340438924
21
-0.000815697870574477
31
0
210
0
220
0
230
-1
40
0.990153
41
1.21197672910276
42
-1.2549061308953
0
ELLIPSE
5
93
100
AcDbEntity
8
1
62
256
6
ByLayer
370
-1
48
1
60
0
100
AcDbEllipse
10
27.70149
20
1.861859
30
0
11
-0.97340876355606
21
-0.229075051090821
31
0
210
0
220
0
230
1
40
0.990077
41
-2.04709022872344
42
-0.769811592664751
0
ELLIPSE
5
94
100
AcDbEntity
8
1
62
256
6
ByLayer
370
-1
48
1
60
0
100
AcDbEllipse
10
26.525601
20
1.398448
30
0
11
0.876067887200471
21
0.206167545981686
31
0
210
0
220
0
230
1
40
0.990077
41
0.953464616567817
42
2.96319986999348
0
ELLIPSE
5
95
100
AcDbEntity
8
1
62
256
6
ByLayer
370
-1
48
1
60
0
100
AcDbEllipse
10
29.755001
20
0.003021
30
0
11
0.0549382531279426
21
4.30751307273963
31
0
210
0
220
0
230
-1
40
0.034269
41
0.0486510004829805
42
0.446123705443752
0
ELLIPSE
5
96
100
AcDbEntity
8
1
62
256
6
ByLayer
370
-1
48
1
60
0
100
AcDbEllipse
10
27.64077
20
2.119876
30
0
11
1.00051815604292
21
-0.000906330950534274
31
0
210
0
220
0
230
-1
40
0.990153
41
-2.60160936537222
42
-1.38457718205522
0
ELLIPSE
5
97
100
AcDbEntity
8
1
62
256
6
ByLayer
370
-1
48
1
60
0
100
AcDbEllipse
10
27.645154
20
2.101246
30
0
11
-0.97340876355606
21
-0.229075051090821
31
0
210
0
220
0
230
1
40
0.990077
41
-2.34060791945966
42
-1.98684377598136
0
ELLIPSE
5
98
100
AcDbEntity
8
1
62
256
6
ByLayer
370
-1
48
1
60
0
100
AcDbEllipse
10
22.991359
20
9.737596
30
0
11
8.64151427386595
21
-31.9495432635719
31
-3.46939735499561E-15
210
-3.08148791101958E-33
220
1.08589888950035E-16
230
-1
40
0.131667
41
1.23302404741196
42
1.35947257990227
0
ELLIPSE
5
99
100
AcDbEntity
8
1
62
256
6
ByLayer
370
-1
48
1
60
0
100
AcDbEllipse
10
29.054531
20
0.003013
30
0
11
0.0544461116938836
21
4.26892818827899
31
0
210
0
220
0
230
-1
40
0.034269
41
0.0320110393983384
42
0.0531722273766245
0
ELLIPSE
5
9A
100
AcDbEntity
8
1
62
256
6
ByLayer
370
-1
48
1
60
0
100
AcDbEllipse
10
26.459608
20
1.678872
30
0
11
0.876067887200469
21
0.206167545981685
31
0
210
0
220
0
230
1
40
0.990077
41
-1.41847074134172
42
-1.03002659268673
0
ELLIPSE
5
9B
100
AcDbEntity
8
1
62
256
6
ByLayer
370
-1
48
1
60
0
100
AcDbEllipse
10
31.752258
20
4.707565
30
0
11
-0.192734935184112
21
-0.0453568601159852
31
0
210
0
220
0
230
1
40
0.990077
41
2.89537983652311
42
-1.29341036826316
0
ELLIPSE
5
9C
100
AcDbEntity
8
1
62
256
6
ByLayer
370
-1
48
1
60
0
100
AcDbEllipse
10
26.341324
20
1.709987
30
0
11
-0.192734935184112
21
-0.0453568601159852
31
0
210
0
220
0
230
1
40
0.990077
41
-1.29341036826323
42
0.800984734130001
0
ELLIPSE
5
9D
100
AcDbEntity
8
1
62
256
6
ByLayer
370
-1
48
1
60
0
100
AcDbEllipse
10
31.645229
20
-1.424087
30
0
11
-0.192734935184112
21
-0.0453568601159852
31
0
210
0
220
0
230
1
40
0.990077
41
0.800984734129951
42
2.89537983652321
0
ELLIPSE
5
9E
100
AcDbEntity
8
1
62
256
6
ByLayer
370
-1
48
1
60
0
100
AcDbEllipse
10
29.958861
20
2.527112
30
0
11
-0.347506928589513
21
-0.0817797932394232
31
0
210
0
220
0
230
1
40
0.990077
41
1.32378271676585
42
2.09768542296095
0
ELLIPSE
5
9F
100
AcDbEntity
8
1
62
256
6
ByLayer
370
-1
48
1
60
0
100
AcDbEllipse
10
29.093842
20
2.046065
30
0
11
-0.347506928589513
21
-0.0817797932394232
31
0
210
0
220
0
230
1
40
0.990077
41
2.46328655868814
42
-3.13342223154428
0
ELLIPSE
5
A0
100
AcDbEntity
8
1
62
256
6
ByLayer
370
-1
48
1
60
0
100
AcDbEllipse
10
29.940934
20
1.545519
30
0
11
-0.617141156094547
21
-0.145233582391582
31
0
210
0
220
0
230
1
40
0.990077
41
2.69065294230571
42
-2.86340590209538
0
ELLIPSE
5
A1
100
AcDbEntity
8
1
62
256
6
ByLayer
370
-1
48
1
60
0
100
AcDbEllipse
10
29.915181
20
1.654953
30
0
11
0.853192781256904
21
0.200784282281053
31
0
210
0
220
0
230
1
40
0.990077
41
-0.244611231141284
42
0.800984734130086
0
ELLIPSE
5
A2
100
AcDbEntity
8
1
62
256
6
ByLayer
370
-1
48
1
60
0
100
AcDbEllipse
10
29.915181
20
1.654953
30
0
11
0.853192781256904
21
0.200784282281053
31
0
210
0
220
0
230
1
40
0.990077
41
1.84658069940157
42
2.89698142244844
0
ELLIPSE
5
A3
100
AcDbEntity
8
1
62
256
6
ByLayer
370
-1
48
1
60
0
100
AcDbEllipse
10
29.915181
20
1.654953
30
0
11
0.853192781256904
21
0.200784282281053
31
0
210
0
220
0
230
1
40
0.990077
41
-2.3406079194596
42
-1.29501195418811
0
ELLIPSE
5
A4
100
AcDbEntity
8
1
62
256
6
ByLayer
370
-1
48
1
60
0
100
AcDbEllipse
10
29.915181
20
1.654953
30
0
11
0.853192781256904
21
0.200784282281053
31
0
210
0
220
0
230
1
40
0.990077
41
0.800984734130085
42
1.84658069940157
0
ELLIPSE
5
A5
100
AcDbEntity
8
1
62
256
6
ByLayer
370
-1
48
1
60
0
100
AcDbEllipse
10
29.915181
20
1.654953
30
0
11
0.853192781256904
21
0.200784282281053
31
0
210
0
220
0
230
1
40
0.990077
41
-1.29501195418811
42
-0.244611231141284
0
ELLIPSE
5
A6
100
AcDbEntity
8
1
62
256
6
ByLayer
370
-1
48
1
60
0
100
AcDbEllipse
10
30.806774
20
2.026081
30
0
11
-0.347506928589513
21
-0.0817797932394232
31
0
210
0
220
0
230
1
40
0.990077
41
0.278186751494397
42
1.05208945768948
0
ELLIPSE
5
A7
100
AcDbEntity
8
1
62
256
6
ByLayer
370
-1
48
1
60
0
100
AcDbEllipse
10
29.940934
20
1.545519
30
0
11
-0.617141156094547
21
-0.145233582391582
31
0
210
0
220
0
230
1
40
0.990077
41
-1.81780993682392
42
-0.821288413893609
0
ELLIPSE
5
A8
100
AcDbEntity
8
1
62
256
6
ByLayer
370
-1
48
1
60
0
100
AcDbEllipse
10
29.940934
20
1.545519
30
0
11
-0.617141156094547
21
-0.145233582391582
31
0
210
0
220
0
230
1
40
0.990077
41
-2.86340590209538
42
-1.81780993682392
0
ELLIPSE
5
A9
100
AcDbEntity
8
1
62
256
6
ByLayer
370
-1
48
1
60
0
100
AcDbEllipse
10
29.940934
20
1.545519
30
0
11
-0.617141156094547
21
-0.145233582391582
31
0
210
0
220
0
230
1
40
0.990077
41
1.60607860089234
42
2.18231694722507
0
ELLIPSE
5
AA
100
AcDbEntity
8
1
62
256
6
ByLayer
370
-1
48
1
60
0
100
AcDbEllipse
10
29.075094
20
1.064958
30
0
11
-0.347506928589513
21
-0.0817797932394232
31
0
210
0
220
0
230
1
40
0.990077
41
2.64587669888901
42
3.14158426810247
0
ELLIPSE
5
AB
100
AcDbEntity
8
1
62
256
6
ByLayer
370
-1
48
1
60
0
100
AcDbEllipse
10
29.221896
20
1.553537
30
0
11
-0.152825175878301
21
-0.0359647830212589
31
0
210
0
220
0
230
1
40
0.990077
41
-1.54779360737501
42
-0.364559563041727
0
ELLIPSE
5
AC
100
AcDbEntity
8
1
62
256
6
ByLayer
370
-1
48
1
60
0
100
AcDbEllipse
10
29.093842
20
2.046065
30
0
11
-0.347506928589513
21
-0.0817797932394232
31
0
210
0
220
0
230
1
40
0.990077
41
1.59379904621483
42
2.28027556316195
0
ELLIPSE
5
AD
100
AcDbEntity
8
1
62
256
6
ByLayer
370
-1
48
1
60
0
100
AcDbEllipse
10
29.593205
20
2.167853
30
0
11
-0.152825175878301
21
-0.0359647830212589
31
0
210
0
220
0
230
1
40
0.990077
41
-2.59171264301897
42
0.00817042204542708
0
ELLIPSE
5
AE
100
AcDbEntity
8
1
62
256
6
ByLayer
370
-1
48
1
60
0
100
AcDbEllipse
10
29.958861
20
2.527112
30
0
11
-0.347506928589513
21
-0.0817797932394232
31
0
210
0
220
0
230
1
40
0.990077
41
0.549880010570697
42
1.32378271676585
0
ELLIPSE
5
AF
100
AcDbEntity
8
1
62
256
6
ByLayer
370
-1
48
1
60
0
100
AcDbEllipse
10
30.311217
20
2.158136
30
0
11
-0.152825175878301
21
-0.0359647830212589
31
0
210
0
220
0
230
1
40
0.990077
41
-2.78537652716443
42
-1.04390723062865
0
ELLIPSE
5
B0
100
AcDbEntity
8
1
62
256
6
ByLayer
370
-1
48
1
60
0
100
AcDbEllipse
10
30.806774
20
2.026081
30
0
11
-0.347506928589513
21
-0.0817797932394232
31
0
210
0
220
0
230
1
40
0.990077
41
-7.65729741002883E-06
42
0.278186751494397
0
ELLIPSE
5
B1
100
AcDbEntity
8
1
62
256
6
ByLayer
370
-1
48
1
60
0
100
AcDbEllipse
10
30.659973
20
1.537501
30
0
11
-0.152825175878301
21
-0.0359647830212589
31
0
210
0
220
0
230
1
40
0.990077
41
-2.69243531978247
42
-2.08950319590014
0
ELLIPSE
5
B2
100
AcDbEntity
8
1
62
256
6
ByLayer
370
-1
48
1
60
0
100
AcDbEllipse
10
29.940934
20
1.545519
30
0
11
-0.617141156094547
21
-0.145233582391582
31
0
210
0
220
0
230
1
40
0.990077
41
0.348453374305576
42
0.984044963967322
0
ELLIPSE
5
B3
100
AcDbEntity
8
1
62
256
6
ByLayer
370
-1
48
1
60
0
100
AcDbEllipse
10
29.940934
20
1.545519
30
0
11
-0.617141156094547
21
-0.145233582391582
31
0
210
0
220
0
230
1
40
0.990077
41
-0.718334771435927
42
-1.33217727055515E-05
0
ELLIPSE
5
B4
100
AcDbEntity
8
1
62
256
6
ByLayer
370
-1
48
1
60
0
100
AcDbEllipse
10
29.919688
20
1.635801
30
0
11
0.617141156094559
21
0.145233582391544
31
0
210
0
220
0
230
1
40
0.990077
41
-0.821288413892389
42
-0.718334771436953
0
ELLIPSE
5
B5
100
AcDbEntity
8
1
62
256
6
ByLayer
370
-1
48
1
60
0
100
AcDbEllipse
10
29.915181
20
1.654953
30
0
11
0.853192781256904
21
0.200784282281053
31
0
210
0
220
0
230
1
40
0.990077
41
2.89698142244844
42
-2.3406079194596
0
ELLIPSE
5
B6
100
AcDbEntity
8
1
62
256
6
ByLayer
370
-1
48
1
60
0
100
AcDbEllipse
10
29.953811
20
1.490802
30
0
11
0.617141156094557
21
0.145233582391544
31
0
210
0
220
0
230
1
40
0.990077
41
0.0448370891138713
42
3.09679573862395
0
ELLIPSE
5
B7
100
AcDbEntity
8
1
62
256
6
ByLayer
370
-1
48
1
60
0
100
AcDbEllipse
10
29.919688
20
1.635801
30
0
11
0.617141156094559
21
0.145233582391544
31
0
210
0
220
0
230
1
40
0.990077
41
2.32030423969618
42
2.42325788215385
0
ELLIPSE
5
B8
100
AcDbEntity
8
1
62
256
6
ByLayer
370
-1
48
1
60
0
100
AcDbEllipse
10
29.915181
20
1.654953
30
0
11
0.924738325378292
21
0.217621298536228
31
0
210
0
220
0
230
1
40
0.990077
41
0
42
6.28318530717959
0
ELLIPSE
5
B9
100
AcDbEntity
8
1
62
256
6
ByLayer
370
-1
48
1
60
0
100
AcDbEllipse
10
29.919367
20
1.637166
30
0
11
1.24109617353401
21
0.292070690140725
31
0
210
0
220
0
230
1
40
0.990077
41
0
42
6.28318530717959
0
ELLIPSE
5
BA
100
AcDbEntity
8
1
62
256
6
ByLayer
370
-1
48
1
60
0
100
AcDbEllipse
10
29.934496
20
1.572878
30
0
11
1.241096173534
21
0.292070690140721
31
0
210
0
220
0
230
1
40
0.990077
41
3.14156332902526
42
-0.233361032524556
0
ELLIPSE
5
BB
100
AcDbEntity
8
1
62
256
6
ByLayer
370
-1
48
1
60
0
100
AcDbEllipse
10
29.934496
20
1.572878
30
0
11
1.241096173534
21
0.292070690140721
31
0
210
0
220
0
230
1
40
0.990077
41
-0.233361032524556
42
-1.75898067840935E-16
0
ELLIPSE
5
BC
100
AcDbEntity
8
1
62
256
6
ByLayer
370
-1
48
1
60
0
100
AcDbEllipse
10
29.912937
20
1.664489
30
0
11
1.36277226897851
21
0.320705071527066
31
0
210
0
220
0
230
1
40
0.990077
41
0
42
6.28318530717959
0
ELLIPSE
5
BD
100
AcDbEntity
8
1
62
256
6
ByLayer
370
-1
48
1
60
0
100
AcDbEllipse
10
29.924785
20
1.61414
30
0
11
1.347129611944
21
0.317023840585314
31
0
210
0
220
0
230
1
40
0.990077
41
-0.31261805629444
42
-0.233361529636581
0
ELLIPSE
5
BE
100
AcDbEntity
8
1
62
256
6
ByLayer
370
-1
48
1
60
0
100
AcDbEllipse
10
29.924785
20
1.61414
30
0
11
1.347129611944
21
0.317023840585314
31
0
210
0
220
0
230
1
40
0.990077
41
-0.233360800207133
42
-3.24106035520037E-16
0
ELLIPSE
5
BF
100
AcDbEntity
8
1
62
256
6
ByLayer
370
-1
48
1
60
0
100
AcDbEllipse
10
29.924785
20
1.61414
30
0
11
1.347129611944
21
0.317023840585314
31
0
210
0
220
0
230
1
40
0.990077
41
0
42
-2.82893586542641
0
ELLIPSE
5
C0
100
AcDbEntity
8
1
62
256
6
ByLayer
370
-1
48
1
60
0
100
AcDbEllipse
10
29.932172
20
1.582754
30
0
11
-1.28167779744316
21
-0.301620879042305
31
0
210
0
220
0
230
1
40
0.990077
41
-0.233360978900517
42
-1.70328626558803E-16
0
ELLIPSE
5
C1
100
AcDbEntity
8
1
62
256
6
ByLayer
370
-1
48
1
60
0
100
AcDbEllipse
10
29.932172
20
1.582754
30
0
11
-1.28167779744316
21
-0.301620879042305
31
0
210
0
220
0
230
1
40
0.990077
41
0
42
1.376479267575
0
ELLIPSE
5
C2
100
AcDbEntity
8
1
62
256
6
ByLayer
370
-1
48
1
60
0
100
AcDbEllipse
10
29.932172
20
1.582754
30
0
11
-1.28167779744316
21
-0.301620879042305
31
0
210
0
220
0
230
1
40
0.990077
41
1.76505459418766
42
-2.2965340523383
0
ELLIPSE
5
C3
100
AcDbEntity
8
1
62
256
6
ByLayer
370
-1
48
1
60
0
100
AcDbEllipse
10
29.932172
20
1.582754
30
0
11
-1.28167779744316
21
-0.301620879042305
31
0
210
0
220
0
230
1
40
0.990077
41
-0.845117628714434
42
-0.233360978900511
0
POINT
5
41
100
AcDbEntity
8
80
62
256
6
ByLayer
370
-1
48
1
60
0
100
AcDbPoint
10
0
20
0
30
0
39
0
210
0
220
0
230
1
50
360
0
POINT
5
43
100
AcDbEntity
8
81
62
256
6
ByLayer
370
-1
48
1
60
0
100
AcDbPoint
10
31.95
20
4.9
30
0
39
0
210
0
220
0
230
1
50
360
0
POINT
5
45
100
AcDbEntity
8
1
62
256
6
ByLayer
370
-1
48
1
60
0
100
AcDbPoint
10
-94.3
20
0
30
0
39
0
210
0
220
0
230
1
50
360
0
POINT
5
47
100
AcDbEntity
8
2
62
256
6
ByLayer
370
-1
48
1
60
0
100
AcDbPoint
10
31.95
20
4.9
30
0
39
0
210
0
220
0
230
1
50
360
0
SPLINE
5
C4
100
AcDbEntity
8
1
62
256
6
ByLayer
370
-1
48
1
60
0
100
AcDbSpline
70
4
71
3
72
8
73
4
40
0
40
0
40
0
40
0
40
1
40
1
40
1
40
1
41
1
10
22.7807246289779
20
3.91839260897782
30
0
41
1
10
23.2901170363991
20
3.95698460970195
30
0
41
1
10
23.8329220899984
20
3.9800346206747
30
0
41
1
10
24.3798430072941
20
4.01004437308924
30
0
0
SPLINE
5
C5
100
AcDbEntity
8
1
62
256
6
ByLayer
370
-1
48
1
60
0
100
AcDbSpline
70
4
71
3
72
8
73
4
40
0
40
0
40
0
40
0
40
1
40
1
40
1
40
1
41
1
10
24.3798430072941
20
4.01004437308924
30
0
41
1
10
25.9577706693599
20
4.09662584578328
30
0
41
1
10
27.5357002056257
20
4.18317380064411
30
0
41
1
10
29.1136312878321
20
4.26969407853039
30
0
0
SPLINE
5
C6
100
AcDbEntity
8
1
62
256
6
ByLayer
370
-1
48
1
60
0
100
AcDbSpline
70
4
71
3
72
8
73
4
40
0
40
0
40
0
40
0
40
1
40
1
40
1
40
1
41
1
10
22.0560820246297
20
-2.22318954662165
30
0
41
1
10
21.9962317479809
20
-2.1265689772431
30
0
41
1
10
21.939785597586
20
-2.02662632520816
30
0
41
1
10
21.8860336824472
20
-1.92354855995384
30
0
0
SPLINE
5
C7
100
AcDbEntity
8
1
62
256
6
ByLayer
370
-1
48
1
60
0
100
AcDbSpline
70
4
71
3
72
8
73
4
40
0
40
0
40
0
40
0
40
1
40
1
40
1
40
1
41
1
10
29.1166750827681
20
4.26580832668415
30
0
41
1
10
29.3501337092832
20
4.27900207559128
30
0
41
1
10
29.5835931137787
20
4.29218117012516
30
0
41
1
10
29.8170532737384
20
4.3053459833082
30
0
0
SPLINE
5
C8
100
AcDbEntity
8
1
62
256
6
ByLayer
370
-1
48
1
60
0
100
AcDbSpline
70
4
71
3
72
48
73
44
40
-0.0751769511514629
40
-0.0751769511514629
40
0
40
0
40
0.0622721362597532
40
0.0622721362597532
40
0.11351450378163
40
0.11351450378163
40
0.155755890111052
40
0.155755890111052
40
0.19836880497352
40
0.19836880497352
40
0.235602663953255
40
0.235602663953255
40
0.270853812524626
40
0.270853812524626
40
0.306911507747318
40
0.306911507747318
40
0.345679072517632
40
0.345679072517632
40
0.389269248908302
40
0.389269248908302
40
0.453358163680943
40
0.453358163680943
40
0.539014547615669
40
0.539014547615669
40
0.626690663301248
40
0.626690663301248
40
0.665196007095027
40
0.665196007095027
40
0.704129985277517
40
0.704129985277517
40
0.722388651925917
40
0.722388651925917
40
0.740941489297177
40
0.740941489297177
40
0.757133146319482
40
0.757133146319482
40
0.780931832613844
40
0.780931832613844
40
0.826835384187316
40
0.826835384187316
40
0.924823048848537
40
0.924823048848537
40
1
40
1
40
1.06227213625975
40
1.06227213625975
41
1
10
22.6057502216015
20
0.803494770070927
30
0
41
1
10
22.3692146759369
20
0.719258244784953
30
0
41
1
10
22.2593933101081
20
0.698008691045089
30
0
41
1
10
22.0627974735313
20
0.704757436263662
30
0
41
1
10
21.9735434933255
20
0.725106094181399
30
0
41
1
10
21.8190916717793
20
0.800676813867369
30
0
41
1
10
21.7508132549409
20
0.850192122005438
30
0
41
1
10
21.6262929953448
20
0.97712431735502
30
0
41
1
10
21.5682324190446
20
1.05688181041921
30
0
41
1
10
21.4774781489729
20
1.2219824822046
30
0
41
1
10
21.4411983883234
20
1.3076298195341
30
0
41
1
10
21.3878640418859
20
1.47545747119938
30
0
41
1
10
21.3691660135309
20
1.55977157168266
30
0
41
1
10
21.3485541253895
20
1.72240305521606
30
0
41
1
10
21.3467684083972
20
1.80260385884316
30
0
41
1
10
21.3610699498535
20
1.9543317959282
30
0
41
1
10
21.3786714174014
20
2.02664452237576
30
0
41
1
10
21.4347955106758
20
2.16022105402263
30
0
41
1
10
21.4762516013676
20
2.22065958328017
30
0
41
1
10
21.5996843383856
20
2.34229066463468
30
0
41
1
10
21.693472782373
20
2.39305275648323
30
0
41
1
10
21.9381469491315
20
2.4699935957488
30
0
41
1
10
22.1016769244841
20
2.48449436940516
30
0
41
1
10
22.4499378858601
20
2.4710316467293
30
0
41
1
10
22.6398608193748
20
2.44273558356665
30
0
41
1
10
22.9139514724504
20
2.36668633619618
30
0
41
1
10
22.9987937013758
20
2.33824832709661
30
0
41
1
10
23.1650222299254
20
2.26568881179395
30
0
41
1
10
23.2484550867233
20
2.22103869930586
30
0
41
1
10
23.354933591622
20
2.13302821575044
30
0
41
1
10
23.3869146014768
20
2.10078183621374
30
0
41
1
10
23.4396134304278
20
2.0280474181445
30
0
41
1
10
23.4605252617794
20
1.98625459232429
30
0
41
1
10
23.4829252372084
20
1.90527583033853
30
0
41
1
10
23.4868878365991
20
1.86558608663907
30
0
41
1
10
23.4832650495134
20
1.77078023230718
30
0
41
1
10
23.4699366879406
20
1.7155052118016
30
0
41
1
10
23.4153783250309
20
1.56483577356366
30
0
41
1
10
23.3599151481677
20
1.47519892105834
30
0
41
1
10
23.1716657271639
20
1.22092313709641
30
0
41
1
10
23.0159851219336
20
1.07695788419656
30
0
41
1
10
22.7340893416987
20
0.874729134305596
30
0
41
1
10
22.6057502216015
20
0.803494770070927
30
0
41
1
10
22.3692146759369
20
0.719258244784953
30
0
0
SPLINE
5
C9
100
AcDbEntity
8
1
62
256
6
ByLayer
370
-1
48
1
60
0
100
AcDbSpline
70
4
71
3
72
8
73
4
40
0
40
0
40
0
40
0
40
1
40
1
40
1
40
1
41
1
10
24.1580452169921
20
-3.67614363177472
30
0
41
1
10
23.5924079137063
20
-3.51752804117805
30
0
41
1
10
23.09970098202
20
-3.27973938690428
30
0
41
1
10
22.6938824086775
20
-2.91390411425732
30
0
0
SPLINE
5
CA
100
AcDbEntity
8
1
62
256
6
ByLayer
370
-1
48
1
60
0
100
AcDbSpline
70
4
71
3
72
8
73
4
40
0
40
0
40
0
40
0
40
1
40
1
40
1
40
1
41
1
10
20.6908348626676
20
1.92354855995359
30
0
41
1
10
20.5717137578288
20
2.58897882236227
30
0
41
1
10
20.5547857352123
20
3.16639158453029
30
0
41
1
10
20.8371525896206
20
3.50624999999999
30
0
0
SPLINE
5
CB
100
AcDbEntity
8
1
62
256
6
ByLayer
370
-1
48
1
60
0
100
AcDbSpline
70
4
71
3
72
8
73
4
40
0
40
0
40
0
40
0
40
1
40
1
40
1
40
1
41
1
10
22.0560820246297
20
-2.22318954662134
30
0
41
1
10
22.080503928696
20
-2.24211072522084
30
0
41
1
10
22.105514988224
20
-2.25950396629304
30
0
41
1
10
22.1310820246297
20
-2.27531311068537
30
0
0
SPLINE
5
CC
100
AcDbEntity
8
1
62
256
6
ByLayer
370
-1
48
1
60
0
100
AcDbSpline
70
4
71
3
72
8
73
4
40
0
40
0
40
0
40
0
40
1
40
1
40
1
40
1
41
1
10
22.1310820246297
20
-2.27531311068535
30
0
41
1
10
22.2954426683457
20
-2.51905686338475
30
0
41
1
10
22.482840144395
20
-2.73436092371057
30
0
41
1
10
22.6938824086775
20
-2.91390411425709
30
0
0
SPLINE
5
CD
100
AcDbEntity
8
1
62
256
6
ByLayer
370
-1
48
1
60
0
100
AcDbSpline
70
4
71
3
72
16
73
12
40
0
40
0
40
0
40
0
40
0.171572506469771
40
0.171572506469771
40
0.471870200206469
40
0.471870200206469
40
0.743310048174527
40
0.743310048174527
40
0.984765083270146
40
0.984765083270146
40
1
40
1
40
1
40
1
41
1
10
29.1588979030494
20
1.80547016954449
30
0
41
1
10
29.1481733860528
20
1.8035034315489
30
0
41
1
10
29.1375806457965
20
1.80037484308275
30
0
41
1
10
29.109808863881
20
1.78866495763907
30
0
41
1
10
29.093133467997
20
1.77746398652121
30
0
41
1
10
29.0670305874647
20
1.75037920003083
30
0
41
1
10
29.056686795891
20
1.73460467256973
30
0
41
1
10
29.0435975563936
20
1.70201026062338
30
0
41
1
10
29.0399685616409
20
1.685022222296
30
0
41
1
10
29.0392894008582
20
1.66690482622843
30
0
41
1
10
29.0392603086105
20
1.665813322144
30
0
41
1
10
29.0392430075793
20
1.66472100944725
30
0
0
SPLINE
5
CE
100
AcDbEntity
8
1
62
256
6
ByLayer
370
-1
48
1
60
0
100
AcDbSpline
70
4
71
3
72
12
73
8
40
0
40
0
40
0
40
0
40
0.318959755109943
40
0.318959755109943
40
0.766852775067027
40
0.766852775067027
40
1
40
1
40
1
40
1
41
1
10
30.4453924429867
20
1.28746655761768
30
0
41
1
10
30.4333752797914
20
1.26317882323068
30
0
41
1
10
30.4241992272578
20
1.23789795063317
30
0
41
1
10
30.4096551581915
20
1.17842672280835
30
0
41
1
10
30.4070075978154
20
1.14378430834438
30
0
41
1
10
30.4107458389831
20
1.09437506248418
30
0
41
1
10
30.4134011704543
20
1.07783864326677
30
0
41
1
10
30.4173079217816
20
1.06187648842152
30
0
0
SPLINE
5
CF
100
AcDbEntity
8
1
62
256
6
ByLayer
370
-1
48
1
60
0
100
AcDbSpline
70
4
71
3
72
14
73
10
40
0
40
0
40
0
40
0
40
0.271442919796216
40
0.271442919796216
40
0.560486767676699
40
0.560486767676699
40
0.822263360082239
40
0.822263360082239
40
1
40
1
40
1
40
1
41
1
10
30.1530732376661
20
0.915013711599045
30
0
41
1
10
30.1648083868974
20
0.904201878726042
30
0
41
1
10
30.178948675313
20
0.894979618095675
30
0
41
1
10
30.2113290548726
20
0.881168652878415
30
0
41
1
10
30.2303037209725
20
0.876736171680847
30
0
41
1
10
30.2674477938622
20
0.875080457843353
30
0
41
1
10
30.286088217865
20
0.877222500049697
30
0
41
1
10
30.3158635201355
20
0.885817076172515
30
0
41
1
10
30.3277363564758
20
0.890722859247859
30
0
41
1
10
30.3387865192434
20
0.896821573481503
30
0
0
SPLINE
5
D0
100
AcDbEntity
8
1
62
256
6
ByLayer
370
-1
48
1
60
0
100
AcDbSpline
70
4
71
3
72
14
73
10
40
0
40
0
40
0
40
0
40
0.242550029364967
40
0.242550029364967
40
0.535207946280935
40
0.535207946280935
40
0.799952529625255
40
0.799952529625255
40
1
40
1
40
1
40
1
41
1
10
29.3953834330486
20
1.07480129036836
30
0
41
1
10
29.3910971712079
20
1.06123798549538
30
0
41
1
10
29.3889175407011
20
1.0466788669527
30
0
41
1
10
29.3895267728814
20
1.01421610210085
30
0
41
1
10
29.3934973687618
20
0.995707180642142
30
0
41
1
10
29.4081122411706
20
0.962714025107033
30
0
41
1
10
29.4183376218227
20
0.947525365764591
30
0
41
1
10
29.4406695659835
20
0.924680385401132
30
0
41
1
10
29.45192523451
20
0.915852413157751
30
0
41
1
10
29.4640994690419
20
0.908658665702291
30
0
0
SPLINE
5
D1
100
AcDbEntity
8
1
62
256
6
ByLayer
370
-1
48
1
60
0
100
AcDbSpline
70
4
71
3
72
12
73
8
40
0
40
0
40
0
40
0
40
0.473228927991726
40
0.473228927991726
40
0.868405904611722
40
0.868405904611722
40
1
40
1
40
1
40
1
41
1
10
29.1588979030556
20
1.80547016954338
30
0
41
1
10
29.1946202402035
20
1.81202118511399
30
0
41
1
10
29.230079021506
20
1.82440130147165
30
0
41
1
10
29.2902160487424
20
1.85840526063362
30
0
41
1
10
29.3163416070084
20
1.87863874390422
30
0
41
1
10
29.3464547449427
20
1.9109956906741
30
0
41
1
10
29.3536532869483
20
1.91959003020912
30
0
41
1
10
29.3604063012925
20
1.92858417988927
30
0
0
SPLINE
5
D2
100
AcDbEntity
8
1
62
256
6
ByLayer
370
-1
48
1
60
0
100
AcDbSpline
70
4
71
3
72
18
73
14
40
0
40
0
40
0
40
0
40
0.209592498573889
40
0.209592498573889
40
0.386035737300349
40
0.386035737300349
40
0.564156181171289
40
0.564156181171289
40
0.719435990900766
40
0.719435990900766
40
0.925345104610461
40
0.925345104610461
40
1
40
1
40
1
40
1
41
1
10
29.6809928707133
20
2.37915104478978
30
0
41
1
10
29.7068533187558
20
2.35135608394748
30
0
41
1
10
29.7374464952922
20
2.32672891050856
30
0
41
1
10
29.8002583366367
20
2.29141641677114
30
0
41
1
10
29.8322058252543
20
2.27882956418671
30
0
41
1
10
29.8986372648657
20
2.26409342495083
30
0
41
1
10
29.9341383259783
20
2.26194229118116
30
0
41
1
10
29.9977834599918
20
2.26846432755673
30
0
41
1
10
30.027052764913
20
2.27580642974476
30
0
41
1
10
30.0896477005574
20
2.30055096750678
30
0
41
1
10
30.1223170405962
20
2.32073880059781
30
0
41
1
10
30.1607236204318
20
2.35336385702647
30
0
41
1
10
30.1704904024124
20
2.36265575067136
30
0
41
1
10
30.1796897743989
20
2.37240220674784
30
0
0
SPLINE
5
D3
100
AcDbEntity
8
1
62
256
6
ByLayer
370
-1
48
1
60
0
100
AcDbSpline
70
4
71
3
72
14
73
10
40
0
40
0
40
0
40
0
40
0.015049688987019
40
0.015049688987019
40
0.363075963081752
40
0.363075963081752
40
0.824331701880329
40
0.824331701880329
40
1
40
1
40
1
40
1
41
1
10
29.3939833157711
20
1.9841358979613
30
0
41
1
10
29.3945490737056
20
1.98532288671274
30
0
41
1
10
29.3951079115066
20
1.98651339011133
30
0
41
1
10
29.4082749877931
20
2.01499789148863
30
0
41
1
10
29.4172620795708
20
2.04435502085187
30
0
41
1
10
29.4292502937836
20
2.11223080560455
30
0
41
1
10
29.4296915986246
20
2.15175199089057
30
0
41
1
10
29.4228889674687
20
2.20382050858254
30
0
41
1
10
29.4202065199177
20
2.21811975422875
30
0
41
1
10
29.416791963914
20
2.23214473798953
30
0
0
SPLINE
5
D4
100
AcDbEntity
8
1
62
256
6
ByLayer
370
-1
48
1
60
0
100
AcDbSpline
70
4
71
3
72
16
73
12
40
0
40
0
40
0
40
0
40
0.0626192266163623
40
0.0626192266163623
40
0.379836444817501
40
0.379836444817501
40
0.663956040835544
40
0.663956040835544
40
0.914588567951815
40
0.914588567951815
40
1
40
1
40
1
40
1
41
1
10
30.4386826753294
20
2.21936346602203
30
0
41
1
10
30.4396653406454
20
2.22345075142928
30
0
41
1
10
30.4405073773564
20
2.22758960586782
30
0
41
1
10
30.4446815539042
20
2.25267680676563
30
0
41
1
10
30.4444227102526
20
2.27502072192695
30
0
41
1
10
30.4358515345223
20
2.31570071257119
30
0
41
1
10
30.428205367583
20
2.33483990829472
30
0
41
1
10
30.4078142474922
20
2.36661420849197
30
0
41
1
10
30.395455250541
20
2.38020230514155
30
0
41
1
10
30.3765559736621
20
2.39473161633148
30
0
41
1
10
30.3714930031754
20
2.39815680716234
30
0
41
1
10
30.3662621130026
20
2.4012477368444
30
0
0
SPLINE
5
D5
100
AcDbEntity
8
1
62
256
6
ByLayer
370
-1
48
1
60
0
100
AcDbSpline
70
4
71
3
72
16
73
12
40
0
40
0
40
0
40
0
40
0.211702398631386
40
0.211702398631386
40
0.436992269373968
40
0.436992269373968
40
0.672963080188325
40
0.672963080188325
40
0.92964754825598
40
0.92964754825598
40
1
40
1
40
1
40
1
41
1
10
29.0392430075793
20
1.66472100944725
30
0
41
1
10
29.0390076689381
20
1.6498627398779
30
0
41
1
10
29.041013979428
20
1.63466079933835
30
0
41
1
10
29.0493691868396
20
1.60482994058708
30
0
41
1
10
29.0560957442989
20
1.58991890476148
30
0
41
1
10
29.0734521564832
20
1.56250732938503
30
0
41
1
10
29.0844567593371
20
1.54980189387251
30
0
41
1
10
29.1098612770141
20
1.52753657526787
30
0
41
1
10
29.1247807631807
20
1.51805776346018
30
0
41
1
10
29.14448344128
20
1.5091685075289
30
0
41
1
10
29.1488016336103
20
1.50742534374385
30
0
41
1
10
29.1531543960538
20
1.50586512026254
30
0
0
SPLINE
5
D6
100
AcDbEntity
8
1
62
256
6
ByLayer
370
-1
48
1
60
0
100
AcDbSpline
70
4
71
3
72
16
73
12
40
0
40
0
40
0
40
0
40
0.102149803447721
40
0.102149803447721
40
0.411345324587291
40
0.411345324587291
40
0.691399507854421
40
0.691399507854421
40
0.939194003106086
40
0.939194003106086
40
1
40
1
40
1
40
1
41
1
10
29.6809928707147
20
2.37915104479086
30
0
41
1
10
29.6763394266579
20
2.3841525936862
30
0
41
1
10
29.671367465205
20
2.388898754851
30
0
41
1
10
29.6503582983665
20
2.40663019523214
30
0
41
1
10
29.6316262116422
20
2.41733043757705
30
0
41
1
10
29.5934209862481
20
2.42982424369146
30
0
41
1
10
29.5735766770411
20
2.4325167831889
30
0
41
1
10
29.5368185636341
20
2.43019310929978
30
0
41
1
10
29.519296425885
20
2.42597133615465
30
0
41
1
10
29.4992899542855
20
2.41712387265233
30
0
41
1
10
29.4953852142195
20
2.41518769625162
30
0
41
1
10
29.491575062801
20
2.41308482906524
30
0
0
SPLINE
5
D7
100
AcDbEntity
8
1
62
256
6
ByLayer
370
-1
48
1
60
0
100
AcDbSpline
70
4
71
3
72
18
73
14
40
0
40
0
40
0
40
0
40
0.202331069017092
40
0.202331069017092
40
0.380040784359546
40
0.380040784359546
40
0.559512005411043
40
0.559512005411043
40
0.715049111693029
40
0.715049111693029
40
0.919675821277152
40
0.919675821277152
40
1
40
1
40
1
40
1
41
1
10
30.4386826753287
20
2.21936346602229
30
0
41
1
10
30.4301039134211
20
2.18368107468947
30
0
41
1
10
30.4261607064439
20
2.14577316492949
30
0
41
1
10
30.4292734755236
20
2.0742193011742
30
0
41
1
10
30.4351706638411
20
2.03980656050931
30
0
41
1
10
30.4563817783768
20
1.97427735302489
30
0
41
1
10
30.4721982784038
20
1.94227026726352
30
0
41
1
10
30.5085579132701
20
1.89061301768635
30
0
41
1
10
30.5285903962566
20
1.86923152186117
30
0
41
1
10
30.5782898303721
20
1.82851131367406
30
0
41
1
10
30.6097809255224
20
1.81112629471468
30
0
41
1
10
30.6548176183526
20
1.79493746681533
30
0
41
1
10
30.6678122546423
20
1.79120036593224
30
0
41
1
10
30.6809117123237
20
1.78829963612782
30
0
0
SPLINE
5
D8
100
AcDbEntity
8
1
62
256
6
ByLayer
370
-1
48
1
60
0
100
AcDbSpline
70
4
71
3
72
18
73
14
40
0
40
0
40
0
40
0
40
0.0795926665932558
40
0.0795926665932558
40
0.282320840668804
40
0.282320840668804
40
0.446686957430764
40
0.446686957430764
40
0.611871724023241
40
0.611871724023241
40
0.766583880932044
40
0.766583880932044
40
1
40
1
40
1
40
1
41
1
10
29.3953834330487
20
1.0748012903683
30
0
41
1
10
29.3992291830284
20
1.08697065411209
30
0
41
1
10
29.4023365769656
20
1.09948741359281
30
0
41
1
10
29.4104830924381
20
1.14470285956384
30
0
41
1
10
29.4111741648055
20
1.17952879566431
30
0
41
1
10
29.4011682694236
20
1.24334868934267
30
0
41
1
10
29.3924024610765
20
1.27290834237041
30
0
41
1
10
29.3666535328327
20
1.32954965800218
30
0
41
1
10
29.3492561785187
20
1.35734657280915
30
0
41
1
10
29.3100952704187
20
1.4052539861539
30
0
41
1
10
29.2882661055799
20
1.42632725323981
30
0
41
1
10
29.2305697108874
20
1.47116562115036
30
0
41
1
10
29.1921050678396
20
1.49190346866263
30
0
41
1
10
29.1531543960538
20
1.50586512026268
30
0
0
SPLINE
5
D9
100
AcDbEntity
8
1
62
256
6
ByLayer
370
-1
48
1
60
0
100
AcDbSpline
70
4
71
3
72
16
73
12
40
0
40
0
40
0
40
0
40
0.0576667007710937
40
0.0576667007710937
40
0.282532124460442
40
0.282532124460442
40
0.509855284154431
40
0.509855284154431
40
0.751314207275944
40
0.751314207275944
40
1
40
1
40
1
40
1
41
1
10
30.791118574465
20
1.6451853930995
30
0
41
1
10
30.7911832097893
20
1.64926618946251
30
0
41
1
10
30.7910879673755
20
1.65334211682443
30
0
41
1
10
30.7898494976711
20
1.67306034721705
30
0
41
1
10
30.7863960458652
20
1.68856048609166
30
0
41
1
10
30.7752470755872
20
1.71693748101069
30
0
41
1
10
30.7673750023446
20
1.73015043296371
30
0
41
1
10
30.7480213763557
20
1.75344359213795
30
0
41
1
10
30.7361164587786
20
1.76358079050189
30
0
41
1
10
30.7100940001004
20
1.77934631274789
30
0
41
1
10
30.6956451087561
20
1.78503708868587
30
0
41
1
10
30.6809117123237
20
1.78829963612802
30
0
0
SPLINE
5
DA
100
AcDbEntity
8
1
62
256
6
ByLayer
370
-1
48
1
60
0
100
AcDbSpline
70
4
71
3
72
16
73
12
40
0
40
0
40
0
40
0
40
0.0579383767707964
40
0.0579383767707964
40
0.281721065564007
40
0.281721065564007
40
0.507980620038804
40
0.507980620038804
40
0.748333585344118
40
0.748333585344118
40
1
40
1
40
1
40
1
41
1
10
30.3387865192434
20
0.896821573481503
30
0
41
1
10
30.3424249203916
20
0.898829649682455
30
0
41
1
10
30.3459893049081
20
0.900972179035023
30
0
41
1
10
30.3627653552831
20
0.911919384367508
30
0
41
1
10
30.3748639446702
20
0.922590769965382
30
0
41
1
10
30.3949560086107
20
0.94617996006977
30
0
41
1
10
30.4031682124246
20
0.959414674338205
30
0
41
1
10
30.4153296188567
20
0.98733857876573
30
0
41
1
10
30.4191494618854
20
1.00241127146225
30
0
41
1
10
30.4219680501649
20
1.03242321064616
30
0
41
1
10
30.4207851409879
20
1.04766931044833
30
0
41
1
10
30.4173079217816
20
1.06187648842149
30
0
0
SPLINE
5
DB
100
AcDbEntity
8
1
62
256
6
ByLayer
370
-1
48
1
60
0
100
AcDbSpline
70
4
71
3
72
18
73
14
40
0
40
0
40
0
40
0
40
0.0376226940986759
40
0.0376226940986759
40
0.263071784727688
40
0.263071784727688
40
0.489837905979906
40
0.489837905979906
40
0.729819841466555
40
0.729819841466555
40
0.992451319047845
40
0.992451319047845
40
1
40
1
40
1
40
1
41
1
10
29.4640994690419
20
0.908658665702291
30
0
41
1
10
29.4664056594887
20
0.907295939231432
30
0
41
1
10
29.4687494955094
20
0.905987162900942
30
0
41
1
10
29.4852270364537
20
0.897305754076257
30
0
41
1
10
29.5007079983375
20
0.891834508690692
30
0
41
1
10
29.5319487931591
20
0.885505332976493
30
0
41
1
10
29.5481066318694
20
0.884582493046821
30
0
41
1
10
29.5799050933802
20
0.887060105907267
30
0
41
1
10
29.5958613014547
20
0.89073082713108
30
0
41
1
10
29.6262888699695
20
0.902371322418816
30
0
41
1
10
29.6408679826373
20
0.910843495837838
30
0
41
1
10
29.6536590417804
20
0.921174999583087
30
0
41
1
10
29.6540185180907
20
0.921468083834981
30
0
41
1
10
29.6543763339785
20
0.92176254964275
30
0
0
SPLINE
5
DC
100
AcDbEntity
8
1
62
256
6
ByLayer
370
-1
48
1
60
0
100
AcDbSpline
70
4
71
3
72
16
73
12
40
0
40
0
40
0
40
0
40
0.167126296984469
40
0.167126296984469
40
0.390429019178314
40
0.390429019178314
40
0.622125721404972
40
0.622125721404972
40
0.872671385853609
40
0.872671385853609
40
1
40
1
40
1
40
1
41
1
10
29.491575062801
20
2.41308482906524
30
0
41
1
10
29.4811488789878
20
2.40733049612362
30
0
41
1
10
29.4713319687632
20
2.40024733909655
30
0
41
1
10
29.4508561261728
20
2.38140849139867
30
0
41
1
10
29.4407789409975
20
2.3686217349433
30
0
41
1
10
29.4248922471142
20
2.34066425313452
30
0
41
1
10
29.4190440640681
20
2.32507745653942
30
0
41
1
10
29.4119320201509
20
2.29231218789531
30
0
41
1
10
29.4109728577764
20
2.27470173447378
30
0
41
1
10
29.4133185807463
20
2.24906695577772
30
0
41
1
10
29.4147579627328
20
2.2404992161369
30
0
41
1
10
29.4167919639128
20
2.2321447379891
30
0
0
SPLINE
5
DD
100
AcDbEntity
8
1
62
256
6
ByLayer
370
-1
48
1
60
0
100
AcDbSpline
70
4
71
3
72
14
73
10
40
0
40
0
40
0
40
0
40
0.274538286455733
40
0.274538286455733
40
0.562147297369671
40
0.562147297369671
40
0.822614955450482
40
0.822614955450482
40
1
40
1
40
1
40
1
41
1
10
30.6752019826629
20
1.48855105687181
30
0
41
1
10
30.6917507805085
20
1.49414914025786
30
0
41
1
10
30.7080818047655
20
1.50265517700669
30
0
41
1
10
30.7382425923385
20
1.52532137942563
30
0
41
1
10
30.7523679475016
20
1.54011712178991
30
0
41
1
10
30.7735183902127
20
1.57222053615442
30
0
41
1
10
30.7813807908469
20
1.58966141803876
30
0
41
1
10
30.7891776950344
20
1.61988816327292
30
0
41
1
10
30.7909197537187
20
1.63263270633709
30
0
41
1
10
30.791118574465
20
1.6451853930995
30
0
0
SPLINE
5
DE
100
AcDbEntity
8
1
62
256
6
ByLayer
370
-1
48
1
60
0
100
AcDbSpline
70
4
71
3
72
12
73
8
40
0
40
0
40
0
40
0
40
0.397467953088795
40
0.397467953088795
40
0.806119773619339
40
0.806119773619339
40
1
40
1
40
1
40
1
41
1
10
30.6752019826624
20
1.48855105687411
30
0
41
1
10
30.6461821087963
20
1.4787342910117
30
0
41
1
10
30.6173677754537
20
1.46504898036139
30
0
41
1
10
30.5619564505334
20
1.42976028706269
30
0
41
1
10
30.5348197142241
20
1.40744935913651
30
0
41
1
10
30.4995456710201
20
1.36963571143212
30
0
41
1
10
30.4888029858988
20
1.35660955984866
30
0
41
1
10
30.4789694574646
20
1.34301827568851
30
0
0
SPLINE
5
DF
100
AcDbEntity
8
1
62
256
6
ByLayer
370
-1
48
1
60
0
100
AcDbSpline
70
4
71
3
72
16
73
12
40
0
40
0
40
0
40
0
40
0.144743915027228
40
0.144743915027228
40
0.36923545687196
40
0.36923545687196
40
0.600943015398889
40
0.600943015398889
40
0.850637050854529
40
0.850637050854529
40
1
40
1
40
1
40
1
41
1
10
30.3662621130026
20
2.4012477368444
30
0
41
1
10
30.357465163083
20
2.40644584896668
30
0
41
1
10
30.3481079022608
20
2.41073827930916
30
0
41
1
10
30.3236627623506
20
2.41902330457583
30
0
41
1
10
30.3079270769131
20
2.42162262418833
30
0
41
1
10
30.2766869629333
20
2.4218440057721
30
0
41
1
10
30.2608120328718
20
2.41932104486582
30
0
41
1
10
30.2301106008447
20
2.40946191141569
30
0
41
1
10
30.2150720998206
20
2.40166163232507
30
0
41
1
10
30.1938512024917
20
2.38612265415898
30
0
41
1
10
30.1864286244746
20
2.37954181436069
30
0
41
1
10
30.1796897743989
20
2.37240220674784
30
0
0
SPLINE
5
E0
100
AcDbEntity
8
1
62
256
6
ByLayer
370
-1
48
1
60
0
100
AcDbSpline
70
4
71
3
72
18
73
14
40
0
40
0
40
0
40
0
40
0.158942037933929
40
0.158942037933929
40
0.345009978220621
40
0.345009978220621
40
0.50313821965753
40
0.50313821965753
40
0.661411425990423
40
0.661411425990423
40
0.81981826284005
40
0.81981826284005
40
1
40
1
40
1
40
1
41
1
10
30.153073237666
20
0.915013711599187
30
0
41
1
10
30.1343721701628
20
0.932243387372154
30
0
41
1
10
30.1129895857815
20
0.947781461564517
30
0
41
1
10
30.061647475952
20
0.976338710694563
30
0
41
1
10
30.0301554040835
20
0.988761278054483
30
0
41
1
10
29.9680406692789
20
1.00369985243336
30
0
41
1
10
29.9372836632628
20
1.00753380781859
30
0
41
1
10
29.8761574927068
20
1.00814035620476
30
0
41
1
10
29.8450501390117
20
1.00491509434684
30
0
41
1
10
29.7865929379746
20
0.992304012349592
30
0
41
1
10
29.7585499535306
20
0.982812480984023
30
0
41
1
10
29.7039374064152
20
0.957510802954204
30
0
41
1
10
29.6774701488451
20
0.940767683514537
30
0
41
1
10
29.6543763339785
20
0.92176254964275
30
0
0
SPLINE
5
E1
100
AcDbEntity
8
SK1
62
256
6
ByLayer
370
-1
48
1
60
0
100
AcDbSpline
70
4
71
3
72
10
73
6
40
0
40
0
40
0
40
0
40
0.5
40
0.5
40
1
40
1
40
1
40
1
41
1
10
-93.3
20
1.92354855995373
30
0
41
1
10
-93.5876313334881
20
1.32635665015053
30
0
41
1
10
-93.7936248977437
20
0.674468224990051
30
0
41
1
10
-93.7938749817268
20
-0.673169219891804
30
0
41
1
10
-93.585714605376
20
-1.33033623925965
30
0
41
1
10
-93.3000000000004
20
-1.92354855995399
30
0
0
SPLINE
5
E2
100
AcDbEntity
8
SK1
62
256
6
ByLayer
370
-1
48
1
60
0
100
AcDbSpline
70
4
71
3
72
10
73
6
40
0
40
0
40
0
40
0
40
0.0004189637476404
40
0.0004189637476404
40
1
40
1
40
1
40
1
41
1
10
-93.7874929559074
20
3.50624999999999
30
0
41
1
10
-93.7874939560074
20
3.50624999999999
30
0
41
1
10
-93.7874949561074
20
3.50624999999999
30
0
41
1
10
-93.788623508055
20
3.50624999999999
30
0
41
1
10
-93.5890257955442
20
3.50624999999999
30
0
41
1
10
-93.3000000000003
20
3.50624999999999
30
0
0
LINE
5
49
100
AcDbEntity
8
80
62
256
6
ByLayer
370
-1
48
1
60
0
100
AcDbLine
10
0
20
0
30
0
11
-10
21
0
31
0
39
0
210
0
220
0
230
1
0
LINE
5
4A
100
AcDbEntity
8
81
62
256
6
ByLayer
370
-1
48
1
60
0
100
AcDbLine
10
31.95
20
4.9
30
0
11
41.95
21
4.9
31
0
39
0
210
0
220
0
230
1
0
LINE
5
4B
100
AcDbEntity
8
1
62
256
6
ByLayer
370
-1
48
1
60
0
100
AcDbLine
10
0
20
-3.99375
30
0
11
22.056082
21
-3.99375
31
0
39
0
210
0
220
0
230
1
0
LINE
5
4C
100
AcDbEntity
8
1
62
256
6
ByLayer
370
-1
48
1
60
0
100
AcDbLine
10
22.056082
20
-3.99375
30
0
11
22.131082
21
-3.91875
31
0
39
0
210
0
220
0
230
1
0
LINE
5
4D
100
AcDbEntity
8
1
62
256
6
ByLayer
370
-1
48
1
60
0
100
AcDbLine
10
22.131082
20
-3.91875
30
0
11
22.552442
21
-3.91875
31
0
39
0
210
0
220
0
230
1
0
LINE
5
4E
100
AcDbEntity
8
1
62
256
6
ByLayer
370
-1
48
1
60
0
100
AcDbLine
10
23.425034
20
3.959006
30
0
11
22.786163
21
3.923831
31
0
39
0
210
0
220
0
230
1
0
LINE
5
4F
100
AcDbEntity
8
SK1
62
256
6
ByLayer
370
-1
48
1
60
0
100
AcDbLine
10
-93.7875
20
3.50625
30
0
11
-94.3
21
2.99375
31
0
39
0
210
0
220
0
230
1
0
LINE
5
51
100
AcDbEntity
8
SK1
62
256
6
ByLayer
370
-1
48
1
60
0
100
AcDbLine
10
-94.3
20
-2.99375
30
0
11
-93.3
21
-3.99375
31
0
39
0
210
0
220
0
230
1
0
LINE
5
52
100
AcDbEntity
8
SK1
62
256
6
ByLayer
370
-1
48
1
60
0
100
AcDbLine
10
-93.3
20
-3.99375
30
0
11
0
21
-3.99375
31
0
39
0
210
0
220
0
230
1
0
LINE
5
53
100
AcDbEntity
8
1
62
256
6
ByLayer
370
-1
48
1
60
0
100
AcDbLine
10
31.175592
20
1.864948
30
0
11
31.160463
21
1.929237
31
0
39
0
210
0
220
0
230
1
0
LINE
5
54
100
AcDbEntity
8
1
62
256
6
ByLayer
370
-1
48
1
60
0
100
AcDbLine
10
28.678271
20
1.345095
30
0
11
28.6934
21
1.280807
31
0
39
0
210
0
220
0
230
1
0
LINE
5
55
100
AcDbEntity
8
1
62
256
6
ByLayer
370
-1
48
1
60
0
100
AcDbLine
10
29.422601
20
1.146737
30
0
11
29.400898
21
1.23896
31
0
39
0
210
0
220
0
230
1
0
LINE
5
56
100
AcDbEntity
8
1
62
256
6
ByLayer
370
-1
48
1
60
0
100
AcDbLine
10
30.437559
20
2.036546
30
0
11
30.459267
21
1.944301
31
0
39
0
210
0
220
0
230
1
0
LINE
5
57
100
AcDbEntity
8
SK4
62
256
6
ByLayer
370
-1
48
0.05
60
0
100
AcDbLine
10
-99.3
20
0
30
0
11
36.471117
21
0
31
0
39
0
210
0
220
0
230
1
0
LINE
5
59
100
AcDbEntity
8
4
62
256
6
ByLayer
370
-1
48
0.05
60
0
100
AcDbLine
10
0
20
0
30
0
11
36.471117
21
0
31
0
39
0
210
0
220
0
230
1
0
LINE
5
5B
100
AcDbEntity
8
1
62
256
6
ByLayer
370
-1
48
1
60
0
100
AcDbLine
10
0
20
3.50625
30
0
11
20.837153
21
3.50625
31
0
39
0
210
0
220
0
230
1
0
LINE
5
5C
100
AcDbEntity
8
1
62
256
6
ByLayer
370
-1
48
1
60
0
100
AcDbLine
10
24.379843
20
4.010044
30
0
11
26.368421
21
-3.342156
31
0
39
0
210
0
220
0
230
1
0
LINE
5
5D
100
AcDbEntity
8
1
62
256
6
ByLayer
370
-1
48
1
60
0
100
AcDbLine
10
20.837153
20
3.50625
30
0
11
22.368582
21
3.50625
31
0
39
0
210
0
220
0
230
1
0
LINE
5
5E
100
AcDbEntity
8
1
62
256
6
ByLayer
370
-1
48
1
60
0
100
AcDbLine
10
26.796177
20
2.287885
30
0
11
26.844688
21
2.368143
31
0
39
0
210
0
220
0
230
1
0
LINE
5
5F
100
AcDbEntity
8
1
62
256
6
ByLayer
370
-1
48
1
60
0
100
AcDbLine
10
26.844688
20
2.368143
30
0
11
26.78307
21
2.629976
31
0
39
0
210
0
220
0
230
1
0
LINE
5
60
100
AcDbEntity
8
1
62
256
6
ByLayer
370
-1
48
1
60
0
100
AcDbLine
10
22.693882
20
-3.897378
30
0
11
24.158045
21
-3.676144
31
0
39
0
210
0
220
0
230
1
0
LINE
5
61
100
AcDbEntity
8
1
62
256
6
ByLayer
370
-1
48
1
60
0
100
AcDbLine
10
0
20
-1.923549
30
0
11
0
21
1.923549
31
0
39
0
210
0
220
0
230
1
0
LINE
5
62
100
AcDbEntity
8
1
62
256
6
ByLayer
370
-1
48
1
60
0
100
AcDbLine
10
31.369099
20
-1.867948
30
0
11
26.769462
21
0.867595
31
0
39
0
210
0
220
0
230
1
0
LINE
5
63
100
AcDbEntity
8
1
62
256
6
ByLayer
370
-1
48
1
60
0
100
AcDbLine
10
0
20
-1.923549
30
0
11
21.886034
21
-1.923549
31
0
39
0
210
0
220
0
230
1
0
LINE
5
64
100
AcDbEntity
8
1
62
256
6
ByLayer
370
-1
48
1
60
0
100
AcDbLine
10
31.369099
20
-1.867948
30
0
11
31.356523
21
-2.588455
31
0
39
0
210
0
220
0
230
1
0
LINE
5
65
100
AcDbEntity
8
1
62
256
6
ByLayer
370
-1
48
1
60
0
100
AcDbLine
10
22.693882
20
-2.913904
30
0
11
22.693882
21
-3.897378
31
0
39
0
210
0
220
0
230
1
0
LINE
5
66
100
AcDbEntity
8
1
62
256
6
ByLayer
370
-1
48
1
60
0
100
AcDbLine
10
22.131082
20
-3.91875
30
0
11
22.131082
21
-2.275313
31
0
39
0
210
0
220
0
230
1
0
LINE
5
67
100
AcDbEntity
8
1
62
256
6
ByLayer
370
-1
48
1
60
0
100
AcDbLine
10
20.690835
20
1.923549
30
0
11
0
21
1.923549
31
0
39
0
210
0
220
0
230
1
0
LINE
5
68
100
AcDbEntity
8
1
62
256
6
ByLayer
370
-1
48
1
60
0
100
AcDbLine
10
22.368582
20
3.50625
30
0
11
22.780725
21
3.918393
31
0
39
0
210
0
220
0
230
1
0
LINE
5
69
100
AcDbEntity
8
1
62
256
6
ByLayer
370
-1
48
1
60
0
100
AcDbLine
10
27.831102
20
3.075361
30
0
11
29.108119
21
3.775607
31
0
39
0
210
0
220
0
230
1
0
LINE
5
6A
100
AcDbEntity
8
1
62
256
6
ByLayer
370
-1
48
1
60
0
100
AcDbLine
10
29.105222
20
3.787916
30
0
11
29.113631
21
4.269694
31
0
39
0
210
0
220
0
230
1
0
LINE
5
6B
100
AcDbEntity
8
1
62
256
6
ByLayer
370
-1
48
1
60
0
100
AcDbLine
10
24.158045
20
-3.676144
30
0
11
26.368421
21
-3.342156
31
0
39
0
210
0
220
0
230
1
0
LINE
5
6C
100
AcDbEntity
8
1
62
256
6
ByLayer
370
-1
48
1
60
0
100
AcDbLine
10
26.796177
20
2.287885
30
0
11
26.734511
21
2.549926
31
0
39
0
210
0
220
0
230
1
0
LINE
5
6D
100
AcDbEntity
8
1
62
256
6
ByLayer
370
-1
48
1
60
0
100
AcDbLine
10
26.734511
20
2.549926
30
0
11
26.78307
21
2.629976
31
0
39
0
210
0
220
0
230
1
0
LINE
5
6E
100
AcDbEntity
8
1
62
256
6
ByLayer
370
-1
48
1
60
0
100
AcDbLine
10
22.056082
20
-2.22319
30
0
11
22.056082
21
-3.99375
31
0
39
0
210
0
220
0
230
1
0
LINE
5
6F
100
AcDbEntity
8
1
62
256
6
ByLayer
370
-1
48
1
60
0
100
AcDbLine
10
0
20
3.50625
30
0
11
0
21
1.923549
31
0
39
0
210
0
220
0
230
1
0
LINE
5
70
100
AcDbEntity
8
1
62
256
6
ByLayer
370
-1
48
1
60
0
100
AcDbLine
10
22.552442
20
-3.91875
30
0
11
22.693882
21
-3.897378
31
0
39
0
210
0
220
0
230
1
0
LINE
5
71
100
AcDbEntity
8
1
62
256
6
ByLayer
370
-1
48
1
60
0
100
AcDbLine
10
29.817053
20
4.305346
30
0
11
29.8092
21
3.85542
31
0
39
0
210
0
220
0
230
1
0
LINE
5
72
100
AcDbEntity
8
1
62
256
6
ByLayer
370
-1
48
1
60
0
100
AcDbLine
10
22.786163
20
3.923831
30
0
11
22.780725
21
3.918393
31
0
39
0
210
0
220
0
230
1
0
LINE
5
73
100
AcDbEntity
8
1
62
256
6
ByLayer
370
-1
48
1
60
0
100
AcDbLine
10
26.368421
20
-3.342156
30
0
11
31.356523
21
-2.588455
31
0
39
0
210
0
220
0
230
1
0
LINE
5
74
100
AcDbEntity
8
1
62
256
6
ByLayer
370
-1
48
1
60
0
100
AcDbLine
10
29.105222
20
3.787916
30
0
11
29.108119
21
3.775607
31
0
39
0
210
0
220
0
230
1
0
LINE
5
75
100
AcDbEntity
8
1
62
256
6
ByLayer
370
-1
48
1
60
0
100
AcDbLine
10
31.375634
20
-1.493583
30
0
11
31.369099
21
-1.867945
31
0
39
0
210
0
220
0
230
1
0
LINE
5
76
100
AcDbEntity
8
1
62
256
6
ByLayer
370
-1
48
1
60
0
100
AcDbLine
10
28.16209
20
2.942936
30
0
11
28.159793
21
2.952694
31
0
39
0
210
0
220
0
230
1
0
LINE
5
77
100
AcDbEntity
8
1
62
256
6
ByLayer
370
-1
48
1
60
0
100
AcDbLine
10
29.116675
20
4.265808
30
0
11
29.108119
21
3.775607
31
0
39
0
210
0
220
0
230
1
0
LINE
5
78
100
AcDbEntity
8
1
62
256
6
ByLayer
370
-1
48
1
60
0
100
AcDbLine
10
0
20
-3.99375
30
0
11
0
21
-1.923549
31
0
39
0
210
0
220
0
230
1
0
LINE
5
79
100
AcDbEntity
8
1
62
256
6
ByLayer
370
-1
48
1
60
0
100
AcDbLine
10
27.826893
20
3.093246
30
0
11
27.831102
21
3.075361
31
0
39
0
210
0
220
0
230
1
0
LINE
5
7A
100
AcDbEntity
8
1
62
256
6
ByLayer
370
-1
48
1
60
0
100
AcDbLine
10
29.105222
20
3.787916
30
0
11
27.826893
21
3.093246
31
0
39
0
210
0
220
0
230
1
0
LINE
5
7B
100
AcDbEntity
8
1
62
256
6
ByLayer
370
-1
48
1
60
0
100
AcDbLine
10
28.169426
20
2.947002
30
0
11
28.159793
21
2.952694
31
0
39
0
210
0
220
0
230
1
0
LINE
5
7C
100
AcDbEntity
8
SK1
62
256
6
ByLayer
370
-1
48
1
60
0
100
AcDbLine
10
-93.3
20
1.923549
30
0
11
-93.3
21
3.50625
31
0
39
0
210
0
220
0
230
1
0
LINE
5
7D
100
AcDbEntity
8
SK1
62
256
6
ByLayer
370
-1
48
1
60
0
100
AcDbLine
10
-93.3
20
3.50625
30
0
11
0
21
3.50625
31
0
39
0
210
0
220
0
230
1
0
LINE
5
7E
100
AcDbEntity
8
1
62
256
6
ByLayer
370
-1
48
1
60
0
100
AcDbLine
10
26.239425
20
1.541401
30
0
11
31.543331
21
-1.592674
31
0
39
0
210
0
220
0
230
1
0
LINE
5
7F
100
AcDbEntity
8
1
62
256
6
ByLayer
370
-1
48
1
60
0
100
AcDbLine
10
31.656288
20
4.878673
30
0
11
26.245354
21
1.881095
31
0
39
0
210
0
220
0
230
1
0
LINE
5
80
100
AcDbEntity
8
1
62
256
6
ByLayer
370
-1
48
1
60
0
100
AcDbLine
10
31.843097
20
-1.426608
30
0
11
31.950125
21
4.705045
31
0
39
0
210
0
220
0
230
1
0
LINE
5
81
100
AcDbEntity
8
1
62
256
6
ByLayer
370
-1
48
1
60
0
100
AcDbLine
10
29.360406
20
1.928584
30
0
11
29.381653
21
1.838302
31
0
39
0
210
0
220
0
230
1
0
LINE
5
82
100
AcDbEntity
8
1
62
256
6
ByLayer
370
-1
48
1
60
0
100
AcDbLine
10
29.41523
20
1.893854
30
0
11
29.393983
21
1.984136
31
0
39
0
210
0
220
0
230
1
0
LINE
5
83
100
AcDbEntity
8
1
62
256
6
ByLayer
370
-1
48
1
60
0
100
AcDbLine
10
30.704813
20
1.686736
30
0
11
30.680912
21
1.7883
31
0
39
0
210
0
220
0
230
1
0
LINE
5
84
100
AcDbEntity
8
1
62
256
6
ByLayer
370
-1
48
1
60
0
100
AcDbLine
10
30.203591
20
2.270839
30
0
11
30.17969
21
2.372402
31
0
39
0
210
0
220
0
230
1
0
LINE
5
85
100
AcDbEntity
8
1
62
256
6
ByLayer
370
-1
48
1
60
0
100
AcDbLine
10
29.704894
20
2.277588
30
0
11
29.680993
21
2.379151
31
0
39
0
210
0
220
0
230
1
0
LINE
5
86
100
AcDbEntity
8
1
62
256
6
ByLayer
370
-1
48
1
60
0
100
AcDbLine
10
29.440676
20
2.130653
30
0
11
29.416792
21
2.232145
31
0
39
0
210
0
220
0
230
1
0
LINE
5
87
100
AcDbEntity
8
1
62
256
6
ByLayer
370
-1
48
1
60
0
100
AcDbLine
10
29.182782
20
1.703979
30
0
11
29.158898
21
1.80547
31
0
39
0
210
0
220
0
230
1
0
LINE
5
88
100
AcDbEntity
8
1
62
256
6
ByLayer
370
-1
48
1
60
0
100
AcDbLine
10
29.419285
20
0.973238
30
0
11
29.395383
21
1.074801
31
0
39
0
210
0
220
0
230
1
0
LINE
5
89
100
AcDbEntity
8
SK1
62
256
6
ByLayer
370
-1
48
1
60
0
100
AcDbLine
10
-93.3
20
-1.923549
30
0
11
0
21
-1.923549
31
0
39
0
210
0
220
0
230
1
0
LINE
5
8A
100
AcDbEntity
8
SK1
62
256
6
ByLayer
370
-1
48
1
60
0
100
AcDbLine
10
0
20
-1.923549
30
0
11
0
21
1.923549
31
0
39
0
210
0
220
0
230
1
0
LINE
5
8B
100
AcDbEntity
8
SK1
62
256
6
ByLayer
370
-1
48
1
60
0
100
AcDbLine
10
0
20
1.923549
30
0
11
-93.3
21
1.923549
31
0
39
0
210
0
220
0
230
1
0
LINE
5
8C
100
AcDbEntity
8
SK1
62
256
6
ByLayer
370
-1
48
1
60
0
100
AcDbLine
10
0
20
-3.99375
30
0
11
0
21
-1.923549
31
0
39
0
210
0
220
0
230
1
0
LINE
5
8D
100
AcDbEntity
8
SK1
62
256
6
ByLayer
370
-1
48
1
60
0
100
AcDbLine
10
0
20
3.50625
30
0
11
0
21
1.923549
31
0
39
0
210
0
220
0
230
1
0
LINE
5
8E
100
AcDbEntity
8
SK1
62
256
6
ByLayer
370
-1
48
1
60
0
100
AcDbLine
10
-94.3
20
-2.99375
30
0
11
-94.3
21
2.99375
31
0
39
0
210
0
220
0
230
1
0
LINE
5
8F
100
AcDbEntity
8
SK1
62
256
6
ByLayer
370
-1
48
1
60
0
100
AcDbLine
10
-93.3
20
-3.99375
30
0
11
-93.3
21
-1.923549
31
0
39
0
210
0
220
0
230
1
0
LINE
5
90
100
AcDbEntity
8
2
62
256
6
ByLayer
370
-1
48
1
60
1
100
AcDbLine
10
31.95
20
0
30
0
11
31.951
21
0.001
31
0
39
0
210
0
220
0
230
1
0
MTEXT
5
E3
100
AcDbEntity
8
SK6
62
256
6
ByLayer
370
-1
48
1
60
0
100
AcDbMText
10
-27.8
20
-15.320023
30
0
210
0
220
0
230
1
1
\W00.798;\fsimplex.shx,bigfont.shx;A08K-STFPR 06 
40
3.5
41
0
44
1.084337
50
0
71
7
72
5
7
DEFAULT
0
DIMENSION
5
116
100
AcDbEntity
8
2
62
256
6
ByLayer
370
-3
48
1
60
0
100
AcDbDimension
2
DimnDraft3D1
10
44.2
20
0
30
0
11
44.2
21
15.155
31
0
70
32
71
5
72
1
41
1
210
0
220
0
230
1
3
Standard
100
AcDbAlignedDimension
13
33.95
23
4.9
33
0
14
33.95
24
0
34
0
50
90
100
AcDbRotatedDimension
1001
ACAD
1000
DSTYLE
1002
{
1070
    74
1070
     0
1070
   279
1070
     0
1070
   172
1070
     1
1070
   173
1070
     1
1070
   340
1005
E4
1070
    77
1070
     1
1070
    73
1070
     0
1070
   171
1070
     4
1070
   274
1070
     4
1070
   177
1070
     2
1070
   176
1070
     2
1070
   178
1070
     7
1070
    78
1070
     8
1070
    41
1041
3.175
1070
   147
1041
2.25
1070
    42
1041
2.0
1070
    44
1041
2.0
1070
   140
1041
4.5
1070
   343
1005
117
1070
   344
1005
117
1002
}
0
DIMENSION
5
12C
100
AcDbEntity
8
SK2
62
256
6
ByLayer
370
-3
48
1
60
0
100
AcDbDimension
2
DimnDraft3D2
10
-104.05
20
3.99375
30
0
11
-104.05
21
14.24875
31
0
70
32
71
5
72
1
41
1
210
0
220
0
230
1
3
Standard
100
AcDbAlignedDimension
13
-96.3
23
-3.99375
33
0
14
-96.3
24
3.99375
34
0
50
90
100
AcDbRotatedDimension
1001
ACAD
1000
DSTYLE
1002
{
1070
    74
1070
     0
1070
   279
1070
     0
1070
   172
1070
     1
1070
   173
1070
     1
1070
   340
1005
E4
1070
    77
1070
     1
1070
    73
1070
     0
1070
   171
1070
     4
1070
   274
1070
     4
1070
   177
1070
     2
1070
   176
1070
     2
1070
   178
1070
     7
1070
    78
1070
     8
1070
    41
1041
3.175
1070
   147
1041
2.25
1070
    42
1041
2.0
1070
    44
1041
2.0
1070
   140
1041
4.5
1070
   343
1005
117
1070
   344
1005
117
1002
}
0
DIMENSION
5
13A
100
AcDbEntity
8
SK2
62
256
6
ByLayer
370
-3
48
1
60
0
100
AcDbDimension
2
DimnDraft3D3
10
-94.3
20
17.65
30
0
11
-37.427632
21
17.65
31
0
70
32
71
5
72
1
41
1
210
0
220
0
230
1
3
Standard
100
AcDbAlignedDimension
13
31.95
23
6.9
33
0
14
-94.3
24
5.99375
34
0
50
0
100
AcDbRotatedDimension
1001
ACAD
1000
DSTYLE
1002
{
1070
   279
1070
     0
1070
   172
1070
     1
1070
   173
1070
     1
1070
   340
1005
E4
1070
    77
1070
     1
1070
    73
1070
     0
1070
   171
1070
     4
1070
   274
1070
     4
1070
   177
1070
     2
1070
   176
1070
     2
1070
   178
1070
     7
1070
    78
1070
     8
1070
    41
1041
3.175
1070
   147
1041
2.25
1070
    42
1041
2.0
1070
    44
1041
2.0
1070
   140
1041
4.5
1070
   343
1005
117
1070
   344
1005
117
1002
}
0
DIMENSION
5
148
100
AcDbEntity
8
2
62
256
6
ByLayer
370
-3
48
1
60
0
100
AcDbDimension
2
DimnDraft3D4
10
80.790877
20
0
30
0
11
59.035625
21
-35.936736
31
0
70
34
71
5
72
1
41
1
210
0
220
0
230
1
3
Standard
100
AcDb2LineAngularDimension
13
31.810381
23
-3.098782
33
0
14
31.010587
24
-48.918955
34
0
15
33.95
25
0
35
0
16
61.601532
26
-30.260654
36
0
40
0
0
ENDSEC
0
SECTION
2
OBJECTS
0
DICTIONARY
5
179
330
0
100
AcDbDictionary
280
0
281
1
3
ACAD_GROUP
350
17a
3
ACAD_MLINESTYLE
350
17b
0
DICTIONARY
5
17a
330
0
100
AcDbDictionary
280
0
281
1
0
DICTIONARY
5
17b
330
0
100
AcDbDictionary
280
0
281
1
3
Standard
350
18
0
MLINESTYLE
5
18
330
17b
100
AcDbMlineStyle
2
Standard
70
0
3

62
256
51
90
52
90
71
2
49
-0.5
62
256
6
ByLayer
49
0.5
62
256
6
ByLayer
0
RASTERVARIABLES
5
167
330

100
AcDbRasterVariables
90
0
70
1
71
1
72
1
0
ENDSEC
0
EOF
