0
SECTION
2
HEADER
9
$ACADVER
1
AC1015
9
$DWGCODEPAGE
3
ANSI_1252
9
$HANDSEED
5
185
9
$ANGBASE
50
0
9
$ANGDIR
70
0
9
$ATTMODE
70
1
9
$AUNITS
70
0
9
$AUPREC
70
0
9
$CECOLOR
62
256
9
$CELTSCALE
40
1
9
$CELTYPE
6
ByLayer
9
$CELWEIGHT
370
-1
9
$CLAYER
8
0
9
$CMLJUST
70
0
9
$CMLSCALE
40
1
9
$CMLSTYLE
2
Standard
9
$DIMSTYLE
2
Standard
9
$TEXTSIZE
40
0.2
9
$TEXTSTYLE
7
Standard
9
$LUNITS
70
2
9
$LUPREC
70
4
9
$EXTNAMES
290
1
9
$INSUNITS
70
4
9
$LTSCALE
40
1
9
$LWDISPLAY
290
0
9
$PDMODE
70
0
9
$PDSIZE
40
0
9
$PLINEGEN
70
0
0
ENDSEC
0
SECTION
2
CLASSES
0
CLASS
1
RASTERVARIABLES
2
AcDbRasterVariables
3
ISM
90
0
280
0
281
0
0
ENDSEC
0
SECTION
2
TABLES
0
TABLE
2
VPORT
5
17b
100
AcDbSymbolTable
0
VPORT
5
1
100
AcDbSymbolTableRecord
100
AcDbViewportTableRecord
2
*Active
70
0
10
0
20
0
11
1
21
1
12
-1
22
1
13
0
23
0
14
0.5
24
0.5
15
10
25
10
16
0
26
0
36
1
17
0
27
0
37
0
0
ENDTAB
0
TABLE
2
LTYPE
5
17c
100
AcDbSymbolTable
0
LTYPE
5
14
100
AcDbSymbolTableRecord
100
AcDbLinetypeTableRecord
70
0
2
ByBlock
3

72
65
73
0
40
0
0
LTYPE
5
15
100
AcDbSymbolTableRecord
100
AcDbLinetypeTableRecord
70
0
2
ByLayer
3

72
65
73
0
40
0
0
LTYPE
5
16
100
AcDbSymbolTableRecord
100
AcDbLinetypeTableRecord
70
0
2
CONTINUOUS
3
Solid line
72
65
73
0
40
0
0
LTYPE
5
3B
100
AcDbSymbolTableRecord
100
AcDbLinetypeTableRecord
70
0
2
DASHED
3
__ __ __ __ __ __ __ __ __
72
65
73
2
40
25.72
49
12.86
74
0
49
-12.86
74
0
0
LTYPE
5
3C
100
AcDbSymbolTableRecord
100
AcDbLinetypeTableRecord
70
0
2
HIDDEN
3
_ _ _ _ _ _ _ _ _ _ _ _ _ _ _
72
65
73
2
40
0.5
49
0.25
74
0
49
-0.25
74
0
0
LTYPE
5
3D
100
AcDbSymbolTableRecord
100
AcDbLinetypeTableRecord
70
0
2
PHANTOM
3
____ _ _ ____ _ _ _____ _ _ ____
72
65
73
6
40
50.5
49
18
74
0
49
-6.5
74
0
49
6.5
74
0
49
-6.5
74
0
49
6.5
74
0
49
-6.5
74
0
0
LTYPE
5
3E
100
AcDbSymbolTableRecord
100
AcDbLinetypeTableRecord
70
0
2
CENTER
3
____ _ ____ _ ____ _ ____
72
65
73
4
40
47.5
49
22
74
0
49
-8.5
74
0
49
8.5
74
0
49
-8.5
74
0
0
LTYPE
5
3F
100
AcDbSymbolTableRecord
100
AcDbLinetypeTableRecord
70
0
2
DOT
3
.........................
72
65
73
2
40
10
49
0
74
0
49
-10
74
0
0
LTYPE
5
40
100
AcDbSymbolTableRecord
100
AcDbLinetypeTableRecord
70
0
2
DASHDOT
3
_._._._._._._._._._._._._._._._.
72
65
73
4
40
70
49
31
74
0
49
-13
74
0
49
13
74
0
49
-13
74
0
0
ENDTAB
0
TABLE
2
LAYER
5
17d
100
AcDbSymbolTable
0
LAYER
5
10
100
AcDbSymbolTableRecord
100
AcDbLayerTableRecord
2
0
70
0
62
7
6
CONTINUOUS
290
1
370
-3
390
0
0
LAYER
5
42
100
AcDbSymbolTableRecord
100
AcDbLayerTableRecord
2
80
70
0
62
-6
6
CONTINUOUS
290
1
370
-3
390
0
0
LAYER
5
44
100
AcDbSymbolTableRecord
100
AcDbLayerTableRecord
2
81
70
0
62
-3
6
CONTINUOUS
290
1
370
-3
390
0
0
LAYER
5
46
100
AcDbSymbolTableRecord
100
AcDbLayerTableRecord
2
1
70
0
62
4
6
CONTINUOUS
290
1
370
-3
390
0
0
LAYER
5
48
100
AcDbSymbolTableRecord
100
AcDbLayerTableRecord
2
2
70
0
62
7
6
CONTINUOUS
290
1
370
-3
390
0
0
LAYER
5
5D
100
AcDbSymbolTableRecord
100
AcDbLayerTableRecord
2
4
70
0
62
-2
6
CENTER
290
1
370
-3
390
0
0
LAYER
5
167
100
AcDbSymbolTableRecord
100
AcDbLayerTableRecord
2
SK1
70
0
62
4
6
CONTINUOUS
290
1
370
-3
390
0
0
LAYER
5
168
100
AcDbSymbolTableRecord
100
AcDbLayerTableRecord
2
SK4
70
0
62
2
6
CENTER
290
1
370
-3
390
0
0
LAYER
5
169
100
AcDbSymbolTableRecord
100
AcDbLayerTableRecord
2
SK6
70
0
62
5
6
CONTINUOUS
290
1
370
-3
390
0
0
LAYER
5
16a
100
AcDbSymbolTableRecord
100
AcDbLayerTableRecord
2
SK2
70
0
62
7
6
CONTINUOUS
290
1
370
-3
390
0
0
ENDTAB
0
TABLE
2
STYLE
5
17e
100
AcDbSymbolTable
0
STYLE
5
11
100
AcDbSymbolTableRecord
100
AcDbTextStyleTableRecord
2
Standard
3
txt
70
0
71
0
40
0
41
1
42
0
50
0
0
STYLE
5
E3
100
AcDbSymbolTableRecord
100
AcDbTextStyleTableRecord
2
DEFAULT
3
simplex.shx
70
0
71
0
40
0
41
1
42
0
50
0
0
STYLE
5
106
100
AcDbSymbolTableRecord
100
AcDbTextStyleTableRecord
2
DWGDirectTextStyle
3
SIMPLEX
70
0
71
0
40
0
41
1
42
0
50
0
0
ENDTAB
0
TABLE
2
DIMSTYLE
5
17f
100
AcDbSymbolTable
100
AcDbDimStyleTable
0
DIMSTYLE
105
27
100
AcDbSymbolTableRecord
100
AcDbDimStyleTableRecord
2
Standard
70
0
3
<>
41
0.18
42
0.0625
44
0.18
140
0.18
147
0.09
73
0
74
0
77
1
271
2
275
0
278
52
280
0
340
11
0
ENDTAB
0
TABLE
2
VIEW
5
180
100
AcDbSymbolTable
0
ENDTAB
0
TABLE
2
UCS
5
181
100
AcDbSymbolTable
0
ENDTAB
0
TABLE
2
APPID
5
182
100
AcDbSymbolTable
0
APPID
5
12
100
AcDbSymbolTableRecord
100
AcDbRegAppTableRecord
2
ACAD
70
0
0
ENDTAB
0
TABLE
2
BLOCK_RECORD
5
183
100
AcDbSymbolTable
0
BLOCK_RECORD
5
1F
100
AcDbSymbolTableRecord
100
AcDbBlockTableRecord
2
*Model_Space
340
0
70
0
0
BLOCK_RECORD
5
1B
100
AcDbSymbolTableRecord
100
AcDbBlockTableRecord
2
*Paper_Space
340
0
70
0
0
BLOCK_RECORD
5
23
100
AcDbSymbolTableRecord
100
AcDbBlockTableRecord
2
*Paper_Space0
340
0
70
0
0
BLOCK_RECORD
5
108
100
AcDbSymbolTableRecord
100
AcDbBlockTableRecord
2
DimnDraft3D1
340
0
70
0
0
BLOCK_RECORD
5
116
100
AcDbSymbolTableRecord
100
AcDbBlockTableRecord
2
_CLOSED
340
0
70
0
0
BLOCK_RECORD
5
11D
100
AcDbSymbolTableRecord
100
AcDbBlockTableRecord
2
DimnDraft3D2
340
0
70
0
0
BLOCK_RECORD
5
12C
100
AcDbSymbolTableRecord
100
AcDbBlockTableRecord
2
DimnDraft3D3
340
0
70
0
0
BLOCK_RECORD
5
13A
100
AcDbSymbolTableRecord
100
AcDbBlockTableRecord
2
DimnDraft3D4
340
0
70
0
0
ENDTAB
0
ENDSEC
0
SECTION
2
BLOCKS
0
BLOCK
5
20
100
AcDbEntity
8
0
100
AcDbBlockBegin
2
*Model_Space
70
0
10
0
20
0
30
0
3
*Model_Space
0
ENDBLK
5
21
100
AcDbEntity
8
0
100
AcDbBlockEnd
0
BLOCK
5
1C
100
AcDbEntity
8
0
100
AcDbBlockBegin
2
*Paper_Space
70
0
10
0
20
0
30
0
3
*Paper_Space
0
ENDBLK
5
1D
100
AcDbEntity
8
0
100
AcDbBlockEnd
0
BLOCK
5
24
100
AcDbEntity
8
0
100
AcDbBlockBegin
2
*Paper_Space0
70
0
10
0
20
0
30
0
3
*Paper_Space0
0
ENDBLK
5
25
100
AcDbEntity
8
0
100
AcDbBlockEnd
0
BLOCK
5
113
100
AcDbEntity
8
0
100
AcDbBlockBegin
2
DimnDraft3D1
70
0
10
0
20
0
30
0
3
DimnDraft3D1
0
MTEXT
5
109
100
AcDbEntity
8
2
62
256
6
ByLayer
370
-1
48
1
60
0
100
AcDbMText
10
43.075
20
16.28
30
0
210
0
220
0
230
1
1
\W01.000;\fsimplex.shx,bigfont.shx;5.0 
40
4.5
41
0
44
1.084337
50
90
71
7
72
5
7
DEFAULT
0
LINE
5
10A
100
AcDbEntity
8
2
62
256
6
ByLayer
370
-1
48
1
60
0
100
AcDbLine
10
33.95
20
4.9
30
0
11
46.2
21
4.9
31
0
39
0
210
0
220
0
230
1
0
LINE
5
10B
100
AcDbEntity
8
2
62
256
6
ByLayer
370
-1
48
1
60
0
100
AcDbLine
10
33.95
20
0
30
0
11
46.2
21
0
31
0
39
0
210
0
220
0
230
1
0
LINE
5
10C
100
AcDbEntity
8
2
62
256
6
ByLayer
370
-1
48
1
60
0
100
AcDbLine
10
44.2
20
-11.25
30
0
11
44.2
21
22.177368
31
0
39
0
210
0
220
0
230
1
0
LINE
5
10D
100
AcDbEntity
8
2
62
256
6
ByLayer
370
-1
48
1
60
0
100
AcDbLine
10
44.2
20
4.9
30
0
11
43.782003
21
8.074998
31
0
39
0
210
0
220
0
230
1
0
LINE
5
10E
100
AcDbEntity
8
2
62
256
6
ByLayer
370
-1
48
1
60
0
100
AcDbLine
10
44.2
20
4.9
30
0
11
44.617997
21
8.075002
31
0
39
0
210
0
220
0
230
1
0
LINE
5
10F
100
AcDbEntity
8
2
62
256
6
ByLayer
370
-1
48
1
60
0
100
AcDbLine
10
43.782003
20
8.074998
30
0
11
44.617997
21
8.075002
31
0
39
0
210
0
220
0
230
1
0
LINE
5
110
100
AcDbEntity
8
2
62
256
6
ByLayer
370
-1
48
1
60
0
100
AcDbLine
10
44.2
20
0
30
0
11
44.617997
21
-3.174998
31
0
39
0
210
0
220
0
230
1
0
LINE
5
111
100
AcDbEntity
8
2
62
256
6
ByLayer
370
-1
48
1
60
0
100
AcDbLine
10
44.2
20
0
30
0
11
43.782003
21
-3.175002
31
0
39
0
210
0
220
0
230
1
0
LINE
5
112
100
AcDbEntity
8
2
62
256
6
ByLayer
370
-1
48
1
60
0
100
AcDbLine
10
44.617997
20
-3.174998
30
0
11
43.782003
21
-3.175002
31
0
39
0
210
0
220
0
230
1
0
ENDBLK
5
114
100
AcDbEntity
8
0
100
AcDbBlockEnd
0
BLOCK
5
117
100
AcDbEntity
8
0
100
AcDbBlockBegin
2
_CLOSED
70
0
10
0
20
0
30
0
3
_CLOSED
0
LINE
5
119
100
AcDbEntity
8
0
62
256
6
ByLayer
370
-2
48
1
60
0
100
AcDbLine
10
-1
20
0.166667
30
0
11
0
21
0
31
0
39
0
210
0
220
0
230
1
0
LINE
5
11A
100
AcDbEntity
8
0
62
256
6
ByLayer
370
-2
48
1
60
0
100
AcDbLine
10
0
20
0
30
0
11
-1
21
-0.166667
31
0
39
0
210
0
220
0
230
1
0
LINE
5
11B
100
AcDbEntity
8
0
62
256
6
ByLayer
370
-2
48
1
60
0
100
AcDbLine
10
-1
20
0.166667
30
0
11
-1
21
-0.166667
31
0
39
0
210
0
220
0
230
1
0
LINE
5
11C
100
AcDbEntity
8
0
62
256
6
ByLayer
370
-2
48
1
60
0
100
AcDbLine
10
0
20
0
30
0
11
-1
21
0
31
0
39
0
210
0
220
0
230
1
0
ENDBLK
5
118
100
AcDbEntity
8
0
100
AcDbBlockEnd
0
BLOCK
5
129
100
AcDbEntity
8
0
100
AcDbBlockBegin
2
DimnDraft3D2
70
0
10
0
20
0
30
0
3
DimnDraft3D2
0
MTEXT
5
11E
100
AcDbEntity
8
SK2
62
256
6
ByLayer
370
-1
48
1
60
0
100
AcDbMText
10
-105.175
20
15.37375
30
0
210
0
220
0
230
1
1
\W01.000;\fsimplex.shx,bigfont.shx;%%c8 
40
4.5
41
0
44
1.084337
50
90
71
7
72
5
7
DEFAULT
0
LINE
5
120
100
AcDbEntity
8
SK2
62
256
6
ByLayer
370
-1
48
1
60
0
100
AcDbLine
10
-96.3
20
-3.99375
30
0
11
-106.05
21
-3.99375
31
0
39
0
210
0
220
0
230
1
0
LINE
5
121
100
AcDbEntity
8
SK2
62
256
6
ByLayer
370
-1
48
1
60
0
100
AcDbLine
10
-96.3
20
3.99375
30
0
11
-106.05
21
3.99375
31
0
39
0
210
0
220
0
230
1
0
LINE
5
122
100
AcDbEntity
8
SK2
62
256
6
ByLayer
370
-1
48
1
60
0
100
AcDbLine
10
-104.05
20
20.513224
30
0
11
-104.05
21
-15.24375
31
0
39
0
210
0
220
0
230
1
0
LINE
5
123
100
AcDbEntity
8
SK2
62
256
6
ByLayer
370
-1
48
1
60
0
100
AcDbLine
10
-104.05
20
-3.99375
30
0
11
-103.632003
21
-7.168748
31
0
39
0
210
0
220
0
230
1
0
LINE
5
124
100
AcDbEntity
8
SK2
62
256
6
ByLayer
370
-1
48
1
60
0
100
AcDbLine
10
-104.05
20
-3.99375
30
0
11
-104.467997
21
-7.168752
31
0
39
0
210
0
220
0
230
1
0
LINE
5
125
100
AcDbEntity
8
SK2
62
256
6
ByLayer
370
-1
48
1
60
0
100
AcDbLine
10
-103.632003
20
-7.168748
30
0
11
-104.467997
21
-7.168752
31
0
39
0
210
0
220
0
230
1
0
LINE
5
126
100
AcDbEntity
8
SK2
62
256
6
ByLayer
370
-1
48
1
60
0
100
AcDbLine
10
-104.05
20
3.99375
30
0
11
-104.467997
21
7.168748
31
0
39
0
210
0
220
0
230
1
0
LINE
5
127
100
AcDbEntity
8
SK2
62
256
6
ByLayer
370
-1
48
1
60
0
100
AcDbLine
10
-104.05
20
3.99375
30
0
11
-103.632003
21
7.168752
31
0
39
0
210
0
220
0
230
1
0
LINE
5
128
100
AcDbEntity
8
SK2
62
256
6
ByLayer
370
-1
48
1
60
0
100
AcDbLine
10
-104.467997
20
7.168748
30
0
11
-103.632003
21
7.168752
31
0
39
0
210
0
220
0
230
1
0
ENDBLK
5
12A
100
AcDbEntity
8
0
100
AcDbBlockEnd
0
BLOCK
5
137
100
AcDbEntity
8
0
100
AcDbBlockBegin
2
DimnDraft3D3
70
0
10
0
20
0
30
0
3
DimnDraft3D3
0
MTEXT
5
12D
100
AcDbEntity
8
SK2
62
256
6
ByLayer
370
-1
48
1
60
0
100
AcDbMText
10
-36.302632
20
18.775
30
0
210
0
220
0
230
1
1
\W01.000;\fsimplex.shx,bigfont.shx;125.0 
40
4.5
41
0
44
1.084337
50
0
71
7
72
5
7
DEFAULT
0
LINE
5
12E
100
AcDbEntity
8
SK2
62
256
6
ByLayer
370
-1
48
1
60
0
100
AcDbLine
10
31.95
20
6.9
30
0
11
31.95
21
19.65
31
0
39
0
210
0
220
0
230
1
0
LINE
5
12F
100
AcDbEntity
8
SK2
62
256
6
ByLayer
370
-1
48
1
60
0
100
AcDbLine
10
-94.3
20
5.99375
30
0
11
-94.3
21
19.65
31
0
39
0
210
0
220
0
230
1
0
LINE
5
130
100
AcDbEntity
8
SK2
62
256
6
ByLayer
370
-1
48
1
60
0
100
AcDbLine
10
31.95
20
17.65
30
0
11
-94.3
21
17.65
31
0
39
0
210
0
220
0
230
1
0
LINE
5
131
100
AcDbEntity
8
SK2
62
256
6
ByLayer
370
-1
48
1
60
0
100
AcDbLine
10
31.95
20
17.65
30
0
11
28.775002
21
17.232003
31
0
39
0
210
0
220
0
230
1
0
LINE
5
132
100
AcDbEntity
8
SK2
62
256
6
ByLayer
370
-1
48
1
60
0
100
AcDbLine
10
31.95
20
17.65
30
0
11
28.774998
21
18.067997
31
0
39
0
210
0
220
0
230
1
0
LINE
5
133
100
AcDbEntity
8
SK2
62
256
6
ByLayer
370
-1
48
1
60
0
100
AcDbLine
10
28.775002
20
17.232003
30
0
11
28.774998
21
18.067997
31
0
39
0
210
0
220
0
230
1
0
LINE
5
134
100
AcDbEntity
8
SK2
62
256
6
ByLayer
370
-1
48
1
60
0
100
AcDbLine
10
-94.3
20
17.65
30
0
11
-91.125002
21
18.067997
31
0
39
0
210
0
220
0
230
1
0
LINE
5
135
100
AcDbEntity
8
SK2
62
256
6
ByLayer
370
-1
48
1
60
0
100
AcDbLine
10
-94.3
20
17.65
30
0
11
-91.124998
21
17.232003
31
0
39
0
210
0
220
0
230
1
0
LINE
5
136
100
AcDbEntity
8
SK2
62
256
6
ByLayer
370
-1
48
1
60
0
100
AcDbLine
10
-91.125002
20
18.067997
30
0
11
-91.124998
21
17.232003
31
0
39
0
210
0
220
0
230
1
0
ENDBLK
5
138
100
AcDbEntity
8
0
100
AcDbBlockEnd
0
BLOCK
5
145
100
AcDbEntity
8
0
100
AcDbBlockBegin
2
DimnDraft3D4
70
0
10
0
20
0
30
0
3
DimnDraft3D4
0
MTEXT
5
13B
100
AcDbEntity
8
2
62
256
6
ByLayer
370
-1
48
1
60
0
100
AcDbMText
10
58.596492
20
-37.312521
30
0
210
0
220
0
230
1
1
\W01.000;\fsimplex.shx,bigfont.shx;95%%d0' 
40
4.5
41
0
44
1.084337
50
42.5000000000001
71
7
72
5
7
DEFAULT
0
LINE
5
13C
100
AcDbEntity
8
2
62
256
6
ByLayer
370
-1
48
1
60
0
100
AcDbLine
10
31.252754
20
-3.069558
30
0
11
27.257088
21
-48.740227
31
0
39
0
210
0
220
0
230
1
0
LINE
5
13D
100
AcDbEntity
8
2
62
256
6
ByLayer
370
-1
48
1
60
0
100
AcDbLine
10
33.95
20
0
30
0
11
80.447712
21
0
31
0
39
0
210
0
220
0
230
1
0
ARC
5
13E
100
AcDbEntity
8
2
62
256
6
ByLayer
370
-1
48
1
60
0
100
AcDbCircle
39
0
10
31.521306
20
0
30
0
40
46.9264068782928
210
0
220
0
230
1
100
AcDbArc
50
265
51
0
0
LINE
5
13F
100
AcDbEntity
8
2
62
256
6
ByLayer
370
-1
48
1
60
0
100
AcDbLine
10
27.4314
20
-46.747838
30
0
11
30.627928
21
-46.554078
31
0
39
0
210
0
220
0
230
1
0
LINE
5
140
100
AcDbEntity
8
2
62
256
6
ByLayer
370
-1
48
1
60
0
100
AcDbLine
10
27.4314
20
-46.747838
30
0
11
30.569161
21
-47.388003
31
0
39
0
210
0
220
0
230
1
0
LINE
5
141
100
AcDbEntity
8
2
62
256
6
ByLayer
370
-1
48
1
60
0
100
AcDbLine
10
30.627928
20
-46.554078
30
0
11
30.569161
21
-47.388003
31
0
39
0
210
0
220
0
230
1
0
LINE
5
142
100
AcDbEntity
8
2
62
256
6
ByLayer
370
-1
48
1
60
0
100
AcDbLine
10
78.447712
20
0
30
0
11
78.811968
21
-3.181612
31
0
39
0
210
0
220
0
230
1
0
LINE
5
143
100
AcDbEntity
8
2
62
256
6
ByLayer
370
-1
48
1
60
0
100
AcDbLine
10
78.447712
20
0
30
0
11
77.976094
21
-3.16748
31
0
39
0
210
0
220
0
230
1
0
LINE
5
144
100
AcDbEntity
8
2
62
256
6
ByLayer
370
-1
48
1
60
0
100
AcDbLine
10
78.811968
20
-3.181612
30
0
11
77.976094
21
-3.16748
31
0
39
0
210
0
220
0
230
1
0
ENDBLK
5
146
100
AcDbEntity
8
0
100
AcDbBlockEnd
0
ENDSEC
0
SECTION
2
ENTITIES
0
ELLIPSE
5
8D
100
AcDbEntity
8
1
62
256
6
ByLayer
370
-1
48
1
60
0
100
AcDbEllipse
10
25.605303
20
-1.916068
30
0
11
-1.04347473382117
21
-0.11687805558285
31
0
210
0
220
0
230
1
40
0.984726
41
0.667464684490127
42
-1.17615945506144
0
ELLIPSE
5
8E
100
AcDbEntity
8
1
62
256
6
ByLayer
370
-1
48
1
60
0
100
AcDbEllipse
10
25.605303
20
-1.916068
30
0
11
-1.04347473382117
21
-0.11687805558285
31
0
210
0
220
0
230
1
40
0.984726
41
-1.17615945506143
42
-0.219151930392438
0
ELLIPSE
5
8F
100
AcDbEntity
8
1
62
256
6
ByLayer
370
-1
48
1
60
0
100
AcDbEllipse
10
25.717559
20
-0.484251
30
0
11
1.25023412641919
21
-0.00134064754555413
31
0
210
0
220
0
230
-1
40
0.985015
41
3.05196851257791
42
-2.26542818551069
0
ELLIPSE
5
90
100
AcDbEntity
8
1
62
256
6
ByLayer
370
-1
48
1
60
0
100
AcDbEllipse
10
25.761393
20
-0.875596
30
0
11
-1.24223182597759
21
-0.139140542360536
31
0
210
0
220
0
230
1
40
0.984726
41
-1.22022431032142
42
-0.0213181522979809
0
ELLIPSE
5
91
100
AcDbEntity
8
1
62
256
6
ByLayer
370
-1
48
1
60
0
100
AcDbEllipse
10
25.719725
20
-0.503584
30
0
11
-1.24223182597759
21
-0.139140542360536
31
0
210
0
220
0
230
1
40
0.984726
41
-1.28815261675972
42
-0.987106761386589
0
ELLIPSE
5
92
100
AcDbEntity
8
1
62
256
6
ByLayer
370
-1
48
1
60
0
100
AcDbEllipse
10
25.55782
20
-1.492148
30
0
11
-1.04347473382117
21
-0.11687805558285
31
0
210
0
220
0
230
1
40
0.984726
41
2.30655133343224
42
2.69803706561873
0
ELLIPSE
5
93
100
AcDbEntity
8
1
62
256
6
ByLayer
370
-1
48
1
60
0
100
AcDbEllipse
10
22.853677
20
3.182643
30
0
11
5.36352186159289
21
-19.7206622457517
31
-2.14146452328732E-15
210
-2.1570415377137E-32
220
1.08589888950035E-16
230
-1
40
0.165575
41
1.35415932474044
42
1.55197288077029
0
ELLIPSE
5
94
100
AcDbEntity
8
1
62
256
6
ByLayer
370
-1
48
1
60
0
100
AcDbEllipse
10
24.899735
20
0.024627
30
0
11
0.335531327658904
21
3.901245881135
31
0
210
0
220
0
230
-1
40
0.03452
41
0.0108501407263144
42
0.0441252295321034
0
ELLIPSE
5
95
100
AcDbEntity
8
1
62
256
6
ByLayer
370
-1
48
1
60
0
100
AcDbEllipse
10
25.555626
20
-1.472562
30
0
11
1.05019666619688
21
-0.00112614400453873
31
0
210
0
220
0
230
-1
40
0.985015
41
0.748120324654848
42
-2.92137215492196
0
ELLIPSE
5
96
100
AcDbEntity
8
1
62
256
6
ByLayer
370
-1
48
1
60
0
100
AcDbEllipse
10
25.599489
20
-1.86416
30
0
11
1.04347473382117
21
0.116878055582852
31
0
210
0
220
0
230
1
40
0.984726
41
1.95370841159834
42
2.81042986155018
0
ELLIPSE
5
97
100
AcDbEntity
8
1
62
256
6
ByLayer
370
-1
48
1
60
0
100
AcDbEllipse
10
28.501541
20
1.485058
30
0
11
-1.89285267394762
21
-0.212015617499091
31
0
210
0
220
0
230
1
40
0.984726
41
0
42
6.28318530717959
0
ELLIPSE
5
98
100
AcDbEntity
8
1
62
256
6
ByLayer
370
-1
48
1
60
0
100
AcDbEllipse
10
28.516802
20
1.348811
30
0
11
-1.79021967848775
21
-0.200519848067217
31
0
210
0
220
0
230
1
40
0.984726
41
-0.113259265248672
42
-2.5034627183475E-16
0
ELLIPSE
5
99
100
AcDbEntity
8
1
62
256
6
ByLayer
370
-1
48
1
60
0
100
AcDbEllipse
10
28.516802
20
1.348811
30
0
11
-1.79021967848775
21
-0.200519848067217
31
0
210
0
220
0
230
1
40
0.984726
41
0
42
0.810203406417585
0
ELLIPSE
5
9A
100
AcDbEntity
8
1
62
256
6
ByLayer
370
-1
48
1
60
0
100
AcDbEllipse
10
28.516802
20
1.348811
30
0
11
-1.79021967848775
21
-0.200519848067217
31
0
210
0
220
0
230
1
40
0.984726
41
2.33142179378616
42
-2.63533793318751
0
ELLIPSE
5
9B
100
AcDbEntity
8
1
62
256
6
ByLayer
370
-1
48
1
60
0
100
AcDbEllipse
10
28.516802
20
1.348811
30
0
11
-1.79021967848775
21
-0.200519848067217
31
0
210
0
220
0
230
1
40
0.984726
41
-0.506222027829306
42
-0.113259265248665
0
ELLIPSE
5
9C
100
AcDbEntity
8
1
62
256
6
ByLayer
370
-1
48
1
60
0
100
AcDbEllipse
10
28.511959
20
1.392055
30
0
11
1.86953075338934
21
0.209403363805776
31
0
210
0
220
0
230
1
40
0.984726
41
-0.225049290023911
42
-0.113259038221193
0
ELLIPSE
5
9D
100
AcDbEntity
8
1
62
256
6
ByLayer
370
-1
48
1
60
0
100
AcDbEllipse
10
28.511959
20
1.392055
30
0
11
1.86953075338934
21
0.209403363805776
31
0
210
0
220
0
230
1
40
0.984726
41
-0.113259038221193
42
-2.39725835727548E-16
0
ELLIPSE
5
9E
100
AcDbEntity
8
1
62
256
6
ByLayer
370
-1
48
1
60
0
100
AcDbEllipse
10
28.511959
20
1.392055
30
0
11
1.86953075338934
21
0.209403363805776
31
0
210
0
220
0
230
1
40
0.984726
41
0
42
-2.91651064845915
0
ELLIPSE
5
9F
100
AcDbEntity
8
1
62
256
6
ByLayer
370
-1
48
1
60
0
100
AcDbEllipse
10
31.068694
20
-1.028812
30
0
11
0.39440860474787
21
0.0441771221994693
31
0
210
0
220
0
230
1
40
0.984726
41
-1.5921144790929
42
-0.195851077497343
0
ELLIPSE
5
A0
100
AcDbEntity
8
1
62
256
6
ByLayer
370
-1
48
1
60
0
100
AcDbEllipse
10
25.449883
20
-1.538996
30
0
11
0.394408604747874
21
0.0441771221994698
31
0
210
0
220
0
230
1
40
0.984726
41
2.9457415760924
42
-1.5921144790929
0
ELLIPSE
5
A1
100
AcDbEntity
8
1
62
256
6
ByLayer
370
-1
48
1
60
0
100
AcDbEllipse
10
31.5532
20
4.509111
30
0
11
0.394408604747874
21
0.0441771221994698
31
0
210
0
220
0
230
1
40
0.984726
41
-0.195851077497346
42
1.5494781744969
0
ELLIPSE
5
A2
100
AcDbEntity
8
1
62
256
6
ByLayer
370
-1
48
1
60
0
100
AcDbEllipse
10
25.934389
20
3.998927
30
0
11
0.39440860474787
21
0.0441771221994693
31
0
210
0
220
0
230
1
40
0.984726
41
1.549478174497
42
2.94574157609249
0
ELLIPSE
5
A3
100
AcDbEntity
8
1
62
256
6
ByLayer
370
-1
48
1
60
0
100
AcDbEllipse
10
28.52034
20
1.317223
30
0
11
-0.74335152466499
21
-0.0832617005485445
31
0
210
0
220
0
230
1
40
0.984726
41
-0.856251426377826
42
-0.0633573024092682
0
ELLIPSE
5
A4
100
AcDbEntity
8
1
62
256
6
ByLayer
370
-1
48
1
60
0
100
AcDbEllipse
10
28.504171
20
1.461581
30
0
11
0.743351524664991
21
0.0832617005485463
31
0
210
0
220
0
230
1
40
0.984726
41
2.20987852337743
42
2.28534122721187
0
ELLIPSE
5
A5
100
AcDbEntity
8
1
62
256
6
ByLayer
370
-1
48
1
60
0
100
AcDbEllipse
10
28.50096
20
1.490251
30
0
11
1.02856795190944
21
0.115208369074525
31
0
210
0
220
0
230
1
40
0.984726
41
2.77206663055287
42
-2.46477910508999
0
ELLIPSE
5
A6
100
AcDbEntity
8
1
62
256
6
ByLayer
370
-1
48
1
60
0
100
AcDbEllipse
10
28.50096
20
1.490251
30
0
11
1.02856795190944
21
0.115208369074525
31
0
210
0
220
0
230
1
40
0.984726
41
-2.46477910508999
42
-1.41843953355329
0
ELLIPSE
5
A7
100
AcDbEntity
8
1
62
256
6
ByLayer
370
-1
48
1
60
0
100
AcDbEllipse
10
28.52034
20
1.317223
30
0
11
-0.74335152466499
21
-0.0832617005485445
31
0
210
0
220
0
230
1
40
0.984726
41
0.192276666365826
42
0.790389912407664
0
ELLIPSE
5
A8
100
AcDbEntity
8
1
62
256
6
ByLayer
370
-1
48
1
60
0
100
AcDbEllipse
10
28.504171
20
1.461581
30
0
11
0.743351524664991
21
0.0832617005485463
31
0
210
0
220
0
230
1
40
0.984726
41
-0.931714130211868
42
-0.856251426378343
0
ELLIPSE
5
A9
100
AcDbEntity
8
1
62
256
6
ByLayer
370
-1
48
1
60
0
100
AcDbEllipse
10
28.52034
20
1.317223
30
0
11
0.743351524664987
21
0.0832617005485459
31
0
210
0
220
0
230
1
40
0.984726
41
0.153643762731415
42
1.19998333426806
0
ELLIPSE
5
AA
100
AcDbEntity
8
1
62
256
6
ByLayer
370
-1
48
1
60
0
100
AcDbEllipse
10
28.52034
20
1.317223
30
0
11
-0.74335152466499
21
-0.0832617005485445
31
0
210
0
220
0
230
1
40
0.984726
41
-1.94160931932174
42
-0.93171413021247
0
ELLIPSE
5
AB
100
AcDbEntity
8
1
62
256
6
ByLayer
370
-1
48
1
60
0
100
AcDbEllipse
10
28.50096
20
1.490251
30
0
11
1.02856795190944
21
0.115208369074525
31
0
210
0
220
0
230
1
40
0.984726
41
-1.41843953355329
42
-0.369526023036914
0
ELLIPSE
5
AC
100
AcDbEntity
8
1
62
256
6
ByLayer
370
-1
48
1
60
0
100
AcDbEllipse
10
28.822153
20
2.431566
30
0
11
-0.419377464450034
21
-0.0469738471009168
31
0
210
0
220
0
230
1
40
0.984726
41
1.19998333426809
42
1.97488306212048
0
ELLIPSE
5
AD
100
AcDbEntity
8
1
62
256
6
ByLayer
370
-1
48
1
60
0
100
AcDbEllipse
10
28.50096
20
1.490251
30
0
11
1.02856795190944
21
0.115208369074525
31
0
210
0
220
0
230
1
40
0.984726
41
1.72315312003643
42
2.77206663055287
0
ELLIPSE
5
AE
100
AcDbEntity
8
1
62
256
6
ByLayer
370
-1
48
1
60
0
100
AcDbEllipse
10
28.52034
20
1.317223
30
0
11
0.743351524664987
21
0.0832617005485459
31
0
210
0
220
0
230
1
40
0.984726
41
2.20987852337735
42
2.28534122721199
0
ELLIPSE
5
AF
100
AcDbEntity
8
1
62
256
6
ByLayer
370
-1
48
1
60
0
100
AcDbEllipse
10
28.50096
20
1.490251
30
0
11
1.02856795190944
21
0.115208369074525
31
0
210
0
220
0
230
1
40
0.984726
41
0.676813548499731
42
1.72315312003643
0
ELLIPSE
5
B0
100
AcDbEntity
8
1
62
256
6
ByLayer
370
-1
48
1
60
0
100
AcDbEllipse
10
27.693177
20
2.127218
30
0
11
-0.419377464450034
21
-0.0469738471009168
31
0
210
0
220
0
230
1
40
0.984726
41
2.31452319761129
42
3.02469607518661
0
ELLIPSE
5
B1
100
AcDbEntity
8
1
62
256
6
ByLayer
370
-1
48
1
60
0
100
AcDbEllipse
10
28.52034
20
1.317223
30
0
11
-0.74335152466499
21
-0.0832617005485445
31
0
210
0
220
0
230
1
40
0.984726
41
1.52191878593757
42
2.00187113147454
0
ELLIPSE
5
B2
100
AcDbEntity
8
1
62
256
6
ByLayer
370
-1
48
1
60
0
100
AcDbEllipse
10
28.50096
20
1.490251
30
0
11
1.02856795190944
21
0.115208369074525
31
0
210
0
220
0
230
1
40
0.984726
41
-0.369526023036914
42
0.676813548499731
0
ELLIPSE
5
B3
100
AcDbEntity
8
1
62
256
6
ByLayer
370
-1
48
1
60
0
100
AcDbEllipse
10
28.52034
20
1.317223
30
0
11
-0.74335152466499
21
-0.0832617005485445
31
0
210
0
220
0
230
1
40
0.984726
41
2.66760209149277
42
-2.98794889085839
0
ELLIPSE
5
B4
100
AcDbEntity
8
1
62
256
6
ByLayer
370
-1
48
1
60
0
100
AcDbEllipse
10
29.649746
20
1.62115
30
0
11
-0.419377464450034
21
-0.0469738471009168
31
0
210
0
220
0
230
1
40
0.984726
41
0.153643762731389
42
0.928543490583901
0
ELLIPSE
5
B5
100
AcDbEntity
8
1
62
256
6
ByLayer
370
-1
48
1
60
0
100
AcDbEllipse
10
27.390935
20
1.013295
30
0
11
-0.419377464450034
21
-0.0469738471009168
31
0
210
0
220
0
230
1
40
0.984726
41
2.52033668846876
42
3.14158926374864
0
ELLIPSE
5
B6
100
AcDbEntity
8
1
62
256
6
ByLayer
370
-1
48
1
60
0
100
AcDbEllipse
10
27.698992
20
1.529423
30
0
11
-0.183850310244683
21
-0.0205928002693592
31
0
210
0
220
0
230
1
40
0.984726
41
-1.67106897818714
42
-0.490317672727169
0
ELLIPSE
5
B7
100
AcDbEntity
8
1
62
256
6
ByLayer
370
-1
48
1
60
0
100
AcDbEllipse
10
27.693177
20
2.127218
30
0
11
-0.419377464450034
21
-0.0469738471009168
31
0
210
0
220
0
230
1
40
0.984726
41
1.47052367540276
42
2.18069655297797
0
ELLIPSE
5
B8
100
AcDbEntity
8
1
62
256
6
ByLayer
370
-1
48
1
60
0
100
AcDbEllipse
10
28.300048
20
2.125043
30
0
11
-0.183850310244683
21
-0.0205928002693592
31
0
210
0
220
0
230
1
40
0.984726
41
-2.71650904717413
42
-0.116896578403293
0
ELLIPSE
5
B9
100
AcDbEntity
8
1
62
256
6
ByLayer
370
-1
48
1
60
0
100
AcDbEllipse
10
28.822153
20
2.431566
30
0
11
-0.419377464450034
21
-0.0469738471009168
31
0
210
0
220
0
230
1
40
0.984726
41
0.425083606415642
42
1.19998333426809
0
ELLIPSE
5
BA
100
AcDbEntity
8
1
62
256
6
ByLayer
370
-1
48
1
60
0
100
AcDbEllipse
10
29.120505
20
1.911958
30
0
11
-0.183850310244683
21
-0.0205928002693592
31
0
210
0
220
0
230
1
40
0.984726
41
-2.68106753477491
42
-1.16670959146916
0
ELLIPSE
5
BB
100
AcDbEntity
8
1
62
256
6
ByLayer
370
-1
48
1
60
0
100
AcDbEllipse
10
29.649746
20
1.62115
30
0
11
-0.419377464450034
21
-0.0469738471009168
31
0
210
0
220
0
230
1
40
0.984726
41
-4.43399969436063E-06
42
0.153643762731389
0
ELLIPSE
5
BC
100
AcDbEntity
8
1
62
256
6
ByLayer
370
-1
48
1
60
0
100
AcDbEllipse
10
29.341689
20
1.105022
30
0
11
-0.183850310244683
21
-0.0205928002693592
31
0
210
0
220
0
230
1
40
0.984726
41
-2.58081146699888
42
-2.21304916300599
0
ELLIPSE
5
BD
100
AcDbEntity
8
1
62
256
6
ByLayer
370
-1
48
1
60
0
100
AcDbEllipse
10
28.518402
20
1.334526
30
0
11
1.73912455636863
21
0.194796759304754
31
0
210
0
220
0
230
1
40
0.984726
41
3.14155988326382
42
-0.113259046967371
0
ELLIPSE
5
BE
100
AcDbEntity
8
1
62
256
6
ByLayer
370
-1
48
1
60
0
100
AcDbEllipse
10
28.518402
20
1.334526
30
0
11
1.73912455636863
21
0.194796759304754
31
0
210
0
220
0
230
1
40
0.984726
41
-0.113259046967366
42
-2.57701393861301E-16
0
ELLIPSE
5
BF
100
AcDbEntity
8
1
62
256
6
ByLayer
370
-1
48
1
60
0
100
AcDbEllipse
10
28.50096
20
1.490251
30
0
11
1.29192109901667
21
0.144706164054958
31
0
210
0
220
0
230
1
40
0.984726
41
0
42
6.28318530717959
0
ELLIPSE
5
C0
100
AcDbEntity
8
1
62
256
6
ByLayer
370
-1
48
1
60
0
100
AcDbEllipse
10
28.504564
20
1.458071
30
0
11
1.73912455636862
21
0.194796759304753
31
0
210
0
220
0
230
1
40
0.984726
41
0
42
6.28318530717959
0
POINT
5
41
100
AcDbEntity
8
80
62
256
6
ByLayer
370
-1
48
1
60
0
100
AcDbPoint
10
0
20
0
30
0
39
0
210
0
220
0
230
1
50
360
0
POINT
5
43
100
AcDbEntity
8
81
62
256
6
ByLayer
370
-1
48
1
60
0
100
AcDbPoint
10
31.95
20
4.9
30
0
39
0
210
0
220
0
230
1
50
360
0
POINT
5
45
100
AcDbEntity
8
1
62
256
6
ByLayer
370
-1
48
1
60
0
100
AcDbPoint
10
-94.3
20
0
30
0
39
0
210
0
220
0
230
1
50
360
0
POINT
5
47
100
AcDbEntity
8
2
62
256
6
ByLayer
370
-1
48
1
60
0
100
AcDbPoint
10
31.95
20
4.9
30
0
39
0
210
0
220
0
230
1
50
360
0
SPLINE
5
C1
100
AcDbEntity
8
1
62
256
6
ByLayer
370
-1
48
1
60
0
100
AcDbSpline
70
4
71
3
72
8
73
4
40
0
40
0
40
0
40
0
40
1
40
1
40
1
40
1
41
1
10
27.5102848873631
20
-3.88297053206963
30
0
41
1
10
26.7193622148811
20
-3.82506169359886
30
0
41
1
10
25.9284416385051
20
-3.76712505885877
30
0
41
1
10
25.1375234621913
20
-3.70915664663926
30
0
0
SPLINE
5
C2
100
AcDbEntity
8
1
62
256
6
ByLayer
370
-1
48
1
60
0
100
AcDbSpline
70
4
71
3
72
8
73
4
40
0
40
0
40
0
40
0
40
1
40
1
40
1
40
1
41
1
10
24.2331102092185
20
-3.70401278295495
30
0
41
1
10
24.3451415510985
20
-3.7074529286952
30
0
41
1
10
24.4577895336736
20
-3.70915664663897
30
0
41
1
10
24.5703153026484
20
-3.70915664663897
30
0
0
SPLINE
5
C3
100
AcDbEntity
8
1
62
256
6
ByLayer
370
-1
48
1
60
0
100
AcDbSpline
70
4
71
3
72
8
73
4
40
0
40
0
40
0
40
0
40
1
40
1
40
1
40
1
41
1
10
24.1581102092193
20
-3.77551788414505
30
0
41
1
10
24.1831137171421
20
-3.75181840786766
30
0
41
1
10
24.2081174197013
20
-3.72797972817665
30
0
41
1
10
24.2331102092193
20
-3.70401278295569
30
0
0
SPLINE
5
C4
100
AcDbEntity
8
1
62
256
6
ByLayer
370
-1
48
1
60
0
100
AcDbSpline
70
4
71
3
72
8
73
4
40
0
40
0
40
0
40
0
40
1
40
1
40
1
40
1
41
1
10
25.24087970537
20
3.92156507551917
30
0
41
1
10
25.3377003009883
20
3.92872083208616
30
0
41
1
10
25.4345209240579
20
3.93587621117999
30
0
41
1
10
25.5313415741403
20
3.94303121876959
30
0
0
SPLINE
5
C5
100
AcDbEntity
8
1
62
256
6
ByLayer
370
-1
48
1
60
0
100
AcDbSpline
70
4
71
3
72
10
73
6
40
0
40
0
40
0
40
0
40
0.126036152960942
40
0.126036152960942
40
1
40
1
40
1
40
1
41
1
10
21.8272849808953
20
3.99371786106008
30
0
41
1
10
21.8542208477223
20
3.99369767672556
30
0
41
1
10
21.88121835136
20
3.99366930555496
30
0
41
1
10
22.0955043993412
20
3.99340655713527
30
0
41
1
10
22.2858232749301
20
3.99303271393362
30
0
41
1
10
22.4755144028227
20
3.99303271393362
30
0
0
SPLINE
5
C6
100
AcDbEntity
8
1
62
256
6
ByLayer
370
-1
48
1
60
0
100
AcDbSpline
70
4
71
3
72
14
73
10
40
0
40
0
40
0
40
0
40
0.123939385817537
40
0.123939385817537
40
0.608438390007155
40
0.608438390007155
40
0.977569929636644
40
0.977569929636644
40
1
40
1
40
1
40
1
41
1
10
19.689969549526
20
1.92354855995359
30
0
41
1
10
19.6685133851023
20
2.00459410039957
30
0
41
1
10
19.6478890985015
20
2.08431680669639
30
0
41
1
10
19.552962528076
20
2.46597005788672
30
0
41
1
10
19.4935624040384
20
2.75018678634154
30
0
41
1
10
19.4704690215394
20
3.18034818716603
30
0
41
1
10
19.4883395693066
20
3.34690962455767
30
0
41
1
10
19.551831479954
20
3.48999675044934
30
0
41
1
10
19.5556684240669
20
3.49817951525526
30
0
41
1
10
19.5596642822783
20
3.50624999999999
30
0
0
SPLINE
5
C7
100
AcDbEntity
8
1
62
256
6
ByLayer
370
-1
48
1
60
0
100
AcDbSpline
70
4
71
3
72
14
73
10
40
0
40
0
40
0
40
0
40
0.264083766925547
40
0.264083766925547
40
0.528139614206316
40
0.528139614206316
40
0.791111027797362
40
0.791111027797362
40
1
40
1
40
1
40
1
41
1
10
24.1581102092185
20
-3.7755178841447
30
0
41
1
10
23.7499028491288
20
-3.7594407537556
30
0
41
1
10
23.3447988271936
20
-3.72023209266848
30
0
41
1
10
22.6072018013199
20
-3.57189053893654
30
0
41
1
10
22.2647649822808
20
-3.4591039065717
30
0
41
1
10
21.6815480863092
20
-3.13304635216394
30
0
41
1
10
21.4326225239214
20
-2.91456088808826
30
0
41
1
10
21.0694214169495
20
-2.43592051526372
30
0
41
1
10
20.9340236711139
20
-2.19028564448416
30
0
41
1
10
20.8176293598102
20
-1.92354855995384
30
0
0
SPLINE
5
C8
100
AcDbEntity
8
1
62
256
6
ByLayer
370
-1
48
1
60
0
100
AcDbSpline
70
4
71
3
72
8
73
4
40
0
40
0
40
0
40
0
40
1
40
1
40
1
40
1
41
1
10
27.5102848873631
20
-3.88297053206963
30
0
41
1
10
27.5084480124109
20
-4.02102001770288
30
0
41
1
10
27.5067388574562
20
-4.09275
30
0
41
1
10
27.5052863777248
20
-4.09275
30
0
0
SPLINE
5
C9
100
AcDbEntity
8
1
62
256
6
ByLayer
370
-1
48
1
60
0
100
AcDbSpline
70
4
71
3
72
8
73
4
40
0
40
0
40
0
40
0
40
1
40
1
40
1
40
1
41
1
10
24.2331102092185
20
3.91824873309037
30
0
41
1
10
24.2081131462254
20
3.94317960655078
30
0
41
1
10
24.1831130904109
20
3.96810754543691
30
0
41
1
10
24.1581102092185
20
3.99303271393347
30
0
0
SPLINE
5
CA
100
AcDbEntity
8
1
62
256
6
ByLayer
370
-1
48
1
60
0
100
AcDbSpline
70
4
71
3
72
48
73
44
40
-0.0243628065721091
40
-0.0243628065721091
40
0
40
0
40
0.0677062469749894
40
0.0677062469749894
40
0.117128124478353
40
0.117128124478353
40
0.166985723919277
40
0.166985723919277
40
0.210882144287201
40
0.210882144287201
40
0.252131268248423
40
0.252131268248423
40
0.293302790398711
40
0.293302790398711
40
0.335287827182626
40
0.335287827182626
40
0.378732755318888
40
0.378732755318888
40
0.424952368122356
40
0.424952368122356
40
0.476531452193973
40
0.476531452193973
40
0.551887690930667
40
0.551887690930667
40
0.62833190018444
40
0.62833190018444
40
0.681462996647794
40
0.681462996647794
40
0.71381266809279
40
0.71381266809279
40
0.736812345452714
40
0.736812345452714
40
0.760147299802531
40
0.760147299802531
40
0.779765067790403
40
0.779765067790403
40
0.813921143393435
40
0.813921143393435
40
0.879916632878921
40
0.879916632878921
40
0.975637193427891
40
0.975637193427891
40
1
40
1
40
1.06770624697499
40
1.06770624697499
41
1
10
21.1362073752641
20
0.56159868921722
30
0
41
1
10
20.9984996010731
20
0.514491776088278
30
0
41
1
10
20.8948566916789
20
0.501450948715075
30
0
41
1
10
20.7224400323197
20
0.531881457201735
30
0
41
1
10
20.6500343585953
20
0.561754576627493
30
0
41
1
10
20.5143856777708
20
0.65743093412442
30
0
41
1
10
20.4491389799326
20
0.725236365577842
30
0
41
1
10
20.3405292679904
20
0.878779688847288
30
0
41
1
10
20.2938373935706
20
0.963529633469875
30
0
41
1
10
20.2168443204871
20
1.13669773631682
30
0
41
1
10
20.1846098463723
20
1.22690271166275
30
0
41
1
10
20.1343530186991
20
1.40418657777857
30
0
41
1
10
20.115620439055
20
1.49365002172394
30
0
41
1
10
20.0941870624821
20
1.66221858136387
30
0
41
1
10
20.0915749261301
20
1.74332401160521
30
0
41
1
10
20.1051942685828
20
1.88912665624557
30
0
41
1
10
20.1223167092339
20
1.95505349066139
30
0
41
1
10
20.1777537680493
20
2.06764656569362
30
0
41
1
10
20.2180188390723
20
2.11428801690428
30
0
41
1
10
20.3224500681337
20
2.18804526780286
30
0
41
1
10
20.3899638833867
20
2.21331616913983
30
0
41
1
10
20.5745946317126
20
2.24712336334352
30
0
41
1
10
20.7031993567442
20
2.24382596917903
30
0
41
1
10
20.97684583803
20
2.20349245218321
30
0
41
1
10
21.1256750900712
20
2.16590821464345
30
0
41
1
10
21.3783010156167
20
2.07279135286035
30
0
41
1
10
21.4840845281403
20
2.02565908546623
30
0
41
1
10
21.6446351900452
20
1.92718946479579
30
0
41
1
10
21.7041304761041
20
1.88391911766013
30
0
41
1
10
21.7928297374678
20
1.79594737501111
30
0
41
1
10
21.8263127107858
20
1.75435046974397
30
0
41
1
10
21.877269790714
20
1.66309134302176
30
0
41
1
10
21.8948113332567
20
1.61189553702047
30
0
41
1
10
21.9082459743804
20
1.51797249336244
30
0
41
1
10
21.9075472531269
20
1.47419924407694
30
0
41
1
10
21.8920032199229
20
1.35960024734689
30
0
41
1
10
21.8676381137013
20
1.2903862555811
30
0
41
1
10
21.7792782367275
20
1.10458793644676
30
0
41
1
10
21.6985108133899
20
0.997765575633053
30
0
41
1
10
21.4895410020089
20
0.772141303227215
30
0
41
1
10
21.3500350896255
20
0.664552748345841
30
0
41
1
10
21.1728743769769
20
0.577054129952643
30
0
41
1
10
21.1362073752641
20
0.56159868921722
30
0
41
1
10
20.9984996010731
20
0.514491776088278
30
0
0
SPLINE
5
CB
100
AcDbEntity
8
1
62
256
6
ByLayer
370
-1
48
1
60
0
100
AcDbSpline
70
4
71
3
72
8
73
4
40
0
40
0
40
0
40
0
40
1
40
1
40
1
40
1
41
1
10
25.1375234621913
20
3.91824873309065
30
0
41
1
10
25.1705847312201
20
3.92067187789749
30
0
41
1
10
25.2036460044498
20
3.92309496707227
30
0
41
1
10
25.2367072818562
20
3.9255180009319
30
0
0
SPLINE
5
CC
100
AcDbEntity
8
1
62
256
6
ByLayer
370
-1
48
1
60
0
100
AcDbSpline
70
4
71
3
72
18
73
14
40
0
40
0
40
0
40
0
40
0.210051743638313
40
0.210051743638313
40
0.386221151903324
40
0.386221151903324
40
0.56406759575378
40
0.56406759575378
40
0.719084142754258
40
0.719084142754258
40
0.924711259228106
40
0.924711259228106
40
1
40
1
40
1
40
1
41
1
10
28.441110186348
20
2.37973492224177
30
0
41
1
10
28.4632916296944
20
2.33983651858742
30
0
41
1
10
28.4918263030496
20
2.30227504827204
30
0
41
1
10
28.5544824050772
20
2.24316509992914
30
0
41
1
10
28.5877369323635
20
2.21943473419185
30
0
41
1
10
28.6599422539819
20
2.18349483713112
30
0
41
1
10
28.7000569661276
20
2.17100023148023
30
0
41
1
10
28.7747307569081
20
2.16078044287676
30
0
41
1
10
28.8102258456493
20
2.16117406086553
30
0
41
1
10
28.8885800465674
20
2.1725908271417
30
0
41
1
10
28.9314366556726
20
2.18705639373758
30
0
41
1
10
28.9843832837108
20
2.21448705135757
30
0
41
1
10
28.9982143598876
20
2.22269148346874
30
0
41
1
10
29.0115103260339
20
2.2315938661946
30
0
0
SPLINE
5
CD
100
AcDbEntity
8
1
62
256
6
ByLayer
370
-1
48
1
60
0
100
AcDbSpline
70
4
71
3
72
16
73
12
40
0
40
0
40
0
40
0
40
0.0614225143699507
40
0.0614225143699507
40
0.286057350247339
40
0.286057350247339
40
0.513364668369242
40
0.513364668369242
40
0.754984852714043
40
0.754984852714043
40
1
40
1
40
1
40
1
41
1
10
29.5010726229548
20
1.23186569203338
30
0
41
1
10
29.502400381262
20
1.23679341887956
30
0
41
1
10
29.5035214412054
20
1.24176287611937
30
0
41
1
10
29.5077257730525
20
1.26482682005252
30
0
41
1
10
29.5081809636509
20
1.28334811968676
30
0
41
1
10
29.5035583457499
20
1.31850727373057
30
0
41
1
10
29.4983703539232
20
1.33557059727107
30
0
41
1
10
29.4830258586911
20
1.3670609556429
30
0
41
1
10
29.4724029616795
20
1.38165795217344
30
0
41
1
10
29.4475545480285
20
1.4061018756353
30
0
41
1
10
29.4330283468213
20
1.4161644157459
30
0
41
1
10
29.4175142059648
20
1.42359684311828
30
0
0
SPLINE
5
CE
100
AcDbEntity
8
1
62
256
6
ByLayer
370
-1
48
1
60
0
100
AcDbSpline
70
4
71
3
72
14
73
10
40
0
40
0
40
0
40
0
40
0.0495428449872621
40
0.0495428449872621
40
0.386522092186215
40
0.386522092186215
40
0.833948878094715
40
0.833948878094715
40
1
40
1
40
1
40
1
41
1
10
27.99498368112
20
1.99945157370726
30
0
41
1
10
27.9984330454456
20
2.00342102535117
30
0
41
1
10
28.0018041644882
20
2.00746638169886
30
0
41
1
10
28.0272648015442
20
2.03932326638841
30
0
41
1
10
28.0457804023071
20
2.07056773832889
30
0
41
1
10
28.0784221577213
20
2.14554839183441
30
0
41
1
10
28.089828737264
20
2.19122618583549
30
0
41
1
10
28.0962442049539
20
2.25315903216571
30
0
41
1
10
28.0970766017131
20
2.27008590407797
30
0
41
1
10
28.097030222838
20
2.28691899960739
30
0
0
SPLINE
5
CF
100
AcDbEntity
8
1
62
256
6
ByLayer
370
-1
48
1
60
0
100
AcDbSpline
70
4
71
3
72
18
73
14
40
0
40
0
40
0
40
0
40
0.198115235557453
40
0.198115235557453
40
0.376395919924349
40
0.376395919924349
40
0.55649234198396
40
0.55649234198396
40
0.711963285505477
40
0.711963285505477
40
0.915508782307429
40
0.915508782307429
40
1
40
1
40
1
40
1
41
1
10
29.2637421673397
20
1.98459727114312
30
0
41
1
10
29.2444456681296
20
1.94636486496506
30
0
41
1
10
29.2296164349826
20
1.90448491874716
30
0
41
1
10
29.2128563504163
20
1.82177134199088
30
0
41
1
10
29.2096894138826
20
1.78028757293788
30
0
41
1
10
29.2149740160424
20
1.69862336059887
30
0
41
1
10
29.2237456098083
20
1.65727044186306
30
0
41
1
10
29.2501638039021
20
1.58784419842175
30
0
41
1
10
29.2667036780567
20
1.55786482262354
30
0
41
1
10
29.3111345006941
20
1.49793657879144
30
0
41
1
10
29.3415982220068
20
1.46971416442204
30
0
41
1
10
29.3883929909969
20
1.43877246806309
30
0
41
1
10
29.4027570235455
20
1.43066663109852
30
0
41
1
10
29.4175142059648
20
1.42359684311822
30
0
0
SPLINE
5
D0
100
AcDbEntity
8
1
62
256
6
ByLayer
370
-1
48
1
60
0
100
AcDbSpline
70
4
71
3
72
18
73
14
40
0
40
0
40
0
40
0
40
0.022364346739517
40
0.022364346739517
40
0.247948449349781
40
0.247948449349781
40
0.473970826581867
40
0.473970826581867
40
0.712489821072383
40
0.712489821072383
40
0.973112284880907
40
0.973112284880907
40
1
40
1
40
1
40
1
41
1
10
27.7701708667285
20
0.766073064620912
30
0
41
1
10
27.7715092940524
20
0.764762417281474
30
0
41
1
10
27.7728686542577
20
0.76346949126588
30
0
41
1
10
27.7880009754508
20
0.749489484263108
30
0
41
1
10
27.8039840693382
20
0.738530579733691
30
0
41
1
10
27.8377202446161
20
0.72172089986293
30
0
41
1
10
27.8559026768879
20
0.715653480599343
30
0
41
1
10
27.8930279778903
20
0.708501813228082
30
0
41
1
10
27.9124202500241
20
0.707603738090398
30
0
41
1
10
27.9508764923795
20
0.711019888063873
30
0
41
1
10
27.9702297103461
20
0.715846492240757
30
0
41
1
10
27.9894666875539
20
0.723810752394201
30
0
41
1
10
27.9912644956796
20
0.724588954685544
30
0
41
1
10
27.993043184858
20
0.725392761065876
30
0
0
SPLINE
5
D1
100
AcDbEntity
8
1
62
256
6
ByLayer
370
-1
48
1
60
0
100
AcDbSpline
70
4
71
3
72
18
73
14
40
0
40
0
40
0
40
0
40
0.0145937885888709
40
0.0145937885888709
40
0.240392698526007
40
0.240392698526007
40
0.466177246848352
40
0.466177246848352
40
0.704088103823485
40
0.704088103823485
40
0.963820637672228
40
0.963820637672228
40
1
40
1
40
1
40
1
41
1
10
27.5008468789784
20
1.74863708442686
30
0
41
1
10
27.5005298104998
20
1.74746034401727
30
0
41
1
10
27.5002247896618
20
1.74627942823227
30
0
41
1
10
27.4954566234843
20
1.72699175581917
30
0
41
1
10
27.4938491900958
20
1.70772939580652
30
0
41
1
10
27.4964434358323
20
1.67006370827457
30
0
41
1
10
27.5006647130446
20
1.6511773145902
30
0
41
1
10
27.5142475674881
20
1.61507923532619
30
0
41
1
10
27.5240255051392
20
1.59755272306254
30
0
41
1
10
27.5483682502341
20
1.5652079450235
30
0
41
1
10
27.5635777562337
20
1.55036647334788
30
0
41
1
10
27.5823371158857
20
1.53662179378492
30
0
41
1
10
27.58467568025
20
1.53497979320011
30
0
41
1
10
27.5870393049273
20
1.53338978413822
30
0
0
SPLINE
5
D2
100
AcDbEntity
8
1
62
256
6
ByLayer
370
-1
48
1
60
0
100
AcDbSpline
70
4
71
3
72
18
73
14
40
0
40
0
40
0
40
0
40
0.164230605808835
40
0.164230605808835
40
0.349050056967795
40
0.349050056967795
40
0.536071537008084
40
0.536071537008084
40
0.693507546605266
40
0.693507546605266
40
0.855576371179875
40
0.855576371179875
40
1
40
1
40
1
40
1
41
1
10
28.5634433245412
20
0.577251705016181
30
0
41
1
10
28.5467717656465
20
0.602489348699407
30
0
41
1
10
28.5262644068325
20
0.626503591212241
30
0
41
1
10
28.4751190700379
20
0.672897873085816
30
0
41
1
10
28.4428214814697
20
0.695205183252625
30
0
41
1
10
28.3706664135464
20
0.731524022413481
30
0
41
1
10
28.3294849760935
20
0.745923965576708
30
0
41
1
10
28.252536706185
20
0.762031121688892
30
0
41
1
10
28.2160221232825
20
0.765603325835087
30
0
41
1
10
28.1449308803233
20
0.765146571238006
30
0
41
1
10
28.1096061843285
20
0.760940892168946
30
0
41
1
10
28.0471445961437
20
0.746646724949272
30
0
41
1
10
28.0190834759537
20
0.737160613696005
30
0
41
1
10
27.9930431848579
20
0.72539276106582
30
0
0
SPLINE
5
D3
100
AcDbEntity
8
1
62
256
6
ByLayer
370
-1
48
1
60
0
100
AcDbSpline
70
4
71
3
72
18
73
14
40
0
40
0
40
0
40
0
40
0.0829199206228543
40
0.0829199206228543
40
0.284772306005957
40
0.284772306005957
40
0.448616334912051
40
0.448616334912051
40
0.613255641186201
40
0.613255641186201
40
0.767766212356299
40
0.767766212356299
40
1
40
1
40
1
40
1
41
1
10
27.7408113435487
20
0.972389356115997
30
0
41
1
10
27.749261785158
20
0.985445039153518
30
0
41
1
10
27.7568964817086
20
0.999167699009519
30
0
41
1
10
27.7798602114456
20
1.04818974031679
30
0
41
1
10
27.7908739492174
20
1.08712017962435
30
0
41
1
10
27.7979950855121
20
1.16192601798514
30
0
41
1
10
27.7964944272383
20
1.19785661282259
30
0
41
1
10
27.7832038963282
20
1.26946180611327
30
0
41
1
10
27.771145178659
20
1.30606647758785
30
0
41
1
10
27.7396721056929
20
1.37205895090622
30
0
41
1
10
27.7204506238535
20
1.4025380756793
30
0
41
1
10
27.6665783507809
20
1.47069719016352
30
0
41
1
10
27.6280689300561
20
1.50578917715782
30
0
41
1
10
27.587039304927
20
1.53338978413848
30
0
0
SPLINE
5
D4
100
AcDbEntity
8
1
62
256
6
ByLayer
370
-1
48
1
60
0
100
AcDbSpline
70
4
71
3
72
14
73
10
40
0
40
0
40
0
40
0
40
0.0207622074799137
40
0.0207622074799137
40
0.35926880421852
40
0.35926880421852
40
0.798480053798241
40
0.798480053798241
40
1
40
1
40
1
40
1
41
1
10
29.0133585640974
20
0.923709640171722
30
0
41
1
10
29.0119022500688
20
0.922085862856761
30
0
41
1
10
29.010459278879
20
0.920454164269188
30
0
41
1
10
28.985990724827
20
0.892392367868808
30
0
41
1
10
28.9663857919582
20
0.863708238947453
30
0
41
1
10
28.9315871837396
20
0.797531039422609
30
0
41
1
10
28.9187170655789
20
0.758853664907974
30
0
41
1
10
28.9094505530042
20
0.704077021266983
30
0
41
1
10
28.9078584656872
20
0.686892131799539
30
0
41
1
10
28.9075361311079
20
0.669952966213799
30
0
0
SPLINE
5
D5
100
AcDbEntity
8
1
62
256
6
ByLayer
370
-1
48
1
60
0
100
AcDbSpline
70
4
71
3
72
16
73
12
40
0
40
0
40
0
40
0
40
0.107001958265789
40
0.107001958265789
40
0.41547272319851
40
0.41547272319851
40
0.694808270742596
40
0.694808270742596
40
0.942007494820383
40
0.942007494820383
40
1
40
1
40
1
40
1
41
1
10
28.4411101863501
20
2.37973492224268
30
0
41
1
10
28.4369536802731
20
2.38721134993327
30
0
41
1
10
28.4323182004221
20
2.3944645632246
30
0
41
1
10
28.4127106891618
20
2.42124085826637
30
0
41
1
10
28.3940739552479
20
2.4389094785715
30
0
41
1
10
28.3535585717686
20
2.4641597691712
30
0
41
1
10
28.3314965306507
20
2.47288722522967
30
0
41
1
10
28.2886554354678
20
2.48062219945382
30
0
41
1
10
28.2673922472494
20
2.48071737286256
30
0
41
1
10
28.2422444414125
20
2.47622544631005
30
0
41
1
10
28.2374544929857
20
2.47515855128597
30
0
41
1
10
28.2327214934235
20
2.47389131695877
30
0
0
SPLINE
5
D6
100
AcDbEntity
8
1
62
256
6
ByLayer
370
-1
48
1
60
0
100
AcDbSpline
70
4
71
3
72
14
73
10
40
0
40
0
40
0
40
0
40
0.213081351111182
40
0.213081351111182
40
0.508638629296502
40
0.508638629296502
40
0.775791068233933
40
0.775791068233933
40
1
40
1
40
1
40
1
41
1
10
27.6791623142972
20
1.87283103518484
30
0
41
1
10
27.6631013189587
20
1.87404780624749
30
0
41
1
10
27.6467408322199
20
1.87315735471807
30
0
41
1
10
27.608849501761
20
1.86570451403372
30
0
41
1
10
27.587125899917
20
1.85687990794906
30
0
41
1
10
27.5509342298075
20
1.83223533271743
30
0
41
1
10
27.5354416476324
20
1.81675706397112
30
0
41
1
10
27.5134764680651
20
1.78377436761525
30
0
41
1
10
27.5056810529538
20
1.76657821780134
30
0
41
1
10
27.5008468789784
20
1.74863708442686
30
0
0
SPLINE
5
D7
100
AcDbEntity
8
1
62
256
6
ByLayer
370
-1
48
1
60
0
100
AcDbSpline
70
4
71
3
72
16
73
12
40
0
40
0
40
0
40
0
40
0.0587074910002781
40
0.0587074910002781
40
0.282752251382661
40
0.282752251382661
40
0.509318630813886
40
0.509318630813886
40
0.750040972069048
40
0.750040972069048
40
1
40
1
40
1
40
1
41
1
10
28.7691980085098
20
0.506611459501471
30
0
41
1
10
28.7739863436847
20
0.50789350963143
30
0
41
1
10
28.7787294418773
20
0.509350351742967
30
0
41
1
10
28.8010943498556
20
0.517121306330836
30
0
41
1
10
28.8180036905935
20
0.525822755473712
30
0
41
1
10
28.847824112705
20
0.546846368170236
30
0
41
1
10
28.8610768717594
20
0.559465217156657
30
0
41
1
10
28.8831730566915
20
0.587474835824196
30
0
41
1
10
28.8919823226931
20
0.60332981890835
30
0
41
1
10
28.9040375270695
20
0.636033668846693
30
0
41
1
10
28.9072185457272
20
0.653263378135534
30
0
41
1
10
28.9075361311079
20
0.669952966213799
30
0
0
SPLINE
5
D8
100
AcDbEntity
8
1
62
256
6
ByLayer
370
-1
48
1
60
0
100
AcDbSpline
70
4
71
3
72
16
73
12
40
0
40
0
40
0
40
0
40
0.0914881593621369
40
0.0914881593621369
40
0.406129185061866
40
0.406129185061866
40
0.686875924675843
40
0.686875924675843
40
0.934868529064489
40
0.934868529064489
40
1
40
1
40
1
40
1
41
1
10
29.2637421673416
20
1.98459727114164
30
0
41
1
10
29.2670217015938
20
1.99109505523376
30
0
41
1
10
29.2699933226108
20
1.99780311655306
30
0
41
1
10
29.2815757749775
20
2.02808458067557
30
0
41
1
10
29.2866245151271
20
2.05401260378372
30
0
41
1
10
29.2865871210485
20
2.10298133997338
30
0
41
1
10
29.282483242004
20
2.12679580562022
30
0
41
1
10
29.2669782374734
20
2.16814060505939
30
0
41
1
10
29.2562316240191
20
2.18667287523755
30
0
41
1
10
29.2393712477193
20
2.20660490550637
30
0
41
1
10
29.235643353811
20
2.21061583081055
30
0
41
1
10
29.2317486352048
20
2.21442971183933
30
0
0
SPLINE
5
D9
100
AcDbEntity
8
1
62
256
6
ByLayer
370
-1
48
1
60
0
100
AcDbSpline
70
4
71
3
72
12
73
8
40
0
40
0
40
0
40
0
40
0.415119918345184
40
0.415119918345184
40
0.805047437341214
40
0.805047437341214
40
1
40
1
40
1
40
1
41
1
10
29.3254040396491
20
1.08404093063774
30
0
41
1
10
29.2869239695667
20
1.08007227606655
30
0
41
1
10
29.2473636062185
20
1.07092267146996
30
0
41
1
10
29.1722398532407
20
1.04283892722427
30
0
41
1
10
29.1357237488538
20
1.02411763356883
30
0
41
1
10
29.0850234496754
20
0.989520715090549
30
0
41
1
10
29.0686254351888
20
0.976799049154181
30
0
41
1
10
29.0532043585585
20
0.963194998061056
30
0
0
SPLINE
5
DA
100
AcDbEntity
8
1
62
256
6
ByLayer
370
-1
48
1
60
0
100
AcDbSpline
70
4
71
3
72
14
73
10
40
0
40
0
40
0
40
0
40
0.27319568687427
40
0.27319568687427
40
0.561827139184884
40
0.561827139184884
40
0.823223949111703
40
0.823223949111703
40
1
40
1
40
1
40
1
41
1
10
28.5634433245412
20
0.577251705016124
30
0
41
1
10
28.5735985002461
20
0.561878655165629
30
0
41
1
10
28.5870185699751
20
0.547637045396186
30
0
41
1
10
28.6198539875426
20
0.523395795065852
30
0
41
1
10
28.6401111721929
20
0.513333711176443
30
0
41
1
10
28.6818453539595
20
0.501493643229253
30
0
41
1
10
28.7036694677393
20
0.498878847251575
30
0
41
1
10
28.7400003727599
20
0.500494103406282
30
0
41
1
10
28.7548870437133
20
0.502779778216222
30
0
41
1
10
28.7691980085098
20
0.506611459501471
30
0
0
SPLINE
5
DB
100
AcDbEntity
8
1
62
256
6
ByLayer
370
-1
48
1
60
0
100
AcDbSpline
70
4
71
3
72
16
73
12
40
0
40
0
40
0
40
0
40
0.169942497611483
40
0.169942497611483
40
0.393553528194303
40
0.393553528194303
40
0.625713002556853
40
0.625713002556853
40
0.876869437432425
40
0.876869437432425
40
1
40
1
40
1
40
1
41
1
10
28.2327214934235
20
2.47389131695877
30
0
41
1
10
28.2189520612066
20
2.47020462801194
30
0
41
1
10
28.2055250412408
20
2.46475462766875
30
0
41
1
10
28.1766866228817
20
2.44871570818472
30
0
41
1
10
28.1616333282023
20
2.43681597549894
30
0
41
1
10
28.1357767927736
20
2.40904118569085
30
0
41
1
10
28.1248192980055
20
2.3926943172024
30
0
41
1
10
28.1077449944733
20
2.3568398730028
30
0
41
1
10
28.1018645659392
20
2.33674451441672
30
0
41
1
10
28.097669208375
20
2.30677324908299
30
0
41
1
10
28.0970029614037
20
2.2968134677518
30
0
41
1
10
28.0970302228365
20
2.28691899960728
30
0
0
SPLINE
5
DC
100
AcDbEntity
8
1
62
256
6
ByLayer
370
-1
48
1
60
0
100
AcDbSpline
70
4
71
3
72
14
73
10
40
0
40
0
40
0
40
0
40
0.278794433338744
40
0.278794433338744
40
0.566163931948805
40
0.566163931948805
40
0.826463044828355
40
0.826463044828355
40
1
40
1
40
1
40
1
41
1
10
29.3254040396491
20
1.08404093063723
30
0
41
1
10
29.3459810866663
20
1.08616315108881
30
0
41
1
10
29.3671727853641
20
1.09173865298445
30
0
41
1
10
29.4079231972998
20
1.11000624234089
30
0
41
1
10
29.4280318622551
20
1.12323464449679
30
0
41
1
10
29.460937129338
20
1.15434058470581
30
0
41
1
10
29.4747155799229
20
1.17215832867296
30
0
41
1
10
29.4918651768672
20
1.20424345232482
30
0
41
1
10
29.4973268847313
20
1.21796408456203
30
0
41
1
10
29.5010726229548
20
1.23186569203338
30
0
0
SPLINE
5
DD
100
AcDbEntity
8
1
62
256
6
ByLayer
370
-1
48
1
60
0
100
AcDbSpline
70
4
71
3
72
14
73
10
40
0
40
0
40
0
40
0
40
0.221860246200785
40
0.221860246200785
40
0.516900207931391
40
0.516900207931391
40
0.783633948002392
40
0.783633948002392
40
1
40
1
40
1
40
1
41
1
10
27.7408113435482
20
0.972389356116366
30
0
41
1
10
27.7325646729371
20
0.959648493261
30
0
41
1
10
27.7261058224996
20
0.945463452245178
30
0
41
1
10
27.716404487415
20
0.910551408672973
30
0
41
1
10
27.7148258047899
20
0.888592181862435
30
0
41
1
10
27.7207377605222
20
0.847026557037196
30
0
41
1
10
27.7275047338172
20
0.826766124370153
30
0
41
1
10
27.7463166029039
20
0.793050093902878
30
0
41
1
10
27.7573419254945
20
0.778635732309908
30
0
41
1
10
27.7701708667285
20
0.766073064620912
30
0
0
SPLINE
5
DE
100
AcDbEntity
8
1
62
256
6
ByLayer
370
-1
48
1
60
0
100
AcDbSpline
70
4
71
3
72
12
73
8
40
0
40
0
40
0
40
0
40
0.460525161695808
40
0.460525161695808
40
0.842586672854943
40
0.842586672854943
40
1
40
1
40
1
40
1
41
1
10
27.6791623142972
20
1.87283103518394
30
0
41
1
10
27.7226878227099
20
1.86953356961567
30
0
41
1
10
27.7675738004303
20
1.87307849038785
30
0
41
1
10
27.8470689420859
20
1.89420360964823
30
0
41
1
10
27.8829920250528
20
1.90964312568212
30
0
41
1
10
27.9294565373601
20
1.93954663353716
30
0
41
1
10
27.9426292790072
20
1.94931240043928
30
0
41
1
10
27.9551378866584
20
1.95996621581744
30
0
0
SPLINE
5
DF
100
AcDbEntity
8
1
62
256
6
ByLayer
370
-1
48
1
60
0
100
AcDbSpline
70
4
71
3
72
16
73
12
40
0
40
0
40
0
40
0
40
0.16373588016218
40
0.16373588016218
40
0.388078575924129
40
0.388078575924129
40
0.620644734396366
40
0.620644734396366
40
0.871994297901314
40
0.871994297901314
40
1
40
1
40
1
40
1
41
1
10
29.2317486352048
20
2.21442971183933
30
0
41
1
10
29.2220563352225
20
2.22392084143445
30
0
41
1
10
29.2112154586193
20
2.23227208971434
30
0
41
1
10
29.1839726099244
20
2.24853361870564
30
0
41
1
10
29.1666320147317
20
2.25531563049188
30
0
41
1
10
29.1309212886586
20
2.26308751614189
30
0
41
1
10
29.1120907125894
20
2.26397148225254
30
0
41
1
10
29.0743888564032
20
2.25987292055288
30
0
41
1
10
29.0551641521505
20
2.25438136286689
30
0
41
1
10
29.0284866047164
20
2.24203832933216
30
0
41
1
10
29.0197699858526
20
2.23712416403708
30
0
41
1
10
29.0115103260338
20
2.23159386619463
30
0
0
SPLINE
5
E0
100
AcDbEntity
8
SK1
62
256
6
ByLayer
370
-1
48
1
60
0
100
AcDbSpline
70
4
71
3
72
10
73
6
40
0
40
0
40
0
40
0
40
0.5
40
0.5
40
1
40
1
40
1
40
1
41
1
10
-93.3
20
1.92354855995373
30
0
41
1
10
-93.5876313334881
20
1.32635665015053
30
0
41
1
10
-93.7936248977437
20
0.674468224990051
30
0
41
1
10
-93.7938749817268
20
-0.673169219891804
30
0
41
1
10
-93.585714605376
20
-1.33033623925965
30
0
41
1
10
-93.3000000000004
20
-1.92354855995399
30
0
0
SPLINE
5
E1
100
AcDbEntity
8
SK1
62
256
6
ByLayer
370
-1
48
1
60
0
100
AcDbSpline
70
4
71
3
72
10
73
6
40
0
40
0
40
0
40
0
40
0.0004189636676719
40
0.0004189636676719
40
1
40
1
40
1
40
1
41
1
10
-93.7874929559076
20
3.50624999999999
30
0
41
1
10
-93.7874939560076
20
3.50624999999999
30
0
41
1
10
-93.7874949561076
20
3.50624999999999
30
0
41
1
10
-93.788623508055
20
3.50624999999999
30
0
41
1
10
-93.5890257955442
20
3.50624999999999
30
0
41
1
10
-93.3000000000003
20
3.50624999999999
30
0
0
LINE
5
49
100
AcDbEntity
8
80
62
256
6
ByLayer
370
-1
48
1
60
0
100
AcDbLine
10
0
20
0
30
0
11
-10
21
0
31
0
39
0
210
0
220
0
230
1
0
LINE
5
4A
100
AcDbEntity
8
1
62
256
6
ByLayer
370
-1
48
1
60
0
100
AcDbLine
10
31.103779
20
-1.41805
30
0
11
25.484968
21
-1.928234
31
0
39
0
210
0
220
0
230
1
0
LINE
5
4B
100
AcDbEntity
8
1
62
256
6
ByLayer
370
-1
48
1
60
0
100
AcDbLine
10
31.948534
20
4.476864
30
0
11
31.464028
21
-1.061059
31
0
39
0
210
0
220
0
230
1
0
LINE
5
4C
100
AcDbEntity
8
1
62
256
6
ByLayer
370
-1
48
1
60
0
100
AcDbLine
10
25.054549
20
-1.506748
30
0
11
25.539055
21
4.031175
31
0
39
0
210
0
220
0
230
1
0
LINE
5
4D
100
AcDbEntity
8
1
62
256
6
ByLayer
370
-1
48
1
60
0
100
AcDbLine
10
0
20
-3.99375
30
0
11
24.15811
21
-3.99375
31
0
39
0
210
0
220
0
230
1
0
LINE
5
4E
100
AcDbEntity
8
1
62
256
6
ByLayer
370
-1
48
1
60
0
100
AcDbLine
10
24.15811
20
-3.99375
30
0
11
24.23311
21
-3.91875
31
0
39
0
210
0
220
0
230
1
0
LINE
5
4F
100
AcDbEntity
8
1
62
256
6
ByLayer
370
-1
48
1
60
0
100
AcDbLine
10
24.23311
20
-3.91875
30
0
11
25.137523
21
-3.91875
31
0
39
0
210
0
220
0
230
1
0
LINE
5
50
100
AcDbEntity
8
1
62
256
6
ByLayer
370
-1
48
1
60
0
100
AcDbLine
10
25.137523
20
-3.91875
30
0
11
27.505341
21
-4.092754
31
0
39
0
210
0
220
0
230
1
0
LINE
5
51
100
AcDbEntity
8
SK1
62
256
6
ByLayer
370
-1
48
1
60
0
100
AcDbLine
10
-93.3
20
-3.99375
30
0
11
0
21
-3.99375
31
0
39
0
210
0
220
0
230
1
0
LINE
5
53
100
AcDbEntity
8
SK1
62
256
6
ByLayer
370
-1
48
1
60
0
100
AcDbLine
10
-93.7875
20
3.50625
30
0
11
-94.3
21
2.99375
31
0
39
0
210
0
220
0
230
1
0
LINE
5
54
100
AcDbEntity
8
SK1
62
256
6
ByLayer
370
-1
48
1
60
0
100
AcDbLine
10
-94.3
20
-2.99375
30
0
11
-93.3
21
-3.99375
31
0
39
0
210
0
220
0
230
1
0
LINE
5
55
100
AcDbEntity
8
1
62
256
6
ByLayer
370
-1
48
1
60
0
100
AcDbLine
10
30.257527
20
1.529322
30
0
11
30.243689
21
1.652868
31
0
39
0
210
0
220
0
230
1
0
LINE
5
56
100
AcDbEntity
8
1
62
256
6
ByLayer
370
-1
48
1
60
0
100
AcDbLine
10
26.76544
20
1.263274
30
0
11
26.779278
21
1.139729
31
0
39
0
210
0
220
0
230
1
0
LINE
5
57
100
AcDbEntity
8
1
62
256
6
ByLayer
370
-1
48
1
60
0
100
AcDbLine
10
27.810313
20
1.060269
30
0
11
27.794011
21
1.205811
31
0
39
0
210
0
220
0
230
1
0
LINE
5
58
100
AcDbEntity
8
1
62
256
6
ByLayer
370
-1
48
1
60
0
100
AcDbLine
10
29.21407
20
1.719684
30
0
11
29.230368
21
1.574176
31
0
39
0
210
0
220
0
230
1
0
LINE
5
59
100
AcDbEntity
8
81
62
256
6
ByLayer
370
-1
48
1
60
0
100
AcDbLine
10
31.95
20
4.9
30
0
11
41.95
21
4.9
31
0
39
0
210
0
220
0
230
1
0
LINE
5
5A
100
AcDbEntity
8
SK4
62
256
6
ByLayer
370
-1
48
0.05
60
0
100
AcDbLine
10
-99.3
20
0
30
0
11
36.25537
21
0
31
0
39
0
210
0
220
0
230
1
0
LINE
5
5C
100
AcDbEntity
8
4
62
256
6
ByLayer
370
-1
48
0.05
60
0
100
AcDbLine
10
0
20
0
30
0
11
36.25537
21
0
31
0
39
0
210
0
220
0
230
1
0
LINE
5
5E
100
AcDbEntity
8
1
62
256
6
ByLayer
370
-1
48
1
60
0
100
AcDbLine
10
0
20
-3.99375
30
0
11
0
21
-1.923549
31
0
39
0
210
0
220
0
230
1
0
LINE
5
5F
100
AcDbEntity
8
1
62
256
6
ByLayer
370
-1
48
1
60
0
100
AcDbLine
10
30.587007
20
-3.882971
30
0
11
27.510285
21
-3.882971
31
0
39
0
210
0
220
0
230
1
0
LINE
5
60
100
AcDbEntity
8
1
62
256
6
ByLayer
370
-1
48
1
60
0
100
AcDbLine
10
0
20
-1.923549
30
0
11
0
21
1.923549
31
0
39
0
210
0
220
0
230
1
0
LINE
5
61
100
AcDbEntity
8
1
62
256
6
ByLayer
370
-1
48
1
60
0
100
AcDbLine
10
25.24088
20
3.921565
30
0
11
24.920793
21
0.440464
31
0
39
0
210
0
220
0
230
1
0
LINE
5
62
100
AcDbEntity
8
1
62
256
6
ByLayer
370
-1
48
1
60
0
100
AcDbLine
10
22.475514
20
3.993033
30
0
11
24.570315
21
-3.709157
31
0
39
0
210
0
220
0
230
1
0
LINE
5
63
100
AcDbEntity
8
1
62
256
6
ByLayer
370
-1
48
1
60
0
100
AcDbLine
10
24.15811
20
-3.99375
30
0
11
24.15811
21
-3.775518
31
0
39
0
210
0
220
0
230
1
0
LINE
5
64
100
AcDbEntity
8
1
62
256
6
ByLayer
370
-1
48
1
60
0
100
AcDbLine
10
30.77026
20
-1.788376
30
0
11
26.324633
21
-2.177091
31
0
39
0
210
0
220
0
230
1
0
LINE
5
65
100
AcDbEntity
8
1
62
256
6
ByLayer
370
-1
48
1
60
0
100
AcDbLine
10
24.920793
20
0.440464
30
0
11
24.918296
21
0.462755
31
0
39
0
210
0
220
0
230
1
0
LINE
5
66
100
AcDbEntity
8
1
62
256
6
ByLayer
370
-1
48
1
60
0
100
AcDbLine
10
21.339784
20
3.50625
30
0
11
21.827284
21
3.99375
31
0
39
0
210
0
220
0
230
1
0
LINE
5
67
100
AcDbEntity
8
1
62
256
6
ByLayer
370
-1
48
1
60
0
100
AcDbLine
10
24.570315
20
-3.709157
30
0
11
25.137523
21
-3.709157
31
0
39
0
210
0
220
0
230
1
0
LINE
5
68
100
AcDbEntity
8
1
62
256
6
ByLayer
370
-1
48
1
60
0
100
AcDbLine
10
25.137523
20
-3.91875
30
0
11
25.137523
21
-3.709157
31
0
39
0
210
0
220
0
230
1
0
LINE
5
69
100
AcDbEntity
8
1
62
256
6
ByLayer
370
-1
48
1
60
0
100
AcDbLine
10
30.568654
20
-4.09275
30
0
11
27.505286
21
-4.09275
31
0
39
0
210
0
220
0
230
1
0
LINE
5
6A
100
AcDbEntity
8
1
62
256
6
ByLayer
370
-1
48
1
60
0
100
AcDbLine
10
24.531035
20
-1.24549
30
0
11
24.575289
21
-1.640591
31
0
39
0
210
0
220
0
230
1
0
LINE
5
6B
100
AcDbEntity
8
1
62
256
6
ByLayer
370
-1
48
1
60
0
100
AcDbLine
10
0
20
3.50625
30
0
11
0
21
1.923549
31
0
39
0
210
0
220
0
230
1
0
LINE
5
6C
100
AcDbEntity
8
1
62
256
6
ByLayer
370
-1
48
1
60
0
100
AcDbLine
10
24.23311
20
-3.91875
30
0
11
24.23311
21
-3.704013
31
0
39
0
210
0
220
0
230
1
0
LINE
5
6D
100
AcDbEntity
8
1
62
256
6
ByLayer
370
-1
48
1
60
0
100
AcDbLine
10
0
20
3.50625
30
0
11
19.559664
21
3.50625
31
0
39
0
210
0
220
0
230
1
0
LINE
5
6E
100
AcDbEntity
8
1
62
256
6
ByLayer
370
-1
48
1
60
0
100
AcDbLine
10
19.559664
20
3.50625
30
0
11
21.339784
21
3.50625
31
0
39
0
210
0
220
0
230
1
0
LINE
5
6F
100
AcDbEntity
8
1
62
256
6
ByLayer
370
-1
48
1
60
0
100
AcDbLine
10
30.568654
20
-4.09275
30
0
11
30.587007
21
-3.882971
31
0
39
0
210
0
220
0
230
1
0
LINE
5
70
100
AcDbEntity
8
1
62
256
6
ByLayer
370
-1
48
1
60
0
100
AcDbLine
10
24.575289
20
-1.640591
30
0
11
24.516523
21
-0.98863
31
0
39
0
210
0
220
0
230
1
0
LINE
5
71
100
AcDbEntity
8
1
62
256
6
ByLayer
370
-1
48
1
60
0
100
AcDbLine
10
24.472225
20
-0.593141
30
0
11
24.516523
21
-0.98863
31
0
39
0
210
0
220
0
230
1
0
LINE
5
72
100
AcDbEntity
8
1
62
256
6
ByLayer
370
-1
48
1
60
0
100
AcDbLine
10
30.77026
20
-1.788376
30
0
11
30.587007
21
-3.882971
31
0
39
0
210
0
220
0
230
1
0
LINE
5
73
100
AcDbEntity
8
1
62
256
6
ByLayer
370
-1
48
1
60
0
100
AcDbLine
10
30.800248
20
-1.445612
30
0
11
30.77026
21
-1.788375
31
0
39
0
210
0
220
0
230
1
0
LINE
5
74
100
AcDbEntity
8
1
62
256
6
ByLayer
370
-1
48
1
60
0
100
AcDbLine
10
24.918296
20
0.462755
30
0
11
25.236707
21
3.925518
31
0
39
0
210
0
220
0
230
1
0
LINE
5
75
100
AcDbEntity
8
1
62
256
6
ByLayer
370
-1
48
1
60
0
100
AcDbLine
10
22.475514
20
3.993033
30
0
11
24.15811
21
3.993033
31
0
39
0
210
0
220
0
230
1
0
LINE
5
76
100
AcDbEntity
8
1
62
256
6
ByLayer
370
-1
48
1
60
0
100
AcDbLine
10
24.472225
20
-0.593141
30
0
11
24.531035
21
-1.24549
31
0
39
0
210
0
220
0
230
1
0
LINE
5
77
100
AcDbEntity
8
1
62
256
6
ByLayer
370
-1
48
1
60
0
100
AcDbLine
10
25.137523
20
3.918249
30
0
11
24.23311
21
3.918249
31
0
39
0
210
0
220
0
230
1
0
LINE
5
78
100
AcDbEntity
8
1
62
256
6
ByLayer
370
-1
48
1
60
0
100
AcDbLine
10
0
20
-1.923549
30
0
11
20.817629
21
-1.923549
31
0
39
0
210
0
220
0
230
1
0
LINE
5
79
100
AcDbEntity
8
1
62
256
6
ByLayer
370
-1
48
1
60
0
100
AcDbLine
10
19.68997
20
1.923549
30
0
11
0
21
1.923549
31
0
39
0
210
0
220
0
230
1
0
LINE
5
7A
100
AcDbEntity
8
SK1
62
256
6
ByLayer
370
-1
48
1
60
0
100
AcDbLine
10
-93.3
20
1.923549
30
0
11
-93.3
21
3.50625
31
0
39
0
210
0
220
0
230
1
0
LINE
5
7B
100
AcDbEntity
8
SK1
62
256
6
ByLayer
370
-1
48
1
60
0
100
AcDbLine
10
0
20
3.50625
30
0
11
0
21
1.923549
31
0
39
0
210
0
220
0
230
1
0
LINE
5
7C
100
AcDbEntity
8
1
62
256
6
ByLayer
370
-1
48
1
60
0
100
AcDbLine
10
27.955138
20
1.959966
30
0
11
27.971307
21
1.815608
31
0
39
0
210
0
220
0
230
1
0
LINE
5
7D
100
AcDbEntity
8
1
62
256
6
ByLayer
370
-1
48
1
60
0
100
AcDbLine
10
28.011153
20
1.855094
30
0
11
27.994984
21
1.999452
31
0
39
0
210
0
220
0
230
1
0
LINE
5
7E
100
AcDbEntity
8
1
62
256
6
ByLayer
370
-1
48
1
60
0
100
AcDbLine
10
29.435578
20
1.262326
30
0
11
29.417514
21
1.423597
31
0
39
0
210
0
220
0
230
1
0
LINE
5
7F
100
AcDbEntity
8
1
62
256
6
ByLayer
370
-1
48
1
60
0
100
AcDbLine
10
29.029574
20
2.070323
30
0
11
29.01151
21
2.231594
31
0
39
0
210
0
220
0
230
1
0
LINE
5
80
100
AcDbEntity
8
1
62
256
6
ByLayer
370
-1
48
1
60
0
100
AcDbLine
10
28.459174
20
2.218464
30
0
11
28.44111
21
2.379735
31
0
39
0
210
0
220
0
230
1
0
LINE
5
81
100
AcDbEntity
8
1
62
256
6
ByLayer
370
-1
48
1
60
0
100
AcDbLine
10
28.115087
20
2.125706
30
0
11
28.09703
21
2.286919
31
0
39
0
210
0
220
0
230
1
0
LINE
5
82
100
AcDbEntity
8
1
62
256
6
ByLayer
370
-1
48
1
60
0
100
AcDbLine
10
27.69722
20
1.711618
30
0
11
27.679162
21
1.872831
31
0
39
0
210
0
220
0
230
1
0
LINE
5
83
100
AcDbEntity
8
1
62
256
6
ByLayer
370
-1
48
1
60
0
100
AcDbLine
10
27.758875
20
0.811119
30
0
11
27.740811
21
0.972389
31
0
39
0
210
0
220
0
230
1
0
LINE
5
84
100
AcDbEntity
8
1
62
256
6
ByLayer
370
-1
48
1
60
0
100
AcDbLine
10
25.899304
20
4.388165
30
0
11
31.518114
21
4.898349
31
0
39
0
210
0
220
0
230
1
0
LINE
5
85
100
AcDbEntity
8
SK1
62
256
6
ByLayer
370
-1
48
1
60
0
100
AcDbLine
10
0
20
1.923549
30
0
11
-93.3
21
1.923549
31
0
39
0
210
0
220
0
230
1
0
LINE
5
86
100
AcDbEntity
8
SK1
62
256
6
ByLayer
370
-1
48
1
60
0
100
AcDbLine
10
0
20
-1.923549
30
0
11
0
21
1.923549
31
0
39
0
210
0
220
0
230
1
0
LINE
5
87
100
AcDbEntity
8
SK1
62
256
6
ByLayer
370
-1
48
1
60
0
100
AcDbLine
10
-93.3
20
3.50625
30
0
11
0
21
3.50625
31
0
39
0
210
0
220
0
230
1
0
LINE
5
88
100
AcDbEntity
8
SK1
62
256
6
ByLayer
370
-1
48
1
60
0
100
AcDbLine
10
-93.3
20
-1.923549
30
0
11
0
21
-1.923549
31
0
39
0
210
0
220
0
230
1
0
LINE
5
89
100
AcDbEntity
8
SK1
62
256
6
ByLayer
370
-1
48
1
60
0
100
AcDbLine
10
0
20
-3.99375
30
0
11
0
21
-1.923549
31
0
39
0
210
0
220
0
230
1
0
LINE
5
8A
100
AcDbEntity
8
SK1
62
256
6
ByLayer
370
-1
48
1
60
0
100
AcDbLine
10
-93.3
20
-3.99375
30
0
11
-93.3
21
-1.923549
31
0
39
0
210
0
220
0
230
1
0
LINE
5
8B
100
AcDbEntity
8
SK1
62
256
6
ByLayer
370
-1
48
1
60
0
100
AcDbLine
10
-94.3
20
-2.99375
30
0
11
-94.3
21
2.99375
31
0
39
0
210
0
220
0
230
1
0
LINE
5
8C
100
AcDbEntity
8
2
62
256
6
ByLayer
370
-1
48
1
60
1
100
AcDbLine
10
31.95
20
0
30
0
11
31.951
21
0.001
31
0
39
0
210
0
220
0
230
1
0
MTEXT
5
E2
100
AcDbEntity
8
SK6
62
256
6
ByLayer
370
-1
48
1
60
0
100
AcDbMText
10
-27.8
20
-15.576404
30
0
210
0
220
0
230
1
1
\W00.777;\fsimplex.shx,bigfont.shx;A08K-SCLPR 06 
40
3.5
41
0
44
1.084337
50
0
71
7
72
5
7
DEFAULT
0
DIMENSION
5
115
100
AcDbEntity
8
2
62
256
6
ByLayer
370
-3
48
1
60
0
100
AcDbDimension
2
DimnDraft3D1
10
44.2
20
0
30
0
11
44.2
21
15.155
31
0
70
32
71
5
72
1
41
1
210
0
220
0
230
1
3
Standard
100
AcDbAlignedDimension
13
33.95
23
4.9
33
0
14
33.95
24
0
34
0
50
90
100
AcDbRotatedDimension
1001
ACAD
1000
DSTYLE
1002
{
1070
    74
1070
     0
1070
   279
1070
     0
1070
   172
1070
     1
1070
   173
1070
     1
1070
   340
1005
E3
1070
    77
1070
     1
1070
    73
1070
     0
1070
   171
1070
     4
1070
   274
1070
     4
1070
   177
1070
     2
1070
   176
1070
     2
1070
   178
1070
     7
1070
    78
1070
     8
1070
    41
1041
3.175
1070
   147
1041
2.25
1070
    42
1041
2.0
1070
    44
1041
2.0
1070
   140
1041
4.5
1070
   343
1005
116
1070
   344
1005
116
1002
}
0
DIMENSION
5
12B
100
AcDbEntity
8
SK2
62
256
6
ByLayer
370
-3
48
1
60
0
100
AcDbDimension
2
DimnDraft3D2
10
-104.05
20
3.99375
30
0
11
-104.05
21
14.24875
31
0
70
32
71
5
72
1
41
1
210
0
220
0
230
1
3
Standard
100
AcDbAlignedDimension
13
-96.3
23
-3.99375
33
0
14
-96.3
24
3.99375
34
0
50
90
100
AcDbRotatedDimension
1001
ACAD
1000
DSTYLE
1002
{
1070
    74
1070
     0
1070
   279
1070
     0
1070
   172
1070
     1
1070
   173
1070
     1
1070
   340
1005
E3
1070
    77
1070
     1
1070
    73
1070
     0
1070
   171
1070
     4
1070
   274
1070
     4
1070
   177
1070
     2
1070
   176
1070
     2
1070
   178
1070
     7
1070
    78
1070
     8
1070
    41
1041
3.175
1070
   147
1041
2.25
1070
    42
1041
2.0
1070
    44
1041
2.0
1070
   140
1041
4.5
1070
   343
1005
116
1070
   344
1005
116
1002
}
0
DIMENSION
5
139
100
AcDbEntity
8
SK2
62
256
6
ByLayer
370
-3
48
1
60
0
100
AcDbDimension
2
DimnDraft3D3
10
-94.3
20
17.65
30
0
11
-37.427632
21
17.65
31
0
70
32
71
5
72
1
41
1
210
0
220
0
230
1
3
Standard
100
AcDbAlignedDimension
13
31.95
23
6.9
33
0
14
-94.3
24
5.99375
34
0
50
0
100
AcDbRotatedDimension
1001
ACAD
1000
DSTYLE
1002
{
1070
   279
1070
     0
1070
   172
1070
     1
1070
   173
1070
     1
1070
   340
1005
E3
1070
    77
1070
     1
1070
    73
1070
     0
1070
   171
1070
     4
1070
   274
1070
     4
1070
   177
1070
     2
1070
   176
1070
     2
1070
   178
1070
     7
1070
    78
1070
     8
1070
    41
1041
3.175
1070
   147
1041
2.25
1070
    42
1041
2.0
1070
    44
1041
2.0
1070
   140
1041
4.5
1070
   343
1005
116
1070
   344
1005
116
1002
}
0
DIMENSION
5
147
100
AcDbEntity
8
2
62
256
6
ByLayer
370
-3
48
1
60
0
100
AcDbDimension
2
DimnDraft3D4
10
80.447712
20
0
30
0
11
57.007016
21
-37.243123
31
0
70
34
71
5
72
1
41
1
210
0
220
0
230
1
3
Standard
100
AcDb2LineAngularDimension
13
31.252754
23
-3.069558
33
0
14
27.257088
24
-48.740227
34
0
15
33.95
25
0
35
0
16
60.184171
26
-31.280028
36
0
40
0
0
ENDSEC
0
SECTION
2
OBJECTS
0
DICTIONARY
5
178
330
0
100
AcDbDictionary
280
0
281
1
3
ACAD_GROUP
350
179
3
ACAD_MLINESTYLE
350
17a
0
DICTIONARY
5
179
330
0
100
AcDbDictionary
280
0
281
1
0
DICTIONARY
5
17a
330
0
100
AcDbDictionary
280
0
281
1
3
Standard
350
18
0
MLINESTYLE
5
18
330
17a
100
AcDbMlineStyle
2
Standard
70
0
3

62
256
51
90
52
90
71
2
49
-0.5
62
256
6
ByLayer
49
0.5
62
256
6
ByLayer
0
RASTERVARIABLES
5
166
330

100
AcDbRasterVariables
90
0
70
1
71
1
72
1
0
ENDSEC
0
EOF
