0
SECTION
2
HEADER
9
$ACADVER
1
AC1015
9
$DWGCODEPAGE
3
ANSI_1252
9
$HANDSEED
5
192
9
$ANGBASE
50
0
9
$ANGDIR
70
0
9
$ATTMODE
70
1
9
$AUNITS
70
0
9
$AUPREC
70
0
9
$CECOLOR
62
256
9
$CELTSCALE
40
1
9
$CELTYPE
6
ByLayer
9
$CELWEIGHT
370
-1
9
$CLAYER
8
0
9
$CMLJUST
70
0
9
$CMLSCALE
40
1
9
$CMLSTYLE
2
Standard
9
$DIMSTYLE
2
Standard
9
$TEXTSIZE
40
0.2
9
$TEXTSTYLE
7
Standard
9
$LUNITS
70
2
9
$LUPREC
70
4
9
$EXTNAMES
290
1
9
$INSUNITS
70
4
9
$LTSCALE
40
1
9
$LWDISPLAY
290
0
9
$PDMODE
70
0
9
$PDSIZE
40
0
9
$PLINEGEN
70
0
0
ENDSEC
0
SECTION
2
CLASSES
0
CLASS
1
RASTERVARIABLES
2
AcDbRasterVariables
3
ISM
90
0
280
0
281
0
0
ENDSEC
0
SECTION
2
TABLES
0
TABLE
2
VPORT
5
188
100
AcDbSymbolTable
0
VPORT
5
1
100
AcDbSymbolTableRecord
100
AcDbViewportTableRecord
2
*Active
70
0
10
0
20
0
11
1
21
1
12
-1
22
1
13
0
23
0
14
0.5
24
0.5
15
10
25
10
16
0
26
0
36
1
17
0
27
0
37
0
0
ENDTAB
0
TABLE
2
LTYPE
5
189
100
AcDbSymbolTable
0
LTYPE
5
14
100
AcDbSymbolTableRecord
100
AcDbLinetypeTableRecord
70
0
2
ByBlock
3

72
65
73
0
40
0
0
LTYPE
5
15
100
AcDbSymbolTableRecord
100
AcDbLinetypeTableRecord
70
0
2
ByLayer
3

72
65
73
0
40
0
0
LTYPE
5
16
100
AcDbSymbolTableRecord
100
AcDbLinetypeTableRecord
70
0
2
CONTINUOUS
3
Solid line
72
65
73
0
40
0
0
LTYPE
5
3B
100
AcDbSymbolTableRecord
100
AcDbLinetypeTableRecord
70
0
2
DASHED
3
__ __ __ __ __ __ __ __ __
72
65
73
2
40
25.72
49
12.86
74
0
49
-12.86
74
0
0
LTYPE
5
3C
100
AcDbSymbolTableRecord
100
AcDbLinetypeTableRecord
70
0
2
HIDDEN
3
_ _ _ _ _ _ _ _ _ _ _ _ _ _ _
72
65
73
2
40
0.5
49
0.25
74
0
49
-0.25
74
0
0
LTYPE
5
3D
100
AcDbSymbolTableRecord
100
AcDbLinetypeTableRecord
70
0
2
PHANTOM
3
____ _ _ ____ _ _ _____ _ _ ____
72
65
73
6
40
50.5
49
18
74
0
49
-6.5
74
0
49
6.5
74
0
49
-6.5
74
0
49
6.5
74
0
49
-6.5
74
0
0
LTYPE
5
3E
100
AcDbSymbolTableRecord
100
AcDbLinetypeTableRecord
70
0
2
CENTER
3
____ _ ____ _ ____ _ ____
72
65
73
4
40
47.5
49
22
74
0
49
-8.5
74
0
49
8.5
74
0
49
-8.5
74
0
0
LTYPE
5
3F
100
AcDbSymbolTableRecord
100
AcDbLinetypeTableRecord
70
0
2
DOT
3
.........................
72
65
73
2
40
10
49
0
74
0
49
-10
74
0
0
LTYPE
5
40
100
AcDbSymbolTableRecord
100
AcDbLinetypeTableRecord
70
0
2
DASHDOT
3
_._._._._._._._._._._._._._._._.
72
65
73
4
40
70
49
31
74
0
49
-13
74
0
49
13
74
0
49
-13
74
0
0
ENDTAB
0
TABLE
2
LAYER
5
18a
100
AcDbSymbolTable
0
LAYER
5
10
100
AcDbSymbolTableRecord
100
AcDbLayerTableRecord
2
0
70
0
62
7
6
CONTINUOUS
290
1
370
-3
390
0
0
LAYER
5
42
100
AcDbSymbolTableRecord
100
AcDbLayerTableRecord
2
80
70
0
62
-6
6
CONTINUOUS
290
1
370
-3
390
0
0
LAYER
5
44
100
AcDbSymbolTableRecord
100
AcDbLayerTableRecord
2
81
70
0
62
-3
6
CONTINUOUS
290
1
370
-3
390
0
0
LAYER
5
46
100
AcDbSymbolTableRecord
100
AcDbLayerTableRecord
2
1
70
0
62
4
6
CONTINUOUS
290
1
370
-3
390
0
0
LAYER
5
48
100
AcDbSymbolTableRecord
100
AcDbLayerTableRecord
2
2
70
0
62
7
6
CONTINUOUS
290
1
370
-3
390
0
0
LAYER
5
4E
100
AcDbSymbolTableRecord
100
AcDbLayerTableRecord
2
4
70
0
62
-2
6
CENTER
290
1
370
-3
390
0
0
LAYER
5
174
100
AcDbSymbolTableRecord
100
AcDbLayerTableRecord
2
SK4
70
0
62
2
6
CENTER
290
1
370
-3
390
0
0
LAYER
5
175
100
AcDbSymbolTableRecord
100
AcDbLayerTableRecord
2
SK1
70
0
62
4
6
CONTINUOUS
290
1
370
-3
390
0
0
LAYER
5
176
100
AcDbSymbolTableRecord
100
AcDbLayerTableRecord
2
SK6
70
0
62
5
6
CONTINUOUS
290
1
370
-3
390
0
0
LAYER
5
177
100
AcDbSymbolTableRecord
100
AcDbLayerTableRecord
2
SK2
70
0
62
7
6
CONTINUOUS
290
1
370
-3
390
0
0
ENDTAB
0
TABLE
2
STYLE
5
18b
100
AcDbSymbolTable
0
STYLE
5
11
100
AcDbSymbolTableRecord
100
AcDbTextStyleTableRecord
2
Standard
3
txt
70
0
71
0
40
0
41
1
42
0
50
0
0
STYLE
5
F0
100
AcDbSymbolTableRecord
100
AcDbTextStyleTableRecord
2
DEFAULT
3
simplex.shx
70
0
71
0
40
0
41
1
42
0
50
0
0
STYLE
5
113
100
AcDbSymbolTableRecord
100
AcDbTextStyleTableRecord
2
DWGDirectTextStyle
3
SIMPLEX
70
0
71
0
40
0
41
1
42
0
50
0
0
ENDTAB
0
TABLE
2
DIMSTYLE
5
18c
100
AcDbSymbolTable
100
AcDbDimStyleTable
0
DIMSTYLE
105
27
100
AcDbSymbolTableRecord
100
AcDbDimStyleTableRecord
2
Standard
70
0
3
<>
41
0.18
42
0.0625
44
0.18
140
0.18
147
0.09
73
0
74
0
77
1
271
2
275
0
278
52
280
0
340
11
0
ENDTAB
0
TABLE
2
VIEW
5
18d
100
AcDbSymbolTable
0
ENDTAB
0
TABLE
2
UCS
5
18e
100
AcDbSymbolTable
0
ENDTAB
0
TABLE
2
APPID
5
18f
100
AcDbSymbolTable
0
APPID
5
12
100
AcDbSymbolTableRecord
100
AcDbRegAppTableRecord
2
ACAD
70
0
0
ENDTAB
0
TABLE
2
BLOCK_RECORD
5
190
100
AcDbSymbolTable
0
BLOCK_RECORD
5
1F
100
AcDbSymbolTableRecord
100
AcDbBlockTableRecord
2
*Model_Space
340
0
70
0
0
BLOCK_RECORD
5
1B
100
AcDbSymbolTableRecord
100
AcDbBlockTableRecord
2
*Paper_Space
340
0
70
0
0
BLOCK_RECORD
5
23
100
AcDbSymbolTableRecord
100
AcDbBlockTableRecord
2
*Paper_Space0
340
0
70
0
0
BLOCK_RECORD
5
115
100
AcDbSymbolTableRecord
100
AcDbBlockTableRecord
2
DimnDraft3D1
340
0
70
0
0
BLOCK_RECORD
5
123
100
AcDbSymbolTableRecord
100
AcDbBlockTableRecord
2
_CLOSED
340
0
70
0
0
BLOCK_RECORD
5
12A
100
AcDbSymbolTableRecord
100
AcDbBlockTableRecord
2
DimnDraft3D2
340
0
70
0
0
BLOCK_RECORD
5
139
100
AcDbSymbolTableRecord
100
AcDbBlockTableRecord
2
DimnDraft3D3
340
0
70
0
0
BLOCK_RECORD
5
147
100
AcDbSymbolTableRecord
100
AcDbBlockTableRecord
2
DimnDraft3D4
340
0
70
0
0
ENDTAB
0
ENDSEC
0
SECTION
2
BLOCKS
0
BLOCK
5
20
100
AcDbEntity
8
0
100
AcDbBlockBegin
2
*Model_Space
70
0
10
0
20
0
30
0
3
*Model_Space
0
ENDBLK
5
21
100
AcDbEntity
8
0
100
AcDbBlockEnd
0
BLOCK
5
1C
100
AcDbEntity
8
0
100
AcDbBlockBegin
2
*Paper_Space
70
0
10
0
20
0
30
0
3
*Paper_Space
0
ENDBLK
5
1D
100
AcDbEntity
8
0
100
AcDbBlockEnd
0
BLOCK
5
24
100
AcDbEntity
8
0
100
AcDbBlockBegin
2
*Paper_Space0
70
0
10
0
20
0
30
0
3
*Paper_Space0
0
ENDBLK
5
25
100
AcDbEntity
8
0
100
AcDbBlockEnd
0
BLOCK
5
120
100
AcDbEntity
8
0
100
AcDbBlockBegin
2
DimnDraft3D1
70
0
10
0
20
0
30
0
3
DimnDraft3D1
0
MTEXT
5
116
100
AcDbEntity
8
2
62
256
6
ByLayer
370
-1
48
1
60
0
100
AcDbMText
10
43.075
20
-21.052368
30
0
210
0
220
0
230
1
1
\W01.000;\fsimplex.shx,bigfont.shx;5.0 
40
4.5
41
0
44
1.084337
50
90
71
7
72
5
7
DEFAULT
0
LINE
5
117
100
AcDbEntity
8
2
62
256
6
ByLayer
370
-1
48
1
60
0
100
AcDbLine
10
33.95
20
-4.9
30
0
11
46.2
21
-4.9
31
0
39
0
210
0
220
0
230
1
0
LINE
5
118
100
AcDbEntity
8
2
62
256
6
ByLayer
370
-1
48
1
60
0
100
AcDbLine
10
33.95
20
0
30
0
11
46.2
21
0
31
0
39
0
210
0
220
0
230
1
0
LINE
5
119
100
AcDbEntity
8
2
62
256
6
ByLayer
370
-1
48
1
60
0
100
AcDbLine
10
44.2
20
11.25
30
0
11
44.2
21
-22.177368
31
0
39
0
210
0
220
0
230
1
0
LINE
5
11A
100
AcDbEntity
8
2
62
256
6
ByLayer
370
-1
48
1
60
0
100
AcDbLine
10
44.2
20
-4.9
30
0
11
44.617997
21
-8.074998
31
0
39
0
210
0
220
0
230
1
0
LINE
5
11B
100
AcDbEntity
8
2
62
256
6
ByLayer
370
-1
48
1
60
0
100
AcDbLine
10
44.2
20
-4.9
30
0
11
43.782003
21
-8.075002
31
0
39
0
210
0
220
0
230
1
0
LINE
5
11C
100
AcDbEntity
8
2
62
256
6
ByLayer
370
-1
48
1
60
0
100
AcDbLine
10
44.617997
20
-8.074998
30
0
11
43.782003
21
-8.075002
31
0
39
0
210
0
220
0
230
1
0
LINE
5
11D
100
AcDbEntity
8
2
62
256
6
ByLayer
370
-1
48
1
60
0
100
AcDbLine
10
44.2
20
0
30
0
11
43.782003
21
3.174998
31
0
39
0
210
0
220
0
230
1
0
LINE
5
11E
100
AcDbEntity
8
2
62
256
6
ByLayer
370
-1
48
1
60
0
100
AcDbLine
10
44.2
20
0
30
0
11
44.617997
21
3.175002
31
0
39
0
210
0
220
0
230
1
0
LINE
5
11F
100
AcDbEntity
8
2
62
256
6
ByLayer
370
-1
48
1
60
0
100
AcDbLine
10
43.782003
20
3.174998
30
0
11
44.617997
21
3.175002
31
0
39
0
210
0
220
0
230
1
0
ENDBLK
5
121
100
AcDbEntity
8
0
100
AcDbBlockEnd
0
BLOCK
5
124
100
AcDbEntity
8
0
100
AcDbBlockBegin
2
_CLOSED
70
0
10
0
20
0
30
0
3
_CLOSED
0
LINE
5
126
100
AcDbEntity
8
0
62
256
6
ByLayer
370
-2
48
1
60
0
100
AcDbLine
10
-1
20
0.166667
30
0
11
0
21
0
31
0
39
0
210
0
220
0
230
1
0
LINE
5
127
100
AcDbEntity
8
0
62
256
6
ByLayer
370
-2
48
1
60
0
100
AcDbLine
10
0
20
0
30
0
11
-1
21
-0.166667
31
0
39
0
210
0
220
0
230
1
0
LINE
5
128
100
AcDbEntity
8
0
62
256
6
ByLayer
370
-2
48
1
60
0
100
AcDbLine
10
-1
20
0.166667
30
0
11
-1
21
-0.166667
31
0
39
0
210
0
220
0
230
1
0
LINE
5
129
100
AcDbEntity
8
0
62
256
6
ByLayer
370
-2
48
1
60
0
100
AcDbLine
10
0
20
0
30
0
11
-1
21
0
31
0
39
0
210
0
220
0
230
1
0
ENDBLK
5
125
100
AcDbEntity
8
0
100
AcDbBlockEnd
0
BLOCK
5
136
100
AcDbEntity
8
0
100
AcDbBlockBegin
2
DimnDraft3D2
70
0
10
0
20
0
30
0
3
DimnDraft3D2
0
MTEXT
5
12B
100
AcDbEntity
8
SK2
62
256
6
ByLayer
370
-1
48
1
60
0
100
AcDbMText
10
-80.025
20
15.37375
30
0
210
0
220
0
230
1
1
\W01.000;\fsimplex.shx,bigfont.shx;%%c8 
40
4.5
41
0
44
1.084337
50
90
71
7
72
5
7
DEFAULT
0
LINE
5
12D
100
AcDbEntity
8
SK2
62
256
6
ByLayer
370
-1
48
1
60
0
100
AcDbLine
10
-71.15
20
-3.99375
30
0
11
-80.9
21
-3.99375
31
0
39
0
210
0
220
0
230
1
0
LINE
5
12E
100
AcDbEntity
8
SK2
62
256
6
ByLayer
370
-1
48
1
60
0
100
AcDbLine
10
-71.15
20
3.99375
30
0
11
-80.9
21
3.99375
31
0
39
0
210
0
220
0
230
1
0
LINE
5
12F
100
AcDbEntity
8
SK2
62
256
6
ByLayer
370
-1
48
1
60
0
100
AcDbLine
10
-78.9
20
20.513224
30
0
11
-78.9
21
-15.24375
31
0
39
0
210
0
220
0
230
1
0
LINE
5
130
100
AcDbEntity
8
SK2
62
256
6
ByLayer
370
-1
48
1
60
0
100
AcDbLine
10
-78.9
20
-3.99375
30
0
11
-78.482003
21
-7.168748
31
0
39
0
210
0
220
0
230
1
0
LINE
5
131
100
AcDbEntity
8
SK2
62
256
6
ByLayer
370
-1
48
1
60
0
100
AcDbLine
10
-78.9
20
-3.99375
30
0
11
-79.317997
21
-7.168752
31
0
39
0
210
0
220
0
230
1
0
LINE
5
132
100
AcDbEntity
8
SK2
62
256
6
ByLayer
370
-1
48
1
60
0
100
AcDbLine
10
-78.482003
20
-7.168748
30
0
11
-79.317997
21
-7.168752
31
0
39
0
210
0
220
0
230
1
0
LINE
5
133
100
AcDbEntity
8
SK2
62
256
6
ByLayer
370
-1
48
1
60
0
100
AcDbLine
10
-78.9
20
3.99375
30
0
11
-79.317997
21
7.168748
31
0
39
0
210
0
220
0
230
1
0
LINE
5
134
100
AcDbEntity
8
SK2
62
256
6
ByLayer
370
-1
48
1
60
0
100
AcDbLine
10
-78.9
20
3.99375
30
0
11
-78.482003
21
7.168752
31
0
39
0
210
0
220
0
230
1
0
LINE
5
135
100
AcDbEntity
8
SK2
62
256
6
ByLayer
370
-1
48
1
60
0
100
AcDbLine
10
-79.317997
20
7.168748
30
0
11
-78.482003
21
7.168752
31
0
39
0
210
0
220
0
230
1
0
ENDBLK
5
137
100
AcDbEntity
8
0
100
AcDbBlockEnd
0
BLOCK
5
144
100
AcDbEntity
8
0
100
AcDbBlockBegin
2
DimnDraft3D3
70
0
10
0
20
0
30
0
3
DimnDraft3D3
0
MTEXT
5
13A
100
AcDbEntity
8
SK2
62
256
6
ByLayer
370
-1
48
1
60
0
100
AcDbMText
10
-23.727632
20
-21.025
30
0
210
0
220
0
230
1
1
\W01.000;\fsimplex.shx,bigfont.shx;100.0 
40
4.5
41
0
44
1.084337
50
0
71
7
72
5
7
DEFAULT
0
LINE
5
13B
100
AcDbEntity
8
SK2
62
256
6
ByLayer
370
-1
48
1
60
0
100
AcDbLine
10
-69.15
20
-5.99375
30
0
11
-69.15
21
-24.15
31
0
39
0
210
0
220
0
230
1
0
LINE
5
13C
100
AcDbEntity
8
SK2
62
256
6
ByLayer
370
-1
48
1
60
0
100
AcDbLine
10
31.95
20
-6.9
30
0
11
31.95
21
-24.15
31
0
39
0
210
0
220
0
230
1
0
LINE
5
13D
100
AcDbEntity
8
SK2
62
256
6
ByLayer
370
-1
48
1
60
0
100
AcDbLine
10
-69.15
20
-22.15
30
0
11
31.95
21
-22.15
31
0
39
0
210
0
220
0
230
1
0
LINE
5
13E
100
AcDbEntity
8
SK2
62
256
6
ByLayer
370
-1
48
1
60
0
100
AcDbLine
10
-69.15
20
-22.15
30
0
11
-65.975002
21
-21.732003
31
0
39
0
210
0
220
0
230
1
0
LINE
5
13F
100
AcDbEntity
8
SK2
62
256
6
ByLayer
370
-1
48
1
60
0
100
AcDbLine
10
-69.15
20
-22.15
30
0
11
-65.974998
21
-22.567997
31
0
39
0
210
0
220
0
230
1
0
LINE
5
140
100
AcDbEntity
8
SK2
62
256
6
ByLayer
370
-1
48
1
60
0
100
AcDbLine
10
-65.975002
20
-21.732003
30
0
11
-65.974998
21
-22.567997
31
0
39
0
210
0
220
0
230
1
0
LINE
5
141
100
AcDbEntity
8
SK2
62
256
6
ByLayer
370
-1
48
1
60
0
100
AcDbLine
10
31.95
20
-22.15
30
0
11
28.775002
21
-22.567997
31
0
39
0
210
0
220
0
230
1
0
LINE
5
142
100
AcDbEntity
8
SK2
62
256
6
ByLayer
370
-1
48
1
60
0
100
AcDbLine
10
31.95
20
-22.15
30
0
11
28.774998
21
-21.732003
31
0
39
0
210
0
220
0
230
1
0
LINE
5
143
100
AcDbEntity
8
SK2
62
256
6
ByLayer
370
-1
48
1
60
0
100
AcDbLine
10
28.775002
20
-22.567997
30
0
11
28.774998
21
-21.732003
31
0
39
0
210
0
220
0
230
1
0
ENDBLK
5
145
100
AcDbEntity
8
0
100
AcDbBlockEnd
0
BLOCK
5
152
100
AcDbEntity
8
0
100
AcDbBlockBegin
2
DimnDraft3D4
70
0
10
0
20
0
30
0
3
DimnDraft3D4
0
MTEXT
5
148
100
AcDbEntity
8
2
62
256
6
ByLayer
370
-1
48
1
60
0
100
AcDbMText
10
54.036258
20
32.335899
30
0
210
0
220
0
230
1
1
\W01.000;\fsimplex.shx,bigfont.shx;95%%d0' 
40
4.5
41
0
44
1.084337
50
317.5
71
7
72
5
7
DEFAULT
0
LINE
5
149
100
AcDbEntity
8
2
62
256
6
ByLayer
370
-1
48
1
60
0
100
AcDbLine
10
31.601377
20
-0.915221
30
0
11
28.04149
21
39.774475
31
0
39
0
210
0
220
0
230
1
0
LINE
5
14A
100
AcDbEntity
8
2
62
256
6
ByLayer
370
-1
48
1
60
0
100
AcDbLine
10
33.95
20
0
30
0
11
71.447712
21
0
31
0
39
0
210
0
220
0
230
1
0
ARC
5
14B
100
AcDbEntity
8
2
62
256
6
ByLayer
370
-1
48
1
60
0
100
AcDbCircle
39
0
10
31.521306
20
0
30
0
40
37.9264068640929
210
0
220
0
230
1
100
AcDbArc
50
0
51
95
0
LINE
5
14C
100
AcDbEntity
8
2
62
256
6
ByLayer
370
-1
48
1
60
0
100
AcDbLine
10
28.215801
20
37.782085
30
0
11
31.3561
21
38.409669
31
0
39
0
210
0
220
0
230
1
0
LINE
5
14D
100
AcDbEntity
8
2
62
256
6
ByLayer
370
-1
48
1
60
0
100
AcDbLine
10
28.215801
20
37.782085
30
0
11
31.411531
21
37.575515
31
0
39
0
210
0
220
0
230
1
0
LINE
5
14E
100
AcDbEntity
8
2
62
256
6
ByLayer
370
-1
48
1
60
0
100
AcDbLine
10
31.3561
20
38.409669
30
0
11
31.411531
21
37.575515
31
0
39
0
210
0
220
0
230
1
0
LINE
5
14F
100
AcDbEntity
8
2
62
256
6
ByLayer
370
-1
48
1
60
0
100
AcDbLine
10
69.447712
20
0
30
0
11
68.963402
21
3.165562
31
0
39
0
210
0
220
0
230
1
0
LINE
5
150
100
AcDbEntity
8
2
62
256
6
ByLayer
370
-1
48
1
60
0
100
AcDbLine
10
69.447712
20
0
30
0
11
69.799213
21
3.183049
31
0
39
0
210
0
220
0
230
1
0
LINE
5
151
100
AcDbEntity
8
2
62
256
6
ByLayer
370
-1
48
1
60
0
100
AcDbLine
10
68.963402
20
3.165562
30
0
11
69.799213
21
3.183049
31
0
39
0
210
0
220
0
230
1
0
ENDBLK
5
153
100
AcDbEntity
8
0
100
AcDbBlockEnd
0
ENDSEC
0
SECTION
2
ENTITIES
0
ELLIPSE
5
8D
100
AcDbEntity
8
1
62
256
6
ByLayer
370
-1
48
1
60
0
100
AcDbEllipse
10
29.02596
20
-1.874872
30
0
11
-0.963386918733553
21
0.109552854976577
31
0
210
0
220
0
230
1
40
0.984973
41
-1.4264222546918
42
0.0127558492160576
0
ELLIPSE
5
8E
100
AcDbEntity
8
1
62
256
6
ByLayer
370
-1
48
1
60
0
100
AcDbEllipse
10
24.941035
20
-8.04645
30
0
11
27.1072138241581
21
38.7094757500812
31
0
210
0
220
0
230
-1
40
0.02884
41
-1.48461482587861
42
-1.47607324281988
0
ELLIPSE
5
8F
100
AcDbEntity
8
1
62
256
6
ByLayer
370
-1
48
1
60
0
100
AcDbEllipse
10
29.017355
20
-1.950545
30
0
11
-1.04327615112563
21
0.118637567795747
31
0
210
0
220
0
230
1
40
0.984973
41
-1.44250381105611
42
0.0733932158877699
0
ELLIPSE
5
90
100
AcDbEntity
8
1
62
256
6
ByLayer
370
-1
48
1
60
0
100
AcDbEllipse
10
29.612249
20
0.258297
30
0
11
3.10818356404362
21
4.21810944645607
31
0
210
0
220
0
230
-1
40
0.077326
41
2.89558650950993
42
3.0519478024467
0
ELLIPSE
5
91
100
AcDbEntity
8
1
62
256
6
ByLayer
370
-1
48
1
60
0
100
AcDbEllipse
10
28.908078
20
-1.856332
30
0
11
1.04572888436665
21
-0.106443228200841
31
0
210
0
220
0
230
-1
40
0.986284
41
-2.63526107984983
42
-2.28319090530166
0
ELLIPSE
5
92
100
AcDbEntity
8
1
62
256
6
ByLayer
370
-1
48
1
60
0
100
AcDbEllipse
10
14.243731
20
-30.652542
30
0
11
22.3696256550861
21
47.2737264869634
31
0
210
2.40356057059527E-31
220
1.08589888950035E-16
230
1
40
0.154052
41
0.885838055398272
42
0.99240643036754
0
ELLIPSE
5
93
100
AcDbEntity
8
1
62
256
6
ByLayer
370
-1
48
1
60
0
100
AcDbEllipse
10
29.789566
20
-2.759845
30
0
11
-1.3910348681675
21
0.158183423727662
31
0
210
0
220
0
230
1
40
0.984973
41
0
42
6.28318530717959
0
ELLIPSE
5
94
100
AcDbEntity
8
1
62
256
6
ByLayer
370
-1
48
1
60
0
100
AcDbEllipse
10
29.801225
20
-2.657311
30
0
11
-1.30825857451297
21
0.148770404806714
31
0
210
0
220
0
230
1
40
0.984973
41
2.88995017256703
42
-3.02665029982088
0
ELLIPSE
5
95
100
AcDbEntity
8
1
62
256
6
ByLayer
370
-1
48
1
60
0
100
AcDbEllipse
10
29.801225
20
-2.657311
30
0
11
-1.30825857451297
21
0.148770404806714
31
0
210
0
220
0
230
1
40
0.984973
41
-0.895472021936268
42
-3.4242249401244E-16
0
ELLIPSE
5
96
100
AcDbEntity
8
1
62
256
6
ByLayer
370
-1
48
1
60
0
100
AcDbEllipse
10
29.801225
20
-2.657311
30
0
11
-1.30825857451297
21
0.148770404806714
31
0
210
0
220
0
230
1
40
0.984973
41
0
42
0.251503268146915
0
ELLIPSE
5
97
100
AcDbEntity
8
1
62
256
6
ByLayer
370
-1
48
1
60
0
100
AcDbEllipse
10
29.801225
20
-2.657311
30
0
11
-1.30825857451297
21
0.148770404806714
31
0
210
0
220
0
230
1
40
0.984973
41
-3.02665029982088
42
-2.24606235609553
0
ELLIPSE
5
98
100
AcDbEntity
8
1
62
256
6
ByLayer
370
-1
48
1
60
0
100
AcDbEllipse
10
27.107777
20
-3.455385
30
0
11
0.198719266881069
21
-0.0225976319610946
31
0
210
0
220
0
230
1
40
0.984973
41
2.64102284751064
42
-1.89683320767465
0
ELLIPSE
5
99
100
AcDbEntity
8
1
62
256
6
ByLayer
370
-1
48
1
60
0
100
AcDbEllipse
10
29.789566
20
-2.759845
30
0
11
-1.97166772608568
21
0.22421087961399
31
0
210
0
220
0
230
1
40
0.984973
41
-0.849635656478031
42
-0.500569806079159
0
ELLIPSE
5
9A
100
AcDbEntity
8
1
62
256
6
ByLayer
370
-1
48
1
60
0
100
AcDbEllipse
10
29.796748
20
-2.696685
30
0
11
1.3750677973215
21
-0.15636770652954
31
0
210
0
220
0
230
1
40
0.984973
41
-3.02665041801046
42
-3.25785510191211E-16
0
ELLIPSE
5
9B
100
AcDbEntity
8
1
62
256
6
ByLayer
370
-1
48
1
60
0
100
AcDbEllipse
10
29.796748
20
-2.696685
30
0
11
1.3750677973215
21
-0.15636770652954
31
0
210
0
220
0
230
1
40
0.984973
41
0
42
0.229119797083317
0
ELLIPSE
5
9C
100
AcDbEntity
8
1
62
256
6
ByLayer
370
-1
48
1
60
0
100
AcDbEllipse
10
29.796748
20
-2.696685
30
0
11
1.3750677973215
21
-0.15636770652954
31
0
210
0
220
0
230
1
40
0.984973
41
2.91243268426928
42
-3.02665041801046
0
ELLIPSE
5
9D
100
AcDbEntity
8
1
62
256
6
ByLayer
370
-1
48
1
60
0
100
AcDbEllipse
10
30.511252
20
-0.121534
30
0
11
0.198719266881069
21
-0.0225976319610946
31
0
210
0
220
0
230
1
40
0.984973
41
0.546627745117497
42
2.29195699711175
0
ELLIPSE
5
9E
100
AcDbEntity
8
1
62
256
6
ByLayer
370
-1
48
1
60
0
100
AcDbEllipse
10
29.789566
20
-2.759845
30
0
11
-1.97166772608568
21
0.22421087961399
31
0
210
0
220
0
230
1
40
0.984973
41
1.24475944591516
42
1.59382529631401
0
ELLIPSE
5
9F
100
AcDbEntity
8
1
62
256
6
ByLayer
370
-1
48
1
60
0
100
AcDbEllipse
10
31.749667
20
-4.702618
30
0
11
0.198719266881069
21
-0.0225976319610946
31
0
210
0
220
0
230
1
40
0.984973
41
-1.54776735727583
42
0.197561894718514
0
ELLIPSE
5
A0
100
AcDbEntity
8
1
62
256
6
ByLayer
370
-1
48
1
60
0
100
AcDbEllipse
10
29.789566
20
-2.759845
30
0
11
-1.97166772608568
21
0.22421087961399
31
0
210
0
220
0
230
1
40
0.984973
41
-2.94403075887122
42
-2.59496490847238
0
ELLIPSE
5
A1
100
AcDbEntity
8
1
62
256
6
ByLayer
370
-1
48
1
60
0
100
AcDbEllipse
10
29.790081
20
-2.755314
30
0
11
0.943916517685096
21
-0.107338751815201
31
0
210
0
220
0
230
1
40
0.984973
41
0
42
6.28318530717959
0
ELLIPSE
5
A2
100
AcDbEntity
8
1
62
256
6
ByLayer
370
-1
48
1
60
0
100
AcDbEllipse
10
29.790081
20
-2.755314
30
0
11
0.870688467839416
21
-0.0990115244375374
31
0
210
0
220
0
230
1
40
0.984973
41
-1.17259753336785
42
-0.151503804849856
0
ELLIPSE
5
A3
100
AcDbEntity
8
1
62
256
6
ByLayer
370
-1
48
1
60
0
100
AcDbEllipse
10
29.808619
20
-2.592291
30
0
11
0.673857033993715
21
-0.076628569980073
31
0
210
0
220
0
230
1
40
0.984973
41
-2.74778348739707
42
-1.74401462874944
0
ELLIPSE
5
A4
100
AcDbEntity
8
1
62
256
6
ByLayer
370
-1
48
1
60
0
100
AcDbEllipse
10
29.99026
20
-3.495809
30
0
11
0.199698118123519
21
0.0511533360400326
31
0
210
0
220
0
230
-1
40
0.475931
41
1.4535226394844
42
1.67544777401603
0
ELLIPSE
5
A5
100
AcDbEntity
8
1
62
256
6
ByLayer
370
-1
48
1
60
0
100
AcDbEllipse
10
29.239937
20
-3.294204
30
0
11
0.140923293049813
21
-0.149958674508886
31
0
210
0
220
0
230
-1
40
0.476103
41
1.34717351990112
42
1.522995338536
0
ELLIPSE
5
A6
100
AcDbEntity
8
1
62
256
6
ByLayer
370
-1
48
1
60
0
100
AcDbEllipse
10
29.808619
20
-2.592291
30
0
11
-0.787133716215609
21
0.0895099821088522
31
0
210
0
220
0
230
1
40
0.984973
41
1.15557301790663
42
1.15748713558652
0
ELLIPSE
5
A7
100
AcDbEntity
8
1
62
256
6
ByLayer
370
-1
48
1
60
0
100
AcDbEllipse
10
29.808619
20
-2.592291
30
0
11
0.673857033993715
21
-0.076628569980073
31
0
210
0
220
0
230
1
40
0.984973
41
-1.70058593620097
42
-0.696817077546367
0
ELLIPSE
5
A8
100
AcDbEntity
8
1
62
256
6
ByLayer
370
-1
48
1
60
0
100
AcDbEllipse
10
29.808619
20
-2.592291
30
0
11
0.673857033993715
21
-0.076628569980073
31
0
210
0
220
0
230
1
40
0.984973
41
0.469608946075163
42
1.05309639639853
0
ELLIPSE
5
A9
100
AcDbEntity
8
1
62
256
6
ByLayer
370
-1
48
1
60
0
100
AcDbEllipse
10
30.340224
20
-2.216425
30
0
11
0.152572778057327
21
-0.138448874050954
31
0
210
0
220
0
230
-1
40
0.474986
41
-1.50489319180196
42
-1.32907136782888
0
ELLIPSE
5
AA
100
AcDbEntity
8
1
62
256
6
ByLayer
370
-1
48
1
60
0
100
AcDbEllipse
10
29.808619
20
-2.592291
30
0
11
0.673857033993715
21
-0.076628569980073
31
0
210
0
220
0
230
1
40
0.984973
41
1.73095437389354
42
2.30837231336056
0
ELLIPSE
5
AB
100
AcDbEntity
8
1
62
256
6
ByLayer
370
-1
48
1
60
0
100
AcDbEllipse
10
29.792313
20
-2.735687
30
0
11
0.673857033993715
21
-0.076628569980073
31
0
210
0
220
0
230
1
40
0.984973
41
1.39757802487673
42
1.44100671738866
0
ELLIPSE
5
AC
100
AcDbEntity
8
1
62
256
6
ByLayer
370
-1
48
1
60
0
100
AcDbEllipse
10
30.558942
20
-2.793896
30
0
11
0.0539732005199172
21
0.196230678512952
31
0
210
0
220
0
230
-1
40
0.486763
41
1.58938138552813
42
-3.02323144551086
0
ELLIPSE
5
AD
100
AcDbEntity
8
1
62
256
6
ByLayer
370
-1
48
1
60
0
100
AcDbEllipse
10
29.808619
20
-2.592291
30
0
11
0.673857033993715
21
-0.076628569980073
31
0
210
0
220
0
230
1
40
0.984973
41
-0.696817077546367
42
-0.653388385011237
0
ELLIPSE
5
AE
100
AcDbEntity
8
1
62
256
6
ByLayer
370
-1
48
1
60
0
100
AcDbEllipse
10
29.792313
20
-2.735687
30
0
11
0.673857033993715
21
-0.076628569980073
31
0
210
0
220
0
230
1
40
0.984973
41
-2.79121217971371
42
-2.747783487397
0
ELLIPSE
5
AF
100
AcDbEntity
8
1
62
256
6
ByLayer
370
-1
48
1
60
0
100
AcDbEllipse
10
29.792313
20
-2.735687
30
0
11
0.673857033993715
21
-0.076628569980073
31
0
210
0
220
0
230
1
40
0.984973
41
2.4447755760367
42
2.48820426858359
0
ELLIPSE
5
B0
100
AcDbEntity
8
1
62
256
6
ByLayer
370
-1
48
1
60
0
100
AcDbEllipse
10
29.791028
20
-2.746983
30
0
11
0.787133716215609
21
-0.0895099821088537
31
0
210
0
220
0
230
1
40
0.984973
41
0.633900055446121
42
0.635814173126007
0
ELLIPSE
5
B1
100
AcDbEntity
8
1
62
256
6
ByLayer
370
-1
48
1
60
0
100
AcDbEllipse
10
29.790081
20
-2.755314
30
0
11
0.870688467839416
21
-0.0990115244375374
31
0
210
0
220
0
230
1
40
0.984973
41
0.886735214949492
42
1.91678717320258
0
ELLIPSE
5
B2
100
AcDbEntity
8
1
62
256
6
ByLayer
370
-1
48
1
60
0
100
AcDbEllipse
10
29.589901
20
-2.01482
30
0
11
0.199698117733874
21
0.0511533359557675
31
0
210
0
220
0
230
-1
40
0.475931
41
-1.68807001418547
42
-1.46614487921147
0
ELLIPSE
5
B3
100
AcDbEntity
8
1
62
256
6
ByLayer
370
-1
48
1
60
0
100
AcDbEllipse
10
29.790081
20
-2.755314
30
0
11
0.870688467839416
21
-0.0990115244375374
31
0
210
0
220
0
230
1
40
0.984973
41
2.99008854707912
42
-2.23694067750383
0
ELLIPSE
5
B4
100
AcDbEntity
8
1
62
256
6
ByLayer
370
-1
48
1
60
0
100
AcDbEllipse
10
29.058296
20
-2.390686
30
0
11
0.053973118920534
21
0.196230700560738
31
0
210
0
220
0
230
-1
40
0.486763
41
3.01746705216575
42
-2.23817615294125
0
ELLIPSE
5
B5
100
AcDbEntity
8
1
62
256
6
ByLayer
370
-1
48
1
60
0
100
AcDbEllipse
10
29.057794
20
-2.787023
30
0
11
0.0538270759863307
21
-0.196627944001657
31
0
210
0
220
0
230
-1
40
0.486651
41
-3.01416740082477
42
-1.63560904354777
0
ELLIPSE
5
B6
100
AcDbEntity
8
1
62
256
6
ByLayer
370
-1
48
1
60
0
100
AcDbEllipse
10
29.057794
20
-2.787023
30
0
11
0.0538270759867651
21
-0.196627944002263
31
0
210
0
220
0
230
-1
40
0.486651
41
-1.49290253086959
42
-0.882904888977081
0
ELLIPSE
5
B7
100
AcDbEntity
8
1
62
256
6
ByLayer
370
-1
48
1
60
0
100
AcDbEllipse
10
30.008799
20
-3.332786
30
0
11
0.199698117713475
21
0.0511533359366089
31
0
210
0
220
0
230
-1
40
0.475931
41
0.660810473952055
42
-3.00962727834239
0
ELLIPSE
5
B8
100
AcDbEntity
8
1
62
256
6
ByLayer
370
-1
48
1
60
0
100
AcDbEllipse
10
29.606567
20
-3.330944
30
0
11
0.199477891723772
21
-0.0533173421303758
31
0
210
0
220
0
230
-1
40
0.474389
41
-3.0179421245166
42
-1.63938376724008
0
ELLIPSE
5
B9
100
AcDbEntity
8
1
62
256
6
ByLayer
370
-1
48
1
60
0
100
AcDbEllipse
10
29.258476
20
-3.131181
30
0
11
0.14092329195858
21
-0.14995867278934
31
0
210
0
220
0
230
-1
40
0.476103
41
-0.191710276136438
42
2.05990534208047
0
ELLIPSE
5
BA
100
AcDbEntity
8
1
62
256
6
ByLayer
370
-1
48
1
60
0
100
AcDbEllipse
10
29.792313
20
-2.735687
30
0
11
0.673857033993715
21
-0.076628569980073
31
0
210
0
220
0
230
1
40
0.984973
41
-0.696817077421956
42
-0.65338838501155
0
ELLIPSE
5
BB
100
AcDbEntity
8
1
62
256
6
ByLayer
370
-1
48
1
60
0
100
AcDbEllipse
10
29.792313
20
-2.735687
30
0
11
0.673857033993715
21
-0.076628569980073
31
0
210
0
220
0
230
1
40
0.984973
41
-1.74401462874202
42
-1.70058593620088
0
ELLIPSE
5
BC
100
AcDbEntity
8
1
62
256
6
ByLayer
370
-1
48
1
60
0
100
AcDbEllipse
10
29.790081
20
-2.755314
30
0
11
0.870688467839416
21
-0.0990115244375374
31
0
210
0
220
0
230
1
40
0.984973
41
-0.151503804849856
42
0.845566832078039
0
ELLIPSE
5
BD
100
AcDbEntity
8
1
62
256
6
ByLayer
370
-1
48
1
60
0
100
AcDbEllipse
10
30.357392
20
-3.136213
30
0
11
0.146853741677368
21
0.142562810359366
31
0
210
0
220
0
230
-1
40
0.482814
41
-2.60960678678367
42
-1.6514519598982
0
ELLIPSE
5
BE
100
AcDbEntity
8
1
62
256
6
ByLayer
370
-1
48
1
60
0
100
AcDbEllipse
10
29.808619
20
-2.592291
30
0
11
0.673857033993715
21
-0.076628569980073
31
0
210
0
220
0
230
1
40
0.984973
41
-2.79121217994645
42
-2.74778348739707
0
ELLIPSE
5
BF
100
AcDbEntity
8
1
62
256
6
ByLayer
370
-1
48
1
60
0
100
AcDbEllipse
10
29.790081
20
-2.755314
30
0
11
0.870688467839416
21
-0.0990115244375374
31
0
210
0
220
0
230
1
40
0.984973
41
1.96899512022334
42
2.99008854707912
0
ELLIPSE
5
C0
100
AcDbEntity
8
1
62
256
6
ByLayer
370
-1
48
1
60
0
100
AcDbEllipse
10
30.357392
20
-3.136213
30
0
11
0.146853741679503
21
0.142562810360913
31
0
210
0
220
0
230
-1
40
0.482814
41
-1.50874544727395
42
-0.13018709011456
0
ELLIPSE
5
C1
100
AcDbEntity
8
1
62
256
6
ByLayer
370
-1
48
1
60
0
100
AcDbEllipse
10
29.801789
20
-2.652352
30
0
11
1.29167523472697
21
-0.146884607747117
31
0
210
0
220
0
230
1
40
0.984973
41
0
42
1.12704735393018
0
ELLIPSE
5
C2
100
AcDbEntity
8
1
62
256
6
ByLayer
370
-1
48
1
60
0
100
AcDbEllipse
10
29.801789
20
-2.652352
30
0
11
1.29167523472697
21
-0.146884607747117
31
0
210
0
220
0
230
1
40
0.984973
41
2.01432980989439
42
3.14157284368912
0
ELLIPSE
5
C3
100
AcDbEntity
8
1
62
256
6
ByLayer
370
-1
48
1
60
0
100
AcDbEllipse
10
29.791028
20
-2.746983
30
0
11
0.787133716215609
21
-0.0895099821088537
31
0
210
0
220
0
230
1
40
0.984973
41
-1.98601963568314
42
-1.98410551800325
0
ELLIPSE
5
C4
100
AcDbEntity
8
1
62
256
6
ByLayer
370
-1
48
1
60
0
100
AcDbEllipse
10
29.79285
20
-2.730962
30
0
11
1.29167523472696
21
-0.146884607747116
31
0
210
0
220
0
230
1
40
0.984973
41
0
42
6.28318530717959
0
ELLIPSE
5
C5
100
AcDbEntity
8
1
62
256
6
ByLayer
370
-1
48
1
60
0
100
AcDbEllipse
10
29.606567
20
-3.330944
30
0
11
0.199477891724057
21
-0.0533173421300216
31
0
210
0
220
0
230
-1
40
0.474389
41
-1.49667725456287
42
-0.135510679395523
0
ELLIPSE
5
C6
100
AcDbEntity
8
1
62
256
6
ByLayer
370
-1
48
1
60
0
100
AcDbEllipse
10
29.808619
20
-2.592291
30
0
11
0.673857033993715
21
-0.076628569980073
31
0
210
0
220
0
230
1
40
0.984973
41
2.88692012790725
42
-2.79121217994645
0
ELLIPSE
5
C7
100
AcDbEntity
8
1
62
256
6
ByLayer
370
-1
48
1
60
0
100
AcDbEllipse
10
30.559444
20
-2.39756
30
0
11
0.0538270759868969
21
-0.196627944002615
31
0
210
0
220
0
230
-1
40
0.486651
41
2.25868230196371
42
3.02724847999409
0
ELLIPSE
5
C8
100
AcDbEntity
8
1
62
256
6
ByLayer
370
-1
48
1
60
0
100
AcDbEllipse
10
29.790081
20
-2.755314
30
0
11
0.870688467839416
21
-0.0990115244375374
31
0
210
0
220
0
230
1
40
0.984973
41
-2.19577229463804
42
-1.22480548038583
0
ELLIPSE
5
C9
100
AcDbEntity
8
1
62
256
6
ByLayer
370
-1
48
1
60
0
100
AcDbEllipse
10
29.808619
20
-2.592291
30
0
11
0.673857033993715
21
-0.076628569980073
31
0
210
0
220
0
230
1
40
0.984973
41
-0.653388385011237
42
0.0427878446235571
0
ELLIPSE
5
CA
100
AcDbEntity
8
1
62
256
6
ByLayer
370
-1
48
1
60
0
100
AcDbEllipse
10
29.792313
20
-2.735687
30
0
11
0.673857033993715
21
-0.076628569980073
31
0
210
0
220
0
230
1
40
0.984973
41
0.350380473644918
42
0.393809166191441
0
ELLIPSE
5
CB
100
AcDbEntity
8
1
62
256
6
ByLayer
370
-1
48
1
60
0
100
AcDbEllipse
10
29.808619
20
-2.592291
30
0
11
0.673857033993715
21
-0.076628569980073
31
0
210
0
220
0
230
1
40
0.984973
41
-1.74401462874944
42
-1.70058593620097
0
POINT
5
41
100
AcDbEntity
8
80
62
256
6
ByLayer
370
-1
48
1
60
0
100
AcDbPoint
10
0
20
0
30
0
39
0
210
0
220
0
230
1
50
360
0
POINT
5
43
100
AcDbEntity
8
81
62
256
6
ByLayer
370
-1
48
1
60
0
100
AcDbPoint
10
31.95
20
-4.9
30
0
39
0
210
0
220
0
230
1
50
360
0
POINT
5
45
100
AcDbEntity
8
1
62
256
6
ByLayer
370
-1
48
1
60
0
100
AcDbPoint
10
-69.15
20
0
30
0
39
0
210
0
220
0
230
1
50
360
0
POINT
5
47
100
AcDbEntity
8
2
62
256
6
ByLayer
370
-1
48
1
60
0
100
AcDbPoint
10
31.95
20
4.9
30
0
39
0
210
0
220
0
230
1
50
360
0
SPLINE
5
CC
100
AcDbEntity
8
1
62
256
6
ByLayer
370
-1
48
1
60
0
100
AcDbSpline
70
4
71
3
72
8
73
4
40
0
40
0
40
0
40
0
40
1
40
1
40
1
40
1
41
1
10
25.9532519135451
20
-3.91829072530445
30
0
41
1
10
26.0229492179429
20
-3.92407895892424
30
0
41
1
10
26.0925445234569
20
-3.92986783129811
30
0
41
1
10
26.1620391235697
20
-3.93566155322844
30
0
0
SPLINE
5
CD
100
AcDbEntity
8
1
62
256
6
ByLayer
370
-1
48
1
60
0
100
AcDbSpline
70
4
71
3
72
8
73
4
40
0
40
0
40
0
40
0
40
1
40
1
40
1
40
1
41
1
10
24.8488604229569
20
3.13757744047126
30
0
41
1
10
24.8738263027197
20
3.1233696618975
30
0
41
1
10
24.8988273597677
20
3.10893954700867
30
0
41
1
10
24.923860422957
20
3.09429319743472
30
0
0
SPLINE
5
CE
100
AcDbEntity
8
1
62
256
6
ByLayer
370
-1
48
1
60
0
100
AcDbSpline
70
2053
71
3
72
49
73
45
40
-0.063627933757
40
0
40
0
40
0
40
0.105300070706884
40
0.105300070706884
40
0.155597094037836
40
0.155597094037836
40
0.197942738936628
40
0.197942738936628
40
0.227615663291923
40
0.227615663291923
40
0.252665545879768
40
0.252665545879768
40
0.277836774045578
40
0.277836774045578
40
0.301278193318677
40
0.301278193318677
40
0.332778647411631
40
0.332778647411631
40
0.377756396725807
40
0.377756396725807
40
0.449993273250392
40
0.449993273250392
40
0.571471683765905
40
0.571471683765905
40
0.701113694635591
40
0.701113694635591
40
0.701113694635591
40
0.72097947574207
40
0.72097947574207
40
0.741083897519256
40
0.741083897519256
40
0.752471559331985
40
0.752471559331985
40
0.763996229201918
40
0.763996229201918
40
0.774279985831474
40
0.774279985831474
40
0.791725992302173
40
0.791725992302173
40
0.827704346855441
40
0.827704346855441
40
0.936372066243
40
0.936372066243
40
1
40
1
40
1
40
1.10530007070688
41
1
10
23.576305775351
20
-1.16727275992495
30
0
41
1
10
23.3306182953922
20
-1.07898213252713
30
0
41
1
10
23.0714922715525
20
-1.0285724667007
30
0
41
1
10
22.6874983691125
20
-1.05137593186984
30
0
41
1
10
22.5606007224891
20
-1.07452956000731
30
0
41
1
10
22.3333154981073
20
-1.15533800967944
30
0
41
1
10
22.2296918603146
20
-1.20796525681342
30
0
41
1
10
22.0679588036667
20
-1.32725355671551
30
0
41
1
10
22.0041317223266
20
-1.38629491772505
30
0
41
1
10
21.9027173930598
20
-1.50905962081796
30
0
41
1
10
21.8616248597343
20
-1.57201640843459
30
0
41
1
10
21.7986578540004
20
-1.70259717499638
30
0
41
1
10
21.7761113256034
20
-1.77203399228006
30
0
41
1
10
21.7540277615986
20
-1.90166875487191
30
0
41
1
10
21.7526678701549
20
-1.96374225963609
30
0
41
1
10
21.7688894381857
20
-2.09870199294269
30
0
41
1
10
21.793133585603
20
-2.17028609818121
30
0
41
1
10
21.8757325296719
20
-2.3228030678662
30
0
41
1
10
21.9451958663655
20
-2.39802920231591
30
0
41
1
10
22.152213713398
20
-2.55997193066733
30
0
41
1
10
22.3091374444748
20
-2.63067177143407
30
0
41
1
10
22.7560453955061
20
-2.76943067478945
30
0
41
1
10
23.0737608142783
20
-2.80805935941922
30
0
41
1
10
23.7451362098314
20
-2.82348768299335
30
0
41
1
10
24.1165841108781
20
-2.80788187621155
30
0
41
1
10
24.4689448568309
20
-2.69953773971278
30
0
41
1
10
24.5241494065646
20
-2.68256340491416
30
0
41
1
10
24.5789592476641
20
-2.66258487258901
30
0
41
1
10
24.6845558292085
20
-2.61255381913162
30
0
41
1
10
24.736437229061
20
-2.58195630410518
30
0
41
1
10
24.80539746346
20
-2.52045832650856
30
0
41
1
10
24.8281014823039
20
-2.49483743319561
30
0
41
1
10
24.8633960238991
20
-2.43810141577481
30
0
41
1
10
24.8761133445086
20
-2.40611924741936
30
0
41
1
10
24.8880474165244
20
-2.34484881090572
30
0
41
1
10
24.8888401868137
20
-2.31500963247456
30
0
41
1
10
24.8810449189724
20
-2.23745129147835
30
0
41
1
10
24.8659621797091
20
-2.19023353931135
30
0
41
1
10
24.8062674387146
20
-2.05599427633791
30
0
41
1
10
24.7471685537133
20
-1.97544605554725
30
0
41
1
10
24.4940050914876
20
-1.68158292344623
30
0
41
1
10
24.2570923459272
20
-1.50932443995313
30
0
41
1
10
23.8736158137587
20
-1.29017524225486
30
0
41
1
10
23.7263883719431
20
-1.22120667066727
30
0
41
1
10
23.576305775351
20
-1.16727275992495
30
0
0
SPLINE
5
CF
100
AcDbEntity
8
1
62
256
6
ByLayer
370
-1
48
1
60
0
100
AcDbSpline
70
4
71
3
72
8
73
4
40
0
40
0
40
0
40
0
40
1
40
1
40
1
40
1
41
1
10
25.9532519135452
20
-3.91829072530422
30
0
41
1
10
25.8266156956178
20
-3.91834956282588
30
0
41
1
10
25.700030076078
20
-3.91844351044017
30
0
41
1
10
25.5736466122089
20
-3.91853619220902
30
0
0
SPLINE
5
D0
100
AcDbEntity
8
1
62
256
6
ByLayer
370
-1
48
1
60
0
100
AcDbSpline
70
4
71
3
72
8
73
4
40
0
40
0
40
0
40
0
40
1
40
1
40
1
40
1
41
1
10
24.9238604229568
20
3.0942931974343
30
0
41
1
10
25.2559435509891
20
3.2098096529769
30
0
41
1
10
25.5991787723806
20
3.30342160139679
30
0
41
1
10
25.9502001303174
20
3.37937337356763
30
0
0
SPLINE
5
D1
100
AcDbEntity
8
1
62
256
6
ByLayer
370
-1
48
1
60
0
100
AcDbSpline
70
4
71
3
72
8
73
4
40
0
40
0
40
0
40
0
40
1
40
1
40
1
40
1
41
1
10
20.3746210274162
20
-1.92354855995381
30
0
41
1
10
20.2432415728714
20
-2.61273526040063
30
0
41
1
10
20.4084969061023
20
-3.19802010466225
30
0
41
1
10
20.8874263239865
20
-3.50625000000019
30
0
0
SPLINE
5
D2
100
AcDbEntity
8
1
62
256
6
ByLayer
370
-1
48
1
60
0
100
AcDbSpline
70
4
71
3
72
8
73
4
40
0
40
0
40
0
40
0
40
1
40
1
40
1
40
1
41
1
10
26.1424617287467
20
-3.93049097630725
30
0
41
1
10
26.2768898105783
20
-3.94179174074816
30
0
41
1
10
26.4113179381624
20
-3.95309195500767
30
0
41
1
10
26.5457461103499
20
-3.96439163282383
30
0
0
SPLINE
5
D3
100
AcDbEntity
8
1
62
256
6
ByLayer
370
-1
48
1
60
0
100
AcDbSpline
70
4
71
3
72
8
73
4
40
0
40
0
40
0
40
0
40
1
40
1
40
1
40
1
41
1
10
24.8488604229568
20
3.13757744047106
30
0
41
1
10
24.0810003596653
20
2.86081781704868
30
0
41
1
10
23.3907321026362
20
2.47158141371506
30
0
41
1
10
22.7556751083207
20
1.92354855995336
30
0
0
SPLINE
5
D4
100
AcDbEntity
8
1
62
256
6
ByLayer
370
-1
48
1
60
0
100
AcDbSpline
70
4
71
3
72
8
73
4
40
0
40
0
40
0
40
0
40
1
40
1
40
1
40
1
41
1
10
27.2403945657404
20
-3.73487202638714
30
0
41
1
10
27.0987670059872
20
-3.72186781504649
30
0
41
1
10
26.9571404199868
20
-3.70885294662179
30
0
41
1
10
26.8155148337616
20
-3.69582715602661
30
0
0
SPLINE
5
D5
100
AcDbEntity
8
SK1
62
256
6
ByLayer
370
-1
48
1
60
0
100
AcDbSpline
70
4
71
3
72
10
73
6
40
0
40
0
40
0
40
0
40
0.5
40
0.5
40
1
40
1
40
1
40
1
41
1
10
-68.15
20
-1.92354855995373
30
0
41
1
10
-68.437631333488
20
-1.32635665015053
30
0
41
1
10
-68.6436248977436
20
-0.674468224990051
30
0
41
1
10
-68.6438749817267
20
0.673169219891804
30
0
41
1
10
-68.4357146053759
20
1.33033623925965
30
0
41
1
10
-68.1500000000004
20
1.92354855995399
30
0
0
SPLINE
5
D6
100
AcDbEntity
8
SK1
62
256
6
ByLayer
370
-1
48
1
60
0
100
AcDbSpline
70
4
71
3
72
8
73
4
40
0
40
0
40
0
40
0
40
1
40
1
40
1
40
1
41
1
10
-68.6374954309009
20
-3.50624999999999
30
0
41
1
10
-68.6385658080485
20
-3.50624999999999
30
0
41
1
10
-68.4389840208913
20
-3.50624999999999
30
0
41
1
10
-68.1500000000002
20
-3.50624999999999
30
0
0
SPLINE
5
D7
100
AcDbEntity
8
1
62
256
6
ByLayer
370
-1
48
1
60
0
100
AcDbSpline
70
4
71
3
72
24
73
20
40
0
40
0
40
0
40
0
40
0.180060726896876
40
0.180060726896876
40
0.360392134580504
40
0.360392134580504
40
0.477886119516794
40
0.477886119516794
40
0.568321289660053
40
0.568321289660053
40
0.653516782572458
40
0.653516782572458
40
0.783962798270649
40
0.783962798270649
40
0.87520618790491
40
0.87520618790491
40
0.966503983677068
40
0.966503983677068
40
1
40
1
40
1
40
1
41
1
10
30.4405963545577
20
-2.17920326927728
30
0
41
1
10
30.4495687566346
20
-2.18945407980391
30
0
41
1
10
30.4580386043162
20
-2.20012806803291
30
0
41
1
10
30.473623632489
20
-2.22223846690307
30
0
41
1
10
30.4807783378694
20
-2.23372674295385
30
0
41
1
10
30.4909721996036
20
-2.25327241174324
30
0
41
1
10
30.4945906808252
20
-2.26116359697013
30
0
41
1
10
30.4999622748982
20
-2.27532349265499
30
0
41
1
10
30.5019610299635
20
-2.2815716073217
30
0
41
1
10
30.5049321799376
20
-2.29373368912906
30
0
41
1
10
30.5059648374409
20
-2.29968000037789
30
0
41
1
10
30.5071412418938
20
-2.31442804298905
30
0
41
1
10
30.506522850876
20
-2.32335179472671
30
0
41
1
10
30.5022370103798
20
-2.33677480466506
30
0
41
1
10
30.4994702691602
20
-2.34190775952936
30
0
41
1
10
30.4922041589558
20
-2.35036009993033
30
0
41
1
10
30.4876212500183
20
-2.35377895425327
30
0
41
1
10
30.4806718433148
20
-2.35714014665584
30
0
41
1
10
30.4787139070228
20
-2.35792839386943
30
0
41
1
10
30.4767022236202
20
-2.35859958579272
30
0
0
SPLINE
5
D8
100
AcDbEntity
8
1
62
256
6
ByLayer
370
-1
48
1
60
0
100
AcDbSpline
70
4
71
3
72
24
73
20
40
0
40
0
40
0
40
0
40
0.0839912160050902
40
0.0839912160050902
40
0.160732477848638
40
0.160732477848638
40
0.252672486490532
40
0.252672486490532
40
0.393602915265804
40
0.393602915265804
40
0.520047656829101
40
0.520047656829101
40
0.646089884360441
40
0.646089884360441
40
0.771982216541844
40
0.771982216541844
40
0.885621185954259
40
0.885621185954259
40
1
40
1
40
1
40
1
41
1
10
30.1798637952861
20
-2.08245372031149
30
0
41
1
10
30.1823982268283
20
-2.07681468262908
30
0
41
1
10
30.1862499530338
20
-2.07164327872746
30
0
41
1
10
30.195808905641
20
-2.06386168464056
30
0
41
1
10
30.2014452724909
20
-2.06097752906459
30
0
41
1
10
30.2148908841936
20
-2.05683262736955
30
0
41
1
10
30.2230861454129
20
-2.05590523845353
30
0
41
1
10
30.2439649227804
20
-2.05612672866283
30
0
41
1
10
30.2571035339754
20
-2.05854252029232
30
0
41
1
10
30.2812454754726
20
-2.06543822535522
30
0
41
1
10
30.2925461497649
20
-2.0697498622317
30
0
41
1
10
30.3144753279001
20
-2.07967440326331
30
0
41
1
10
30.3251744681832
20
-2.08531946960318
30
0
41
1
10
30.3459338746719
20
-2.09758216094346
30
0
41
1
10
30.3560299784709
20
-2.10422192305859
30
0
41
1
10
30.3746414302207
20
-2.11761396681851
30
0
41
1
10
30.3832331749468
20
-2.12430695406513
30
0
41
1
10
30.399937473023
20
-2.13831086867412
30
0
41
1
10
30.4080604415337
20
-2.14563738485921
30
0
41
1
10
30.4158907214431
20
-2.15322966061848
30
0
0
SPLINE
5
D9
100
AcDbEntity
8
1
62
256
6
ByLayer
370
-1
48
1
60
0
100
AcDbSpline
70
4
71
3
72
20
73
16
40
0
40
0
40
0
40
0
40
0.099189385448127
40
0.099189385448127
40
0.186426707645539
40
0.186426707645539
40
0.299653810979525
40
0.299653810979525
40
0.478717130151269
40
0.478717130151269
40
0.641408974919685
40
0.641408974919685
40
0.819236078777289
40
0.819236078777289
40
1
40
1
40
1
40
1
41
1
10
29.790062672324
20
-3.52550371366749
30
0
41
1
10
29.789836516066
20
-3.53312318781963
30
0
41
1
10
29.791108829108
20
-3.54092553744562
30
0
41
1
10
29.7964189526081
20
-3.55435300135076
30
0
41
1
10
29.8001593136043
20
-3.56028730861104
30
0
41
1
10
29.8105765515959
20
-3.57216480258643
30
0
41
1
10
29.8179144202223
20
-3.57780527262651
30
0
41
1
10
29.8381583652105
20
-3.58952691055626
30
0
41
1
10
29.8521629117294
20
-3.59431832117815
30
0
41
1
10
29.8792351459969
20
-3.60042253304781
30
0
41
1
10
29.892523469427
20
-3.60205119831937
30
0
41
1
10
29.9203481264943
20
-3.60351919909499
30
0
41
1
10
29.9349894492843
20
-3.60317681244254
30
0
41
1
10
29.9643098872198
20
-3.60073613566669
30
0
41
1
10
29.979050736909
20
-3.59859915547114
30
0
41
1
10
29.9936121398346
20
-3.59567465004949
30
0
0
SPLINE
5
DA
100
AcDbEntity
8
1
62
256
6
ByLayer
370
-1
48
1
60
0
100
AcDbSpline
70
4
71
3
72
20
73
16
40
0
40
0
40
0
40
0
40
0.203629751425602
40
0.203629751425602
40
0.404777253038208
40
0.404777253038208
40
0.570635240086457
40
0.570635240086457
40
0.699422801926887
40
0.699422801926887
40
0.797982559557575
40
0.797982559557575
40
0.955513848179791
40
0.955513848179791
40
1
40
1
40
1
40
1
41
1
10
29.6018236447527
20
-3.37627851101928
30
0
41
1
10
29.5864304500568
20
-3.37278706393795
30
0
41
1
10
29.5708008657374
20
-3.37027196606053
30
0
41
1
10
29.5398002982554
20
-3.36743445923017
30
0
41
1
10
29.5243260255031
20
-3.36707289905775
30
0
41
1
10
29.496528695566
20
-3.36867412219496
30
0
41
1
10
29.4840475324666
20
-3.37024420225529
30
0
41
1
10
29.4625111816239
20
-3.3748815266049
30
0
41
1
10
29.4532569376686
20
-3.37754916203224
30
0
41
1
10
29.4376242110159
20
-3.38364823946398
30
0
41
1
10
29.4310417855264
20
-3.38677091496103
30
0
41
1
10
29.4150730003157
20
-3.39627935691482
30
0
41
1
10
29.4060174944992
20
-3.40370684095566
30
0
41
1
10
29.3973901306682
20
-3.41540528926024
30
0
41
1
10
29.3956475715575
20
-3.41816784674845
30
0
41
1
10
29.3941411456938
20
-3.42105377981866
30
0
0
SPLINE
5
DB
100
AcDbEntity
8
1
62
256
6
ByLayer
370
-1
48
1
60
0
100
AcDbSpline
70
4
71
3
72
24
73
20
40
0
40
0
40
0
40
0
40
0.0590430114905537
40
0.0590430114905537
40
0.212057017838607
40
0.212057017838607
40
0.365170560964563
40
0.365170560964563
40
0.494499459573282
40
0.494499459573282
40
0.591749877473462
40
0.591749877473462
40
0.74812976386947
40
0.74812976386947
40
0.841717795908711
40
0.841717795908711
40
0.936697737018333
40
0.936697737018333
40
1
40
1
40
1
40
1
41
1
10
30.6360770458683
20
-2.98262541168558
30
0
41
1
10
30.6374475619392
20
-2.97761513262114
30
0
41
1
10
30.6387254705096
20
-2.97257395357278
30
0
41
1
10
30.6429736586212
20
-2.95438340122115
30
0
41
1
10
30.6454125763358
20
-2.94106397657265
30
0
41
1
10
30.6488945005865
20
-2.91421378636036
30
0
41
1
10
30.6499445735793
20
-2.90063858598089
30
0
41
1
10
30.6503317263277
20
-2.87555377238746
30
0
41
1
10
30.6499107760273
20
-2.86400773231071
30
0
41
1
10
30.6478388189378
20
-2.84391648807053
30
0
41
1
10
30.6465142936423
20
-2.83530520478141
30
0
41
1
10
30.6416607669376
20
-2.81330632884786
30
0
41
1
10
30.6372323603612
20
-2.79984318555239
30
0
41
1
10
30.6268350018655
20
-2.78056151560443
30
0
41
1
10
30.6220870722132
20
-2.77372585009806
30
0
41
1
10
30.6109702776059
20
-2.76223950014233
30
0
41
1
10
30.6043865386785
20
-2.75749829253095
30
0
41
1
10
30.5928182479722
20
-2.75247869513507
30
0
41
1
10
30.5879313654215
20
-2.75118557862908
30
0
41
1
10
30.5830835625348
20
-2.75061392987337
30
0
0
SPLINE
5
DC
100
AcDbEntity
8
1
62
256
6
ByLayer
370
-1
48
1
60
0
100
AcDbSpline
70
4
71
3
72
18
73
14
40
0
40
0
40
0
40
0
40
0.218603592583878
40
0.218603592583878
40
0.434542404001617
40
0.434542404001617
40
0.612596698983206
40
0.612596698983206
40
0.750854608258068
40
0.750854608258068
40
0.856661922519829
40
0.856661922519829
40
1
40
1
40
1
40
1
41
1
10
29.1410754552203
20
-2.91960381258855
30
0
41
1
10
29.1446072223235
20
-2.93487001104739
30
0
41
1
10
29.1472749177884
20
-2.95049042605442
30
0
41
1
10
29.1506329372302
20
-2.98170774066128
30
0
41
1
10
29.1513612579418
20
-2.9974055262488
30
0
41
1
10
29.1506161268749
20
-3.0258197788057
30
0
41
1
10
29.1495049940294
20
-3.03865936627878
30
0
41
1
10
29.1458033030082
20
-3.0609736735889
30
0
41
1
10
29.1435879772646
20
-3.07061799590204
30
0
41
1
10
29.1383574594746
20
-3.08702731589835
30
0
41
1
10
29.13563685141
20
-3.09397766635505
30
0
41
1
10
29.1279862282234
20
-3.10942687558327
30
0
41
1
10
29.1225207039546
20
-3.11779171583115
30
0
41
1
10
29.115862223002
20
-3.12468941847905
30
0
0
SPLINE
5
DD
100
AcDbEntity
8
1
62
256
6
ByLayer
370
-1
48
1
60
0
100
AcDbSpline
70
4
71
3
72
24
73
20
40
0
40
0
40
0
40
0
40
0.0913414529336291
40
0.0913414529336291
40
0.170816704287309
40
0.170816704287309
40
0.277931819528452
40
0.277931819528452
40
0.362280042351413
40
0.362280042351413
40
0.446368406878908
40
0.446368406878908
40
0.599960022787232
40
0.599960022787232
40
0.753100329769271
40
0.753100329769271
40
0.90608406411852
40
0.90608406411852
40
1
40
1
40
1
40
1
41
1
10
30.4764766811725
20
-3.14034294939219
30
0
41
1
10
30.4824900421692
20
-3.14442713041095
30
0
41
1
10
30.489376098159
20
-3.1472826908867
30
0
41
1
10
30.5026196974615
20
-3.1494918717467
30
0
41
1
10
30.5090807827245
20
-3.14929105134962
30
0
41
1
10
30.5237027713578
20
-3.14640677747744
30
0
41
1
10
30.5319144537363
20
-3.14289860868192
30
0
41
1
10
30.5454725911462
20
-3.13478890232602
30
0
41
1
10
30.5511682697726
20
-3.13052155903756
30
0
41
1
10
30.5618768207855
20
-3.12117538516679
30
0
41
1
10
30.5669259939771
20
-3.11606902853114
30
0
41
1
10
30.5803626597372
20
-3.10087208757616
30
0
41
1
10
30.5881477663547
20
-3.09007850765917
30
0
41
1
10
30.6021468439391
20
-3.06754680063682
30
0
41
1
10
30.6084034802949
20
-3.05573556979323
30
0
41
1
10
30.6195796277667
20
-3.03148631987912
30
0
41
1
10
30.624518275715
20
-3.01900343731458
30
0
41
1
10
30.6314808009319
20
-2.99849430235818
30
0
41
1
10
30.6338968127494
20
-2.99059582267455
30
0
41
1
10
30.6360770458683
20
-2.98262541168558
30
0
0
SPLINE
5
DE
100
AcDbEntity
8
1
62
256
6
ByLayer
370
-1
48
1
60
0
100
AcDbSpline
70
4
71
3
72
20
73
16
40
0
40
0
40
0
40
0
40
0.104372335876922
40
0.104372335876922
40
0.26530658087136
40
0.26530658087136
40
0.395097261561979
40
0.395097261561979
40
0.524553399154241
40
0.524553399154241
40
0.653865775616901
40
0.653865775616901
40
0.825329410189117
40
0.825329410189117
40
1
40
1
40
1
40
1
41
1
10
28.9989730201981
20
-2.7433513511433
30
0
41
1
10
29.0060482335455
20
-2.74258965095913
30
0
41
1
10
29.0131925557453
20
-2.74326068548697
30
0
41
1
10
29.0303552312851
20
-2.74754765633452
30
0
41
1
10
29.0401862226774
20
-2.75254751495336
30
0
41
1
10
29.0563802595752
20
-2.76378149795923
30
0
41
1
10
29.0631746876959
20
-2.76968717926536
30
0
41
1
10
29.0758360110344
20
-2.78257695986522
30
0
41
1
10
29.0817448766566
20
-2.78960267015938
30
0
41
1
10
29.0927614355463
20
-2.80444327301581
30
0
41
1
10
29.0978918456654
20
-2.81228938633674
30
0
41
1
10
29.1089714853446
20
-2.83124046132781
30
0
41
1
10
29.1146747104739
20
-2.84262646276633
30
0
41
1
10
29.1249590539783
20
-2.86638269872336
30
0
41
1
10
29.1295406908445
20
-2.87882470714928
30
0
41
1
10
29.1334898992714
20
-2.89154369959445
30
0
0
SPLINE
5
DF
100
AcDbEntity
8
1
62
256
6
ByLayer
370
-1
48
1
60
0
100
AcDbSpline
70
4
71
3
72
20
73
16
40
0
40
0
40
0
40
0
40
0.203629751877907
40
0.203629751877907
40
0.404777253938474
40
0.404777253938474
40
0.570635241354743
40
0.570635241354743
40
0.699422803480617
40
0.699422803480617
40
0.797982561329798
40
0.797982561329798
40
0.955513850301632
40
0.955513850301632
40
1
40
1
40
1
40
1
41
1
10
29.3031319925295
20
-2.27137314066746
30
0
41
1
10
29.2915629389237
20
-2.28202776695625
30
0
41
1
10
29.2793648774953
20
-2.29220638864675
30
0
41
1
10
29.2542196013115
20
-2.31102848546485
30
0
41
1
10
29.2412017994132
20
-2.31975378064416
30
0
41
1
10
29.2168054639959
20
-2.3339357943097
30
0
41
1
10
29.2054687638778
20
-2.33973941516277
30
0
41
1
10
29.1850267463906
20
-2.34842484327413
30
0
41
1
10
29.1759345091884
20
-2.35169176606064
30
0
41
1
10
29.1598404083425
20
-2.35608415092028
30
0
41
1
10
29.15280777395
20
-2.35754143593436
30
0
41
1
10
29.1348495223099
20
-2.35969054217836
30
0
41
1
10
29.1237208089671
20
-2.3594489195907
30
0
41
1
10
29.1109635774862
20
-2.35587036548836
30
0
41
1
10
29.1082005512641
20
-2.35485806113346
30
0
41
1
10
29.1055799024241
20
-2.35362231539196
30
0
0
SPLINE
5
E0
100
AcDbEntity
8
1
62
256
6
ByLayer
370
-1
48
1
60
0
100
AcDbSpline
70
4
71
3
72
18
73
14
40
0
40
0
40
0
40
0
40
0.151847511688241
40
0.151847511688241
40
0.271615557743236
40
0.271615557743236
40
0.391060866503642
40
0.391060866503642
40
0.5802342644826
40
0.5802342644826
40
0.787569916202835
40
0.787569916202835
40
1
40
1
40
1
40
1
41
1
10
30.179863795286
20
-2.08245372031146
30
0
41
1
10
30.1734485174461
20
-2.08834037395795
30
0
41
1
10
30.165338376372
20
-2.09293535231348
30
0
41
1
10
30.1496995244518
20
-2.09923038591168
30
0
41
1
10
30.1422853435785
20
-2.10138782058627
30
0
41
1
10
30.1270104278673
20
-2.10470453853998
30
0
41
1
10
30.1191006546864
20
-2.10587607684144
30
0
41
1
10
30.0983390327349
20
-2.10789178023586
30
0
41
1
10
30.0851961303965
20
-2.10816305688709
30
0
41
1
10
30.0574295835746
20
-2.10720204076151
30
0
41
1
10
30.0426752172619
20
-2.10581582571064
30
0
41
1
10
30.012878972243
20
-2.10157056988572
30
0
41
1
10
29.9977446953603
20
-2.09866060890383
30
0
41
1
10
29.9828018423149
20
-2.09509630094271
30
0
0
SPLINE
5
E1
100
AcDbEntity
8
1
62
256
6
ByLayer
370
-1
48
1
60
0
100
AcDbSpline
70
4
71
3
72
20
73
16
40
0
40
0
40
0
40
0
40
0.104372335946962
40
0.104372335946962
40
0.265306581049417
40
0.265306581049417
40
0.395097261827108
40
0.395097261827108
40
0.524553399506255
40
0.524553399506255
40
0.653865776055688
40
0.653865776055688
40
0.825329410415766
40
0.825329410415766
40
1
40
1
40
1
40
1
41
1
10
30.4774598943103
20
-2.35989606942297
30
0
41
1
10
30.4714245794672
20
-2.36253467083688
30
0
41
1
10
30.4660582637585
20
-2.36645042147799
30
0
41
1
10
30.4545161675306
20
-2.37818216342066
30
0
41
1
10
30.4491876581922
20
-2.38711373812384
30
0
41
1
10
30.4419063541144
20
-2.40443620500122
30
0
41
1
10
30.4394463880535
20
-2.41274207422256
30
0
41
1
10
30.4357920046707
20
-2.42986344052457
30
0
41
1
10
30.4345849771502
20
-2.43873470444351
30
0
41
1
10
30.4331839999242
20
-2.45679587685174
30
0
41
1
10
30.4329875072967
20
-2.4660235573879
30
0
41
1
10
30.4335320290684
20
-2.48770698438085
30
0
41
1
10
30.43459970683
20
-2.50029524545087
30
0
41
1
10
30.4380674691994
20
-2.52581940644416
30
0
41
1
10
30.4405015225874
20
-2.53881840472223
30
0
41
1
10
30.4435500318667
20
-2.55177099937876
30
0
0
SPLINE
5
E2
100
AcDbEntity
8
1
62
256
6
ByLayer
370
-1
48
1
60
0
100
AcDbSpline
70
4
71
3
72
20
73
16
40
0
40
0
40
0
40
0
40
0.205427024256441
40
0.205427024256441
40
0.408349889917879
40
0.408349889917879
40
0.575671769406735
40
0.575671769406735
40
0.705596033443533
40
0.705596033443533
40
0.805025697231121
40
0.805025697231121
40
0.963947385355302
40
0.963947385355302
40
1
40
1
40
1
40
1
41
1
10
29.9543692808519
20
-2.08745673406338
30
0
41
1
10
29.9392584804159
20
-2.08293292171035
30
0
41
1
10
29.9243665800118
20
-2.07772102944119
30
0
41
1
10
29.8957799283295
20
-2.06605882892271
30
0
41
1
10
29.8819767353758
20
-2.05958820423612
30
0
41
1
10
29.8581939193721
20
-2.04651333313024
30
0
41
1
10
29.8478982608071
20
-2.04009373597165
30
0
41
1
10
29.8310152546064
20
-2.02771955515647
30
0
41
1
10
29.8240694296595
20
-2.02194816770734
30
0
41
1
10
29.8130732721285
20
-2.01109706722809
30
0
41
1
10
29.8086998004254
20
-2.00614434069962
30
0
41
1
10
29.7989899856007
20
-1.99277149720234
30
0
41
1
10
29.7944318158133
20
-1.98375780592113
30
0
41
1
10
29.7923466801719
20
-1.97240765626768
30
0
41
1
10
29.7921058920045
20
-1.97025777017322
30
0
41
1
10
29.7920339329286
20
-1.96810960298498
30
0
0
SPLINE
5
E3
100
AcDbEntity
8
1
62
256
6
ByLayer
370
-1
48
1
60
0
100
AcDbSpline
70
4
71
3
72
20
73
16
40
0
40
0
40
0
40
0
40
0.205427024238789
40
0.205427024238789
40
0.408349889859101
40
0.408349889859101
40
0.575671769343692
40
0.575671769343692
40
0.705596033383882
40
0.705596033383882
40
0.805025697173079
40
0.805025697173079
40
0.963947385292729
40
0.963947385292729
40
1
40
1
40
1
40
1
41
1
10
30.2606464891284
20
-3.22042221749294
30
0
41
1
10
30.2498444187659
20
-3.23183704610506
30
0
41
1
10
30.2396499079921
20
-3.24400150499466
30
0
41
1
10
30.2210608308679
20
-3.26932183729522
30
0
41
1
10
30.2125816842995
20
-3.28254566139648
30
0
41
1
10
30.1990887749652
20
-3.30753470358056
30
0
41
1
10
30.1936879085604
20
-3.31922167923798
30
0
41
1
10
30.1858843823562
20
-3.34043386129656
30
0
41
1
10
30.1830618147711
20
-3.34991502333506
30
0
41
1
10
30.1795606428716
20
-3.36678900262092
30
0
41
1
10
30.1785275303994
20
-3.37419276757387
30
0
41
1
10
30.1775686520662
20
-3.393190955074
30
0
41
1
10
30.1786547103768
20
-3.40505611291744
30
0
41
1
10
30.1831990758607
20
-3.41822948558126
30
0
41
1
10
30.1841938686711
20
-3.42065019945926
30
0
41
1
10
30.1853344450037
20
-3.42298738321225
30
0
0
SPLINE
5
E4
100
AcDbEntity
8
1
62
256
6
ByLayer
370
-1
48
1
60
0
100
AcDbSpline
70
4
71
3
72
20
73
16
40
0
40
0
40
0
40
0
40
0.203629751426408
40
0.203629751426408
40
0.404777253040965
40
0.404777253040965
40
0.570635240089387
40
0.570635240089387
40
0.699422801929728
40
0.699422801929728
40
0.79798255956024
40
0.79798255956024
40
0.955513848182726
40
0.955513848182726
40
1
40
1
40
1
40
1
41
1
10
30.4511355878612
20
-2.57983111251926
30
0
41
1
10
30.4557167324729
20
-2.59482514802889
30
0
41
1
10
30.4611256625151
20
-2.6097346058435
30
0
41
1
10
30.4734537968253
20
-2.63862546224235
30
0
41
1
10
30.4803918526695
20
-2.65271271223682
30
0
41
1
10
30.4945646616274
20
-2.67725789906518
30
0
41
1
10
30.501574867034
20
-2.68799116412049
30
0
41
1
10
30.5151650119449
20
-2.70582072020642
30
0
41
1
10
30.5215277748298
20
-2.71324025889169
30
0
41
1
10
30.5335267551128
20
-2.72518099539698
30
0
41
1
10
30.5390146227567
20
-2.73000242376426
30
0
41
1
10
30.5538570702578
20
-2.74096477517014
30
0
41
1
10
30.5638843358088
20
-2.74640756887581
30
0
41
1
10
30.5771132370567
20
-2.74981124882601
30
0
41
1
10
30.5801030503633
20
-2.75034467933782
30
0
41
1
10
30.5830835627658
20
-2.75061391388019
30
0
0
SPLINE
5
E5
100
AcDbEntity
8
1
62
256
6
ByLayer
370
-1
48
1
60
0
100
AcDbSpline
70
4
71
3
72
20
73
16
40
0
40
0
40
0
40
0
40
0.104357967980976
40
0.104357967980976
40
0.265270059350807
40
0.265270059350807
40
0.39504287352984
40
0.39504287352984
40
0.524481190662601
40
0.524481190662601
40
0.719471908096037
40
0.719471908096037
40
0.858908173747844
40
0.858908173747844
40
1
40
1
40
1
40
1
41
1
10
30.4764766809191
20
-3.14034294980789
30
0
41
1
10
30.4705520346091
20
-3.13608830730328
30
0
41
1
10
30.4638354371539
20
-3.13303504063541
30
0
41
1
10
30.4463379595012
20
-3.12800914818069
30
0
41
1
10
30.4350196236459
20
-3.12732637774499
30
0
41
1
10
30.4148554538052
20
-3.12879124613298
30
0
41
1
10
30.4057907402345
20
-3.1304357224235
30
0
41
1
10
30.3879476356091
20
-3.13512924474145
30
0
41
1
10
30.3791106383139
20
-3.13819287775311
30
0
41
1
10
30.3573803798228
20
-3.14723347449268
30
0
41
1
10
30.344593722129
20
-3.15393722726782
30
0
41
1
10
30.3233975937718
20
-3.16703036349344
30
0
41
1
10
30.3147375252062
20
-3.17299597573731
30
0
41
1
10
30.2978017753944
20
-3.18583151619774
30
0
41
1
10
30.2895066422037
20
-3.1927309167514
30
0
41
1
10
30.2814934945548
20
-3.20000167130158
30
0
0
SPLINE
5
E6
100
AcDbEntity
8
1
62
256
6
ByLayer
370
-1
48
1
60
0
100
AcDbSpline
70
4
71
3
72
22
73
18
40
0
40
0
40
0
40
0
40
0.185825981589165
40
0.185825981589165
40
0.371885832547814
40
0.371885832547814
40
0.495160530420683
40
0.495160530420683
40
0.589628856102779
40
0.589628856102779
40
0.74337617491776
40
0.74337617491776
40
0.840799327711221
40
0.840799327711221
40
0.939398787172491
40
0.939398787172491
40
1
40
1
40
1
40
1
41
1
10
30.0378043730445
20
-3.58421310410569
30
0
41
1
10
30.052356956802
20
-3.57956307997244
30
0
41
1
10
30.0666851224983
20
-3.5740906443661
30
0
41
1
10
30.0945243620221
20
-3.56141070014519
30
0
41
1
10
30.1081044843305
20
-3.55417544953093
30
0
41
1
10
30.1295459499948
20
-3.54043511176843
30
0
41
1
10
30.1378246358727
20
-3.53448186821697
30
0
41
1
10
30.1516200467462
20
-3.52301934311791
30
0
41
1
10
30.1573521780084
20
-3.51771147053151
30
0
41
1
10
30.1712554303327
20
-3.50289749148555
30
0
41
1
10
30.1789413003671
20
-3.49261742307431
30
0
41
1
10
30.1877770496824
20
-3.47433949441324
30
0
41
1
10
30.1903179998866
20
-3.46672445928741
30
0
41
1
10
30.192579921751
20
-3.45136223338847
30
0
41
1
10
30.1922543814916
20
-3.44340074005532
30
0
41
1
10
30.1892569675268
20
-3.43149494728127
30
0
41
1
10
30.1875241707601
20
-3.42708789567305
30
0
41
1
10
30.1853344450038
20
-3.42298738321216
30
0
0
SPLINE
5
E7
100
AcDbEntity
8
1
62
256
6
ByLayer
370
-1
48
1
60
0
100
AcDbSpline
70
4
71
3
72
24
73
20
40
0
40
0
40
0
40
0
40
0.0913414526206756
40
0.0913414526206756
40
0.170816704001654
40
0.170816704001654
40
0.277931819279591
40
0.277931819279591
40
0.362280042131497
40
0.362280042131497
40
0.446368406687852
40
0.446368406687852
40
0.599960022648956
40
0.599960022648956
40
0.753100329683627
40
0.753100329683627
40
0.906084064085456
40
0.906084064085456
40
1
40
1
40
1
40
1
41
1
10
28.9989730202053
20
-2.74335135065658
30
0
41
1
10
28.9919078262946
20
-2.7439214446656
30
0
41
1
10
28.9847191142725
20
-2.74299524486389
30
0
41
1
10
28.9725202891793
20
-2.73836828108116
30
0
41
1
10
28.9672026545539
20
-2.73500262734856
30
0
41
1
10
28.9563752508567
20
-2.72528033661385
30
0
41
1
10
28.9512327237885
20
-2.71818401497777
30
0
41
1
10
28.9438978292849
20
-2.70446054375557
30
0
41
1
10
28.9412456465179
20
-2.69795020714798
30
0
41
1
10
28.9369211963892
20
-2.68456480460071
30
0
41
1
10
28.9352321718899
20
-2.67764795642819
30
0
41
1
10
28.9315442969836
20
-2.65784980942797
30
0
41
1
10
28.9304055025528
20
-2.64465845965242
30
0
41
1
10
28.9299314533316
20
-2.618237957021
30
0
41
1
10
28.9305968472719
20
-2.60492441093845
30
0
41
1
10
28.9333771073685
20
-2.57841926356716
30
0
41
1
10
28.9354983653404
20
-2.56517937431587
30
0
41
1
10
28.9399607600061
20
-2.54399847735249
30
0
41
1
10
28.9419045041494
20
-2.53597310370299
30
0
41
1
10
28.9440847397107
20
-2.52800269337018
30
0
0
SPLINE
5
E8
100
AcDbEntity
8
1
62
256
6
ByLayer
370
-1
48
1
60
0
100
AcDbSpline
70
4
71
3
72
20
73
16
40
0
40
0
40
0
40
0
40
0.105174178854185
40
0.105174178854185
40
0.272737254752951
40
0.272737254752951
40
0.408187101728749
40
0.408187101728749
40
0.543293608800483
40
0.543293608800483
40
0.67825440915359
40
0.67825440915359
40
0.813147592453597
40
0.813147592453597
40
1
40
1
40
1
40
1
41
1
10
29.3967621602454
20
-2.07062593342687
30
0
41
1
10
29.4002097938769
20
-2.07598214086249
30
0
41
1
10
29.4024363749859
20
-2.08205778343231
30
0
41
1
10
29.405555702599
20
-2.09825025635763
30
0
41
1
10
29.4050340450243
20
-2.10891383819853
30
0
41
1
10
29.4014664445668
20
-2.12801623065388
30
0
41
1
10
29.3988853899386
20
-2.13664599634299
30
0
41
1
10
29.3923758525786
20
-2.15369608096839
30
0
41
1
10
29.3884264099116
20
-2.16217236191932
30
0
41
1
10
29.3794993678073
20
-2.17887805471619
30
0
41
1
10
29.3745024412203
20
-2.18714263910397
30
0
41
1
10
29.3636775308638
20
-2.20339184667202
30
0
41
1
10
29.3578317261616
20
-2.21140260403504
30
0
41
1
10
29.343066051021
20
-2.23011826971145
30
0
41
1
10
29.3337888598087
20
-2.24072676120971
30
0
41
1
10
29.3239789980211
20
-2.25095259441153
30
0
0
SPLINE
5
E9
100
AcDbEntity
8
1
62
256
6
ByLayer
370
-1
48
1
60
0
100
AcDbSpline
70
4
71
3
72
24
73
20
40
0
40
0
40
0
40
0
40
0.180060726877102
40
0.180060726877102
40
0.360392134566886
40
0.360392134566886
40
0.477886119506591
40
0.477886119506591
40
0.56832128965208
40
0.56832128965208
40
0.653516782566746
40
0.653516782566746
40
0.783962798267064
40
0.783962798267064
40
0.875206187900699
40
0.875206187900699
40
0.966503983672352
40
0.966503983672352
40
1
40
1
40
1
40
1
41
1
10
29.2015709108513
20
-3.39288244231096
30
0
41
1
10
29.2119559120101
20
-3.40174955075699
30
0
41
1
10
29.2228142036541
20
-3.41008395451107
30
0
41
1
10
29.2454206593165
20
-3.42531656055618
30
0
41
1
10
29.2572212849179
20
-3.43225395620374
30
0
41
1
10
29.2774365521403
20
-3.44198322357406
30
0
41
1
10
29.2856328689023
20
-3.44539022029582
30
0
41
1
10
29.3004297036242
20
-3.45031768388381
30
0
41
1
10
29.3069885025985
20
-3.45209903771988
30
0
41
1
10
29.3198360748211
20
-3.45458673548043
30
0
41
1
10
29.3261543926029
20
-3.45535551318636
30
0
41
1
10
29.3419569147293
20
-3.45577663903242
30
0
41
1
10
29.3516451208118
20
-3.45460463179398
30
0
41
1
10
29.3665680543297
20
-3.44921181427827
30
0
41
1
10
29.3723927591775
20
-3.4459290750089
30
0
41
1
10
29.3822775536266
20
-3.43758136026804
30
0
41
1
10
29.386453997773
20
-3.43242004825075
30
0
41
1
10
29.3908270899152
20
-3.42469036184553
30
0
41
1
10
29.391888479906
20
-3.42252104798175
30
0
41
1
10
29.3928298535653
20
-3.42029959240418
30
0
0
SPLINE
5
EA
100
AcDbEntity
8
1
62
256
6
ByLayer
370
-1
48
1
60
0
100
AcDbSpline
70
4
71
3
72
24
73
20
40
0
40
0
40
0
40
0
40
0.0590430114897168
40
0.0590430114897168
40
0.212057017837634
40
0.212057017837634
40
0.36517056096347
40
0.36517056096347
40
0.494499459572708
40
0.494499459572708
40
0.591749877473042
40
0.591749877473042
40
0.748129763869316
40
0.748129763869316
40
0.841717795908535
40
0.841717795908535
40
0.93669773701813
40
0.93669773701813
40
1
40
1
40
1
40
1
41
1
10
28.9440847397107
20
-2.52800269337018
30
0
41
1
10
28.9454552573168
20
-2.52299241471834
30
0
41
1
10
28.9469199984683
20
-2.51800143586041
30
0
41
1
10
28.9525134128613
20
-2.50017233339645
30
0
41
1
10
28.9571790735945
20
-2.48745121404778
30
0
41
1
10
28.9678002803785
20
-2.46251928316821
30
0
41
1
10
28.9737723435668
20
-2.45026657613227
30
0
41
1
10
28.9861203290216
20
-2.42839552790792
30
0
41
1
10
28.9923102017756
20
-2.41862575497865
30
0
41
1
10
29.004209208347
20
-2.40228837974473
30
0
41
1
10
29.0096767918163
20
-2.39550207340051
30
0
41
1
10
29.0248786875113
20
-2.37889190438668
30
0
41
1
10
29.0354069044094
20
-2.36944746779335
30
0
41
1
10
29.0538749559109
20
-2.35792166713063
30
0
41
1
10
29.0613096775062
20
-2.35435936758833
30
0
41
1
10
29.0764205518246
20
-2.34992015023403
30
0
41
1
10
29.0843217555731
20
-2.34907091304706
30
0
41
1
10
29.0965183767287
20
-2.35043672815684
30
0
41
1
10
29.1012492573642
20
-2.35172781586257
30
0
41
1
10
29.1055798940755
20
-2.35362232912468
30
0
0
SPLINE
5
EB
100
AcDbEntity
8
1
62
256
6
ByLayer
370
-1
48
1
60
0
100
AcDbSpline
70
4
71
3
72
22
73
18
40
0
40
0
40
0
40
0
40
0.18582598161104
40
0.18582598161104
40
0.371885832564634
40
0.371885832564634
40
0.49516053043352
40
0.49516053043352
40
0.589628856112753
40
0.589628856112753
40
0.743376174923494
40
0.743376174923494
40
0.840799327716037
40
0.840799327716037
40
0.939398787176282
40
0.939398787176282
40
1
40
1
40
1
40
1
41
1
10
29.5865495770215
20
-1.91495370624065
30
0
41
1
10
29.6015241929058
20
-1.91186484245605
30
0
41
1
10
29.6166988286596
20
-1.90952362697578
30
0
41
1
10
29.6471643713635
20
-1.90655877344295
30
0
41
1
10
29.6625292320751
20
-1.90592553876155
30
0
41
1
10
29.687889765838
20
-1.90668242366272
30
0
41
1
10
29.6979896069403
20
-1.90746590734534
30
0
41
1
10
29.7155475359674
20
-1.9099215031043
30
0
41
1
10
29.7231002619644
20
-1.91134828441633
30
0
41
1
10
29.7423299818161
20
-1.91623771031365
30
0
41
1
10
29.7539424421548
20
-1.92048269033503
30
0
41
1
10
29.7703059893428
20
-1.93005121883238
30
0
41
1
10
29.776111950395
20
-1.93451395017152
30
0
41
1
10
29.7852770811226
20
-1.9446877326929
30
0
41
1
10
29.7886944158183
20
-1.95057169706823
30
0
41
1
10
29.7915676234189
20
-1.96038221690975
30
0
41
1
10
29.792075791232
20
-1.96426483051505
30
0
41
1
10
29.7920339329286
20
-1.96810960298498
30
0
0
SPLINE
5
EC
100
AcDbEntity
8
1
62
256
6
ByLayer
370
-1
48
1
60
0
100
AcDbSpline
70
4
71
3
72
20
73
16
40
0
40
0
40
0
40
0
40
0.0991893854483046
40
0.0991893854483046
40
0.186426707646033
40
0.186426707646033
40
0.299653810980734
40
0.299653810980734
40
0.478717130153775
40
0.478717130153775
40
0.641408974923403
40
0.641408974923403
40
0.819236078808698
40
0.819236078808698
40
1
40
1
40
1
40
1
41
1
10
29.3967621602452
20
-2.07062593342704
30
0
41
1
10
29.3930573978136
20
-2.06537751986292
30
0
41
1
10
29.3905700543103
20
-2.05927233415363
30
0
41
1
10
29.3890019821733
20
-2.04725631732808
30
0
41
1
10
29.3895204501289
20
-2.0412723573825
30
0
41
1
10
29.3931100890843
20
-2.02789353506705
30
0
41
1
10
29.3968967454925
20
-2.02039753670556
30
0
41
1
10
29.4091251257205
20
-2.00246839436042
30
0
41
1
10
29.4191246837112
20
-1.99244474972338
30
0
41
1
10
29.4399399325479
20
-1.97540343089793
30
0
41
1
10
29.4507995145964
20
-1.96804781630809
30
0
41
1
10
29.4744615649995
20
-1.95411770861244
30
0
41
1
10
29.4874420945505
20
-1.94763179783496
30
0
41
1
10
29.514278372379
20
-1.9360018389753
30
0
41
1
10
29.5282065870393
20
-1.93085879950925
30
0
41
1
10
29.5423573438173
20
-1.92641525218252
30
0
0
SPLINE
5
ED
100
AcDbEntity
8
1
62
256
6
ByLayer
370
-1
48
1
60
0
100
AcDbSpline
70
4
71
3
72
24
73
20
40
0
40
0
40
0
40
0
40
0.0839912160046837
40
0.0839912160046837
40
0.160732477847745
40
0.160732477847745
40
0.252672486489503
40
0.252672486489503
40
0.393602915264781
40
0.393602915264781
40
0.520047656828243
40
0.520047656828243
40
0.646089884359676
40
0.646089884359676
40
0.771982216541283
40
0.771982216541283
40
0.885621185953493
40
0.885621185953493
40
1
40
1
40
1
40
1
41
1
10
29.1158622230019
20
-3.12468941847899
30
0
41
1
10
29.1093557928959
20
-3.12790629698833
30
0
41
1
10
29.1032855653019
20
-3.1324538772638
30
0
41
1
10
29.0938948611921
20
-3.14323429399823
30
0
41
1
10
29.0902712359552
20
-3.1494207023847
30
0
41
1
10
29.0846884974709
20
-3.16391489517869
30
0
41
1
10
29.0830746923584
20
-3.17259591226795
30
0
41
1
10
29.0818320261578
20
-3.19448631611647
30
0
41
1
10
29.083575512233
20
-3.20806412713998
30
0
41
1
10
29.089461058079
20
-3.2328427637355
30
0
41
1
10
29.0934003146143
20
-3.2443652286554
30
0
41
1
10
29.1027236392609
20
-3.26663775004172
30
0
41
1
10
29.1081383835966
20
-3.27745911145789
30
0
41
1
10
29.1200418696695
20
-3.29839656102973
30
0
41
1
10
29.1265523958626
20
-3.3085485519581
30
0
41
1
10
29.139774852584
20
-3.32721935013203
30
0
41
1
10
29.146420086177
20
-3.33581902947623
30
0
41
1
10
29.1603868779428
20
-3.35250445027404
30
0
41
1
10
29.1677244040166
20
-3.3606003413997
30
0
41
1
10
29.1753567811144
20
-3.36838647154838
30
0
0
SPLINE
5
EE
100
AcDbEntity
8
1
62
256
6
ByLayer
370
-1
48
1
60
0
100
AcDbSpline
70
4
71
3
72
20
73
16
40
0
40
0
40
0
40
0
40
0.105174178854057
40
0.105174178854057
40
0.272737254753438
40
0.272737254753438
40
0.408187101729719
40
0.408187101729719
40
0.543293608801901
40
0.543293608801901
40
0.678254409155555
40
0.678254409155555
40
0.813147592456103
40
0.813147592456103
40
1
40
1
40
1
40
1
41
1
10
29.7900626723243
20
-3.52550371366749
30
0
41
1
10
29.7900126625111
20
-3.51792161165656
30
0
41
1
10
29.7885365548009
20
-3.51030045108288
30
0
41
1
10
29.7822326225819
20
-3.4916348678247
30
0
41
1
10
29.7759127779666
20
-3.48085008325893
30
0
41
1
10
29.7623882858296
20
-3.46312043502346
30
0
41
1
10
29.7554672463272
20
-3.45569594355737
30
0
41
1
10
29.7406221303584
20
-3.44191146852455
30
0
41
1
10
29.7326496160404
20
-3.43550580202407
30
0
41
1
10
29.7159955772395
20
-3.42362817123919
30
0
41
1
10
29.7072785130016
20
-3.41813140662907
30
0
41
1
10
29.6893229590316
20
-3.40800329041264
30
0
41
1
10
29.6800552334538
20
-3.40335584750659
30
0
41
1
10
29.6575044321404
20
-3.39327315992071
30
0
41
1
10
29.6439862694504
20
-3.38819365971673
30
0
41
1
10
29.6302562062351
20
-3.3839180779031
30
0
0
LINE
5
49
100
AcDbEntity
8
80
62
256
6
ByLayer
370
-1
48
1
60
0
100
AcDbLine
10
0
20
0
30
0
11
-10
21
0
31
0
39
0
210
0
220
0
230
1
0
LINE
5
4A
100
AcDbEntity
8
81
62
256
6
ByLayer
370
-1
48
1
60
0
100
AcDbLine
10
31.95
20
-4.9
30
0
11
41.95
21
-4.9
31
0
39
0
210
0
220
0
230
1
0
LINE
5
4B
100
AcDbEntity
8
SK4
62
256
6
ByLayer
370
-1
48
0.05
60
0
100
AcDbLine
10
-74.15
20
0
30
0
11
36.468314
21
0
31
0
39
0
210
0
220
0
230
1
0
LINE
5
4D
100
AcDbEntity
8
4
62
256
6
ByLayer
370
-1
48
0.05
60
0
100
AcDbLine
10
0
20
0
30
0
11
36.468314
21
0
31
0
39
0
210
0
220
0
230
1
0
LINE
5
4F
100
AcDbEntity
8
SK1
62
256
6
ByLayer
370
-1
48
1
60
0
100
AcDbLine
10
-68.15
20
3.99375
30
0
11
-69.15
21
2.99375
31
0
39
0
210
0
220
0
230
1
0
LINE
5
51
100
AcDbEntity
8
SK1
62
256
6
ByLayer
370
-1
48
1
60
0
100
AcDbLine
10
-69.15
20
-2.99375
30
0
11
-68.6375
21
-3.50625
31
0
39
0
210
0
220
0
230
1
0
LINE
5
52
100
AcDbEntity
8
1
62
256
6
ByLayer
370
-1
48
1
60
0
100
AcDbLine
10
29.404228
20
-2.11177
30
0
11
29.417285
21
-1.996949
31
0
39
0
210
0
220
0
230
1
0
LINE
5
53
100
AcDbEntity
8
1
62
256
6
ByLayer
370
-1
48
1
60
0
100
AcDbLine
10
30.45134
20
-2.292959
30
0
11
30.434649
21
-2.43974
31
0
39
0
210
0
220
0
230
1
0
LINE
5
54
100
AcDbEntity
8
1
62
256
6
ByLayer
370
-1
48
1
60
0
100
AcDbLine
10
29.149204
20
-3.038432
30
0
11
29.165898
21
-2.891623
31
0
39
0
210
0
220
0
230
1
0
LINE
5
55
100
AcDbEntity
8
1
62
256
6
ByLayer
370
-1
48
1
60
0
100
AcDbLine
10
30.195919
20
-3.223108
30
0
11
30.178832
21
-3.373373
31
0
39
0
210
0
220
0
230
1
0
LINE
5
56
100
AcDbEntity
8
1
62
256
6
ByLayer
370
-1
48
1
60
0
100
AcDbLine
10
24.84886
20
3.99375
30
0
11
0
21
3.99375
31
0
39
0
210
0
220
0
230
1
0
LINE
5
57
100
AcDbEntity
8
1
62
256
6
ByLayer
370
-1
48
1
60
0
100
AcDbLine
10
24.92386
20
3.91875
30
0
11
24.84886
21
3.99375
31
0
39
0
210
0
220
0
230
1
0
LINE
5
58
100
AcDbEntity
8
1
62
256
6
ByLayer
370
-1
48
1
60
0
100
AcDbLine
10
24.983306
20
3.91875
30
0
11
24.92386
21
3.91875
31
0
39
0
210
0
220
0
230
1
0
LINE
5
59
100
AcDbEntity
8
SK1
62
256
6
ByLayer
370
-1
48
1
60
0
100
AcDbLine
10
0
20
3.99375
30
0
11
-68.15
21
3.99375
31
0
39
0
210
0
220
0
230
1
0
LINE
5
5A
100
AcDbEntity
8
1
62
256
6
ByLayer
370
-1
48
1
60
0
100
AcDbLine
10
28.510114
20
-2.505468
30
0
11
28.501175
21
-2.584077
31
0
39
0
210
0
220
0
230
1
0
LINE
5
5B
100
AcDbEntity
8
1
62
256
6
ByLayer
370
-1
48
1
60
0
100
AcDbLine
10
31.084525
20
-2.877847
30
0
11
31.093465
21
-2.799237
31
0
39
0
210
0
220
0
230
1
0
LINE
5
5C
100
AcDbEntity
8
1
62
256
6
ByLayer
370
-1
48
1
60
0
100
AcDbLine
10
28.916404
20
1.724692
30
0
11
29.69202
21
1.292018
31
0
39
0
210
0
220
0
230
1
0
LINE
5
5D
100
AcDbEntity
8
1
62
256
6
ByLayer
370
-1
48
1
60
0
100
AcDbLine
10
0
20
-1.923549
30
0
11
0
21
1.923549
31
0
39
0
210
0
220
0
230
1
0
LINE
5
5E
100
AcDbEntity
8
1
62
256
6
ByLayer
370
-1
48
1
60
0
100
AcDbLine
10
26.926768
20
-3.538474
30
0
11
26.677077
21
-3.891348
31
0
39
0
210
0
220
0
230
1
0
LINE
5
5F
100
AcDbEntity
8
1
62
256
6
ByLayer
370
-1
48
1
60
0
100
AcDbLine
10
20.887426
20
-3.50625
30
0
11
25.16136
21
-3.50625
31
0
39
0
210
0
220
0
230
1
0
LINE
5
60
100
AcDbEntity
8
1
62
256
6
ByLayer
370
-1
48
1
60
0
100
AcDbLine
10
28.303991
20
-1.006204
30
0
11
30.16835
21
0.280611
31
0
39
0
210
0
220
0
230
1
0
LINE
5
61
100
AcDbEntity
8
1
62
256
6
ByLayer
370
-1
48
1
60
0
100
AcDbLine
10
0
20
1.923549
30
0
11
22.755675
21
1.923549
31
0
39
0
210
0
220
0
230
1
0
LINE
5
62
100
AcDbEntity
8
1
62
256
6
ByLayer
370
-1
48
1
60
0
100
AcDbLine
10
0
20
-3.50625
30
0
11
20.887426
21
-3.50625
31
0
39
0
210
0
220
0
230
1
0
LINE
5
63
100
AcDbEntity
8
1
62
256
6
ByLayer
370
-1
48
1
60
0
100
AcDbLine
10
20.374621
20
-1.923549
30
0
11
0
21
-1.923549
31
0
39
0
210
0
220
0
230
1
0
LINE
5
64
100
AcDbEntity
8
1
62
256
6
ByLayer
370
-1
48
1
60
0
100
AcDbLine
10
26.393492
20
-3.606977
30
0
11
28.044472
21
-1.26305
31
0
39
0
210
0
220
0
230
1
0
LINE
5
65
100
AcDbEntity
8
1
62
256
6
ByLayer
370
-1
48
1
60
0
100
AcDbLine
10
30.309595
20
-0.019298
30
0
11
30.168352
21
0.280607
31
0
39
0
210
0
220
0
230
1
0
LINE
5
66
100
AcDbEntity
8
1
62
256
6
ByLayer
370
-1
48
1
60
0
100
AcDbLine
10
0
20
1.923549
30
0
11
0
21
3.99375
31
0
39
0
210
0
220
0
230
1
0
LINE
5
67
100
AcDbEntity
8
1
62
256
6
ByLayer
370
-1
48
1
60
0
100
AcDbLine
10
26.907827
20
-3.452682
30
0
11
26.545746
21
-3.964392
31
0
39
0
210
0
220
0
230
1
0
LINE
5
68
100
AcDbEntity
8
1
62
256
6
ByLayer
370
-1
48
1
60
0
100
AcDbLine
10
30.16835
20
0.280611
30
0
11
29.69202
21
1.292018
31
0
39
0
210
0
220
0
230
1
0
LINE
5
69
100
AcDbEntity
8
1
62
256
6
ByLayer
370
-1
48
1
60
0
100
AcDbLine
10
24.84886
20
3.137577
30
0
11
24.84886
21
3.99375
31
0
39
0
210
0
220
0
230
1
0
LINE
5
6A
100
AcDbEntity
8
1
62
256
6
ByLayer
370
-1
48
1
60
0
100
AcDbLine
10
25.9502
20
3.379373
30
0
11
28.916404
21
1.724692
31
0
39
0
210
0
220
0
230
1
0
LINE
5
6B
100
AcDbEntity
8
1
62
256
6
ByLayer
370
-1
48
1
60
0
100
AcDbLine
10
25.16136
20
-3.50625
30
0
11
25.573647
21
-3.918536
31
0
39
0
210
0
220
0
230
1
0
LINE
5
6C
100
AcDbEntity
8
1
62
256
6
ByLayer
370
-1
48
1
60
0
100
AcDbLine
10
0
20
-1.923549
30
0
11
0
21
-3.50625
31
0
39
0
210
0
220
0
230
1
0
LINE
5
6D
100
AcDbEntity
8
1
62
256
6
ByLayer
370
-1
48
1
60
0
100
AcDbLine
10
24.983306
20
3.91875
30
0
11
25.9502
21
3.379373
31
0
39
0
210
0
220
0
230
1
0
LINE
5
6E
100
AcDbEntity
8
1
62
256
6
ByLayer
370
-1
48
1
60
0
100
AcDbLine
10
24.92386
20
3.91875
30
0
11
24.92386
21
3.094293
31
0
39
0
210
0
220
0
230
1
0
LINE
5
6F
100
AcDbEntity
8
1
62
256
6
ByLayer
370
-1
48
1
60
0
100
AcDbLine
10
26.393492
20
-3.606977
30
0
11
28.916404
21
1.724692
31
0
39
0
210
0
220
0
230
1
0
LINE
5
70
100
AcDbEntity
8
SK1
62
256
6
ByLayer
370
-1
48
1
60
0
100
AcDbLine
10
-68.15
20
1.923549
30
0
11
0
21
1.923549
31
0
39
0
210
0
220
0
230
1
0
LINE
5
71
100
AcDbEntity
8
SK1
62
256
6
ByLayer
370
-1
48
1
60
0
100
AcDbLine
10
-68.15
20
-3.50625
30
0
11
0
21
-3.50625
31
0
39
0
210
0
220
0
230
1
0
LINE
5
72
100
AcDbEntity
8
SK1
62
256
6
ByLayer
370
-1
48
1
60
0
100
AcDbLine
10
0
20
3.99375
30
0
11
0
21
1.923549
31
0
39
0
210
0
220
0
230
1
0
LINE
5
73
100
AcDbEntity
8
SK1
62
256
6
ByLayer
370
-1
48
1
60
0
100
AcDbLine
10
0
20
-1.923549
30
0
11
-68.15
21
-1.923549
31
0
39
0
210
0
220
0
230
1
0
LINE
5
74
100
AcDbEntity
8
SK1
62
256
6
ByLayer
370
-1
48
1
60
0
100
AcDbLine
10
0
20
-1.923549
30
0
11
0
21
-3.50625
31
0
39
0
210
0
220
0
230
1
0
LINE
5
75
100
AcDbEntity
8
SK1
62
256
6
ByLayer
370
-1
48
1
60
0
100
AcDbLine
10
0
20
-1.923549
30
0
11
0
21
1.923549
31
0
39
0
210
0
220
0
230
1
0
LINE
5
76
100
AcDbEntity
8
1
62
256
6
ByLayer
370
-1
48
1
60
0
100
AcDbLine
10
31.766227
20
-2.598513
30
0
11
31.94889
21
-4.686358
31
0
39
0
210
0
220
0
230
1
0
LINE
5
77
100
AcDbEntity
8
1
62
256
6
ByLayer
370
-1
48
1
60
0
100
AcDbLine
10
26.944121
20
-3.341622
30
0
11
28.165791
21
-1.631109
31
0
39
0
210
0
220
0
230
1
0
LINE
5
78
100
AcDbEntity
8
1
62
256
6
ByLayer
370
-1
48
1
60
0
100
AcDbLine
10
31.731991
20
-4.898819
30
0
11
29.614184
21
-4.706533
31
0
39
0
210
0
220
0
230
1
0
LINE
5
79
100
AcDbEntity
8
1
62
256
6
ByLayer
370
-1
48
1
60
0
100
AcDbLine
10
28.653619
20
-1.15326
30
0
11
30.396763
21
0.04039
31
0
39
0
210
0
220
0
230
1
0
LINE
5
7A
100
AcDbEntity
8
1
62
256
6
ByLayer
370
-1
48
1
60
0
100
AcDbLine
10
30.692584
20
-0.039095
30
0
11
31.588722
21
-1.941895
31
0
39
0
210
0
220
0
230
1
0
LINE
5
7B
100
AcDbEntity
8
1
62
256
6
ByLayer
370
-1
48
1
60
0
100
AcDbLine
10
28.94885
20
-4.527764
30
0
11
27.023044
21
-3.633569
31
0
39
0
210
0
220
0
230
1
0
LINE
5
7C
100
AcDbEntity
8
1
62
256
6
ByLayer
370
-1
48
1
60
0
100
AcDbLine
10
29.13349
20
-2.891544
30
0
11
29.149796
21
-2.748148
31
0
39
0
210
0
220
0
230
1
0
LINE
5
7D
100
AcDbEntity
8
1
62
256
6
ByLayer
370
-1
48
1
60
0
100
AcDbLine
10
29.410421
20
-3.265608
30
0
11
29.39283
21
-3.4203
31
0
39
0
210
0
220
0
230
1
0
LINE
5
7E
100
AcDbEntity
8
1
62
256
6
ByLayer
370
-1
48
1
60
0
100
AcDbLine
10
30.281493
20
-3.200002
30
0
11
30.2978
21
-3.056606
31
0
39
0
210
0
220
0
230
1
0
LINE
5
7F
100
AcDbEntity
8
1
62
256
6
ByLayer
370
-1
48
1
60
0
100
AcDbLine
10
29.411732
20
-3.266362
30
0
11
29.394141
21
-3.421054
31
0
39
0
210
0
220
0
230
1
0
LINE
5
80
100
AcDbEntity
8
1
62
256
6
ByLayer
370
-1
48
1
60
0
100
AcDbLine
10
29.403486
20
-2.011495
30
0
11
29.396762
21
-2.070626
31
0
39
0
210
0
220
0
230
1
0
LINE
5
81
100
AcDbEntity
8
1
62
256
6
ByLayer
370
-1
48
1
60
0
100
AcDbLine
10
29.61813
20
-3.232882
30
0
11
29.601824
21
-3.376279
31
0
39
0
210
0
220
0
230
1
0
LINE
5
82
100
AcDbEntity
8
1
62
256
6
ByLayer
370
-1
48
1
60
0
100
AcDbLine
10
29.630256
20
-3.383918
30
0
11
29.646563
21
-3.240522
31
0
39
0
210
0
220
0
230
1
0
LINE
5
83
100
AcDbEntity
8
1
62
256
6
ByLayer
370
-1
48
1
60
0
100
AcDbLine
10
30.494068
20
-2.985652
30
0
11
30.476477
21
-3.140343
31
0
39
0
210
0
220
0
230
1
0
LINE
5
84
100
AcDbEntity
8
1
62
256
6
ByLayer
370
-1
48
1
60
0
100
AcDbLine
10
30.489033
20
-2.250168
30
0
11
30.476702
21
-2.3586
31
0
39
0
210
0
220
0
230
1
0
LINE
5
85
100
AcDbEntity
8
1
62
256
6
ByLayer
370
-1
48
1
60
0
100
AcDbLine
10
30.276953
20
-3.077026
30
0
11
30.260646
21
-3.220422
31
0
39
0
210
0
220
0
230
1
0
LINE
5
86
100
AcDbEntity
8
1
62
256
6
ByLayer
370
-1
48
1
60
0
100
AcDbLine
10
29.157382
20
-2.776208
30
0
11
29.141075
21
-2.919604
31
0
39
0
210
0
220
0
230
1
0
LINE
5
87
100
AcDbEntity
8
1
62
256
6
ByLayer
370
-1
48
1
60
0
100
AcDbLine
10
29.016564
20
-2.58866
30
0
11
28.998973
21
-2.743351
31
0
39
0
210
0
220
0
230
1
0
LINE
5
88
100
AcDbEntity
8
1
62
256
6
ByLayer
370
-1
48
1
60
0
100
AcDbLine
10
29.807634
20
-3.370988
30
0
11
29.790063
21
-3.525504
31
0
39
0
210
0
220
0
230
1
0
LINE
5
89
100
AcDbEntity
8
SK1
62
256
6
ByLayer
370
-1
48
1
60
0
100
AcDbLine
10
-69.15
20
2.99375
30
0
11
-69.15
21
-2.99375
31
0
39
0
210
0
220
0
230
1
0
LINE
5
8A
100
AcDbEntity
8
SK1
62
256
6
ByLayer
370
-1
48
1
60
0
100
AcDbLine
10
-68.15
20
-1.923549
30
0
11
-68.15
21
-3.50625
31
0
39
0
210
0
220
0
230
1
0
LINE
5
8B
100
AcDbEntity
8
SK1
62
256
6
ByLayer
370
-1
48
1
60
0
100
AcDbLine
10
-68.15
20
3.99375
30
0
11
-68.15
21
1.923549
31
0
39
0
210
0
220
0
230
1
0
LINE
5
8C
100
AcDbEntity
8
2
62
256
6
ByLayer
370
-1
48
1
60
1
100
AcDbLine
10
31.95
20
0
30
0
11
31.951
21
0.001
31
0
39
0
210
0
220
0
230
1
0
MTEXT
5
EF
100
AcDbEntity
8
SK6
62
256
6
ByLayer
370
-1
48
1
60
0
100
AcDbMText
10
-15.225
20
12.665625
30
0
210
0
220
0
230
1
1
\W00.805;\fsimplex.shx,bigfont.shx;A08H-SWLPL 02 
40
3.5
41
0
44
1.084337
50
0
71
7
72
5
7
DEFAULT
0
DIMENSION
5
122
100
AcDbEntity
8
2
62
256
6
ByLayer
370
-3
48
1
60
0
100
AcDbDimension
2
DimnDraft3D1
10
44.2
20
0
30
0
11
44.2
21
-22.177368
31
0
70
32
71
5
72
1
41
1
210
0
220
0
230
1
3
Standard
100
AcDbAlignedDimension
13
33.95
23
-4.9
33
0
14
33.95
24
0
34
0
50
90
100
AcDbRotatedDimension
1001
ACAD
1000
DSTYLE
1002
{
1070
    74
1070
     0
1070
   279
1070
     0
1070
   172
1070
     1
1070
   173
1070
     1
1070
   340
1005
F0
1070
    77
1070
     1
1070
    73
1070
     0
1070
   171
1070
     4
1070
   274
1070
     4
1070
   177
1070
     2
1070
   176
1070
     2
1070
   178
1070
     7
1070
    78
1070
     8
1070
    41
1041
3.175
1070
   147
1041
2.25
1070
    42
1041
2.0
1070
    44
1041
2.0
1070
   140
1041
4.5
1070
   343
1005
123
1070
   344
1005
123
1002
}
0
DIMENSION
5
138
100
AcDbEntity
8
SK2
62
256
6
ByLayer
370
-3
48
1
60
0
100
AcDbDimension
2
DimnDraft3D2
10
-78.9
20
3.99375
30
0
11
-78.9
21
14.24875
31
0
70
32
71
5
72
1
41
1
210
0
220
0
230
1
3
Standard
100
AcDbAlignedDimension
13
-71.15
23
-3.99375
33
0
14
-71.15
24
3.99375
34
0
50
90
100
AcDbRotatedDimension
1001
ACAD
1000
DSTYLE
1002
{
1070
    74
1070
     0
1070
   279
1070
     0
1070
   172
1070
     1
1070
   173
1070
     1
1070
   340
1005
F0
1070
    77
1070
     1
1070
    73
1070
     0
1070
   171
1070
     4
1070
   274
1070
     4
1070
   177
1070
     2
1070
   176
1070
     2
1070
   178
1070
     7
1070
    78
1070
     8
1070
    41
1041
3.175
1070
   147
1041
2.25
1070
    42
1041
2.0
1070
    44
1041
2.0
1070
   140
1041
4.5
1070
   343
1005
123
1070
   344
1005
123
1002
}
0
DIMENSION
5
146
100
AcDbEntity
8
SK2
62
256
6
ByLayer
370
-3
48
1
60
0
100
AcDbDimension
2
DimnDraft3D3
10
31.95
20
-22.15
30
0
11
-24.852632
21
-22.15
31
0
70
32
71
5
72
1
41
1
210
0
220
0
230
1
3
Standard
100
AcDbAlignedDimension
13
-69.15
23
-5.99375
33
0
14
31.95
24
-6.9
34
0
50
0
100
AcDbRotatedDimension
1001
ACAD
1000
DSTYLE
1002
{
1070
   279
1070
     0
1070
   172
1070
     1
1070
   173
1070
     1
1070
   340
1005
F0
1070
    77
1070
     1
1070
    73
1070
     0
1070
   171
1070
     4
1070
   274
1070
     4
1070
   177
1070
     2
1070
   176
1070
     2
1070
   178
1070
     7
1070
    78
1070
     8
1070
    41
1041
3.175
1070
   147
1041
2.25
1070
    42
1041
2.0
1070
    44
1041
2.0
1070
   140
1041
4.5
1070
   343
1005
123
1070
   344
1005
123
1002
}
0
DIMENSION
5
154
100
AcDbEntity
8
2
62
256
6
ByLayer
370
-3
48
1
60
0
100
AcDbDimension
2
DimnDraft3D4
10
71.447712
20
0
30
0
11
53.96686
21
33.925375
31
0
70
34
71
5
72
1
41
1
210
0
220
0
230
1
3
Standard
100
AcDb2LineAngularDimension
13
31.601377
23
-0.915221
33
0
14
28.04149
24
39.774475
34
0
15
33.95
25
0
35
0
16
60.184171
26
31.280028
36
0
40
0
0
ENDSEC
0
SECTION
2
OBJECTS
0
DICTIONARY
5
185
330
0
100
AcDbDictionary
280
0
281
1
3
ACAD_GROUP
350
186
3
ACAD_MLINESTYLE
350
187
0
DICTIONARY
5
186
330
0
100
AcDbDictionary
280
0
281
1
0
DICTIONARY
5
187
330
0
100
AcDbDictionary
280
0
281
1
3
Standard
350
18
0
MLINESTYLE
5
18
330
187
100
AcDbMlineStyle
2
Standard
70
0
3

62
256
51
90
52
90
71
2
49
-0.5
62
256
6
ByLayer
49
0.5
62
256
6
ByLayer
0
RASTERVARIABLES
5
173
330

100
AcDbRasterVariables
90
0
70
1
71
1
72
1
0
ENDSEC
0
EOF
