0
SECTION
2
HEADER
9
$ACADVER
1
AC1015
9
$DWGCODEPAGE
3
ANSI_1252
9
$HANDSEED
5
1a4
9
$ANGBASE
50
0
9
$ANGDIR
70
0
9
$ATTMODE
70
1
9
$AUNITS
70
0
9
$AUPREC
70
0
9
$CECOLOR
62
256
9
$CELTSCALE
40
1
9
$CELTYPE
6
ByLayer
9
$CELWEIGHT
370
-1
9
$CLAYER
8
0
9
$CMLJUST
70
0
9
$CMLSCALE
40
1
9
$CMLSTYLE
2
Standard
9
$DIMSTYLE
2
Standard
9
$TEXTSIZE
40
0.2
9
$TEXTSTYLE
7
Standard
9
$LUNITS
70
2
9
$LUPREC
70
4
9
$EXTNAMES
290
1
9
$INSUNITS
70
4
9
$LTSCALE
40
1
9
$LWDISPLAY
290
0
9
$PDMODE
70
0
9
$PDSIZE
40
0
9
$PLINEGEN
70
0
0
ENDSEC
0
SECTION
2
CLASSES
0
CLASS
1
RASTERVARIABLES
2
AcDbRasterVariables
3
ISM
90
0
280
0
281
0
0
ENDSEC
0
SECTION
2
TABLES
0
TABLE
2
VPORT
5
19a
100
AcDbSymbolTable
0
VPORT
5
1
100
AcDbSymbolTableRecord
100
AcDbViewportTableRecord
2
*Active
70
0
10
0
20
0
11
1
21
1
12
-1
22
1
13
0
23
0
14
0.5
24
0.5
15
10
25
10
16
0
26
0
36
1
17
0
27
0
37
0
0
ENDTAB
0
TABLE
2
LTYPE
5
19b
100
AcDbSymbolTable
0
LTYPE
5
14
100
AcDbSymbolTableRecord
100
AcDbLinetypeTableRecord
70
0
2
ByBlock
3

72
65
73
0
40
0
0
LTYPE
5
15
100
AcDbSymbolTableRecord
100
AcDbLinetypeTableRecord
70
0
2
ByLayer
3

72
65
73
0
40
0
0
LTYPE
5
16
100
AcDbSymbolTableRecord
100
AcDbLinetypeTableRecord
70
0
2
CONTINUOUS
3
Solid line
72
65
73
0
40
0
0
LTYPE
5
3B
100
AcDbSymbolTableRecord
100
AcDbLinetypeTableRecord
70
0
2
DASHED
3
__ __ __ __ __ __ __ __ __
72
65
73
2
40
25.72
49
12.86
74
0
49
-12.86
74
0
0
LTYPE
5
3C
100
AcDbSymbolTableRecord
100
AcDbLinetypeTableRecord
70
0
2
HIDDEN
3
_ _ _ _ _ _ _ _ _ _ _ _ _ _ _
72
65
73
2
40
0.5
49
0.25
74
0
49
-0.25
74
0
0
LTYPE
5
3D
100
AcDbSymbolTableRecord
100
AcDbLinetypeTableRecord
70
0
2
PHANTOM
3
____ _ _ ____ _ _ _____ _ _ ____
72
65
73
6
40
50.5
49
18
74
0
49
-6.5
74
0
49
6.5
74
0
49
-6.5
74
0
49
6.5
74
0
49
-6.5
74
0
0
LTYPE
5
3E
100
AcDbSymbolTableRecord
100
AcDbLinetypeTableRecord
70
0
2
CENTER
3
____ _ ____ _ ____ _ ____
72
65
73
4
40
47.5
49
22
74
0
49
-8.5
74
0
49
8.5
74
0
49
-8.5
74
0
0
LTYPE
5
3F
100
AcDbSymbolTableRecord
100
AcDbLinetypeTableRecord
70
0
2
DOT
3
.........................
72
65
73
2
40
10
49
0
74
0
49
-10
74
0
0
LTYPE
5
40
100
AcDbSymbolTableRecord
100
AcDbLinetypeTableRecord
70
0
2
DASHDOT
3
_._._._._._._._._._._._._._._._.
72
65
73
4
40
70
49
31
74
0
49
-13
74
0
49
13
74
0
49
-13
74
0
0
ENDTAB
0
TABLE
2
LAYER
5
19c
100
AcDbSymbolTable
0
LAYER
5
10
100
AcDbSymbolTableRecord
100
AcDbLayerTableRecord
2
0
70
0
62
7
6
CONTINUOUS
290
1
370
-3
390
0
0
LAYER
5
42
100
AcDbSymbolTableRecord
100
AcDbLayerTableRecord
2
80
70
0
62
-6
6
CONTINUOUS
290
1
370
-3
390
0
0
LAYER
5
44
100
AcDbSymbolTableRecord
100
AcDbLayerTableRecord
2
81
70
0
62
-3
6
CONTINUOUS
290
1
370
-3
390
0
0
LAYER
5
4C
100
AcDbSymbolTableRecord
100
AcDbLayerTableRecord
2
4
70
0
62
-2
6
CENTER
290
1
370
-3
390
0
0
LAYER
5
56
100
AcDbSymbolTableRecord
100
AcDbLayerTableRecord
2
1
70
0
62
4
6
CONTINUOUS
290
1
370
-3
390
0
0
LAYER
5
10A
100
AcDbSymbolTableRecord
100
AcDbLayerTableRecord
2
2
70
0
62
7
6
CONTINUOUS
290
1
370
-3
390
0
0
LAYER
5
185
100
AcDbSymbolTableRecord
100
AcDbLayerTableRecord
2
SK2
70
0
62
7
6
CONTINUOUS
290
1
370
-3
390
0
0
LAYER
5
186
100
AcDbSymbolTableRecord
100
AcDbLayerTableRecord
2
SK3
70
0
62
1
6
DASHED
290
1
370
-3
390
0
0
LAYER
5
187
100
AcDbSymbolTableRecord
100
AcDbLayerTableRecord
2
SK4
70
0
62
2
6
CENTER
290
1
370
-3
390
0
0
LAYER
5
188
100
AcDbSymbolTableRecord
100
AcDbLayerTableRecord
2
SK1
70
0
62
4
6
CONTINUOUS
290
1
370
-3
390
0
0
LAYER
5
189
100
AcDbSymbolTableRecord
100
AcDbLayerTableRecord
2
SK6
70
0
62
5
6
CONTINUOUS
290
1
370
-3
390
0
0
ENDTAB
0
TABLE
2
STYLE
5
19d
100
AcDbSymbolTable
0
STYLE
5
11
100
AcDbSymbolTableRecord
100
AcDbTextStyleTableRecord
2
Standard
3
txt
70
0
71
0
40
0
41
1
42
0
50
0
0
STYLE
5
CF
100
AcDbSymbolTableRecord
100
AcDbTextStyleTableRecord
2
DEFAULT
3
simplex.shx
70
0
71
0
40
0
41
1
42
0
50
0
0
STYLE
5
F2
100
AcDbSymbolTableRecord
100
AcDbTextStyleTableRecord
2
DWGDirectTextStyle
3
SIMPLEX
70
0
71
0
40
0
41
1
42
0
50
0
0
ENDTAB
0
TABLE
2
DIMSTYLE
5
19e
100
AcDbSymbolTable
100
AcDbDimStyleTable
0
DIMSTYLE
105
27
100
AcDbSymbolTableRecord
100
AcDbDimStyleTableRecord
2
Standard
70
0
3
<>
41
0.18
42
0.0625
44
0.18
140
0.18
147
0.09
73
0
74
0
77
1
271
2
275
0
278
52
280
0
340
11
0
ENDTAB
0
TABLE
2
VIEW
5
19f
100
AcDbSymbolTable
0
ENDTAB
0
TABLE
2
UCS
5
1a0
100
AcDbSymbolTable
0
ENDTAB
0
TABLE
2
APPID
5
1a1
100
AcDbSymbolTable
0
APPID
5
12
100
AcDbSymbolTableRecord
100
AcDbRegAppTableRecord
2
ACAD
70
0
0
ENDTAB
0
TABLE
2
BLOCK_RECORD
5
1a2
100
AcDbSymbolTable
0
BLOCK_RECORD
5
1F
100
AcDbSymbolTableRecord
100
AcDbBlockTableRecord
2
*Model_Space
340
0
70
0
0
BLOCK_RECORD
5
1B
100
AcDbSymbolTableRecord
100
AcDbBlockTableRecord
2
*Paper_Space
340
0
70
0
0
BLOCK_RECORD
5
23
100
AcDbSymbolTableRecord
100
AcDbBlockTableRecord
2
*Paper_Space0
340
0
70
0
0
BLOCK_RECORD
5
CD
100
AcDbSymbolTableRecord
100
AcDbBlockTableRecord
2
LABLE3D_1
340
0
70
0
0
BLOCK_RECORD
5
FD
100
AcDbSymbolTableRecord
100
AcDbBlockTableRecord
2
DimnDraft3D1
340
0
70
0
0
BLOCK_RECORD
5
108
100
AcDbSymbolTableRecord
100
AcDbBlockTableRecord
2
DimnDraft3D2
340
0
70
0
0
BLOCK_RECORD
5
113
100
AcDbSymbolTableRecord
100
AcDbBlockTableRecord
2
DimnDraft3D3
340
0
70
0
0
BLOCK_RECORD
5
11D
100
AcDbSymbolTableRecord
100
AcDbBlockTableRecord
2
DimnDraft3D4
340
0
70
0
0
BLOCK_RECORD
5
127
100
AcDbSymbolTableRecord
100
AcDbBlockTableRecord
2
DimnDraft3D5
340
0
70
0
0
BLOCK_RECORD
5
131
100
AcDbSymbolTableRecord
100
AcDbBlockTableRecord
2
DimnDraft3D6
340
0
70
0
0
BLOCK_RECORD
5
13B
100
AcDbSymbolTableRecord
100
AcDbBlockTableRecord
2
DimnDraft3D7
340
0
70
0
0
BLOCK_RECORD
5
145
100
AcDbSymbolTableRecord
100
AcDbBlockTableRecord
2
DimnDraft3D8
340
0
70
0
0
BLOCK_RECORD
5
150
100
AcDbSymbolTableRecord
100
AcDbBlockTableRecord
2
DimnDraft3D9
340
0
70
0
0
BLOCK_RECORD
5
15B
100
AcDbSymbolTableRecord
100
AcDbBlockTableRecord
2
DimnDraft3D10
340
0
70
0
0
ENDTAB
0
ENDSEC
0
SECTION
2
BLOCKS
0
BLOCK
5
20
100
AcDbEntity
8
0
100
AcDbBlockBegin
2
*Model_Space
70
0
10
0
20
0
30
0
3
*Model_Space
0
ENDBLK
5
21
100
AcDbEntity
8
0
100
AcDbBlockEnd
0
BLOCK
5
1C
100
AcDbEntity
8
0
100
AcDbBlockBegin
2
*Paper_Space
70
0
10
0
20
0
30
0
3
*Paper_Space
0
ENDBLK
5
1D
100
AcDbEntity
8
0
100
AcDbBlockEnd
0
BLOCK
5
24
100
AcDbEntity
8
0
100
AcDbBlockBegin
2
*Paper_Space0
70
0
10
0
20
0
30
0
3
*Paper_Space0
0
ENDBLK
5
25
100
AcDbEntity
8
0
100
AcDbBlockEnd
0
BLOCK
5
F8
100
AcDbEntity
8
0
100
AcDbBlockBegin
2
LABLE3D_1
70
0
10
0
20
0
30
0
3
LABLE3D_1
0
MTEXT
5
CE
100
AcDbEntity
8
SK6
62
256
6
ByLayer
370
-1
48
1
60
0
100
AcDbMText
10
-71.375
20
39.125
30
0
210
0
220
0
230
1
1
\W01.000;\fsimplex.shx,bigfont.shx; 
40
3.5
41
0
44
1.084337
50
0
71
7
72
5
7
DEFAULT
0
LINE
5
F4
100
AcDbEntity
8
SK6
62
256
6
ByLayer
370
-1
48
1
60
0
100
AcDbLine
10
-70.75
20
41.75
30
0
11
-63.673077
21
41.75
31
0
39
0
210
0
220
0
230
1
0
LINE
5
F5
100
AcDbEntity
8
SK6
62
256
6
ByLayer
370
-1
48
1
60
0
100
AcDbLine
10
-38.223827
20
16.650166
30
0
11
-63.673077
21
41.75
31
0
39
0
210
0
220
0
230
1
0
SOLID
5
F6
100
AcDbEntity
8
SK6
62
256
6
ByLayer
370
-1
48
1
60
0
100
AcDbTrace
10
-38.223827
20
16.650166
30
0
11
-42.128259
21
19.099786
31
0
12
-40.727194
22
20.520366
32
0
13
-38.223827
23
16.650166
33
0
39
0
210
0
220
0
230
1
0
ENDBLK
5
F9
100
AcDbEntity
8
0
100
AcDbBlockEnd
0
BLOCK
5
105
100
AcDbEntity
8
0
100
AcDbBlockBegin
2
DimnDraft3D1
70
0
10
0
20
0
30
0
3
DimnDraft3D1
0
MTEXT
5
FE
100
AcDbEntity
8
SK2
62
256
6
ByLayer
370
-1
48
1
60
0
100
AcDbMText
10
-106.6
20
0.580263
30
0
210
0
220
0
230
1
1
\W01.000;\fsimplex.shx,bigfont.shx;63,5 
40
4.5
41
0
44
1.084337
50
90
71
7
72
5
7
DEFAULT
0
MTEXT
5
FF
100
AcDbEntity
8
SK2
62
256
6
ByLayer
370
-1
48
1
60
0
100
AcDbMText
10
-106.6
20
-8.419737
30
0
210
0
220
0
230
1
1
\W01.000;\fsimplex.shx,bigfont.shx;%%c 
40
4.5
41
0
44
1.084337
50
90
71
7
72
5
7
DEFAULT
0
LINE
5
100
100
AcDbEntity
8
SK2
62
256
6
ByLayer
370
-1
48
1
60
0
100
AcDbLine
10
-1.5875
20
31.75
30
0
11
-106.35
21
31.75
31
0
39
0
210
0
220
0
230
1
0
LINE
5
101
100
AcDbEntity
8
SK2
62
256
6
ByLayer
370
-1
48
1
60
0
100
AcDbLine
10
-1.5875
20
-31.75
30
0
11
-106.35
21
-31.75
31
0
39
0
210
0
220
0
230
1
0
LINE
5
102
100
AcDbEntity
8
SK2
62
256
6
ByLayer
370
-1
48
1
60
0
100
AcDbLine
10
-104.35
20
31.75
30
0
11
-104.35
21
-31.75
31
0
39
0
210
0
220
0
230
1
0
SOLID
5
103
100
AcDbEntity
8
SK2
62
256
6
ByLayer
370
-1
48
1
60
0
100
AcDbTrace
10
-104.35
20
31.75
30
0
11
-103.352374
21
27.250004
31
0
12
-105.347626
22
27.249996
32
0
13
-104.35
23
31.75
33
0
39
0
210
0
220
0
230
1
0
SOLID
5
104
100
AcDbEntity
8
SK2
62
256
6
ByLayer
370
-1
48
1
60
0
100
AcDbTrace
10
-104.35
20
-31.75
30
0
11
-105.347626
21
-27.250004
31
0
12
-103.352374
22
-27.249996
32
0
13
-104.35
23
-31.75
33
0
39
0
210
0
220
0
230
1
0
ENDBLK
5
106
100
AcDbEntity
8
0
100
AcDbBlockEnd
0
BLOCK
5
110
100
AcDbEntity
8
0
100
AcDbBlockBegin
2
DimnDraft3D2
70
0
10
0
20
0
30
0
3
DimnDraft3D2
0
MTEXT
5
109
100
AcDbEntity
8
2
62
256
6
ByLayer
370
-1
48
1
60
0
100
AcDbMText
10
43.496053
20
70.987847
30
0
210
0
220
0
230
1
1
\W01.000;\fsimplex.shx,bigfont.shx;90 
40
4.5
41
0
44
1.084337
50
0
71
7
72
5
7
DEFAULT
0
LINE
5
10B
100
AcDbEntity
8
2
62
256
6
ByLayer
370
-1
48
1
60
0
100
AcDbLine
10
0
20
33.3375
30
0
11
0
21
71.862847
31
0
39
0
210
0
220
0
230
1
0
LINE
5
10C
100
AcDbEntity
8
2
62
256
6
ByLayer
370
-1
48
1
60
0
100
AcDbLine
10
90
20
22.5875
30
0
11
90
21
71.862847
31
0
39
0
210
0
220
0
230
1
0
LINE
5
10D
100
AcDbEntity
8
2
62
256
6
ByLayer
370
-1
48
1
60
0
100
AcDbLine
10
0
20
69.862847
30
0
11
90
21
69.862847
31
0
39
0
210
0
220
0
230
1
0
SOLID
5
10E
100
AcDbEntity
8
2
62
256
6
ByLayer
370
-1
48
1
60
0
100
AcDbTrace
10
0
20
69.862847
30
0
11
4.499996
21
70.860473
31
0
12
4.500004
22
68.865221
32
0
13
0
23
69.862847
33
0
39
0
210
0
220
0
230
1
0
SOLID
5
10F
100
AcDbEntity
8
2
62
256
6
ByLayer
370
-1
48
1
60
0
100
AcDbTrace
10
90
20
69.862847
30
0
11
85.500004
21
68.865221
31
0
12
85.499996
22
70.860473
32
0
13
90
23
69.862847
33
0
39
0
210
0
220
0
230
1
0
ENDBLK
5
111
100
AcDbEntity
8
0
100
AcDbBlockEnd
0
BLOCK
5
11A
100
AcDbEntity
8
0
100
AcDbBlockBegin
2
DimnDraft3D3
70
0
10
0
20
0
30
0
3
DimnDraft3D3
0
MTEXT
5
114
100
AcDbEntity
8
SK2
62
256
6
ByLayer
370
-1
48
1
60
0
100
AcDbMText
10
81.058553
20
-38.237827
30
0
210
0
220
0
230
1
1
\W01.000;\fsimplex.shx,bigfont.shx;16 
40
4.5
41
0
44
1.084337
50
0
71
7
72
5
7
DEFAULT
0
LINE
5
115
100
AcDbEntity
8
SK2
62
256
6
ByLayer
370
-1
48
1
60
0
100
AcDbLine
10
74
20
-22.5875
30
0
11
74
21
-41.362827
31
0
39
0
210
0
220
0
230
1
0
LINE
5
116
100
AcDbEntity
8
SK2
62
256
6
ByLayer
370
-1
48
1
60
0
100
AcDbLine
10
90
20
-22.5875
30
0
11
90
21
-41.362827
31
0
39
0
210
0
220
0
230
1
0
LINE
5
117
100
AcDbEntity
8
SK2
62
256
6
ByLayer
370
-1
48
1
60
0
100
AcDbLine
10
62.75
20
-39.362827
30
0
11
101.25
21
-39.362827
31
0
39
0
210
0
220
0
230
1
0
SOLID
5
118
100
AcDbEntity
8
SK2
62
256
6
ByLayer
370
-1
48
1
60
0
100
AcDbTrace
10
74
20
-39.362827
30
0
11
69.500004
21
-40.360453
31
0
12
69.499996
22
-38.365201
32
0
13
74
23
-39.362827
33
0
39
0
210
0
220
0
230
1
0
SOLID
5
119
100
AcDbEntity
8
SK2
62
256
6
ByLayer
370
-1
48
1
60
0
100
AcDbTrace
10
90
20
-39.362827
30
0
11
94.499996
21
-38.365201
31
0
12
94.500004
22
-40.360453
32
0
13
90
23
-39.362827
33
0
39
0
210
0
220
0
230
1
0
ENDBLK
5
11B
100
AcDbEntity
8
0
100
AcDbBlockEnd
0
BLOCK
5
124
100
AcDbEntity
8
0
100
AcDbBlockBegin
2
DimnDraft3D4
70
0
10
0
20
0
30
0
3
DimnDraft3D4
0
MTEXT
5
11E
100
AcDbEntity
8
SK2
62
256
6
ByLayer
370
-1
48
1
60
0
100
AcDbMText
10
4.515789
20
50.987847
30
0
210
0
220
0
230
1
1
\W01.000;\fsimplex.shx,bigfont.shx;19,05 
40
4.5
41
0
44
1.084337
50
0
71
7
72
5
7
DEFAULT
0
LINE
5
11F
100
AcDbEntity
8
SK2
62
256
6
ByLayer
370
-1
48
1
60
0
100
AcDbLine
10
0
20
23.8125
30
0
11
0
21
51.862847
31
0
39
0
210
0
220
0
230
1
0
LINE
5
120
100
AcDbEntity
8
SK2
62
256
6
ByLayer
370
-1
48
1
60
0
100
AcDbLine
10
19.05
20
33.3375
30
0
11
19.05
21
51.862847
31
0
39
0
210
0
220
0
230
1
0
LINE
5
121
100
AcDbEntity
8
SK2
62
256
6
ByLayer
370
-1
48
1
60
0
100
AcDbLine
10
-11.25
20
49.862847
30
0
11
30.3
21
49.862847
31
0
39
0
210
0
220
0
230
1
0
SOLID
5
122
100
AcDbEntity
8
SK2
62
256
6
ByLayer
370
-1
48
1
60
0
100
AcDbTrace
10
0
20
49.862847
30
0
11
-4.499996
21
48.865221
31
0
12
-4.500004
22
50.860473
32
0
13
0
23
49.862847
33
0
39
0
210
0
220
0
230
1
0
SOLID
5
123
100
AcDbEntity
8
SK2
62
256
6
ByLayer
370
-1
48
1
60
0
100
AcDbTrace
10
19.05
20
49.862847
30
0
11
23.549996
21
50.860473
31
0
12
23.550004
22
48.865221
32
0
13
19.05
23
49.862847
33
0
39
0
210
0
220
0
230
1
0
ENDBLK
5
125
100
AcDbEntity
8
0
100
AcDbBlockEnd
0
BLOCK
5
12E
100
AcDbEntity
8
0
100
AcDbBlockBegin
2
DimnDraft3D5
70
0
10
0
20
0
30
0
3
DimnDraft3D5
0
MTEXT
5
128
100
AcDbEntity
8
SK2
62
256
6
ByLayer
370
-1
48
1
60
0
100
AcDbMText
10
63.558553
20
50.987847
30
0
210
0
220
0
230
1
1
\W01.000;\fsimplex.shx,bigfont.shx;51 
40
4.5
41
0
44
1.084337
50
0
71
7
72
5
7
DEFAULT
0
LINE
5
129
100
AcDbEntity
8
SK2
62
256
6
ByLayer
370
-1
48
1
60
0
100
AcDbLine
10
90
20
22.5875
30
0
11
90
21
51.862847
31
0
39
0
210
0
220
0
230
1
0
LINE
5
12A
100
AcDbEntity
8
SK2
62
256
6
ByLayer
370
-1
48
1
60
0
100
AcDbLine
10
39
20
22.5875
30
0
11
39
21
51.862847
31
0
39
0
210
0
220
0
230
1
0
LINE
5
12B
100
AcDbEntity
8
SK2
62
256
6
ByLayer
370
-1
48
1
60
0
100
AcDbLine
10
90
20
49.862847
30
0
11
39
21
49.862847
31
0
39
0
210
0
220
0
230
1
0
SOLID
5
12C
100
AcDbEntity
8
SK2
62
256
6
ByLayer
370
-1
48
1
60
0
100
AcDbTrace
10
90
20
49.862847
30
0
11
85.500004
21
48.865221
31
0
12
85.499996
22
50.860473
32
0
13
90
23
49.862847
33
0
39
0
210
0
220
0
230
1
0
SOLID
5
12D
100
AcDbEntity
8
SK2
62
256
6
ByLayer
370
-1
48
1
60
0
100
AcDbTrace
10
39
20
49.862847
30
0
11
43.499996
21
50.860473
31
0
12
43.500004
22
48.865221
32
0
13
39
23
49.862847
33
0
39
0
210
0
220
0
230
1
0
ENDBLK
5
12F
100
AcDbEntity
8
0
100
AcDbBlockEnd
0
BLOCK
5
138
100
AcDbEntity
8
0
100
AcDbBlockBegin
2
DimnDraft3D6
70
0
10
0
20
0
30
0
3
DimnDraft3D6
0
MTEXT
5
132
100
AcDbEntity
8
SK2
62
256
6
ByLayer
370
-1
48
1
60
0
100
AcDbMText
10
-38.044737
20
70.987847
30
0
210
0
220
0
230
1
1
\W01.000;\fsimplex.shx,bigfont.shx;68,2 
40
4.5
41
0
44
1.084337
50
0
71
7
72
5
7
DEFAULT
0
LINE
5
133
100
AcDbEntity
8
SK2
62
256
6
ByLayer
370
-1
48
1
60
0
100
AcDbLine
10
0
20
23.8125
30
0
11
0
21
71.862847
31
0
39
0
210
0
220
0
230
1
0
LINE
5
134
100
AcDbEntity
8
SK2
62
256
6
ByLayer
370
-1
48
1
60
0
100
AcDbLine
10
-68.25
20
13.7875
30
0
11
-68.25
21
71.862847
31
0
39
0
210
0
220
0
230
1
0
LINE
5
135
100
AcDbEntity
8
SK2
62
256
6
ByLayer
370
-1
48
1
60
0
100
AcDbLine
10
0
20
69.862847
30
0
11
-68.25
21
69.862847
31
0
39
0
210
0
220
0
230
1
0
SOLID
5
136
100
AcDbEntity
8
SK2
62
256
6
ByLayer
370
-1
48
1
60
0
100
AcDbTrace
10
0
20
69.862847
30
0
11
-4.499996
21
68.865221
31
0
12
-4.500004
22
70.860473
32
0
13
0
23
69.862847
33
0
39
0
210
0
220
0
230
1
0
SOLID
5
137
100
AcDbEntity
8
SK2
62
256
6
ByLayer
370
-1
48
1
60
0
100
AcDbTrace
10
-68.25
20
69.862847
30
0
11
-63.750004
21
70.860473
31
0
12
-63.749996
22
68.865221
32
0
13
-68.25
23
69.862847
33
0
39
0
210
0
220
0
230
1
0
ENDBLK
5
139
100
AcDbEntity
8
0
100
AcDbBlockEnd
0
BLOCK
5
142
100
AcDbEntity
8
0
100
AcDbBlockBegin
2
DimnDraft3D7
70
0
10
0
20
0
30
0
3
DimnDraft3D7
0
MTEXT
5
13C
100
AcDbEntity
8
SK2
62
256
6
ByLayer
370
-1
48
1
60
0
100
AcDbMText
10
46.008553
20
-48.237827
30
0
210
0
220
0
230
1
1
\W01.000;\fsimplex.shx,bigfont.shx;min 41-max 51 
40
4.5
41
0
44
1.084337
50
0
71
7
72
5
7
DEFAULT
0
LINE
5
13D
100
AcDbEntity
8
SK2
62
256
6
ByLayer
370
-1
48
1
60
0
100
AcDbLine
10
39
20
-11.5875
30
0
11
39
21
-51.362827
31
0
39
0
210
0
220
0
230
1
0
LINE
5
13E
100
AcDbEntity
8
SK2
62
256
6
ByLayer
370
-1
48
1
60
0
100
AcDbLine
10
90
20
-11.5875
30
0
11
90
21
-51.362827
31
0
39
0
210
0
220
0
230
1
0
LINE
5
13F
100
AcDbEntity
8
SK2
62
256
6
ByLayer
370
-1
48
1
60
0
100
AcDbLine
10
27.75
20
-49.362827
30
0
11
101.25
21
-49.362827
31
0
39
0
210
0
220
0
230
1
0
SOLID
5
140
100
AcDbEntity
8
SK2
62
256
6
ByLayer
370
-1
48
1
60
0
100
AcDbTrace
10
39
20
-49.362827
30
0
11
34.500004
21
-50.360453
31
0
12
34.499996
22
-48.365201
32
0
13
39
23
-49.362827
33
0
39
0
210
0
220
0
230
1
0
SOLID
5
141
100
AcDbEntity
8
SK2
62
256
6
ByLayer
370
-1
48
1
60
0
100
AcDbTrace
10
90
20
-49.362827
30
0
11
94.499996
21
-48.365201
31
0
12
94.500004
22
-50.360453
32
0
13
90
23
-49.362827
33
0
39
0
210
0
220
0
230
1
0
ENDBLK
5
143
100
AcDbEntity
8
0
100
AcDbBlockEnd
0
BLOCK
5
14D
100
AcDbEntity
8
0
100
AcDbBlockBegin
2
DimnDraft3D8
70
0
10
0
20
0
30
0
3
DimnDraft3D8
0
MTEXT
5
146
100
AcDbEntity
8
SK2
62
256
6
ByLayer
370
-1
48
1
60
0
100
AcDbMText
10
152.25
20
3.509211
30
0
210
0
220
0
230
1
1
\W01.000;\fsimplex.shx,bigfont.shx;42 
40
4.5
41
0
44
1.084337
50
90
71
7
72
5
7
DEFAULT
0
MTEXT
5
147
100
AcDbEntity
8
SK2
62
256
6
ByLayer
370
-1
48
1
60
0
100
AcDbMText
10
152
20
-7.240789
30
0
210
0
220
0
230
1
1
\W01.000;\fsimplex.shx,bigfont.shx;%%c 
40
3.5
41
0
44
1.084337
50
90
71
7
72
5
7
DEFAULT
0
LINE
5
148
100
AcDbEntity
8
SK2
62
256
6
ByLayer
370
-1
48
1
60
0
100
AcDbLine
10
91.5875
20
-21
30
0
11
156.25
21
-21
31
0
39
0
210
0
220
0
230
1
0
LINE
5
149
100
AcDbEntity
8
SK2
62
256
6
ByLayer
370
-1
48
1
60
0
100
AcDbLine
10
91.5875
20
21
30
0
11
156.25
21
21
31
0
39
0
210
0
220
0
230
1
0
LINE
5
14A
100
AcDbEntity
8
SK2
62
256
6
ByLayer
370
-1
48
1
60
0
100
AcDbLine
10
154.25
20
-21
30
0
11
154.25
21
21
31
0
39
0
210
0
220
0
230
1
0
SOLID
5
14B
100
AcDbEntity
8
SK2
62
256
6
ByLayer
370
-1
48
1
60
0
100
AcDbTrace
10
154.25
20
-21
30
0
11
153.252374
21
-16.500004
31
0
12
155.247626
22
-16.499996
32
0
13
154.25
23
-21
33
0
39
0
210
0
220
0
230
1
0
SOLID
5
14C
100
AcDbEntity
8
SK2
62
256
6
ByLayer
370
-1
48
1
60
0
100
AcDbTrace
10
154.25
20
21
30
0
11
155.247626
21
16.500004
31
0
12
153.252374
22
16.499996
32
0
13
154.25
23
21
33
0
39
0
210
0
220
0
230
1
0
ENDBLK
5
14E
100
AcDbEntity
8
0
100
AcDbBlockEnd
0
BLOCK
5
158
100
AcDbEntity
8
0
100
AcDbBlockBegin
2
DimnDraft3D9
70
0
10
0
20
0
30
0
3
DimnDraft3D9
0
MTEXT
5
151
100
AcDbEntity
8
SK2
62
256
6
ByLayer
370
-1
48
1
60
0
100
AcDbMText
10
140.25
20
3.746053
30
0
210
0
220
0
230
1
1
\W01.000;\fsimplex.shx,bigfont.shx;20 
40
4.5
41
0
44
1.084337
50
90
71
7
72
5
7
DEFAULT
0
MTEXT
5
152
100
AcDbEntity
8
SK2
62
256
6
ByLayer
370
-1
48
1
60
0
100
AcDbMText
10
140
20
-7.003947
30
0
210
0
220
0
230
1
1
\W01.000;\fsimplex.shx,bigfont.shx;%%c 
40
3.5
41
0
44
1.084337
50
90
71
7
72
5
7
DEFAULT
0
LINE
5
153
100
AcDbEntity
8
SK2
62
256
6
ByLayer
370
-1
48
1
60
0
100
AcDbLine
10
91.5875
20
10
30
0
11
144.25
21
10
31
0
39
0
210
0
220
0
230
1
0
LINE
5
154
100
AcDbEntity
8
SK2
62
256
6
ByLayer
370
-1
48
1
60
0
100
AcDbLine
10
91.5875
20
-10
30
0
11
144.25
21
-10
31
0
39
0
210
0
220
0
230
1
0
LINE
5
155
100
AcDbEntity
8
SK2
62
256
6
ByLayer
370
-1
48
1
60
0
100
AcDbLine
10
142.25
20
21.25
30
0
11
142.25
21
-21.25
31
0
39
0
210
0
220
0
230
1
0
SOLID
5
156
100
AcDbEntity
8
SK2
62
256
6
ByLayer
370
-1
48
1
60
0
100
AcDbTrace
10
142.25
20
10
30
0
11
141.252374
21
14.499996
31
0
12
143.247626
22
14.500004
32
0
13
142.25
23
10
33
0
39
0
210
0
220
0
230
1
0
SOLID
5
157
100
AcDbEntity
8
SK2
62
256
6
ByLayer
370
-1
48
1
60
0
100
AcDbTrace
10
142.25
20
-10
30
0
11
143.247626
21
-14.499996
31
0
12
141.252374
22
-14.500004
32
0
13
142.25
23
-10
33
0
39
0
210
0
220
0
230
1
0
ENDBLK
5
159
100
AcDbEntity
8
0
100
AcDbBlockEnd
0
BLOCK
5
163
100
AcDbEntity
8
0
100
AcDbBlockBegin
2
DimnDraft3D10
70
0
10
0
20
0
30
0
3
DimnDraft3D10
0
MTEXT
5
15C
100
AcDbEntity
8
SK2
62
256
6
ByLayer
370
-1
48
1
60
0
100
AcDbMText
10
172.25
20
3.746053
30
0
210
0
220
0
230
1
1
\W01.000;\fsimplex.shx,bigfont.shx;50 
40
4.5
41
0
44
1.084337
50
90
71
7
72
5
7
DEFAULT
0
MTEXT
5
15D
100
AcDbEntity
8
SK2
62
256
6
ByLayer
370
-1
48
1
60
0
100
AcDbMText
10
172
20
-7.003947
30
0
210
0
220
0
230
1
1
\W01.000;\fsimplex.shx,bigfont.shx;%%c 
40
3.5
41
0
44
1.084337
50
90
71
7
72
5
7
DEFAULT
0
LINE
5
15E
100
AcDbEntity
8
SK2
62
256
6
ByLayer
370
-1
48
1
60
0
100
AcDbLine
10
40.5875
20
25
30
0
11
176.25
21
25
31
0
39
0
210
0
220
0
230
1
0
LINE
5
15F
100
AcDbEntity
8
SK2
62
256
6
ByLayer
370
-1
48
1
60
0
100
AcDbLine
10
40.5875
20
-25
30
0
11
176.25
21
-25
31
0
39
0
210
0
220
0
230
1
0
LINE
5
160
100
AcDbEntity
8
SK2
62
256
6
ByLayer
370
-1
48
1
60
0
100
AcDbLine
10
174.25
20
25
30
0
11
174.25
21
-25
31
0
39
0
210
0
220
0
230
1
0
SOLID
5
161
100
AcDbEntity
8
SK2
62
256
6
ByLayer
370
-1
48
1
60
0
100
AcDbTrace
10
174.25
20
25
30
0
11
175.247626
21
20.500004
31
0
12
173.252374
22
20.499996
32
0
13
174.25
23
25
33
0
39
0
210
0
220
0
230
1
0
SOLID
5
162
100
AcDbEntity
8
SK2
62
256
6
ByLayer
370
-1
48
1
60
0
100
AcDbTrace
10
174.25
20
-25
30
0
11
173.252374
21
-20.500004
31
0
12
175.247626
22
-20.499996
32
0
13
174.25
23
-25
33
0
39
0
210
0
220
0
230
1
0
ENDBLK
5
164
100
AcDbEntity
8
0
100
AcDbBlockEnd
0
ENDSEC
0
SECTION
2
ENTITIES
0
ARC
5
A8
100
AcDbEntity
8
1
62
256
6
ByLayer
370
-1
48
1
60
0
100
AcDbCircle
39
0
10
36.843912
20
24
30
0
40
1
210
0
220
0
230
1
100
AcDbArc
50
20
51
90
0
ARC
5
A9
100
AcDbEntity
8
1
62
256
6
ByLayer
370
-1
48
1
60
0
100
AcDbCircle
39
0
10
36.843912
20
-24
30
0
40
1
210
0
220
0
230
1
100
AcDbArc
50
270
51
340
0
ARC
5
AA
100
AcDbEntity
8
1
62
256
6
ByLayer
370
-1
48
1
60
0
100
AcDbCircle
39
0
10
-40.750519
20
-23.5
30
0
40
2.5
210
0
220
0
230
-1
100
AcDbArc
50
20
51
90
0
ARC
5
AB
100
AcDbEntity
8
1
62
256
6
ByLayer
370
-1
48
1
60
0
100
AcDbCircle
39
0
10
-40.750519
20
23.5
30
0
40
2.5
210
0
220
0
230
-1
100
AcDbArc
50
270
51
340
0
ARC
5
AC
100
AcDbEntity
8
1
62
256
6
ByLayer
370
-1
48
1
60
0
100
AcDbCircle
39
0
10
-2.85
20
-22.6
30
0
40
0.600000000000001
210
0
220
0
230
-1
100
AcDbArc
50
90
51
125.68639
0
ARC
5
AD
100
AcDbEntity
8
1
62
256
6
ByLayer
370
-1
48
1
60
0
100
AcDbCircle
39
0
10
-2.85
20
22.6
30
0
40
0.600000000000001
210
0
220
0
230
-1
100
AcDbArc
50
234.31361
51
270
0
ARC
5
AE
100
AcDbEntity
8
1
62
256
6
ByLayer
370
-1
48
1
60
0
100
AcDbCircle
39
0
10
72.776748
20
1
30
0
40
20
210
0
220
0
230
1
100
AcDbArc
50
83
51
90
0
ARC
5
AF
100
AcDbEntity
8
1
62
256
6
ByLayer
370
-1
48
1
60
0
100
AcDbCircle
39
0
10
72.776748
20
-1
30
0
40
20
210
0
220
0
230
1
100
AcDbArc
50
270
51
277
0
ARC
5
B0
100
AcDbEntity
8
1
62
256
6
ByLayer
370
-1
48
1
60
0
100
AcDbCircle
39
0
10
88.8
20
-17.973777
30
0
40
1.20000000000002
210
0
220
0
230
1
100
AcDbArc
50
277
51
0
0
ARC
5
B1
100
AcDbEntity
8
1
62
256
6
ByLayer
370
-1
48
1
60
0
100
AcDbCircle
39
0
10
88.8
20
17.973777
30
0
40
1.20000000000002
210
0
220
0
230
1
100
AcDbArc
50
0
51
83
0
ARC
5
B2
100
AcDbEntity
8
SK1
62
256
6
ByLayer
370
-1
48
1
60
0
100
AcDbCircle
39
0
10
-67.25
20
11.406204
30
0
40
1
210
0
220
0
230
1
100
AcDbArc
50
98.297917
51
180
0
ARC
5
B3
100
AcDbEntity
8
SK1
62
256
6
ByLayer
370
-1
48
1
60
0
100
AcDbCircle
39
0
10
-67.25
20
-11.406204
30
0
40
1
210
0
220
0
230
1
100
AcDbArc
50
180
51
261.702083
0
POINT
5
41
100
AcDbEntity
8
80
62
256
6
ByLayer
370
-1
48
1
60
0
100
AcDbPoint
10
0
20
0
30
0
39
0
210
0
220
0
230
1
50
360
0
POINT
5
43
100
AcDbEntity
8
81
62
256
6
ByLayer
370
-1
48
1
60
0
100
AcDbPoint
10
90
20
0
30
0
39
0
210
0
220
0
230
1
50
360
0
POINT
5
45
100
AcDbEntity
8
SK2
62
256
6
ByLayer
370
-1
48
1
60
1
100
AcDbPoint
10
0
20
31.75
30
0
39
0
210
0
220
0
230
1
50
360
0
POINT
5
47
100
AcDbEntity
8
SK2
62
256
6
ByLayer
370
-1
48
1
60
1
100
AcDbPoint
10
0
20
-31.75
30
0
39
0
210
0
220
0
230
1
50
360
0
SPLINE
5
B4
100
AcDbEntity
8
1
62
256
6
ByLayer
370
-1
48
1
60
0
100
AcDbSpline
70
4
71
3
72
22
73
18
40
0
40
0
40
0
40
0
40
0.125
40
0.125
40
0.25
40
0.25
40
0.375
40
0.375
40
0.5
40
0.5
40
0.625
40
0.625
40
0.75
40
0.75
40
0.875
40
0.875
40
1
40
1
40
1
40
1
41
1
10
19.05
20
-29.6653581640277
30
0
41
1
10
19.05
20
-29.7317571868429
30
0
41
1
10
19.0437102235589
20
-29.799160434914
30
0
41
1
10
19.0190257827771
20
-29.9297890567901
30
0
41
1
10
19.0007458649612
20
-29.9934435552389
30
0
41
1
10
18.9521166095344
20
-30.1173786897989
30
0
41
1
10
18.9215378361696
20
-30.1777202259168
30
0
41
1
10
18.8505506554587
20
-30.289699749901
30
0
41
1
10
18.8099213778235
20
-30.3420514969522
30
0
41
1
10
18.7179062765494
20
-30.4391352757284
30
0
41
1
10
18.6671012870779
20
-30.4830726218439
30
0
41
1
10
18.5588475307271
20
-30.5593619950623
30
0
41
1
10
18.5007308452276
20
-30.5922670493733
30
0
41
1
10
18.3777071864786
20
-30.6460352121594
30
0
41
1
10
18.313925622421
20
-30.6664482264677
30
0
41
1
10
18.1824084594081
20
-30.6939478935581
30
0
41
1
10
18.1163494912671
20
-30.7007080537241
30
0
41
1
10
18.05
20
-30.7007080537241
30
0
0
SPLINE
5
B5
100
AcDbEntity
8
1
62
256
6
ByLayer
370
-1
48
1
60
0
100
AcDbSpline
70
4
71
3
72
8
73
4
40
0
40
0
40
0
40
0
40
1
40
1
40
1
40
1
41
1
10
14.6218366420567
20
30.7007080537241
30
0
41
1
10
14.0882030330967
20
29.7448373759257
30
0
41
1
10
13.5557864775559
20
28.7882719402275
30
0
41
1
10
13.025
20
27.8308227937021
30
0
0
SPLINE
5
B6
100
AcDbEntity
8
1
62
256
6
ByLayer
370
-1
48
1
60
0
100
AcDbSpline
70
4
71
3
72
22
73
18
40
0
40
0
40
0
40
0
40
0.125
40
0.125
40
0.25
40
0.25
40
0.375
40
0.375
40
0.5
40
0.5
40
0.625
40
0.625
40
0.75
40
0.75
40
0.875
40
0.875
40
1
40
1
40
1
40
1
41
1
10
20.05
20
-23.6531387980538
30
0
41
1
10
19.9821437683643
20
-23.6531387980538
30
0
41
1
10
19.9155332667366
20
-23.6603631040084
30
0
41
1
10
19.7846854516903
20
-23.6885744394635
30
0
41
1
10
19.7197562622465
20
-23.7099550654403
30
0
41
1
10
19.5972632298394
20
-23.7650165789742
30
0
41
1
10
19.5393673206288
20
-23.798590923296
30
0
41
1
10
19.4301598535201
20
-23.877615998437
30
0
41
1
10
19.3794459246375
20
-23.9228133278022
30
0
41
1
10
19.2886063012597
20
-24.0211435064016
30
0
41
1
10
19.2477020026571
20
-24.0750572319764
30
0
41
1
10
19.1767310081602
20
-24.1899180487469
30
0
41
1
10
19.1471091953407
20
-24.2499596562502
30
0
41
1
10
19.099065258998
20
-24.3750302847456
30
0
41
1
10
19.0805931514951
20
-24.4406422278472
30
0
41
1
10
19.0561623640482
20
-24.5729886617788
30
0
41
1
10
19.05
20
-24.6399490543056
30
0
41
1
10
19.05
20
-24.70771084095
30
0
0
SPLINE
5
B7
100
AcDbEntity
8
1
62
256
6
ByLayer
370
-1
48
1
60
0
100
AcDbSpline
70
4
71
3
72
24
73
20
40
0
40
0
40
0
40
0
40
0.250000000000008
40
0.250000000000008
40
0.375000000000009
40
0.375000000000009
40
0.50000000000001
40
0.50000000000001
40
0.625000000000011
40
0.625000000000011
40
0.68750000000001
40
0.68750000000001
40
0.750000000000009
40
0.750000000000009
40
0.875000000000005
40
0.875000000000005
40
0.937500000000002
40
0.937500000000002
40
1
40
1
40
1
40
1
41
1
10
3.19999999999999
20
24.6746833819605
30
0
41
1
10
3.19999999999999
20
24.8224319091937
30
0
41
1
10
3.22042019854391
20
24.9668119769603
30
0
41
1
10
3.28379898616916
20
25.1779799783182
30
0
41
1
10
3.31060847021161
20
25.2473248273178
30
0
41
1
10
3.37457108623511
20
25.3789455184171
30
0
41
1
10
3.41186880045444
20
25.4418611580014
30
0
41
1
10
3.49858443806966
20
25.5610931593058
30
0
41
1
10
3.54774390533333
20
25.6167978411617
30
0
41
1
10
3.62865536975949
20
25.6910688536878
30
0
41
1
10
3.65692590125514
20
25.7144088240541
30
0
41
1
10
3.71628163879183
20
25.7580207986444
30
0
41
1
10
3.74757709319911
20
25.7783910710132
30
0
41
1
10
3.84356486786356
20
25.832973766503
30
0
41
1
10
3.91080464214869
20
25.8612163467265
30
0
41
1
10
4.01694324936526
20
25.890340476746
30
0
41
1
10
4.05353541823672
20
25.8978547360975
30
0
41
1
10
4.12678122474168
20
25.9077744644654
30
0
41
1
10
4.16339505781175
20
25.9102296400476
30
0
41
1
10
4.19999999999999
20
25.9102296400476
30
0
0
SPLINE
5
B8
100
AcDbEntity
8
1
62
256
6
ByLayer
370
-1
48
1
60
0
100
AcDbSpline
70
4
71
3
72
8
73
4
40
0
40
0
40
0
40
0
40
1
40
1
40
1
40
1
41
1
10
19.0512101239964
20
18.35
30
0
41
1
10
19.0504040141769
20
18.3731518038286
30
0
41
1
10
19.05
20
18.3963211302163
30
0
41
1
10
19.05
20
18.4194869635395
30
0
0
SPLINE
5
B9
100
AcDbEntity
8
1
62
256
6
ByLayer
370
-1
48
1
60
0
100
AcDbSpline
70
4
71
3
72
8
73
4
40
0
40
0
40
0
40
0
40
1
40
1
40
1
40
1
41
1
10
14.6218366420567
20
-30.7007080537241
30
0
41
1
10
14.0881983092952
20
-29.7448289144208
30
0
41
1
10
13.5557797833464
20
-28.7882598650044
30
0
41
1
10
13.025
20
-27.8308227937021
30
0
0
SPLINE
5
BA
100
AcDbEntity
8
1
62
256
6
ByLayer
370
-1
48
1
60
0
100
AcDbSpline
70
4
71
3
72
116
73
112
40
-0.0312500000000003
40
-0.0312500000000003
40
0
40
0
40
0.0312499999999979
40
0.0312499999999979
40
0.0624999999999958
40
0.0624999999999958
40
0.0781249999999948
40
0.0781249999999948
40
0.0937499999999937
40
0.0937499999999937
40
0.124999999999992
40
0.124999999999992
40
0.140624999999991
40
0.140624999999991
40
0.15624999999999
40
0.15624999999999
40
0.187499999999987
40
0.187499999999987
40
0.203124999999986
40
0.203124999999986
40
0.218749999999985
40
0.218749999999985
40
0.234374999999984
40
0.234374999999984
40
0.249999999999982
40
0.249999999999982
40
0.265624999999981
40
0.265624999999981
40
0.273437499999981
40
0.273437499999981
40
0.28124999999998
40
0.28124999999998
40
0.31249999999998
40
0.31249999999998
40
0.32812499999998
40
0.32812499999998
40
0.34374999999998
40
0.34374999999998
40
0.35937499999998
40
0.35937499999998
40
0.36718749999998
40
0.36718749999998
40
0.37499999999998
40
0.37499999999998
40
0.406249999999981
40
0.406249999999981
40
0.421874999999981
40
0.421874999999981
40
0.437499999999982
40
0.437499999999982
40
0.468749999999984
40
0.468749999999984
40
0.484374999999985
40
0.484374999999985
40
0.499999999999985
40
0.499999999999985
40
0.531249999999986
40
0.531249999999986
40
0.546874999999987
40
0.546874999999987
40
0.554687499999987
40
0.554687499999987
40
0.562499999999987
40
0.562499999999987
40
0.593749999999988
40
0.593749999999988
40
0.609374999999989
40
0.609374999999989
40
0.624999999999989
40
0.624999999999989
40
0.65624999999999
40
0.65624999999999
40
0.671874999999991
40
0.671874999999991
40
0.687499999999991
40
0.687499999999991
40
0.718749999999993
40
0.718749999999993
40
0.726562499999994
40
0.726562499999994
40
0.734374999999994
40
0.734374999999994
40
0.749999999999996
40
0.749999999999996
40
0.765624999999996
40
0.765624999999996
40
0.773437499999996
40
0.773437499999996
40
0.781249999999997
40
0.781249999999997
40
0.812499999999997
40
0.812499999999997
40
0.828124999999998
40
0.828124999999998
40
0.843749999999998
40
0.843749999999998
40
0.859374999999998
40
0.859374999999998
40
0.874999999999998
40
0.874999999999998
40
0.906249999999999
40
0.906249999999999
40
0.921874999999999
40
0.921874999999999
40
0.937499999999999
40
0.937499999999999
40
0.953124999999999
40
0.953124999999999
40
0.96875
40
0.96875
40
1
40
1
40
1.03125
40
1.03125
41
1
10
25.75
20
-22.3689735770985
30
0
41
1
10
25.75
20
-22.0269721837477
30
0
41
1
10
25.7808118367498
20
-21.8516038646981
30
0
41
1
10
25.897169414056
20
-21.4928356821103
30
0
41
1
10
25.982758080953
20
-21.3094312274767
30
0
41
1
10
26.1518430597583
20
-21.0291187891908
30
0
41
1
10
26.2152014910297
20
-20.9345912722457
30
0
41
1
10
26.3553665736649
20
-20.7449833198463
30
0
41
1
10
26.4315098401822
20
-20.65075765397
30
0
41
1
10
26.6778460022029
20
-20.370262601346
30
0
41
1
10
26.8657376530849
20
-20.1861018942244
30
0
41
1
10
27.1854982948819
20
-19.9169915079185
30
0
41
1
10
27.2984535378123
20
-19.8284923204688
30
0
41
1
10
27.5382379394257
20
-19.654655296318
30
0
41
1
10
27.6639063242046
20
-19.570194465134
30
0
41
1
10
28.0565632918572
20
-19.3270148649863
30
0
41
1
10
28.3398982392076
20
-19.1775783779899
30
0
41
1
10
28.803818344975
20
-18.9800382770534
30
0
41
1
10
28.9654302284705
20
-18.9186435238087
30
0
41
1
10
29.2949597461164
20
-18.8094121915628
30
0
41
1
10
29.4637751307593
20
-18.7611493882127
30
0
41
1
10
29.8101048343194
20
-18.6787323988437
30
0
41
1
10
29.98761576778
20
-18.6445730359237
30
0
41
1
10
30.3522783770783
20
-18.5922501732288
30
0
41
1
10
30.535239695257
20
-18.5747197064666
30
0
41
1
10
30.9014476012168
20
-18.5569770849292
30
0
41
1
10
31.0848536389218
20
-18.5567423394031
30
0
41
1
10
31.3604202104996
20
-18.5694721331936
30
0
41
1
10
31.4523521023057
20
-18.5758976292735
30
0
41
1
10
31.6363708079591
20
-18.5931586391863
30
0
41
1
10
31.7284705047993
20
-18.6040190375094
30
0
41
1
10
32.1819944515331
20
-18.6682298008096
30
0
41
1
10
32.5287447680452
20
-18.7515094612535
30
0
41
1
10
33.0277555523022
20
-18.9161272110854
30
0
41
1
10
33.1880433930809
20
-18.9768571479792
30
0
41
1
10
33.4959817817426
20
-19.1074266755417
30
0
41
1
10
33.6439810723101
20
-19.1773897198841
30
0
41
1
10
33.929090105528
20
-19.3253185310103
30
0
41
1
10
34.0661960555891
20
-19.4032881304753
30
0
41
1
10
34.2641303463912
20
-19.5255128013299
30
0
41
1
10
34.3289341612828
20
-19.5672191997514
30
0
41
1
10
34.454846730112
20
-19.6515023116912
30
0
41
1
10
34.5160843054314
20
-19.6941522371341
30
0
41
1
10
34.8140934775844
20
-19.9096538707997
30
0
41
1
10
35.026625864835
20
-20.0891356568017
30
0
41
1
10
35.3105374469153
20
-20.3651902095549
30
0
41
1
10
35.3993020016819
20
-20.4583718935429
30
0
41
1
10
35.5651201539336
20
-20.6466699174982
30
0
41
1
10
35.6420342313054
20
-20.7417077256121
30
0
41
1
10
35.8515772356646
20
-21.0244594624021
30
0
41
1
10
35.9646545176185
20
-21.2113809218543
30
0
41
1
10
36.0944024258772
20
-21.488137136812
30
0
41
1
10
36.130960336625
20
-21.5797915309133
30
0
41
1
10
36.1901215778256
20
-21.7617629535306
30
0
41
1
10
36.2126690476976
20
-21.8521984731513
30
0
41
1
10
36.2574700939512
20
-22.1162802378456
30
0
41
1
10
36.2577484039918
20
-22.2844341082228
30
0
41
1
10
36.2118091833094
20
-22.5250398147826
30
0
41
1
10
36.1887247176963
20
-22.6033026347834
30
0
41
1
10
36.1417288858271
20
-22.7178032675465
30
0
41
1
10
36.1239985312072
20
-22.7554877916361
30
0
41
1
10
36.0842405533515
20
-22.8298935796753
30
0
41
1
10
36.0621780710927
20
-22.8666405982052
30
0
41
1
10
35.9422259785377
20
-23.0458195781292
30
0
41
1
10
35.814803626082
20
-23.1764323890899
30
0
41
1
10
35.5750346162963
20
-23.3554711442162
30
0
41
1
10
35.4869590711902
20
-23.4123272616252
30
0
41
1
10
35.2936140109905
20
-23.5206501593255
30
0
41
1
10
35.187592899445
20
-23.572393837439
30
0
41
1
10
34.8497688655685
20
-23.7165917956997
30
0
41
1
10
34.5975931531293
20
-23.7989484055413
30
0
41
1
10
34.1783687058758
20
-23.9053944932108
30
0
41
1
10
34.0317287887925
20
-23.9380111608451
30
0
41
1
10
33.7240900400858
20
-23.9978174061644
30
0
41
1
10
33.5660274781634
20
-24.0244417906595
30
0
41
1
10
33.0795085871336
20
-24.0956364628028
30
0
41
1
10
32.7388586999772
20
-24.1316560595129
30
0
41
1
10
32.2919433052646
20
-24.1641223896767
30
0
41
1
10
32.2014348449306
20
-24.1699753963868
30
0
41
1
10
32.0205407863304
20
-24.1802939391216
30
0
41
1
10
31.9298755894619
20
-24.1847815437132
30
0
41
1
10
31.6572366683595
20
-24.1963091299307
30
0
41
1
10
31.4746214482184
20
-24.2014235200694
30
0
41
1
10
31.1076929082595
20
-24.2066930453745
30
0
41
1
10
30.9233796926732
20
-24.2068484882223
30
0
41
1
10
30.6456014966281
20
-24.2032634232413
30
0
41
1
10
30.5525152123642
20
-24.2014201526781
30
0
41
1
10
30.3678609166826
20
-24.1964683493305
30
0
41
1
10
30.276175803126
20
-24.1933624872764
30
0
41
1
10
29.8208974803505
20
-24.1746919658369
30
0
41
1
10
29.4666391187692
20
-24.1498910562464
30
0
41
1
10
28.9503182231511
20
-24.0957944536837
30
0
41
1
10
28.7804593705439
20
-24.0748207653568
30
0
41
1
10
28.4539896882097
20
-24.0276557466055
30
0
41
1
10
28.2963174906176
20
-24.0013707174811
30
0
41
1
10
27.9918617243255
20
-23.9429553356829
30
0
41
1
10
27.8450788757653
20
-23.9108256557021
30
0
41
1
10
27.5625084181347
20
-23.8400471931447
30
0
41
1
10
27.4262189872192
20
-23.8011867347441
30
0
41
1
10
27.0428474623778
20
-23.6764246220391
30
0
41
1
10
26.8181854037569
20
-23.5818536017634
30
0
41
1
10
26.5255477061855
20
-23.4199792128268
30
0
41
1
10
26.43504376974
20
-23.3623275373822
30
0
41
1
10
26.2719621209118
20
-23.2418245780615
30
0
41
1
10
26.1991393352666
20
-23.1789328745088
30
0
41
1
10
26.0700345804998
20
-23.0476537191928
30
0
41
1
10
26.0137553241169
20
-22.9792664033101
30
0
41
1
10
25.9172979624391
20
-22.836723300135
30
0
41
1
10
25.8770378035468
20
-22.7623576268481
30
0
41
1
10
25.7809143313512
20
-22.5315419326316
30
0
41
1
10
25.75
20
-22.3689735770985
30
0
41
1
10
25.75
20
-22.0269721837477
30
0
0
SPLINE
5
BB
100
AcDbEntity
8
1
62
256
6
ByLayer
370
-1
48
1
60
0
100
AcDbSpline
70
4
71
3
72
10
73
6
40
0
40
0
40
0
40
0
40
0.499999999999999
40
0.499999999999999
40
1
40
1
40
1
40
1
41
1
10
4.19999999999999
20
-30.7007080537241
30
0
41
1
10
4.11198462162758
20
-30.7007080537241
30
0
41
1
10
4.02380634291555
20
-30.6885177563288
30
0
41
1
10
3.85538296873926
20
-30.641536085239
30
0
41
1
10
3.77551825630931
20
-30.6072380299748
30
0
41
1
10
3.69999999999999
20
-30.5621340441525
30
0
0
SPLINE
5
BC
100
AcDbEntity
8
1
62
256
6
ByLayer
370
-1
48
1
60
0
100
AcDbSpline
70
4
71
3
72
8
73
4
40
0
40
0
40
0
40
0
40
1
40
1
40
1
40
1
41
1
10
7.57816335794328
20
25.9102296400476
30
0
41
1
10
8.12136720141484
20
24.7573182519451
30
0
41
1
10
8.65506910506031
20
23.5991093499129
30
0
41
1
10
9.17499999999998
20
22.4357131015363
30
0
0
SPLINE
5
BD
100
AcDbEntity
8
1
62
256
6
ByLayer
370
-1
48
1
60
0
100
AcDbSpline
70
4
71
3
72
88
73
84
40
-0.0312500000000004
40
-0.0312500000000004
40
0
40
0
40
0.0312499999999993
40
0.0312499999999993
40
0.0468749999999991
40
0.0468749999999991
40
0.062499999999999
40
0.062499999999999
40
0.0937499999999983
40
0.0937499999999983
40
0.124999999999998
40
0.124999999999998
40
0.156249999999997
40
0.156249999999997
40
0.171874999999997
40
0.171874999999997
40
0.187499999999997
40
0.203124999999997
40
0.203124999999997
40
0.218749999999996
40
0.218749999999996
40
0.249999999999996
40
0.249999999999996
40
0.281249999999996
40
0.281249999999996
40
0.312499999999996
40
0.312499999999996
40
0.328124999999996
40
0.328124999999996
40
0.343749999999996
40
0.343749999999996
40
0.374999999999996
40
0.374999999999996
40
0.406249999999996
40
0.406249999999996
40
0.421874999999996
40
0.421874999999996
40
0.437499999999996
40
0.437499999999996
40
0.468749999999996
40
0.468749999999996
40
0.499999999999997
40
0.499999999999997
40
0.531249999999998
40
0.531249999999998
40
0.546874999999998
40
0.546874999999998
40
0.562499999999998
40
0.578124999999998
40
0.578124999999998
40
0.593749999999998
40
0.593749999999998
40
0.624999999999999
40
0.624999999999999
40
0.65625
40
0.65625
40
0.6875
40
0.6875
40
0.703125
40
0.703125
40
0.71875
40
0.71875
40
0.75
40
0.75
40
0.781250000000001
40
0.781250000000001
40
0.796875
40
0.796875
40
0.8125
40
0.8125
40
0.84375
40
0.84375
40
0.874999999999999
40
0.874999999999999
40
0.906249999999999
40
0.906249999999999
40
0.921874999999999
40
0.921874999999999
40
0.937499999999999
40
0.937499999999999
40
0.96875
40
0.96875
40
1
40
1
40
1.03125
40
1.03125
41
1
10
10.9843563513442
20
24.8174752872808
30
0
41
1
10
11.2156436486558
20
24.8174752872808
30
0
41
1
10
11.3293491684152
20
24.8227471490825
30
0
41
1
10
11.4971204471595
20
24.8381831047633
30
0
41
1
10
11.5525762600459
20
24.8445914395881
30
0
41
1
10
11.6625309730753
20
24.8599690214735
30
0
41
1
10
11.7171731768741
20
24.868980449788
30
0
41
1
10
11.8761093787396
20
24.8992596327853
30
0
41
1
10
11.97661348946
20
24.9238728597803
30
0
41
1
10
12.1668218068396
20
24.9815640309813
30
0
41
1
10
12.2568581688324
20
25.0149327136416
30
0
41
1
10
12.4182488104059
20
25.0871114491281
30
0
41
1
10
12.4906794030909
20
25.1261807689408
30
0
41
1
10
12.5866287489616
20
25.1890886314435
30
0
41
1
10
12.6164109734125
20
25.2107648381408
30
0
41
1
10
12.6703947985747
20
25.2545683334018
30
0
41
1
10
12.7191699331361
20
25.29905489286
30
0
41
1
10
12.757680702436
20
25.3448168451233
30
0
41
1
10
12.7909867711997
20
25.391196003715
30
0
41
1
10
12.8050924206389
20
25.4148216100003
30
0
41
1
10
12.8388150707852
20
25.4856231667105
30
0
41
1
10
12.8499384411518
20
25.5324547958975
30
0
41
1
10
12.8500610541426
20
25.6253262964868
30
0
41
1
10
12.8386987382712
20
25.6718352668091
30
0
41
1
10
12.7940503878632
20
25.7606323351404
30
0
41
1
10
12.7610148646662
20
25.8031760426562
30
0
41
1
10
12.6952997643071
20
25.8643500761877
30
0
41
1
10
12.6705207501631
20
25.8844011373863
30
0
41
1
10
12.616353191525
20
25.9229000608705
30
0
41
1
10
12.5869537734544
20
25.9413944429035
30
0
41
1
10
12.491972067968
20
25.9947280648972
30
0
41
1
10
12.4196729410456
20
26.0274361635577
30
0
41
1
10
12.2563942186081
20
26.0873099610216
30
0
41
1
10
12.1679154246028
20
26.1135472896805
30
0
41
1
10
12.0258150931233
20
26.1477019635575
30
0
41
1
10
11.9768475525364
20
26.1582221135844
30
0
41
1
10
11.8756396767081
20
26.177537360358
30
0
41
1
10
11.8231847705582
20
26.1863538344254
30
0
41
1
10
11.6641754818039
20
26.2096831530587
30
0
41
1
10
11.5550944836564
20
26.2213150868293
30
0
41
1
10
11.3308454465806
20
26.2370301905237
30
0
41
1
10
11.2148456871712
20
26.2410391673803
30
0
41
1
10
10.9864107402863
20
26.2410678298878
30
0
41
1
10
10.8728759625123
20
26.2372174832458
30
0
41
1
10
10.7036195935303
20
26.2254649979384
30
0
41
1
10
10.6473587764642
20
26.220526197049
30
0
41
1
10
10.5376759355204
20
26.2088276372552
30
0
41
1
10
10.4301881243445
20
26.1952711371015
30
0
41
1
10
10.3270174509547
20
26.1780005025831
30
0
41
1
10
10.2260313272703
20
26.1588131563076
30
0
41
1
10
10.1763923604878
20
26.1482022779478
30
0
41
1
10
10.0326799146982
20
26.1137493479662
30
0
41
1
10
9.94451170368413
20
26.0875506442193
30
0
41
1
10
9.78301181199083
20
26.0285101559431
30
0
41
1
10
9.70906245171395
20
25.9952468216705
30
0
41
1
10
9.58182043110088
20
25.923922127721
30
0
41
1
10
9.52799826501786
20
25.8858144424601
30
0
41
1
10
9.46202639082031
20
25.8247323436822
30
0
41
1
10
9.44242936935885
20
25.8035907485551
30
0
41
1
10
9.40896754611504
20
25.7606613354162
30
0
41
1
10
9.39505259730257
20
25.7388693780923
30
0
41
1
10
9.36154716013957
20
25.6725029236475
30
0
41
1
10
9.35011585310747
20
25.6269434654964
30
0
41
1
10
9.34988588204354
20
25.533019588997
30
0
41
1
10
9.36115329663036
20
25.4859587643691
30
0
41
1
10
9.39434993921694
20
25.4158612454358
30
0
41
1
10
9.40815142999986
20
25.3925464582894
30
0
41
1
10
9.44133648832707
20
25.3460431422854
30
0
41
1
10
9.46084042104002
20
25.3227528952625
30
0
41
1
10
9.52664377086185
20
25.2545450248767
30
0
41
1
10
9.58033058680078
20
25.210898922685
30
0
41
1
10
9.70707017077629
20
25.1275123924204
30
0
41
1
10
9.78090112724371
20
25.0875401403201
30
0
41
1
10
9.94226026036756
20
25.0152789784516
30
0
41
1
10
10.0302621631543
20
24.9825562742146
30
0
41
1
10
10.1734711795072
20
24.9389606687257
30
0
41
1
10
10.2231919707327
20
24.9253425229875
30
0
41
1
10
10.3242386380117
20
24.900600271981
30
0
41
1
10
10.3758211630752
20
24.8893907762252
30
0
41
1
10
10.5336933176592
20
24.8592417384762
30
0
41
1
10
10.6435537973904
20
24.8437069612296
30
0
41
1
10
10.8699414894856
20
24.8227480580323
30
0
41
1
10
10.9843563513442
20
24.8174752872808
30
0
41
1
10
11.2156436486558
20
24.8174752872808
30
0
0
SPLINE
5
BE
100
AcDbEntity
8
1
62
256
6
ByLayer
370
-1
48
1
60
0
100
AcDbSpline
70
4
71
3
72
8
73
4
40
0
40
0
40
0
40
0
40
1
40
1
40
1
40
1
41
1
10
7.57816335794328
20
18.35
30
0
41
1
10
8.12136720141484
20
18.35
30
0
41
1
10
8.65506910506031
20
18.35
30
0
41
1
10
9.17499999999998
20
18.35
30
0
0
SPLINE
5
BF
100
AcDbEntity
8
1
62
256
6
ByLayer
370
-1
48
1
60
0
100
AcDbSpline
70
4
71
3
72
24
73
20
40
0
40
0
40
0
40
0
40
0.25
40
0.25
40
0.375000000000003
40
0.375000000000003
40
0.500000000000005
40
0.500000000000005
40
0.625000000000008
40
0.625000000000008
40
0.687500000000008
40
0.687500000000008
40
0.750000000000007
40
0.750000000000007
40
0.875000000000003
40
0.875000000000003
40
0.937500000000001
40
0.937500000000001
40
1
40
1
40
1
40
1
41
1
10
3.19999499949998
20
18.35
30
0
41
1
10
3.2000050005
20
18.35
30
0
41
1
10
3.22042019854391
20
18.35
30
0
41
1
10
3.28379898616916
20
18.35
30
0
41
1
10
3.31060847021161
20
18.35
30
0
41
1
10
3.37457108623511
20
18.35
30
0
41
1
10
3.41186880045444
20
18.35
30
0
41
1
10
3.49858443806966
20
18.35
30
0
41
1
10
3.54774390533333
20
18.35
30
0
41
1
10
3.62865536975949
20
18.35
30
0
41
1
10
3.65692590125516
20
18.35
30
0
41
1
10
3.71628163879183
20
18.35
30
0
41
1
10
3.74757709319911
20
18.35
30
0
41
1
10
3.84356486786356
20
18.35
30
0
41
1
10
3.91080464214869
20
18.35
30
0
41
1
10
4.01694324936526
20
18.35
30
0
41
1
10
4.05353541823672
20
18.35
30
0
41
1
10
4.12678122474168
20
18.35
30
0
41
1
10
4.16339505781175
20
18.35
30
0
41
1
10
4.19999999999999
20
18.35
30
0
0
SPLINE
5
C0
100
AcDbEntity
8
1
62
256
6
ByLayer
370
-1
48
1
60
0
100
AcDbSpline
70
4
71
3
72
8
73
4
40
0
40
0
40
0
40
0
40
1
40
1
40
1
40
1
41
1
10
13.025
20
22.4357131015363
30
0
41
1
10
13.5449308949397
20
23.5991093499129
30
0
41
1
10
14.0786327985852
20
24.7573182519451
30
0
41
1
10
14.6218366420567
20
25.9102296400476
30
0
0
SPLINE
5
C1
100
AcDbEntity
8
1
62
256
6
ByLayer
370
-1
48
1
60
0
100
AcDbSpline
70
4
71
3
72
26
73
22
40
0
40
0
40
0
40
0
40
0.276606722875354
40
0.276606722875354
40
0.457455042156516
40
0.457455042156516
40
0.638303361437679
40
0.638303361437679
40
0.728727521078259
40
0.728727521078259
40
0.81915168071884
40
0.81915168071884
40
0.86436376053913
40
0.86436376053913
40
0.909575840359421
40
0.909575840359421
40
0.954787920179712
40
0.954787920179712
40
0.977393960089856
40
0.977393960089856
40
1
40
1
40
1
40
1
41
1
10
19.1376940000068
20
24.8
30
0
41
1
10
19.1717084271062
20
24.8
30
0
41
1
10
19.2147001671245
20
24.8
30
0
41
1
10
19.2997284059068
20
24.8
30
0
41
1
10
19.3370040711197
20
24.8
30
0
41
1
10
19.4200892275766
20
24.8
30
0
41
1
10
19.4657643768019
20
24.8
30
0
41
1
10
19.5438367628684
20
24.8
30
0
41
1
10
19.5714652051915
20
24.8
30
0
41
1
10
19.6315424905253
20
24.8
30
0
41
1
10
19.6638564951046
20
24.8
30
0
41
1
10
19.718788350437
20
24.8
30
0
41
1
10
19.7381713151407
20
24.8
30
0
41
1
10
19.7803305701266
20
24.8
30
0
41
1
10
19.8030651840139
20
24.8
30
0
41
1
10
19.8544454366926
20
24.8
30
0
41
1
10
19.8830220710916
20
24.8
30
0
41
1
10
19.9359257266771
20
24.8
30
0
41
1
10
19.9554253564602
20
24.8
30
0
41
1
10
19.9994514621469
20
24.8
30
0
41
1
10
20.0243413260251
20
24.8
30
0
41
1
10
20.05
20
24.8
30
0
0
SPLINE
5
C2
100
AcDbEntity
8
1
62
256
6
ByLayer
370
-1
48
1
60
0
100
AcDbSpline
70
4
71
3
72
8
73
4
40
0
40
0
40
0
40
0
40
1
40
1
40
1
40
1
41
1
10
13.025
20
18.35
30
0
41
1
10
13.5449308949397
20
18.35
30
0
41
1
10
14.0786327985852
20
18.35
30
0
41
1
10
14.6218366420567
20
18.35
30
0
0
SPLINE
5
C3
100
AcDbEntity
8
1
62
256
6
ByLayer
370
-1
48
1
60
0
100
AcDbSpline
70
4
71
3
72
22
73
18
40
0
40
0
40
0
40
0
40
0.125
40
0.125
40
0.25
40
0.25
40
0.375
40
0.375
40
0.5
40
0.5
40
0.625
40
0.625
40
0.75
40
0.75
40
0.875
40
0.875
40
1
40
1
40
1
40
1
41
1
10
19.05
20
29.6653581640269
30
0
41
1
10
19.05
20
29.7322817245581
30
0
41
1
10
19.0436986834311
20
29.7991602572894
30
0
41
1
10
19.0191053043989
20
29.9294293113193
30
0
41
1
10
19.0007869685565
20
29.9934454554049
30
0
41
1
10
18.9516257194308
20
30.1185221216883
30
0
41
1
10
18.9215273834479
20
30.1777363686946
30
0
41
1
10
18.8505642168262
20
30.2896787033399
30
0
41
1
10
18.809213890124
20
30.3428968627012
30
0
41
1
10
18.71717530517
20
30.4398060481941
30
0
41
1
10
18.6670211601125
20
30.4831534332136
30
0
41
1
10
18.5584373506011
20
30.5596266062832
30
0
41
1
10
18.4993187835205
20
30.5929529338061
30
0
41
1
10
18.3774025929874
20
30.6460986263796
30
0
41
1
10
18.3142597034885
20
30.6663271500215
30
0
41
1
10
18.1834928526507
20
30.6937718206114
30
0
41
1
10
18.1163378144821
20
30.7007080537241
30
0
41
1
10
18.05
20
30.7007080537241
30
0
0
SPLINE
5
C4
100
AcDbEntity
8
1
62
256
6
ByLayer
370
-1
48
1
60
0
100
AcDbSpline
70
4
71
3
72
88
73
84
40
-0.0312499999999996
40
-0.0312499999999996
40
0
40
0
40
0.0312500000000002
40
0.0312500000000002
40
0.0468750000000005
40
0.0468750000000005
40
0.0625000000000008
40
0.0625000000000008
40
0.0937500000000012
40
0.0937500000000012
40
0.125000000000002
40
0.125000000000002
40
0.156250000000002
40
0.156250000000002
40
0.171875000000002
40
0.171875000000002
40
0.187500000000002
40
0.203125000000002
40
0.203125000000002
40
0.218750000000001
40
0.218750000000001
40
0.250000000000002
40
0.250000000000002
40
0.281250000000002
40
0.281250000000002
40
0.312500000000002
40
0.312500000000002
40
0.328125000000002
40
0.328125000000002
40
0.343750000000002
40
0.343750000000002
40
0.375000000000002
40
0.375000000000002
40
0.406250000000002
40
0.406250000000002
40
0.421875000000003
40
0.421875000000003
40
0.437500000000003
40
0.437500000000003
40
0.468750000000003
40
0.468750000000003
40
0.500000000000003
40
0.500000000000003
40
0.531250000000004
40
0.531250000000004
40
0.546875000000004
40
0.546875000000004
40
0.562500000000004
40
0.578125000000004
40
0.578125000000004
40
0.593750000000004
40
0.593750000000004
40
0.625000000000004
40
0.625000000000004
40
0.656250000000004
40
0.656250000000004
40
0.687500000000004
40
0.687500000000004
40
0.703125000000004
40
0.703125000000004
40
0.718750000000004
40
0.718750000000004
40
0.750000000000003
40
0.750000000000003
40
0.781250000000003
40
0.781250000000003
40
0.796875000000002
40
0.796875000000002
40
0.812500000000002
40
0.812500000000002
40
0.843750000000002
40
0.843750000000002
40
0.875000000000002
40
0.875000000000002
40
0.906250000000001
40
0.906250000000001
40
0.921875000000001
40
0.921875000000001
40
0.937500000000001
40
0.937500000000001
40
0.96875
40
0.96875
40
1
40
1
40
1.03125
40
1.03125
41
1
10
10.9843563513442
20
22.1890820961482
30
0
41
1
10
11.2156436486558
20
22.1890820961481
30
0
41
1
10
11.3293491684152
20
22.1960237447844
30
0
41
1
10
11.4971204471595
20
22.2163710702476
30
0
41
1
10
11.5525762600459
20
22.2248207236658
30
0
41
1
10
11.6625309730753
20
22.2451097950644
30
0
41
1
10
11.7171731768741
20
22.2570050126766
30
0
41
1
10
11.8761093787396
20
22.2970069325408
30
0
41
1
10
11.97661348946
20
22.329560909395
30
0
41
1
10
12.1668218068396
20
22.4060543504099
30
0
41
1
10
12.2568581688324
20
22.4503830457539
30
0
41
1
10
12.4182488104059
20
22.5465680324487
30
0
41
1
10
12.4906794030909
20
22.5987661456452
30
0
41
1
10
12.5866287489616
20
22.6831242173793
30
0
41
1
10
12.6164109734125
20
22.7122408318623
30
0
41
1
10
12.6703947985747
20
22.7711921456149
30
0
41
1
10
12.7191699331361
20
22.8311723064249
30
0
41
1
10
12.757680702436
20
22.8931161539175
30
0
41
1
10
12.7909867711997
20
22.9560290921333
30
0
41
1
10
12.8050924206389
20
22.9881438394085
30
0
41
1
10
12.8388150707852
20
23.0846012172251
30
0
41
1
10
12.8499384411518
20
23.1486869544812
30
0
41
1
10
12.8500610541426
20
23.276366017158
30
0
41
1
10
12.8386987382712
20
23.3406138469027
30
0
41
1
10
12.7940503878632
20
23.4638630916404
30
0
41
1
10
12.7610148646662
20
23.5232092932078
30
0
41
1
10
12.6952997643071
20
23.6089339519578
30
0
41
1
10
12.6705207501631
20
23.637100906338
30
0
41
1
10
12.616353191525
20
23.6913056116455
30
0
41
1
10
12.5869537734544
20
23.7174077422888
30
0
41
1
10
12.491972067968
20
23.7928411728006
30
0
41
1
10
12.4196729410456
20
23.8393252301016
30
0
41
1
10
12.2563942186081
20
23.9247266122549
30
0
41
1
10
12.1679154246028
20
23.9623182116997
30
0
41
1
10
12.0258150931233
20
24.0113864321885
30
0
41
1
10
11.9768475525364
20
24.0265261857389
30
0
41
1
10
11.8756396767081
20
24.0543582990772
30
0
41
1
10
11.8231847705582
20
24.0670816807546
30
0
41
1
10
11.6641754818039
20
24.1007830473641
30
0
41
1
10
11.5550944836564
20
24.117634338602
30
0
41
1
10
11.3308454465806
20
24.1404148073588
30
0
41
1
10
11.2148456871712
20
24.1462364018908
30
0
41
1
10
10.9864107402863
20
24.1462780003019
30
0
41
1
10
10.8728759625123
20
24.1406865462243
30
0
41
1
10
10.7036195935302
20
24.1236498955513
30
0
41
1
10
10.6473587764642
20
24.1164937166716
30
0
41
1
10
10.5376759137094
20
24.0995599319519
30
0
41
1
10
10.4301881243445
20
24.0799512409618
30
0
41
1
10
10.3270174509547
20
24.05502637488
30
0
41
1
10
10.2260313272703
20
24.0273771655485
30
0
41
1
10
10.1763923604878
20
24.0121058368944
30
0
41
1
10
10.0326799146982
20
23.96260727182
30
0
41
1
10
9.94451170368413
20
23.9250723951123
30
0
41
1
10
9.78301181199083
20
23.8408546980231
30
0
41
1
10
9.70906245171395
20
23.7935766282644
30
0
41
1
10
9.58182043110088
20
23.6926937165549
30
0
41
1
10
9.52799826501786
20
23.6390175890835
30
0
41
1
10
9.46202639082031
20
23.5534142166599
30
0
41
1
10
9.44242936935888
20
23.5238541394878
30
0
41
1
10
9.40896754611504
20
23.4639791968825
30
0
41
1
10
9.39505259730259
20
23.4336575248732
30
0
41
1
10
9.36154716013957
20
23.3415382831993
30
0
41
1
10
9.35011585310747
20
23.2785940667448
30
0
41
1
10
9.34988588204354
20
23.1494587602108
30
0
41
1
10
9.36115329663036
20
23.0850616487434
30
0
41
1
10
9.39434993921694
20
22.9895586279925
30
0
41
1
10
9.40815142999986
20
22.9578634909586
30
0
41
1
10
9.44133648832707
20
22.8947772329082
30
0
41
1
10
9.46084042104002
20
22.8632491865103
30
0
41
1
10
9.52664377086188
20
22.7710981851208
30
0
41
1
10
9.58033058680078
20
22.712374724171
30
0
41
1
10
9.70707017077629
20
22.6005485287937
30
0
41
1
10
9.78090112724374
20
22.5471402832949
30
0
41
1
10
9.94226026036756
20
22.4508435074681
30
0
41
1
10
10.0302621631543
20
22.4073714924865
30
0
41
1
10
10.1734711795072
20
22.3495652954548
30
0
41
1
10
10.2231919707327
20
22.3315293378098
30
0
41
1
10
10.3242386380117
20
22.2987880012941
30
0
41
1
10
10.3758211630752
20
22.2839693314055
30
0
41
1
10
10.5336933176592
20
22.2441388287389
30
0
41
1
10
10.6435537973904
20
22.2236526183199
30
0
41
1
10
10.8699414894856
20
22.1960248190067
30
0
41
1
10
10.9843563513442
20
22.1890820961482
30
0
41
1
10
11.2156436486558
20
22.1890820961481
30
0
0
SPLINE
5
C5
100
AcDbEntity
8
1
62
256
6
ByLayer
370
-1
48
1
60
0
100
AcDbSpline
70
4
71
3
72
20
73
16
40
0
40
0
40
0
40
0
40
0.125
40
0.125
40
0.25
40
0.25
40
0.375
40
0.375
40
0.5
40
0.5
40
0.625
40
0.625
40
0.75
40
0.75
40
1
40
1
40
1
40
1
41
1
10
18.05
20
18.35
30
0
41
1
10
18.1233029805178
20
18.35
30
0
41
1
10
18.1958467426518
20
18.35
30
0
41
1
10
18.3388037257524
20
18.35
30
0
41
1
10
18.4063026144014
20
18.35
30
0
41
1
10
18.5341878908257
20
18.35
30
0
41
1
10
18.5939555892112
20
18.35
30
0
41
1
10
18.7019482389055
20
18.35
30
0
41
1
10
18.7512163330266
20
18.35
30
0
41
1
10
18.8375912556248
20
18.35
30
0
41
1
10
18.8750236752913
20
18.35
30
0
41
1
10
18.939446292382
20
18.35
30
0
41
1
10
18.966033877438
20
18.35
30
0
41
1
10
19.0292051183637
20
18.35
30
0
41
1
10
19.0500110011
20
18.35
30
0
41
1
10
19.049995249525
20
18.35
30
0
0
SPLINE
5
C6
100
AcDbEntity
8
1
62
256
6
ByLayer
370
-1
48
1
60
0
100
AcDbSpline
70
4
71
3
72
10
73
6
40
0
40
0
40
0
40
0
40
0.5
40
0.5
40
1
40
1
40
1
40
1
41
1
10
4.19999999999999
20
30.7007080537241
30
0
41
1
10
4.11212912566609
20
30.7007080537241
30
0
41
1
10
4.0257301927987
20
30.6889353569765
30
0
41
1
10
3.85588267673134
20
30.6417928485663
30
0
41
1
10
3.77512131257697
20
30.6070009516134
30
0
41
1
10
3.69999999999865
20
30.5621340441517
30
0
0
SPLINE
5
C7
100
AcDbEntity
8
1
62
256
6
ByLayer
370
-1
48
1
60
0
100
AcDbSpline
70
4
71
3
72
18
73
14
40
0
40
0
40
0
40
0
40
0.250000000000001
40
0.250000000000001
40
0.500000000000002
40
0.500000000000002
40
0.625000000000001
40
0.625000000000001
40
0.750000000000001
40
0.750000000000001
40
0.875
40
0.875
40
1
40
1
40
1
40
1
41
1
10
3.69999999999925
20
30.5621340441518
30
0
41
1
10
3.63382134378972
20
30.5050794649247
30
0
41
1
10
3.57173027252432
20
30.4409422291709
30
0
41
1
10
3.45656609346344
20
30.2970421159454
30
0
41
1
10
3.40305059314485
20
30.2163914066264
30
0
41
1
10
3.33431781986411
20
30.0853872426913
30
0
41
1
10
3.31324564583156
20
30.0399635985114
30
0
41
1
10
3.27534753748745
20
29.9450621144112
30
0
41
1
10
3.25842572555513
20
29.8951842566219
30
0
41
1
10
3.23056134747253
20
29.793307490556
30
0
41
1
10
3.21951518149868
20
29.7411923495076
30
0
41
1
10
3.204203670357
20
29.6341972297607
30
0
41
1
10
3.19999999999999
20
29.5789021591156
30
0
41
1
10
3.19999999999999
20
29.5243708654393
30
0
0
SPLINE
5
C8
100
AcDbEntity
8
1
62
256
6
ByLayer
370
-1
48
1
60
0
100
AcDbSpline
70
4
71
3
72
29
73
25
40
0
40
0
40
0
40
0
40
0.124999999999999
40
0.124999999999999
40
0.187499999999999
40
0.187499999999999
40
0.249999999999998
40
0.249999999999998
40
0.374999999999998
40
0.374999999999998
40
0.437499999999998
40
0.437499999999998
40
0.499999999999998
40
0.562499999999998
40
0.562499999999998
40
0.624999999999998
40
0.624999999999998
40
0.749999999999999
40
0.749999999999999
40
0.812499999999999
40
0.812499999999999
40
0.874999999999999
40
0.874999999999999
40
1
40
1
40
1
40
1
41
1
10
20.2
20
-23.6531387980538
30
0
41
1
10
20.4680970047196
20
-23.6531387980538
30
0
41
1
10
20.7313106155124
20
-23.6623162409635
30
0
41
1
10
21.1191780527505
20
-23.6887656638141
30
0
41
1
10
21.2472998040577
20
-23.6997044579323
30
0
41
1
10
21.5011697326835
20
-23.7257390692735
30
0
41
1
10
21.6265903802504
20
-23.7408299162607
30
0
41
1
10
21.9908573341682
20
-23.7909174649411
30
0
41
1
10
22.2207097704809
20
-23.8309757555299
30
0
41
1
10
22.5465108282222
20
-23.8992303596903
30
0
41
1
10
22.6523611789375
20
-23.9234735179802
30
0
41
1
10
22.8536519895899
20
-23.973468305285
30
0
41
1
10
23.0453478898813
20
-24.025106124274
30
0
41
1
10
23.2184665270163
20
-24.0793263454051
30
0
41
1
10
23.3823123757952
20
-24.1345410339717
30
0
41
1
10
23.4597915999027
20
-24.1627216398031
30
0
41
1
10
23.6766644963886
20
-24.2478706741551
30
0
41
1
10
23.797889387626
20
-24.3042805322763
30
0
41
1
10
23.9459835036302
20
-24.3869804538048
30
0
41
1
10
23.9896810780047
20
-24.4142322461974
30
0
41
1
10
24.0654381113967
20
-24.4679123943243
30
0
41
1
10
24.0974899822397
20
-24.4943865733467
30
0
41
1
10
24.1740651497092
20
-24.570876559458
30
0
41
1
10
24.2
20
-24.6184564435637
30
0
41
1
10
24.2
20
-24.6623392037333
30
0
0
SPLINE
5
C9
100
AcDbEntity
8
1
62
256
6
ByLayer
370
-1
48
1
60
0
100
AcDbSpline
70
4
71
3
72
20
73
16
40
0
40
0
40
0
40
0
40
0.125
40
0.125
40
0.25
40
0.25
40
0.375
40
0.375
40
0.5
40
0.5
40
0.625
40
0.625
40
0.75
40
0.75
40
1
40
1
40
1
40
1
41
1
10
18.05
20
25.9102296400476
30
0
41
1
10
18.1233029805178
20
25.9102296400476
30
0
41
1
10
18.1958467426518
20
25.9004451846742
30
0
41
1
10
18.3388037257524
20
25.8614277920455
30
0
41
1
10
18.4063026144014
20
25.8330299568726
30
0
41
1
10
18.5341878908257
20
25.7603472723029
30
0
41
1
10
18.5939555892112
20
25.7161628430997
30
0
41
1
10
18.7019482389055
20
25.6171273311932
30
0
41
1
10
18.7512163330266
20
25.5613002951829
30
0
41
1
10
18.8375912556248
20
25.4426697983162
30
0
41
1
10
18.8750236752913
20
25.3797278363224
30
0
41
1
10
18.939446292382
20
25.2472634301376
30
0
41
1
10
18.966033877438
20
25.1783899810753
30
0
41
1
10
19.0292051183637
20
24.9683516383951
30
0
41
1
10
19.05
20
24.8205704949931
30
0
41
1
10
19.05
20
24.6746833819605
30
0
0
SPLINE
5
CA
100
AcDbEntity
8
1
62
256
6
ByLayer
370
-1
48
1
60
0
100
AcDbSpline
70
4
71
3
72
8
73
4
40
0
40
0
40
0
40
0
40
1
40
1
40
1
40
1
41
1
10
9.17500000000001
20
-27.8308227937021
30
0
41
1
10
8.64422021665359
20
-28.7882598650043
30
0
41
1
10
8.11180169070482
20
-29.7448289144208
30
0
41
1
10
7.57816335794328
20
-30.7007080537241
30
0
0
SPLINE
5
CB
100
AcDbEntity
8
1
62
256
6
ByLayer
370
-1
48
1
60
0
100
AcDbSpline
70
4
71
3
72
8
73
4
40
0
40
0
40
0
40
0
40
1
40
1
40
1
40
1
41
1
10
9.17499999999998
20
27.8308227937021
30
0
41
1
10
8.64421352244412
20
28.7882719402275
30
0
41
1
10
8.11179696690326
20
29.7448373759257
30
0
41
1
10
7.57816335794328
20
30.7007080537241
30
0
0
SPLINE
5
CC
100
AcDbEntity
8
1
62
256
6
ByLayer
370
-1
48
1
60
0
100
AcDbSpline
70
4
71
3
72
18
73
14
40
0
40
0
40
0
40
0
40
0.25
40
0.25
40
0.5
40
0.5
40
0.625
40
0.625
40
0.75
40
0.75
40
0.875
40
0.875
40
1
40
1
40
1
40
1
41
1
10
3.69999999999999
20
-30.5621340441525
30
0
41
1
10
3.63382134379037
20
-30.5050794649254
30
0
41
1
10
3.57173027252489
20
-30.4409422291715
30
0
41
1
10
3.45656609346386
20
-30.2970421159459
30
0
41
1
10
3.4030505931452
20
-30.2163914066269
30
0
41
1
10
3.33431781986434
20
-30.0853872426918
30
0
41
1
10
3.31324564583176
20
-30.0399635985119
30
0
41
1
10
3.27534753748756
20
-29.9450621144116
30
0
41
1
10
3.25842572555521
20
-29.8951842566222
30
0
41
1
10
3.23056134747259
20
-29.7933074905563
30
0
41
1
10
3.21951518149874
20
-29.7411923495078
30
0
41
1
10
3.204203670357
20
-29.6341972297608
30
0
41
1
10
3.19999999999999
20
-29.5789021591156
30
0
41
1
10
3.19999999999999
20
-29.5243708654393
30
0
0
INSERT
5
F7
100
AcDbEntity
8
SK6
62
256
6
ByLayer
370
-1
48
1
60
0
100
AcDbBlockReference
2
LABLE3D_1
10
0
20
0
30
0
41
1
42
1
43
1
50
0
210
0
220
0
230
1
0
LINE
5
48
100
AcDbEntity
8
SK3
62
256
6
ByLayer
370
-1
48
0.05
60
0
100
AcDbLine
10
39
20
8.5
30
0
11
39
21
-8.5
31
0
39
0
210
0
220
0
230
1
0
LINE
5
4A
100
AcDbEntity
8
SK3
62
256
6
ByLayer
370
-1
48
0.05
60
0
100
AcDbLine
10
40.5
20
-10
30
0
11
90
21
-10
31
0
39
0
210
0
220
0
230
1
0
LINE
5
4B
100
AcDbEntity
8
4
62
256
6
ByLayer
370
-1
48
0.05
60
0
100
AcDbLine
10
90
20
0
30
0
11
0
21
0
31
0
39
0
210
0
220
0
230
1
0
LINE
5
4D
100
AcDbEntity
8
80
62
256
6
ByLayer
370
-1
48
1
60
0
100
AcDbLine
10
0
20
0
30
0
11
-10.875929
21
0
31
0
39
0
210
0
220
0
230
1
0
LINE
5
4E
100
AcDbEntity
8
SK3
62
256
6
ByLayer
370
-1
48
0.05
60
0
100
AcDbLine
10
90
20
10
30
0
11
40.5
21
10
31
0
39
0
210
0
220
0
230
1
0
LINE
5
4F
100
AcDbEntity
8
SK3
62
256
6
ByLayer
370
-1
48
0.05
60
0
100
AcDbLine
10
40.5
20
10
30
0
11
39
21
8.5
31
0
39
0
210
0
220
0
230
1
0
LINE
5
50
100
AcDbEntity
8
SK3
62
256
6
ByLayer
370
-1
48
0.05
60
0
100
AcDbLine
10
39
20
-8.5
30
0
11
40.5
21
-10
31
0
39
0
210
0
220
0
230
1
0
LINE
5
51
100
AcDbEntity
8
SK3
62
256
6
ByLayer
370
-1
48
0.05
60
0
100
AcDbLine
10
40.5
20
-10
30
0
11
40.5
21
10
31
0
39
0
210
0
220
0
230
1
0
LINE
5
52
100
AcDbEntity
8
81
62
256
6
ByLayer
370
-1
48
1
60
0
100
AcDbLine
10
90
20
0
30
0
11
94.742527
21
0
31
0
39
0
210
0
220
0
230
1
0
LINE
5
53
100
AcDbEntity
8
SK4
62
256
6
ByLayer
370
-1
48
0.05
60
0
100
AcDbLine
10
-78.25
20
0
30
0
11
100
21
0
31
0
39
0
210
0
220
0
230
1
0
LINE
5
55
100
AcDbEntity
8
1
62
256
6
ByLayer
370
-1
48
1
60
0
100
AcDbLine
10
14.621837
20
30.700708
30
0
11
14.621837
21
25.91023
31
0
39
0
210
0
220
0
230
1
0
LINE
5
57
100
AcDbEntity
8
1
62
256
6
ByLayer
370
-1
48
1
60
0
100
AcDbLine
10
13.025
20
26.804309
30
0
11
9.175
21
26.804309
31
0
39
0
210
0
220
0
230
1
0
LINE
5
58
100
AcDbEntity
8
1
62
256
6
ByLayer
370
-1
48
1
60
0
100
AcDbLine
10
7.578163
20
-30.700708
30
0
11
7.578163
21
18.35
31
0
39
0
210
0
220
0
230
1
0
LINE
5
59
100
AcDbEntity
8
1
62
256
6
ByLayer
370
-1
48
1
60
0
100
AcDbLine
10
9.175
20
21.148936
30
0
11
13.025
21
21.148936
31
0
39
0
210
0
220
0
230
1
0
LINE
5
5A
100
AcDbEntity
8
1
62
256
6
ByLayer
370
-1
48
1
60
0
100
AcDbLine
10
90
20
-17.973777
30
0
11
90
21
17.973777
31
0
39
0
210
0
220
0
230
1
0
LINE
5
5B
100
AcDbEntity
8
1
62
256
6
ByLayer
370
-1
48
1
60
0
100
AcDbLine
10
9.175
20
-27.830823
30
0
11
9.175
21
18.35
31
0
39
0
210
0
220
0
230
1
0
LINE
5
5C
100
AcDbEntity
8
1
62
256
6
ByLayer
370
-1
48
1
60
0
100
AcDbLine
10
0
20
-22.225
30
0
11
0
21
22.225
31
0
39
0
210
0
220
0
230
1
0
LINE
5
5D
100
AcDbEntity
8
1
62
256
6
ByLayer
370
-1
48
1
60
0
100
AcDbLine
10
4.2
20
30.700708
30
0
11
4.2
21
25.91023
31
0
39
0
210
0
220
0
230
1
0
LINE
5
5E
100
AcDbEntity
8
1
62
256
6
ByLayer
370
-1
48
1
60
0
100
AcDbLine
10
75.214134
20
-20.850923
30
0
11
75.214134
21
0
31
0
39
0
210
0
220
0
230
1
0
LINE
5
5F
100
AcDbEntity
8
1
62
256
6
ByLayer
370
-1
48
1
60
0
100
AcDbLine
10
75.214134
20
0
30
0
11
75.214134
21
20.850923
31
0
39
0
210
0
220
0
230
1
0
LINE
5
60
100
AcDbEntity
8
1
62
256
6
ByLayer
370
-1
48
1
60
0
100
AcDbLine
10
7.578163
20
25.91023
30
0
11
4.2
21
25.91023
31
0
39
0
210
0
220
0
230
1
0
LINE
5
61
100
AcDbEntity
8
1
62
256
6
ByLayer
370
-1
48
1
60
0
100
AcDbLine
10
2.85
20
-22
30
0
11
2.85
21
22
31
0
39
0
210
0
220
0
230
1
0
LINE
5
62
100
AcDbEntity
8
1
62
256
6
ByLayer
370
-1
48
1
60
0
100
AcDbLine
10
19.05
20
18.419487
30
0
11
19.05
21
24.674683
31
0
39
0
210
0
220
0
230
1
0
LINE
5
63
100
AcDbEntity
8
1
62
256
6
ByLayer
370
-1
48
1
60
0
100
AcDbLine
10
0.7
20
0
30
0
11
0.7
21
-22.327093
31
0
39
0
210
0
220
0
230
1
0
LINE
5
64
100
AcDbEntity
8
1
62
256
6
ByLayer
370
-1
48
1
60
0
100
AcDbLine
10
0.7
20
22.327093
30
0
11
0.7
21
0
31
0
39
0
210
0
220
0
230
1
0
LINE
5
65
100
AcDbEntity
8
1
62
256
6
ByLayer
370
-1
48
1
60
0
100
AcDbLine
10
13.025
20
-26.804309
30
0
11
9.175
21
-26.804309
31
0
39
0
210
0
220
0
230
1
0
LINE
5
66
100
AcDbEntity
8
1
62
256
6
ByLayer
370
-1
48
1
60
0
100
AcDbLine
10
9.175
20
22.435713
30
0
11
9.175
21
27.830823
31
0
39
0
210
0
220
0
230
1
0
LINE
5
67
100
AcDbEntity
8
1
62
256
6
ByLayer
370
-1
48
1
60
0
100
AcDbLine
10
3.2
20
-29.524371
30
0
11
3.2
21
18.35
31
0
39
0
210
0
220
0
230
1
0
LINE
5
68
100
AcDbEntity
8
1
62
256
6
ByLayer
370
-1
48
1
60
0
100
AcDbLine
10
4.2
20
30.700708
30
0
11
7.578163
21
30.700708
31
0
39
0
210
0
220
0
230
1
0
LINE
5
69
100
AcDbEntity
8
1
62
256
6
ByLayer
370
-1
48
1
60
0
100
AcDbLine
10
20.05
20
24.8
30
0
11
20.05
21
-23.653139
31
0
39
0
210
0
220
0
230
1
0
LINE
5
6A
100
AcDbEntity
8
1
62
256
6
ByLayer
370
-1
48
1
60
0
100
AcDbLine
10
14.621837
20
-30.700708
30
0
11
18.05
21
-30.700708
31
0
39
0
210
0
220
0
230
1
0
LINE
5
6B
100
AcDbEntity
8
1
62
256
6
ByLayer
370
-1
48
1
60
0
100
AcDbLine
10
18.05
20
25.91023
30
0
11
18.05
21
30.700708
31
0
39
0
210
0
220
0
230
1
0
LINE
5
6C
100
AcDbEntity
8
1
62
256
6
ByLayer
370
-1
48
1
60
0
100
AcDbLine
10
7.578163
20
25.91023
30
0
11
7.578163
21
30.700708
31
0
39
0
210
0
220
0
230
1
0
LINE
5
6D
100
AcDbEntity
8
1
62
256
6
ByLayer
370
-1
48
1
60
0
100
AcDbLine
10
1.266542
20
0
30
0
11
1.266542
21
-22
31
0
39
0
210
0
220
0
230
1
0
LINE
5
6E
100
AcDbEntity
8
1
62
256
6
ByLayer
370
-1
48
1
60
0
100
AcDbLine
10
1.266542
20
22
30
0
11
1.266542
21
0
31
0
39
0
210
0
220
0
230
1
0
LINE
5
6F
100
AcDbEntity
8
1
62
256
6
ByLayer
370
-1
48
1
60
0
100
AcDbLine
10
20.05
20
24.8
30
0
11
24.2
21
24.8
31
0
39
0
210
0
220
0
230
1
0
LINE
5
70
100
AcDbEntity
8
1
62
256
6
ByLayer
370
-1
48
1
60
0
100
AcDbLine
10
24.2
20
-24.662339
30
0
11
24.2
21
-25
31
0
39
0
210
0
220
0
230
1
0
LINE
5
71
100
AcDbEntity
8
1
62
256
6
ByLayer
370
-1
48
1
60
0
100
AcDbLine
10
72.776748
20
21
30
0
11
72.776748
21
-21
31
0
39
0
210
0
220
0
230
1
0
LINE
5
72
100
AcDbEntity
8
1
62
256
6
ByLayer
370
-1
48
1
60
0
100
AcDbLine
10
4.2
20
-30.700708
30
0
11
7.578163
21
-30.700708
31
0
39
0
210
0
220
0
230
1
0
LINE
5
73
100
AcDbEntity
8
1
62
256
6
ByLayer
370
-1
48
1
60
0
100
AcDbLine
10
3.2
20
24.674683
30
0
11
3.2
21
29.524371
31
0
39
0
210
0
220
0
230
1
0
LINE
5
74
100
AcDbEntity
8
1
62
256
6
ByLayer
370
-1
48
1
60
0
100
AcDbLine
10
38.401287
20
-22.64495
30
0
11
38.401287
21
22.64495
31
0
39
0
210
0
220
0
230
1
0
LINE
5
75
100
AcDbEntity
8
1
62
256
6
ByLayer
370
-1
48
1
60
0
100
AcDbLine
10
19.05
20
29.665358
30
0
11
19.05
21
24.674683
31
0
39
0
210
0
220
0
230
1
0
LINE
5
76
100
AcDbEntity
8
1
62
256
6
ByLayer
370
-1
48
1
60
0
100
AcDbLine
10
14.621837
20
30.700708
30
0
11
18.05
21
30.700708
31
0
39
0
210
0
220
0
230
1
0
LINE
5
77
100
AcDbEntity
8
1
62
256
6
ByLayer
370
-1
48
1
60
0
100
AcDbLine
10
7.578163
20
18.35
30
0
11
4.2
21
18.35
31
0
39
0
210
0
220
0
230
1
0
LINE
5
78
100
AcDbEntity
8
1
62
256
6
ByLayer
370
-1
48
1
60
0
100
AcDbLine
10
24.2
20
24.8
30
0
11
24.2
21
25
31
0
39
0
210
0
220
0
230
1
0
LINE
5
79
100
AcDbEntity
8
1
62
256
6
ByLayer
370
-1
48
1
60
0
100
AcDbLine
10
3.2
20
24.674683
30
0
11
3.2
21
18.35
31
0
39
0
210
0
220
0
230
1
0
LINE
5
7A
100
AcDbEntity
8
1
62
256
6
ByLayer
370
-1
48
1
60
0
100
AcDbLine
10
20.05
20
-23.653139
30
0
11
20.2
21
-23.653139
31
0
39
0
210
0
220
0
230
1
0
LINE
5
7B
100
AcDbEntity
8
1
62
256
6
ByLayer
370
-1
48
1
60
0
100
AcDbLine
10
18.05
20
-30.700708
30
0
11
18.05
21
18.35
31
0
39
0
210
0
220
0
230
1
0
LINE
5
7C
100
AcDbEntity
8
1
62
256
6
ByLayer
370
-1
48
1
60
0
100
AcDbLine
10
88.946243
20
-19.164832
30
0
11
88.946243
21
19.164832
31
0
39
0
210
0
220
0
230
1
0
LINE
5
7D
100
AcDbEntity
8
1
62
256
6
ByLayer
370
-1
48
1
60
0
100
AcDbLine
10
40.750519
20
-21
30
0
11
40.750519
21
0
31
0
39
0
210
0
220
0
230
1
0
LINE
5
7E
100
AcDbEntity
8
1
62
256
6
ByLayer
370
-1
48
1
60
0
100
AcDbLine
10
40.750519
20
0
30
0
11
40.750519
21
21
31
0
39
0
210
0
220
0
230
1
0
LINE
5
7F
100
AcDbEntity
8
1
62
256
6
ByLayer
370
-1
48
1
60
0
100
AcDbLine
10
13.025
20
22.435713
30
0
11
13.025
21
27.830823
31
0
39
0
210
0
220
0
230
1
0
LINE
5
80
100
AcDbEntity
8
1
62
256
6
ByLayer
370
-1
48
1
60
0
100
AcDbLine
10
4.2
20
18.35
30
0
11
4.2
21
-30.700708
31
0
39
0
210
0
220
0
230
1
0
LINE
5
81
100
AcDbEntity
8
1
62
256
6
ByLayer
370
-1
48
1
60
0
100
AcDbLine
10
13.025
20
21.148936
30
0
11
13.025
21
22.435713
31
0
39
0
210
0
220
0
230
1
0
LINE
5
82
100
AcDbEntity
8
1
62
256
6
ByLayer
370
-1
48
1
60
0
100
AcDbLine
10
19.05
20
18.35
30
0
11
19.05
21
-29.665358
31
0
39
0
210
0
220
0
230
1
0
LINE
5
83
100
AcDbEntity
8
1
62
256
6
ByLayer
370
-1
48
1
60
0
100
AcDbLine
10
18.05
20
25.91023
30
0
11
14.621837
21
25.91023
31
0
39
0
210
0
220
0
230
1
0
LINE
5
84
100
AcDbEntity
8
1
62
256
6
ByLayer
370
-1
48
1
60
0
100
AcDbLine
10
9.175
20
22.435713
30
0
11
9.175
21
21.148936
31
0
39
0
210
0
220
0
230
1
0
LINE
5
85
100
AcDbEntity
8
1
62
256
6
ByLayer
370
-1
48
1
60
0
100
AcDbLine
10
9.175
20
18.35
30
0
11
13.025
21
18.35
31
0
39
0
210
0
220
0
230
1
0
LINE
5
86
100
AcDbEntity
8
1
62
256
6
ByLayer
370
-1
48
1
60
0
100
AcDbLine
10
13.025
20
-27.830823
30
0
11
13.025
21
18.35
31
0
39
0
210
0
220
0
230
1
0
LINE
5
87
100
AcDbEntity
8
1
62
256
6
ByLayer
370
-1
48
1
60
0
100
AcDbLine
10
37.783604
20
24.34202
30
0
11
37.783604
21
-24.34202
31
0
39
0
210
0
220
0
230
1
0
LINE
5
88
100
AcDbEntity
8
1
62
256
6
ByLayer
370
-1
48
1
60
0
100
AcDbLine
10
36.843912
20
25
30
0
11
36.843912
21
-25
31
0
39
0
210
0
220
0
230
1
0
LINE
5
89
100
AcDbEntity
8
1
62
256
6
ByLayer
370
-1
48
1
60
0
100
AcDbLine
10
14.621837
20
18.35
30
0
11
14.621837
21
-30.700708
31
0
39
0
210
0
220
0
230
1
0
LINE
5
8A
100
AcDbEntity
8
1
62
256
6
ByLayer
370
-1
48
1
60
0
100
AcDbLine
10
18.05
20
18.35
30
0
11
14.621837
21
18.35
31
0
39
0
210
0
220
0
230
1
0
LINE
5
8B
100
AcDbEntity
8
SK1
62
256
6
ByLayer
370
-1
48
1
60
0
100
AcDbLine
10
0
20
-22.225
30
0
11
0
21
22.225
31
0
39
0
210
0
220
0
230
1
0
LINE
5
8D
100
AcDbEntity
8
SK1
62
256
6
ByLayer
370
-1
48
1
60
0
100
AcDbLine
10
-68.25
20
11.406204
30
0
11
-68.25
21
-11.406204
31
0
39
0
210
0
220
0
230
1
0
LINE
5
8E
100
AcDbEntity
8
SK1
62
256
6
ByLayer
370
-1
48
1
60
0
100
AcDbLine
10
-67.39432
20
-12.395735
30
0
11
-67.39432
21
0
31
0
39
0
210
0
220
0
230
1
0
LINE
5
8F
100
AcDbEntity
8
SK1
62
256
6
ByLayer
370
-1
48
1
60
0
100
AcDbLine
10
-67.39432
20
0
30
0
11
-67.39432
21
12.395735
31
0
39
0
210
0
220
0
230
1
0
LINE
5
90
100
AcDbEntity
8
1
62
256
6
ByLayer
370
-1
48
1
60
0
100
AcDbLine
10
36
20
-21.58
30
0
11
26
21
-21.58
31
0
39
0
210
0
220
0
230
1
0
LINE
5
91
100
AcDbEntity
8
1
62
256
6
ByLayer
370
-1
48
1
60
0
100
AcDbLine
10
35.08
20
-22.5
30
0
11
26.92
21
-22.5
31
0
39
0
210
0
220
0
230
1
0
LINE
5
92
100
AcDbEntity
8
1
62
256
6
ByLayer
370
-1
48
1
60
0
100
AcDbLine
10
24.2
20
-25
30
0
11
36.843912
21
-25
31
0
39
0
210
0
220
0
230
1
0
LINE
5
93
100
AcDbEntity
8
1
62
256
6
ByLayer
370
-1
48
1
60
0
100
AcDbLine
10
36.843912
20
25
30
0
11
24.2
21
25
31
0
39
0
210
0
220
0
230
1
0
LINE
5
94
100
AcDbEntity
8
1
62
256
6
ByLayer
370
-1
48
1
60
0
100
AcDbLine
10
37.783604
20
-24.34202
30
0
11
38.401287
21
-22.64495
31
0
39
0
210
0
220
0
230
1
0
LINE
5
95
100
AcDbEntity
8
1
62
256
6
ByLayer
370
-1
48
1
60
0
100
AcDbLine
10
38.401287
20
22.64495
30
0
11
37.783604
21
24.34202
31
0
39
0
210
0
220
0
230
1
0
LINE
5
96
100
AcDbEntity
8
1
62
256
6
ByLayer
370
-1
48
1
60
0
100
AcDbLine
10
0.7
20
22.327093
30
0
11
0
21
22.225
31
0
39
0
210
0
220
0
230
1
0
LINE
5
97
100
AcDbEntity
8
1
62
256
6
ByLayer
370
-1
48
1
60
0
100
AcDbLine
10
0
20
-22.225
30
0
11
0.7
21
-22.327093
31
0
39
0
210
0
220
0
230
1
0
LINE
5
98
100
AcDbEntity
8
1
62
256
6
ByLayer
370
-1
48
1
60
0
100
AcDbLine
10
0.7
20
-22.327093
30
0
11
1.266542
21
-22
31
0
39
0
210
0
220
0
230
1
0
LINE
5
99
100
AcDbEntity
8
1
62
256
6
ByLayer
370
-1
48
1
60
0
100
AcDbLine
10
1.266542
20
22
30
0
11
0.7
21
22.327093
31
0
39
0
210
0
220
0
230
1
0
LINE
5
9A
100
AcDbEntity
8
1
62
256
6
ByLayer
370
-1
48
1
60
0
100
AcDbLine
10
2.85
20
22
30
0
11
1.266542
21
22
31
0
39
0
210
0
220
0
230
1
0
LINE
5
9B
100
AcDbEntity
8
1
62
256
6
ByLayer
370
-1
48
1
60
0
100
AcDbLine
10
1.266542
20
-22
30
0
11
2.85
21
-22
31
0
39
0
210
0
220
0
230
1
0
LINE
5
9C
100
AcDbEntity
8
1
62
256
6
ByLayer
370
-1
48
1
60
0
100
AcDbLine
10
40.750519
20
-21
30
0
11
72.776748
21
-21
31
0
39
0
210
0
220
0
230
1
0
LINE
5
9D
100
AcDbEntity
8
1
62
256
6
ByLayer
370
-1
48
1
60
0
100
AcDbLine
10
72.776748
20
21
30
0
11
40.750519
21
21
31
0
39
0
210
0
220
0
230
1
0
LINE
5
9E
100
AcDbEntity
8
1
62
256
6
ByLayer
370
-1
48
1
60
0
100
AcDbLine
10
75.214134
20
-20.850923
30
0
11
88.946243
21
-19.164832
31
0
39
0
210
0
220
0
230
1
0
LINE
5
9F
100
AcDbEntity
8
1
62
256
6
ByLayer
370
-1
48
1
60
0
100
AcDbLine
10
88.946243
20
19.164832
30
0
11
75.214134
21
20.850923
31
0
39
0
210
0
220
0
230
1
0
LINE
5
A0
100
AcDbEntity
8
1
62
256
6
ByLayer
370
-1
48
1
60
0
100
AcDbLine
10
36
20
-21.58
30
0
11
36
21
-21.316059
31
0
39
0
210
0
220
0
230
1
0
LINE
5
A1
100
AcDbEntity
8
1
62
256
6
ByLayer
370
-1
48
1
60
0
100
AcDbLine
10
26
20
-21.341119
30
0
11
26
21
-21.58
31
0
39
0
210
0
220
0
230
1
0
LINE
5
A2
100
AcDbEntity
8
1
62
256
6
ByLayer
370
-1
48
1
60
0
100
AcDbLine
10
26
20
-21.58
30
0
11
26.92
21
-22.5
31
0
39
0
210
0
220
0
230
1
0
LINE
5
A3
100
AcDbEntity
8
1
62
256
6
ByLayer
370
-1
48
1
60
0
100
AcDbLine
10
35.08
20
-22.5
30
0
11
36
21
-21.58
31
0
39
0
210
0
220
0
230
1
0
LINE
5
A4
100
AcDbEntity
8
SK1
62
256
6
ByLayer
370
-1
48
1
60
0
100
AcDbLine
10
0
20
22.225
30
0
11
-67.39432
21
12.395735
31
0
39
0
210
0
220
0
230
1
0
LINE
5
A5
100
AcDbEntity
8
SK1
62
256
6
ByLayer
370
-1
48
1
60
0
100
AcDbLine
10
-67.39432
20
-12.395735
30
0
11
0
21
-22.225
31
0
39
0
210
0
220
0
230
1
0
LINE
5
A6
100
AcDbEntity
8
1
62
256
6
ByLayer
370
-1
48
1
60
0
100
AcDbLine
10
26.92
20
-22.5
30
0
11
26.92
21
-21.341063
31
0
39
0
210
0
220
0
230
1
0
LINE
5
A7
100
AcDbEntity
8
1
62
256
6
ByLayer
370
-1
48
1
60
0
100
AcDbLine
10
35.08
20
-22.5
30
0
11
35.08
21
-21.315938
31
0
39
0
210
0
220
0
230
1
0
MTEXT
5
FA
100
AcDbEntity
8
SK6
62
256
6
ByLayer
370
-1
48
1
60
0
100
AcDbMText
10
-72.388158
20
39.125
30
0
210
0
220
0
230
1
1
\W01.000;\fsimplex.shx,bigfont.shx;  
40
3.5
41
0
44
1.084337
50
0
71
7
72
5
7
DEFAULT
0
MTEXT
5
FB
100
AcDbEntity
8
SK6
62
256
6
ByLayer
370
-1
48
1
60
0
100
AcDbMText
10
-106.163158
20
39.125
30
0
210
0
220
0
230
1
1
\W00.751;\fsimplex.shx,bigfont.shx;ISO7388-1-AD40 
40
3.5
41
0
44
1.084337
50
0
71
7
72
5
7
DEFAULT
0
MTEXT
5
FC
100
AcDbEntity
8
SK6
62
256
6
ByLayer
370
-1
48
1
60
0
100
AcDbMText
10
-7.125
20
-46.125
30
0
210
0
220
0
230
1
1
\W00.716;\fsimplex.shx,bigfont.shx;930-I40-S-20-090 
40
3.5
41
0
44
1.084337
50
0
71
7
72
5
7
DEFAULT
0
DIMENSION
5
107
100
AcDbEntity
8
SK2
62
256
6
ByLayer
370
-3
48
1
60
0
100
AcDbDimension
2
DimnDraft3D1
10
-106.35
20
-31.75
30
0
11
-107.725
21
-0.544737
31
0
70
33
71
5
72
1
41
1
210
0
220
0
230
1
3
Standard
100
AcDbAlignedDimension
13
-1.5875
23
31.75
33
0
14
-1.5875
24
-31.75
34
0
1001
ACAD
1000
DSTYLE
1002
{
1070
   279
1070
     0
1070
    74
1070
     0
1070
   173
1070
     1
1070
   340
1005
CF
1070
   271
1070
     2
1070
   272
1070
     2
1070
    77
1070
     1
1070
    73
1070
     0
1070
   171
1070
     3
1070
   274
1070
     4
1070
   177
1070
     2
1070
   176
1070
     2
1070
   178
1070
     2
1070
    78
1070
     8
1070
    48
1040
-0.005
1070
    41
1041
4.5
1070
   147
1041
2.25
1070
    42
1041
1.5875
1070
    44
1041
2.0
1070
   140
1041
4.5
1070
   343
1005
0
1070
   344
1005
0
1002
}
0
DIMENSION
5
112
100
AcDbEntity
8
2
62
256
6
ByLayer
370
-3
48
1
60
0
100
AcDbDimension
2
DimnDraft3D2
10
90
20
69.862847
30
0
11
42.371053
21
69.862847
31
0
70
32
71
5
72
1
41
1
210
0
220
0
230
1
3
Standard
100
AcDbAlignedDimension
13
0
23
33.3375
33
0
14
90
24
22.5875
34
0
50
0
100
AcDbRotatedDimension
1001
ACAD
1000
DSTYLE
1002
{
1070
   279
1070
     0
1070
   172
1070
     1
1070
   173
1070
     1
1070
   340
1005
CF
1070
   271
1070
     1
1070
   272
1070
     2
1070
    77
1070
     1
1070
    73
1070
     0
1070
   171
1070
     3
1070
   274
1070
     4
1070
   177
1070
     2
1070
   176
1070
     2
1070
   178
1070
     2
1070
    78
1070
     8
1070
    48
1040
-0.005
1070
    41
1041
4.5
1070
   147
1041
2.25
1070
    42
1041
1.5875
1070
    44
1041
2.0
1070
   140
1041
4.5
1070
   343
1005
0
1070
   344
1005
0
1002
}
0
DIMENSION
5
11C
100
AcDbEntity
8
SK2
62
256
6
ByLayer
370
-3
48
1
60
0
100
AcDbDimension
2
DimnDraft3D3
10
90
20
-39.362827
30
0
11
79.933553
21
-39.362827
31
0
70
32
71
5
72
1
41
1
210
0
220
0
230
1
3
Standard
100
AcDbAlignedDimension
13
74
23
-22.5875
33
0
14
90
24
-22.5875
34
0
50
0
100
AcDbRotatedDimension
1001
ACAD
1000
DSTYLE
1002
{
1070
   279
1070
     0
1070
   172
1070
     1
1070
   173
1070
     1
1070
   340
1005
CF
1070
   271
1070
     1
1070
   272
1070
     2
1070
    77
1070
     1
1070
    73
1070
     0
1070
   171
1070
     3
1070
   274
1070
     4
1070
   177
1070
     2
1070
   176
1070
     2
1070
   178
1070
     2
1070
    78
1070
     8
1070
    48
1040
-0.005
1070
    41
1041
4.5
1070
   147
1041
2.25
1070
    42
1041
1.5875
1070
    44
1041
2.0
1070
   140
1041
4.5
1070
   343
1005
0
1070
   344
1005
0
1002
}
0
DIMENSION
5
126
100
AcDbEntity
8
SK2
62
256
6
ByLayer
370
-3
48
1
60
0
100
AcDbDimension
2
DimnDraft3D4
10
19.05
20
49.862847
30
0
11
3.390789
21
49.862847
31
0
70
32
71
5
72
1
41
1
210
0
220
0
230
1
3
Standard
100
AcDbAlignedDimension
13
0
23
23.8125
33
0
14
19.05
24
33.3375
34
0
50
0
100
AcDbRotatedDimension
1001
ACAD
1000
DSTYLE
1002
{
1070
   279
1070
     0
1070
   172
1070
     1
1070
   173
1070
     1
1070
   340
1005
CF
1070
   271
1070
     2
1070
   272
1070
     2
1070
    77
1070
     1
1070
    73
1070
     0
1070
   171
1070
     3
1070
   274
1070
     4
1070
   177
1070
     2
1070
   176
1070
     2
1070
   178
1070
     2
1070
    78
1070
     8
1070
    48
1040
-0.005
1070
    41
1041
4.5
1070
   147
1041
2.25
1070
    42
1041
1.5875
1070
    44
1041
2.0
1070
   140
1041
4.5
1070
   343
1005
0
1070
   344
1005
0
1002
}
0
DIMENSION
5
130
100
AcDbEntity
8
SK2
62
256
6
ByLayer
370
-3
48
1
60
0
100
AcDbDimension
2
DimnDraft3D5
10
39
20
49.862847
30
0
11
62.433553
21
49.862847
31
0
70
32
71
5
72
1
41
1
210
0
220
0
230
1
3
Standard
100
AcDbAlignedDimension
13
90
23
22.5875
33
0
14
39
24
22.5875
34
0
50
0
100
AcDbRotatedDimension
1001
ACAD
1000
DSTYLE
1002
{
1070
   279
1070
     0
1070
   172
1070
     1
1070
   173
1070
     1
1070
   340
1005
CF
1070
   271
1070
     1
1070
   272
1070
     2
1070
    77
1070
     1
1070
    73
1070
     0
1070
   171
1070
     3
1070
   274
1070
     4
1070
   177
1070
     2
1070
   176
1070
     2
1070
   178
1070
     2
1070
    78
1070
     8
1070
    48
1040
-0.005
1070
    41
1041
4.5
1070
   147
1041
2.25
1070
    42
1041
1.5875
1070
    44
1041
2.0
1070
   140
1041
4.5
1070
   343
1005
0
1070
   344
1005
0
1002
}
0
DIMENSION
5
13A
100
AcDbEntity
8
SK2
62
256
6
ByLayer
370
-3
48
1
60
0
100
AcDbDimension
2
DimnDraft3D6
10
-68.25
20
69.862847
30
0
11
-39.169737
21
69.862847
31
0
70
32
71
5
72
1
41
1
210
0
220
0
230
1
3
Standard
100
AcDbAlignedDimension
13
0
23
23.8125
33
0
14
-68.25
24
13.7875
34
0
50
0
100
AcDbRotatedDimension
1001
ACAD
1000
DSTYLE
1002
{
1070
   279
1070
     0
1070
   172
1070
     1
1070
   173
1070
     1
1070
   340
1005
CF
1070
   271
1070
     1
1070
   272
1070
     2
1070
    77
1070
     1
1070
    73
1070
     0
1070
   171
1070
     3
1070
   274
1070
     4
1070
   177
1070
     2
1070
   176
1070
     2
1070
   178
1070
     2
1070
    78
1070
     8
1070
    48
1040
-0.005
1070
    41
1041
4.5
1070
   147
1041
2.25
1070
    42
1041
1.5875
1070
    44
1041
2.0
1070
   140
1041
4.5
1070
   343
1005
0
1070
   344
1005
0
1002
}
0
DIMENSION
5
144
100
AcDbEntity
8
SK2
62
256
6
ByLayer
370
-3
48
1
60
0
100
AcDbDimension
2
DimnDraft3D7
10
90
20
-49.362827
30
0
11
44.883553
21
-49.362827
31
0
70
32
71
5
72
1
41
1
210
0
220
0
230
1
3
Standard
100
AcDbAlignedDimension
13
39
23
-11.5875
33
0
14
90
24
-11.5875
34
0
50
0
100
AcDbRotatedDimension
1001
ACAD
1000
DSTYLE
1002
{
1070
   279
1070
     0
1070
   172
1070
     1
1070
   173
1070
     1
1070
   340
1005
CF
1070
   271
1070
     0
1070
   272
1070
     2
1070
    77
1070
     1
1070
    73
1070
     0
1070
   171
1070
     3
1070
   274
1070
     4
1070
   177
1070
     2
1070
   176
1070
     2
1070
   178
1070
     2
1070
    78
1070
     8
1070
    48
1040
-0.005
1070
    41
1041
4.5
1070
   147
1041
2.25
1070
    42
1041
1.5875
1070
    44
1041
2.0
1070
   140
1041
4.5
1070
   343
1005
0
1070
   344
1005
0
1002
}
0
DIMENSION
5
14F
100
AcDbEntity
8
SK2
62
256
6
ByLayer
370
-3
48
1
60
0
100
AcDbDimension
2
DimnDraft3D8
10
154.25
20
21
30
0
11
154.25
21
-8.115789
31
0
70
32
71
5
72
1
41
1
210
0
220
0
230
1
3
Standard
100
AcDbAlignedDimension
13
91.5875
23
-21
33
0
14
91.5875
24
21
34
0
50
90
100
AcDbRotatedDimension
1001
ACAD
1000
DSTYLE
1002
{
1070
    74
1070
     0
1070
   279
1070
     0
1070
   172
1070
     1
1070
   173
1070
     1
1070
   340
1005
CF
1070
   271
1070
     1
1070
   272
1070
     2
1070
    77
1070
     1
1070
    73
1070
     0
1070
   171
1070
     3
1070
   274
1070
     4
1070
   177
1070
     2
1070
   176
1070
     2
1070
   178
1070
     2
1070
    78
1070
     8
1070
    48
1040
-0.005
1070
    41
1041
4.5
1070
   147
1041
2.25
1070
    42
1041
1.5875
1070
    44
1041
2.0
1070
   140
1041
4.5
1070
   343
1005
0
1070
   344
1005
0
1002
}
0
DIMENSION
5
15A
100
AcDbEntity
8
SK2
62
256
6
ByLayer
370
-3
48
1
60
0
100
AcDbDimension
2
DimnDraft3D9
10
142.25
20
-10
30
0
11
142.25
21
-7.878947
31
0
70
32
71
5
72
1
41
1
210
0
220
0
230
1
3
Standard
100
AcDbAlignedDimension
13
91.5875
23
10
33
0
14
91.5875
24
-10
34
0
50
90
100
AcDbRotatedDimension
1001
ACAD
1000
DSTYLE
1002
{
1070
    74
1070
     0
1070
   279
1070
     0
1070
   172
1070
     1
1070
   173
1070
     1
1070
   340
1005
CF
1070
   271
1070
     1
1070
   272
1070
     2
1070
    77
1070
     1
1070
    73
1070
     0
1070
   171
1070
     3
1070
   274
1070
     4
1070
   177
1070
     2
1070
   176
1070
     2
1070
   178
1070
     2
1070
    78
1070
     8
1070
    48
1040
-0.005
1070
    41
1041
4.5
1070
   147
1041
2.25
1070
    42
1041
1.5875
1070
    44
1041
2.0
1070
   140
1041
4.5
1070
   343
1005
0
1070
   344
1005
0
1002
}
0
DIMENSION
5
165
100
AcDbEntity
8
SK2
62
256
6
ByLayer
370
-3
48
1
60
0
100
AcDbDimension
2
DimnDraft3D10
10
174.25
20
-25
30
0
11
174.25
21
-7.878947
31
0
70
32
71
5
72
1
41
1
210
0
220
0
230
1
3
Standard
100
AcDbAlignedDimension
13
40.5875
23
25
33
0
14
40.5875
24
-25
34
0
50
90
100
AcDbRotatedDimension
1001
ACAD
1000
DSTYLE
1002
{
1070
    74
1070
     0
1070
   279
1070
     0
1070
   172
1070
     1
1070
   173
1070
     1
1070
   340
1005
CF
1070
   271
1070
     1
1070
   272
1070
     2
1070
    77
1070
     1
1070
    73
1070
     0
1070
   171
1070
     3
1070
   274
1070
     4
1070
   177
1070
     2
1070
   176
1070
     2
1070
   178
1070
     2
1070
    78
1070
     8
1070
    48
1040
-0.005
1070
    41
1041
4.5
1070
   147
1041
2.25
1070
    42
1041
1.5875
1070
    44
1041
2.0
1070
   140
1041
4.5
1070
   343
1005
0
1070
   344
1005
0
1002
}
0
ENDSEC
0
SECTION
2
OBJECTS
0
DICTIONARY
5
197
330
0
100
AcDbDictionary
280
0
281
1
3
ACAD_GROUP
350
198
3
ACAD_MLINESTYLE
350
199
0
DICTIONARY
5
198
330
0
100
AcDbDictionary
280
0
281
1
0
DICTIONARY
5
199
330
0
100
AcDbDictionary
280
0
281
1
3
Standard
350
18
0
MLINESTYLE
5
18
330
199
100
AcDbMlineStyle
2
Standard
70
0
3

62
256
51
90
52
90
71
2
49
-0.5
62
256
6
ByLayer
49
0.5
62
256
6
ByLayer
0
RASTERVARIABLES
5
184
330

100
AcDbRasterVariables
90
0
70
1
71
1
72
1
0
ENDSEC
0
EOF
