0
SECTION
2
HEADER
9
$ACADVER
1
AC1015
9
$DWGCODEPAGE
3
ANSI_1252
9
$HANDSEED
5
18e
9
$ANGBASE
50
0
9
$ANGDIR
70
0
9
$ATTMODE
70
1
9
$AUNITS
70
0
9
$AUPREC
70
0
9
$CECOLOR
62
256
9
$CELTSCALE
40
1
9
$CELTYPE
6
ByLayer
9
$CELWEIGHT
370
-1
9
$CLAYER
8
0
9
$CMLJUST
70
0
9
$CMLSCALE
40
1
9
$CMLSTYLE
2
Standard
9
$DIMSTYLE
2
Standard
9
$TEXTSIZE
40
0.2
9
$TEXTSTYLE
7
Standard
9
$LUNITS
70
2
9
$LUPREC
70
4
9
$EXTNAMES
290
1
9
$INSUNITS
70
4
9
$LTSCALE
40
1
9
$LWDISPLAY
290
0
9
$PDMODE
70
0
9
$PDSIZE
40
0
9
$PLINEGEN
70
0
0
ENDSEC
0
SECTION
2
CLASSES
0
CLASS
1
RASTERVARIABLES
2
AcDbRasterVariables
3
ISM
90
0
280
0
281
0
0
ENDSEC
0
SECTION
2
TABLES
0
TABLE
2
VPORT
5
184
100
AcDbSymbolTable
0
VPORT
5
1
100
AcDbSymbolTableRecord
100
AcDbViewportTableRecord
2
*Active
70
0
10
0
20
0
11
1
21
1
12
-1
22
1
13
0
23
0
14
0.5
24
0.5
15
10
25
10
16
0
26
0
36
1
17
0
27
0
37
0
0
ENDTAB
0
TABLE
2
LTYPE
5
185
100
AcDbSymbolTable
0
LTYPE
5
14
100
AcDbSymbolTableRecord
100
AcDbLinetypeTableRecord
70
0
2
ByBlock
3

72
65
73
0
40
0
0
LTYPE
5
15
100
AcDbSymbolTableRecord
100
AcDbLinetypeTableRecord
70
0
2
ByLayer
3

72
65
73
0
40
0
0
LTYPE
5
16
100
AcDbSymbolTableRecord
100
AcDbLinetypeTableRecord
70
0
2
CONTINUOUS
3
Solid line
72
65
73
0
40
0
0
LTYPE
5
3B
100
AcDbSymbolTableRecord
100
AcDbLinetypeTableRecord
70
0
2
DASHED
3
__ __ __ __ __ __ __ __ __
72
65
73
2
40
25.72
49
12.86
74
0
49
-12.86
74
0
0
LTYPE
5
3C
100
AcDbSymbolTableRecord
100
AcDbLinetypeTableRecord
70
0
2
HIDDEN
3
_ _ _ _ _ _ _ _ _ _ _ _ _ _ _
72
65
73
2
40
0.5
49
0.25
74
0
49
-0.25
74
0
0
LTYPE
5
3D
100
AcDbSymbolTableRecord
100
AcDbLinetypeTableRecord
70
0
2
PHANTOM
3
____ _ _ ____ _ _ _____ _ _ ____
72
65
73
6
40
50.5
49
18
74
0
49
-6.5
74
0
49
6.5
74
0
49
-6.5
74
0
49
6.5
74
0
49
-6.5
74
0
0
LTYPE
5
3E
100
AcDbSymbolTableRecord
100
AcDbLinetypeTableRecord
70
0
2
CENTER
3
____ _ ____ _ ____ _ ____
72
65
73
4
40
47.5
49
22
74
0
49
-8.5
74
0
49
8.5
74
0
49
-8.5
74
0
0
LTYPE
5
3F
100
AcDbSymbolTableRecord
100
AcDbLinetypeTableRecord
70
0
2
DOT
3
.........................
72
65
73
2
40
10
49
0
74
0
49
-10
74
0
0
LTYPE
5
40
100
AcDbSymbolTableRecord
100
AcDbLinetypeTableRecord
70
0
2
DASHDOT
3
_._._._._._._._._._._._._._._._.
72
65
73
4
40
70
49
31
74
0
49
-13
74
0
49
13
74
0
49
-13
74
0
0
ENDTAB
0
TABLE
2
LAYER
5
186
100
AcDbSymbolTable
0
LAYER
5
10
100
AcDbSymbolTableRecord
100
AcDbLayerTableRecord
2
0
70
0
62
7
6
CONTINUOUS
290
1
370
-3
390
0
0
LAYER
5
42
100
AcDbSymbolTableRecord
100
AcDbLayerTableRecord
2
80
70
0
62
-6
6
CONTINUOUS
290
1
370
-3
390
0
0
LAYER
5
44
100
AcDbSymbolTableRecord
100
AcDbLayerTableRecord
2
81
70
0
62
-3
6
CONTINUOUS
290
1
370
-3
390
0
0
LAYER
5
4C
100
AcDbSymbolTableRecord
100
AcDbLayerTableRecord
2
4
70
0
62
-2
6
CENTER
290
1
370
-3
390
0
0
LAYER
5
56
100
AcDbSymbolTableRecord
100
AcDbLayerTableRecord
2
1
70
0
62
4
6
CONTINUOUS
290
1
370
-3
390
0
0
LAYER
5
FE
100
AcDbSymbolTableRecord
100
AcDbLayerTableRecord
2
2
70
0
62
7
6
CONTINUOUS
290
1
370
-3
390
0
0
LAYER
5
16f
100
AcDbSymbolTableRecord
100
AcDbLayerTableRecord
2
SK2
70
0
62
7
6
CONTINUOUS
290
1
370
-3
390
0
0
LAYER
5
170
100
AcDbSymbolTableRecord
100
AcDbLayerTableRecord
2
SK3
70
0
62
1
6
DASHED
290
1
370
-3
390
0
0
LAYER
5
171
100
AcDbSymbolTableRecord
100
AcDbLayerTableRecord
2
SK4
70
0
62
2
6
CENTER
290
1
370
-3
390
0
0
LAYER
5
172
100
AcDbSymbolTableRecord
100
AcDbLayerTableRecord
2
SK1
70
0
62
4
6
CONTINUOUS
290
1
370
-3
390
0
0
LAYER
5
173
100
AcDbSymbolTableRecord
100
AcDbLayerTableRecord
2
SK6
70
0
62
5
6
CONTINUOUS
290
1
370
-3
390
0
0
ENDTAB
0
TABLE
2
STYLE
5
187
100
AcDbSymbolTable
0
STYLE
5
11
100
AcDbSymbolTableRecord
100
AcDbTextStyleTableRecord
2
Standard
3
txt
70
0
71
0
40
0
41
1
42
0
50
0
0
STYLE
5
C0
100
AcDbSymbolTableRecord
100
AcDbTextStyleTableRecord
2
DEFAULT
3
simplex.shx
70
0
71
0
40
0
41
1
42
0
50
0
0
STYLE
5
E3
100
AcDbSymbolTableRecord
100
AcDbTextStyleTableRecord
2
DWGDirectTextStyle
3
SIMPLEX
70
0
71
0
40
0
41
1
42
0
50
0
0
ENDTAB
0
TABLE
2
DIMSTYLE
5
188
100
AcDbSymbolTable
100
AcDbDimStyleTable
0
DIMSTYLE
105
27
100
AcDbSymbolTableRecord
100
AcDbDimStyleTableRecord
2
Standard
70
0
3
<>
41
0.18
42
0.0625
44
0.18
140
0.18
147
0.09
73
0
74
0
77
1
271
2
275
0
278
52
280
0
340
11
0
ENDTAB
0
TABLE
2
VIEW
5
189
100
AcDbSymbolTable
0
ENDTAB
0
TABLE
2
UCS
5
18a
100
AcDbSymbolTable
0
ENDTAB
0
TABLE
2
APPID
5
18b
100
AcDbSymbolTable
0
APPID
5
12
100
AcDbSymbolTableRecord
100
AcDbRegAppTableRecord
2
ACAD
70
0
0
ENDTAB
0
TABLE
2
BLOCK_RECORD
5
18c
100
AcDbSymbolTable
0
BLOCK_RECORD
5
1F
100
AcDbSymbolTableRecord
100
AcDbBlockTableRecord
2
*Model_Space
340
0
70
0
0
BLOCK_RECORD
5
1B
100
AcDbSymbolTableRecord
100
AcDbBlockTableRecord
2
*Paper_Space
340
0
70
0
0
BLOCK_RECORD
5
23
100
AcDbSymbolTableRecord
100
AcDbBlockTableRecord
2
*Paper_Space0
340
0
70
0
0
BLOCK_RECORD
5
E7
100
AcDbSymbolTableRecord
100
AcDbBlockTableRecord
2
DimnDraft3D1
340
0
70
0
0
BLOCK_RECORD
5
F2
100
AcDbSymbolTableRecord
100
AcDbBlockTableRecord
2
DimnDraft3D2
340
0
70
0
0
BLOCK_RECORD
5
FC
100
AcDbSymbolTableRecord
100
AcDbBlockTableRecord
2
DimnDraft3D3
340
0
70
0
0
BLOCK_RECORD
5
107
100
AcDbSymbolTableRecord
100
AcDbBlockTableRecord
2
DimnDraft3D4
340
0
70
0
0
BLOCK_RECORD
5
111
100
AcDbSymbolTableRecord
100
AcDbBlockTableRecord
2
DimnDraft3D5
340
0
70
0
0
BLOCK_RECORD
5
11B
100
AcDbSymbolTableRecord
100
AcDbBlockTableRecord
2
DimnDraft3D6
340
0
70
0
0
BLOCK_RECORD
5
125
100
AcDbSymbolTableRecord
100
AcDbBlockTableRecord
2
DimnDraft3D7
340
0
70
0
0
BLOCK_RECORD
5
12F
100
AcDbSymbolTableRecord
100
AcDbBlockTableRecord
2
DimnDraft3D8
340
0
70
0
0
BLOCK_RECORD
5
13A
100
AcDbSymbolTableRecord
100
AcDbBlockTableRecord
2
DimnDraft3D9
340
0
70
0
0
BLOCK_RECORD
5
145
100
AcDbSymbolTableRecord
100
AcDbBlockTableRecord
2
DimnDraft3D10
340
0
70
0
0
ENDTAB
0
ENDSEC
0
SECTION
2
BLOCKS
0
BLOCK
5
20
100
AcDbEntity
8
0
100
AcDbBlockBegin
2
*Model_Space
70
0
10
0
20
0
30
0
3
*Model_Space
0
ENDBLK
5
21
100
AcDbEntity
8
0
100
AcDbBlockEnd
0
BLOCK
5
1C
100
AcDbEntity
8
0
100
AcDbBlockBegin
2
*Paper_Space
70
0
10
0
20
0
30
0
3
*Paper_Space
0
ENDBLK
5
1D
100
AcDbEntity
8
0
100
AcDbBlockEnd
0
BLOCK
5
24
100
AcDbEntity
8
0
100
AcDbBlockBegin
2
*Paper_Space0
70
0
10
0
20
0
30
0
3
*Paper_Space0
0
ENDBLK
5
25
100
AcDbEntity
8
0
100
AcDbBlockEnd
0
BLOCK
5
EF
100
AcDbEntity
8
0
100
AcDbBlockBegin
2
DimnDraft3D1
70
0
10
0
20
0
30
0
3
DimnDraft3D1
0
MTEXT
5
E8
100
AcDbEntity
8
SK2
62
256
6
ByLayer
370
-1
48
1
60
0
100
AcDbMText
10
-68.35
20
2.996053
30
0
210
0
220
0
230
1
1
\W01.000;\fsimplex.shx,bigfont.shx;63 
40
4.5
41
0
44
1.084337
50
90
71
7
72
5
7
DEFAULT
0
MTEXT
5
E9
100
AcDbEntity
8
SK2
62
256
6
ByLayer
370
-1
48
1
60
0
100
AcDbMText
10
-68.35
20
-6.003947
30
0
210
0
220
0
230
1
1
\W01.000;\fsimplex.shx,bigfont.shx;%%c 
40
4.5
41
0
44
1.084337
50
90
71
7
72
5
7
DEFAULT
0
LINE
5
EA
100
AcDbEntity
8
SK2
62
256
6
ByLayer
370
-1
48
1
60
0
100
AcDbLine
10
-1.5875
20
-31.4925
30
0
11
-68.1
21
-31.4925
31
0
39
0
210
0
220
0
230
1
0
LINE
5
EB
100
AcDbEntity
8
SK2
62
256
6
ByLayer
370
-1
48
1
60
0
100
AcDbLine
10
-1.5875
20
31.4925
30
0
11
-68.1
21
31.4925
31
0
39
0
210
0
220
0
230
1
0
LINE
5
EC
100
AcDbEntity
8
SK2
62
256
6
ByLayer
370
-1
48
1
60
0
100
AcDbLine
10
-66.1
20
-31.4925
30
0
11
-66.1
21
31.4925
31
0
39
0
210
0
220
0
230
1
0
SOLID
5
ED
100
AcDbEntity
8
SK2
62
256
6
ByLayer
370
-1
48
1
60
0
100
AcDbTrace
10
-66.1
20
-31.4925
30
0
11
-67.097626
21
-26.992504
31
0
12
-65.102374
22
-26.992496
32
0
13
-66.1
23
-31.4925
33
0
39
0
210
0
220
0
230
1
0
SOLID
5
EE
100
AcDbEntity
8
SK2
62
256
6
ByLayer
370
-1
48
1
60
0
100
AcDbTrace
10
-66.1
20
31.4925
30
0
11
-65.102374
21
26.992504
31
0
12
-67.097626
22
26.992496
32
0
13
-66.1
23
31.4925
33
0
39
0
210
0
220
0
230
1
0
ENDBLK
5
F0
100
AcDbEntity
8
0
100
AcDbBlockEnd
0
BLOCK
5
F9
100
AcDbEntity
8
0
100
AcDbBlockBegin
2
DimnDraft3D2
70
0
10
0
20
0
30
0
3
DimnDraft3D2
0
MTEXT
5
F3
100
AcDbEntity
8
SK2
62
256
6
ByLayer
370
-1
48
1
60
0
100
AcDbMText
10
64.496053
20
60.7175
30
0
210
0
220
0
230
1
1
\W01.000;\fsimplex.shx,bigfont.shx;82 
40
4.5
41
0
44
1.084337
50
0
71
7
72
5
7
DEFAULT
0
LINE
5
F4
100
AcDbEntity
8
SK2
62
256
6
ByLayer
370
-1
48
1
60
0
100
AcDbLine
10
25
20
21.5875
30
0
11
25
21
61.5925
31
0
39
0
210
0
220
0
230
1
0
LINE
5
F5
100
AcDbEntity
8
SK2
62
256
6
ByLayer
370
-1
48
1
60
0
100
AcDbLine
10
107
20
7.5875
30
0
11
107
21
61.5925
31
0
39
0
210
0
220
0
230
1
0
LINE
5
F6
100
AcDbEntity
8
SK2
62
256
6
ByLayer
370
-1
48
1
60
0
100
AcDbLine
10
25
20
59.5925
30
0
11
107
21
59.5925
31
0
39
0
210
0
220
0
230
1
0
SOLID
5
F7
100
AcDbEntity
8
SK2
62
256
6
ByLayer
370
-1
48
1
60
0
100
AcDbTrace
10
25
20
59.5925
30
0
11
29.499996
21
60.590126
31
0
12
29.500004
22
58.594874
32
0
13
25
23
59.5925
33
0
39
0
210
0
220
0
230
1
0
SOLID
5
F8
100
AcDbEntity
8
SK2
62
256
6
ByLayer
370
-1
48
1
60
0
100
AcDbTrace
10
107
20
59.5925
30
0
11
102.500004
21
58.594874
31
0
12
102.499996
22
60.590126
32
0
13
107
23
59.5925
33
0
39
0
210
0
220
0
230
1
0
ENDBLK
5
FA
100
AcDbEntity
8
0
100
AcDbBlockEnd
0
BLOCK
5
104
100
AcDbEntity
8
0
100
AcDbBlockBegin
2
DimnDraft3D3
70
0
10
0
20
0
30
0
3
DimnDraft3D3
0
MTEXT
5
FD
100
AcDbEntity
8
2
62
256
6
ByLayer
370
-1
48
1
60
0
100
AcDbMText
10
50.906579
20
71.7175
30
0
210
0
220
0
230
1
1
\W01.000;\fsimplex.shx,bigfont.shx;107 
40
4.5
41
0
44
1.084337
50
0
71
7
72
5
7
DEFAULT
0
LINE
5
FF
100
AcDbEntity
8
2
62
256
6
ByLayer
370
-1
48
1
60
0
100
AcDbLine
10
0
20
23.6425
30
0
11
0
21
72.5925
31
0
39
0
210
0
220
0
230
1
0
LINE
5
100
100
AcDbEntity
8
2
62
256
6
ByLayer
370
-1
48
1
60
0
100
AcDbLine
10
107
20
12.5875
30
0
11
107
21
72.5925
31
0
39
0
210
0
220
0
230
1
0
LINE
5
101
100
AcDbEntity
8
2
62
256
6
ByLayer
370
-1
48
1
60
0
100
AcDbLine
10
0
20
70.5925
30
0
11
107
21
70.5925
31
0
39
0
210
0
220
0
230
1
0
SOLID
5
102
100
AcDbEntity
8
2
62
256
6
ByLayer
370
-1
48
1
60
0
100
AcDbTrace
10
0
20
70.5925
30
0
11
4.499996
21
71.590126
31
0
12
4.500004
22
69.594874
32
0
13
0
23
70.5925
33
0
39
0
210
0
220
0
230
1
0
SOLID
5
103
100
AcDbEntity
8
2
62
256
6
ByLayer
370
-1
48
1
60
0
100
AcDbTrace
10
107
20
70.5925
30
0
11
102.500004
21
69.594874
31
0
12
102.499996
22
71.590126
32
0
13
107
23
70.5925
33
0
39
0
210
0
220
0
230
1
0
ENDBLK
5
105
100
AcDbEntity
8
0
100
AcDbBlockEnd
0
BLOCK
5
10E
100
AcDbEntity
8
0
100
AcDbBlockBegin
2
DimnDraft3D4
70
0
10
0
20
0
30
0
3
DimnDraft3D4
0
MTEXT
5
108
100
AcDbEntity
8
SK2
62
256
6
ByLayer
370
-1
48
1
60
0
100
AcDbMText
10
9.496053
20
51.7175
30
0
210
0
220
0
230
1
1
\W01.000;\fsimplex.shx,bigfont.shx;22 
40
4.5
41
0
44
1.084337
50
0
71
7
72
5
7
DEFAULT
0
LINE
5
109
100
AcDbEntity
8
SK2
62
256
6
ByLayer
370
-1
48
1
60
0
100
AcDbLine
10
0
20
23.6425
30
0
11
0
21
52.5925
31
0
39
0
210
0
220
0
230
1
0
LINE
5
10A
100
AcDbEntity
8
SK2
62
256
6
ByLayer
370
-1
48
1
60
0
100
AcDbLine
10
22
20
33.08
30
0
11
22
21
52.5925
31
0
39
0
210
0
220
0
230
1
0
LINE
5
10B
100
AcDbEntity
8
SK2
62
256
6
ByLayer
370
-1
48
1
60
0
100
AcDbLine
10
0
20
50.5925
30
0
11
22
21
50.5925
31
0
39
0
210
0
220
0
230
1
0
SOLID
5
10C
100
AcDbEntity
8
SK2
62
256
6
ByLayer
370
-1
48
1
60
0
100
AcDbTrace
10
0
20
50.5925
30
0
11
4.499996
21
51.590126
31
0
12
4.500004
22
49.594874
32
0
13
0
23
50.5925
33
0
39
0
210
0
220
0
230
1
0
SOLID
5
10D
100
AcDbEntity
8
SK2
62
256
6
ByLayer
370
-1
48
1
60
0
100
AcDbTrace
10
22
20
50.5925
30
0
11
17.500004
21
49.594874
31
0
12
17.499996
22
51.590126
32
0
13
22
23
50.5925
33
0
39
0
210
0
220
0
230
1
0
ENDBLK
5
10F
100
AcDbEntity
8
0
100
AcDbBlockEnd
0
BLOCK
5
118
100
AcDbEntity
8
0
100
AcDbBlockBegin
2
DimnDraft3D5
70
0
10
0
20
0
30
0
3
DimnDraft3D5
0
MTEXT
5
112
100
AcDbEntity
8
SK2
62
256
6
ByLayer
370
-1
48
1
60
0
100
AcDbMText
10
72.996053
20
41.7175
30
0
210
0
220
0
230
1
1
\W01.000;\fsimplex.shx,bigfont.shx;65 
40
4.5
41
0
44
1.084337
50
0
71
7
72
5
7
DEFAULT
0
LINE
5
113
100
AcDbEntity
8
SK2
62
256
6
ByLayer
370
-1
48
1
60
0
100
AcDbLine
10
107
20
12.5875
30
0
11
107
21
42.5925
31
0
39
0
210
0
220
0
230
1
0
LINE
5
114
100
AcDbEntity
8
SK2
62
256
6
ByLayer
370
-1
48
1
60
0
100
AcDbLine
10
42
20
12.5875
30
0
11
42
21
42.5925
31
0
39
0
210
0
220
0
230
1
0
LINE
5
115
100
AcDbEntity
8
SK2
62
256
6
ByLayer
370
-1
48
1
60
0
100
AcDbLine
10
107
20
40.5925
30
0
11
42
21
40.5925
31
0
39
0
210
0
220
0
230
1
0
SOLID
5
116
100
AcDbEntity
8
SK2
62
256
6
ByLayer
370
-1
48
1
60
0
100
AcDbTrace
10
107
20
40.5925
30
0
11
102.500004
21
39.594874
31
0
12
102.499996
22
41.590126
32
0
13
107
23
40.5925
33
0
39
0
210
0
220
0
230
1
0
SOLID
5
117
100
AcDbEntity
8
SK2
62
256
6
ByLayer
370
-1
48
1
60
0
100
AcDbTrace
10
42
20
40.5925
30
0
11
46.499996
21
41.590126
31
0
12
46.500004
22
39.594874
32
0
13
42
23
40.5925
33
0
39
0
210
0
220
0
230
1
0
ENDBLK
5
119
100
AcDbEntity
8
0
100
AcDbBlockEnd
0
BLOCK
5
122
100
AcDbEntity
8
0
100
AcDbBlockBegin
2
DimnDraft3D6
70
0
10
0
20
0
30
0
3
DimnDraft3D6
0
MTEXT
5
11C
100
AcDbEntity
8
SK2
62
256
6
ByLayer
370
-1
48
1
60
0
100
AcDbMText
10
-20.503947
20
71.7175
30
0
210
0
220
0
230
1
1
\W01.000;\fsimplex.shx,bigfont.shx;38 
40
4.5
41
0
44
1.084337
50
0
71
7
72
5
7
DEFAULT
0
LINE
5
11D
100
AcDbEntity
8
SK2
62
256
6
ByLayer
370
-1
48
1
60
0
100
AcDbLine
10
0
20
23.6425
30
0
11
0
21
72.5925
31
0
39
0
210
0
220
0
230
1
0
LINE
5
11E
100
AcDbEntity
8
SK2
62
256
6
ByLayer
370
-1
48
1
60
0
100
AcDbLine
10
-38
20
24.1875
30
0
11
-38
21
72.5925
31
0
39
0
210
0
220
0
230
1
0
LINE
5
11F
100
AcDbEntity
8
SK2
62
256
6
ByLayer
370
-1
48
1
60
0
100
AcDbLine
10
0
20
70.5925
30
0
11
-38
21
70.5925
31
0
39
0
210
0
220
0
230
1
0
SOLID
5
120
100
AcDbEntity
8
SK2
62
256
6
ByLayer
370
-1
48
1
60
0
100
AcDbTrace
10
0
20
70.5925
30
0
11
-4.499996
21
69.594874
31
0
12
-4.500004
22
71.590126
32
0
13
0
23
70.5925
33
0
39
0
210
0
220
0
230
1
0
SOLID
5
121
100
AcDbEntity
8
SK2
62
256
6
ByLayer
370
-1
48
1
60
0
100
AcDbTrace
10
-38
20
70.5925
30
0
11
-33.500004
21
71.590126
31
0
12
-33.499996
22
69.594874
32
0
13
-38
23
70.5925
33
0
39
0
210
0
220
0
230
1
0
ENDBLK
5
123
100
AcDbEntity
8
0
100
AcDbBlockEnd
0
BLOCK
5
12C
100
AcDbEntity
8
0
100
AcDbBlockBegin
2
DimnDraft3D7
70
0
10
0
20
0
30
0
3
DimnDraft3D7
0
MTEXT
5
126
100
AcDbEntity
8
SK2
62
256
6
ByLayer
370
-1
48
1
60
0
100
AcDbMText
10
64.383553
20
-38.9675
30
0
210
0
220
0
230
1
1
\W01.000;\fsimplex.shx,bigfont.shx;min 36-max 46 
40
4.5
41
0
44
1.084337
50
0
71
7
72
5
7
DEFAULT
0
LINE
5
127
100
AcDbEntity
8
SK2
62
256
6
ByLayer
370
-1
48
1
60
0
100
AcDbLine
10
107
20
-7.5875
30
0
11
107
21
-42.0925
31
0
39
0
210
0
220
0
230
1
0
LINE
5
128
100
AcDbEntity
8
SK2
62
256
6
ByLayer
370
-1
48
1
60
0
100
AcDbLine
10
61
20
-7.5875
30
0
11
61
21
-42.0925
31
0
39
0
210
0
220
0
230
1
0
LINE
5
129
100
AcDbEntity
8
SK2
62
256
6
ByLayer
370
-1
48
1
60
0
100
AcDbLine
10
118.25
20
-40.0925
30
0
11
49.75
21
-40.0925
31
0
39
0
210
0
220
0
230
1
0
SOLID
5
12A
100
AcDbEntity
8
SK2
62
256
6
ByLayer
370
-1
48
1
60
0
100
AcDbTrace
10
107
20
-40.0925
30
0
11
111.499996
21
-39.094874
31
0
12
111.500004
22
-41.090126
32
0
13
107
23
-40.0925
33
0
39
0
210
0
220
0
230
1
0
SOLID
5
12B
100
AcDbEntity
8
SK2
62
256
6
ByLayer
370
-1
48
1
60
0
100
AcDbTrace
10
61
20
-40.0925
30
0
11
56.500004
21
-41.090126
31
0
12
56.499996
22
-39.094874
32
0
13
61
23
-40.0925
33
0
39
0
210
0
220
0
230
1
0
ENDBLK
5
12D
100
AcDbEntity
8
0
100
AcDbBlockEnd
0
BLOCK
5
137
100
AcDbEntity
8
0
100
AcDbBlockBegin
2
DimnDraft3D8
70
0
10
0
20
0
30
0
3
DimnDraft3D8
0
MTEXT
5
130
100
AcDbEntity
8
SK2
62
256
6
ByLayer
370
-1
48
1
60
0
100
AcDbMText
10
159.25
20
3.746053
30
0
210
0
220
0
230
1
1
\W01.000;\fsimplex.shx,bigfont.shx;22 
40
4.5
41
0
44
1.084337
50
90
71
7
72
5
7
DEFAULT
0
MTEXT
5
131
100
AcDbEntity
8
SK2
62
256
6
ByLayer
370
-1
48
1
60
0
100
AcDbMText
10
159
20
-7.003947
30
0
210
0
220
0
230
1
1
\W01.000;\fsimplex.shx,bigfont.shx;%%c 
40
3.5
41
0
44
1.084337
50
90
71
7
72
5
7
DEFAULT
0
LINE
5
132
100
AcDbEntity
8
SK2
62
256
6
ByLayer
370
-1
48
1
60
0
100
AcDbLine
10
108.5875
20
-11
30
0
11
163.25
21
-11
31
0
39
0
210
0
220
0
230
1
0
LINE
5
133
100
AcDbEntity
8
SK2
62
256
6
ByLayer
370
-1
48
1
60
0
100
AcDbLine
10
108.5875
20
11
30
0
11
163.25
21
11
31
0
39
0
210
0
220
0
230
1
0
LINE
5
134
100
AcDbEntity
8
SK2
62
256
6
ByLayer
370
-1
48
1
60
0
100
AcDbLine
10
161.25
20
-22.25
30
0
11
161.25
21
22.25
31
0
39
0
210
0
220
0
230
1
0
SOLID
5
135
100
AcDbEntity
8
SK2
62
256
6
ByLayer
370
-1
48
1
60
0
100
AcDbTrace
10
161.25
20
-11
30
0
11
162.247626
21
-15.499996
31
0
12
160.252374
22
-15.500004
32
0
13
161.25
23
-11
33
0
39
0
210
0
220
0
230
1
0
SOLID
5
136
100
AcDbEntity
8
SK2
62
256
6
ByLayer
370
-1
48
1
60
0
100
AcDbTrace
10
161.25
20
11
30
0
11
160.252374
21
15.499996
31
0
12
162.247626
22
15.500004
32
0
13
161.25
23
11
33
0
39
0
210
0
220
0
230
1
0
ENDBLK
5
138
100
AcDbEntity
8
0
100
AcDbBlockEnd
0
BLOCK
5
142
100
AcDbEntity
8
0
100
AcDbBlockBegin
2
DimnDraft3D9
70
0
10
0
20
0
30
0
3
DimnDraft3D9
0
MTEXT
5
13B
100
AcDbEntity
8
SK2
62
256
6
ByLayer
370
-1
48
1
60
0
100
AcDbMText
10
140.25
20
28.625
30
0
210
0
220
0
230
1
1
\W01.000;\fsimplex.shx,bigfont.shx;12 
40
4.5
41
0
44
1.084337
50
90
71
7
72
5
7
DEFAULT
0
MTEXT
5
13C
100
AcDbEntity
8
SK2
62
256
6
ByLayer
370
-1
48
1
60
0
100
AcDbMText
10
140
20
17.875
30
0
210
0
220
0
230
1
1
\W01.000;\fsimplex.shx,bigfont.shx;%%c 
40
3.5
41
0
44
1.084337
50
90
71
7
72
5
7
DEFAULT
0
LINE
5
13D
100
AcDbEntity
8
SK2
62
256
6
ByLayer
370
-1
48
1
60
0
100
AcDbLine
10
108.5875
20
6
30
0
11
144.25
21
6
31
0
39
0
210
0
220
0
230
1
0
LINE
5
13E
100
AcDbEntity
8
SK2
62
256
6
ByLayer
370
-1
48
1
60
0
100
AcDbLine
10
108.5875
20
-6
30
0
11
144.25
21
-6
31
0
39
0
210
0
220
0
230
1
0
LINE
5
13F
100
AcDbEntity
8
SK2
62
256
6
ByLayer
370
-1
48
1
60
0
100
AcDbLine
10
142.25
20
-6
30
0
11
142.25
21
31.632895
31
0
39
0
210
0
220
0
230
1
0
SOLID
5
140
100
AcDbEntity
8
SK2
62
256
6
ByLayer
370
-1
48
1
60
0
100
AcDbTrace
10
142.25
20
6
30
0
11
143.247626
21
1.500004
31
0
12
141.252374
22
1.499996
32
0
13
142.25
23
6
33
0
39
0
210
0
220
0
230
1
0
SOLID
5
141
100
AcDbEntity
8
SK2
62
256
6
ByLayer
370
-1
48
1
60
0
100
AcDbTrace
10
142.25
20
-6
30
0
11
141.252374
21
-1.500004
31
0
12
143.247626
22
-1.499996
32
0
13
142.25
23
-6
33
0
39
0
210
0
220
0
230
1
0
ENDBLK
5
143
100
AcDbEntity
8
0
100
AcDbBlockEnd
0
BLOCK
5
14D
100
AcDbEntity
8
0
100
AcDbBlockBegin
2
DimnDraft3D10
70
0
10
0
20
0
30
0
3
DimnDraft3D10
0
MTEXT
5
146
100
AcDbEntity
8
SK2
62
256
6
ByLayer
370
-1
48
1
60
0
100
AcDbMText
10
169.25
20
3.509211
30
0
210
0
220
0
230
1
1
\W01.000;\fsimplex.shx,bigfont.shx;40 
40
4.5
41
0
44
1.084337
50
90
71
7
72
5
7
DEFAULT
0
MTEXT
5
147
100
AcDbEntity
8
SK2
62
256
6
ByLayer
370
-1
48
1
60
0
100
AcDbMText
10
169
20
-7.240789
30
0
210
0
220
0
230
1
1
\W01.000;\fsimplex.shx,bigfont.shx;%%c 
40
3.5
41
0
44
1.084337
50
90
71
7
72
5
7
DEFAULT
0
LINE
5
148
100
AcDbEntity
8
SK2
62
256
6
ByLayer
370
-1
48
1
60
0
100
AcDbLine
10
43.5875
20
20
30
0
11
173.25
21
20
31
0
39
0
210
0
220
0
230
1
0
LINE
5
149
100
AcDbEntity
8
SK2
62
256
6
ByLayer
370
-1
48
1
60
0
100
AcDbLine
10
43.5875
20
-20
30
0
11
173.25
21
-20
31
0
39
0
210
0
220
0
230
1
0
LINE
5
14A
100
AcDbEntity
8
SK2
62
256
6
ByLayer
370
-1
48
1
60
0
100
AcDbLine
10
171.25
20
20
30
0
11
171.25
21
-20
31
0
39
0
210
0
220
0
230
1
0
SOLID
5
14B
100
AcDbEntity
8
SK2
62
256
6
ByLayer
370
-1
48
1
60
0
100
AcDbTrace
10
171.25
20
20
30
0
11
172.247626
21
15.500004
31
0
12
170.252374
22
15.499996
32
0
13
171.25
23
20
33
0
39
0
210
0
220
0
230
1
0
SOLID
5
14C
100
AcDbEntity
8
SK2
62
256
6
ByLayer
370
-1
48
1
60
0
100
AcDbTrace
10
171.25
20
-20
30
0
11
170.252374
21
-15.500004
31
0
12
172.247626
22
-15.499996
32
0
13
171.25
23
-20
33
0
39
0
210
0
220
0
230
1
0
ENDBLK
5
14E
100
AcDbEntity
8
0
100
AcDbBlockEnd
0
ENDSEC
0
SECTION
2
ENTITIES
0
ARC
5
8F
100
AcDbEntity
8
SK1
62
256
6
ByLayer
370
-1
48
1
60
0
100
AcDbCircle
39
0
10
0.6
20
23.45
30
0
40
0.999999999999999
210
0
220
0
230
-1
100
AcDbArc
50
233.130102
51
246.421822
0
ARC
5
90
100
AcDbEntity
8
SK1
62
256
6
ByLayer
370
-1
48
1
60
0
100
AcDbCircle
39
0
10
0.6
20
-23.45
30
0
40
0.999999999999999
210
0
220
0
230
-1
100
AcDbArc
50
113.578178
51
126.869898
0
ARC
5
91
100
AcDbEntity
8
1
62
256
6
ByLayer
370
-1
48
1
60
0
100
AcDbCircle
39
0
10
21.22753
20
30.4925
30
0
40
1
210
0
220
0
230
1
100
AcDbArc
50
14.630006
51
90
0
ARC
5
92
100
AcDbEntity
8
1
62
256
6
ByLayer
370
-1
48
1
60
0
100
AcDbCircle
39
0
10
21.22753
20
-30.4925
30
0
40
1
210
0
220
0
230
1
100
AcDbArc
50
270
51
345.369994
0
ARC
5
93
100
AcDbEntity
8
1
62
256
6
ByLayer
370
-1
48
1
60
0
100
AcDbCircle
39
0
10
-26.931174
20
-22.5
30
0
40
2.5
210
0
220
0
230
-1
100
AcDbArc
50
14.630006
51
90
0
ARC
5
94
100
AcDbEntity
8
1
62
256
6
ByLayer
370
-1
48
1
60
0
100
AcDbCircle
39
0
10
-26.931174
20
22.5
30
0
40
2.5
210
0
220
0
230
-1
100
AcDbArc
50
270
51
345.369994
0
ARC
5
95
100
AcDbEntity
8
1
62
256
6
ByLayer
370
-1
48
1
60
0
100
AcDbCircle
39
0
10
39.573958
20
19
30
0
40
1
210
0
220
0
230
1
100
AcDbArc
50
10
51
90
0
ARC
5
96
100
AcDbEntity
8
1
62
256
6
ByLayer
370
-1
48
1
60
0
100
AcDbCircle
39
0
10
39.573958
20
-19
30
0
40
1
210
0
220
0
230
1
100
AcDbArc
50
270
51
350
0
ARC
5
97
100
AcDbEntity
8
1
62
256
6
ByLayer
370
-1
48
1
60
0
100
AcDbCircle
39
0
10
-46.195498
20
-16
30
0
40
5
210
0
220
0
230
-1
100
AcDbArc
50
10
51
90
0
ARC
5
98
100
AcDbEntity
8
1
62
256
6
ByLayer
370
-1
48
1
60
0
100
AcDbCircle
39
0
10
-46.195498
20
16
30
0
40
5
210
0
220
0
230
-1
100
AcDbArc
50
270
51
350
0
ARC
5
99
100
AcDbEntity
8
1
62
256
6
ByLayer
370
-1
48
1
60
0
100
AcDbCircle
39
0
10
106.2
20
-9.969571
30
0
40
0.800000000000011
210
0
220
0
230
1
100
AcDbArc
50
282
51
0
0
ARC
5
9A
100
AcDbEntity
8
1
62
256
6
ByLayer
370
-1
48
1
60
0
100
AcDbCircle
39
0
10
106.2
20
9.969571
30
0
40
0.800000000000011
210
0
220
0
230
1
100
AcDbArc
50
0
51
78
0
ELLIPSE
5
9B
100
AcDbEntity
8
1
62
256
6
ByLayer
370
-1
48
1
60
0
100
AcDbEllipse
10
-2.347154
20
0
30
0
11
14.7501703789503
21
31.0858517596476
31
0
210
0
220
0
230
1
40
0.341999
41
-1.09076669219568
42
-0.158279080202613
0
ELLIPSE
5
9C
100
AcDbEntity
8
1
62
256
6
ByLayer
370
-1
48
1
60
0
100
AcDbEllipse
10
26.347154
20
0
30
0
11
14.7501703789519
21
-31.0858517596495
31
0
210
0
220
0
230
1
40
0.341999
41
-2.98331357338719
42
-2.05082596139416
0
ELLIPSE
5
9D
100
AcDbEntity
8
1
62
256
6
ByLayer
370
-1
48
1
60
0
100
AcDbEllipse
10
26.347154
20
0
30
0
11
14.7501703789519
21
31.0858517596496
31
0
210
0
220
0
230
1
40
0.341999
41
2.05082596139416
42
2.98331357338719
0
ELLIPSE
5
9E
100
AcDbEntity
8
1
62
256
6
ByLayer
370
-1
48
1
60
0
100
AcDbEllipse
10
-2.347154
20
0
30
0
11
14.7501703789508
21
-31.0858517596482
31
0
210
0
220
0
230
1
40
0.341999
41
0.15827908020261
42
1.09076669219567
0
POINT
5
41
100
AcDbEntity
8
80
62
256
6
ByLayer
370
-1
48
1
60
0
100
AcDbPoint
10
0
20
0
30
0
39
0
210
0
220
0
230
1
50
360
0
POINT
5
43
100
AcDbEntity
8
81
62
256
6
ByLayer
370
-1
48
1
60
0
100
AcDbPoint
10
107
20
0
30
0
39
0
210
0
220
0
230
1
50
360
0
POINT
5
45
100
AcDbEntity
8
SK2
62
256
6
ByLayer
370
-1
48
1
60
1
100
AcDbPoint
10
0
20
-31.4925
30
0
39
0
210
0
220
0
230
1
50
360
0
POINT
5
47
100
AcDbEntity
8
SK2
62
256
6
ByLayer
370
-1
48
1
60
1
100
AcDbPoint
10
0
20
31.4925
30
0
39
0
210
0
220
0
230
1
50
360
0
SPLINE
5
9F
100
AcDbEntity
8
1
62
256
6
ByLayer
370
-1
48
1
60
0
100
AcDbSpline
70
4
71
3
72
16
73
12
40
0
40
0
40
0
40
0
40
0.124999999999999
40
0.124999999999999
40
0.249999999999997
40
0.249999999999997
40
0.499999999999998
40
0.499999999999998
40
0.749999999999999
40
0.749999999999999
40
1
40
1
40
1
40
1
41
1
10
10.5386751345948
20
30.0691920745855
30
0
41
1
10
10.5071786228158
20
30.0691920745855
30
0
41
1
10
10.4765338294594
20
30.0672783796022
30
0
41
1
10
10.418420597339
20
30.060366764964
30
0
41
1
10
10.3919834848326
20
30.0555436480818
30
0
41
1
10
10.3181675079962
20
30.0381534377473
30
0
41
1
10
10.2791130362539
20
30.0235152138718
30
0
41
1
10
10.2124787135084
20
29.9916915948323
30
0
41
1
10
10.1857084685535
20
29.9747442332208
30
0
41
1
10
10.1400443769713
20
29.9394371416491
30
0
41
1
10
10.1212504287013
20
29.9210078356702
30
0
41
1
10
10.1056624327025
20
29.9021630620273
30
0
0
SPLINE
5
A0
100
AcDbEntity
8
1
62
256
6
ByLayer
370
-1
48
1
60
0
100
AcDbSpline
70
4
71
3
72
16
73
12
40
0
40
0
40
0
40
0
40
0.250000000000001
40
0.250000000000001
40
0.500000000000002
40
0.500000000000002
40
0.750000000000003
40
0.750000000000003
40
0.875000000000002
40
0.875000000000002
40
1
40
1
40
1
40
1
41
1
10
13.8943375672974
20
29.9021630620273
30
0
41
1
10
13.8787554376954
20
29.9210007436156
30
0
41
1
10
13.8601100335811
20
29.9392944570177
30
0
41
1
10
13.8145406850166
20
29.9745746801436
30
0
41
1
10
13.7875376435529
20
29.9916836375546
30
0
41
1
10
13.720873956999
20
30.0235215710803
30
0
41
1
10
13.6811255577407
20
30.038314982415
30
0
41
1
10
13.6084674157505
20
30.0554399165011
30
0
41
1
10
13.5814691961411
20
30.0603746070362
30
0
41
1
10
13.5238451158643
20
30.0672385509654
30
0
41
1
10
13.4927757288618
20
30.0691920745855
30
0
41
1
10
13.4613248654052
20
30.0691920745855
30
0
0
SPLINE
5
A1
100
AcDbEntity
8
1
62
256
6
ByLayer
370
-1
48
1
60
0
100
AcDbSpline
70
4
71
3
72
16
73
12
40
0
40
0
40
0
40
0
40
0.125
40
0.125
40
0.25
40
0.25
40
0.5
40
0.5
40
0.75
40
0.75
40
1
40
1
40
1
40
1
41
1
10
13.4613248654052
20
-30.0691920745855
30
0
41
1
10
13.4928213771842
20
-30.0691920745855
30
0
41
1
10
13.5234661705406
20
-30.0672783796022
30
0
41
1
10
13.581579402661
20
-30.060366764964
30
0
41
1
10
13.6080165151673
20
-30.0555436480818
30
0
41
1
10
13.6818324920038
20
-30.0381534377473
30
0
41
1
10
13.7208869637461
20
-30.0235152138718
30
0
41
1
10
13.7875212864916
20
-29.9916915948323
30
0
41
1
10
13.8142915314464
20
-29.9747442332208
30
0
41
1
10
13.8599556230287
20
-29.9394371416491
30
0
41
1
10
13.8787495712987
20
-29.9210078356702
30
0
41
1
10
13.8943375672975
20
-29.9021630620273
30
0
0
SPLINE
5
A2
100
AcDbEntity
8
1
62
256
6
ByLayer
370
-1
48
1
60
0
100
AcDbSpline
70
4
71
3
72
16
73
12
40
0
40
0
40
0
40
0
40
0.125000000000001
40
0.125000000000001
40
0.250000000000001
40
0.250000000000001
40
0.500000000000001
40
0.500000000000001
40
0.75
40
0.75
40
1
40
1
40
1
40
1
41
1
10
10.5386751345948
20
-9.36062200025657
30
0
41
1
10
10.5071786228158
20
-9.36062200025657
30
0
41
1
10
10.4765338294594
20
-9.36677435270803
30
0
41
1
10
10.418420597339
20
-9.38893182885511
30
0
41
1
10
10.3919834848326
20
-9.40437279145533
30
0
41
1
10
10.3181675079962
20
-9.45983063431993
30
0
41
1
10
10.2791130362539
20
-9.50625268585796
30
0
41
1
10
10.2124787135084
20
-9.6061824470201
30
0
41
1
10
10.1857084685535
20
-9.65896165930744
30
0
41
1
10
10.1400443769713
20
-9.76785216023544
30
0
41
1
10
10.1212504287013
20
-9.82417699345555
30
0
41
1
10
10.1056624327025
20
-9.88120440340796
30
0
0
SPLINE
5
A3
100
AcDbEntity
8
1
62
256
6
ByLayer
370
-1
48
1
60
0
100
AcDbSpline
70
4
71
3
72
111
73
107
40
-0.0312500000000004
40
-0.0312500000000004
40
0
40
0
40
0.0312499999999996
40
0.0312499999999996
40
0.0468749999999994
40
0.0468749999999994
40
0.0624999999999992
40
0.0624999999999992
40
0.0937499999999988
40
0.0937499999999988
40
0.109374999999999
40
0.109374999999999
40
0.124999999999998
40
0.140624999999998
40
0.140624999999998
40
0.148437499999998
40
0.148437499999998
40
0.156249999999998
40
0.156249999999998
40
0.187499999999998
40
0.187499999999998
40
0.195312499999998
40
0.195312499999998
40
0.203124999999997
40
0.203124999999997
40
0.218749999999997
40
0.218749999999997
40
0.234374999999997
40
0.234374999999997
40
0.249999999999997
40
0.249999999999997
40
0.281249999999997
40
0.281249999999997
40
0.296874999999997
40
0.296874999999997
40
0.312499999999997
40
0.312499999999997
40
0.343749999999996
40
0.343749999999996
40
0.359374999999996
40
0.359374999999996
40
0.374999999999996
40
0.374999999999996
40
0.406249999999996
40
0.406249999999996
40
0.421874999999996
40
0.421874999999996
40
0.437499999999996
40
0.437499999999996
40
0.468749999999996
40
0.468749999999996
40
0.499999999999996
40
0.499999999999996
40
0.515624999999996
40
0.515624999999996
40
0.523437499999996
40
0.523437499999996
40
0.531249999999996
40
0.531249999999996
40
0.562499999999996
40
0.562499999999996
40
0.578124999999995
40
0.578124999999995
40
0.593749999999995
40
0.593749999999995
40
0.624999999999995
40
0.624999999999995
40
0.632812499999995
40
0.632812499999995
40
0.640624999999995
40
0.640624999999995
40
0.656249999999995
40
0.656249999999995
40
0.671874999999995
40
0.671874999999995
40
0.679687499999995
40
0.679687499999995
40
0.687499999999995
40
0.687499999999995
40
0.718749999999995
40
0.718749999999995
40
0.734374999999996
40
0.734374999999996
40
0.749999999999996
40
0.749999999999996
40
0.781249999999996
40
0.781249999999996
40
0.812499999999997
40
0.812499999999997
40
0.828124999999997
40
0.828124999999997
40
0.843749999999998
40
0.843749999999998
40
0.874999999999998
40
0.874999999999998
40
0.890624999999998
40
0.890624999999998
40
0.906249999999999
40
0.906249999999999
40
0.937499999999999
40
0.937499999999999
40
0.953124999999999
40
0.953124999999999
40
0.96875
40
0.96875
40
1
40
1
40
1.03125
40
1.03125
41
1
10
9.35962636033403
20
-3.99819446089748
30
0
41
1
10
8.82448756341344
20
-3.64523081229811
30
0
41
1
10
8.57720931904018
20
-3.44604210109043
30
0
41
1
10
8.2369882991932
20
-3.11270127159332
30
0
41
1
10
8.12866506510497
20
-2.99570602983618
30
0
41
1
10
7.92312686619167
20
-2.74981744364376
30
0
41
1
10
7.82746218871605
20
-2.62279165063842
30
0
41
1
10
7.56142180839063
20
-2.22964393044072
30
0
41
1
10
7.41177481276765
20
-1.95158074872737
30
0
41
1
10
7.23135356114605
20
-1.50899591603607
30
0
41
1
10
7.17848806959523
20
-1.35643078225559
30
0
41
1
10
7.09065027559853
20
-1.05004522966823
30
0
41
1
10
7.01991724338166
20
-0.740882969945488
30
0
41
1
10
6.98304424442165
20
-0.426217961211819
30
0
41
1
10
6.96834900408845
20
-0.188111873235925
30
0
41
1
10
6.96561459880229
20
-0.108391301514359
30
0
41
1
10
6.9645700419851
20
0.0517693035050968
30
0
41
1
10
6.96628066221396
20
0.132390666424129
30
0
41
1
10
6.98586512130075
20
0.53229796831792
30
0
41
1
10
7.03630989018163
20
0.845489726089681
30
0
41
1
10
7.14125841738627
20
1.22888038185312
30
0
41
1
10
7.16436339649951
20
1.30514963142494
30
0
41
1
10
7.21484668667509
20
1.45686268773866
30
0
41
1
10
7.24231605142788
20
1.53252164932343
30
0
41
1
10
7.33033877744006
20
1.75602276860235
30
0
41
1
10
7.39653445997459
20
1.90071240154632
30
0
41
1
10
7.54326354839185
20
2.18188206366119
30
0
41
1
10
7.62379922178133
20
2.31836076846702
30
0
41
1
10
7.79899168392825
20
2.58325198467691
30
0
41
1
10
7.89399784385165
20
2.71208400927375
30
0
41
1
10
8.19816945334378
20
3.08350123097841
30
0
41
1
10
8.42269766587515
20
3.30716491038595
30
0
41
1
10
8.78997480405161
20
3.60929101986454
30
0
41
1
10
8.91752310296681
20
3.7043920270786
30
0
41
1
10
9.18297876537068
20
3.88328742208759
30
0
41
1
10
9.31964757343232
20
3.96619991147506
30
0
41
1
10
9.73776694629723
20
4.1941832192376
30
0
41
1
10
10.0286155841596
20
4.3196057752597
30
0
41
1
10
10.4828256699214
20
4.46855233974463
30
0
41
1
10
10.637960886096
20
4.5117505894639
30
0
41
1
10
10.9490053567656
20
4.58344835293678
30
0
41
1
10
11.1052742445256
20
4.61213781192555
30
0
41
1
10
11.5762633201201
20
4.677304802653
30
0
41
1
10
11.8931470962235
20
4.69306512725168
30
0
41
1
10
12.3729264262072
20
4.67408621601314
30
0
41
1
10
12.5330680019126
20
4.66055201267034
30
0
41
1
10
12.8485817314843
20
4.61972689199087
30
0
41
1
10
13.00470256432
20
4.59241736724985
30
0
41
1
10
13.4682109204568
20
4.49000202537053
30
0
41
1
10
13.7708176834759
20
4.39460038671913
30
0
41
1
10
14.3623031433822
20
4.14614050338713
30
0
41
1
10
14.6418333226659
20
3.99700968466871
30
0
41
1
10
15.0372912069151
20
3.73650740085307
30
0
41
1
10
15.1651100391818
20
3.64349619553963
30
0
41
1
10
15.3506362225613
20
3.49437440696411
30
0
41
1
10
15.4114427081959
20
3.44306334875432
30
0
41
1
10
15.5309257875653
20
3.33713768460788
30
0
41
1
10
15.5897144872187
20
3.28240052749311
30
0
41
1
10
15.8749818904682
20
3.00335776220098
30
0
41
1
10
16.078007556069
20
2.76125862580125
30
0
41
1
10
16.344410927316
20
2.36938697734283
30
0
41
1
10
16.4268107967538
20
2.23394202560667
30
0
41
1
10
16.5781386916649
20
1.95288093673986
30
0
41
1
10
16.6469803021332
20
1.8071068497575
30
0
41
1
10
16.8274559344975
20
1.36540858478594
30
0
41
1
10
16.9154128300471
20
1.06156991780935
30
0
41
1
10
16.9838103142926
20
0.669703953220079
30
0
41
1
10
16.9953924429614
20
0.590721678066728
30
0
41
1
10
17.0142500361608
20
0.431506004461056
30
0
41
1
10
17.0215143798961
20
0.351185112097937
30
0
41
1
10
17.0365180589707
20
0.111508840472482
30
0
41
1
10
17.0376356433397
20
-0.0475983684101493
30
0
41
1
10
17.0225795375512
20
-0.36449524779087
30
0
41
1
10
17.006404818482
20
-0.522284840249768
30
0
41
1
10
16.9691265312971
20
-0.757977944448641
30
0
41
1
10
16.9545269720305
20
-0.836376791985117
30
0
41
1
10
16.9209224277175
20
-0.99283914416327
30
0
41
1
10
16.9018475623338
20
-1.0711352631719
30
0
41
1
10
16.7963762841054
20
-1.45777008851218
30
0
41
1
10
16.6799762268838
20
-1.75302810054194
30
0
41
1
10
16.4600288395135
20
-2.17609081841692
30
0
41
1
10
16.3787368237377
20
-2.31430850654292
30
0
41
1
10
16.2022771388342
20
-2.58154663854961
30
0
41
1
10
16.1078353281224
20
-2.70960331887625
30
0
41
1
10
15.8067757176524
20
-3.07793704046767
30
0
41
1
10
15.5825913966714
20
-3.30252666760091
30
0
41
1
10
15.0875804881776
20
-3.71029970914299
30
0
41
1
10
14.8241877206199
20
-3.88736007202169
30
0
41
1
10
14.4070403546688
20
-4.11542630362482
30
0
41
1
10
14.2642738531129
20
-4.18515308795497
30
0
41
1
10
13.9712386781725
20
-4.31193426242194
30
0
41
1
10
13.8206889753392
20
-4.36899811749564
30
0
41
1
10
13.3665397003474
20
-4.51799766893089
30
0
41
1
10
13.0576900201357
20
-4.58927650658353
30
0
41
1
10
12.5854733638565
20
-4.65507940188547
30
0
41
1
10
12.426567644474
20
-4.67011499434989
30
0
41
1
10
12.1056655888696
20
-4.68598256402512
30
0
41
1
10
11.9460337877236
20
-4.68669568861444
30
0
41
1
10
11.469726338054
20
-4.66787756577608
30
0
41
1
10
11.1555215688551
20
-4.62757498205278
30
0
41
1
10
10.6892739972698
20
-4.52491960833819
30
0
41
1
10
10.5340027159045
20
-4.48338521713708
30
0
41
1
10
10.2289351591426
20
-4.38669448405014
30
0
41
1
10
10.0795024584994
20
-4.33173679238928
30
0
41
1
10
9.64038447384706
20
-4.14724732377914
30
0
41
1
10
9.35962636033403
20
-3.99819446089748
30
0
41
1
10
8.82448756341344
20
-3.64523081229811
30
0
0
SPLINE
5
A4
100
AcDbEntity
8
1
62
256
6
ByLayer
370
-1
48
1
60
0
100
AcDbSpline
70
4
71
3
72
16
73
12
40
0
40
0
40
0
40
0
40
0.250000000000001
40
0.250000000000001
40
0.500000000000002
40
0.500000000000002
40
0.750000000000003
40
0.750000000000003
40
0.875000000000002
40
0.875000000000002
40
1
40
1
40
1
40
1
41
1
10
13.8943375672974
20
-9.88120440340796
30
0
41
1
10
13.8787554376954
20
-9.82419845518876
30
0
41
1
10
13.8601100335811
20
-9.76828922026249
30
0
41
1
10
13.8145406850166
20
-9.65948754433705
30
0
41
1
10
13.7875376435529
20
-9.60620741929748
30
0
41
1
10
13.720873956999
20
-9.50623273797817
30
0
41
1
10
13.6811255577407
20
-9.4593152568018
30
0
41
1
10
13.6084674157505
20
-9.40470369765438
30
0
41
1
10
13.5814691961411
20
-9.38890662232873
30
0
41
1
10
13.5238451158643
20
-9.36690210248261
30
0
41
1
10
13.4927757288618
20
-9.36062200025646
30
0
41
1
10
13.4613248654052
20
-9.36062200025646
30
0
0
SPLINE
5
A5
100
AcDbEntity
8
1
62
256
6
ByLayer
370
-1
48
1
60
0
100
AcDbSpline
70
4
71
3
72
16
73
12
40
0
40
0
40
0
40
0
40
0.25
40
0.25
40
0.500000000000001
40
0.500000000000001
40
0.750000000000001
40
0.750000000000001
40
0.875
40
0.875
40
1
40
1
40
1
40
1
41
1
10
10.1056624327026
20
-29.9021630620273
30
0
41
1
10
10.1212445623046
20
-29.9210007436156
30
0
41
1
10
10.1398899664189
20
-29.9392944570177
30
0
41
1
10
10.1854593149834
20
-29.9745746801436
30
0
41
1
10
10.2124623564471
20
-29.9916836375547
30
0
41
1
10
10.279126043001
20
-30.0235215710803
30
0
41
1
10
10.3188744422593
20
-30.038314982415
30
0
41
1
10
10.3915325842495
20
-30.0554399165011
30
0
41
1
10
10.4185308038589
20
-30.0603746070362
30
0
41
1
10
10.4761548841357
20
-30.0672385509655
30
0
41
1
10
10.5072242711382
20
-30.0691920745855
30
0
41
1
10
10.5386751345948
20
-30.0691920745855
30
0
0
SPLINE
5
A6
100
AcDbEntity
8
1
62
256
6
ByLayer
370
-1
48
1
60
0
100
AcDbSpline
70
4
71
3
72
16
73
12
40
0
40
0
40
0
40
0
40
0.125
40
0.125
40
0.25
40
0.25
40
0.5
40
0.5
40
0.75
40
0.75
40
1
40
1
40
1
40
1
41
1
10
13.4613248654052
20
9.36062200025654
30
0
41
1
10
13.4928213771842
20
9.36062200025654
30
0
41
1
10
13.5234661705406
20
9.36677435270803
30
0
41
1
10
13.5815794026609
20
9.38893182885511
30
0
41
1
10
13.6080165151673
20
9.4043727914553
30
0
41
1
10
13.6818324920038
20
9.45983063431993
30
0
41
1
10
13.7208869637461
20
9.50625268585796
30
0
41
1
10
13.7875212864916
20
9.6061824470201
30
0
41
1
10
13.8142915314464
20
9.65896165930744
30
0
41
1
10
13.8599556230287
20
9.76785216023544
30
0
41
1
10
13.8787495712987
20
9.82417699345555
30
0
41
1
10
13.8943375672975
20
9.88120440340796
30
0
0
SPLINE
5
A7
100
AcDbEntity
8
1
62
256
6
ByLayer
370
-1
48
1
60
0
100
AcDbSpline
70
4
71
3
72
65
73
61
40
0
40
0
40
0
40
0
40
0.0556034391826829
40
0.0556034391826829
40
0.0834051587740244
40
0.0834051587740244
40
0.111206878365366
40
0.111206878365366
40
0.166810317548048
40
0.166810317548048
40
0.19461203713939
40
0.19461203713939
40
0.222413756730731
40
0.222413756730731
40
0.278017195913415
40
0.278017195913415
40
0.305818915504757
40
0.305818915504757
40
0.319719775300428
40
0.319719775300428
40
0.333620635096099
40
0.333620635096099
40
0.389224074278784
40
0.389224074278784
40
0.403124934074455
40
0.403124934074455
40
0.417025793870127
40
0.417025793870127
40
0.44482751346147
40
0.472629233052814
40
0.472629233052814
40
0.500430952644157
40
0.500430952644157
40
0.556034391826845
40
0.556034391826845
40
0.583836111418188
40
0.583836111418188
40
0.611637831009532
40
0.611637831009532
40
0.639439550600876
40
0.639439550600876
40
0.66724127019222
40
0.66724127019222
40
0.722844709374907
40
0.722844709374907
40
0.75064642896625
40
0.75064642896625
40
0.778448148557593
40
0.778448148557593
40
0.83405158774028
40
0.83405158774028
40
0.861853307331623
40
0.861853307331623
40
0.889655026922966
40
0.889655026922966
40
0.945258466105652
40
0.945258466105652
40
0.973060185696995
40
0.973060185696995
40
1
40
1
40
1
40
1
41
1
10
27.75
20
-18.7349939951952
30
0
41
1
10
27.75
20
-18.6085995310791
30
0
41
1
10
27.7823610660596
20
-18.4751367433756
30
0
41
1
10
27.8747459878285
20
-18.265233816874
30
0
41
1
10
27.9129085368476
20
-18.1936484095645
30
0
41
1
10
28.0038465132537
20
-18.0474054644727
30
0
41
1
10
28.0568270679601
20
-17.9724923314845
30
0
41
1
10
28.2367241348385
20
-17.7451810005512
30
0
41
1
10
28.3826321689525
20
-17.5921646743776
30
0
41
1
10
28.6391955612061
20
-17.3627207199621
30
0
41
1
10
28.7310501711457
20
-17.2862601882809
30
0
41
1
10
28.9278383645669
20
-17.1338905872395
30
0
41
1
10
29.0333371124927
20
-17.0576128782552
30
0
41
1
10
29.3658613535573
20
-16.8337948042639
30
0
41
1
10
29.608240087996
20
-16.6912556948297
30
0
41
1
10
30.0049028490457
20
-16.4919803908614
30
0
41
1
10
30.1426831090466
20
-16.4279986722226
30
0
41
1
10
30.3584239043167
20
-16.3365227925288
30
0
41
1
10
30.4318529900345
20
-16.3067825393192
30
0
41
1
10
30.5819170329531
20
-16.248976916329
30
0
41
1
10
30.6587001745505
20
-16.2208686453634
30
0
41
1
10
31.0463271909753
20
-16.0866063421679
30
0
41
1
10
31.3713434914785
20
-15.9977960607309
30
0
41
1
10
31.7986312238582
20
-15.9158213161912
30
0
41
1
10
31.8851502481194
20
-15.900889799042
30
0
41
1
10
32.0604177361178
20
-15.8741506447422
30
0
41
1
10
32.1489061520711
20
-15.8623967821432
30
0
41
1
10
32.4139117993562
20
-15.8324619502891
30
0
41
1
10
32.7683346542948
20
-15.8063777704421
30
0
41
1
10
33.1249138763944
20
-15.8082005352456
30
0
41
1
10
33.4825929477076
20
-15.8242442502062
30
0
41
1
10
33.6630263607177
20
-15.8395809409185
30
0
41
1
10
34.1912554464934
20
-15.9052696086803
30
0
41
1
10
34.5300572330159
20
-15.9750136906832
30
0
41
1
10
35.020127422263
20
-16.1123821532963
30
0
41
1
10
35.1789978859971
20
-16.1632958385003
30
0
41
1
10
35.4849278168126
20
-16.2727497478626
30
0
41
1
10
35.6325981200368
20
-16.331462492885
30
0
41
1
10
35.9180646530782
20
-16.455701115029
30
0
41
1
10
36.0561006820943
20
-16.5213547645572
30
0
41
1
10
36.3216151433908
20
-16.658053464624
30
0
41
1
10
36.4478692571451
20
-16.7284410246014
30
0
41
1
10
36.8085914025421
20
-16.9443045999176
30
0
41
1
10
37.0252088578037
20
-17.0944132570042
30
0
41
1
10
37.3160966232704
20
-17.3249905723561
30
0
41
1
10
37.4069709984686
20
-17.4025285602552
30
0
41
1
10
37.574521401313
20
-17.5563761297293
30
0
41
1
10
37.6515805007749
20
-17.632985328913
30
0
41
1
10
37.8629410518799
20
-17.861276882158
30
0
41
1
10
37.9776375611794
20
-18.0114044972848
30
0
41
1
10
38.1079236358911
20
-18.2316319998875
30
0
41
1
10
38.1438669474487
20
-18.3034826721211
30
0
41
1
10
38.2003288601782
20
-18.4428533180143
30
0
41
1
10
38.2209561378913
20
-18.5105554503913
30
0
41
1
10
38.2597467036458
20
-18.7076214916934
30
0
41
1
10
38.2550682817457
20
-18.8309478204891
30
0
41
1
10
38.1970801918853
20
-19.0034705114082
30
0
41
1
10
38.1693403877307
20
-19.0582506097665
30
0
41
1
10
38.0987775243303
20
-19.1599380343869
30
0
41
1
10
38.0563910325017
20
-19.2072179253934
30
0
41
1
10
38.0062567066031
20
-19.2518981264751
30
0
0
SPLINE
5
A8
100
AcDbEntity
8
1
62
256
6
ByLayer
370
-1
48
1
60
0
100
AcDbSpline
70
4
71
3
72
14
73
10
40
0
40
0
40
0
40
0
40
0.0464084799381504
40
0.0464084799381504
40
0.364272319958767
40
0.364272319958767
40
0.682136159979383
40
0.682136159979383
40
1
40
1
40
1
40
1
41
1
10
27.9950875975577
20
-19.253091289807
30
0
41
1
10
27.9873927830384
20
-19.2462604310423
30
0
41
1
10
27.9798856488843
20
-19.239374271959
30
0
41
1
10
27.9224929406921
20
-19.1849405721566
30
0
41
1
10
27.8812223111866
20
-19.1349301830767
30
0
41
1
10
27.8154228362628
20
-19.0297354105751
30
0
41
1
10
27.7908964114077
20
-18.9745512520497
30
0
41
1
10
27.7581848394373
20
-18.8588348145774
30
0
41
1
10
27.75
20
-18.7981912272533
30
0
41
1
10
27.75
20
-18.7349939951952
30
0
0
SPLINE
5
A9
100
AcDbEntity
8
1
62
256
6
ByLayer
370
-1
48
1
60
0
100
AcDbSpline
70
4
71
3
72
16
73
12
40
0
40
0
40
0
40
0
40
0.249999999999999
40
0.249999999999999
40
0.499999999999997
40
0.499999999999997
40
0.749999999999996
40
0.749999999999996
40
0.874999999999998
40
0.874999999999998
40
1
40
1
40
1
40
1
41
1
10
10.1056624327026
20
9.88120440340796
30
0
41
1
10
10.1212445623046
20
9.82419845518876
30
0
41
1
10
10.1398899664189
20
9.76828922026249
30
0
41
1
10
10.1854593149834
20
9.65948754433705
30
0
41
1
10
10.2124623564471
20
9.60620741929748
30
0
41
1
10
10.279126043001
20
9.50623273797819
30
0
41
1
10
10.3188744422593
20
9.4593152568018
30
0
41
1
10
10.3915325842495
20
9.40470369765438
30
0
41
1
10
10.4185308038589
20
9.38890662232873
30
0
41
1
10
10.4761548841357
20
9.36690210248264
30
0
41
1
10
10.5072242711382
20
9.36062200025648
30
0
41
1
10
10.5386751345948
20
9.36062200025648
30
0
0
SPLINE
5
AA
100
AcDbEntity
8
SK1
62
256
6
ByLayer
370
-1
48
1
60
0
100
AcDbSpline
70
4
71
3
72
299
73
295
40
0
40
0
40
0
40
0
40
0.002948801062882
40
0.0064743205353527
40
0.0099998400078235
40
0.0135253594802942
40
0.0170508789527649
40
0.0205763984252357
40
0.0241019178977064
40
0.0276274373701771
40
0.0346784763151186
40
0.0417295152600601
40
0.0487805542050015
40
0.0523060736774723
40
0.055831593149943
40
0.0593571126224137
40
0.0628826320948845
40
0.0699336710398259
40
0.0734591905122967
40
0.0769847099847673
40
0.0805102294572381
40
0.0840357489297088
40
0.0875612684021796
40
0.0910867878746504
40
0.0981378268195918
40
0.101663346292063
40
0.105188865764533
40
0.108714385237004
40
0.112239904709475
40
0.115765424181945
40
0.119290943654416
40
0.122816463126887
40
0.126341982599358
40
0.129867502071828
40
0.133393021544299
40
0.13691854101677
40
0.140444060489241
40
0.143969579961711
40
0.147495099434182
40
0.154546138379124
40
0.158071657851594
40
0.161597177324065
40
0.1633599370603
40
0.165122696796536
40
0.168648216269006
40
0.175699255213948
40
0.179224774686419
40
0.182750294158889
40
0.18627581363136
40
0.189801333103831
40
0.196852372048772
40
0.200377891521243
40
0.203903410993714
40
0.205666170729949
40
0.207428930466185
40
0.210954449938655
40
0.218005488883597
40
0.221531008356068
40
0.225056527828538
40
0.228582047301009
40
0.23210756677348
40
0.239158605718421
40
0.242684125190892
40
0.246209644663363
40
0.247972404399598
40
0.249735164135833
40
0.253260683608304
40
0.256786203080775
40
0.260311722553245
40
0.262074482289481
40
0.263837242025716
40
0.267362761498187
40
0.270888280970658
40
0.274413800443129
40
0.277939319915599
40
0.28146483938807
40
0.284990358860541
40
0.288515878333012
40
0.292041397805482
40
0.295566917277953
40
0.299092436750424
40
0.302617956222894
40
0.306143475695365
40
0.309668995167836
40
0.313194514640307
40
0.316720034112777
40
0.323771073057719
40
0.327296592530189
40
0.33082211200266
40
0.334347631475131
40
0.337873150947602
40
0.341398670420072
40
0.344924189892543
40
0.348449709365014
40
0.351975228837485
40
0.359026267782426
40
0.366077306727367
40
0.373128345672309
40
0.37665386514478
40
0.38017938461725
40
0.383704904089721
40
0.387230423562192
40
0.390755943034663
40
0.394281462507133
40
0.397806981979604
40
0.401332501452075
40
0.404858020924546
40
0.408383540397017
40
0.411909059869487
40
0.415434579341958
40
0.418960098814429
40
0.422485618286899
40
0.42601113775937
40
0.429536657231841
40
0.433062176704312
40
0.434824936440547
40
0.436587696176782
40
0.438350455913018
40
0.440113215649253
40
0.443638735121724
40
0.447164254594195
40
0.44892701433043
40
0.450689774066665
40
0.452452533802901
40
0.454215293539136
40
0.457740813011607
40
0.459503572747842
40
0.461266332484077
40
0.463029092220313
40
0.464791851956548
40
0.466554611692784
40
0.468317371429019
40
0.470080131165254
40
0.47184289090149
40
0.473605650637725
40
0.47536841037396
40
0.477131170110196
40
0.478893929846431
40
0.480656689582666
40
0.482419449318902
40
0.484182209055137
40
0.485944968791373
40
0.487707728527608
40
0.489470488263843
40
0.491233248000079
40
0.492996007736314
40
0.494758767472549
40
0.496521527208785
40
0.49828428694502
40
0.500047046681255
40
0.501809806417491
40
0.503572566153726
40
0.505335325889962
40
0.507098085626197
40
0.508860845362432
40
0.510623605098668
40
0.512386364834903
40
0.514149124571138
40
0.515911884307374
40
0.517674644043609
40
0.519437403779845
40
0.52120016351608
40
0.522962923252315
40
0.524725682988551
40
0.526488442724786
40
0.528251202461021
40
0.530013962197257
40
0.531776721933492
40
0.533539481669728
40
0.535302241405963
40
0.537065001142198
40
0.538827760878434
40
0.540590520614669
40
0.542353280350904
40
0.545878799823375
40
0.54764155955961
40
0.549404319295846
40
0.551167079032081
40
0.552929838768316
40
0.556455358240787
40
0.559980877713258
40
0.561743637449493
40
0.563506397185729
40
0.565269156921964
40
0.5670319166582
40
0.57055743613067
40
0.574082955603141
40
0.577608475075612
40
0.581133994548082
40
0.584659514020553
40
0.588185033493024
40
0.591710552965494
40
0.595236072437965
40
0.598761591910436
40
0.602287111382907
40
0.605812630855378
40
0.609338150327848
40
0.612863669800319
40
0.61638918927279
40
0.61991470874526
40
0.623440228217731
40
0.626965747690202
40
0.634016786635143
40
0.641067825580085
40
0.648118864525026
40
0.651644383997497
40
0.655169903469968
40
0.658695422942439
40
0.662220942414909
40
0.66574646188738
40
0.669271981359851
40
0.672797500832321
40
0.676323020304792
40
0.683374059249734
40
0.686899578722204
40
0.690425098194675
40
0.693950617667146
40
0.697476137139616
40
0.701001656612087
40
0.704527176084558
40
0.708052695557029
40
0.711578215029499
40
0.71510373450197
40
0.718629253974441
40
0.722154773446912
40
0.725680292919382
40
0.732731331864324
40
0.736256851336795
40
0.739782370809265
40
0.746833409754207
40
0.750358929226678
40
0.753884448699148
40
0.757409968171619
40
0.76093548764409
40
0.767986526589031
40
0.771512046061502
40
0.775037565533973
40
0.778563085006444
40
0.782088604478914
40
0.789139643423856
40
0.792665162896326
40
0.796190682368797
40
0.799716201841268
40
0.803241721313739
40
0.81029276025868
40
0.813818279731151
40
0.817343799203622
40
0.820869318676092
40
0.824394838148563
40
0.831445877093505
40
0.834971396565975
40
0.838496916038446
40
0.842022435510917
40
0.845547954983388
40
0.852598993928329
40
0.8561245134008
40
0.85965003287327
40
0.863175552345741
40
0.866701071818212
40
0.870226591290683
40
0.873752110763153
40
0.877277630235624
40
0.880803149708095
40
0.884328669180566
40
0.887854188653036
40
0.891379708125507
40
0.894905227597978
40
0.898430747070449
40
0.901956266542919
40
0.909007305487861
40
0.912532824960331
40
0.916058344432802
40
0.919583863905273
40
0.923109383377744
40
0.926634902850214
40
0.930160422322685
40
0.937211461267627
40
0.940736980740097
40
0.944262500212568
40
0.947788019685039
40
0.95131353915751
40
0.958364578102451
40
0.961890097574922
40
0.965415617047392
40
0.968941136519863
40
0.972466655992334
40
0.975992175464805
40
0.979517694937275
40
0.983043214409746
40
0.986568733882217
40
0.990094253354688
40
0.993619772827158
40
0.997145292299629
40
1
40
1
40
1
40
1
41
1
10
-38
20
20.2923486425467
30
0
41
1
10
-38
20
20.2923552214127
30
0
41
1
10
-38
20
20.2915872495902
30
0
41
1
10
-38
20
20.2877827415225
30
0
41
1
10
-38
20
20.2807871950942
30
0
41
1
10
-38
20
20.270864225278
30
0
41
1
10
-38
20
20.2580557575388
30
0
41
1
10
-38
20
20.2424031034125
30
0
41
1
10
-38
20
20.2239454925533
30
0
41
1
10
-38
20
20.19551262204
30
0
41
1
10
-38
20
20.153458157969
30
0
41
1
10
-38
20
20.0921783324266
30
0
41
1
10
-38
20
20.0326760120608
30
0
41
1
10
-38
20
19.9796195423852
30
0
41
1
10
-38
20
19.9374871337363
30
0
41
1
10
-38
20
19.8928775037255
30
0
41
1
10
-38
20
19.8298739849263
30
0
41
1
10
-38
20
19.7628242930463
30
0
41
1
10
-38
20
19.6902080345968
30
0
41
1
10
-38
20
19.6336084813315
30
0
41
1
10
-38
20
19.5746836513967
30
0
41
1
10
-38
20
19.5134574775013
30
0
41
1
10
-38
20
19.4499498796239
30
0
41
1
10
-38
20
19.361926580552
30
0
41
1
10
-38
20
19.2704514952516
30
0
41
1
10
-38
20
19.1735363516591
30
0
41
1
10
-38
20
19.0989364266239
30
0
41
1
10
-38
20
19.0221745884206
30
0
41
1
10
-38
20
18.9432715601189
30
0
41
1
10
-38
20
18.8622425921487
30
0
41
1
10
-38
20
18.7791047356355
30
0
41
1
10
-38
20
18.6938772447032
30
0
41
1
10
-38
20
18.6065734364562
30
0
41
1
10
-38
20
18.5172096781029
30
0
41
1
10
-38
20
18.4258037757915
30
0
41
1
10
-38
20
18.3323676597213
30
0
41
1
10
-38
20
18.236917040573
30
0
41
1
10
-38
20
18.1394682315479
30
0
41
1
10
-38
20
18.006423045464
30
0
41
1
10
-38
20
17.870842154793
30
0
41
1
10
-38
20
17.7299440627733
30
0
41
1
10
-38
20
17.6408187485726
30
0
41
1
10
-38
20
17.5681131617785
30
0
41
1
10
-38
20
17.4947669133713
30
0
41
1
10
-38
20
17.3649201654158
30
0
41
1
10
-38
20
17.2140632768009
30
0
41
1
10
-38
20
17.0578935907134
30
0
41
1
10
-38
20
16.9392992293059
30
0
41
1
10
-38
20
16.8188549914818
30
0
41
1
10
-38
20
16.6552510003021
30
0
41
1
10
-38
20
16.489672496603
30
0
41
1
10
-38
20
16.3187666825072
30
0
41
1
10
-38
20
16.2111031772939
30
0
41
1
10
-38
20
16.1235473577608
30
0
41
1
10
-38
20
16.0353949417433
30
0
41
1
10
-38
20
15.8797855584285
30
0
41
1
10
-38
20
15.6999813794666
30
0
41
1
10
-38
20
15.5148116907138
30
0
41
1
10
-38
20
15.3746600384839
30
0
41
1
10
-38
20
15.2327750536327
30
0
41
1
10
-38
20
15.0406360987563
30
0
41
1
10
-38
20
14.8470518249568
30
0
41
1
10
-38
20
14.6480433816337
30
0
41
1
10
-38
20
14.5230237603812
30
0
41
1
10
-38
20
14.4215395322791
30
0
41
1
10
-38
20
14.319494446119
30
0
41
1
10
-38
20
14.1916826014269
30
0
41
1
10
-38
20
14.0362107113462
30
0
41
1
10
-38
20
13.905633632864
30
0
41
1
10
-38
20
13.7996824703933
30
0
41
1
10
-38
20
13.6931799140641
30
0
41
1
10
-38
20
13.5598675642285
30
0
41
1
10
-38
20
13.3977994204325
30
0
41
1
10
-38
20
13.2340971553998
30
0
41
1
10
-38
20
13.0687736820565
30
0
41
1
10
-38
20
12.9018380893652
30
0
41
1
10
-38
20
12.7332922951509
30
0
41
1
10
-38
20
12.5631480531082
30
0
41
1
10
-38
20
12.3914123687224
30
0
41
1
10
-38
20
12.2180896154105
30
0
41
1
10
-38
20
12.0431930727568
30
0
41
1
10
-38
20
11.8667275879997
30
0
41
1
10
-38
20
11.6886992220563
30
0
41
1
10
-38
20
11.5091211559413
30
0
41
1
10
-38
20
11.3279971676986
30
0
41
1
10
-38
20
11.0835274575533
30
0
41
1
10
-38
20
10.8388445996823
30
0
41
1
10
-38
20
10.5882272221232
30
0
41
1
10
-38
20
10.3995106478125
30
0
41
1
10
-38
20
10.2093006505112
30
0
41
1
10
-38
20
10.0176111741013
30
0
41
1
10
-38
20
9.82444825814403
30
0
41
1
10
-38
20
9.62982433363783
30
0
41
1
10
-38
20
9.43375032895256
30
0
41
1
10
-38
20
9.16930024978845
30
0
41
1
10
-38
20
8.83774034996793
30
0
41
1
10
-38
20
8.43283016067576
30
0
41
1
10
-38
20
8.09202302704495
30
0
41
1
10
-38
20
7.81440668711983
30
0
41
1
10
-38
20
7.60585888080686
30
0
41
1
10
-38
20
7.39600299493051
30
0
41
1
10
-38
20
7.18486050853949
30
0
41
1
10
-38
20
6.972454820743
30
0
41
1
10
-38
20
6.75880464755275
30
0
41
1
10
-38
20
6.54393387937549
30
0
41
1
10
-38
20
6.32787102064523
30
0
41
1
10
-38
20
6.11064460524278
30
0
41
1
10
-38
20
5.89228682406826
30
0
41
1
10
-38
20
5.67283049766698
30
0
41
1
10
-38
20
5.45231041402207
30
0
41
1
10
-38
20
5.2307661198837
30
0
41
1
10
-38
20
5.00824236668089
30
0
41
1
10
-38
20
4.78478453894905
30
0
41
1
10
-38
20
4.56044477194348
30
0
41
1
10
-38
20
4.3737593142329
30
0
41
1
10
-38
20
4.22222174308928
30
0
41
1
10
-38
20
4.10916467830538
30
0
41
1
10
-38
20
3.99593123757285
30
0
41
1
10
-38
20
3.84368490764803
30
0
41
1
10
-38
20
3.65544484289478
30
0
41
1
10
-38
20
3.46668355973628
30
0
41
1
10
-38
20
3.31336520651504
30
0
41
1
10
-38
20
3.19916977025284
30
0
41
1
10
-38
20
3.0848771849204
30
0
41
1
10
-38
20
2.93116533478539
30
0
41
1
10
-38
20
2.7810630459212
30
0
41
1
10
-38
20
2.62697343511894
30
0
41
1
10
-38
20
2.51237687493429
30
0
41
1
10
-38
20
2.39774974487253
30
0
41
1
10
-38
20
2.28311555219403
30
0
41
1
10
-38
20
2.16847618976473
30
0
41
1
10
-38
20
2.05384840107453
30
0
41
1
10
-38
20
1.93924458170406
30
0
41
1
10
-38
20
1.82466899171223
30
0
41
1
10
-38
20
1.71014121398446
30
0
41
1
10
-38
20
1.59566009898879
30
0
41
1
10
-38
20
1.48124309885608
30
0
41
1
10
-38
20
1.36688883878045
30
0
41
1
10
-38
20
1.25260906632701
30
0
41
1
10
-38
20
1.13840321986405
30
0
41
1
10
-38
20
1.02427614220741
30
0
41
1
10
-38
20
0.910225811803912
30
0
41
1
10
-38
20
0.796251800903974
30
0
41
1
10
-38
20
0.682349388495624
30
0
41
1
10
-38
20
0.568513483413511
30
0
41
1
10
-38
20
0.454735475948979
30
0
41
1
10
-38
20
0.341006791030111
30
0
41
1
10
-38
20
0.227315919379521
30
0
41
1
10
-38
20
0.113651444289076
30
0
41
1
10
-38
20
2.39306814E-08
30
0
41
1
10
-38
20
-0.113651428861147
30
0
41
1
10
-38
20
-0.227315965161807
30
0
41
1
10
-38
20
-0.341006831114754
30
0
41
1
10
-38
20
-0.454735424962735
30
0
41
1
10
-38
20
-0.568513412391525
30
0
41
1
10
-38
20
-0.682349437337052
30
0
41
1
10
-38
20
-0.796251898049235
30
0
41
1
10
-38
20
-0.910225765592202
30
0
41
1
10
-38
20
-1.02427601417025
30
0
41
1
10
-38
20
-1.13840324907633
30
0
41
1
10
-38
20
-1.25260921865757
30
0
41
1
10
-38
20
-1.36688883944316
30
0
41
1
10
-38
20
-1.48124293103632
30
0
41
1
10
-38
20
-1.59566004663384
30
0
41
1
10
-38
20
-1.71014137238996
30
0
41
1
10
-38
20
-1.82466911261432
30
0
41
1
10
-38
20
-1.93924446866484
30
0
41
1
10
-38
20
-2.05384821372689
30
0
41
1
10
-38
20
-2.1684762190329
30
0
41
1
10
-38
20
-2.28311576323418
30
0
41
1
10
-38
20
-2.39774983280105
30
0
41
1
10
-38
20
-2.51237672316307
30
0
41
1
10
-38
20
-2.62697323991799
30
0
41
1
10
-38
20
-2.78106315146928
30
0
41
1
10
-38
20
-2.93116552693385
30
0
41
1
10
-38
20
-3.08487708212581
30
0
41
1
10
-38
20
-3.19916954549007
30
0
41
1
10
-38
20
-3.31336512600546
30
0
41
1
10
-38
20
-3.46668375918677
30
0
41
1
10
-38
20
-3.65544489425088
30
0
41
1
10
-38
20
-3.84368470208372
30
0
41
1
10
-38
20
-3.99593117493791
30
0
41
1
10
-38
20
-4.10916481607396
30
0
41
1
10
-38
20
-4.22222196867938
30
0
41
1
10
-38
20
-4.37375933349006
30
0
41
1
10
-38
20
-4.56044458630845
30
0
41
1
10
-38
20
-4.78478457648492
30
0
41
1
10
-38
20
-5.00824253816086
30
0
41
1
10
-38
20
-5.23076600439052
30
0
41
1
10
-38
20
-5.45231022599046
30
0
41
1
10
-38
20
-5.67283041504652
30
0
41
1
10
-38
20
-5.89228674128222
30
0
41
1
10
-38
20
-6.11064496108523
30
0
41
1
10
-38
20
-6.32787239667013
30
0
41
1
10
-38
20
-6.54393525610644
30
0
41
1
10
-38
20
-6.75880334040127
30
0
41
1
10
-38
20
-6.97245311766207
30
0
41
1
10
-38
20
-7.18486111103374
30
0
41
1
10
-38
20
-7.39600347561742
30
0
41
1
10
-38
20
-7.60585874971361
30
0
41
1
10
-38
20
-7.8144064520111
30
0
41
1
10
-38
20
-8.09202295752311
30
0
41
1
10
-38
20
-8.43283023540656
30
0
41
1
10
-38
20
-8.83774029355055
30
0
41
1
10
-38
20
-9.16930023887323
30
0
41
1
10
-38
20
-9.43375044009511
30
0
41
1
10
-38
20
-9.62982432960192
30
0
41
1
10
-38
20
-9.82444814962994
30
0
41
1
10
-38
20
-10.0176111126089
30
0
41
1
10
-38
20
-10.2093007057547
30
0
41
1
10
-38
20
-10.3995107409486
30
0
41
1
10
-38
20
-10.5882272324294
30
0
41
1
10
-38
20
-10.8388445170812
30
0
41
1
10
-38
20
-11.0835274377931
30
0
41
1
10
-38
20
-11.327997250045
30
0
41
1
10
-38
20
-11.5091211965041
30
0
41
1
10
-38
20
-11.6886991809046
30
0
41
1
10
-38
20
-11.8667275177687
30
0
41
1
10
-38
20
-12.0431930522803
30
0
41
1
10
-38
20
-12.2180896645831
30
0
41
1
10
-38
20
-12.3914124247035
30
0
41
1
10
-38
20
-12.5631480735019
30
0
41
1
10
-38
20
-12.7332924196477
30
0
41
1
10
-38
20
-12.9018387248249
30
0
41
1
10
-38
20
-13.068774902876
30
0
41
1
10
-38
20
-13.2899980003418
30
0
41
1
10
-38
20
-13.5056406071554
30
0
41
1
10
-38
20
-13.7202970548285
30
0
41
1
10
-38
20
-13.9327572918622
30
0
41
1
10
-38
20
-14.1397069500695
30
0
41
1
10
-38
20
-14.3454836148157
30
0
41
1
10
-38
20
-14.4976048095277
30
0
41
1
10
-38
20
-14.6480433741443
30
0
41
1
10
-38
20
-14.8470538575164
30
0
41
1
10
-38
20
-15.0406366439893
30
0
41
1
10
-38
20
-15.2327734637881
30
0
41
1
10
-38
20
-15.3746583733236
30
0
41
1
10
-38
20
-15.5148115582755
30
0
41
1
10
-38
20
-15.6999837411247
30
0
41
1
10
-38
20
-15.8797870255403
30
0
41
1
10
-38
20
-16.0578801048401
30
0
41
1
10
-38
20
-16.189216581434
30
0
41
1
10
-38
20
-16.3187661779867
30
0
41
1
10
-38
20
-16.4896741385663
30
0
41
1
10
-38
20
-16.6552512602625
30
0
41
1
10
-38
20
-16.8188545807649
30
0
41
1
10
-38
20
-16.9392987318018
30
0
41
1
10
-38
20
-17.0578934672827
30
0
41
1
10
-38
20
-17.2140648101705
30
0
41
1
10
-38
20
-17.3649216616153
30
0
41
1
10
-38
20
-17.513530035822
30
0
41
1
10
-38
20
-17.6226956365842
30
0
41
1
10
-38
20
-17.7299433731025
30
0
41
1
10
-38
20
-17.8708440004863
30
0
41
1
10
-38
20
-18.0064238716364
30
0
41
1
10
-38
20
-18.1394672902698
30
0
41
1
10
-38
20
-18.236915915677
30
0
41
1
10
-38
20
-18.3323672965474
30
0
41
1
10
-38
20
-18.4258040962282
30
0
41
1
10
-38
20
-18.517209887002
30
0
41
1
10
-38
20
-18.6065734896479
30
0
41
1
10
-38
20
-18.6938772522127
30
0
41
1
10
-38
20
-18.7791047692188
30
0
41
1
10
-38
20
-18.8622426359768
30
0
41
1
10
-38
20
-18.9432715834756
30
0
41
1
10
-38
20
-19.0221745805325
30
0
41
1
10
-38
20
-19.0989364136873
30
0
41
1
10
-38
20
-19.1735363647814
30
0
41
1
10
-38
20
-19.2704515417461
30
0
41
1
10
-38
20
-19.3619266112172
30
0
41
1
10
-38
20
-19.4499498647732
30
0
41
1
10
-38
20
-19.5134574724377
30
0
41
1
10
-38
20
-19.5746836830748
30
0
41
1
10
-38
20
-19.6336085328263
30
0
41
1
10
-38
20
-19.6902080668946
30
0
41
1
10
-38
20
-19.7628242842049
30
0
41
1
10
-38
20
-19.829873984374
30
0
41
1
10
-38
20
-19.8928775551026
30
0
41
1
10
-38
20
-19.9374871757691
30
0
41
1
10
-38
20
-19.9796195436674
30
0
41
1
10
-38
20
-20.0326760063813
30
0
41
1
10
-38
20
-20.0800381474625
30
0
41
1
10
-38
20
-20.1228090027496
30
0
41
1
10
-38
20
-20.1521177658612
30
0
41
1
10
-38
20
-20.1787668505585
30
0
41
1
10
-38
20
-20.2027210424566
30
0
41
1
10
-38
20
-20.2239455432986
30
0
41
1
10
-38
20
-20.2424031363825
30
0
41
1
10
-38
20
-20.2580557552655
30
0
41
1
10
-38
20
-20.2708642249464
30
0
41
1
10
-38
20
-20.2807872561095
30
0
41
1
10
-38
20
-20.2877829489451
30
0
41
1
10
-38
20
-20.2915517746147
30
0
41
1
10
-38
20
-20.2923326363942
30
0
41
1
10
-38
20
-20.2923481754346
30
0
0
SPLINE
5
AB
100
AcDbEntity
8
SK1
62
256
6
ByLayer
370
-1
48
1
60
0
100
AcDbSpline
70
4
71
3
72
24
73
20
40
0
40
0
40
0
40
0
40
0.03125
40
0.03125
40
0.0624999999999999
40
0.0624999999999999
40
0.0937499999999999
40
0.0937499999999999
40
0.125
40
0.125
40
0.1875
40
0.1875
40
0.250000000000001
40
0.250000000000001
40
0.375000000000002
40
0.375000000000002
40
0.500000000000002
40
0.500000000000002
40
1
40
1
40
1
40
1
41
1
10
-0.394976888875192
20
6.32694309066341
30
0
41
1
10
-0.388478791140813
20
6.32122083099392
30
0
41
1
10
-0.381313154815899
20
6.31618565872435
30
0
41
1
10
-0.365409710569509
20
6.30942196278352
30
0
41
1
10
-0.356491145067963
20
6.30782589043272
30
0
41
1
10
-0.338830866575932
20
6.31048209062308
30
0
41
1
10
-0.330289930606085
20
6.31473882346771
30
0
41
1
10
-0.315858342046965
20
6.3259303329649
30
0
41
1
10
-0.309649778594547
20
6.33285276950232
30
0
41
1
10
-0.293313689375225
20
6.35478748070634
30
0
41
1
10
-0.285093867608936
20
6.37118996774834
30
0
41
1
10
-0.271027300227075
20
6.40434328922922
30
0
41
1
10
-0.265260102161733
20
6.42121101453048
30
0
41
1
10
-0.24995500609711
20
6.47225869816711
30
0
41
1
10
-0.242396853956393
20
6.50696236445765
30
0
41
1
10
-0.229806665912747
20
6.57651474417415
30
0
41
1
10
-0.22488157514158
20
6.61123172401142
30
0
41
1
10
-0.204383593087527
20
6.7845497387753
30
0
41
1
10
-0.200000000000387
20
6.922362199595
30
0
41
1
10
-0.199999999999989
20
7.05951756777353
30
0
0
SPLINE
5
AC
100
AcDbEntity
8
SK1
62
256
6
ByLayer
370
-1
48
1
60
0
100
AcDbSpline
70
4
71
3
72
115
73
111
40
0
40
0
40
0
40
0
40
0.0065652119787032
40
0.0151093797706768
40
0.0236535475626503
40
0.0321977153546238
40
0.0407418831465973
40
0.0492860509385708
40
0.0578302187305443
40
0.0663743865225178
40
0.0834627221064649
40
0.100551057690412
40
0.117639393274359
40
0.126183561066332
40
0.134727728858306
40
0.143271896650279
40
0.151816064442253
40
0.1689044000262
40
0.177448567818174
40
0.185992735610147
40
0.19453690340212
40
0.203081071194094
40
0.211625238986067
40
0.220169406778041
40
0.237257742361988
40
0.245801910153962
40
0.254346077945935
40
0.262890245737909
40
0.271434413529882
40
0.279978581321856
40
0.288522749113829
40
0.297066916905803
40
0.305611084697776
40
0.31415525248975
40
0.322699420281723
40
0.331243588073697
40
0.33978775586567
40
0.348331923657644
40
0.356876091449617
40
0.373964427033564
40
0.382508594825538
40
0.391052762617511
40
0.395324846513498
40
0.399596930409485
40
0.408141098201458
40
0.425229433785405
40
0.433773601577379
40
0.442317769369352
40
0.450861937161326
40
0.459406104953299
40
0.476494440537246
40
0.48503860832922
40
0.493582776121193
40
0.49785486001718
40
0.502126943913167
40
0.51067111170514
40
0.527759447289087
40
0.536303615081061
40
0.544847782873034
40
0.553391950665008
40
0.561936118456982
40
0.579024454040929
40
0.587568621832902
40
0.596112789624876
40
0.600384873520862
40
0.604656957416849
40
0.613201125208823
40
0.621745293000796
40
0.63028946079277
40
0.634561544688756
40
0.638833628584743
40
0.647377796376717
40
0.65592196416869
40
0.664466131960664
40
0.673010299752637
40
0.681554467544611
40
0.690098635336584
40
0.698642803128558
40
0.707186970920531
40
0.715731138712505
40
0.724275306504478
40
0.732819474296452
40
0.741363642088425
40
0.749907809880399
40
0.758451977672372
40
0.766996145464346
40
0.784084481048293
40
0.792628648840266
40
0.80117281663224
40
0.809716984424213
40
0.818261152216187
40
0.82680532000816
40
0.835349487800134
40
0.843893655592107
40
0.852437823384081
40
0.869526158968028
40
0.886614494551975
40
0.903702830135922
40
0.912246997927896
40
0.920791165719869
40
0.929335333511843
40
0.937879501303816
40
0.94642366909579
40
0.954967836887763
40
0.963512004679737
40
0.97205617247171
40
0.980600340263684
40
0.989144508055657
40
0.997688675847631
40
1
40
1
40
1
40
1
41
1
10
-0.394976888875277
20
21.8653790905452
30
0
41
1
10
-0.394976888875277
20
21.8653285663562
30
0
41
1
10
-0.394976888875277
20
21.8644673808981
30
0
41
1
10
-0.394976888875277
20
21.8604737650697
30
0
41
1
10
-0.394976888875277
20
21.8529598769268
30
0
41
1
10
-0.394976888875277
20
21.8423149188875
30
0
41
1
10
-0.394976888875277
20
21.8285907137819
30
0
41
1
10
-0.394976888875277
20
21.8118377229246
30
0
41
1
10
-0.394976888875277
20
21.7921034347989
30
0
41
1
10
-0.394976888875277
20
21.7618666429643
30
0
41
1
10
-0.394976888875277
20
21.7168668922192
30
0
41
1
10
-0.394976888875277
20
21.651618462036
30
0
41
1
10
-0.394976888875277
20
21.5881524120742
30
0
41
1
10
-0.394976888875277
20
21.5320229149808
30
0
41
1
10
-0.394976888875277
20
21.4873092663299
30
0
41
1
10
-0.394976888875277
20
21.4399968711307
30
0
41
1
10
-0.394976888875277
20
21.3734709387681
30
0
41
1
10
-0.394976888875277
20
21.3019320664004
30
0
41
1
10
-0.394976888875277
20
21.2253664719936
30
0
41
1
10
-0.394976888875277
20
21.1655031445011
30
0
41
1
10
-0.394976888875277
20
21.1032108723211
30
0
41
1
10
-0.394976888875277
20
21.038514297088
30
0
41
1
10
-0.394976888875277
20
20.9714364994015
30
0
41
1
10
-0.394976888875277
20
20.8788308563806
30
0
41
1
10
-0.394976888875277
20
20.7816354627076
30
0
41
1
10
-0.394976888875277
20
20.6797749496461
30
0
41
1
10
-0.394976888875277
20
20.6011280536546
30
0
41
1
10
-0.394976888875277
20
20.5202292190253
30
0
41
1
10
-0.394976888875277
20
20.4370981008412
30
0
41
1
10
-0.394976888875277
20
20.3517517634561
30
0
41
1
10
-0.394976888875277
20
20.2642094206366
30
0
41
1
10
-0.394976888875277
20
20.1744885542463
30
0
41
1
10
-0.394976888875277
20
20.082604770276
30
0
41
1
10
-0.394976888875277
20
19.9885758834751
30
0
41
1
10
-0.394976888875277
20
19.8924175863555
30
0
41
1
10
-0.394976888875277
20
19.79414426657
30
0
41
1
10
-0.394976888875277
20
19.6937723311917
30
0
41
1
10
-0.394976888875277
20
19.5913158900225
30
0
41
1
10
-0.394976888875277
20
19.4519091739392
30
0
41
1
10
-0.394976888875277
20
19.308501644014
30
0
41
1
10
-0.394976888875277
20
19.160920630363
30
0
41
1
10
-0.394976888875277
20
19.0670441229991
30
0
41
1
10
-0.394976888875277
20
18.9909051568102
30
0
41
1
10
-0.394976888875277
20
18.9140993494365
30
0
41
1
10
-0.394976888875277
20
18.777958735224
30
0
41
1
10
-0.394976888875277
20
18.6185131846482
30
0
41
1
10
-0.394976888875277
20
18.4550236113311
30
0
41
1
10
-0.394976888875277
20
18.330489335967
30
0
41
1
10
-0.394976888875277
20
18.2040166079408
30
0
41
1
10
-0.394976888875277
20
18.0327705937831
30
0
41
1
10
-0.394976888875277
20
17.8578219077773
30
0
41
1
10
-0.394976888875277
20
17.6789387292296
30
0
41
1
10
-0.394976888875277
20
17.5656125946474
30
0
41
1
10
-0.394976888875277
20
17.4739690253912
30
0
41
1
10
-0.394976888875277
20
17.3816993239948
30
0
41
1
10
-0.394976888875277
20
17.2186048360495
30
0
41
1
10
-0.394976888875277
20
17.0286078387926
30
0
41
1
10
-0.394976888875277
20
16.8347647509306
30
0
41
1
10
-0.394976888875277
20
16.6875786248762
30
0
41
1
10
-0.394976888875277
20
16.5385587049943
30
0
41
1
10
-0.394976888875277
20
16.3373774066279
30
0
41
1
10
-0.394976888875277
20
16.1327150774874
30
0
41
1
10
-0.394976888875277
20
15.9242804112408
30
0
41
1
10
-0.394976888875277
20
15.7925696820839
30
0
41
1
10
-0.394976888875277
20
15.6862549949744
30
0
41
1
10
-0.394976888875277
20
15.5793432837569
30
0
41
1
10
-0.394976888875277
20
15.4446487492657
30
0
41
1
10
-0.394976888875277
20
15.2812010193763
30
0
41
1
10
-0.394976888875277
20
15.1435436982815
30
0
41
1
10
-0.394976888875277
20
15.0324801920763
30
0
41
1
10
-0.394976888875277
20
14.9208273816877
30
0
41
1
10
-0.394976888875277
20
14.7802248596231
30
0
41
1
10
-0.394976888875277
20
14.6097059483473
30
0
41
1
10
-0.394976888875277
20
14.4374320816019
30
0
41
1
10
-0.394976888875277
20
14.2634095816694
30
0
41
1
10
-0.394976888875277
20
14.0876420714538
30
0
41
1
10
-0.394976888875277
20
13.9101338497815
30
0
41
1
10
-0.394976888875277
20
13.7308904366346
30
0
41
1
10
-0.394976888875277
20
13.549915145406
30
0
41
1
10
-0.394976888875277
20
13.3672125481811
30
0
41
1
10
-0.394976888875277
20
13.182787463215
30
0
41
1
10
-0.394976888875277
20
12.9966426140257
30
0
41
1
10
-0.394976888875277
20
12.8087826212334
30
0
41
1
10
-0.394976888875277
20
12.6192114742801
30
0
41
1
10
-0.394976888875277
20
12.4279318017785
30
0
41
1
10
-0.394976888875277
20
12.1705475891153
30
0
41
1
10
-0.394976888875277
20
11.9099848332047
30
0
41
1
10
-0.394976888875277
20
11.6458042855523
30
0
41
1
10
-0.394976888875277
20
11.4460361066677
30
0
41
1
10
-0.394976888875277
20
11.2445799083311
30
0
41
1
10
-0.394976888875277
20
11.0414389105764
30
0
41
1
10
-0.394976888875277
20
10.8366153761928
30
0
41
1
10
-0.394976888875277
20
10.630113157504
30
0
41
1
10
-0.394976888875277
20
10.4219344610486
30
0
41
1
10
-0.394976888875277
20
10.1420454829465
30
0
41
1
10
-0.394976888875277
20
9.78821091215369
30
0
41
1
10
-0.394976888875277
20
9.3568391135907
30
0
41
1
10
-0.394976888875277
20
8.99192950801697
30
0
41
1
10
-0.394976888875277
20
8.69651812098675
30
0
41
1
10
-0.394976888875277
20
8.47338949471808
30
0
41
1
10
-0.394976888875277
20
8.24861627222975
30
0
41
1
10
-0.394976888875277
20
8.0222029406992
30
0
41
1
10
-0.394976888875277
20
7.79415362199521
30
0
41
1
10
-0.394976888875277
20
7.56447255210355
30
0
41
1
10
-0.394976888875277
20
7.33316516004027
30
0
41
1
10
-0.394976888875277
20
7.10023725398264
30
0
41
1
10
-0.394976888875277
20
6.86569504295815
30
0
41
1
10
-0.394976888875277
20
6.62954558311137
30
0
41
1
10
-0.394976888875277
20
6.44960786563183
30
0
41
1
10
-0.394976888875277
20
6.34849183540564
30
0
41
1
10
-0.394976888875277
20
6.32694309066582
30
0
0
SPLINE
5
AD
100
AcDbEntity
8
SK1
62
256
6
ByLayer
370
-1
48
1
60
0
100
AcDbSpline
70
4
71
3
72
30
73
26
40
0
40
0
40
0
40
0
40
0.0312500000000002
40
0.0312500000000002
40
0.0625000000000003
40
0.0625000000000003
40
0.0937500000000005
40
0.0937500000000005
40
0.125000000000001
40
0.125000000000001
40
0.156250000000001
40
0.156250000000001
40
0.187500000000001
40
0.187500000000001
40
0.250000000000001
40
0.250000000000001
40
0.312500000000002
40
0.312500000000002
40
0.375000000000002
40
0.375000000000002
40
0.500000000000002
40
0.500000000000002
40
0.750000000000001
40
0.750000000000001
40
1
40
1
40
1
40
1
41
1
10
-0.394976888875306
20
-6.32694279392757
30
0
41
1
10
-0.411238696721739
20
-6.34126302490415
30
0
41
1
10
-0.428507485946397
20
-6.35445833731507
30
0
41
1
10
-0.466057816276162
20
-6.37750355983715
30
0
41
1
10
-0.486259278879999
20
-6.38723211102033
30
0
41
1
10
-0.528928737140888
20
-6.40070980810009
30
0
41
1
10
-0.552005370573369
20
-6.40446654618015
30
0
41
1
10
-0.597682826800451
20
-6.40404538429897
30
0
41
1
10
-0.620747969171362
20
-6.39988942772291
30
0
41
1
10
-0.663841284887127
20
-6.38551624086296
30
0
41
1
10
-0.684254761753067
20
-6.37530734814359
30
0
41
1
10
-0.721714491331909
20
-6.35175818060955
30
0
41
1
10
-0.739184552681451
20
-6.33820913265026
30
0
41
1
10
-0.788162075932064
20
-6.29461172820729
30
0
41
1
10
-0.81596411338856
20
-6.26223556861285
30
0
41
1
10
-0.86681058547714
20
-6.19416487342835
30
0
41
1
10
-0.889725334639479
20
-6.15831922452332
30
0
41
1
10
-0.931663440024408
20
-6.08576021404923
30
0
41
1
10
-0.950810679353566
20
-6.04882063700353
30
0
41
1
10
-1.00456810808538
20
-5.93660131926188
30
0
41
1
10
-1.03556300059231
20
-5.85994358458373
30
0
41
1
10
-1.12018816360202
20
-5.62641894994655
30
0
41
1
10
-1.16556178401132
20
-5.4658169284836
30
0
41
1
10
-1.24442385148589
20
-5.14144332217063
30
0
41
1
10
-1.27774590369947
20
-4.97713666802878
30
0
41
1
10
-1.30710678118655
20
-4.81101321788441
30
0
0
SPLINE
5
AE
100
AcDbEntity
8
SK1
62
256
6
ByLayer
370
-1
48
1
60
0
100
AcDbSpline
70
4
71
3
72
303
73
299
40
0
40
0
40
0
40
0
40
0.0004870076826214
40
0.0039801054562249
40
0.0074732032298283
40
0.0109663010034318
40
0.0144593987770354
40
0.0179524965506389
40
0.0214455943242424
40
0.024938692097846
40
0.0284317898714494
40
0.0319248876450529
40
0.03891108319226
40
0.0458972787394671
40
0.052883474286674
40
0.0563765720602776
40
0.0598696698338811
40
0.0633627676074846
40
0.0668558653810881
40
0.0738420609282952
40
0.0773351587018987
40
0.0808282564755023
40
0.0843213542491058
40
0.0878144520227093
40
0.0913075497963128
40
0.0948006475699162
40
0.101786843117123
40
0.105279940890727
40
0.10877303866433
40
0.112266136437934
40
0.115759234211537
40
0.119252331985141
40
0.122745429758744
40
0.126238527532348
40
0.129731625305951
40
0.133224723079555
40
0.136717820853159
40
0.140210918626762
40
0.143704016400365
40
0.147197114173969
40
0.150690211947572
40
0.15767640749478
40
0.161169505268383
40
0.164662603041987
40
0.166409151928788
40
0.16815570081559
40
0.171648798589193
40
0.178634994136401
40
0.182128091910004
40
0.185621189683608
40
0.189114287457211
40
0.192607385230815
40
0.199593580778022
40
0.203086678551625
40
0.206579776325229
40
0.208326325212031
40
0.210072874098832
40
0.213565971872436
40
0.220552167419643
40
0.224045265193246
40
0.22753836296685
40
0.231031460740453
40
0.234524558514057
40
0.241510754061264
40
0.245003851834867
40
0.248496949608471
40
0.250243498495273
40
0.251990047382074
40
0.255483145155678
40
0.258976242929282
40
0.262469340702885
40
0.264215889589687
40
0.265962438476488
40
0.269455536250092
40
0.272948634023696
40
0.276441731797299
40
0.279934829570903
40
0.283427927344506
40
0.28692102511811
40
0.290414122891713
40
0.293907220665317
40
0.29740031843892
40
0.300893416212524
40
0.304386513986127
40
0.307879611759731
40
0.311372709533334
40
0.314865807306938
40
0.318358905080541
40
0.325345100627748
40
0.328838198401352
40
0.332331296174955
40
0.335824393948559
40
0.339317491722162
40
0.342810589495766
40
0.346303687269369
40
0.349796785042973
40
0.353289882816576
40
0.360276078363784
40
0.36726227391099
40
0.374248469458198
40
0.377741567231801
40
0.381234665005405
40
0.384727762779008
40
0.388220860552612
40
0.391713958326215
40
0.395207056099819
40
0.398700153873422
40
0.402193251647026
40
0.405686349420629
40
0.409179447194233
40
0.412672544967836
40
0.41616564274144
40
0.419658740515043
40
0.423151838288647
40
0.42664493606225
40
0.430138033835854
40
0.433631131609457
40
0.435377680496259
40
0.437124229383061
40
0.438870778269863
40
0.440617327156664
40
0.444110424930268
40
0.447603522703871
40
0.449350071590673
40
0.451096620477475
40
0.452843169364277
40
0.454589718251079
40
0.458082816024682
40
0.459829364911484
40
0.461575913798286
40
0.463322462685087
40
0.465069011571889
40
0.466815560458691
40
0.468562109345492
40
0.470308658232294
40
0.472055207119096
40
0.473801756005898
40
0.4755483048927
40
0.477294853779501
40
0.479041402666303
40
0.480787951553105
40
0.482534500439907
40
0.484281049326708
40
0.48602759821351
40
0.487774147100312
40
0.489520695987114
40
0.491267244873915
40
0.493013793760717
40
0.494760342647519
40
0.496506891534321
40
0.498253440421123
40
0.499999989307924
40
0.501746538194726
40
0.503493087081528
40
0.505239635968329
40
0.506986184855131
40
0.508732733741933
40
0.510479282628735
40
0.512225831515536
40
0.513972380402338
40
0.51571892928914
40
0.517465478175942
40
0.519212027062744
40
0.520958575949545
40
0.522705124836347
40
0.524451673723149
40
0.526198222609951
40
0.527944771496752
40
0.529691320383554
40
0.531437869270356
40
0.533184418157158
40
0.534930967043959
40
0.536677515930761
40
0.538424064817563
40
0.540170613704365
40
0.541917162591166
40
0.54541026036477
40
0.547156809251572
40
0.548903358138373
40
0.550649907025175
40
0.552396455911977
40
0.555889553685581
40
0.559382651459184
40
0.561129200345986
40
0.562875749232787
40
0.564622298119589
40
0.566368847006391
40
0.569861944779995
40
0.573355042553598
40
0.576848140327202
40
0.580341238100805
40
0.583834335874409
40
0.587327433648012
40
0.590820531421616
40
0.594313629195219
40
0.597806726968823
40
0.601299824742426
40
0.60479292251603
40
0.608286020289633
40
0.611779118063237
40
0.61527221583684
40
0.618765313610444
40
0.622258411384047
40
0.625751509157651
40
0.632737704704858
40
0.639723900252065
40
0.646710095799272
40
0.650203193572876
40
0.653696291346479
40
0.657189389120083
40
0.660682486893686
40
0.66417558466729
40
0.667668682440893
40
0.671161780214496
40
0.6746548779881
40
0.681641073535307
40
0.685134171308911
40
0.688627269082514
40
0.692120366856118
40
0.695613464629721
40
0.699106562403325
40
0.702599660176928
40
0.706092757950532
40
0.709585855724135
40
0.713078953497739
40
0.716572051271342
40
0.720065149044946
40
0.723558246818549
40
0.730544442365756
40
0.73403754013936
40
0.737530637912963
40
0.744516833460171
40
0.748009931233774
40
0.751503029007378
40
0.754996126780981
40
0.758489224554584
40
0.765475420101792
40
0.768968517875395
40
0.772461615648999
40
0.775954713422602
40
0.779447811196206
40
0.786434006743413
40
0.789927104517016
40
0.79342020229062
40
0.796913300064223
40
0.800406397837827
40
0.807392593385034
40
0.810885691158637
40
0.814378788932241
40
0.817871886705844
40
0.821364984479448
40
0.828351180026655
40
0.831844277800258
40
0.835337375573862
40
0.838830473347465
40
0.842323571121069
40
0.849309766668276
40
0.852802864441879
40
0.856295962215483
40
0.859789059989087
40
0.86328215776269
40
0.866775255536294
40
0.870268353309897
40
0.873761451083501
40
0.877254548857104
40
0.880747646630708
40
0.884240744404311
40
0.887733842177915
40
0.891226939951518
40
0.894720037725122
40
0.898213135498725
40
0.905199331045932
40
0.908692428819536
40
0.912185526593139
40
0.915678624366743
40
0.919171722140346
40
0.92266481991395
40
0.926157917687553
40
0.933144113234761
40
0.936637211008364
40
0.940130308781967
40
0.943623406555571
40
0.947116504329174
40
0.954102699876382
40
0.957595797649985
40
0.961088895423588
40
0.964581993197192
40
0.968075090970796
40
0.971568188744399
40
0.975061286518003
40
0.978554384291606
40
0.98204748206521
40
0.985540579838813
40
0.989033677612417
40
0.99252677538602
40
0.996019873159624
40
0.999512970933227
40
1
40
1
40
1
40
1
41
1
10
-36.5
20
21.1556095904398
30
0
41
1
10
-36.5
20
21.1558059684164
30
0
41
1
10
-36.5
20
21.1573245478539
30
0
41
1
10
-36.5
20
21.1588544331657
30
0
41
1
10
-36.5
20
21.1578038223016
30
0
41
1
10
-36.5
20
21.1536126358382
30
0
41
1
10
-36.5
20
21.1463317213717
30
0
41
1
10
-36.5
20
21.1360112678938
30
0
41
1
10
-36.5
20
21.1226986497682
30
0
41
1
10
-36.5
20
21.1064402158535
30
0
41
1
10
-36.5
20
21.0872797426226
30
0
41
1
10
-36.5
20
21.0578537406018
30
0
41
1
10
-36.5
20
21.0141777773224
30
0
41
1
10
-36.5
20
20.950713074722
30
0
41
1
10
-36.5
20
20.8890285612071
30
0
41
1
10
-36.5
20
20.8342802658871
30
0
41
1
10
-36.5
20
20.7907267804185
30
0
41
1
10
-36.5
20
20.7446291690672
30
0
41
1
10
-36.5
20
20.6796864194097
30
0
41
1
10
-36.5
20
20.6101652524536
30
0
41
1
10
-36.5
20
20.5353747251341
30
0
41
1
10
-36.5
20
20.4769783324059
30
0
41
1
10
-36.5
20
20.4161995895792
30
0
41
1
10
-36.5
20
20.3530628196555
30
0
41
1
10
-36.5
20
20.2875896826626
30
0
41
1
10
-36.5
20
20.1970436182683
30
0
41
1
10
-36.5
20
20.1024192722933
30
0
41
1
10
-36.5
20
20.0027815031752
30
0
41
1
10
-36.5
20
19.9259535572617
30
0
41
1
10
-36.5
20
19.8469141355251
30
0
41
1
10
-36.5
20
19.7656833730651
30
0
41
1
10
-36.5
20
19.6822775189499
30
0
41
1
10
-36.5
20
19.5967148149262
30
0
41
1
10
-36.5
20
19.5090135394173
30
0
41
1
10
-36.5
20
19.4191882696517
30
0
41
1
10
-36.5
20
19.3272561697677
30
0
41
1
10
-36.5
20
19.2332338822713
30
0
41
1
10
-36.5
20
19.1371346902892
30
0
41
1
10
-36.5
20
19.0389746878943
30
0
41
1
10
-36.5
20
18.9387689752275
30
0
41
1
10
-36.5
20
18.8022215100789
30
0
41
1
10
-36.5
20
18.6623317385554
30
0
41
1
10
-36.5
20
18.5177544284038
30
0
41
1
10
-36.5
20
18.4260133905722
30
0
41
1
10
-36.5
20
18.3514175898237
30
0
41
1
10
-36.5
20
18.2761667145511
30
0
41
1
10
-36.5
20
18.1428549391526
30
0
41
1
10
-36.5
20
17.987269645424
30
0
41
1
10
-36.5
20
17.8270700659299
30
0
41
1
10
-36.5
20
17.705205542109
30
0
41
1
10
-36.5
20
17.5814423770725
30
0
41
1
10
-36.5
20
17.4136311437529
30
0
41
1
10
-36.5
20
17.2428939764416
30
0
41
1
10
-36.5
20
17.0675963011876
30
0
41
1
10
-36.5
20
16.9568152899196
30
0
41
1
10
-36.5
20
16.867008999151
30
0
41
1
10
-36.5
20
16.7765898513273
30
0
41
1
10
-36.5
20
16.6168596157572
30
0
41
1
10
-36.5
20
16.4314438788638
30
0
41
1
10
-36.5
20
16.2414991337765
30
0
41
1
10
-36.5
20
16.097474719741
30
0
41
1
10
-36.5
20
15.9516616651348
30
0
41
1
10
-36.5
20
15.7545445351489
30
0
41
1
10
-36.5
20
15.5548613446891
30
0
41
1
10
-36.5
20
15.350663385132
30
0
41
1
10
-36.5
20
15.2219600388738
30
0
41
1
10
-36.5
20
15.1178164480938
30
0
41
1
10
-36.5
20
15.0130920883853
30
0
41
1
10
-36.5
20
14.8814910451208
30
0
41
1
10
-36.5
20
14.7216281332594
30
0
41
1
10
-36.5
20
14.5871530954062
30
0
41
1
10
-36.5
20
14.4783873813363
30
0
41
1
10
-36.5
20
14.3690494022437
30
0
41
1
10
-36.5
20
14.2317235183089
30
0
41
1
10
-36.5
20
14.0650028858775
30
0
41
1
10
-36.5
20
13.8965816080865
30
0
41
1
10
-36.5
20
13.7264689694465
30
0
41
1
10
-36.5
20
13.5546710496343
30
0
41
1
10
-36.5
20
13.3811910773122
30
0
41
1
10
-36.5
20
13.2060373742644
30
0
41
1
10
-36.5
20
13.0292149133303
30
0
41
1
10
-36.5
20
12.850728177302
30
0
41
1
10
-36.5
20
12.6705857874604
30
0
41
1
10
-36.5
20
12.4887914218501
30
0
41
1
10
-36.5
20
12.3053503484466
30
0
41
1
10
-36.5
20
12.1202706879328
30
0
41
1
10
-36.5
20
11.9335555855444
30
0
41
1
10
-36.5
20
11.6819759204348
30
0
41
1
10
-36.5
20
11.4285505376587
30
0
41
1
10
-36.5
20
11.1704660874499
30
0
41
1
10
-36.5
20
10.9756651586938
30
0
41
1
10
-36.5
20
10.7792636737398
30
0
41
1
10
-36.5
20
10.5812696725585
30
0
41
1
10
-36.5
20
10.3816871154457
30
0
41
1
10
-36.5
20
10.180523710493
30
0
41
1
10
-36.5
20
9.97778558435027
30
0
41
1
10
-36.5
20
9.70483576808863
30
0
41
1
10
-36.5
20
9.36101276272154
30
0
41
1
10
-36.5
20
8.94153438933262
30
0
41
1
10
-36.5
20
8.58745787193689
30
0
41
1
10
-36.5
20
8.30004464023602
30
0
41
1
10
-36.5
20
8.08346950394392
30
0
41
1
10
-36.5
20
7.86540102208471
30
0
41
1
10
-36.5
20
7.64585131899614
30
0
41
1
10
-36.5
20
7.42483318088833
30
0
41
1
10
-36.5
20
7.20235735193418
30
0
41
1
10
-36.5
20
6.97843755879967
30
0
41
1
10
-36.5
20
6.75308981071325
30
0
41
1
10
-36.5
20
6.52633035082275
30
0
41
1
10
-36.5
20
6.29817753233076
30
0
41
1
10
-36.5
20
6.06865022444896
30
0
41
1
10
-36.5
20
5.83776884649418
30
0
41
1
10
-36.5
20
5.60555660448861
30
0
41
1
10
-36.5
20
5.37203985998678
30
0
41
1
10
-36.5
20
5.13724579696881
30
0
41
1
10
-36.5
20
4.90120595303733
30
0
41
1
10
-36.5
20
4.70396583147402
30
0
41
1
10
-36.5
20
4.54469638576828
30
0
41
1
10
-36.5
20
4.42533999597057
30
0
41
1
10
-36.5
20
4.30569972295402
30
0
41
1
10
-36.5
20
4.14529336499854
30
0
41
1
10
-36.5
20
3.94531865595207
30
0
41
1
10
-36.5
20
3.74444957084984
30
0
41
1
10
-36.5
20
3.58224076117995
30
0
41
1
10
-36.5
20
3.46078958963511
30
0
41
1
10
-36.5
20
3.33910702605107
30
0
41
1
10
-36.5
20
3.17597085922341
30
0
41
1
10
-36.5
20
3.01425651604552
30
0
41
1
10
-36.5
20
2.85023149996007
30
0
41
1
10
-36.5
20
2.72752154931175
30
0
41
1
10
-36.5
20
2.60463052157442
30
0
41
1
10
-36.5
20
2.48157378937663
30
0
41
1
10
-36.5
20
2.35835621123036
30
0
41
1
10
-36.5
20
2.23499061660055
30
0
41
1
10
-36.5
20
2.11148761081347
30
0
41
1
10
-36.5
20
1.9878545152765
30
0
41
1
10
-36.5
20
1.86410632124094
30
0
41
1
10
-36.5
20
1.74024827700825
30
0
41
1
10
-36.5
20
1.61629526151512
30
0
41
1
10
-36.5
20
1.49225310041959
30
0
41
1
10
-36.5
20
1.3681347814894
30
0
41
1
10
-36.5
20
1.2439473222278
30
0
41
1
10
-36.5
20
1.11970117534864
30
0
41
1
10
-36.5
20
0.995403485642782
30
0
41
1
10
-36.5
20
0.8710629170684
30
0
41
1
10
-36.5
20
0.746686102657719
30
0
41
1
10
-36.5
20
0.622280124115576
30
0
41
1
10
-36.5
20
0.497850420758397
30
0
41
1
10
-36.5
20
0.373402935182185
30
0
41
1
10
-36.5
20
0.248942238793148
30
0
41
1
10
-36.5
20
0.124473257200918
30
0
41
1
10
-36.5
20
9.2462358E-09
30
0
41
1
10
-36.5
20
-0.124473254673973
30
0
41
1
10
-36.5
20
-0.248942266430618
30
0
41
1
10
-36.5
20
-0.373402960091397
30
0
41
1
10
-36.5
20
-0.497850400790554
30
0
41
1
10
-36.5
20
-0.622280094010847
30
0
41
1
10
-36.5
20
-0.746686131491799
30
0
41
1
10
-36.5
20
-0.871062970095124
30
0
41
1
10
-36.5
20
-0.995403468230791
30
0
41
1
10
-36.5
20
-1.11970111692671
30
0
41
1
10
-36.5
20
-1.24394734076813
30
0
41
1
10
-36.5
20
-1.36813486147517
30
0
41
1
10
-36.5
20
-1.49225310642996
30
0
41
1
10
-36.5
20
-1.61629518356963
30
0
41
1
10
-36.5
20
-1.7402482546413
30
0
41
1
10
-36.5
20
-1.86410640329151
30
0
41
1
10
-36.5
20
-1.98785458048855
30
0
41
1
10
-36.5
20
-2.11148756075909
30
0
41
1
10
-36.5
20
-2.2349905278607
30
0
41
1
10
-36.5
20
-2.3583562279822
30
0
41
1
10
-36.5
20
-2.48157389743918
30
0
41
1
10
-36.5
20
-2.60463057106841
30
0
41
1
10
-36.5
20
-2.72752148004804
30
0
41
1
10
-36.5
20
-2.8502314065623
30
0
41
1
10
-36.5
20
-3.01425656877106
30
0
41
1
10
-36.5
20
-3.17597095993784
30
0
41
1
10
-36.5
20
-3.33910698167958
30
0
41
1
10
-36.5
20
-3.46078948211164
30
0
41
1
10
-36.5
20
-3.58224072191865
30
0
41
1
10
-36.5
20
-3.74444967050349
30
0
41
1
10
-36.5
20
-3.94531869048151
30
0
41
1
10
-36.5
20
-4.14529326648051
30
0
41
1
10
-36.5
20
-4.30569969171859
30
0
41
1
10
-36.5
20
-4.42534006396792
30
0
41
1
10
-36.5
20
-4.54469650094606
30
0
41
1
10
-36.5
20
-4.70396584910503
30
0
41
1
10
-36.5
20
-4.90120586463618
30
0
41
1
10
-36.5
20
-5.1372458114655
30
0
41
1
10
-36.5
20
-5.37203995090806
30
0
41
1
10
-36.5
20
-5.6055565552935
30
0
41
1
10
-36.5
20
-5.83776875015039
30
0
41
1
10
-36.5
20
-6.06865017711209
30
0
41
1
10
-36.5
20
-6.29817748211653
30
0
41
1
10
-36.5
20
-6.52633051401983
30
0
41
1
10
-36.5
20
-6.75309051279777
30
0
41
1
10
-36.5
20
-6.97843834484934
30
0
41
1
10
-36.5
20
-7.20235684280954
30
0
41
1
10
-36.5
20
-7.42483229470756
30
0
41
1
10
-36.5
20
-7.64585158611581
30
0
41
1
10
-36.5
20
-7.86540128403743
30
0
41
1
10
-36.5
20
-8.08346945831602
30
0
41
1
10
-36.5
20
-8.30004452993893
30
0
41
1
10
-36.5
20
-8.58745782596952
30
0
41
1
10
-36.5
20
-8.94153442741853
30
0
41
1
10
-36.5
20
-9.36101273737586
30
0
41
1
10
-36.5
20
-9.70483575174822
30
0
41
1
10
-36.5
20
-9.97778564072317
30
0
41
1
10
-36.5
20
-10.18052371466
30
0
41
1
10
-36.5
20
-10.3816870614505
30
0
41
1
10
-36.5
20
-10.5812696339219
30
0
41
1
10
-36.5
20
-10.7792636942327
30
0
41
1
10
-36.5
20
-10.9756652058486
30
0
41
1
10
-36.5
20
-11.1704660987636
30
0
41
1
10
-36.5
20
-11.4285504962004
30
0
41
1
10
-36.5
20
-11.6819759007756
30
0
41
1
10
-36.5
20
-11.9335556252714
30
0
41
1
10
-36.5
20
-12.1202707134412
30
0
41
1
10
-36.5
20
-12.3053503320752
30
0
41
1
10
-36.5
20
-12.4887913848281
30
0
41
1
10
-36.5
20
-12.6705857704289
30
0
41
1
10
-36.5
20
-12.8507281979538
30
0
41
1
10
-36.5
20
-13.0292149436136
30
0
41
1
10
-36.5
20
-13.2060373895955
30
0
41
1
10
-36.5
20
-13.3811911431361
30
0
41
1
10
-36.5
20
-13.5546713888901
30
0
41
1
10
-36.5
20
-13.7264696827894
30
0
41
1
10
-36.5
20
-13.9536769173599
30
0
41
1
10
-36.5
20
-14.176348576809
30
0
41
1
10
-36.5
20
-14.3967384349214
30
0
41
1
10
-36.5
20
-14.6148460432235
30
0
41
1
10
-36.5
20
-14.8284315021107
30
0
41
1
10
-36.5
20
-15.0396227184095
30
0
41
1
10
-36.5
20
-15.1960147192182
30
0
41
1
10
-36.5
20
-15.3506631330603
30
0
41
1
10
-36.5
20
-15.5548624364723
30
0
41
1
10
-36.5
20
-15.7545451164335
30
0
41
1
10
-36.5
20
-15.9516609547094
30
0
41
1
10
-36.5
20
-16.0974737380165
30
0
41
1
10
-36.5
20
-16.241498813278
30
0
41
1
10
-36.5
20
-16.4314450331352
30
0
41
1
10
-36.5
20
-16.6168608854212
30
0
41
1
10
-36.5
20
-16.7995343923805
30
0
41
1
10
-36.5
20
-16.9344844206004
30
0
41
1
10
-36.5
20
-17.0675955495037
30
0
41
1
10
-36.5
20
-17.2428947983014
30
0
41
1
10
-36.5
20
-17.4136313821348
30
0
41
1
10
-36.5
20
-17.5814422063202
30
0
41
1
10
-36.5
20
-17.7052052466277
30
0
41
1
10
-36.5
20
-17.827069915531
30
0
41
1
10
-36.5
20
-17.9872703841193
30
0
41
1
10
-36.5
20
-18.1428562465544
30
0
41
1
10
-36.5
20
-18.2953166794047
30
0
41
1
10
-36.5
20
-18.4075180436267
30
0
41
1
10
-36.5
20
-18.5177535555592
30
0
41
1
10
-36.5
20
-18.6623326618876
30
0
41
1
10
-36.5
20
-18.8022222651529
30
0
41
1
10
-36.5
20
-18.9387686023437
30
0
41
1
10
-36.5
20
-19.0389739868785
30
0
41
1
10
-36.5
20
-19.1371342717784
30
0
41
1
10
-36.5
20
-19.2332339353276
30
0
41
1
10
-36.5
20
-19.3272562516113
30
0
41
1
10
-36.5
20
-19.4191882978898
30
0
41
1
10
-36.5
20
-19.5090135437133
30
0
41
1
10
-36.5
20
-19.5967148362678
30
0
41
1
10
-36.5
20
-19.6822775521962
30
0
41
1
10
-36.5
20
-19.7656833992675
30
0
41
1
10
-36.5
20
-19.8469141406672
30
0
41
1
10
-36.5
20
-19.9259535527381
30
0
41
1
10
-36.5
20
-20.0027815100322
30
0
41
1
10
-36.5
20
-20.1024193061391
30
0
41
1
10
-36.5
20
-20.1970436522849
30
0
41
1
10
-36.5
20
-20.287589681624
30
0
41
1
10
-36.5
20
-20.353062816238
30
0
41
1
10
-36.5
20
-20.4161996091986
30
0
41
1
10
-36.5
20
-20.4769783724375
30
0
41
1
10
-36.5
20
-20.5353747607017
30
0
41
1
10
-36.5
20
-20.6101652553123
30
0
41
1
10
-36.5
20
-20.6796864153796
30
0
41
1
10
-36.5
20
-20.7446292080422
30
0
41
1
10
-36.5
20
-20.7907268231738
30
0
41
1
10
-36.5
20
-20.8342802793506
30
0
41
1
10
-36.5
20
-20.8890285523336
30
0
41
1
10
-36.5
20
-20.9382580424269
30
0
41
1
10
-36.5
20
-20.9824409225429
30
0
41
1
10
-36.5
20
-21.0128017234864
30
0
41
1
10
-36.5
20
-21.0404207944711
30
0
41
1
10
-36.5
20
-21.0652596303332
30
0
41
1
10
-36.5
20
-21.0872797892674
30
0
41
1
10
-36.5
20
-21.1064402531507
30
0
41
1
10
-36.5
20
-21.1226986516191
30
0
41
1
10
-36.5
20
-21.1360112646484
30
0
41
1
10
-36.5
20
-21.1463317710584
30
0
41
1
10
-36.5
20
-21.1536128319466
30
0
41
1
10
-36.5
20
-21.1578041644649
30
0
41
1
10
-36.5
20
-21.1588543296933
30
0
41
1
10
-36.5
20
-21.1573242061583
30
0
41
1
10
-36.5
20
-21.1558055689133
30
0
41
1
10
-36.5
20
-21.1556091770178
30
0
0
SPLINE
5
AF
100
AcDbEntity
8
SK1
62
256
6
ByLayer
370
-1
48
1
60
0
100
AcDbSpline
70
4
71
3
72
295
73
291
40
0
40
0
40
0
40
0
40
0.0029462860873573
40
0.0065222109691033
40
0.0100981358508493
40
0.0136740607325953
40
0.0172499856143413
40
0.0208259104960873
40
0.0279777602595794
40
0.0351296100230714
40
0.0422814597865634
40
0.0458573846683094
40
0.0494333095500554
40
0.0530092344318014
40
0.0565851593135474
40
0.0637370090770394
40
0.0673129339587854
40
0.0708888588405314
40
0.0744647837222774
40
0.0780407086040234
40
0.0816166334857694
40
0.0851925583675154
40
0.0923444081310074
40
0.0959203330127534
40
0.0994962578944994
40
0.103072182776245
40
0.106648107657992
40
0.110224032539738
40
0.113799957421483
40
0.117375882303229
40
0.120951807184976
40
0.124527732066722
40
0.128103656948468
40
0.131679581830213
40
0.135255506711959
40
0.138831431593706
40
0.142407356475451
40
0.149559206238944
40
0.153135131120689
40
0.156711056002436
40
0.158499018443308
40
0.160286980884182
40
0.163862905765927
40
0.171014755529419
40
0.174590680411165
40
0.178166605292912
40
0.181742530174658
40
0.185318455056404
40
0.192470304819896
40
0.196046229701642
40
0.199622154583388
40
0.201410117024261
40
0.203198079465134
40
0.20677400434688
40
0.213925854110372
40
0.217501778992118
40
0.221077703873864
40
0.22465362875561
40
0.228229553637356
40
0.235381403400848
40
0.238957328282594
40
0.24253325316434
40
0.244321215605213
40
0.246109178046086
40
0.249685102927832
40
0.253261027809578
40
0.256836952691324
40
0.258624915132197
40
0.26041287757307
40
0.263988802454816
40
0.267564727336562
40
0.271140652218308
40
0.274716577100054
40
0.2782925019818
40
0.281868426863546
40
0.285444351745292
40
0.289020276627038
40
0.292596201508784
40
0.29617212639053
40
0.299748051272276
40
0.303323976154022
40
0.306899901035768
40
0.310475825917514
40
0.31405175079926
40
0.321203600562752
40
0.324779525444498
40
0.328355450326244
40
0.33193137520799
40
0.335507300089736
40
0.339083224971482
40
0.342659149853228
40
0.346235074734974
40
0.34981099961672
40
0.356962849380212
40
0.364114699143704
40
0.371266548907196
40
0.374842473788942
40
0.378418398670688
40
0.381994323552434
40
0.38557024843418
40
0.389146173315926
40
0.392722098197672
40
0.396298023079418
40
0.399873947961164
40
0.40344987284291
40
0.407025797724656
40
0.410601722606402
40
0.414177647488148
40
0.417753572369894
40
0.42132949725164
40
0.424905422133386
40
0.428481347015132
40
0.432057271896878
40
0.433845234337751
40
0.435633196778624
40
0.437421159219497
40
0.43920912166037
40
0.442785046542116
40
0.446360971423862
40
0.448148933864735
40
0.449936896305608
40
0.451724858746481
40
0.453512821187354
40
0.4570887460691
40
0.458876708509973
40
0.460664670950846
40
0.462452633391719
40
0.464240595832592
40
0.466028558273465
40
0.467816520714338
40
0.469604483155211
40
0.471392445596084
40
0.473180408036957
40
0.47496837047783
40
0.476756332918703
40
0.478544295359576
40
0.480332257800449
40
0.482120220241322
40
0.483908182682195
40
0.485696145123068
40
0.487484107563941
40
0.489272070004814
40
0.491060032445687
40
0.49284799488656
40
0.494635957327433
40
0.496423919768306
40
0.498211882209179
40
0.499999844650052
40
0.501787807090925
40
0.503575769531798
40
0.505363731972671
40
0.507151694413544
40
0.508939656854417
40
0.51072761929529
40
0.512515581736163
40
0.514303544177036
40
0.516091506617909
40
0.517879469058782
40
0.519667431499655
40
0.521455393940528
40
0.523243356381401
40
0.525031318822274
40
0.526819281263147
40
0.52860724370402
40
0.530395206144893
40
0.532183168585766
40
0.533971131026639
40
0.535759093467512
40
0.537547055908385
40
0.539335018349258
40
0.541122980790131
40
0.542910943231004
40
0.54648686811275
40
0.548274830553623
40
0.550062792994496
40
0.551850755435369
40
0.553638717876242
40
0.557214642757988
40
0.560790567639734
40
0.562578530080607
40
0.56436649252148
40
0.566154454962353
40
0.567942417403226
40
0.571518342284972
40
0.575094267166718
40
0.578670192048464
40
0.58224611693021
40
0.585822041811956
40
0.589397966693702
40
0.592973891575448
40
0.596549816457194
40
0.60012574133894
40
0.603701666220686
40
0.607277591102432
40
0.610853515984178
40
0.614429440865924
40
0.61800536574767
40
0.621581290629416
40
0.625157215511162
40
0.628733140392908
40
0.6358849901564
40
0.643036839919892
40
0.650188689683384
40
0.65376461456513
40
0.657340539446876
40
0.660916464328622
40
0.664492389210368
40
0.668068314092114
40
0.67164423897386
40
0.675220163855606
40
0.678796088737352
40
0.685947938500844
40
0.68952386338259
40
0.693099788264336
40
0.696675713146082
40
0.700251638027828
40
0.703827562909574
40
0.70740348779132
40
0.710979412673066
40
0.714555337554812
40
0.718131262436558
40
0.721707187318304
40
0.72528311220005
40
0.728859037081796
40
0.736010886845288
40
0.739586811727034
40
0.74316273660878
40
0.750314586372272
40
0.753890511254018
40
0.757466436135764
40
0.76104236101751
40
0.764618285899256
40
0.771770135662748
40
0.775346060544494
40
0.77892198542624
40
0.782497910307986
40
0.786073835189732
40
0.793225684953224
40
0.79680160983497
40
0.800377534716716
40
0.803953459598462
40
0.807529384480208
40
0.8146812342437
40
0.818257159125446
40
0.821833084007192
40
0.825409008888938
40
0.828984933770684
40
0.836136783534176
40
0.839712708415922
40
0.843288633297668
40
0.846864558179414
40
0.85044048306116
40
0.857592332824652
40
0.861168257706398
40
0.864744182588144
40
0.868320107469891
40
0.871896032351636
40
0.875471957233382
40
0.879047882115128
40
0.882623806996874
40
0.88619973187862
40
0.889775656760366
40
0.893351581642112
40
0.896927506523858
40
0.900503431405605
40
0.90407935628735
40
0.907655281169097
40
0.914807130932589
40
0.918383055814334
40
0.921958980696081
40
0.925534905577826
40
0.929110830459573
40
0.932686755341319
40
0.936262680223065
40
0.943414529986557
40
0.946990454868303
40
0.950566379750048
40
0.954142304631795
40
0.95771822951354
40
0.964870079277033
40
0.968446004158779
40
0.972021929040525
40
0.975597853922271
40
0.979173778804017
40
0.982749703685763
40
0.986325628567509
40
0.989901553449255
40
0.993477478331001
40
0.997053403212747
40
1
40
1
40
1
40
1
41
1
10
-2.19999999999999
20
22.0135196361283
30
0
41
1
10
-2.19999999999999
20
22.0117275772803
30
0
41
1
10
-2.19999999999999
20
22.0069596684202
30
0
41
1
10
-2.19999999999999
20
21.9968726461305
30
0
41
1
10
-2.19999999999999
20
21.9830583750197
30
0
41
1
10
-2.19999999999999
20
21.9661971621578
30
0
41
1
10
-2.19999999999999
20
21.9463373083127
30
0
41
1
10
-2.19999999999999
20
21.9159230944434
30
0
41
1
10
-2.19999999999999
20
21.870633664349
30
0
41
1
10
-2.19999999999999
20
21.8049949078793
30
0
41
1
10
-2.19999999999999
20
21.7411390111089
30
0
41
1
10
-2.19999999999999
20
21.6847072709128
30
0
41
1
10
-2.19999999999999
20
21.6397397481888
30
0
41
1
10
-2.19999999999999
20
21.5921615264853
30
0
41
1
10
-2.19999999999999
20
21.5252891523049
30
0
41
1
10
-2.19999999999999
20
21.453308753177
30
0
41
1
10
-2.19999999999999
20
21.3763547276269
30
0
41
1
10
-2.19999999999999
20
21.3161703964091
30
0
41
1
10
-2.19999999999999
20
21.2535469243879
30
0
41
1
10
-2.19999999999999
20
21.1885090229233
30
0
41
1
10
-2.19999999999999
20
21.121080083473
30
0
41
1
10
-2.19999999999999
20
21.0280237507364
30
0
41
1
10
-2.19999999999999
20
20.9302657445266
30
0
41
1
10
-2.19999999999999
20
20.8279188369072
30
0
41
1
10
-2.19999999999999
20
20.7488739070252
30
0
41
1
10
-2.19999999999999
20
20.6675681841826
30
0
41
1
10
-2.19999999999999
20
20.5840212184218
30
0
41
1
10
-2.19999999999999
20
20.4982502525025
30
0
41
1
10
-2.19999999999999
20
20.4102747128949
30
0
41
1
10
-2.19999999999999
20
20.3201119071544
30
0
41
1
10
-2.19999999999999
20
20.2277776663919
30
0
41
1
10
-2.19999999999999
20
20.1332899477274
30
0
41
1
10
-2.19999999999999
20
20.0366642357894
30
0
41
1
10
-2.19999999999999
20
19.9379151599299
30
0
41
1
10
-2.19999999999999
20
19.8370591957147
30
0
41
1
10
-2.19999999999999
20
19.7341102362335
30
0
41
1
10
-2.19999999999999
20
19.5940778412012
30
0
41
1
10
-2.19999999999999
20
19.4499005336558
30
0
41
1
10
-2.19999999999999
20
19.3016622310533
30
0
41
1
10
-2.19999999999999
20
19.2073184270571
30
0
41
1
10
-2.19999999999999
20
19.1308417758755
30
0
41
1
10
-2.19999999999999
20
19.0536957086557
30
0
41
1
10
-2.19999999999999
20
18.9169360704622
30
0
41
1
10
-2.19999999999999
20
18.756645794641
30
0
41
1
10
-2.19999999999999
20
18.5924362845557
30
0
41
1
10
-2.19999999999999
20
18.4673177976698
30
0
41
1
10
-2.19999999999999
20
18.3402521463352
30
0
41
1
10
-2.19999999999999
20
18.1682545122203
30
0
41
1
10
-2.19999999999999
20
17.9923842356821
30
0
41
1
10
-2.19999999999999
20
17.8127164551587
30
0
41
1
10
-2.19999999999999
20
17.6988333809735
30
0
41
1
10
-2.19999999999999
20
17.606787767091
30
0
41
1
10
-2.19999999999999
20
17.5141131161323
30
0
41
1
10
-2.19999999999999
20
17.3502824417036
30
0
41
1
10
-2.19999999999999
20
17.1592829447589
30
0
41
1
10
-2.19999999999999
20
16.9645867974536
30
0
41
1
10
-2.19999999999999
20
16.8167088060477
30
0
41
1
10
-2.19999999999999
20
16.6669871400996
30
0
41
1
10
-2.19999999999999
20
16.4649164953067
30
0
41
1
10
-2.19999999999999
20
16.2591646002876
30
0
41
1
10
-2.19999999999999
20
16.049802831716
30
0
41
1
10
-2.19999999999999
20
15.9174340084588
30
0
41
1
10
-2.19999999999999
20
15.8106442286412
30
0
41
1
10
-2.19999999999999
20
15.7032538676567
30
0
41
1
10
-2.19999999999999
20
15.567882396309
30
0
41
1
10
-2.19999999999999
20
15.4036502143979
30
0
41
1
10
-2.19999999999999
20
15.2652965264295
30
0
41
1
10
-2.19999999999999
20
15.1537302031574
30
0
41
1
10
-2.19999999999999
20
15.0415708470876
30
0
41
1
10
-2.19999999999999
20
14.90025131083
30
0
41
1
10
-2.19999999999999
20
14.7289012367181
30
0
41
1
10
-2.19999999999999
20
14.5557843226631
30
0
41
1
10
-2.19999999999999
20
14.3809062427341
30
0
41
1
10
-2.19999999999999
20
14.2042700822291
30
0
41
1
10
-2.19999999999999
20
14.0258803741545
30
0
41
1
10
-2.19999999999999
20
13.8457420253844
30
0
41
1
10
-2.19999999999999
20
13.6638579861817
30
0
41
1
10
-2.19999999999999
20
13.4802328481714
30
0
41
1
10
-2.19999999999999
20
13.2948705974071
30
0
41
1
10
-2.19999999999999
20
13.1077737485311
30
0
41
1
10
-2.19999999999999
20
12.9189467805057
30
0
41
1
10
-2.19999999999999
20
12.728392778749
30
0
41
1
10
-2.19999999999999
20
12.5361142588231
30
0
41
1
10
-2.19999999999999
20
12.2774598592137
30
0
41
1
10
-2.19999999999999
20
12.0153352592314
30
0
41
1
10
-2.19999999999999
20
11.7498207258852
30
0
41
1
10
-2.19999999999999
20
11.5489655826483
30
0
41
1
10
-2.19999999999999
20
11.3464032807099
30
0
41
1
10
-2.19999999999999
20
11.1421359853758
30
0
41
1
10
-2.19999999999999
20
10.9361655879759
30
0
41
1
10
-2.19999999999999
20
10.7284950970913
30
0
41
1
10
-2.19999999999999
20
10.5191258614377
30
0
41
1
10
-2.19999999999999
20
10.2377184130835
30
0
41
1
10
-2.19999999999999
20
9.88169304970987
30
0
41
1
10
-2.19999999999999
20
9.44771865839311
30
0
41
1
10
-2.19999999999999
20
9.08043848955603
30
0
41
1
10
-2.19999999999999
20
8.78327689677775
30
0
41
1
10
-2.19999999999999
20
8.55871419535617
30
0
41
1
10
-2.19999999999999
20
8.33247380011301
30
0
41
1
10
-2.19999999999999
20
8.10455852701506
30
0
41
1
10
-2.19999999999999
20
7.87497060194644
30
0
41
1
10
-2.19999999999999
20
7.6437128367312
30
0
41
1
10
-2.19999999999999
20
7.41078884464241
30
0
41
1
10
-2.19999999999999
20
7.17620220160032
30
0
41
1
10
-2.19999999999999
20
6.93995692090419
30
0
41
1
10
-2.19999999999999
20
6.70205758660663
30
0
41
1
10
-2.19999999999999
20
6.46250918569618
30
0
41
1
10
-2.19999999999999
20
6.2213178400012
30
0
41
1
10
-2.19999999999999
20
5.97849049576266
30
0
41
1
10
-2.19999999999999
20
5.73403521575827
30
0
41
1
10
-2.19999999999999
20
5.48796107357256
30
0
41
1
10
-2.19999999999999
20
5.24027911118978
30
0
41
1
10
-2.19999999999999
20
5.03253661023487
30
0
41
1
10
-2.19999999999999
20
4.86557359122418
30
0
41
1
10
-2.19999999999999
20
4.73994908127321
30
0
41
1
10
-2.19999999999999
20
4.61393371339017
30
0
41
1
10
-2.19999999999999
20
4.44540774959788
30
0
41
1
10
-2.19999999999999
20
4.23375652596863
30
0
41
1
10
-2.19999999999999
20
4.02083961713782
30
0
41
1
10
-2.19999999999999
20
3.84978439152417
30
0
41
1
10
-2.19999999999999
20
3.72111342731068
30
0
41
1
10
-2.19999999999999
20
3.59207749308624
30
0
41
1
10
-2.19999999999999
20
3.41956369464535
30
0
41
1
10
-2.19999999999999
20
3.24629481959221
30
0
41
1
10
-2.19999999999999
20
3.0723836150739
30
0
41
1
10
-2.19999999999999
20
2.94160046512798
30
0
41
1
10
-2.19999999999999
20
2.81048647644627
30
0
41
1
10
-2.19999999999999
20
2.67904892732182
30
0
41
1
10
-2.19999999999999
20
2.54729562722176
30
0
41
1
10
-2.19999999999999
20
2.41523551097489
30
0
41
1
10
-2.19999999999999
20
2.28287740252156
30
0
41
1
10
-2.19999999999999
20
2.15023166945255
30
0
41
1
10
-2.19999999999999
20
2.01730873413072
30
0
41
1
10
-2.19999999999999
20
1.88412021099791
30
0
41
1
10
-2.19999999999999
20
1.75067841854351
30
0
41
1
10
-2.19999999999999
20
1.61699634722072
30
0
41
1
10
-2.19999999999999
20
1.48308821885627
30
0
41
1
10
-2.19999999999999
20
1.34896859254377
30
0
41
1
10
-2.19999999999999
20
1.21465350310541
30
0
41
1
10
-2.19999999999999
20
1.0801592162689
30
0
41
1
10
-2.19999999999999
20
0.945503442662783
30
0
41
1
10
-2.19999999999999
20
0.810704113119073
30
0
41
1
10
-2.19999999999999
20
0.675780421912322
30
0
41
1
10
-2.19999999999999
20
0.540751787789588
30
0
41
1
10
-2.19999999999999
20
0.405638599098921
30
0
41
1
10
-2.19999999999999
20
0.270461428271432
30
0
41
1
10
-2.19999999999999
20
0.135241462279822
30
0
41
1
10
-2.19999999999999
20
-5.3654787E-09
30
0
41
1
10
-2.19999999999999
20
-0.135241472589996
30
0
41
1
10
-2.19999999999999
20
-0.270461437853925
30
0
41
1
10
-2.19999999999999
20
-0.405638608907907
30
0
41
1
10
-2.19999999999999
20
-0.540751798686529
30
0
41
1
10
-2.19999999999999
20
-0.675780432522174
30
0
41
1
10
-2.19999999999999
20
-0.810704122044939
30
0
41
1
10
-2.19999999999999
20
-0.945503451789534
30
0
41
1
10
-2.19999999999999
20
-1.08015922751395
30
0
41
1
10
-2.19999999999999
20
-1.21465351395383
30
0
41
1
10
-2.19999999999999
20
-1.34896860046499
30
0
41
1
10
-2.19999999999999
20
-1.48308822685564
30
0
41
1
10
-2.19999999999999
20
-1.61699635855226
30
0
41
1
10
-2.19999999999999
20
-1.75067843002711
30
0
41
1
10
-2.19999999999999
20
-1.88412021847037
30
0
41
1
10
-2.19999999999999
20
-2.01730874020455
30
0
41
1
10
-2.19999999999999
20
-2.15023167925048
30
0
41
1
10
-2.19999999999999
20
-2.28287741514001
30
0
41
1
10
-2.19999999999999
20
-2.41523552035437
30
0
41
1
10
-2.19999999999999
20
-2.54729563151926
30
0
41
1
10
-2.19999999999999
20
-2.67904893291683
30
0
41
1
10
-2.19999999999999
20
-2.81048648769612
30
0
41
1
10
-2.19999999999999
20
-2.94160047796311
30
0
41
1
10
-2.19999999999999
20
-3.072383622975
30
0
41
1
10
-2.19999999999999
20
-3.24629481975686
30
0
41
1
10
-2.19999999999999
20
-3.41956370437865
30
0
41
1
10
-2.19999999999999
20
-3.59207750684843
30
0
41
1
10
-2.19999999999999
20
-3.72111343644576
30
0
41
1
10
-2.19999999999999
20
-3.84978439330678
30
0
41
1
10
-2.19999999999999
20
-4.020839617489
30
0
41
1
10
-2.19999999999999
20
-4.23375654375474
30
0
41
1
10
-2.19999999999999
20
-4.44540775759583
30
0
41
1
10
-2.19999999999999
20
-4.61393371339872
30
0
41
1
10
-2.19999999999999
20
-4.73994907984499
30
0
41
1
10
-2.19999999999999
20
-4.86557359653659
30
0
41
1
10
-2.19999999999999
20
-5.03253662624778
30
0
41
1
10
-2.19999999999999
20
-5.24027911954084
30
0
41
1
10
-2.19999999999999
20
-5.48796106514416
30
0
41
1
10
-2.19999999999999
20
-5.73403522651989
30
0
41
1
10
-2.19999999999999
20
-5.97849051253721
30
0
41
1
10
-2.19999999999999
20
-6.22131783489101
30
0
41
1
10
-2.19999999999999
20
-6.46250917346816
30
0
41
1
10
-2.19999999999999
20
-6.70205756880287
30
0
41
1
10
-2.19999999999999
20
-6.93995689241024
30
0
41
1
10
-2.19999999999999
20
-7.17620223308296
30
0
41
1
10
-2.19999999999999
20
-7.41078904293681
30
0
41
1
10
-2.19999999999999
20
-7.64371312168015
30
0
41
1
10
-2.19999999999999
20
-7.87497052861914
30
0
41
1
10
-2.19999999999999
20
-8.10455846042146
30
0
41
1
10
-2.19999999999999
20
-8.33247384441506
30
0
41
1
10
-2.19999999999999
20
-8.55871423477029
30
0
41
1
10
-2.19999999999999
20
-8.78327691067398
30
0
41
1
10
-2.19999999999999
20
-9.08043846702645
30
0
41
1
10
-2.19999999999999
20
-9.44771866001565
30
0
41
1
10
-2.19999999999999
20
-9.88169305528194
30
0
41
1
10
-2.19999999999999
20
-10.2377183913447
30
0
41
1
10
-2.19999999999999
20
-10.5191258633122
30
0
41
1
10
-2.19999999999999
20
-10.7284951094206
30
0
41
1
10
-2.19999999999999
20
-10.9361655882296
30
0
41
1
10
-2.19999999999999
20
-11.1421359694817
30
0
41
1
10
-2.19999999999999
20
-11.3464032666245
30
0
41
1
10
-2.19999999999999
20
-11.5489655840494
30
0
41
1
10
-2.19999999999999
20
-11.7498207382014
30
0
41
1
10
-2.19999999999999
20
-12.015335258712
30
0
41
1
10
-2.19999999999999
20
-12.277459839655
30
0
41
1
10
-2.19999999999999
20
-12.5361142561418
30
0
41
1
10
-2.19999999999999
20
-12.7283927892775
30
0
41
1
10
-2.19999999999999
20
-12.9189467887917
30
0
41
1
10
-2.19999999999999
20
-13.1077737445537
30
0
41
1
10
-2.19999999999999
20
-13.2948705838035
30
0
41
1
10
-2.19999999999999
20
-13.4802328404438
30
0
41
1
10
-2.19999999999999
20
-13.6638579908945
30
0
41
1
10
-2.19999999999999
20
-13.845742035678
30
0
41
1
10
-2.19999999999999
20
-14.0258803815961
30
0
41
1
10
-2.19999999999999
20
-14.2042701267483
30
0
41
1
10
-2.19999999999999
20
-14.3809064511142
30
0
41
1
10
-2.19999999999999
20
-14.61406817927
30
0
41
1
10
-2.19999999999999
20
-14.8437340716545
30
0
41
1
10
-2.19999999999999
20
-15.069828938707
30
0
41
1
10
-2.19999999999999
20
-15.2935559429894
30
0
41
1
10
-2.19999999999999
20
-15.513744330902
30
0
41
1
10
-2.19999999999999
20
-15.7303232767805
30
0
41
1
10
-2.19999999999999
20
-15.8909649274654
30
0
41
1
10
-2.19999999999999
20
-16.0498023362736
30
0
41
1
10
-2.19999999999999
20
-16.2591647559547
30
0
41
1
10
-2.19999999999999
20
-16.4649171124643
30
0
41
1
10
-2.19999999999999
20
-16.666987304737
30
0
41
1
10
-2.19999999999999
20
-16.8167085043733
30
0
41
1
10
-2.19999999999999
20
-16.9645862898264
30
0
41
1
10
-2.19999999999999
20
-17.1592828976246
30
0
41
1
10
-2.19999999999999
20
-17.3502835148979
30
0
41
1
10
-2.19999999999999
20
-17.5375147595292
30
0
41
1
10
-2.19999999999999
20
-17.676060438985
30
0
41
1
10
-2.19999999999999
20
-17.8127154575359
30
0
41
1
10
-2.19999999999999
20
-17.9923842415009
30
0
41
1
10
-2.19999999999999
20
-18.1682547291306
30
0
41
1
10
-2.19999999999999
20
-18.3402522143585
30
0
41
1
10
-2.19999999999999
20
-18.4673177032107
30
0
41
1
10
-2.19999999999999
20
-18.5924361073221
30
0
41
1
10
-2.19999999999999
20
-18.7566457425986
30
0
41
1
10
-2.19999999999999
20
-18.9169371900015
30
0
41
1
10
-2.19999999999999
20
-19.0732305996174
30
0
41
1
10
-2.19999999999999
20
-19.1884526890887
30
0
41
1
10
-2.19999999999999
20
-19.3016611759423
30
0
41
1
10
-2.19999999999999
20
-19.4499005391959
30
0
41
1
10
-2.19999999999999
20
-19.5940785255289
30
0
41
1
10
-2.19999999999999
20
-19.7341104289282
30
0
41
1
10
-2.19999999999999
20
-19.8370589164793
30
0
41
1
10
-2.19999999999999
20
-19.9379146863563
30
0
41
1
10
-2.19999999999999
20
-20.0366640227898
30
0
41
1
10
-2.19999999999999
20
-20.133289903145
30
0
41
1
10
-2.19999999999999
20
-20.2277776697998
30
0
41
1
10
-2.19999999999999
20
-20.3201119082527
30
0
41
1
10
-2.19999999999999
20
-20.4102747220553
30
0
41
1
10
-2.19999999999999
20
-20.4982502752196
30
0
41
1
10
-2.19999999999999
20
-20.5840212474559
30
0
41
1
10
-2.19999999999999
20
-20.6675682022903
30
0
41
1
10
-2.19999999999999
20
-20.7488739108727
30
0
41
1
10
-2.19999999999999
20
-20.82791883753
30
0
41
1
10
-2.19999999999999
20
-20.9302657657864
30
0
41
1
10
-2.19999999999999
20
-21.0280237880878
30
0
41
1
10
-2.19999999999999
20
-21.1210800961781
30
0
41
1
10
-2.19999999999999
20
-21.1885090211437
30
0
41
1
10
-2.19999999999999
20
-21.2535469320083
30
0
41
1
10
-2.19999999999999
20
-21.3161704250344
30
0
41
1
10
-2.19999999999999
20
-21.3763547664481
30
0
41
1
10
-2.19999999999999
20
-21.4533087676779
30
0
41
1
10
-2.19999999999999
20
-21.5252891448141
30
0
41
1
10
-2.19999999999999
20
-21.5921615531195
30
0
41
1
10
-2.19999999999999
20
-21.6397397916631
30
0
41
1
10
-2.19999999999999
20
-21.6847072964973
30
0
41
1
10
-2.19999999999999
20
-21.7411389990572
30
0
41
1
10
-2.19999999999999
20
-21.7922265879071
30
0
41
1
10
-2.19999999999999
20
-21.8378144981283
30
0
41
1
10
-2.19999999999999
20
-21.8692221254414
30
0
41
1
10
-2.19999999999999
20
-21.8978063777089
30
0
41
1
10
-2.19999999999999
20
-21.9235254752891
30
0
41
1
10
-2.19999999999999
20
-21.9463373508774
30
0
41
1
10
-2.19999999999999
20
-21.9661972037607
30
0
41
1
10
-2.19999999999999
20
-21.9830583809744
30
0
41
1
10
-2.19999999999999
20
-21.9968726399857
30
0
41
1
10
-2.19999999999999
20
-22.0069600145782
30
0
41
1
10
-2.19999999999999
20
-22.0117281509192
30
0
41
1
10
-2.19999999999999
20
-22.0135203642483
30
0
0
SPLINE
5
B0
100
AcDbEntity
8
SK1
62
256
6
ByLayer
370
-1
48
1
60
0
100
AcDbSpline
70
4
71
3
72
299
73
295
40
0
40
0
40
0
40
0
40
0.0033236373529992
40
0.0068461610964059
40
0.0103686848398127
40
0.0138912085832194
40
0.0174137323266262
40
0.0209362560700329
40
0.0244587798134397
40
0.0279813035568464
40
0.03502635104366
40
0.0420713985304735
40
0.049116446017287
40
0.0526389697606937
40
0.0561614935041005
40
0.0596840172475072
40
0.063206540990914
40
0.0702515884777275
40
0.0737741122211342
40
0.077296635964541
40
0.0808191597079477
40
0.0843416834513545
40
0.0878642071947612
40
0.091386730938168
40
0.0984317784249815
40
0.101954302168388
40
0.105476825911795
40
0.108999349655202
40
0.112521873398609
40
0.116044397142015
40
0.119566920885422
40
0.123089444628829
40
0.126611968372236
40
0.130134492115642
40
0.133657015859049
40
0.137179539602456
40
0.140702063345862
40
0.144224587089269
40
0.147747110832676
40
0.15479215831949
40
0.158314682062896
40
0.161837205806303
40
0.163598467678006
40
0.16535972954971
40
0.168882253293117
40
0.17592730077993
40
0.179449824523337
40
0.182972348266744
40
0.18649487201015
40
0.190017395753557
40
0.197062443240371
40
0.200584966983777
40
0.204107490727184
40
0.205868752598888
40
0.207630014470591
40
0.211152538213998
40
0.218197585700811
40
0.221720109444218
40
0.225242633187625
40
0.228765156931031
40
0.232287680674438
40
0.239332728161252
40
0.242855251904658
40
0.246377775648065
40
0.248139037519769
40
0.249900299391472
40
0.253422823134879
40
0.256945346878285
40
0.260467870621692
40
0.262229132493396
40
0.263990394365099
40
0.267512918108506
40
0.271035441851912
40
0.274557965595319
40
0.278080489338726
40
0.281603013082133
40
0.285125536825539
40
0.288648060568946
40
0.292170584312353
40
0.29569310805576
40
0.299215631799166
40
0.302738155542573
40
0.30626067928598
40
0.309783203029387
40
0.313305726772793
40
0.3168282505162
40
0.323873298003014
40
0.327395821746421
40
0.330918345489827
40
0.334440869233234
40
0.337963392976641
40
0.341485916720047
40
0.345008440463454
40
0.348530964206861
40
0.352053487950268
40
0.359098535437081
40
0.366143582923895
40
0.373188630410708
40
0.376711154154115
40
0.380233677897522
40
0.383756201640929
40
0.387278725384335
40
0.390801249127742
40
0.394323772871149
40
0.397846296614556
40
0.401368820357962
40
0.404891344101369
40
0.408413867844776
40
0.411936391588183
40
0.415458915331589
40
0.418981439074996
40
0.422503962818403
40
0.42602648656181
40
0.429549010305216
40
0.433071534048623
40
0.434832795920326
40
0.43659405779203
40
0.438355319663733
40
0.440116581535436
40
0.443639105278843
40
0.44716162902225
40
0.448922890893953
40
0.450684152765657
40
0.45244541463736
40
0.454206676509063
40
0.45772920025247
40
0.459490462124174
40
0.461251723995877
40
0.46301298586758
40
0.464774247739284
40
0.466535509610987
40
0.468296771482691
40
0.470058033354394
40
0.471819295226097
40
0.473580557097801
40
0.475341818969504
40
0.477103080841207
40
0.478864342712911
40
0.480625604584614
40
0.482386866456318
40
0.484148128328021
40
0.485909390199724
40
0.487670652071428
40
0.489431913943131
40
0.491193175814834
40
0.492954437686538
40
0.494715699558241
40
0.496476961429945
40
0.498238223301648
40
0.499999485173351
40
0.501760747045055
40
0.503522008916758
40
0.505283270788461
40
0.507044532660165
40
0.508805794531868
40
0.510567056403572
40
0.512328318275275
40
0.514089580146978
40
0.515850842018682
40
0.517612103890385
40
0.519373365762088
40
0.521134627633792
40
0.522895889505495
40
0.524657151377199
40
0.526418413248902
40
0.528179675120605
40
0.529940936992309
40
0.531702198864012
40
0.533463460735715
40
0.535224722607419
40
0.536985984479122
40
0.538747246350826
40
0.540508508222529
40
0.542269770094232
40
0.545792293837639
40
0.547553555709343
40
0.549314817581046
40
0.551076079452749
40
0.552837341324453
40
0.556359865067859
40
0.559882388811266
40
0.56164365068297
40
0.563404912554673
40
0.565166174426376
40
0.56692743629808
40
0.570449960041486
40
0.573972483784893
40
0.5774950075283
40
0.581017531271707
40
0.584540055015113
40
0.58806257875852
40
0.591585102501927
40
0.595107626245334
40
0.59863014998874
40
0.602152673732147
40
0.605675197475554
40
0.609197721218961
40
0.612720244962367
40
0.616242768705774
40
0.619765292449181
40
0.623287816192588
40
0.626810339935994
40
0.633855387422808
40
0.640900434909621
40
0.647945482396435
40
0.651468006139842
40
0.654990529883248
40
0.658513053626655
40
0.662035577370062
40
0.665558101113469
40
0.669080624856875
40
0.672603148600282
40
0.676125672343689
40
0.683170719830502
40
0.686693243573909
40
0.690215767317316
40
0.693738291060723
40
0.697260814804129
40
0.700783338547536
40
0.704305862290943
40
0.70782838603435
40
0.711350909777757
40
0.714873433521163
40
0.71839595726457
40
0.721918481007977
40
0.725441004751383
40
0.732486052238197
40
0.736008575981604
40
0.73953109972501
40
0.746576147211824
40
0.750098670955231
40
0.753621194698638
40
0.757143718442044
40
0.760666242185451
40
0.767711289672265
40
0.771233813415671
40
0.774756337159078
40
0.778278860902485
40
0.781801384645892
40
0.788846432132705
40
0.792368955876112
40
0.795891479619519
40
0.799414003362925
40
0.802936527106332
40
0.809981574593145
40
0.813504098336552
40
0.817026622079959
40
0.820549145823366
40
0.824071669566773
40
0.831116717053586
40
0.834639240796993
40
0.8381617645404
40
0.841684288283806
40
0.845206812027213
40
0.852251859514027
40
0.855774383257433
40
0.85929690700084
40
0.862819430744247
40
0.866341954487654
40
0.86986447823106
40
0.873387001974467
40
0.876909525717874
40
0.880432049461281
40
0.883954573204687
40
0.887477096948094
40
0.890999620691501
40
0.894522144434908
40
0.898044668178314
40
0.901567191921721
40
0.908612239408535
40
0.912134763151941
40
0.915657286895348
40
0.919179810638755
40
0.922702334382162
40
0.926224858125568
40
0.929747381868975
40
0.936792429355789
40
0.940314953099195
40
0.943837476842602
40
0.947360000586009
40
0.950882524329416
40
0.957927571816229
40
0.961450095559636
40
0.964972619303043
40
0.968495143046449
40
0.972017666789856
40
0.975540190533263
40
0.97906271427667
40
0.982585238020076
40
0.986107761763483
40
0.98963028550689
40
0.993152809250297
40
0.996675332993703
40
1
40
1
40
1
40
1
41
1
10
-1.99503997793928
20
21.8251642734818
30
0
41
1
10
-1.99503997793928
20
21.8252834968151
30
0
41
1
10
-1.99503997793928
20
21.8245223568875
30
0
41
1
10
-1.99503997793928
20
21.8202836860757
30
0
41
1
10
-1.99503997793928
20
21.812783044142
30
0
41
1
10
-1.99503997793928
20
21.8021565364934
30
0
41
1
10
-1.99503997793928
20
21.7884557330328
30
0
41
1
10
-1.99503997793928
20
21.7717308612526
30
0
41
1
10
-1.99503997793928
20
21.7520291985819
30
0
41
1
10
-1.99503997793928
20
21.7218385059106
30
0
41
1
10
-1.99503997793928
20
21.6769140218914
30
0
41
1
10
-1.99503997793928
20
21.6117670092986
30
0
41
1
10
-1.99503997793928
20
21.5484022523455
30
0
41
1
10
-1.99503997793928
20
21.4923512863894
30
0
41
1
10
-1.99503997793928
20
21.4477036012609
30
0
41
1
10
-1.99503997793928
20
21.4004602751572
30
0
41
1
10
-1.99503997793928
20
21.3340243579833
30
0
41
1
10
-1.99503997793928
20
21.2626002065084
30
0
41
1
10
-1.99503997793928
20
21.1861355372814
30
0
41
1
10
-1.99503997793928
20
21.126355615456
30
0
41
1
10
-1.99503997793928
20
21.0641493981766
30
0
41
1
10
-1.99503997793928
20
20.9995415089612
30
0
41
1
10
-1.99503997793928
20
20.9325549476398
30
0
41
1
10
-1.99503997793928
20
20.8400664063016
30
0
41
1
10
-1.99503997793928
20
20.7430171949632
30
0
41
1
10
-1.99503997793928
20
20.6412830606924
30
0
41
1
10
-1.99503997793928
20
20.5627395849404
30
0
41
1
10
-1.99503997793928
20
20.4819464711493
30
0
41
1
10
-1.99503997793928
20
20.3989234016943
30
0
41
1
10
-1.99503997793928
20
20.3136873945745
30
0
41
1
10
-1.99503997793928
20
20.2262576082901
30
0
41
1
10
-1.99503997793928
20
20.136651569995
30
0
41
1
10
-1.99503997793928
20
20.0448848271876
30
0
41
1
10
-1.99503997793928
20
19.9509751576252
30
0
41
1
10
-1.99503997793928
20
19.8549383078336
30
0
41
1
10
-1.99503997793928
20
19.7567886026657
30
0
41
1
10
-1.99503997793928
20
19.6565424313982
30
0
41
1
10
-1.99503997793928
20
19.5542139601407
30
0
41
1
10
-1.99503997793928
20
19.4149698127943
30
0
41
1
10
-1.99503997793928
20
19.2717622924356
30
0
41
1
10
-1.99503997793928
20
19.1243520606764
30
0
41
1
10
-1.99503997793928
20
19.0305969699326
30
0
41
1
10
-1.99503997793928
20
18.9545457436666
30
0
41
1
10
-1.99503997793928
20
18.877828345234
30
0
41
1
10
-1.99503997793928
20
18.7418485706132
30
0
41
1
10
-1.99503997793928
20
18.5826225030747
30
0
41
1
10
-1.99503997793928
20
18.4193199892891
30
0
41
1
10
-1.99503997793928
20
18.2949375082747
30
0
41
1
10
-1.99503997793928
20
18.1686188381619
30
0
41
1
10
-1.99503997793928
20
17.9975681157064
30
0
41
1
10
-1.99503997793928
20
17.8228588844704
30
0
41
1
10
-1.99503997793928
20
17.6441795672679
30
0
41
1
10
-1.99503997793928
20
17.5309981410348
30
0
41
1
10
-1.99503997793928
20
17.4394590341184
30
0
41
1
10
-1.99503997793928
20
17.3472945498449
30
0
41
1
10
-1.99503997793928
20
17.1843913435575
30
0
41
1
10
-1.99503997793928
20
16.9946548235122
30
0
41
1
10
-1.99503997793928
20
16.8010333841432
30
0
41
1
10
-1.99503997793928
20
16.654027023888
30
0
41
1
10
-1.99503997793928
20
16.5051894370887
30
0
41
1
10
-1.99503997793928
20
16.3042392155796
30
0
41
1
10
-1.99503997793928
20
16.0998599858609
30
0
41
1
10
-1.99503997793928
20
15.8916662065006
30
0
41
1
10
-1.99503997793928
20
15.7601264684356
30
0
41
1
10
-1.99503997793928
20
15.6539352235828
30
0
41
1
10
-1.99503997793928
20
15.5471478788444
30
0
41
1
10
-1.99503997793928
20
15.4126292313156
30
0
41
1
10
-1.99503997793928
20
15.2493853238091
30
0
41
1
10
-1.99503997793928
20
15.1119089381336
30
0
41
1
10
-1.99503997793928
20
15.0009760777421
30
0
41
1
10
-1.99503997793928
20
14.8894548819647
30
0
41
1
10
-1.99503997793928
20
14.7490386600655
30
0
41
1
10
-1.99503997793928
20
14.578735707937
30
0
41
1
10
-1.99503997793928
20
14.4066808882548
30
0
41
1
10
-1.99503997793928
20
14.2328806917249
30
0
41
1
10
-1.99503997793928
20
14.0573388809364
30
0
41
1
10
-1.99503997793928
20
13.8800596938692
30
0
41
1
10
-1.99503997793928
20
13.7010488098078
30
0
41
1
10
-1.99503997793928
20
13.5203096364964
30
0
41
1
10
-1.99503997793928
20
13.3378467409434
30
0
41
1
10
-1.99503997793928
20
13.1536651576331
30
0
41
1
10
-1.99503997793928
20
12.967767664355
30
0
41
1
10
-1.99503997793928
20
12.7801589185361
30
0
41
1
10
-1.99503997793928
20
12.5908431445087
30
0
41
1
10
-1.99503997793928
20
12.3998230002593
30
0
41
1
10
-1.99503997793928
20
12.1427688173785
30
0
41
1
10
-1.99503997793928
20
11.8826118718573
30
0
41
1
10
-1.99503997793928
20
11.6187779306707
30
0
41
1
10
-1.99503997793928
20
11.4192921752591
30
0
41
1
10
-1.99503997793928
20
11.2181233733031
30
0
41
1
10
-1.99503997793928
20
11.0152750188843
30
0
41
1
10
-1.99503997793928
20
10.8107494713072
30
0
41
1
10
-1.99503997793928
20
10.6045508021232
30
0
41
1
10
-1.99503997793928
20
10.3966814407573
30
0
41
1
10
-1.99503997793928
20
10.1171870033238
30
0
41
1
10
-1.99503997793928
20
9.76392166117952
30
0
41
1
10
-1.99503997793928
20
9.33322608836653
30
0
41
1
10
-1.99503997793928
20
8.96893242084855
30
0
41
1
10
-1.99503997793928
20
8.67397578579323
30
0
41
1
10
-1.99503997793928
20
8.45121977200662
30
0
41
1
10
-1.99503997793928
20
8.22682776167494
30
0
41
1
10
-1.99503997793928
20
8.00080467620245
30
0
41
1
10
-1.99503997793928
20
7.77315513008728
30
0
41
1
10
-1.99503997793928
20
7.54388372935193
30
0
41
1
10
-1.99503997793928
20
7.31299637479285
30
0
41
1
10
-1.99503997793928
20
7.08049945458953
30
0
41
1
10
-1.99503997793928
20
6.8463997482805
30
0
41
1
10
-1.99503997793928
20
6.61070495432838
30
0
41
1
10
-1.99503997793928
20
6.37342319970753
30
0
41
1
10
-1.99503997793928
20
6.13456384015993
30
0
41
1
10
-1.99503997793928
20
5.89413749968628
30
0
41
1
10
-1.99503997793928
20
5.65215638001948
30
0
41
1
10
-1.99503997793928
20
5.4086336510897
30
0
41
1
10
-1.99503997793928
20
5.16358499073451
30
0
41
1
10
-1.99503997793928
20
4.95821799704331
30
0
41
1
10
-1.99503997793928
20
4.79299516838267
30
0
41
1
10
-1.99503997793928
20
4.66878842905288
30
0
41
1
10
-1.99503997793928
20
4.5442150281373
30
0
41
1
10
-1.99503997793928
20
4.37752561794156
30
0
41
1
10
-1.99503997793928
20
4.16851547631595
30
0
41
1
10
-1.99503997793928
20
3.95832363498766
30
0
41
1
10
-1.99503997793928
20
3.78926935835412
30
0
41
1
10
-1.99503997793928
20
3.66223142121836
30
0
41
1
10
-1.99503997793928
20
3.53485872774326
30
0
41
1
10
-1.99503997793928
20
3.36446603264318
30
0
41
1
10
-1.99503997793928
20
3.19381064862623
30
0
41
1
10
-1.99503997793928
20
3.02213557666008
30
0
41
1
10
-1.99503997793928
20
2.8931784837302
30
0
41
1
10
-1.99503997793928
20
2.76392442628162
30
0
41
1
10
-1.99503997793928
20
2.63438251344519
30
0
41
1
10
-1.99503997793928
20
2.50455988721876
30
0
41
1
10
-1.99503997793928
20
2.37446636334928
30
0
41
1
10
-1.99503997793928
20
2.24411116870439
30
0
41
1
10
-1.99503997793928
20
2.11350398186613
30
0
41
1
10
-1.99503997793928
20
1.98265625862297
30
0
41
1
10
-1.99503997793928
20
1.85157817347522
30
0
41
1
10
-1.99503997793928
20
1.72028262405345
30
0
41
1
10
-1.99503997793928
20
1.58878098022359
30
0
41
1
10
-1.99503997793928
20
1.45708718468359
30
0
41
1
10
-1.99503997793928
20
1.32521409071333
30
0
41
1
10
-1.99503997793928
20
1.19317647053177
30
0
41
1
10
-1.99503997793928
20
1.06098852682439
30
0
41
1
10
-1.99503997793928
20
0.928665923975672
30
0
41
1
10
-1.99503997793928
20
0.796224037396229
30
0
41
1
10
-1.99503997793928
20
0.663679321648374
30
0
41
1
10
-1.99503997793928
20
0.531048033506266
30
0
41
1
10
-1.99503997793928
20
0.398347293868937
30
0
41
1
10
-1.99503997793928
20
0.265594055935196
30
0
41
1
10
-1.99503997793928
20
0.132805828560237
30
0
41
1
10
-1.99503997793928
20
-2.0604887E-09
30
0
41
1
10
-1.99503997793928
20
-0.132805835966792
30
0
41
1
10
-1.99503997793928
20
-0.265594069601519
30
0
41
1
10
-1.99503997793928
20
-0.398347307093388
30
0
41
1
10
-1.99503997793928
20
-0.531048037421954
30
0
41
1
10
-1.99503997793928
20
-0.663679323049081
30
0
41
1
10
-1.99503997793928
20
-0.796224050825089
30
0
41
1
10
-1.99503997793928
20
-0.92866594303203
30
0
41
1
10
-1.99503997793928
20
-1.06098853158755
30
0
41
1
10
-1.99503997793928
20
-1.1931764657121
30
0
41
1
10
-1.99503997793928
20
-1.32521410103647
30
0
41
1
10
-1.99503997793928
20
-1.45708720896539
30
0
41
1
10
-1.99503997793928
20
-1.58878099035152
30
0
41
1
10
-1.99503997793928
20
-1.72028261530932
30
0
41
1
10
-1.99503997793928
20
-1.85157817419838
30
0
41
1
10
-1.99503997793928
20
-1.98265628188182
30
0
41
1
10
-1.99503997793928
20
-2.11350400419804
30
0
41
1
10
-1.99503997793928
20
-2.24411116714702
30
0
41
1
10
-1.99503997793928
20
-2.37446635053539
30
0
41
1
10
-1.99503997793928
20
-2.50455989433328
30
0
41
1
10
-1.99503997793928
20
-2.63438254221708
30
0
41
1
10
-1.99503997793928
20
-2.76392444618182
30
0
41
1
10
-1.99503997793928
20
-2.89317847799558
30
0
41
1
10
-1.99503997793928
20
-3.02213556164864
30
0
41
1
10
-1.99503997793928
20
-3.19381066067948
30
0
41
1
10
-1.99503997793928
20
-3.36446606295527
30
0
41
1
10
-1.99503997793928
20
-3.53485872835634
30
0
41
1
10
-1.99503997793928
20
-3.66223140396673
30
0
41
1
10
-1.99503997793928
20
-3.78926935085312
30
0
41
1
10
-1.99503997793928
20
-3.95832365779984
30
0
41
1
10
-1.99503997793928
20
-4.16851549788919
30
0
41
1
10
-1.99503997793928
20
-4.37752560184694
30
0
41
1
10
-1.99503997793928
20
-4.54421502107886
30
0
41
1
10
-1.99503997793928
20
-4.66878844332788
30
0
41
1
10
-1.99503997793928
20
-4.79299519854527
30
0
41
1
10
-1.99503997793928
20
-4.95821801342223
30
0
41
1
10
-1.99503997793928
20
-5.16358497720142
30
0
41
1
10
-1.99503997793928
20
-5.40863364784667
30
0
41
1
10
-1.99503997793928
20
-5.65215640891225
30
0
41
1
10
-1.99503997793928
20
-5.89413750153935
30
0
41
1
10
-1.99503997793928
20
-6.13456381441384
30
0
41
1
10
-1.99503997793928
20
-6.37342317953835
30
0
41
1
10
-1.99503997793928
20
-6.61070492919379
30
0
41
1
10
-1.99503997793928
20
-6.84639976314463
30
0
41
1
10
-1.99503997793928
20
-7.08049963775395
30
0
41
1
10
-1.99503997793928
20
-7.31299670603016
30
0
41
1
10
-1.99503997793928
20
-7.54388383469134
30
0
41
1
10
-1.99503997793928
20
-7.77315487290267
30
0
41
1
10
-1.99503997793928
20
-8.00080468509063
30
0
41
1
10
-1.99503997793928
20
-8.22682785520686
30
0
41
1
10
-1.99503997793928
20
-8.4512197921853
30
0
41
1
10
-1.99503997793928
20
-8.67397577159846
30
0
41
1
10
-1.99503997793928
20
-8.96893239301764
30
0
41
1
10
-1.99503997793928
20
-9.33322609823665
30
0
41
1
10
-1.99503997793928
20
-9.76392165975841
30
0
41
1
10
-1.99503997793928
20
-10.1171869828061
30
0
41
1
10
-1.99503997793928
20
-10.3966814549587
30
0
41
1
10
-1.99503997793928
20
-10.6045508126063
30
0
41
1
10
-1.99503997793928
20
-10.8107494592904
30
0
41
1
10
-1.99503997793928
20
-11.0152749978462
30
0
41
1
10
-1.99503997793928
20
-11.2181233670389
30
0
41
1
10
-1.99503997793928
20
-11.4192921870092
30
0
41
1
10
-1.99503997793928
20
-11.6187779427602
30
0
41
1
10
-1.99503997793928
20
-11.8826118620781
30
0
41
1
10
-1.99503997793928
20
-12.1427687977971
30
0
41
1
10
-1.99503997793928
20
-12.3998230071702
30
0
41
1
10
-1.99503997793928
20
-12.5908431584255
30
0
41
1
10
-1.99503997793928
20
-12.7801589212449
30
0
41
1
10
-1.99503997793928
20
-12.9677676529033
30
0
41
1
10
-1.99503997793928
20
-13.1536651432542
30
0
41
1
10
-1.99503997793928
20
-13.3378467396349
30
0
41
1
10
-1.99503997793928
20
-13.520309646993
30
0
41
1
10
-1.99503997793928
20
-13.7010488212408
30
0
41
1
10
-1.99503997793928
20
-13.8800597145162
30
0
41
1
10
-1.99503997793928
20
-14.0573389921213
30
0
41
1
10
-1.99503997793928
20
-14.2328810143213
30
0
41
1
10
-1.99503997793928
20
-14.4646959102749
30
0
41
1
10
-1.99503997793928
20
-14.6927797943809
30
0
41
1
10
-1.99503997793928
20
-14.9175842595472
30
0
41
1
10
-1.99503997793928
20
-15.1400402265273
30
0
41
1
10
-1.99503997793928
20
-15.3587351142266
30
0
41
1
10
-1.99503997793928
20
-15.574095422854
30
0
41
1
10
-1.99503997793928
20
-15.733775855726
30
0
41
1
10
-1.99503997793928
20
-15.8916657661057
30
0
41
1
10
-1.99503997793928
20
-16.0998603532658
30
0
41
1
10
-1.99503997793928
20
-16.3042398246232
30
0
41
1
10
-1.99503997793928
20
-16.5051894037979
30
0
41
1
10
-1.99503997793928
20
-16.6540265683948
30
0
41
1
10
-1.99503997793928
20
-16.8010329188422
30
0
41
1
10
-1.99503997793928
20
-16.9946550481209
30
0
41
1
10
-1.99503997793928
20
-17.1843924611907
30
0
41
1
10
-1.99503997793928
20
-17.3705928023913
30
0
41
1
10
-1.99503997793928
20
-17.5083251903719
30
0
41
1
10
-1.99503997793928
20
-17.6441786252734
30
0
41
1
10
-1.99503997793928
20
-17.8228590748674
30
0
41
1
10
-1.99503997793928
20
-17.9975683374733
30
0
41
1
10
-1.99503997793928
20
-18.1686188521771
30
0
41
1
10
-1.99503997793928
20
-18.2949373683468
30
0
41
1
10
-1.99503997793928
20
-18.4193198181252
30
0
41
1
10
-1.99503997793928
20
-18.5826226298873
30
0
41
1
10
-1.99503997793928
20
-18.7418497326446
30
0
41
1
10
-1.99503997793928
20
-18.8972761707097
30
0
41
1
10
-1.99503997793928
20
-19.0118150097952
30
0
41
1
10
-1.99503997793928
20
-19.1243510467918
30
0
41
1
10
-1.99503997793928
20
-19.2717625055688
30
0
41
1
10
-1.99503997793928
20
-19.414970513124
30
0
41
1
10
-1.99503997793928
20
-19.5542140249085
30
0
41
1
10
-1.99503997793928
20
-19.6565420567613
30
0
41
1
10
-1.99503997793928
20
-19.7567881415466
30
0
41
1
10
-1.99503997793928
20
-19.8549381550126
30
0
41
1
10
-1.99503997793928
20
-19.9509751416388
30
0
41
1
10
-1.99503997793928
20
-20.0448848362119
30
0
41
1
10
-1.99503997793928
20
-20.1366515718167
30
0
41
1
10
-1.99503997793928
20
-20.2262576202058
30
0
41
1
10
-1.99503997793928
20
-20.3136874196731
30
0
41
1
10
-1.99503997793928
20
-20.398923430088
30
0
41
1
10
-1.99503997793928
20
-20.4819464863244
30
0
41
1
10
-1.99503997793928
20
-20.5627395868944
30
0
41
1
10
-1.99503997793928
20
-20.6412830627252
30
0
41
1
10
-1.99503997793928
20
-20.7430172190698
30
0
41
1
10
-1.99503997793928
20
-20.8400664428987
30
0
41
1
10
-1.99503997793928
20
-20.9325549572362
30
0
41
1
10
-1.99503997793928
20
-20.9995415068112
30
0
41
1
10
-1.99503997793928
20
-21.064149408511
30
0
41
1
10
-1.99503997793928
20
-21.1263556466612
30
0
41
1
10
-1.99503997793928
20
-21.1861355753666
30
0
41
1
10
-1.99503997793928
20
-21.262600218376
30
0
41
1
10
-1.99503997793928
20
-21.3340243512753
30
0
41
1
10
-1.99503997793928
20
-21.4004603045828
30
0
41
1
10
-1.99503997793928
20
-21.4477036445725
30
0
41
1
10
-1.99503997793928
20
-21.4923513092323
30
0
41
1
10
-1.99503997793928
20
-21.5484022410126
30
0
41
1
10
-1.99503997793928
20
-21.5990695510926
30
0
41
1
10
-1.99503997793928
20
-21.6443396610233
30
0
41
1
10
-1.99503997793928
20
-21.6755105092645
30
0
41
1
10
-1.99503997793928
20
-21.7038764495607
30
0
41
1
10
-1.99503997793928
20
-21.7293964429163
30
0
41
1
10
-1.99503997793928
20
-21.7520292420694
30
0
41
1
10
-1.99503997793928
20
-21.7717309018817
30
0
41
1
10
-1.99503997793928
20
-21.7884557380592
30
0
41
1
10
-1.99503997793928
20
-21.8021565310045
30
0
41
1
10
-1.99503997793928
20
-21.8127830851058
30
0
41
1
10
-1.99503997793928
20
-21.8202838734724
30
0
41
1
10
-1.99503997793928
20
-21.8245231252382
30
0
41
1
10
-1.99503997793926
20
-21.825283788333
30
0
41
1
10
-1.99503997793931
20
-21.8251640990912
30
0
0
SPLINE
5
B1
100
AcDbEntity
8
SK1
62
256
6
ByLayer
370
-1
48
1
60
0
100
AcDbSpline
70
4
71
3
72
111
73
107
40
0
40
0
40
0
40
0
40
0.0023113641065659
40
0.0108556429869823
40
0.0193999218673988
40
0.0279442007478152
40
0.0364884796282316
40
0.045032758508648
40
0.0535770373890644
40
0.0621213162694808
40
0.0706655951498972
40
0.0792098740303136
40
0.08775415291073
40
0.0962984317911464
40
0.113386989551979
40
0.130475547312812
40
0.147564105073645
40
0.156108383954061
40
0.164652662834478
40
0.173196941714894
40
0.18174122059531
40
0.190285499475727
40
0.198829778356143
40
0.20737405723656
40
0.215918336116976
40
0.233006893877809
40
0.241551172758225
40
0.250095451638642
40
0.258639730519058
40
0.267184009399475
40
0.275728288279891
40
0.284272567160307
40
0.292816846040724
40
0.30136112492114
40
0.309905403801557
40
0.318449682681973
40
0.326993961562389
40
0.335538240442806
40
0.352626798203639
40
0.361171077084055
40
0.369715355964471
40
0.386803913725304
40
0.395348192605721
40
0.403892471486137
40
0.412436750366553
40
0.42098102924697
40
0.438069587007803
40
0.446613865888219
40
0.455158144768635
40
0.463702423649052
40
0.472246702529468
40
0.489335260290301
40
0.497879539170717
40
0.506423818051134
40
0.51496809693155
40
0.523512375811967
40
0.540600933572799
40
0.549145212453216
40
0.557689491333632
40
0.566233770214049
40
0.574778049094465
40
0.591866606855298
40
0.600410885735714
40
0.608955164616131
40
0.617499443496547
40
0.626043722376964
40
0.643132280137796
40
0.651676559018213
40
0.660220837898629
40
0.668765116779045
40
0.677309395659462
40
0.685853674539878
40
0.694397953420295
40
0.702942232300711
40
0.711486511181127
40
0.720030790061544
40
0.72857506894196
40
0.737119347822377
40
0.745663626702793
40
0.75420790558321
40
0.762752184463626
40
0.779840742224459
40
0.788385021104875
40
0.796929299985292
40
0.805473578865708
40
0.814017857746124
40
0.822562136626541
40
0.831106415506957
40
0.84819497326779
40
0.856739252148207
40
0.865283531028623
40
0.873827809909039
40
0.882372088789456
40
0.899460646550289
40
0.908004925430705
40
0.916549204311121
40
0.925093483191538
40
0.933637762071954
40
0.94218204095237
40
0.950726319832787
40
0.959270598713203
40
0.96781487759362
40
0.976359156474036
40
0.984903435354452
40
0.993447714234869
40
1
40
1
40
1
40
1
41
1
10
-0.394976888875306
20
-6.32694279392979
30
0
41
1
10
-0.394976888875306
20
-6.34849163113913
30
0
41
1
10
-0.394976888875306
20
-6.44960775400915
30
0
41
1
10
-0.394976888875277
20
-6.62954555948869
30
0
41
1
10
-0.394976888875277
20
-6.8656950488801
30
0
41
1
10
-0.394976888875277
20
-7.10023740586411
30
0
41
1
10
-0.394976888875277
20
-7.33316546385933
30
0
41
1
10
-0.394976888875277
20
-7.56447269448574
30
0
41
1
10
-0.394976888875277
20
-7.79415340272945
30
0
41
1
10
-0.394976888875277
20
-8.02220293401996
30
0
41
1
10
-0.394976888875277
20
-8.24861635560848
30
0
41
1
10
-0.394976888875277
20
-8.47338951886385
30
0
41
1
10
-0.394976888875277
20
-8.69651811258549
30
0
41
1
10
-0.394976888875277
20
-8.99192948127941
30
0
41
1
10
-0.394976888875277
20
-9.35683912175983
30
0
41
1
10
-0.394976888875277
20
-9.78821091217483
30
0
41
1
10
-0.394976888875277
20
-10.142045462177
30
0
41
1
10
-0.394976888875277
20
-10.4219344727077
30
0
41
1
10
-0.394976888875277
20
-10.6301131683678
30
0
41
1
10
-0.394976888875277
20
-10.8366153667066
30
0
41
1
10
-0.394976888875277
20
-11.0414388905992
30
0
41
1
10
-0.394976888875277
20
-11.2445799004538
30
0
41
1
10
-0.394976888875277
20
-11.4460361162834
30
0
41
1
10
-0.394976888875277
20
-11.6458042976885
30
0
41
1
10
-0.394976888875277
20
-11.9099848253352
30
0
41
1
10
-0.394976888875277
20
-12.1705475695385
30
0
41
1
10
-0.394976888875277
20
-12.4279318067111
30
0
41
1
10
-0.394976888875277
20
-12.6192114874981
30
0
41
1
10
-0.394976888875277
20
-12.8087826250924
30
0
41
1
10
-0.394976888875277
20
-12.9966426041155
30
0
41
1
10
-0.394976888875277
20
-13.182787448996
30
0
41
1
10
-0.394976888875277
20
-13.3672125455487
30
0
41
1
10
-0.394976888875277
20
-13.5499151547097
30
0
41
1
10
-0.394976888875277
20
-13.7308904478326
30
0
41
1
10
-0.394976888875277
20
-13.910133867705
30
0
41
1
10
-0.394976888875277
20
-14.0876421688895
30
0
41
1
10
-0.394976888875277
20
-14.2634098807097
30
0
41
1
10
-0.394976888875277
20
-14.4955025482493
30
0
41
1
10
-0.394976888875277
20
-14.7239127068147
30
0
41
1
10
-0.394976888875277
20
-14.9489833053404
30
0
41
1
10
-0.394976888875277
20
-15.171701411915
30
0
41
1
10
-0.394976888875277
20
-15.3907043201103
30
0
41
1
10
-0.394976888875277
20
-15.6063159613101
30
0
41
1
10
-0.394976888875277
20
-15.7661946363952
30
0
41
1
10
-0.394976888875277
20
-15.9242799594928
30
0
41
1
10
-0.394976888875277
20
-16.1327154012234
30
0
41
1
10
-0.394976888875277
20
-16.3373780173449
30
0
41
1
10
-0.394976888875277
20
-16.5385587125243
30
0
41
1
10
-0.394976888875277
20
-16.6875782011067
30
0
41
1
10
-0.394976888875277
20
-16.8347642769002
30
0
41
1
10
-0.394976888875277
20
-17.0286080073569
30
0
41
1
10
-0.394976888875277
20
-17.2186059445175
30
0
41
1
10
-0.394976888875277
20
-17.4050188999402
30
0
41
1
10
-0.394976888875277
20
-17.5429190217058
30
0
41
1
10
-0.394976888875277
20
-17.6789377757623
30
0
41
1
10
-0.394976888875277
20
-17.8578220601067
30
0
41
1
10
-0.394976888875277
20
-18.0327708145484
30
0
41
1
10
-0.394976888875277
20
-18.2040166330947
30
0
41
1
10
-0.394976888875277
20
-18.3304892054167
30
0
41
1
10
-0.394976888875277
20
-18.4550234389153
30
0
41
1
10
-0.394976888875277
20
-18.6185132745736
30
0
41
1
10
-0.394976888875277
20
-18.7779598884918
30
0
41
1
10
-0.394976888875277
20
-18.933565131357
30
0
41
1
10
-0.394976888875277
20
-19.048244884465
30
0
41
1
10
-0.394976888875277
20
-19.1609196079758
30
0
41
1
10
-0.394976888875277
20
-19.3085018143331
30
0
41
1
10
-0.394976888875277
20
-19.4519098709686
30
0
41
1
10
-0.394976888875277
20
-19.5913159811741
30
0
41
1
10
-0.394976888875277
20
-19.6937719762305
30
0
41
1
10
-0.394976888875277
20
-19.7941438028822
30
0
41
1
10
-0.394976888875277
20
-19.8924174211231
30
0
41
1
10
-0.394976888875277
20
-19.988575861591
30
0
41
1
10
-0.394976888875277
20
-20.082604778142
30
0
41
1
10
-0.394976888875277
20
-20.1744885559187
30
0
41
1
10
-0.394976888875277
20
-20.264209431984
30
0
41
1
10
-0.394976888875277
20
-20.3517517880635
30
0
41
1
10
-0.394976888875277
20
-20.437098129367
30
0
41
1
10
-0.394976888875277
20
-20.5202292348052
30
0
41
1
10
-0.394976888875277
20
-20.6011280559991
30
0
41
1
10
-0.394976888875277
20
-20.6797749513881
30
0
41
1
10
-0.394976888875277
20
-20.781635486227
30
0
41
1
10
-0.394976888875277
20
-20.8788308931333
30
0
41
1
10
-0.394976888875277
20
-20.9714365096391
30
0
41
1
10
-0.394976888875277
20
-21.0385142950144
30
0
41
1
10
-0.394976888875277
20
-21.1032108820957
30
0
41
1
10
-0.394976888875277
20
-21.1655031751743
30
0
41
1
10
-0.394976888875277
20
-21.2253665102307
30
0
41
1
10
-0.394976888875277
20
-21.301932078811
30
0
41
1
10
-0.394976888875277
20
-21.3734709318986
30
0
41
1
10
-0.394976888875277
20
-21.4399968999807
30
0
41
1
10
-0.394976888875277
20
-21.4873093096751
30
0
41
1
10
-0.394976888875277
20
-21.5320229383892
30
0
41
1
10
-0.394976888875277
20
-21.5881524005931
30
0
41
1
10
-0.394976888875277
20
-21.6389063892513
30
0
41
1
10
-0.394976888875277
20
-21.6842420425293
30
0
41
1
10
-0.394976888875277
20
-21.7154617242468
30
0
41
1
10
-0.394976888875277
20
-21.7438726893518
30
0
41
1
10
-0.394976888875277
20
-21.7694337460976
30
0
41
1
10
-0.394976888875277
20
-21.7921034780961
30
0
41
1
10
-0.394976888875277
20
-21.8118377637545
30
0
41
1
10
-0.394976888875277
20
-21.8285907189997
30
0
41
1
10
-0.394976888875277
20
-21.8423149132633
30
0
41
1
10
-0.394976888875277
20
-21.8529599173647
30
0
41
1
10
-0.394976888875277
20
-21.8604739519412
30
0
41
1
10
-0.394976888875277
20
-21.8644655223144
30
0
41
1
10
-0.394976888875306
20
-21.8653271932633
30
0
41
1
10
-0.394976888875306
20
-21.8653787944038
30
0
0
SPLINE
5
B2
100
AcDbEntity
8
SK1
62
256
6
ByLayer
370
-1
48
1
60
0
100
AcDbSpline
70
4
71
3
72
26
73
22
40
0
40
0
40
0
40
0
40
0.249999999999999
40
0.249999999999999
40
0.499999999999998
40
0.499999999999998
40
0.624999999999998
40
0.624999999999998
40
0.687499999999998
40
0.687499999999998
40
0.749999999999998
40
0.749999999999998
40
0.812499999999998
40
0.812499999999998
40
0.874999999999998
40
0.874999999999998
40
0.906249999999999
40
0.906249999999999
40
0.937499999999999
40
0.937499999999999
40
1
40
1
40
1
40
1
41
1
10
-1.30710678118655
20
4.81101329740287
30
0
41
1
10
-1.27777674809059
20
4.97696208805698
30
0
41
1
10
-1.24449184372196
20
5.14110933888279
30
0
41
1
10
-1.16572403812253
20
5.46520409815369
30
0
41
1
10
-1.12041986952278
20
5.6256050965446
30
0
41
1
10
-1.03604034231174
20
5.8587126805154
30
0
41
1
10
-1.00514324915739
20
5.93523451486294
30
0
41
1
10
-0.951595196519435
20
6.0472637337192
30
0
41
1
10
-0.932528346394264
20
6.08414226541933
30
0
41
1
10
-0.890792591052104
20
6.15658914480932
30
0
41
1
10
-0.868002365536483
20
6.19240090738293
30
0
41
1
10
-0.817160575688774
20
6.26079505981488
30
0
41
1
10
-0.78943316382157
20
6.29319778625765
30
0
41
1
10
-0.724969179207136
20
6.35113158829577
30
0
41
1
10
-0.687361729542516
20
6.37733024517155
30
0
41
1
10
-0.622158748110508
20
6.39958064489755
30
0
41
1
10
-0.599752058367812
20
6.40383193253038
30
0
41
1
10
-0.553302263737379
20
6.40463597982006
30
0
41
1
10
-0.530550758266997
20
6.40110290558124
30
0
41
1
10
-0.464963827939329
20
6.38073633145271
30
0
41
1
10
-0.427743955231961
20
6.35579794481995
30
0
41
1
10
-0.394976888874737
20
6.32694309068151
30
0
0
SPLINE
5
B3
100
AcDbEntity
8
SK1
62
256
6
ByLayer
370
-1
48
1
60
0
100
AcDbSpline
70
4
71
3
72
26
73
22
40
0
40
0
40
0
40
0
40
0.125
40
0.125
40
0.25
40
0.25
40
0.3125
40
0.3125
40
0.374999999999999
40
0.374999999999999
40
0.499999999999999
40
0.499999999999999
40
0.624999999999999
40
0.624999999999999
40
0.687499999999999
40
0.687499999999999
40
0.749999999999999
40
0.749999999999999
40
0.875
40
0.875
40
1
40
1
40
1
40
1
41
1
10
-1.30710678118655
20
4.81101329740287
30
0
41
1
10
-1.37461329628553
20
4.42906267002712
30
0
41
1
10
-1.43842288357251
20
4.04270825974379
30
0
41
1
10
-1.55482767545837
20
3.25964078646072
30
0
41
1
10
-1.60743482920452
20
2.86293463703905
30
0
41
1
10
-1.67407835953028
20
2.25842147165613
30
0
41
1
10
-1.6942347086227
20
2.05533443764031
30
0
41
1
10
-1.72965556309049
20
1.64563836285319
30
0
41
1
10
-1.74484710329557
20
1.43963199934166
30
0
41
1
10
-1.78162975563035
20
0.82275752324307
30
0
41
1
10
-1.79445291889314
20
0.41120781605369
30
0
41
1
10
-1.79442593338331
20
-0.412525631247973
30
0
41
1
10
-1.78157312882851
20
-0.824709416072182
30
0
41
1
10
-1.74458984279462
20
-1.44343920897936
30
0
41
1
10
-1.72930597743911
20
-1.65005948504415
30
0
41
1
10
-1.69390777409217
20
-2.05873054114889
30
0
41
1
10
-1.67377216548036
20
-2.26136839295083
30
0
41
1
10
-1.60720273884684
20
-2.86469699044164
30
0
41
1
10
-1.55465955887382
20
-3.26082920006922
30
0
41
1
10
-1.4383598816452
20
-4.04307426593766
30
0
41
1
10
-1.37459233181624
20
-4.42918087958253
30
0
41
1
10
-1.30710678118663
20
-4.81101321788435
30
0
0
SPLINE
5
B4
100
AcDbEntity
8
SK1
62
256
6
ByLayer
370
-1
48
1
60
0
100
AcDbSpline
70
4
71
3
72
26
73
22
40
0
40
0
40
0
40
0
40
0.250000000000002
40
0.250000000000002
40
0.500000000000005
40
0.500000000000005
40
0.625000000000004
40
0.625000000000004
40
0.750000000000004
40
0.750000000000004
40
0.812500000000003
40
0.812500000000003
40
0.875000000000002
40
0.875000000000002
40
0.906250000000001
40
0.906250000000001
40
0.937500000000001
40
0.937500000000001
40
0.96875
40
0.96875
40
1
40
1
40
1
40
1
41
1
10
-0.199999999999989
20
-7.05951749341972
30
0
41
1
10
-0.199999999999989
20
-6.99088366826933
30
0
41
1
10
-0.201319609066871
20
-6.92203745652935
30
0
41
1
10
-0.207680242986783
20
-6.78384770613701
30
0
41
1
10
-0.212644818423371
20
-6.71441370073686
30
0
41
1
10
-0.225032362287834
20
-6.61010153250655
30
0
41
1
10
-0.229988536109005
20
-6.57535167439386
30
0
41
1
10
-0.242605757740478
20
-6.50597096289727
30
0
41
1
10
-0.250188173910828
20
-6.47131022304998
30
0
41
1
10
-0.26553436786179
20
-6.42038445843173
30
0
41
1
10
-0.271315983615835
20
-6.40356588205802
30
0
41
1
10
-0.285411407521479
20
-6.37054221190871
30
0
41
1
10
-0.293612475506364
20
-6.35425158209904
30
0
41
1
10
-0.310070058833048
20
-6.33235891704214
30
0
41
1
10
-0.316188975330107
20
-6.32559855176618
30
0
41
1
10
-0.33072812925306
20
-6.31447788013509
30
0
41
1
10
-0.339136190980383
20
-6.31039609843526
30
0
41
1
10
-0.356576769858577
20
-6.30785340244555
30
0
41
1
10
-0.365590532907504
20
-6.30947164062374
30
0
41
1
10
-0.381451989855151
20
-6.31627189389675
30
0
41
1
10
-0.388510166361129
20
-6.32124816508073
30
0
41
1
10
-0.394976888875306
20
-6.32694279392757
30
0
0
SPLINE
5
B5
100
AcDbEntity
8
SK1
62
256
6
ByLayer
370
-1
48
1
60
0
100
AcDbSpline
70
4
71
2
72
6
73
3
40
0
40
0
40
0
40
1
40
1
40
1
41
1
10
-36.5
20
21.155302724897
30
0
41
1
10
-37.2500000000012
20
20.7223538609616
30
0
41
1
10
-38
20
20.2894050057151
30
0
0
SPLINE
5
B6
100
AcDbEntity
8
SK1
62
256
6
ByLayer
370
-1
48
1
60
0
100
AcDbSpline
70
4
71
2
72
6
73
3
40
0
40
0
40
0
40
1
40
1
40
1
41
1
10
-0.394976888875277
20
21.8653802062992
30
0
41
1
10
-1.19500843340728
20
21.8452807593862
30
0
41
1
10
-1.99503997793928
20
21.8251813124779
30
0
0
SPLINE
5
B7
100
AcDbEntity
8
SK1
62
256
6
ByLayer
370
-1
48
1
60
0
100
AcDbSpline
70
4
71
2
72
6
73
3
40
0
40
0
40
0
40
1
40
1
40
1
41
1
10
-1.99503997793928
20
-21.8251812553753
30
0
41
1
10
-1.19500843340728
20
-21.8452807024746
30
0
41
1
10
-0.394976888875277
20
-21.8653801495793
30
0
0
SPLINE
5
B8
100
AcDbEntity
8
SK1
62
256
6
ByLayer
370
-1
48
1
60
0
100
AcDbSpline
70
4
71
3
72
13
73
9
40
0
40
0
40
0
40
0
40
0.239456135763258
40
0.368359721933244
40
0.499998984020795
40
0.631638415283499
40
0.760542467778018
40
1
40
1
40
1
40
1
41
1
10
-2.19999999999999
20
-22.0200986606755
30
0
41
1
10
-2.19909198642273
20
-21.9940411845603
30
0
41
1
10
-2.19103284106944
20
-21.9566686002239
30
0
41
1
10
-2.16563592203343
20
-21.9104494263859
30
0
41
1
10
-2.13886378679268
20
-21.8791678725254
30
0
41
1
10
-2.10627712749874
20
-21.854000502323
30
0
41
1
10
-2.05884064234081
20
-21.8309566998545
30
0
41
1
10
-2.02111030873027
20
-21.8247844448325
30
0
41
1
10
-1.99503997793928
20
-21.825186084775
30
0
0
SPLINE
5
B9
100
AcDbEntity
8
SK1
62
256
6
ByLayer
370
-1
48
1
60
0
100
AcDbSpline
70
4
71
2
72
6
73
3
40
0
40
0
40
0
40
1
40
1
40
1
41
1
10
-38
20
-20.289405225553
30
0
41
1
10
-37.2500000000012
20
-20.7223540793631
30
0
41
1
10
-36.5
20
-21.1553029418638
30
0
0
SPLINE
5
BA
100
AcDbEntity
8
SK1
62
256
6
ByLayer
370
-1
48
1
60
0
100
AcDbSpline
70
4
71
3
72
13
73
9
40
0
40
0
40
0
40
0
40
0.239457532153146
40
0.368361584623418
40
0.500001015876476
40
0.631640277971614
40
0.760543864164736
40
1
40
1
40
1
40
1
41
1
10
-1.99503997793928
20
21.8251861015554
30
0
41
1
10
-2.02111030873166
20
21.8247844616134
30
0
41
1
10
-2.05884064234348
20
21.8309567166392
30
0
41
1
10
-2.10627712750085
20
21.854000519123
30
0
41
1
10
-2.13886378679464
20
21.8791678893422
30
0
41
1
10
-2.16563592203494
20
21.9104494432232
30
0
41
1
10
-2.19103284107058
20
21.956668617092
30
0
41
1
10
-2.19909198642387
20
21.994041201451
30
0
41
1
10
-2.19999999999999
20
22.0200986775813
30
0
0
SPLINE
5
BB
100
AcDbEntity
8
SK1
62
256
6
ByLayer
370
-1
48
1
60
0
100
AcDbSpline
70
4
71
2
72
6
73
3
40
0
40
0
40
0
40
1
40
1
40
1
41
1
10
-36.5
20
-21.1521177089669
30
0
41
1
10
-19.3499999999701
20
-21.5828554470541
30
0
41
1
10
-2.19999999999999
20
-22.0135928951589
30
0
0
SPLINE
5
BC
100
AcDbEntity
8
SK1
62
256
6
ByLayer
370
-1
48
1
60
0
100
AcDbSpline
70
4
71
2
72
6
73
3
40
0
40
0
40
0
40
1
40
1
40
1
41
1
10
-2.19999999999999
20
22.0135927638551
30
0
41
1
10
-19.3499999999869
20
21.5828539542124
30
0
41
1
10
-36.5
20
21.1521149580209
30
0
0
SPLINE
5
BD
100
AcDbEntity
8
SK1
62
256
6
ByLayer
370
-1
48
1
60
0
100
AcDbSpline
70
4
71
2
72
6
73
3
40
0
40
0
40
0
40
1
40
1
40
1
41
1
10
-0.394976888875277
20
-21.8653849865467
30
0
41
1
10
-0.26517299061581
20
-21.8689012906766
30
0
41
1
10
-0.240502439653312
20
-21.9465691723788
30
0
0
SPLINE
5
BE
100
AcDbEntity
8
SK1
62
256
6
ByLayer
370
-1
48
1
60
0
100
AcDbSpline
70
4
71
2
72
6
73
3
40
0
40
0
40
0
40
1
40
1
40
1
41
1
10
-0.239684768755808
20
21.9481214799356
30
0
41
1
10
-0.264174311740419
20
21.8692639605625
30
0
41
1
10
-0.394976888875306
20
21.865385003355
30
0
0
LINE
5
48
100
AcDbEntity
8
SK3
62
256
6
ByLayer
370
-1
48
0.05
60
0
100
AcDbLine
10
107
20
6
30
0
11
62.5
21
6
31
0
39
0
210
0
220
0
230
1
0
LINE
5
4A
100
AcDbEntity
8
SK3
62
256
6
ByLayer
370
-1
48
0.05
60
0
100
AcDbLine
10
61
20
4.5
30
0
11
61
21
-4.5
31
0
39
0
210
0
220
0
230
1
0
LINE
5
4B
100
AcDbEntity
8
4
62
256
6
ByLayer
370
-1
48
0.05
60
0
100
AcDbLine
10
107
20
0
30
0
11
0
21
0
31
0
39
0
210
0
220
0
230
1
0
LINE
5
4D
100
AcDbEntity
8
80
62
256
6
ByLayer
370
-1
48
1
60
0
100
AcDbLine
10
0
20
0
30
0
11
-10.875929
21
0
31
0
39
0
210
0
220
0
230
1
0
LINE
5
4E
100
AcDbEntity
8
SK3
62
256
6
ByLayer
370
-1
48
0.05
60
0
100
AcDbLine
10
62.5
20
-6
30
0
11
107
21
-6
31
0
39
0
210
0
220
0
230
1
0
LINE
5
4F
100
AcDbEntity
8
SK3
62
256
6
ByLayer
370
-1
48
0.05
60
0
100
AcDbLine
10
62.5
20
6
30
0
11
61
21
4.5
31
0
39
0
210
0
220
0
230
1
0
LINE
5
50
100
AcDbEntity
8
SK3
62
256
6
ByLayer
370
-1
48
0.05
60
0
100
AcDbLine
10
61
20
-4.5
30
0
11
62.5
21
-6
31
0
39
0
210
0
220
0
230
1
0
LINE
5
51
100
AcDbEntity
8
SK3
62
256
6
ByLayer
370
-1
48
0.05
60
0
100
AcDbLine
10
62.5
20
-6
30
0
11
62.5
21
6
31
0
39
0
210
0
220
0
230
1
0
LINE
5
52
100
AcDbEntity
8
81
62
256
6
ByLayer
370
-1
48
1
60
0
100
AcDbLine
10
107
20
0
30
0
11
111.742527
21
0
31
0
39
0
210
0
220
0
230
1
0
LINE
5
53
100
AcDbEntity
8
SK4
62
256
6
ByLayer
370
-1
48
0.05
60
0
100
AcDbLine
10
-48
20
0
30
0
11
117
21
0
31
0
39
0
210
0
220
0
230
1
0
LINE
5
55
100
AcDbEntity
8
1
62
256
6
ByLayer
370
-1
48
1
60
0
100
AcDbLine
10
107
20
-9.969571
30
0
11
107
21
9.969571
31
0
39
0
210
0
220
0
230
1
0
LINE
5
57
100
AcDbEntity
8
1
62
256
6
ByLayer
370
-1
48
1
60
0
100
AcDbLine
10
13.461325
20
-9.360622
30
0
11
10.538675
21
-9.360622
31
0
39
0
210
0
220
0
230
1
0
LINE
5
58
100
AcDbEntity
8
1
62
256
6
ByLayer
370
-1
48
1
60
0
100
AcDbLine
10
13.894338
20
-29.902163
30
0
11
13.894338
21
-9.881204
31
0
39
0
210
0
220
0
230
1
0
LINE
5
59
100
AcDbEntity
8
1
62
256
6
ByLayer
370
-1
48
1
60
0
100
AcDbLine
10
13.461325
20
9.360622
30
0
11
13.461325
21
30.069192
31
0
39
0
210
0
220
0
230
1
0
LINE
5
5A
100
AcDbEntity
8
1
62
256
6
ByLayer
370
-1
48
1
60
0
100
AcDbLine
10
10.538675
20
-30.069192
30
0
11
13.461325
21
-30.069192
31
0
39
0
210
0
220
0
230
1
0
LINE
5
5B
100
AcDbEntity
8
1
62
256
6
ByLayer
370
-1
48
1
60
0
100
AcDbLine
10
105.2
20
-11
30
0
11
105.2
21
11
31
0
39
0
210
0
220
0
230
1
0
LINE
5
5C
100
AcDbEntity
8
1
62
256
6
ByLayer
370
-1
48
1
60
0
100
AcDbLine
10
0
20
-31.1925
30
0
11
0
21
31.1925
31
0
39
0
210
0
220
0
230
1
0
LINE
5
5D
100
AcDbEntity
8
1
62
256
6
ByLayer
370
-1
48
1
60
0
100
AcDbLine
10
13.894338
20
9.881204
30
0
11
13.894338
21
29.902163
31
0
39
0
210
0
220
0
230
1
0
LINE
5
5E
100
AcDbEntity
8
1
62
256
6
ByLayer
370
-1
48
1
60
0
100
AcDbLine
10
26.931174
20
-20
30
0
11
26.931174
21
0
31
0
39
0
210
0
220
0
230
1
0
LINE
5
5F
100
AcDbEntity
8
1
62
256
6
ByLayer
370
-1
48
1
60
0
100
AcDbLine
10
26.931174
20
0
30
0
11
26.931174
21
20
31
0
39
0
210
0
220
0
230
1
0
LINE
5
60
100
AcDbEntity
8
1
62
256
6
ByLayer
370
-1
48
1
60
0
100
AcDbLine
10
24.512232
20
-21.86856
30
0
11
24.512232
21
21.86856
31
0
39
0
210
0
220
0
230
1
0
LINE
5
61
100
AcDbEntity
8
1
62
256
6
ByLayer
370
-1
48
1
60
0
100
AcDbLine
10
40.558765
20
19.173648
30
0
11
40.558765
21
-19.173648
31
0
39
0
210
0
220
0
230
1
0
LINE
5
62
100
AcDbEntity
8
1
62
256
6
ByLayer
370
-1
48
1
60
0
100
AcDbLine
10
10.538675
20
-30.069192
30
0
11
10.538675
21
-9.360622
31
0
39
0
210
0
220
0
230
1
0
LINE
5
63
100
AcDbEntity
8
1
62
256
6
ByLayer
370
-1
48
1
60
0
100
AcDbLine
10
46.195498
20
-11
30
0
11
46.195498
21
0
31
0
39
0
210
0
220
0
230
1
0
LINE
5
64
100
AcDbEntity
8
1
62
256
6
ByLayer
370
-1
48
1
60
0
100
AcDbLine
10
46.195498
20
0
30
0
11
46.195498
21
11
31
0
39
0
210
0
220
0
230
1
0
LINE
5
65
100
AcDbEntity
8
1
62
256
6
ByLayer
370
-1
48
1
60
0
100
AcDbLine
10
22.195107
20
0
30
0
11
22.195107
21
-30.745076
31
0
39
0
210
0
220
0
230
1
0
LINE
5
66
100
AcDbEntity
8
1
62
256
6
ByLayer
370
-1
48
1
60
0
100
AcDbLine
10
22.195107
20
30.745076
30
0
11
22.195107
21
0
31
0
39
0
210
0
220
0
230
1
0
LINE
5
67
100
AcDbEntity
8
1
62
256
6
ByLayer
370
-1
48
1
60
0
100
AcDbLine
10
21.22753
20
31.4925
30
0
11
21.22753
21
-31.4925
31
0
39
0
210
0
220
0
230
1
0
LINE
5
68
100
AcDbEntity
8
1
62
256
6
ByLayer
370
-1
48
1
60
0
100
AcDbLine
10
10.105662
20
9.881204
30
0
11
10.105662
21
29.902163
31
0
39
0
210
0
220
0
230
1
0
LINE
5
69
100
AcDbEntity
8
1
62
256
6
ByLayer
370
-1
48
1
60
0
100
AcDbLine
10
106.366329
20
-10.752089
30
0
11
106.366329
21
10.752089
31
0
39
0
210
0
220
0
230
1
0
LINE
5
6A
100
AcDbEntity
8
1
62
256
6
ByLayer
370
-1
48
1
60
0
100
AcDbLine
10
10.538675
20
9.360622
30
0
11
10.538675
21
30.069192
31
0
39
0
210
0
220
0
230
1
0
LINE
5
6B
100
AcDbEntity
8
1
62
256
6
ByLayer
370
-1
48
1
60
0
100
AcDbLine
10
13.461325
20
-30.069192
30
0
11
13.461325
21
-9.360622
31
0
39
0
210
0
220
0
230
1
0
LINE
5
6C
100
AcDbEntity
8
1
62
256
6
ByLayer
370
-1
48
1
60
0
100
AcDbLine
10
0.3
20
-31.4925
30
0
11
0.3
21
31.4925
31
0
39
0
210
0
220
0
230
1
0
LINE
5
6D
100
AcDbEntity
8
1
62
256
6
ByLayer
370
-1
48
1
60
0
100
AcDbLine
10
41.271459
20
-15.131759
30
0
11
41.271459
21
15.131759
31
0
39
0
210
0
220
0
230
1
0
LINE
5
6E
100
AcDbEntity
8
1
62
256
6
ByLayer
370
-1
48
1
60
0
100
AcDbLine
10
10.538675
20
9.360622
30
0
11
13.461325
21
9.360622
31
0
39
0
210
0
220
0
230
1
0
LINE
5
6F
100
AcDbEntity
8
1
62
256
6
ByLayer
370
-1
48
1
60
0
100
AcDbLine
10
10.105662
20
-29.902163
30
0
11
10.105662
21
-9.881204
31
0
39
0
210
0
220
0
230
1
0
LINE
5
70
100
AcDbEntity
8
1
62
256
6
ByLayer
370
-1
48
1
60
0
100
AcDbLine
10
13.461325
20
30.069192
30
0
11
10.538675
21
30.069192
31
0
39
0
210
0
220
0
230
1
0
LINE
5
71
100
AcDbEntity
8
1
62
256
6
ByLayer
370
-1
48
1
60
0
100
AcDbLine
10
39.573958
20
20
30
0
11
39.573958
21
-20
31
0
39
0
210
0
220
0
230
1
0
LINE
5
72
100
AcDbEntity
8
SK1
62
256
6
ByLayer
370
-1
48
1
60
0
100
AcDbLine
10
-0.394977
20
21.864274
30
0
11
-0.394977
21
21.865379
31
0
39
0
210
0
220
0
230
1
0
LINE
5
74
100
AcDbEntity
8
SK1
62
256
6
ByLayer
370
-1
48
1
60
0
100
AcDbLine
10
-1.307107
20
-4.811013
30
0
11
-1.307107
21
4.811013
31
0
39
0
210
0
220
0
230
1
0
LINE
5
75
100
AcDbEntity
8
SK1
62
256
6
ByLayer
370
-1
48
1
60
0
100
AcDbLine
10
-0.2
20
-22.533485
30
0
11
-0.2
21
-7.059517
31
0
39
0
210
0
220
0
230
1
0
LINE
5
76
100
AcDbEntity
8
SK1
62
256
6
ByLayer
370
-1
48
1
60
0
100
AcDbLine
10
-0.2
20
7.059518
30
0
11
-0.2
21
22.533485
31
0
39
0
210
0
220
0
230
1
0
LINE
5
77
100
AcDbEntity
8
SK1
62
256
6
ByLayer
370
-1
48
1
60
0
100
AcDbLine
10
-0.394977
20
-21.865379
30
0
11
-0.394977
21
-21.864274
31
0
39
0
210
0
220
0
230
1
0
LINE
5
78
100
AcDbEntity
8
1
62
256
6
ByLayer
370
-1
48
1
60
0
100
AcDbLine
10
37.08
20
-22
30
0
11
28.92
21
-22
31
0
39
0
210
0
220
0
230
1
0
LINE
5
79
100
AcDbEntity
8
1
62
256
6
ByLayer
370
-1
48
1
60
0
100
AcDbLine
10
38
20
-21.08
30
0
11
28
21
-21.08
31
0
39
0
210
0
220
0
230
1
0
LINE
5
7A
100
AcDbEntity
8
1
62
256
6
ByLayer
370
-1
48
1
60
0
100
AcDbLine
10
0.3
20
-31.4925
30
0
11
21.22753
21
-31.4925
31
0
39
0
210
0
220
0
230
1
0
LINE
5
7B
100
AcDbEntity
8
1
62
256
6
ByLayer
370
-1
48
1
60
0
100
AcDbLine
10
21.22753
20
31.4925
30
0
11
0.3
21
31.4925
31
0
39
0
210
0
220
0
230
1
0
LINE
5
7C
100
AcDbEntity
8
1
62
256
6
ByLayer
370
-1
48
1
60
0
100
AcDbLine
10
0.3
20
31.4925
30
0
11
0
21
31.1925
31
0
39
0
210
0
220
0
230
1
0
LINE
5
7D
100
AcDbEntity
8
1
62
256
6
ByLayer
370
-1
48
1
60
0
100
AcDbLine
10
0
20
-31.1925
30
0
11
0.3
21
-31.4925
31
0
39
0
210
0
220
0
230
1
0
LINE
5
7E
100
AcDbEntity
8
1
62
256
6
ByLayer
370
-1
48
1
60
0
100
AcDbLine
10
22.195107
20
-30.745076
30
0
11
24.512232
21
-21.86856
31
0
39
0
210
0
220
0
230
1
0
LINE
5
7F
100
AcDbEntity
8
1
62
256
6
ByLayer
370
-1
48
1
60
0
100
AcDbLine
10
24.512232
20
21.86856
30
0
11
22.195107
21
30.745076
31
0
39
0
210
0
220
0
230
1
0
LINE
5
80
100
AcDbEntity
8
1
62
256
6
ByLayer
370
-1
48
1
60
0
100
AcDbLine
10
26.931174
20
-20
30
0
11
28.000082
21
-20
31
0
39
0
210
0
220
0
230
1
0
LINE
5
81
100
AcDbEntity
8
1
62
256
6
ByLayer
370
-1
48
1
60
0
100
AcDbLine
10
37.999931
20
-20
30
0
11
39.573958
21
-20
31
0
39
0
210
0
220
0
230
1
0
LINE
5
82
100
AcDbEntity
8
1
62
256
6
ByLayer
370
-1
48
1
60
0
100
AcDbLine
10
39.573958
20
20
30
0
11
26.931174
21
20
31
0
39
0
210
0
220
0
230
1
0
LINE
5
83
100
AcDbEntity
8
1
62
256
6
ByLayer
370
-1
48
1
60
0
100
AcDbLine
10
40.558765
20
-19.173648
30
0
11
41.271459
21
-15.131759
31
0
39
0
210
0
220
0
230
1
0
LINE
5
84
100
AcDbEntity
8
1
62
256
6
ByLayer
370
-1
48
1
60
0
100
AcDbLine
10
41.271459
20
15.131759
30
0
11
40.558765
21
19.173648
31
0
39
0
210
0
220
0
230
1
0
LINE
5
85
100
AcDbEntity
8
1
62
256
6
ByLayer
370
-1
48
1
60
0
100
AcDbLine
10
46.195498
20
-11
30
0
11
105.2
21
-11
31
0
39
0
210
0
220
0
230
1
0
LINE
5
86
100
AcDbEntity
8
1
62
256
6
ByLayer
370
-1
48
1
60
0
100
AcDbLine
10
105.2
20
11
30
0
11
46.195498
21
11
31
0
39
0
210
0
220
0
230
1
0
LINE
5
87
100
AcDbEntity
8
1
62
256
6
ByLayer
370
-1
48
1
60
0
100
AcDbLine
10
105.2
20
-11
30
0
11
106.366329
21
-10.752089
31
0
39
0
210
0
220
0
230
1
0
LINE
5
88
100
AcDbEntity
8
1
62
256
6
ByLayer
370
-1
48
1
60
0
100
AcDbLine
10
106.366329
20
10.752089
30
0
11
105.2
21
11
31
0
39
0
210
0
220
0
230
1
0
LINE
5
89
100
AcDbEntity
8
1
62
256
6
ByLayer
370
-1
48
1
60
0
100
AcDbLine
10
38
20
-21.08
30
0
11
38
21
-18.075525
31
0
39
0
210
0
220
0
230
1
0
LINE
5
8A
100
AcDbEntity
8
1
62
256
6
ByLayer
370
-1
48
1
60
0
100
AcDbLine
10
28
20
-18.080567
30
0
11
28
21
-21.08
31
0
39
0
210
0
220
0
230
1
0
LINE
5
8B
100
AcDbEntity
8
1
62
256
6
ByLayer
370
-1
48
1
60
0
100
AcDbLine
10
28
20
-21.08
30
0
11
28.92
21
-22
31
0
39
0
210
0
220
0
230
1
0
LINE
5
8C
100
AcDbEntity
8
1
62
256
6
ByLayer
370
-1
48
1
60
0
100
AcDbLine
10
37.08
20
-22
30
0
11
38
21
-21.08
31
0
39
0
210
0
220
0
230
1
0
LINE
5
8D
100
AcDbEntity
8
1
62
256
6
ByLayer
370
-1
48
1
60
0
100
AcDbLine
10
28.92
20
-22
30
0
11
28.92
21
-18.0805
31
0
39
0
210
0
220
0
230
1
0
LINE
5
8E
100
AcDbEntity
8
1
62
256
6
ByLayer
370
-1
48
1
60
0
100
AcDbLine
10
37.08
20
-22
30
0
11
37.08
21
-18.075438
31
0
39
0
210
0
220
0
230
1
0
MTEXT
5
BF
100
AcDbEntity
8
SK6
62
256
6
ByLayer
370
-1
48
1
60
0
100
AcDbMText
10
-42.138158
20
38.8675
30
0
210
0
220
0
230
1
1
\W01.000;\fsimplex.shx,bigfont.shx;  
40
3.5
41
0
44
1.084337
50
0
71
7
72
5
7
DEFAULT
0
MTEXT
5
E5
100
AcDbEntity
8
SK6
62
256
6
ByLayer
370
-1
48
1
60
0
100
AcDbMText
10
-42.138158
20
38.8675
30
0
210
0
220
0
230
1
1
\W01.000;\fsimplex.shx,bigfont.shx;  
40
3.5
41
0
44
1.084337
50
0
71
7
72
5
7
DEFAULT
0
MTEXT
5
E6
100
AcDbEntity
8
SK6
62
256
6
ByLayer
370
-1
48
1
60
0
100
AcDbMText
10
-2.125
20
-45.8675
30
0
210
0
220
0
230
1
1
\W00.670;\fsimplex.shx,bigfont.shx;930-C6-P-12-107 
40
3.5
41
0
44
1.084337
50
0
71
7
72
5
7
DEFAULT
0
DIMENSION
5
F1
100
AcDbEntity
8
SK2
62
256
6
ByLayer
370
-3
48
1
60
0
100
AcDbDimension
2
DimnDraft3D1
10
-68.1
20
31.4925
30
0
11
-69.475
21
1.871053
31
0
70
33
71
5
72
1
41
1
210
0
220
0
230
1
3
Standard
100
AcDbAlignedDimension
13
-1.5875
23
-31.4925
33
0
14
-1.5875
24
31.4925
34
0
1001
ACAD
1000
DSTYLE
1002
{
1070
   279
1070
     0
1070
    74
1070
     0
1070
   173
1070
     1
1070
   340
1005
C0
1070
   271
1070
     0
1070
   272
1070
     2
1070
    77
1070
     1
1070
    73
1070
     0
1070
   171
1070
     3
1070
   274
1070
     4
1070
   177
1070
     2
1070
   176
1070
     2
1070
   178
1070
     2
1070
    78
1070
     8
1070
    48
1040
-0.005
1070
    41
1041
4.5
1070
   147
1041
2.25
1070
    42
1041
1.5875
1070
    44
1041
2.0
1070
   140
1041
4.5
1070
   343
1005
0
1070
   344
1005
0
1002
}
0
DIMENSION
5
FB
100
AcDbEntity
8
SK2
62
256
6
ByLayer
370
-3
48
1
60
0
100
AcDbDimension
2
DimnDraft3D2
10
107
20
59.5925
30
0
11
63.371053
21
59.5925
31
0
70
32
71
5
72
1
41
1
210
0
220
0
230
1
3
Standard
100
AcDbAlignedDimension
13
25
23
21.5875
33
0
14
107
24
7.5875
34
0
50
0
100
AcDbRotatedDimension
1001
ACAD
1000
DSTYLE
1002
{
1070
   279
1070
     0
1070
   172
1070
     1
1070
   173
1070
     1
1070
   340
1005
C0
1070
   271
1070
     1
1070
   272
1070
     2
1070
    77
1070
     1
1070
    73
1070
     0
1070
   171
1070
     3
1070
   274
1070
     4
1070
   177
1070
     2
1070
   176
1070
     2
1070
   178
1070
     2
1070
    78
1070
     8
1070
    48
1040
-0.005
1070
    41
1041
4.5
1070
   147
1041
2.25
1070
    42
1041
1.5875
1070
    44
1041
2.0
1070
   140
1041
4.5
1070
   343
1005
0
1070
   344
1005
0
1002
}
0
DIMENSION
5
106
100
AcDbEntity
8
2
62
256
6
ByLayer
370
-3
48
1
60
0
100
AcDbDimension
2
DimnDraft3D3
10
107
20
70.5925
30
0
11
49.781579
21
70.5925
31
0
70
32
71
5
72
1
41
1
210
0
220
0
230
1
3
Standard
100
AcDbAlignedDimension
13
0
23
23.6425
33
0
14
107
24
12.5875
34
0
50
0
100
AcDbRotatedDimension
1001
ACAD
1000
DSTYLE
1002
{
1070
   279
1070
     0
1070
   172
1070
     1
1070
   173
1070
     1
1070
   340
1005
C0
1070
   271
1070
     1
1070
   272
1070
     2
1070
    77
1070
     1
1070
    73
1070
     0
1070
   171
1070
     3
1070
   274
1070
     4
1070
   177
1070
     2
1070
   176
1070
     2
1070
   178
1070
     2
1070
    78
1070
     8
1070
    48
1040
-0.005
1070
    41
1041
4.5
1070
   147
1041
2.25
1070
    42
1041
1.5875
1070
    44
1041
2.0
1070
   140
1041
4.5
1070
   343
1005
0
1070
   344
1005
0
1002
}
0
DIMENSION
5
110
100
AcDbEntity
8
SK2
62
256
6
ByLayer
370
-3
48
1
60
0
100
AcDbDimension
2
DimnDraft3D4
10
22
20
50.5925
30
0
11
8.371053
21
50.5925
31
0
70
32
71
5
72
1
41
1
210
0
220
0
230
1
3
Standard
100
AcDbAlignedDimension
13
0
23
23.6425
33
0
14
22
24
33.08
34
0
50
0
100
AcDbRotatedDimension
1001
ACAD
1000
DSTYLE
1002
{
1070
   279
1070
     0
1070
   172
1070
     1
1070
   173
1070
     1
1070
   340
1005
C0
1070
   271
1070
     2
1070
   272
1070
     2
1070
    77
1070
     1
1070
    73
1070
     0
1070
   171
1070
     3
1070
   274
1070
     4
1070
   177
1070
     2
1070
   176
1070
     2
1070
   178
1070
     2
1070
    78
1070
     8
1070
    48
1040
-0.005
1070
    41
1041
4.5
1070
   147
1041
2.25
1070
    42
1041
1.5875
1070
    44
1041
2.0
1070
   140
1041
4.5
1070
   343
1005
0
1070
   344
1005
0
1002
}
0
DIMENSION
5
11A
100
AcDbEntity
8
SK2
62
256
6
ByLayer
370
-3
48
1
60
0
100
AcDbDimension
2
DimnDraft3D5
10
42
20
40.5925
30
0
11
71.871053
21
40.5925
31
0
70
32
71
5
72
1
41
1
210
0
220
0
230
1
3
Standard
100
AcDbAlignedDimension
13
107
23
12.5875
33
0
14
42
24
12.5875
34
0
50
0
100
AcDbRotatedDimension
1001
ACAD
1000
DSTYLE
1002
{
1070
   279
1070
     0
1070
   172
1070
     1
1070
   173
1070
     1
1070
   340
1005
C0
1070
   271
1070
     1
1070
   272
1070
     2
1070
    77
1070
     1
1070
    73
1070
     0
1070
   171
1070
     3
1070
   274
1070
     4
1070
   177
1070
     2
1070
   176
1070
     2
1070
   178
1070
     2
1070
    78
1070
     8
1070
    48
1040
-0.005
1070
    41
1041
4.5
1070
   147
1041
2.25
1070
    42
1041
1.5875
1070
    44
1041
2.0
1070
   140
1041
4.5
1070
   343
1005
0
1070
   344
1005
0
1002
}
0
DIMENSION
5
124
100
AcDbEntity
8
SK2
62
256
6
ByLayer
370
-3
48
1
60
0
100
AcDbDimension
2
DimnDraft3D6
10
-38
20
70.5925
30
0
11
-21.628947
21
70.5925
31
0
70
32
71
5
72
1
41
1
210
0
220
0
230
1
3
Standard
100
AcDbAlignedDimension
13
0
23
23.6425
33
0
14
-38
24
24.1875
34
0
50
0
100
AcDbRotatedDimension
1001
ACAD
1000
DSTYLE
1002
{
1070
   279
1070
     0
1070
   172
1070
     1
1070
   173
1070
     1
1070
   340
1005
C0
1070
   271
1070
     1
1070
   272
1070
     2
1070
    77
1070
     1
1070
    73
1070
     0
1070
   171
1070
     3
1070
   274
1070
     4
1070
   177
1070
     2
1070
   176
1070
     2
1070
   178
1070
     2
1070
    78
1070
     8
1070
    48
1040
-0.005
1070
    41
1041
4.5
1070
   147
1041
2.25
1070
    42
1041
1.5875
1070
    44
1041
2.0
1070
   140
1041
4.5
1070
   343
1005
0
1070
   344
1005
0
1002
}
0
DIMENSION
5
12E
100
AcDbEntity
8
SK2
62
256
6
ByLayer
370
-3
48
1
60
0
100
AcDbDimension
2
DimnDraft3D7
10
61
20
-40.0925
30
0
11
63.258553
21
-40.0925
31
0
70
32
71
5
72
1
41
1
210
0
220
0
230
1
3
Standard
100
AcDbAlignedDimension
13
107
23
-7.5875
33
0
14
61
24
-7.5875
34
0
50
0
100
AcDbRotatedDimension
1001
ACAD
1000
DSTYLE
1002
{
1070
   279
1070
     0
1070
   172
1070
     1
1070
   173
1070
     1
1070
   340
1005
C0
1070
   271
1070
     0
1070
   272
1070
     2
1070
    77
1070
     1
1070
    73
1070
     0
1070
   171
1070
     3
1070
   274
1070
     4
1070
   177
1070
     2
1070
   176
1070
     2
1070
   178
1070
     2
1070
    78
1070
     8
1070
    48
1040
-0.005
1070
    41
1041
4.5
1070
   147
1041
2.25
1070
    42
1041
1.5875
1070
    44
1041
2.0
1070
   140
1041
4.5
1070
   343
1005
0
1070
   344
1005
0
1002
}
0
DIMENSION
5
139
100
AcDbEntity
8
SK2
62
256
6
ByLayer
370
-3
48
1
60
0
100
AcDbDimension
2
DimnDraft3D8
10
161.25
20
11
30
0
11
161.25
21
-7.878947
31
0
70
32
71
5
72
1
41
1
210
0
220
0
230
1
3
Standard
100
AcDbAlignedDimension
13
108.5875
23
-11
33
0
14
108.5875
24
11
34
0
50
90
100
AcDbRotatedDimension
1001
ACAD
1000
DSTYLE
1002
{
1070
    74
1070
     0
1070
   279
1070
     0
1070
   172
1070
     1
1070
   173
1070
     1
1070
   340
1005
C0
1070
   271
1070
     1
1070
   272
1070
     2
1070
    77
1070
     1
1070
    73
1070
     0
1070
   171
1070
     3
1070
   274
1070
     4
1070
   177
1070
     2
1070
   176
1070
     2
1070
   178
1070
     2
1070
    78
1070
     8
1070
    48
1040
-0.005
1070
    41
1041
4.5
1070
   147
1041
2.25
1070
    42
1041
1.5875
1070
    44
1041
2.0
1070
   140
1041
4.5
1070
   343
1005
0
1070
   344
1005
0
1002
}
0
DIMENSION
5
144
100
AcDbEntity
8
SK2
62
256
6
ByLayer
370
-3
48
1
60
0
100
AcDbDimension
2
DimnDraft3D9
10
142.25
20
-6
30
0
11
142.25
21
17
31
0
70
32
71
5
72
1
41
1
210
0
220
0
230
1
3
Standard
100
AcDbAlignedDimension
13
108.5875
23
6
33
0
14
108.5875
24
-6
34
0
50
90
100
AcDbRotatedDimension
1001
ACAD
1000
DSTYLE
1002
{
1070
    74
1070
     0
1070
   279
1070
     0
1070
   172
1070
     1
1070
   173
1070
     1
1070
   340
1005
C0
1070
   271
1070
     1
1070
   272
1070
     2
1070
    77
1070
     1
1070
    73
1070
     0
1070
   171
1070
     3
1070
   274
1070
     4
1070
   177
1070
     2
1070
   176
1070
     2
1070
   178
1070
     2
1070
    78
1070
     8
1070
    48
1040
-0.005
1070
    41
1041
4.5
1070
   147
1041
2.25
1070
    42
1041
1.5875
1070
    44
1041
2.0
1070
   140
1041
4.5
1070
   343
1005
0
1070
   344
1005
0
1002
}
0
DIMENSION
5
14F
100
AcDbEntity
8
SK2
62
256
6
ByLayer
370
-3
48
1
60
0
100
AcDbDimension
2
DimnDraft3D10
10
171.25
20
-20
30
0
11
171.25
21
-8.115789
31
0
70
32
71
5
72
1
41
1
210
0
220
0
230
1
3
Standard
100
AcDbAlignedDimension
13
43.5875
23
20
33
0
14
43.5875
24
-20
34
0
50
90
100
AcDbRotatedDimension
1001
ACAD
1000
DSTYLE
1002
{
1070
    74
1070
     0
1070
   279
1070
     0
1070
   172
1070
     1
1070
   173
1070
     1
1070
   340
1005
C0
1070
   271
1070
     1
1070
   272
1070
     2
1070
    77
1070
     1
1070
    73
1070
     0
1070
   171
1070
     3
1070
   274
1070
     4
1070
   177
1070
     2
1070
   176
1070
     2
1070
   178
1070
     2
1070
    78
1070
     8
1070
    48
1040
-0.005
1070
    41
1041
4.5
1070
   147
1041
2.25
1070
    42
1041
1.5875
1070
    44
1041
2.0
1070
   140
1041
4.5
1070
   343
1005
0
1070
   344
1005
0
1002
}
0
ENDSEC
0
SECTION
2
OBJECTS
0
DICTIONARY
5
181
330
0
100
AcDbDictionary
280
0
281
1
3
ACAD_GROUP
350
182
3
ACAD_MLINESTYLE
350
183
0
DICTIONARY
5
182
330
0
100
AcDbDictionary
280
0
281
1
0
DICTIONARY
5
183
330
0
100
AcDbDictionary
280
0
281
1
3
Standard
350
18
0
MLINESTYLE
5
18
330
183
100
AcDbMlineStyle
2
Standard
70
0
3

62
256
51
90
52
90
71
2
49
-0.5
62
256
6
ByLayer
49
0.5
62
256
6
ByLayer
0
RASTERVARIABLES
5
16e
330

100
AcDbRasterVariables
90
0
70
1
71
1
72
1
0
ENDSEC
0
EOF
