0
SECTION
2
HEADER
9
$ACADVER
1
AC1015
9
$DWGCODEPAGE
3
ANSI_1252
9
$HANDSEED
5
156
9
$ANGBASE
50
0
9
$ANGDIR
70
0
9
$ATTMODE
70
1
9
$AUNITS
70
0
9
$AUPREC
70
0
9
$CECOLOR
62
256
9
$CELTSCALE
40
1
9
$CELTYPE
6
ByLayer
9
$CELWEIGHT
370
-1
9
$CLAYER
8
0
9
$CMLJUST
70
0
9
$CMLSCALE
40
1
9
$CMLSTYLE
2
Standard
9
$DIMSTYLE
2
Standard
9
$TEXTSIZE
40
0.2
9
$TEXTSTYLE
7
Standard
9
$LUNITS
70
2
9
$LUPREC
70
4
9
$EXTNAMES
290
1
9
$INSUNITS
70
4
9
$LTSCALE
40
1
9
$LWDISPLAY
290
0
9
$PDMODE
70
0
9
$PDSIZE
40
0
9
$PLINEGEN
70
0
0
ENDSEC
0
SECTION
2
CLASSES
0
CLASS
1
RASTERVARIABLES
2
AcDbRasterVariables
3
ISM
90
0
280
0
281
0
0
ENDSEC
0
SECTION
2
TABLES
0
TABLE
2
VPORT
5
14c
100
AcDbSymbolTable
0
VPORT
5
1
100
AcDbSymbolTableRecord
100
AcDbViewportTableRecord
2
*Active
70
0
10
0
20
0
11
1
21
1
12
-1
22
1
13
0
23
0
14
0.5
24
0.5
15
10
25
10
16
0
26
0
36
1
17
0
27
0
37
0
0
ENDTAB
0
TABLE
2
LTYPE
5
14d
100
AcDbSymbolTable
0
LTYPE
5
14
100
AcDbSymbolTableRecord
100
AcDbLinetypeTableRecord
70
0
2
ByBlock
3

72
65
73
0
40
0
0
LTYPE
5
15
100
AcDbSymbolTableRecord
100
AcDbLinetypeTableRecord
70
0
2
ByLayer
3

72
65
73
0
40
0
0
LTYPE
5
16
100
AcDbSymbolTableRecord
100
AcDbLinetypeTableRecord
70
0
2
CONTINUOUS
3
Solid line
72
65
73
0
40
0
0
LTYPE
5
3B
100
AcDbSymbolTableRecord
100
AcDbLinetypeTableRecord
70
0
2
DASHED
3
__ __ __ __ __ __ __ __ __
72
65
73
2
40
25.72
49
12.86
74
0
49
-12.86
74
0
0
LTYPE
5
3C
100
AcDbSymbolTableRecord
100
AcDbLinetypeTableRecord
70
0
2
HIDDEN
3
_ _ _ _ _ _ _ _ _ _ _ _ _ _ _
72
65
73
2
40
0.5
49
0.25
74
0
49
-0.25
74
0
0
LTYPE
5
3D
100
AcDbSymbolTableRecord
100
AcDbLinetypeTableRecord
70
0
2
PHANTOM
3
____ _ _ ____ _ _ _____ _ _ ____
72
65
73
6
40
50.5
49
18
74
0
49
-6.5
74
0
49
6.5
74
0
49
-6.5
74
0
49
6.5
74
0
49
-6.5
74
0
0
LTYPE
5
3E
100
AcDbSymbolTableRecord
100
AcDbLinetypeTableRecord
70
0
2
CENTER
3
____ _ ____ _ ____ _ ____
72
65
73
4
40
47.5
49
22
74
0
49
-8.5
74
0
49
8.5
74
0
49
-8.5
74
0
0
LTYPE
5
3F
100
AcDbSymbolTableRecord
100
AcDbLinetypeTableRecord
70
0
2
DOT
3
.........................
72
65
73
2
40
10
49
0
74
0
49
-10
74
0
0
LTYPE
5
40
100
AcDbSymbolTableRecord
100
AcDbLinetypeTableRecord
70
0
2
DASHDOT
3
_._._._._._._._._._._._._._._._.
72
65
73
4
40
70
49
31
74
0
49
-13
74
0
49
13
74
0
49
-13
74
0
0
ENDTAB
0
TABLE
2
LAYER
5
14e
100
AcDbSymbolTable
0
LAYER
5
10
100
AcDbSymbolTableRecord
100
AcDbLayerTableRecord
2
0
70
0
62
7
6
CONTINUOUS
290
1
370
-3
390
0
0
LAYER
5
42
100
AcDbSymbolTableRecord
100
AcDbLayerTableRecord
2
80
70
0
62
-6
6
CONTINUOUS
290
1
370
-3
390
0
0
LAYER
5
44
100
AcDbSymbolTableRecord
100
AcDbLayerTableRecord
2
81
70
0
62
-3
6
CONTINUOUS
290
1
370
-3
390
0
0
LAYER
5
49
100
AcDbSymbolTableRecord
100
AcDbLayerTableRecord
2
4
70
0
62
-2
6
CENTER
290
1
370
-3
390
0
0
LAYER
5
53
100
AcDbSymbolTableRecord
100
AcDbLayerTableRecord
2
1
70
0
62
4
6
CONTINUOUS
290
1
370
-3
390
0
0
LAYER
5
DB
100
AcDbSymbolTableRecord
100
AcDbLayerTableRecord
2
2
70
0
62
7
6
CONTINUOUS
290
1
370
-3
390
0
0
LAYER
5
137
100
AcDbSymbolTableRecord
100
AcDbLayerTableRecord
2
SK3
70
0
62
1
6
DASHED
290
1
370
-3
390
0
0
LAYER
5
138
100
AcDbSymbolTableRecord
100
AcDbLayerTableRecord
2
SK4
70
0
62
2
6
CENTER
290
1
370
-3
390
0
0
LAYER
5
139
100
AcDbSymbolTableRecord
100
AcDbLayerTableRecord
2
SK1
70
0
62
4
6
CONTINUOUS
290
1
370
-3
390
0
0
LAYER
5
13a
100
AcDbSymbolTableRecord
100
AcDbLayerTableRecord
2
SK6
70
0
62
5
6
CONTINUOUS
290
1
370
-3
390
0
0
LAYER
5
13b
100
AcDbSymbolTableRecord
100
AcDbLayerTableRecord
2
SK2
70
0
62
7
6
CONTINUOUS
290
1
370
-3
390
0
0
ENDTAB
0
TABLE
2
STYLE
5
14f
100
AcDbSymbolTable
0
STYLE
5
11
100
AcDbSymbolTableRecord
100
AcDbTextStyleTableRecord
2
Standard
3
txt
70
0
71
0
40
0
41
1
42
0
50
0
0
STYLE
5
A0
100
AcDbSymbolTableRecord
100
AcDbTextStyleTableRecord
2
DEFAULT
3
simplex.shx
70
0
71
0
40
0
41
1
42
0
50
0
0
STYLE
5
C3
100
AcDbSymbolTableRecord
100
AcDbTextStyleTableRecord
2
DWGDirectTextStyle
3
SIMPLEX
70
0
71
0
40
0
41
1
42
0
50
0
0
ENDTAB
0
TABLE
2
DIMSTYLE
5
150
100
AcDbSymbolTable
100
AcDbDimStyleTable
0
DIMSTYLE
105
27
100
AcDbSymbolTableRecord
100
AcDbDimStyleTableRecord
2
Standard
70
0
3
<>
41
0.18
42
0.0625
44
0.18
140
0.18
147
0.09
73
0
74
0
77
1
271
2
275
0
278
52
280
0
340
11
0
ENDTAB
0
TABLE
2
VIEW
5
151
100
AcDbSymbolTable
0
ENDTAB
0
TABLE
2
UCS
5
152
100
AcDbSymbolTable
0
ENDTAB
0
TABLE
2
APPID
5
153
100
AcDbSymbolTable
0
APPID
5
12
100
AcDbSymbolTableRecord
100
AcDbRegAppTableRecord
2
ACAD
70
0
0
ENDTAB
0
TABLE
2
BLOCK_RECORD
5
154
100
AcDbSymbolTable
0
BLOCK_RECORD
5
1F
100
AcDbSymbolTableRecord
100
AcDbBlockTableRecord
2
*Model_Space
340
0
70
0
0
BLOCK_RECORD
5
1B
100
AcDbSymbolTableRecord
100
AcDbBlockTableRecord
2
*Paper_Space
340
0
70
0
0
BLOCK_RECORD
5
23
100
AcDbSymbolTableRecord
100
AcDbBlockTableRecord
2
*Paper_Space0
340
0
70
0
0
BLOCK_RECORD
5
9E
100
AcDbSymbolTableRecord
100
AcDbBlockTableRecord
2
LABLE3D_1
340
0
70
0
0
BLOCK_RECORD
5
CE
100
AcDbSymbolTableRecord
100
AcDbBlockTableRecord
2
DimnDraft3D1
340
0
70
0
0
BLOCK_RECORD
5
D9
100
AcDbSymbolTableRecord
100
AcDbBlockTableRecord
2
DimnDraft3D2
340
0
70
0
0
BLOCK_RECORD
5
E4
100
AcDbSymbolTableRecord
100
AcDbBlockTableRecord
2
DimnDraft3D3
340
0
70
0
0
BLOCK_RECORD
5
EE
100
AcDbSymbolTableRecord
100
AcDbBlockTableRecord
2
DimnDraft3D4
340
0
70
0
0
BLOCK_RECORD
5
F8
100
AcDbSymbolTableRecord
100
AcDbBlockTableRecord
2
DimnDraft3D5
340
0
70
0
0
BLOCK_RECORD
5
102
100
AcDbSymbolTableRecord
100
AcDbBlockTableRecord
2
DimnDraft3D6
340
0
70
0
0
BLOCK_RECORD
5
10D
100
AcDbSymbolTableRecord
100
AcDbBlockTableRecord
2
DimnDraft3D7
340
0
70
0
0
ENDTAB
0
ENDSEC
0
SECTION
2
BLOCKS
0
BLOCK
5
20
100
AcDbEntity
8
0
100
AcDbBlockBegin
2
*Model_Space
70
0
10
0
20
0
30
0
3
*Model_Space
0
ENDBLK
5
21
100
AcDbEntity
8
0
100
AcDbBlockEnd
0
BLOCK
5
1C
100
AcDbEntity
8
0
100
AcDbBlockBegin
2
*Paper_Space
70
0
10
0
20
0
30
0
3
*Paper_Space
0
ENDBLK
5
1D
100
AcDbEntity
8
0
100
AcDbBlockEnd
0
BLOCK
5
24
100
AcDbEntity
8
0
100
AcDbBlockBegin
2
*Paper_Space0
70
0
10
0
20
0
30
0
3
*Paper_Space0
0
ENDBLK
5
25
100
AcDbEntity
8
0
100
AcDbBlockEnd
0
BLOCK
5
C9
100
AcDbEntity
8
0
100
AcDbBlockBegin
2
LABLE3D_1
70
0
10
0
20
0
30
0
3
LABLE3D_1
0
MTEXT
5
9F
100
AcDbEntity
8
SK6
62
256
6
ByLayer
370
-1
48
1
60
0
100
AcDbMText
10
-104.925
20
57.3615
30
0
210
0
220
0
230
1
1
\W01.000;\fsimplex.shx,bigfont.shx; 
40
3.5
41
0
44
1.084337
50
0
71
7
72
5
7
DEFAULT
0
LINE
5
C5
100
AcDbEntity
8
SK6
62
256
6
ByLayer
370
-1
48
1
60
0
100
AcDbLine
10
-104.3
20
59.9865
30
0
11
-97.223077
21
59.9865
31
0
39
0
210
0
220
0
230
1
0
LINE
5
C6
100
AcDbEntity
8
SK6
62
256
6
ByLayer
370
-1
48
1
60
0
100
AcDbLine
10
-71.773827
20
24.457174
30
0
11
-97.223077
21
59.9865
31
0
39
0
210
0
220
0
230
1
0
SOLID
5
C7
100
AcDbEntity
8
SK6
62
256
6
ByLayer
370
-1
48
1
60
0
100
AcDbTrace
10
-71.773827
20
24.457174
30
0
11
-75.205279
21
27.53457
31
0
12
-73.583218
22
28.696442
32
0
13
-71.773827
23
24.457174
33
0
39
0
210
0
220
0
230
1
0
ENDBLK
5
CA
100
AcDbEntity
8
0
100
AcDbBlockEnd
0
BLOCK
5
D6
100
AcDbEntity
8
0
100
AcDbBlockBegin
2
DimnDraft3D1
70
0
10
0
20
0
30
0
3
DimnDraft3D1
0
MTEXT
5
CF
100
AcDbEntity
8
SK2
62
256
6
ByLayer
370
-1
48
1
60
0
100
AcDbMText
10
89.742763
20
-67.4615
30
0
210
0
220
0
230
1
1
\W01.000;\fsimplex.shx,bigfont.shx;17,8 
40
4.5
41
0
44
1.084337
50
0
71
7
72
5
7
DEFAULT
0
LINE
5
D1
100
AcDbEntity
8
SK2
62
256
6
ByLayer
370
-1
48
1
60
0
100
AcDbLine
10
84.2
20
-29.0875
30
0
11
84.2
21
-70.5865
31
0
39
0
210
0
220
0
230
1
0
LINE
5
D2
100
AcDbEntity
8
SK2
62
256
6
ByLayer
370
-1
48
1
60
0
100
AcDbLine
10
102
20
-29.0875
30
0
11
102
21
-70.5865
31
0
39
0
210
0
220
0
230
1
0
LINE
5
D3
100
AcDbEntity
8
SK2
62
256
6
ByLayer
370
-1
48
1
60
0
100
AcDbLine
10
72.95
20
-68.5865
30
0
11
113.25
21
-68.5865
31
0
39
0
210
0
220
0
230
1
0
SOLID
5
D4
100
AcDbEntity
8
SK2
62
256
6
ByLayer
370
-1
48
1
60
0
100
AcDbTrace
10
84.2
20
-68.5865
30
0
11
79.700004
21
-69.584126
31
0
12
79.699996
22
-67.588874
32
0
13
84.2
23
-68.5865
33
0
39
0
210
0
220
0
230
1
0
SOLID
5
D5
100
AcDbEntity
8
SK2
62
256
6
ByLayer
370
-1
48
1
60
0
100
AcDbTrace
10
102
20
-68.5865
30
0
11
106.499996
21
-67.588874
31
0
12
106.500004
22
-69.584126
32
0
13
102
23
-68.5865
33
0
39
0
210
0
220
0
230
1
0
ENDBLK
5
D7
100
AcDbEntity
8
0
100
AcDbBlockEnd
0
BLOCK
5
E1
100
AcDbEntity
8
0
100
AcDbBlockBegin
2
DimnDraft3D2
70
0
10
0
20
0
30
0
3
DimnDraft3D2
0
MTEXT
5
DA
100
AcDbEntity
8
2
62
256
6
ByLayer
370
-1
48
1
60
0
100
AcDbMText
10
48.406579
20
90.2115
30
0
210
0
220
0
230
1
1
\W01.000;\fsimplex.shx,bigfont.shx;102 
40
4.5
41
0
44
1.084337
50
0
71
7
72
5
7
DEFAULT
0
LINE
5
DC
100
AcDbEntity
8
2
62
256
6
ByLayer
370
-1
48
1
60
0
100
AcDbLine
10
0
20
36.5125
30
0
11
0
21
91.0865
31
0
39
0
210
0
220
0
230
1
0
LINE
5
DD
100
AcDbEntity
8
2
62
256
6
ByLayer
370
-1
48
1
60
0
100
AcDbLine
10
102
20
29.0875
30
0
11
102
21
91.0865
31
0
39
0
210
0
220
0
230
1
0
LINE
5
DE
100
AcDbEntity
8
2
62
256
6
ByLayer
370
-1
48
1
60
0
100
AcDbLine
10
0
20
89.0865
30
0
11
102
21
89.0865
31
0
39
0
210
0
220
0
230
1
0
SOLID
5
DF
100
AcDbEntity
8
2
62
256
6
ByLayer
370
-1
48
1
60
0
100
AcDbTrace
10
0
20
89.0865
30
0
11
4.499996
21
90.084126
31
0
12
4.500004
22
88.088874
32
0
13
0
23
89.0865
33
0
39
0
210
0
220
0
230
1
0
SOLID
5
E0
100
AcDbEntity
8
2
62
256
6
ByLayer
370
-1
48
1
60
0
100
AcDbTrace
10
102
20
89.0865
30
0
11
97.500004
21
88.088874
31
0
12
97.499996
22
90.084126
32
0
13
102
23
89.0865
33
0
39
0
210
0
220
0
230
1
0
ENDBLK
5
E2
100
AcDbEntity
8
0
100
AcDbBlockEnd
0
BLOCK
5
EB
100
AcDbEntity
8
0
100
AcDbBlockBegin
2
DimnDraft3D3
70
0
10
0
20
0
30
0
3
DimnDraft3D3
0
MTEXT
5
E5
100
AcDbEntity
8
SK2
62
256
6
ByLayer
370
-1
48
1
60
0
100
AcDbMText
10
17.496053
20
70.2115
30
0
210
0
220
0
230
1
1
\W01.000;\fsimplex.shx,bigfont.shx;38 
40
4.5
41
0
44
1.084337
50
0
71
7
72
5
7
DEFAULT
0
LINE
5
E6
100
AcDbEntity
8
SK2
62
256
6
ByLayer
370
-1
48
1
60
0
100
AcDbLine
10
0
20
36.5125
30
0
11
0
21
71.0865
31
0
39
0
210
0
220
0
230
1
0
LINE
5
E7
100
AcDbEntity
8
SK2
62
256
6
ByLayer
370
-1
48
1
60
0
100
AcDbLine
10
38
20
51.574
30
0
11
38
21
71.0865
31
0
39
0
210
0
220
0
230
1
0
LINE
5
E8
100
AcDbEntity
8
SK2
62
256
6
ByLayer
370
-1
48
1
60
0
100
AcDbLine
10
0
20
69.0865
30
0
11
38
21
69.0865
31
0
39
0
210
0
220
0
230
1
0
SOLID
5
E9
100
AcDbEntity
8
SK2
62
256
6
ByLayer
370
-1
48
1
60
0
100
AcDbTrace
10
0
20
69.0865
30
0
11
4.499996
21
70.084126
31
0
12
4.500004
22
68.088874
32
0
13
0
23
69.0865
33
0
39
0
210
0
220
0
230
1
0
SOLID
5
EA
100
AcDbEntity
8
SK2
62
256
6
ByLayer
370
-1
48
1
60
0
100
AcDbTrace
10
38
20
69.0865
30
0
11
33.500004
21
68.088874
31
0
12
33.499996
22
70.084126
32
0
13
38
23
69.0865
33
0
39
0
210
0
220
0
230
1
0
ENDBLK
5
EC
100
AcDbEntity
8
0
100
AcDbBlockEnd
0
BLOCK
5
F5
100
AcDbEntity
8
0
100
AcDbBlockBegin
2
DimnDraft3D4
70
0
10
0
20
0
30
0
3
DimnDraft3D4
0
MTEXT
5
EF
100
AcDbEntity
8
SK2
62
256
6
ByLayer
370
-1
48
1
60
0
100
AcDbMText
10
-55.346711
20
90.2115
30
0
210
0
220
0
230
1
1
\W01.000;\fsimplex.shx,bigfont.shx;101,8 
40
4.5
41
0
44
1.084337
50
0
71
7
72
5
7
DEFAULT
0
LINE
5
F0
100
AcDbEntity
8
SK2
62
256
6
ByLayer
370
-1
48
1
60
0
100
AcDbLine
10
0
20
36.5125
30
0
11
0
21
91.0865
31
0
39
0
210
0
220
0
230
1
0
LINE
5
F1
100
AcDbEntity
8
SK2
62
256
6
ByLayer
370
-1
48
1
60
0
100
AcDbLine
10
-101.8
20
13.7875
30
0
11
-101.8
21
91.0865
31
0
39
0
210
0
220
0
230
1
0
LINE
5
F2
100
AcDbEntity
8
SK2
62
256
6
ByLayer
370
-1
48
1
60
0
100
AcDbLine
10
0
20
89.0865
30
0
11
-101.8
21
89.0865
31
0
39
0
210
0
220
0
230
1
0
SOLID
5
F3
100
AcDbEntity
8
SK2
62
256
6
ByLayer
370
-1
48
1
60
0
100
AcDbTrace
10
0
20
89.0865
30
0
11
-4.499996
21
88.088874
31
0
12
-4.500004
22
90.084126
32
0
13
0
23
89.0865
33
0
39
0
210
0
220
0
230
1
0
SOLID
5
F4
100
AcDbEntity
8
SK2
62
256
6
ByLayer
370
-1
48
1
60
0
100
AcDbTrace
10
-101.8
20
89.0865
30
0
11
-97.300004
21
90.084126
31
0
12
-97.299996
22
88.088874
32
0
13
-101.8
23
89.0865
33
0
39
0
210
0
220
0
230
1
0
ENDBLK
5
F6
100
AcDbEntity
8
0
100
AcDbBlockEnd
0
BLOCK
5
FF
100
AcDbEntity
8
0
100
AcDbBlockBegin
2
DimnDraft3D5
70
0
10
0
20
0
30
0
3
DimnDraft3D5
0
MTEXT
5
F9
100
AcDbEntity
8
SK2
62
256
6
ByLayer
370
-1
48
1
60
0
100
AcDbMText
10
58.008553
20
-77.4615
30
0
210
0
220
0
230
1
1
\W01.000;\fsimplex.shx,bigfont.shx;min 41-max 51 
40
4.5
41
0
44
1.084337
50
0
71
7
72
5
7
DEFAULT
0
LINE
5
FA
100
AcDbEntity
8
SK2
62
256
6
ByLayer
370
-1
48
1
60
0
100
AcDbLine
10
102
20
-11.5875
30
0
11
102
21
-80.5865
31
0
39
0
210
0
220
0
230
1
0
LINE
5
FB
100
AcDbEntity
8
SK2
62
256
6
ByLayer
370
-1
48
1
60
0
100
AcDbLine
10
51
20
-11.5875
30
0
11
51
21
-80.5865
31
0
39
0
210
0
220
0
230
1
0
LINE
5
FC
100
AcDbEntity
8
SK2
62
256
6
ByLayer
370
-1
48
1
60
0
100
AcDbLine
10
113.25
20
-78.5865
30
0
11
39.75
21
-78.5865
31
0
39
0
210
0
220
0
230
1
0
SOLID
5
FD
100
AcDbEntity
8
SK2
62
256
6
ByLayer
370
-1
48
1
60
0
100
AcDbTrace
10
102
20
-78.5865
30
0
11
106.499996
21
-77.588874
31
0
12
106.500004
22
-79.584126
32
0
13
102
23
-78.5865
33
0
39
0
210
0
220
0
230
1
0
SOLID
5
FE
100
AcDbEntity
8
SK2
62
256
6
ByLayer
370
-1
48
1
60
0
100
AcDbTrace
10
51
20
-78.5865
30
0
11
46.500004
21
-79.584126
31
0
12
46.499996
22
-77.588874
32
0
13
51
23
-78.5865
33
0
39
0
210
0
220
0
230
1
0
ENDBLK
5
100
100
AcDbEntity
8
0
100
AcDbBlockEnd
0
BLOCK
5
10A
100
AcDbEntity
8
0
100
AcDbBlockBegin
2
DimnDraft3D6
70
0
10
0
20
0
30
0
3
DimnDraft3D6
0
MTEXT
5
103
100
AcDbEntity
8
SK2
62
256
6
ByLayer
370
-1
48
1
60
0
100
AcDbMText
10
158.25
20
3.746053
30
0
210
0
220
0
230
1
1
\W01.000;\fsimplex.shx,bigfont.shx;55 
40
4.5
41
0
44
1.084337
50
90
71
7
72
5
7
DEFAULT
0
MTEXT
5
104
100
AcDbEntity
8
SK2
62
256
6
ByLayer
370
-1
48
1
60
0
100
AcDbMText
10
158
20
-7.003947
30
0
210
0
220
0
230
1
1
\W01.000;\fsimplex.shx,bigfont.shx;%%c 
40
3.5
41
0
44
1.084337
50
90
71
7
72
5
7
DEFAULT
0
LINE
5
105
100
AcDbEntity
8
SK2
62
256
6
ByLayer
370
-1
48
1
60
0
100
AcDbLine
10
85.7875
20
-27.5
30
0
11
162.25
21
-27.5
31
0
39
0
210
0
220
0
230
1
0
LINE
5
106
100
AcDbEntity
8
SK2
62
256
6
ByLayer
370
-1
48
1
60
0
100
AcDbLine
10
85.7875
20
27.5
30
0
11
162.25
21
27.5
31
0
39
0
210
0
220
0
230
1
0
LINE
5
107
100
AcDbEntity
8
SK2
62
256
6
ByLayer
370
-1
48
1
60
0
100
AcDbLine
10
160.25
20
-27.5
30
0
11
160.25
21
27.5
31
0
39
0
210
0
220
0
230
1
0
SOLID
5
108
100
AcDbEntity
8
SK2
62
256
6
ByLayer
370
-1
48
1
60
0
100
AcDbTrace
10
160.25
20
-27.5
30
0
11
159.252374
21
-23.000004
31
0
12
161.247626
22
-22.999996
32
0
13
160.25
23
-27.5
33
0
39
0
210
0
220
0
230
1
0
SOLID
5
109
100
AcDbEntity
8
SK2
62
256
6
ByLayer
370
-1
48
1
60
0
100
AcDbTrace
10
160.25
20
27.5
30
0
11
161.247626
21
23.000004
31
0
12
159.252374
22
22.999996
32
0
13
160.25
23
27.5
33
0
39
0
210
0
220
0
230
1
0
ENDBLK
5
10B
100
AcDbEntity
8
0
100
AcDbBlockEnd
0
BLOCK
5
115
100
AcDbEntity
8
0
100
AcDbBlockBegin
2
DimnDraft3D7
70
0
10
0
20
0
30
0
3
DimnDraft3D7
0
MTEXT
5
10E
100
AcDbEntity
8
SK2
62
256
6
ByLayer
370
-1
48
1
60
0
100
AcDbMText
10
142.25
20
3.746053
30
0
210
0
220
0
230
1
1
\W01.000;\fsimplex.shx,bigfont.shx;20 
40
4.5
41
0
44
1.084337
50
90
71
7
72
5
7
DEFAULT
0
MTEXT
5
10F
100
AcDbEntity
8
SK2
62
256
6
ByLayer
370
-1
48
1
60
0
100
AcDbMText
10
142
20
-7.003947
30
0
210
0
220
0
230
1
1
\W01.000;\fsimplex.shx,bigfont.shx;%%c 
40
3.5
41
0
44
1.084337
50
90
71
7
72
5
7
DEFAULT
0
LINE
5
110
100
AcDbEntity
8
SK2
62
256
6
ByLayer
370
-1
48
1
60
0
100
AcDbLine
10
103.5875
20
10
30
0
11
146.25
21
10
31
0
39
0
210
0
220
0
230
1
0
LINE
5
111
100
AcDbEntity
8
SK2
62
256
6
ByLayer
370
-1
48
1
60
0
100
AcDbLine
10
103.5875
20
-10
30
0
11
146.25
21
-10
31
0
39
0
210
0
220
0
230
1
0
LINE
5
112
100
AcDbEntity
8
SK2
62
256
6
ByLayer
370
-1
48
1
60
0
100
AcDbLine
10
144.25
20
21.25
30
0
11
144.25
21
-21.25
31
0
39
0
210
0
220
0
230
1
0
SOLID
5
113
100
AcDbEntity
8
SK2
62
256
6
ByLayer
370
-1
48
1
60
0
100
AcDbTrace
10
144.25
20
10
30
0
11
143.252374
21
14.499996
31
0
12
145.247626
22
14.500004
32
0
13
144.25
23
10
33
0
39
0
210
0
220
0
230
1
0
SOLID
5
114
100
AcDbEntity
8
SK2
62
256
6
ByLayer
370
-1
48
1
60
0
100
AcDbTrace
10
144.25
20
-10
30
0
11
145.247626
21
-14.499996
31
0
12
143.252374
22
-14.500004
32
0
13
144.25
23
-10
33
0
39
0
210
0
220
0
230
1
0
ENDBLK
5
116
100
AcDbEntity
8
0
100
AcDbBlockEnd
0
ENDSEC
0
SECTION
2
ENTITIES
0
ARC
5
85
100
AcDbEntity
8
SK1
62
256
6
ByLayer
370
-1
48
1
60
0
100
AcDbCircle
39
0
10
-100.8
20
19.213284
30
0
40
1
210
0
220
0
230
1
100
AcDbArc
50
98.297778
51
180
0
ARC
5
86
100
AcDbEntity
8
SK1
62
256
6
ByLayer
370
-1
48
1
60
0
100
AcDbCircle
39
0
10
-100.8
20
-19.213284
30
0
40
1
210
0
220
0
230
1
100
AcDbArc
50
180
51
261.702222
0
ARC
5
87
100
AcDbEntity
8
1
62
256
6
ByLayer
370
-1
48
1
60
0
100
AcDbCircle
39
0
10
37
20
-48.9865
30
0
40
1
210
0
220
0
230
1
100
AcDbArc
50
270
51
0
0
ARC
5
88
100
AcDbEntity
8
1
62
256
6
ByLayer
370
-1
48
1
60
0
100
AcDbCircle
39
0
10
37
20
48.9865
30
0
40
1
210
0
220
0
230
1
100
AcDbArc
50
0
51
90
0
ARC
5
89
100
AcDbEntity
8
1
62
256
6
ByLayer
370
-1
48
1
60
0
100
AcDbCircle
39
0
10
-1.3
20
35.125
30
0
40
0.5
210
0
220
0
230
-1
100
AcDbArc
50
246.421412
51
270
0
ARC
5
8A
100
AcDbEntity
8
1
62
256
6
ByLayer
370
-1
48
1
60
0
100
AcDbCircle
39
0
10
-1.3
20
-35.125
30
0
40
0.5
210
0
220
0
230
-1
100
AcDbArc
50
90
51
113.578588
0
ARC
5
8B
100
AcDbEntity
8
1
62
256
6
ByLayer
370
-1
48
1
60
0
100
AcDbCircle
39
0
10
-40.5
20
-30
30
0
40
2.5
210
0
220
0
230
-1
100
AcDbArc
50
0
51
90
0
ARC
5
8C
100
AcDbEntity
8
1
62
256
6
ByLayer
370
-1
48
1
60
0
100
AcDbCircle
39
0
10
-40.5
20
30
30
0
40
2.5
210
0
220
0
230
-1
100
AcDbArc
50
270
51
0
0
ARC
5
8D
100
AcDbEntity
8
1
62
256
6
ByLayer
370
-1
48
1
60
0
100
AcDbCircle
39
0
10
82.801464
20
-7.5
30
0
40
20
210
0
220
0
230
1
100
AcDbArc
50
270
51
278
0
ARC
5
8E
100
AcDbEntity
8
1
62
256
6
ByLayer
370
-1
48
1
60
0
100
AcDbCircle
39
0
10
82.801464
20
7.5
30
0
40
20
210
0
220
0
230
1
100
AcDbArc
50
82
51
90
0
ARC
5
8F
100
AcDbEntity
8
1
62
256
6
ByLayer
370
-1
48
1
60
0
100
AcDbCircle
39
0
10
100.8
20
-23.955229
30
0
40
1.2
210
0
220
0
230
1
100
AcDbArc
50
278
51
0
0
ARC
5
90
100
AcDbEntity
8
1
62
256
6
ByLayer
370
-1
48
1
60
0
100
AcDbCircle
39
0
10
100.8
20
23.955229
30
0
40
1.2
210
0
220
0
230
1
100
AcDbArc
50
0
51
82
0
ELLIPSE
5
91
100
AcDbEntity
8
1
62
256
6
ByLayer
370
-1
48
1
60
0
100
AcDbEllipse
10
16.902501
20
3E-06
30
0
11
13.6715569993552
21
48.0805470807208
31
0
210
0
220
0
230
1
40
1
41
3.12635657511444
42
-3.12563302478315
0
ELLIPSE
5
92
100
AcDbEntity
8
1
62
256
6
ByLayer
370
-1
48
1
60
0
100
AcDbEllipse
10
16.902501
20
-3E-06
30
0
11
13.6715569993551
21
-48.0805470807208
31
0
210
0
220
0
230
1
40
1
41
3.12563302478315
42
-3.12635657511444
0
POINT
5
41
100
AcDbEntity
8
80
62
256
6
ByLayer
370
-1
48
1
60
0
100
AcDbPoint
10
0
20
0
30
0
39
0
210
0
220
0
230
1
50
360
0
POINT
5
43
100
AcDbEntity
8
81
62
256
6
ByLayer
370
-1
48
1
60
0
100
AcDbPoint
10
102
20
0
30
0
39
0
210
0
220
0
230
1
50
360
0
SPLINE
5
93
100
AcDbEntity
8
1
62
256
6
ByLayer
370
-1
48
1
60
0
100
AcDbSpline
70
4
71
3
72
128
73
124
40
-0.0312500000000032
40
-0.0312500000000032
40
0
40
0
40
0.0312499999999944
40
0.0312499999999944
40
0.0624999999999887
40
0.0624999999999887
40
0.0703124999999874
40
0.0703124999999874
40
0.078124999999986
40
0.078124999999986
40
0.093749999999983
40
0.093749999999983
40
0.10937499999998
40
0.10937499999998
40
0.124999999999977
40
0.124999999999977
40
0.156249999999971
40
0.156249999999971
40
0.171874999999968
40
0.171874999999968
40
0.179687499999967
40
0.179687499999967
40
0.187499999999966
40
0.187499999999966
40
0.218749999999963
40
0.218749999999963
40
0.226562499999962
40
0.226562499999962
40
0.234374999999962
40
0.234374999999962
40
0.249999999999961
40
0.249999999999961
40
0.26562499999996
40
0.26562499999996
40
0.281249999999959
40
0.281249999999959
40
0.296874999999958
40
0.296874999999958
40
0.304687499999958
40
0.304687499999958
40
0.312499999999958
40
0.312499999999958
40
0.343749999999958
40
0.343749999999958
40
0.351562499999958
40
0.351562499999958
40
0.359374999999959
40
0.359374999999959
40
0.374999999999959
40
0.374999999999959
40
0.39062499999996
40
0.39062499999996
40
0.40624999999996
40
0.40624999999996
40
0.437499999999962
40
0.437499999999962
40
0.453124999999962
40
0.453124999999962
40
0.468749999999963
40
0.468749999999963
40
0.499999999999964
40
0.499999999999964
40
0.515624999999965
40
0.515624999999965
40
0.531249999999965
40
0.531249999999965
40
0.562499999999966
40
0.562499999999966
40
0.578124999999967
40
0.578124999999967
40
0.593749999999967
40
0.593749999999967
40
0.624999999999969
40
0.624999999999969
40
0.65624999999997
40
0.65624999999997
40
0.66406249999997
40
0.66406249999997
40
0.671874999999971
40
0.671874999999971
40
0.687499999999972
40
0.687499999999972
40
0.695312499999973
40
0.695312499999973
40
0.703124999999973
40
0.703124999999973
40
0.718749999999974
40
0.718749999999974
40
0.726562499999975
40
0.726562499999975
40
0.734374999999976
40
0.734374999999976
40
0.749999999999977
40
0.749999999999977
40
0.757812499999977
40
0.757812499999977
40
0.765624999999978
40
0.765624999999978
40
0.781249999999978
40
0.781249999999978
40
0.789062499999979
40
0.789062499999979
40
0.79687499999998
40
0.79687499999998
40
0.812499999999981
40
0.812499999999981
40
0.828124999999983
40
0.828124999999983
40
0.835937499999983
40
0.835937499999983
40
0.843749999999984
40
0.843749999999984
40
0.874999999999987
40
0.874999999999987
40
0.906249999999991
40
0.906249999999991
40
0.921874999999992
40
0.921874999999992
40
0.937499999999994
40
0.937499999999994
40
0.968749999999997
40
0.968749999999997
40
1
40
1
40
1.03124999999999
40
1.03124999999999
41
1
10
43.75
20
-22.1388365699049
30
0
41
1
10
43.75
20
-22.5937019227851
30
0
41
1
10
43.7786653899034
20
-22.8110321152613
30
0
41
1
10
43.8960642418697
20
-23.2264000466085
30
0
41
1
10
43.9847285064215
20
-23.4244380521334
30
0
41
1
10
44.1384644808526
20
-23.6601441484827
30
0
41
1
10
44.171375310246
20
-23.7066918320709
30
0
41
1
10
44.2417448129758
20
-23.7985991550257
30
0
41
1
10
44.2791862992605
20
-23.8439099614984
30
0
41
1
10
44.3971996752511
20
-23.976511768496
30
0
41
1
10
44.4838402709247
20
-24.0610086652902
30
0
41
1
10
44.6734670986047
20
-24.2225597463388
30
0
41
1
10
44.7764503706024
20
-24.2996141413235
30
0
41
1
10
44.9996080429673
20
-24.4465141445375
30
0
41
1
10
45.1201331875863
20
-24.5165413206818
30
0
41
1
10
45.5073197008901
20
-24.7147805202412
30
0
41
1
10
45.7921928720264
20
-24.8278024133338
30
0
41
1
10
46.2603366485115
20
-24.972132936986
30
0
41
1
10
46.4232375422952
20
-25.0160070061169
30
0
41
1
10
46.6784739673051
20
-25.0755582094345
30
0
41
1
10
46.7655518186682
20
-25.0943890915252
30
0
41
1
10
46.9409447401578
20
-25.1294683805095
30
0
41
1
10
47.0295345320457
20
-25.1457869938561
30
0
41
1
10
47.4768915768434
20
-25.2215146810038
30
0
41
1
10
47.8487124668689
20
-25.263623739524
30
0
41
1
10
48.3316443320065
20
-25.294016296653
30
0
41
1
10
48.4293227140484
20
-25.2989620761608
30
0
41
1
10
48.6238143146602
20
-25.3064588850874
30
0
41
1
10
48.7209465299438
20
-25.3090345798464
30
0
41
1
10
49.0120086054647
20
-25.3133247349008
30
0
41
1
10
49.2056049890509
20
-25.3116185205016
30
0
41
1
10
49.5919133153526
20
-25.2991000868286
30
0
41
1
10
49.7846253287808
20
-25.2882891037823
30
0
41
1
10
50.1691344815272
20
-25.2570509216254
30
0
41
1
10
50.3576686223162
20
-25.2368693653135
30
0
41
1
10
50.7256134762122
20
-25.1876386922574
30
0
41
1
10
50.9053640967269
20
-25.1585606313947
30
0
41
1
10
51.1687197196864
20
-25.1079670835738
30
0
41
1
10
51.2554574487801
20
-25.0899363596353
30
0
41
1
10
51.4268196534843
20
-25.0514529339683
30
0
41
1
10
51.5117086950467
20
-25.0309284873767
30
0
41
1
10
51.9268973159044
20
-24.9229913058275
30
0
41
1
10
52.2296059035074
20
-24.8200615079361
30
0
41
1
10
52.5737690589535
20
-24.6689830314512
30
0
41
1
10
52.6408723857407
20
-24.637635066002
30
0
41
1
10
52.7716166459714
20
-24.57258686836
30
0
41
1
10
52.8352692109362
20
-24.5388646507589
30
0
41
1
10
53.0189655394483
20
-24.4352447317809
30
0
41
1
10
53.132535891854
20
-24.3625331113945
30
0
41
1
10
53.342973243334
20
-24.2096713653455
30
0
41
1
10
53.4398360316043
20
-24.1295206836911
30
0
41
1
10
53.6174431373018
20
-23.9614594100806
30
0
41
1
10
53.6985081854331
20
-23.8730955898262
30
0
41
1
10
53.9148134825519
20
-23.5997323455207
30
0
41
1
10
54.0238834083342
20
-23.4066153847882
30
0
41
1
10
54.1408309073121
20
-23.100095071042
30
0
41
1
10
54.1720061923537
20
-22.9949814610115
30
0
41
1
10
54.2189891487073
20
-22.7794835078454
30
0
41
1
10
54.2345952090672
20
-22.6701378264051
30
0
41
1
10
54.2594712827684
20
-22.3373231296625
30
0
41
1
10
54.2469607606348
20
-22.1090773315499
30
0
41
1
10
54.1878898376334
20
-21.7571896225424
30
0
41
1
10
54.1613159700363
20
-21.6378979407843
30
0
41
1
10
54.0953691739109
20
-21.3983849100018
30
0
41
1
10
54.0560883344932
20
-21.2782995568794
30
0
41
1
10
53.9200900468001
20
-20.9171847227788
30
0
41
1
10
53.8053795752485
20
-20.6752664700933
30
0
41
1
10
53.5973127024783
20
-20.3116197003529
30
0
41
1
10
53.5219173824974
20
-20.1902826690824
30
0
41
1
10
53.3585161393728
20
-19.9476383503296
30
0
41
1
10
53.2709340494996
20
-19.8270169878813
30
0
41
1
10
52.9925634078054
20
-19.4709760563872
30
0
41
1
10
52.7855131905064
20
-19.2399597959284
30
0
41
1
10
52.3231878258323
20
-18.7957455037147
30
0
41
1
10
52.0681591689675
20
-18.582396691531
30
0
41
1
10
51.7098784525494
20
-18.333383325229
30
0
41
1
10
51.6363328057874
20
-18.2845892581141
30
0
41
1
10
51.4866984845651
20
-18.1901948154136
30
0
41
1
10
51.4104169965717
20
-18.1444577141398
30
0
41
1
10
51.1769167309716
20
-18.0120017224302
30
0
41
1
10
51.01507112116
20
-17.9300058036341
30
0
41
1
10
50.7615438819408
20
-17.818461919745
30
0
41
1
10
50.6752351167363
20
-17.7831962584036
30
0
41
1
10
50.4986692440886
20
-17.7169397676343
30
0
41
1
10
50.408725651662
20
-17.6860905196463
30
0
41
1
10
50.136654676213
20
-17.6018436264898
30
0
41
1
10
49.9511874814277
20
-17.5562946724318
30
0
41
1
10
49.6662452260076
20
-17.5057879124029
30
0
41
1
10
49.5701382854312
20
-17.4919276669068
30
0
41
1
10
49.375533274042
20
-17.4705567086122
30
0
41
1
10
49.276972767192
20
-17.4630880382923
30
0
41
1
10
48.9837343721761
20
-17.4508983189384
30
0
41
1
10
48.7894746554456
20
-17.4561070346527
30
0
41
1
10
48.499874043902
20
-17.4832410676654
30
0
41
1
10
48.4036391480265
20
-17.4955092412358
30
0
41
1
10
48.2117622572289
20
-17.52641769748
30
0
41
1
10
48.1157746772975
20
-17.5451562731575
30
0
41
1
10
47.8333603562603
20
-17.609675452581
30
0
41
1
10
47.6512376526699
20
-17.6638228600259
30
0
41
1
10
47.3861096827922
20
-17.7593056511662
30
0
41
1
10
47.2990816868061
20
-17.7935192009986
30
0
41
1
10
47.127580655885
20
-17.8664039389994
30
0
41
1
10
47.0430228239318
20
-17.9051358972051
30
0
41
1
10
46.7961704998198
20
-18.0259627448824
30
0
41
1
10
46.6395039909736
20
-18.1131144592628
30
0
41
1
10
46.3395213172632
20
-18.2980262922561
30
0
41
1
10
46.1962189601073
20
-18.3957992667272
30
0
41
1
10
45.9901467560548
20
-18.549113617529
30
0
41
1
10
45.9229420876561
20
-18.6013328200147
30
0
41
1
10
45.7913732559284
20
-18.7078337931359
30
0
41
1
10
45.7269008139411
20
-18.7622179592257
30
0
41
1
10
45.4140434128411
20
-19.0365554593605
30
0
41
1
10
45.1918316524795
20
-19.2649815309181
30
0
41
1
10
44.7934713146474
20
-19.7330597241183
30
0
41
1
10
44.6174608670886
20
-19.9727896347582
30
0
41
1
10
44.3864515856431
20
-20.3385109805479
30
0
41
1
10
44.3153929847763
20
-20.4608865843266
30
0
41
1
10
44.186002717786
20
-20.7042334738993
30
0
41
1
10
44.1274683126351
20
-20.8255244442885
30
0
41
1
10
43.9701285105529
20
-21.1880041813008
30
0
41
1
10
43.8894235420895
20
-21.427780638607
30
0
41
1
10
43.7791928630178
20
-21.9028160564647
30
0
41
1
10
43.75
20
-22.1388365699049
30
0
41
1
10
43.75
20
-22.5937019227851
30
0
0
SPLINE
5
94
100
AcDbEntity
8
1
62
256
6
ByLayer
370
-1
48
1
60
0
100
AcDbSpline
70
4
71
3
72
14
73
10
40
0
40
0
40
0
40
0
40
0.25
40
0.25
40
0.5
40
0.5
40
0.75
40
0.75
40
1
40
1
40
1
40
1
41
1
10
30.7066978396986
20
49.2382574329377
30
0
41
1
10
30.3932329235167
20
48.6230997332191
30
0
41
1
10
30.0732483551743
20
47.9956908636385
30
0
41
1
10
29.4225190709356
20
46.7211083372868
30
0
41
1
10
29.091756548094
20
46.073899031759
30
0
41
1
10
28.4207880003285
20
44.7626004885635
30
0
41
1
10
28.0800093414286
20
44.0973957919679
30
0
41
1
10
27.3937956559152
20
42.7598017002631
30
0
41
1
10
27.0481124874108
20
42.0869235491552
30
0
41
1
10
26.7
20
41.4104411891229
30
0
0
SPLINE
5
95
100
AcDbEntity
8
1
62
256
6
ByLayer
370
-1
48
1
60
0
100
AcDbSpline
70
4
71
3
72
22
73
18
40
0
40
0
40
0
40
0
40
0.249999999999998
40
0.249999999999998
40
0.374999999999999
40
0.374999999999999
40
0.499999999999999
40
0.499999999999999
40
0.624999999999999
40
0.624999999999999
40
0.749999999999998
40
0.749999999999998
40
0.812499999999999
40
0.812499999999999
40
0.874999999999999
40
0.874999999999999
40
1
40
1
40
1
40
1
41
1
10
2.5
20
47.8666708263694
30
0
41
1
10
2.37778341542622
20
47.8298973401641
30
0
41
1
10
2.26157353585265
20
47.7717888581004
30
0
41
1
10
2.09543184882744
20
47.6555962851099
30
0
41
1
10
2.0410616277839
20
47.6115245156163
30
0
41
1
10
1.9375746012935
20
47.5146572304054
30
0
41
1
10
1.88849296712749
20
47.4620229078552
30
0
41
1
10
1.79597066142847
20
47.3478523262291
30
0
41
1
10
1.75251699927588
20
47.2863365674966
30
0
41
1
10
1.67227642887138
20
47.1527843244186
30
0
41
1
10
1.63536926131133
20
47.080250177774
30
0
41
1
10
1.58868890792496
20
46.9661432223094
30
0
41
1
10
1.57448364768086
20
46.92707356709
30
0
41
1
10
1.54916126159193
20
46.8465774469197
30
0
41
1
10
1.53798623914915
20
46.8048661903385
30
0
41
1
10
1.51051864139677
20
46.6780442100953
30
0
41
1
10
1.5
20
46.5909806895214
30
0
41
1
10
1.5
20
46.502044858264
30
0
0
SPLINE
5
96
100
AcDbEntity
8
1
62
256
6
ByLayer
370
-1
48
1
60
0
100
AcDbSpline
70
4
71
3
72
8
73
4
40
0
40
0
40
0
40
0
40
1
40
1
40
1
40
1
41
1
10
19.7
20
-41.0307574998743
30
0
41
1
10
18.3714421319525
20
-43.4551784833466
30
0
41
1
10
17.0348511416663
20
-45.8753070311504
30
0
41
1
10
15.6933021603014
20
-48.2926047754726
30
0
0
SPLINE
5
97
100
AcDbEntity
8
1
62
256
6
ByLayer
370
-1
48
1
60
0
100
AcDbSpline
70
4
71
3
72
16
73
12
40
0
40
0
40
0
40
0
40
0.25
40
0.25
40
0.5
40
0.5
40
0.625
40
0.625
40
0.75
40
0.75
40
1
40
1
40
1
40
1
41
1
10
26.7
20
-40.8788095743298
30
0
41
1
10
26.2646666192152
20
-40.8192017288215
30
0
41
1
10
25.8211590959429
20
-40.7653050796793
30
0
41
1
10
24.9181062918795
20
-40.6707008786442
30
0
41
1
10
24.45856001228
20
-40.6299905506825
30
0
41
1
10
23.7570030664401
20
-40.5801233079269
30
0
41
1
10
23.5211067048218
20
-40.5653673704142
30
0
41
1
10
23.045135105211
20
-40.5398116989483
30
0
41
1
10
22.8046299384053
20
-40.5289972899409
30
0
41
1
10
22.0796754405041
20
-40.5029367953199
30
0
41
1
10
21.5945194738086
20
-40.4941414744158
30
0
41
1
10
21.1075
20
-40.4941414744158
30
0
0
SPLINE
5
98
100
AcDbEntity
8
1
62
256
6
ByLayer
370
-1
48
1
60
0
100
AcDbSpline
70
4
71
3
72
8
73
4
40
0
40
0
40
0
40
0
40
1
40
1
40
1
40
1
41
1
10
19.7
20
41.0307574998743
30
0
41
1
10
18.3714007514526
20
43.4552539966191
30
0
41
1
10
17.0348424722869
20
45.8753226522508
30
0
41
1
10
15.6933021603014
20
48.2926047754726
30
0
0
SPLINE
5
99
100
AcDbEntity
8
1
62
256
6
ByLayer
370
-1
48
1
60
0
100
AcDbSpline
70
4
71
3
72
22
73
18
40
0
40
0
40
0
40
0
40
0.250000000000001
40
0.250000000000001
40
0.375000000000001
40
0.375000000000001
40
0.5
40
0.5
40
0.625
40
0.625
40
0.749999999999999
40
0.749999999999999
40
0.8125
40
0.8125
40
0.875
40
0.875
40
1
40
1
40
1
40
1
41
1
10
2.5
20
-47.8666708263694
30
0
41
1
10
2.37778341542619
20
-47.8298973401641
30
0
41
1
10
2.26157353585265
20
-47.7717888581004
30
0
41
1
10
2.09543184882742
20
-47.6555962851099
30
0
41
1
10
2.0410616277839
20
-47.6115245156163
30
0
41
1
10
1.9375746012935
20
-47.5146572304054
30
0
41
1
10
1.88849296712749
20
-47.4620229078552
30
0
41
1
10
1.79597066142847
20
-47.3478523262291
30
0
41
1
10
1.75251699927588
20
-47.2863365674966
30
0
41
1
10
1.67227642887138
20
-47.1527843244185
30
0
41
1
10
1.63536926131133
20
-47.080250177774
30
0
41
1
10
1.58868890792496
20
-46.9661432223094
30
0
41
1
10
1.57448364768086
20
-46.92707356709
30
0
41
1
10
1.54916126159193
20
-46.8465774469197
30
0
41
1
10
1.53798623914915
20
-46.8048661903385
30
0
41
1
10
1.51051864139677
20
-46.6780442100953
30
0
41
1
10
1.5
20
-46.5909806895214
30
0
41
1
10
1.5
20
-46.502044858264
30
0
0
SPLINE
5
9A
100
AcDbEntity
8
1
62
256
6
ByLayer
370
-1
48
1
60
0
100
AcDbSpline
70
4
71
3
72
20
73
16
40
0
40
0
40
0
40
0
40
0.125000000000001
40
0.125000000000001
40
0.187500000000001
40
0.187500000000001
40
0.25
40
0.25
40
0.5
40
0.5
40
0.625
40
0.625
40
0.75
40
0.75
40
1
40
1
40
1
40
1
41
1
10
30.7066978396986
20
-49.2382574329377
30
0
41
1
10
30.966101239432
20
-49.2888879369241
30
0
41
1
10
31.2126507693583
20
-49.3389819996974
30
0
41
1
10
31.5629268262177
20
-49.4124025612587
30
0
41
1
10
31.676422144032
20
-49.4365891809823
30
0
41
1
10
31.8967739556884
20
-49.4842316570173
30
0
41
1
10
32.0037067550713
20
-49.5077062503215
30
0
41
1
10
32.5162571771016
20
-49.6216921284919
30
0
41
1
10
32.8606407115819
20
-49.7030060935333
30
0
41
1
10
33.280939892128
20
-49.8048433581961
30
0
41
1
10
33.4048900732539
20
-49.8354360506472
30
0
41
1
10
33.6195885148398
20
-49.8890008568582
30
0
41
1
10
33.710380268501
20
-49.9119857290623
30
0
41
1
10
33.9270990420075
20
-49.9672343979241
30
0
41
1
10
34
20
-49.9863399656488
30
0
41
1
10
34
20
-49.9864989997299
30
0
0
SPLINE
5
9B
100
AcDbEntity
8
1
62
256
6
ByLayer
370
-1
48
1
60
0
100
AcDbSpline
70
4
71
3
72
14
73
10
40
0
40
0
40
0
40
0
40
0.25
40
0.25
40
0.5
40
0.5
40
0.75
40
0.75
40
1
40
1
40
1
40
1
41
1
10
30.7066978396986
20
-49.2382574329377
30
0
41
1
10
30.3932329235167
20
-48.6230997332191
30
0
41
1
10
30.0732483551743
20
-47.9956908636385
30
0
41
1
10
29.4225190709356
20
-46.7211083372868
30
0
41
1
10
29.091756548094
20
-46.073899031759
30
0
41
1
10
28.4207880003285
20
-44.7626004885635
30
0
41
1
10
28.0800093414286
20
-44.0973957919679
30
0
41
1
10
27.3937956559152
20
-42.7598017002631
30
0
41
1
10
27.0481124874108
20
-42.0869235491552
30
0
41
1
10
26.7
20
-41.4104411891229
30
0
0
SPLINE
5
9C
100
AcDbEntity
8
1
62
256
6
ByLayer
370
-1
48
1
60
0
100
AcDbSpline
70
4
71
3
72
16
73
12
40
0
40
0
40
0
40
0
40
0.25
40
0.25
40
0.5
40
0.5
40
0.625
40
0.625
40
0.75
40
0.75
40
1
40
1
40
1
40
1
41
1
10
26.7
20
40.8788095743298
30
0
41
1
10
26.2646666192152
20
40.8192017288215
30
0
41
1
10
25.8211590959429
20
40.7653050796793
30
0
41
1
10
24.9181062918795
20
40.6707008786442
30
0
41
1
10
24.45856001228
20
40.6299905506825
30
0
41
1
10
23.7570030664401
20
40.5801233079269
30
0
41
1
10
23.5211067048218
20
40.5653673704142
30
0
41
1
10
23.045135105211
20
40.5398116989483
30
0
41
1
10
22.8046299384053
20
40.5289972899409
30
0
41
1
10
22.0796754405041
20
40.5029367953199
30
0
41
1
10
21.5945194738087
20
40.4941414744158
30
0
41
1
10
21.1075
20
40.4941414744158
30
0
0
SPLINE
5
9D
100
AcDbEntity
8
1
62
256
6
ByLayer
370
-1
48
1
60
0
100
AcDbSpline
70
4
71
3
72
20
73
16
40
0
40
0
40
0
40
0
40
0.125000000000003
40
0.125000000000003
40
0.187500000000003
40
0.187500000000003
40
0.250000000000004
40
0.250000000000004
40
0.500000000000003
40
0.500000000000003
40
0.625000000000002
40
0.625000000000002
40
0.750000000000001
40
0.750000000000001
40
1
40
1
40
1
40
1
41
1
10
30.7066978396986
20
49.2382574329377
30
0
41
1
10
30.966101239432
20
49.2888879369241
30
0
41
1
10
31.2126507693583
20
49.3389819996974
30
0
41
1
10
31.5629268262177
20
49.4124025612587
30
0
41
1
10
31.676422144032
20
49.4365891809823
30
0
41
1
10
31.8967739556884
20
49.4842316570173
30
0
41
1
10
32.0037067550713
20
49.5077062503215
30
0
41
1
10
32.5162571771016
20
49.6216921284919
30
0
41
1
10
32.8606407115819
20
49.7030060935333
30
0
41
1
10
33.280939892128
20
49.8048433581961
30
0
41
1
10
33.4048900732539
20
49.8354360506472
30
0
41
1
10
33.6195885148398
20
49.8890008568582
30
0
41
1
10
33.710380268501
20
49.9119857290623
30
0
41
1
10
33.9270990420076
20
49.9672343979241
30
0
41
1
10
34
20
49.9863399656488
30
0
41
1
10
34
20
49.9864989997299
30
0
0
INSERT
5
C8
100
AcDbEntity
8
SK6
62
256
6
ByLayer
370
-1
48
1
60
0
100
AcDbBlockReference
2
LABLE3D_1
10
0
20
0
30
0
41
1
42
1
43
1
50
0
210
0
220
0
230
1
0
LINE
5
45
100
AcDbEntity
8
SK3
62
256
6
ByLayer
370
-1
48
0.05
60
0
100
AcDbLine
10
51
20
-8.5
30
0
11
51
21
8.5
31
0
39
0
210
0
220
0
230
1
0
LINE
5
47
100
AcDbEntity
8
SK3
62
256
6
ByLayer
370
-1
48
0.05
60
0
100
AcDbLine
10
52.5
20
-10
30
0
11
102
21
-10
31
0
39
0
210
0
220
0
230
1
0
LINE
5
48
100
AcDbEntity
8
4
62
256
6
ByLayer
370
-1
48
0.05
60
0
100
AcDbLine
10
102
20
0
30
0
11
0
21
0
31
0
39
0
210
0
220
0
230
1
0
LINE
5
4A
100
AcDbEntity
8
80
62
256
6
ByLayer
370
-1
48
1
60
0
100
AcDbLine
10
0
20
0
30
0
11
-10.875929
21
0
31
0
39
0
210
0
220
0
230
1
0
LINE
5
4B
100
AcDbEntity
8
SK3
62
256
6
ByLayer
370
-1
48
0.05
60
0
100
AcDbLine
10
51
20
8.5
30
0
11
52.5
21
10
31
0
39
0
210
0
220
0
230
1
0
LINE
5
4C
100
AcDbEntity
8
SK3
62
256
6
ByLayer
370
-1
48
0.05
60
0
100
AcDbLine
10
51
20
-8.5
30
0
11
52.5
21
-10
31
0
39
0
210
0
220
0
230
1
0
LINE
5
4D
100
AcDbEntity
8
SK3
62
256
6
ByLayer
370
-1
48
0.05
60
0
100
AcDbLine
10
52.5
20
10
30
0
11
52.5
21
-10
31
0
39
0
210
0
220
0
230
1
0
LINE
5
4E
100
AcDbEntity
8
SK3
62
256
6
ByLayer
370
-1
48
0.05
60
0
100
AcDbLine
10
102
20
10
30
0
11
52.5
21
10
31
0
39
0
210
0
220
0
230
1
0
LINE
5
4F
100
AcDbEntity
8
81
62
256
6
ByLayer
370
-1
48
1
60
0
100
AcDbLine
10
102
20
0
30
0
11
106.742527
21
0
31
0
39
0
210
0
220
0
230
1
0
LINE
5
50
100
AcDbEntity
8
SK4
62
256
6
ByLayer
370
-1
48
0.05
60
0
100
AcDbLine
10
-111.8
20
0
30
0
11
112
21
0
31
0
39
0
210
0
220
0
230
1
0
LINE
5
52
100
AcDbEntity
8
1
62
256
6
ByLayer
370
-1
48
1
60
0
100
AcDbLine
10
0
20
-34.925
30
0
11
0
21
34.925
31
0
39
0
210
0
220
0
230
1
0
LINE
5
54
100
AcDbEntity
8
1
62
256
6
ByLayer
370
-1
48
1
60
0
100
AcDbLine
10
34
20
49.986499
30
0
11
34
21
49.9865
31
0
39
0
210
0
220
0
230
1
0
LINE
5
55
100
AcDbEntity
8
1
62
256
6
ByLayer
370
-1
48
1
60
0
100
AcDbLine
10
37
20
-49.9865
30
0
11
37
21
49.9865
31
0
39
0
210
0
220
0
230
1
0
LINE
5
56
100
AcDbEntity
8
1
62
256
6
ByLayer
370
-1
48
1
60
0
100
AcDbLine
10
19.7
20
-41.030757
30
0
11
19.7
21
41.030757
31
0
39
0
210
0
220
0
230
1
0
LINE
5
57
100
AcDbEntity
8
1
62
256
6
ByLayer
370
-1
48
1
60
0
100
AcDbLine
10
21.1075
20
40.494141
30
0
11
19.7
21
40.494141
31
0
39
0
210
0
220
0
230
1
0
LINE
5
58
100
AcDbEntity
8
1
62
256
6
ByLayer
370
-1
48
1
60
0
100
AcDbLine
10
2.5
20
47.866671
30
0
11
2.5
21
-47.866671
31
0
39
0
210
0
220
0
230
1
0
LINE
5
59
100
AcDbEntity
8
1
62
256
6
ByLayer
370
-1
48
1
60
0
100
AcDbLine
10
4
20
48.292605
30
0
11
15.693302
21
48.292605
31
0
39
0
210
0
220
0
230
1
0
LINE
5
5A
100
AcDbEntity
8
1
62
256
6
ByLayer
370
-1
48
1
60
0
100
AcDbLine
10
30.706698
20
49.238257
30
0
11
30.706698
21
-49.238257
31
0
39
0
210
0
220
0
230
1
0
LINE
5
5B
100
AcDbEntity
8
1
62
256
6
ByLayer
370
-1
48
1
60
0
100
AcDbLine
10
1.5
20
-46.502045
30
0
11
1.5
21
46.502045
31
0
39
0
210
0
220
0
230
1
0
LINE
5
5C
100
AcDbEntity
8
1
62
256
6
ByLayer
370
-1
48
1
60
0
100
AcDbLine
10
1.3
20
34.625
30
0
11
1.3
21
-34.625
31
0
39
0
210
0
220
0
230
1
0
LINE
5
5D
100
AcDbEntity
8
1
62
256
6
ByLayer
370
-1
48
1
60
0
100
AcDbLine
10
0.428444
20
0
30
0
11
0.428444
21
-34.625
31
0
39
0
210
0
220
0
230
1
0
LINE
5
5E
100
AcDbEntity
8
1
62
256
6
ByLayer
370
-1
48
1
60
0
100
AcDbLine
10
0.428444
20
34.625
30
0
11
0.428444
21
0
31
0
39
0
210
0
220
0
230
1
0
LINE
5
5F
100
AcDbEntity
8
1
62
256
6
ByLayer
370
-1
48
1
60
0
100
AcDbLine
10
4
20
-48.292605
30
0
11
15.693302
21
-48.292605
31
0
39
0
210
0
220
0
230
1
0
LINE
5
60
100
AcDbEntity
8
1
62
256
6
ByLayer
370
-1
48
1
60
0
100
AcDbLine
10
85.584926
20
-27.305361
30
0
11
85.584926
21
0
31
0
39
0
210
0
220
0
230
1
0
LINE
5
61
100
AcDbEntity
8
1
62
256
6
ByLayer
370
-1
48
1
60
0
100
AcDbLine
10
85.584926
20
0
30
0
11
85.584926
21
27.305361
31
0
39
0
210
0
220
0
230
1
0
LINE
5
62
100
AcDbEntity
8
1
62
256
6
ByLayer
370
-1
48
1
60
0
100
AcDbLine
10
82.801464
20
-27.5
30
0
11
82.801464
21
27.5
31
0
39
0
210
0
220
0
230
1
0
LINE
5
63
100
AcDbEntity
8
1
62
256
6
ByLayer
370
-1
48
1
60
0
100
AcDbLine
10
100.967008
20
-25.143551
30
0
11
100.967008
21
25.143551
31
0
39
0
210
0
220
0
230
1
0
LINE
5
64
100
AcDbEntity
8
1
62
256
6
ByLayer
370
-1
48
1
60
0
100
AcDbLine
10
40.5
20
-27.5
30
0
11
40.5
21
0
31
0
39
0
210
0
220
0
230
1
0
LINE
5
65
100
AcDbEntity
8
1
62
256
6
ByLayer
370
-1
48
1
60
0
100
AcDbLine
10
40.5
20
0
30
0
11
40.5
21
27.5
31
0
39
0
210
0
220
0
230
1
0
LINE
5
66
100
AcDbEntity
8
1
62
256
6
ByLayer
370
-1
48
1
60
0
100
AcDbLine
10
26.7
20
-41.410441
30
0
11
26.7
21
41.410441
31
0
39
0
210
0
220
0
230
1
0
LINE
5
67
100
AcDbEntity
8
1
62
256
6
ByLayer
370
-1
48
1
60
0
100
AcDbLine
10
15.693302
20
-48.292605
30
0
11
15.693302
21
48.292605
31
0
39
0
210
0
220
0
230
1
0
LINE
5
68
100
AcDbEntity
8
1
62
256
6
ByLayer
370
-1
48
1
60
0
100
AcDbLine
10
102
20
-23.955229
30
0
11
102
21
23.955229
31
0
39
0
210
0
220
0
230
1
0
LINE
5
69
100
AcDbEntity
8
1
62
256
6
ByLayer
370
-1
48
1
60
0
100
AcDbLine
10
21.1075
20
-40.494141
30
0
11
19.7
21
-40.494141
31
0
39
0
210
0
220
0
230
1
0
LINE
5
6A
100
AcDbEntity
8
1
62
256
6
ByLayer
370
-1
48
1
60
0
100
AcDbLine
10
38
20
-48.9865
30
0
11
38
21
0
31
0
39
0
210
0
220
0
230
1
0
LINE
5
6B
100
AcDbEntity
8
1
62
256
6
ByLayer
370
-1
48
1
60
0
100
AcDbLine
10
38
20
0
30
0
11
38
21
48.9865
31
0
39
0
210
0
220
0
230
1
0
LINE
5
6C
100
AcDbEntity
8
SK1
62
256
6
ByLayer
370
-1
48
1
60
0
100
AcDbLine
10
0
20
-34.925
30
0
11
0
21
34.925
31
0
39
0
210
0
220
0
230
1
0
LINE
5
6E
100
AcDbEntity
8
SK1
62
256
6
ByLayer
370
-1
48
1
60
0
100
AcDbLine
10
-101.8
20
19.213284
30
0
11
-101.8
21
-19.213284
31
0
39
0
210
0
220
0
230
1
0
LINE
5
6F
100
AcDbEntity
8
SK1
62
256
6
ByLayer
370
-1
48
1
60
0
100
AcDbLine
10
-100.944318
20
-20.202815
30
0
11
-100.944318
21
0
31
0
39
0
210
0
220
0
230
1
0
LINE
5
70
100
AcDbEntity
8
SK1
62
256
6
ByLayer
370
-1
48
1
60
0
100
AcDbLine
10
-100.944318
20
0
30
0
11
-100.944318
21
20.202815
31
0
39
0
210
0
220
0
230
1
0
LINE
5
71
100
AcDbEntity
8
1
62
256
6
ByLayer
370
-1
48
1
60
0
100
AcDbLine
10
53.08
20
-24
30
0
11
44.92
21
-24
31
0
39
0
210
0
220
0
230
1
0
LINE
5
72
100
AcDbEntity
8
1
62
256
6
ByLayer
370
-1
48
1
60
0
100
AcDbLine
10
54
20
-23.08
30
0
11
44
21
-23.08
31
0
39
0
210
0
220
0
230
1
0
LINE
5
73
100
AcDbEntity
8
SK1
62
256
6
ByLayer
370
-1
48
1
60
0
100
AcDbLine
10
0
20
34.925
30
0
11
-100.944318
21
20.202815
31
0
39
0
210
0
220
0
230
1
0
LINE
5
74
100
AcDbEntity
8
SK1
62
256
6
ByLayer
370
-1
48
1
60
0
100
AcDbLine
10
-100.944318
20
-20.202815
30
0
11
0
21
-34.925
31
0
39
0
210
0
220
0
230
1
0
LINE
5
75
100
AcDbEntity
8
1
62
256
6
ByLayer
370
-1
48
1
60
0
100
AcDbLine
10
54
20
-23.08
30
0
11
54
21
-21.187783
31
0
39
0
210
0
220
0
230
1
0
LINE
5
76
100
AcDbEntity
8
1
62
256
6
ByLayer
370
-1
48
1
60
0
100
AcDbLine
10
44
20
-21.142261
30
0
11
44
21
-23.08
31
0
39
0
210
0
220
0
230
1
0
LINE
5
77
100
AcDbEntity
8
1
62
256
6
ByLayer
370
-1
48
1
60
0
100
AcDbLine
10
44
20
-23.08
30
0
11
44.92
21
-24
31
0
39
0
210
0
220
0
230
1
0
LINE
5
78
100
AcDbEntity
8
1
62
256
6
ByLayer
370
-1
48
1
60
0
100
AcDbLine
10
53.08
20
-24
30
0
11
54
21
-23.08
31
0
39
0
210
0
220
0
230
1
0
LINE
5
79
100
AcDbEntity
8
1
62
256
6
ByLayer
370
-1
48
1
60
0
100
AcDbLine
10
37
20
49.9865
30
0
11
34
21
49.9865
31
0
39
0
210
0
220
0
230
1
0
LINE
5
7A
100
AcDbEntity
8
1
62
256
6
ByLayer
370
-1
48
1
60
0
100
AcDbLine
10
34
20
-49.9865
30
0
11
37
21
-49.9865
31
0
39
0
210
0
220
0
230
1
0
LINE
5
7B
100
AcDbEntity
8
1
62
256
6
ByLayer
370
-1
48
1
60
0
100
AcDbLine
10
0
20
-34.925
30
0
11
0.428444
21
-34.625
31
0
39
0
210
0
220
0
230
1
0
LINE
5
7C
100
AcDbEntity
8
1
62
256
6
ByLayer
370
-1
48
1
60
0
100
AcDbLine
10
0.428444
20
34.625
30
0
11
0
21
34.925
31
0
39
0
210
0
220
0
230
1
0
LINE
5
7D
100
AcDbEntity
8
1
62
256
6
ByLayer
370
-1
48
1
60
0
100
AcDbLine
10
1.3
20
34.625
30
0
11
0.428444
21
34.625
31
0
39
0
210
0
220
0
230
1
0
LINE
5
7E
100
AcDbEntity
8
1
62
256
6
ByLayer
370
-1
48
1
60
0
100
AcDbLine
10
0.428444
20
-34.625
30
0
11
1.3
21
-34.625
31
0
39
0
210
0
220
0
230
1
0
LINE
5
7F
100
AcDbEntity
8
1
62
256
6
ByLayer
370
-1
48
1
60
0
100
AcDbLine
10
82.801464
20
27.5
30
0
11
40.5
21
27.5
31
0
39
0
210
0
220
0
230
1
0
LINE
5
80
100
AcDbEntity
8
1
62
256
6
ByLayer
370
-1
48
1
60
0
100
AcDbLine
10
40.5
20
-27.5
30
0
11
82.801464
21
-27.5
31
0
39
0
210
0
220
0
230
1
0
LINE
5
81
100
AcDbEntity
8
1
62
256
6
ByLayer
370
-1
48
1
60
0
100
AcDbLine
10
85.584926
20
-27.305361
30
0
11
100.967008
21
-25.143551
31
0
39
0
210
0
220
0
230
1
0
LINE
5
82
100
AcDbEntity
8
1
62
256
6
ByLayer
370
-1
48
1
60
0
100
AcDbLine
10
100.967008
20
25.143551
30
0
11
85.584926
21
27.305361
31
0
39
0
210
0
220
0
230
1
0
LINE
5
83
100
AcDbEntity
8
1
62
256
6
ByLayer
370
-1
48
1
60
0
100
AcDbLine
10
44.92
20
-24
30
0
11
44.92
21
-21.142125
31
0
39
0
210
0
220
0
230
1
0
LINE
5
84
100
AcDbEntity
8
1
62
256
6
ByLayer
370
-1
48
1
60
0
100
AcDbLine
10
53.08
20
-24
30
0
11
53.08
21
-21.187688
31
0
39
0
210
0
220
0
230
1
0
MTEXT
5
CB
100
AcDbEntity
8
SK6
62
256
6
ByLayer
370
-1
48
1
60
0
100
AcDbMText
10
-105.938158
20
57.3615
30
0
210
0
220
0
230
1
1
\W01.000;\fsimplex.shx,bigfont.shx;  
40
3.5
41
0
44
1.084337
50
0
71
7
72
5
7
DEFAULT
0
MTEXT
5
CC
100
AcDbEntity
8
SK6
62
256
6
ByLayer
370
-1
48
1
60
0
100
AcDbMText
10
-147.882895
20
57.3615
30
0
210
0
220
0
230
1
1
\W00.800;\fsimplex.shx,bigfont.shx;MAS-BT50 Big-Plus 
40
3.5
41
0
44
1.084337
50
0
71
7
72
5
7
DEFAULT
0
MTEXT
5
CD
100
AcDbEntity
8
SK6
62
256
6
ByLayer
370
-1
48
1
60
0
100
AcDbMText
10
-22.125
20
-70.3615
30
0
210
0
220
0
230
1
1
\W00.712;\fsimplex.shx,bigfont.shx;930-BB50-HD-20-102 
40
3.5
41
0
44
1.084337
50
0
71
7
72
5
7
DEFAULT
0
DIMENSION
5
D8
100
AcDbEntity
8
SK2
62
256
6
ByLayer
370
-3
48
1
60
0
100
AcDbDimension
2
DimnDraft3D1
10
102
20
-68.5865
30
0
11
88.617763
21
-68.5865
31
0
70
32
71
5
72
1
41
1
210
0
220
0
230
1
3
Standard
100
AcDbAlignedDimension
13
84.2
23
-29.0875
33
0
14
102
24
-29.0875
34
0
50
0
100
AcDbRotatedDimension
1001
ACAD
1000
DSTYLE
1002
{
1070
   279
1070
     0
1070
   172
1070
     1
1070
   173
1070
     1
1070
   340
1005
A0
1070
   271
1070
     1
1070
   272
1070
     2
1070
    77
1070
     1
1070
    73
1070
     0
1070
   171
1070
     3
1070
   274
1070
     4
1070
   177
1070
     2
1070
   176
1070
     2
1070
   178
1070
     2
1070
    78
1070
     8
1070
    48
1040
-0.005
1070
    41
1041
4.5
1070
   147
1041
2.25
1070
    42
1041
1.5875
1070
    44
1041
2.0
1070
   140
1041
4.5
1070
   343
1005
0
1070
   344
1005
0
1002
}
0
DIMENSION
5
E3
100
AcDbEntity
8
2
62
256
6
ByLayer
370
-3
48
1
60
0
100
AcDbDimension
2
DimnDraft3D2
10
102
20
89.0865
30
0
11
47.281579
21
89.0865
31
0
70
32
71
5
72
1
41
1
210
0
220
0
230
1
3
Standard
100
AcDbAlignedDimension
13
0
23
36.5125
33
0
14
102
24
29.0875
34
0
50
0
100
AcDbRotatedDimension
1001
ACAD
1000
DSTYLE
1002
{
1070
   279
1070
     0
1070
   172
1070
     1
1070
   173
1070
     1
1070
   340
1005
A0
1070
   271
1070
     1
1070
   272
1070
     2
1070
    77
1070
     1
1070
    73
1070
     0
1070
   171
1070
     3
1070
   274
1070
     4
1070
   177
1070
     2
1070
   176
1070
     2
1070
   178
1070
     2
1070
    78
1070
     8
1070
    48
1040
-0.005
1070
    41
1041
4.5
1070
   147
1041
2.25
1070
    42
1041
1.5875
1070
    44
1041
2.0
1070
   140
1041
4.5
1070
   343
1005
0
1070
   344
1005
0
1002
}
0
DIMENSION
5
ED
100
AcDbEntity
8
SK2
62
256
6
ByLayer
370
-3
48
1
60
0
100
AcDbDimension
2
DimnDraft3D3
10
38
20
69.0865
30
0
11
16.371053
21
69.0865
31
0
70
32
71
5
72
1
41
1
210
0
220
0
230
1
3
Standard
100
AcDbAlignedDimension
13
0
23
36.5125
33
0
14
38
24
51.574
34
0
50
0
100
AcDbRotatedDimension
1001
ACAD
1000
DSTYLE
1002
{
1070
   279
1070
     0
1070
   172
1070
     1
1070
   173
1070
     1
1070
   340
1005
A0
1070
   271
1070
     2
1070
   272
1070
     2
1070
    77
1070
     1
1070
    73
1070
     0
1070
   171
1070
     3
1070
   274
1070
     4
1070
   177
1070
     2
1070
   176
1070
     2
1070
   178
1070
     2
1070
    78
1070
     8
1070
    48
1040
-0.005
1070
    41
1041
4.5
1070
   147
1041
2.25
1070
    42
1041
1.5875
1070
    44
1041
2.0
1070
   140
1041
4.5
1070
   343
1005
0
1070
   344
1005
0
1002
}
0
DIMENSION
5
F7
100
AcDbEntity
8
SK2
62
256
6
ByLayer
370
-3
48
1
60
0
100
AcDbDimension
2
DimnDraft3D4
10
-101.8
20
89.0865
30
0
11
-56.471711
21
89.0865
31
0
70
32
71
5
72
1
41
1
210
0
220
0
230
1
3
Standard
100
AcDbAlignedDimension
13
0
23
36.5125
33
0
14
-101.8
24
13.7875
34
0
50
0
100
AcDbRotatedDimension
1001
ACAD
1000
DSTYLE
1002
{
1070
   279
1070
     0
1070
   172
1070
     1
1070
   173
1070
     1
1070
   340
1005
A0
1070
   271
1070
     1
1070
   272
1070
     2
1070
    77
1070
     1
1070
    73
1070
     0
1070
   171
1070
     3
1070
   274
1070
     4
1070
   177
1070
     2
1070
   176
1070
     2
1070
   178
1070
     2
1070
    78
1070
     8
1070
    48
1040
-0.005
1070
    41
1041
4.5
1070
   147
1041
2.25
1070
    42
1041
1.5875
1070
    44
1041
2.0
1070
   140
1041
4.5
1070
   343
1005
0
1070
   344
1005
0
1002
}
0
DIMENSION
5
101
100
AcDbEntity
8
SK2
62
256
6
ByLayer
370
-3
48
1
60
0
100
AcDbDimension
2
DimnDraft3D5
10
51
20
-78.5865
30
0
11
56.883553
21
-78.5865
31
0
70
32
71
5
72
1
41
1
210
0
220
0
230
1
3
Standard
100
AcDbAlignedDimension
13
102
23
-11.5875
33
0
14
51
24
-11.5875
34
0
50
0
100
AcDbRotatedDimension
1001
ACAD
1000
DSTYLE
1002
{
1070
   279
1070
     0
1070
   172
1070
     1
1070
   173
1070
     1
1070
   340
1005
A0
1070
   271
1070
     0
1070
   272
1070
     2
1070
    77
1070
     1
1070
    73
1070
     0
1070
   171
1070
     3
1070
   274
1070
     4
1070
   177
1070
     2
1070
   176
1070
     2
1070
   178
1070
     2
1070
    78
1070
     8
1070
    48
1040
-0.005
1070
    41
1041
4.5
1070
   147
1041
2.25
1070
    42
1041
1.5875
1070
    44
1041
2.0
1070
   140
1041
4.5
1070
   343
1005
0
1070
   344
1005
0
1002
}
0
DIMENSION
5
10C
100
AcDbEntity
8
SK2
62
256
6
ByLayer
370
-3
48
1
60
0
100
AcDbDimension
2
DimnDraft3D6
10
160.25
20
27.5
30
0
11
160.25
21
-7.878947
31
0
70
32
71
5
72
1
41
1
210
0
220
0
230
1
3
Standard
100
AcDbAlignedDimension
13
85.7875
23
-27.5
33
0
14
85.7875
24
27.5
34
0
50
90
100
AcDbRotatedDimension
1001
ACAD
1000
DSTYLE
1002
{
1070
    74
1070
     0
1070
   279
1070
     0
1070
   172
1070
     1
1070
   173
1070
     1
1070
   340
1005
A0
1070
   271
1070
     1
1070
   272
1070
     2
1070
    77
1070
     1
1070
    73
1070
     0
1070
   171
1070
     3
1070
   274
1070
     4
1070
   177
1070
     2
1070
   176
1070
     2
1070
   178
1070
     2
1070
    78
1070
     8
1070
    48
1040
-0.005
1070
    41
1041
4.5
1070
   147
1041
2.25
1070
    42
1041
1.5875
1070
    44
1041
2.0
1070
   140
1041
4.5
1070
   343
1005
0
1070
   344
1005
0
1002
}
0
DIMENSION
5
117
100
AcDbEntity
8
SK2
62
256
6
ByLayer
370
-3
48
1
60
0
100
AcDbDimension
2
DimnDraft3D7
10
144.25
20
-10
30
0
11
144.25
21
-7.878947
31
0
70
32
71
5
72
1
41
1
210
0
220
0
230
1
3
Standard
100
AcDbAlignedDimension
13
103.5875
23
10
33
0
14
103.5875
24
-10
34
0
50
90
100
AcDbRotatedDimension
1001
ACAD
1000
DSTYLE
1002
{
1070
    74
1070
     0
1070
   279
1070
     0
1070
   172
1070
     1
1070
   173
1070
     1
1070
   340
1005
A0
1070
   271
1070
     1
1070
   272
1070
     2
1070
    77
1070
     1
1070
    73
1070
     0
1070
   171
1070
     3
1070
   274
1070
     4
1070
   177
1070
     2
1070
   176
1070
     2
1070
   178
1070
     2
1070
    78
1070
     8
1070
    48
1040
-0.005
1070
    41
1041
4.5
1070
   147
1041
2.25
1070
    42
1041
1.5875
1070
    44
1041
2.0
1070
   140
1041
4.5
1070
   343
1005
0
1070
   344
1005
0
1002
}
0
ENDSEC
0
SECTION
2
OBJECTS
0
DICTIONARY
5
149
330
0
100
AcDbDictionary
280
0
281
1
3
ACAD_GROUP
350
14a
3
ACAD_MLINESTYLE
350
14b
0
DICTIONARY
5
14a
330
0
100
AcDbDictionary
280
0
281
1
0
DICTIONARY
5
14b
330
0
100
AcDbDictionary
280
0
281
1
3
Standard
350
18
0
MLINESTYLE
5
18
330
14b
100
AcDbMlineStyle
2
Standard
70
0
3

62
256
51
90
52
90
71
2
49
-0.5
62
256
6
ByLayer
49
0.5
62
256
6
ByLayer
0
RASTERVARIABLES
5
136
330

100
AcDbRasterVariables
90
0
70
1
71
1
72
1
0
ENDSEC
0
EOF
