0
SECTION
2
HEADER
9
$ACADVER
1
AC1015
9
$DWGCODEPAGE
3
ANSI_1252
9
$HANDSEED
5
178
9
$ANGBASE
50
0
9
$ANGDIR
70
0
9
$ATTMODE
70
1
9
$AUNITS
70
0
9
$AUPREC
70
0
9
$CECOLOR
62
256
9
$CELTSCALE
40
1
9
$CELTYPE
6
ByLayer
9
$CELWEIGHT
370
-1
9
$CLAYER
8
0
9
$CMLJUST
70
0
9
$CMLSCALE
40
1
9
$CMLSTYLE
2
Standard
9
$DIMSTYLE
2
Standard
9
$TEXTSIZE
40
0.2
9
$TEXTSTYLE
7
Standard
9
$LUNITS
70
2
9
$LUPREC
70
4
9
$EXTNAMES
290
1
9
$INSUNITS
70
4
9
$LTSCALE
40
1
9
$LWDISPLAY
290
0
9
$PDMODE
70
0
9
$PDSIZE
40
0
9
$PLINEGEN
70
0
0
ENDSEC
0
SECTION
2
CLASSES
0
CLASS
1
RASTERVARIABLES
2
AcDbRasterVariables
3
ISM
90
0
280
0
281
0
0
ENDSEC
0
SECTION
2
TABLES
0
TABLE
2
VPORT
5
16e
100
AcDbSymbolTable
0
VPORT
5
1
100
AcDbSymbolTableRecord
100
AcDbViewportTableRecord
2
*Active
70
0
10
0
20
0
11
1
21
1
12
-1
22
1
13
0
23
0
14
0.5
24
0.5
15
10
25
10
16
0
26
0
36
1
17
0
27
0
37
0
0
ENDTAB
0
TABLE
2
LTYPE
5
16f
100
AcDbSymbolTable
0
LTYPE
5
14
100
AcDbSymbolTableRecord
100
AcDbLinetypeTableRecord
70
0
2
ByBlock
3

72
65
73
0
40
0
0
LTYPE
5
15
100
AcDbSymbolTableRecord
100
AcDbLinetypeTableRecord
70
0
2
ByLayer
3

72
65
73
0
40
0
0
LTYPE
5
16
100
AcDbSymbolTableRecord
100
AcDbLinetypeTableRecord
70
0
2
CONTINUOUS
3
Solid line
72
65
73
0
40
0
0
LTYPE
5
3B
100
AcDbSymbolTableRecord
100
AcDbLinetypeTableRecord
70
0
2
DASHED
3
__ __ __ __ __ __ __ __ __
72
65
73
2
40
25.72
49
12.86
74
0
49
-12.86
74
0
0
LTYPE
5
3C
100
AcDbSymbolTableRecord
100
AcDbLinetypeTableRecord
70
0
2
HIDDEN
3
_ _ _ _ _ _ _ _ _ _ _ _ _ _ _
72
65
73
2
40
0.5
49
0.25
74
0
49
-0.25
74
0
0
LTYPE
5
3D
100
AcDbSymbolTableRecord
100
AcDbLinetypeTableRecord
70
0
2
PHANTOM
3
____ _ _ ____ _ _ _____ _ _ ____
72
65
73
6
40
50.5
49
18
74
0
49
-6.5
74
0
49
6.5
74
0
49
-6.5
74
0
49
6.5
74
0
49
-6.5
74
0
0
LTYPE
5
3E
100
AcDbSymbolTableRecord
100
AcDbLinetypeTableRecord
70
0
2
CENTER
3
____ _ ____ _ ____ _ ____
72
65
73
4
40
47.5
49
22
74
0
49
-8.5
74
0
49
8.5
74
0
49
-8.5
74
0
0
LTYPE
5
3F
100
AcDbSymbolTableRecord
100
AcDbLinetypeTableRecord
70
0
2
DOT
3
.........................
72
65
73
2
40
10
49
0
74
0
49
-10
74
0
0
LTYPE
5
40
100
AcDbSymbolTableRecord
100
AcDbLinetypeTableRecord
70
0
2
DASHDOT
3
_._._._._._._._._._._._._._._._.
72
65
73
4
40
70
49
31
74
0
49
-13
74
0
49
13
74
0
49
-13
74
0
0
ENDTAB
0
TABLE
2
LAYER
5
170
100
AcDbSymbolTable
0
LAYER
5
10
100
AcDbSymbolTableRecord
100
AcDbLayerTableRecord
2
0
70
0
62
7
6
CONTINUOUS
290
1
370
-3
390
0
0
LAYER
5
42
100
AcDbSymbolTableRecord
100
AcDbLayerTableRecord
2
80
70
0
62
-6
6
CONTINUOUS
290
1
370
-3
390
0
0
LAYER
5
44
100
AcDbSymbolTableRecord
100
AcDbLayerTableRecord
2
81
70
0
62
-3
6
CONTINUOUS
290
1
370
-3
390
0
0
LAYER
5
49
100
AcDbSymbolTableRecord
100
AcDbLayerTableRecord
2
4
70
0
62
-2
6
CENTER
290
1
370
-3
390
0
0
LAYER
5
53
100
AcDbSymbolTableRecord
100
AcDbLayerTableRecord
2
1
70
0
62
4
6
CONTINUOUS
290
1
370
-3
390
0
0
LAYER
5
DD
100
AcDbSymbolTableRecord
100
AcDbLayerTableRecord
2
2
70
0
62
7
6
CONTINUOUS
290
1
370
-3
390
0
0
LAYER
5
159
100
AcDbSymbolTableRecord
100
AcDbLayerTableRecord
2
SK3
70
0
62
1
6
DASHED
290
1
370
-3
390
0
0
LAYER
5
15a
100
AcDbSymbolTableRecord
100
AcDbLayerTableRecord
2
SK4
70
0
62
2
6
CENTER
290
1
370
-3
390
0
0
LAYER
5
15b
100
AcDbSymbolTableRecord
100
AcDbLayerTableRecord
2
SK1
70
0
62
4
6
CONTINUOUS
290
1
370
-3
390
0
0
LAYER
5
15c
100
AcDbSymbolTableRecord
100
AcDbLayerTableRecord
2
SK6
70
0
62
5
6
CONTINUOUS
290
1
370
-3
390
0
0
LAYER
5
15d
100
AcDbSymbolTableRecord
100
AcDbLayerTableRecord
2
SK2
70
0
62
7
6
CONTINUOUS
290
1
370
-3
390
0
0
ENDTAB
0
TABLE
2
STYLE
5
171
100
AcDbSymbolTable
0
STYLE
5
11
100
AcDbSymbolTableRecord
100
AcDbTextStyleTableRecord
2
Standard
3
txt
70
0
71
0
40
0
41
1
42
0
50
0
0
STYLE
5
AD
100
AcDbSymbolTableRecord
100
AcDbTextStyleTableRecord
2
DEFAULT
3
simplex.shx
70
0
71
0
40
0
41
1
42
0
50
0
0
STYLE
5
D0
100
AcDbSymbolTableRecord
100
AcDbTextStyleTableRecord
2
DWGDirectTextStyle
3
SIMPLEX
70
0
71
0
40
0
41
1
42
0
50
0
0
ENDTAB
0
TABLE
2
DIMSTYLE
5
172
100
AcDbSymbolTable
100
AcDbDimStyleTable
0
DIMSTYLE
105
27
100
AcDbSymbolTableRecord
100
AcDbDimStyleTableRecord
2
Standard
70
0
3
<>
41
0.18
42
0.0625
44
0.18
140
0.18
147
0.09
73
0
74
0
77
1
271
2
275
0
278
52
280
0
340
11
0
ENDTAB
0
TABLE
2
VIEW
5
173
100
AcDbSymbolTable
0
ENDTAB
0
TABLE
2
UCS
5
174
100
AcDbSymbolTable
0
ENDTAB
0
TABLE
2
APPID
5
175
100
AcDbSymbolTable
0
APPID
5
12
100
AcDbSymbolTableRecord
100
AcDbRegAppTableRecord
2
ACAD
70
0
0
ENDTAB
0
TABLE
2
BLOCK_RECORD
5
176
100
AcDbSymbolTable
0
BLOCK_RECORD
5
1F
100
AcDbSymbolTableRecord
100
AcDbBlockTableRecord
2
*Model_Space
340
0
70
0
0
BLOCK_RECORD
5
1B
100
AcDbSymbolTableRecord
100
AcDbBlockTableRecord
2
*Paper_Space
340
0
70
0
0
BLOCK_RECORD
5
23
100
AcDbSymbolTableRecord
100
AcDbBlockTableRecord
2
*Paper_Space0
340
0
70
0
0
BLOCK_RECORD
5
AB
100
AcDbSymbolTableRecord
100
AcDbBlockTableRecord
2
LABLE3D_1
340
0
70
0
0
BLOCK_RECORD
5
DB
100
AcDbSymbolTableRecord
100
AcDbBlockTableRecord
2
DimnDraft3D1
340
0
70
0
0
BLOCK_RECORD
5
E6
100
AcDbSymbolTableRecord
100
AcDbBlockTableRecord
2
DimnDraft3D2
340
0
70
0
0
BLOCK_RECORD
5
F1
100
AcDbSymbolTableRecord
100
AcDbBlockTableRecord
2
DimnDraft3D3
340
0
70
0
0
BLOCK_RECORD
5
FB
100
AcDbSymbolTableRecord
100
AcDbBlockTableRecord
2
DimnDraft3D4
340
0
70
0
0
BLOCK_RECORD
5
105
100
AcDbSymbolTableRecord
100
AcDbBlockTableRecord
2
DimnDraft3D5
340
0
70
0
0
BLOCK_RECORD
5
10F
100
AcDbSymbolTableRecord
100
AcDbBlockTableRecord
2
DimnDraft3D6
340
0
70
0
0
BLOCK_RECORD
5
119
100
AcDbSymbolTableRecord
100
AcDbBlockTableRecord
2
DimnDraft3D7
340
0
70
0
0
BLOCK_RECORD
5
124
100
AcDbSymbolTableRecord
100
AcDbBlockTableRecord
2
DimnDraft3D8
340
0
70
0
0
BLOCK_RECORD
5
12F
100
AcDbSymbolTableRecord
100
AcDbBlockTableRecord
2
DimnDraft3D9
340
0
70
0
0
ENDTAB
0
ENDSEC
0
SECTION
2
BLOCKS
0
BLOCK
5
20
100
AcDbEntity
8
0
100
AcDbBlockBegin
2
*Model_Space
70
0
10
0
20
0
30
0
3
*Model_Space
0
ENDBLK
5
21
100
AcDbEntity
8
0
100
AcDbBlockEnd
0
BLOCK
5
1C
100
AcDbEntity
8
0
100
AcDbBlockBegin
2
*Paper_Space
70
0
10
0
20
0
30
0
3
*Paper_Space
0
ENDBLK
5
1D
100
AcDbEntity
8
0
100
AcDbBlockEnd
0
BLOCK
5
24
100
AcDbEntity
8
0
100
AcDbBlockBegin
2
*Paper_Space0
70
0
10
0
20
0
30
0
3
*Paper_Space0
0
ENDBLK
5
25
100
AcDbEntity
8
0
100
AcDbBlockEnd
0
BLOCK
5
D6
100
AcDbEntity
8
0
100
AcDbBlockBegin
2
LABLE3D_1
70
0
10
0
20
0
30
0
3
LABLE3D_1
0
MTEXT
5
AC
100
AcDbEntity
8
SK6
62
256
6
ByLayer
370
-1
48
1
60
0
100
AcDbMText
10
-68.525
20
38.8635
30
0
210
0
220
0
230
1
1
\W01.000;\fsimplex.shx,bigfont.shx; 
40
3.5
41
0
44
1.084337
50
0
71
7
72
5
7
DEFAULT
0
LINE
5
D2
100
AcDbEntity
8
SK6
62
256
6
ByLayer
370
-1
48
1
60
0
100
AcDbLine
10
-67.9
20
41.4885
30
0
11
-60.823077
21
41.4885
31
0
39
0
210
0
220
0
230
1
0
LINE
5
D3
100
AcDbEntity
8
SK6
62
256
6
ByLayer
370
-1
48
1
60
0
100
AcDbLine
10
-35.373827
20
17.06583
30
0
11
-60.823077
21
41.4885
31
0
39
0
210
0
220
0
230
1
0
SOLID
5
D4
100
AcDbEntity
8
SK6
62
256
6
ByLayer
370
-1
48
1
60
0
100
AcDbTrace
10
-35.373827
20
17.06583
30
0
11
-39.311377
21
19.461853
31
0
12
-37.92986
22
20.901451
32
0
13
-35.373827
23
17.06583
33
0
39
0
210
0
220
0
230
1
0
ENDBLK
5
D7
100
AcDbEntity
8
0
100
AcDbBlockEnd
0
BLOCK
5
E3
100
AcDbEntity
8
0
100
AcDbBlockBegin
2
DimnDraft3D1
70
0
10
0
20
0
30
0
3
DimnDraft3D1
0
MTEXT
5
DC
100
AcDbEntity
8
2
62
256
6
ByLayer
370
-1
48
1
60
0
100
AcDbMText
10
45.259211
20
71.7135
30
0
210
0
220
0
230
1
1
\W01.000;\fsimplex.shx,bigfont.shx;94 
40
4.5
41
0
44
1.084337
50
0
71
7
72
5
7
DEFAULT
0
LINE
5
DE
100
AcDbEntity
8
2
62
256
6
ByLayer
370
-1
48
1
60
0
100
AcDbLine
10
0
20
33.076
30
0
11
0
21
72.5885
31
0
39
0
210
0
220
0
230
1
0
LINE
5
DF
100
AcDbEntity
8
2
62
256
6
ByLayer
370
-1
48
1
60
0
100
AcDbLine
10
94
20
22.5875
30
0
11
94
21
72.5885
31
0
39
0
210
0
220
0
230
1
0
LINE
5
E0
100
AcDbEntity
8
2
62
256
6
ByLayer
370
-1
48
1
60
0
100
AcDbLine
10
0
20
70.5885
30
0
11
94
21
70.5885
31
0
39
0
210
0
220
0
230
1
0
SOLID
5
E1
100
AcDbEntity
8
2
62
256
6
ByLayer
370
-1
48
1
60
0
100
AcDbTrace
10
0
20
70.5885
30
0
11
4.499996
21
71.586126
31
0
12
4.500004
22
69.590874
32
0
13
0
23
70.5885
33
0
39
0
210
0
220
0
230
1
0
SOLID
5
E2
100
AcDbEntity
8
2
62
256
6
ByLayer
370
-1
48
1
60
0
100
AcDbTrace
10
94
20
70.5885
30
0
11
89.500004
21
69.590874
31
0
12
89.499996
22
71.586126
32
0
13
94
23
70.5885
33
0
39
0
210
0
220
0
230
1
0
ENDBLK
5
E4
100
AcDbEntity
8
0
100
AcDbBlockEnd
0
BLOCK
5
EE
100
AcDbEntity
8
0
100
AcDbBlockBegin
2
DimnDraft3D2
70
0
10
0
20
0
30
0
3
DimnDraft3D2
0
MTEXT
5
E7
100
AcDbEntity
8
SK2
62
256
6
ByLayer
370
-1
48
1
60
0
100
AcDbMText
10
85.058553
20
-38.9635
30
0
210
0
220
0
230
1
1
\W01.000;\fsimplex.shx,bigfont.shx;16 
40
4.5
41
0
44
1.084337
50
0
71
7
72
5
7
DEFAULT
0
LINE
5
E9
100
AcDbEntity
8
SK2
62
256
6
ByLayer
370
-1
48
1
60
0
100
AcDbLine
10
78
20
-22.5875
30
0
11
78
21
-42.0885
31
0
39
0
210
0
220
0
230
1
0
LINE
5
EA
100
AcDbEntity
8
SK2
62
256
6
ByLayer
370
-1
48
1
60
0
100
AcDbLine
10
94
20
-22.5875
30
0
11
94
21
-42.0885
31
0
39
0
210
0
220
0
230
1
0
LINE
5
EB
100
AcDbEntity
8
SK2
62
256
6
ByLayer
370
-1
48
1
60
0
100
AcDbLine
10
66.75
20
-40.0885
30
0
11
105.25
21
-40.0885
31
0
39
0
210
0
220
0
230
1
0
SOLID
5
EC
100
AcDbEntity
8
SK2
62
256
6
ByLayer
370
-1
48
1
60
0
100
AcDbTrace
10
78
20
-40.0885
30
0
11
73.500004
21
-41.086126
31
0
12
73.499996
22
-39.090874
32
0
13
78
23
-40.0885
33
0
39
0
210
0
220
0
230
1
0
SOLID
5
ED
100
AcDbEntity
8
SK2
62
256
6
ByLayer
370
-1
48
1
60
0
100
AcDbTrace
10
94
20
-40.0885
30
0
11
98.499996
21
-39.090874
31
0
12
98.500004
22
-41.086126
32
0
13
94
23
-40.0885
33
0
39
0
210
0
220
0
230
1
0
ENDBLK
5
EF
100
AcDbEntity
8
0
100
AcDbBlockEnd
0
BLOCK
5
F8
100
AcDbEntity
8
0
100
AcDbBlockBegin
2
DimnDraft3D3
70
0
10
0
20
0
30
0
3
DimnDraft3D3
0
MTEXT
5
F2
100
AcDbEntity
8
SK2
62
256
6
ByLayer
370
-1
48
1
60
0
100
AcDbMText
10
11.996053
20
51.7135
30
0
210
0
220
0
230
1
1
\W01.000;\fsimplex.shx,bigfont.shx;27 
40
4.5
41
0
44
1.084337
50
0
71
7
72
5
7
DEFAULT
0
LINE
5
F3
100
AcDbEntity
8
SK2
62
256
6
ByLayer
370
-1
48
1
60
0
100
AcDbLine
10
0
20
23.8125
30
0
11
0
21
52.5885
31
0
39
0
210
0
220
0
230
1
0
LINE
5
F4
100
AcDbEntity
8
SK2
62
256
6
ByLayer
370
-1
48
1
60
0
100
AcDbLine
10
27
20
33.076
30
0
11
27
21
52.5885
31
0
39
0
210
0
220
0
230
1
0
LINE
5
F5
100
AcDbEntity
8
SK2
62
256
6
ByLayer
370
-1
48
1
60
0
100
AcDbLine
10
0
20
50.5885
30
0
11
27
21
50.5885
31
0
39
0
210
0
220
0
230
1
0
SOLID
5
F6
100
AcDbEntity
8
SK2
62
256
6
ByLayer
370
-1
48
1
60
0
100
AcDbTrace
10
0
20
50.5885
30
0
11
4.499996
21
51.586126
31
0
12
4.500004
22
49.590874
32
0
13
0
23
50.5885
33
0
39
0
210
0
220
0
230
1
0
SOLID
5
F7
100
AcDbEntity
8
SK2
62
256
6
ByLayer
370
-1
48
1
60
0
100
AcDbTrace
10
27
20
50.5885
30
0
11
22.500004
21
49.590874
31
0
12
22.499996
22
51.586126
32
0
13
27
23
50.5885
33
0
39
0
210
0
220
0
230
1
0
ENDBLK
5
F9
100
AcDbEntity
8
0
100
AcDbBlockEnd
0
BLOCK
5
102
100
AcDbEntity
8
0
100
AcDbBlockBegin
2
DimnDraft3D4
70
0
10
0
20
0
30
0
3
DimnDraft3D4
0
MTEXT
5
FC
100
AcDbEntity
8
SK2
62
256
6
ByLayer
370
-1
48
1
60
0
100
AcDbMText
10
67.558553
20
51.7135
30
0
210
0
220
0
230
1
1
\W01.000;\fsimplex.shx,bigfont.shx;51 
40
4.5
41
0
44
1.084337
50
0
71
7
72
5
7
DEFAULT
0
LINE
5
FD
100
AcDbEntity
8
SK2
62
256
6
ByLayer
370
-1
48
1
60
0
100
AcDbLine
10
94
20
22.5875
30
0
11
94
21
52.5885
31
0
39
0
210
0
220
0
230
1
0
LINE
5
FE
100
AcDbEntity
8
SK2
62
256
6
ByLayer
370
-1
48
1
60
0
100
AcDbLine
10
43
20
22.5875
30
0
11
43
21
52.5885
31
0
39
0
210
0
220
0
230
1
0
LINE
5
FF
100
AcDbEntity
8
SK2
62
256
6
ByLayer
370
-1
48
1
60
0
100
AcDbLine
10
94
20
50.5885
30
0
11
43
21
50.5885
31
0
39
0
210
0
220
0
230
1
0
SOLID
5
100
100
AcDbEntity
8
SK2
62
256
6
ByLayer
370
-1
48
1
60
0
100
AcDbTrace
10
94
20
50.5885
30
0
11
89.500004
21
49.590874
31
0
12
89.499996
22
51.586126
32
0
13
94
23
50.5885
33
0
39
0
210
0
220
0
230
1
0
SOLID
5
101
100
AcDbEntity
8
SK2
62
256
6
ByLayer
370
-1
48
1
60
0
100
AcDbTrace
10
43
20
50.5885
30
0
11
47.499996
21
51.586126
31
0
12
47.500004
22
49.590874
32
0
13
43
23
50.5885
33
0
39
0
210
0
220
0
230
1
0
ENDBLK
5
103
100
AcDbEntity
8
0
100
AcDbBlockEnd
0
BLOCK
5
10C
100
AcDbEntity
8
0
100
AcDbBlockBegin
2
DimnDraft3D5
70
0
10
0
20
0
30
0
3
DimnDraft3D5
0
MTEXT
5
106
100
AcDbEntity
8
SK2
62
256
6
ByLayer
370
-1
48
1
60
0
100
AcDbMText
10
-36.856579
20
71.7135
30
0
210
0
220
0
230
1
1
\W01.000;\fsimplex.shx,bigfont.shx;65,4 
40
4.5
41
0
44
1.084337
50
0
71
7
72
5
7
DEFAULT
0
LINE
5
107
100
AcDbEntity
8
SK2
62
256
6
ByLayer
370
-1
48
1
60
0
100
AcDbLine
10
0
20
23.8125
30
0
11
0
21
72.5885
31
0
39
0
210
0
220
0
230
1
0
LINE
5
108
100
AcDbEntity
8
SK2
62
256
6
ByLayer
370
-1
48
1
60
0
100
AcDbLine
10
-65.4
20
13.7875
30
0
11
-65.4
21
72.5885
31
0
39
0
210
0
220
0
230
1
0
LINE
5
109
100
AcDbEntity
8
SK2
62
256
6
ByLayer
370
-1
48
1
60
0
100
AcDbLine
10
0
20
70.5885
30
0
11
-65.4
21
70.5885
31
0
39
0
210
0
220
0
230
1
0
SOLID
5
10A
100
AcDbEntity
8
SK2
62
256
6
ByLayer
370
-1
48
1
60
0
100
AcDbTrace
10
0
20
70.5885
30
0
11
-4.499996
21
69.590874
31
0
12
-4.500004
22
71.586126
32
0
13
0
23
70.5885
33
0
39
0
210
0
220
0
230
1
0
SOLID
5
10B
100
AcDbEntity
8
SK2
62
256
6
ByLayer
370
-1
48
1
60
0
100
AcDbTrace
10
-65.4
20
70.5885
30
0
11
-60.900004
21
71.586126
31
0
12
-60.899996
22
69.590874
32
0
13
-65.4
23
70.5885
33
0
39
0
210
0
220
0
230
1
0
ENDBLK
5
10D
100
AcDbEntity
8
0
100
AcDbBlockEnd
0
BLOCK
5
116
100
AcDbEntity
8
0
100
AcDbBlockBegin
2
DimnDraft3D6
70
0
10
0
20
0
30
0
3
DimnDraft3D6
0
MTEXT
5
110
100
AcDbEntity
8
SK2
62
256
6
ByLayer
370
-1
48
1
60
0
100
AcDbMText
10
50.008553
20
-48.9635
30
0
210
0
220
0
230
1
1
\W01.000;\fsimplex.shx,bigfont.shx;min 41-max 51 
40
4.5
41
0
44
1.084337
50
0
71
7
72
5
7
DEFAULT
0
LINE
5
111
100
AcDbEntity
8
SK2
62
256
6
ByLayer
370
-1
48
1
60
0
100
AcDbLine
10
43
20
-11.5875
30
0
11
43
21
-52.0885
31
0
39
0
210
0
220
0
230
1
0
LINE
5
112
100
AcDbEntity
8
SK2
62
256
6
ByLayer
370
-1
48
1
60
0
100
AcDbLine
10
94
20
-11.5875
30
0
11
94
21
-52.0885
31
0
39
0
210
0
220
0
230
1
0
LINE
5
113
100
AcDbEntity
8
SK2
62
256
6
ByLayer
370
-1
48
1
60
0
100
AcDbLine
10
31.75
20
-50.0885
30
0
11
105.25
21
-50.0885
31
0
39
0
210
0
220
0
230
1
0
SOLID
5
114
100
AcDbEntity
8
SK2
62
256
6
ByLayer
370
-1
48
1
60
0
100
AcDbTrace
10
43
20
-50.0885
30
0
11
38.500004
21
-51.086126
31
0
12
38.499996
22
-49.090874
32
0
13
43
23
-50.0885
33
0
39
0
210
0
220
0
230
1
0
SOLID
5
115
100
AcDbEntity
8
SK2
62
256
6
ByLayer
370
-1
48
1
60
0
100
AcDbTrace
10
94
20
-50.0885
30
0
11
98.499996
21
-49.090874
31
0
12
98.500004
22
-51.086126
32
0
13
94
23
-50.0885
33
0
39
0
210
0
220
0
230
1
0
ENDBLK
5
117
100
AcDbEntity
8
0
100
AcDbBlockEnd
0
BLOCK
5
121
100
AcDbEntity
8
0
100
AcDbBlockBegin
2
DimnDraft3D7
70
0
10
0
20
0
30
0
3
DimnDraft3D7
0
MTEXT
5
11A
100
AcDbEntity
8
SK2
62
256
6
ByLayer
370
-1
48
1
60
0
100
AcDbMText
10
156.25
20
3.509211
30
0
210
0
220
0
230
1
1
\W01.000;\fsimplex.shx,bigfont.shx;42 
40
4.5
41
0
44
1.084337
50
90
71
7
72
5
7
DEFAULT
0
MTEXT
5
11B
100
AcDbEntity
8
SK2
62
256
6
ByLayer
370
-1
48
1
60
0
100
AcDbMText
10
156
20
-7.240789
30
0
210
0
220
0
230
1
1
\W01.000;\fsimplex.shx,bigfont.shx;%%c 
40
3.5
41
0
44
1.084337
50
90
71
7
72
5
7
DEFAULT
0
LINE
5
11C
100
AcDbEntity
8
SK2
62
256
6
ByLayer
370
-1
48
1
60
0
100
AcDbLine
10
95.5875
20
-21
30
0
11
160.25
21
-21
31
0
39
0
210
0
220
0
230
1
0
LINE
5
11D
100
AcDbEntity
8
SK2
62
256
6
ByLayer
370
-1
48
1
60
0
100
AcDbLine
10
95.5875
20
21
30
0
11
160.25
21
21
31
0
39
0
210
0
220
0
230
1
0
LINE
5
11E
100
AcDbEntity
8
SK2
62
256
6
ByLayer
370
-1
48
1
60
0
100
AcDbLine
10
158.25
20
-21
30
0
11
158.25
21
21
31
0
39
0
210
0
220
0
230
1
0
SOLID
5
11F
100
AcDbEntity
8
SK2
62
256
6
ByLayer
370
-1
48
1
60
0
100
AcDbTrace
10
158.25
20
-21
30
0
11
157.252374
21
-16.500004
31
0
12
159.247626
22
-16.499996
32
0
13
158.25
23
-21
33
0
39
0
210
0
220
0
230
1
0
SOLID
5
120
100
AcDbEntity
8
SK2
62
256
6
ByLayer
370
-1
48
1
60
0
100
AcDbTrace
10
158.25
20
21
30
0
11
159.247626
21
16.500004
31
0
12
157.252374
22
16.499996
32
0
13
158.25
23
21
33
0
39
0
210
0
220
0
230
1
0
ENDBLK
5
122
100
AcDbEntity
8
0
100
AcDbBlockEnd
0
BLOCK
5
12C
100
AcDbEntity
8
0
100
AcDbBlockBegin
2
DimnDraft3D8
70
0
10
0
20
0
30
0
3
DimnDraft3D8
0
MTEXT
5
125
100
AcDbEntity
8
SK2
62
256
6
ByLayer
370
-1
48
1
60
0
100
AcDbMText
10
144.25
20
3.746053
30
0
210
0
220
0
230
1
1
\W01.000;\fsimplex.shx,bigfont.shx;20 
40
4.5
41
0
44
1.084337
50
90
71
7
72
5
7
DEFAULT
0
MTEXT
5
126
100
AcDbEntity
8
SK2
62
256
6
ByLayer
370
-1
48
1
60
0
100
AcDbMText
10
144
20
-7.003947
30
0
210
0
220
0
230
1
1
\W01.000;\fsimplex.shx,bigfont.shx;%%c 
40
3.5
41
0
44
1.084337
50
90
71
7
72
5
7
DEFAULT
0
LINE
5
127
100
AcDbEntity
8
SK2
62
256
6
ByLayer
370
-1
48
1
60
0
100
AcDbLine
10
95.5875
20
10
30
0
11
148.25
21
10
31
0
39
0
210
0
220
0
230
1
0
LINE
5
128
100
AcDbEntity
8
SK2
62
256
6
ByLayer
370
-1
48
1
60
0
100
AcDbLine
10
95.5875
20
-10
30
0
11
148.25
21
-10
31
0
39
0
210
0
220
0
230
1
0
LINE
5
129
100
AcDbEntity
8
SK2
62
256
6
ByLayer
370
-1
48
1
60
0
100
AcDbLine
10
146.25
20
21.25
30
0
11
146.25
21
-21.25
31
0
39
0
210
0
220
0
230
1
0
SOLID
5
12A
100
AcDbEntity
8
SK2
62
256
6
ByLayer
370
-1
48
1
60
0
100
AcDbTrace
10
146.25
20
10
30
0
11
145.252374
21
14.499996
31
0
12
147.247626
22
14.500004
32
0
13
146.25
23
10
33
0
39
0
210
0
220
0
230
1
0
SOLID
5
12B
100
AcDbEntity
8
SK2
62
256
6
ByLayer
370
-1
48
1
60
0
100
AcDbTrace
10
146.25
20
-10
30
0
11
147.247626
21
-14.499996
31
0
12
145.252374
22
-14.500004
32
0
13
146.25
23
-10
33
0
39
0
210
0
220
0
230
1
0
ENDBLK
5
12D
100
AcDbEntity
8
0
100
AcDbBlockEnd
0
BLOCK
5
137
100
AcDbEntity
8
0
100
AcDbBlockBegin
2
DimnDraft3D9
70
0
10
0
20
0
30
0
3
DimnDraft3D9
0
MTEXT
5
130
100
AcDbEntity
8
SK2
62
256
6
ByLayer
370
-1
48
1
60
0
100
AcDbMText
10
176.25
20
3.746053
30
0
210
0
220
0
230
1
1
\W01.000;\fsimplex.shx,bigfont.shx;50 
40
4.5
41
0
44
1.084337
50
90
71
7
72
5
7
DEFAULT
0
MTEXT
5
131
100
AcDbEntity
8
SK2
62
256
6
ByLayer
370
-1
48
1
60
0
100
AcDbMText
10
176
20
-7.003947
30
0
210
0
220
0
230
1
1
\W01.000;\fsimplex.shx,bigfont.shx;%%c 
40
3.5
41
0
44
1.084337
50
90
71
7
72
5
7
DEFAULT
0
LINE
5
132
100
AcDbEntity
8
SK2
62
256
6
ByLayer
370
-1
48
1
60
0
100
AcDbLine
10
44.5875
20
25
30
0
11
180.25
21
25
31
0
39
0
210
0
220
0
230
1
0
LINE
5
133
100
AcDbEntity
8
SK2
62
256
6
ByLayer
370
-1
48
1
60
0
100
AcDbLine
10
44.5875
20
-25
30
0
11
180.25
21
-25
31
0
39
0
210
0
220
0
230
1
0
LINE
5
134
100
AcDbEntity
8
SK2
62
256
6
ByLayer
370
-1
48
1
60
0
100
AcDbLine
10
178.25
20
25
30
0
11
178.25
21
-25
31
0
39
0
210
0
220
0
230
1
0
SOLID
5
135
100
AcDbEntity
8
SK2
62
256
6
ByLayer
370
-1
48
1
60
0
100
AcDbTrace
10
178.25
20
25
30
0
11
179.247626
21
20.500004
31
0
12
177.252374
22
20.499996
32
0
13
178.25
23
25
33
0
39
0
210
0
220
0
230
1
0
SOLID
5
136
100
AcDbEntity
8
SK2
62
256
6
ByLayer
370
-1
48
1
60
0
100
AcDbTrace
10
178.25
20
-25
30
0
11
177.252374
21
-20.500004
31
0
12
179.247626
22
-20.499996
32
0
13
178.25
23
-25
33
0
39
0
210
0
220
0
230
1
0
ENDBLK
5
138
100
AcDbEntity
8
0
100
AcDbBlockEnd
0
ENDSEC
0
SECTION
2
ENTITIES
0
ARC
5
8E
100
AcDbEntity
8
SK1
62
256
6
ByLayer
370
-1
48
1
60
0
100
AcDbCircle
39
0
10
-64.4
20
11.821868
30
0
40
1
210
0
220
0
230
1
100
AcDbArc
50
98.297917
51
180
0
ARC
5
8F
100
AcDbEntity
8
SK1
62
256
6
ByLayer
370
-1
48
1
60
0
100
AcDbCircle
39
0
10
-64.4
20
-11.821868
30
0
40
1
210
0
220
0
230
1
100
AcDbArc
50
180
51
261.702083
0
ARC
5
90
100
AcDbEntity
8
1
62
256
6
ByLayer
370
-1
48
1
60
0
100
AcDbCircle
39
0
10
26
20
-30.4885
30
0
40
1
210
0
220
0
230
1
100
AcDbArc
50
270
51
0
0
ARC
5
91
100
AcDbEntity
8
1
62
256
6
ByLayer
370
-1
48
1
60
0
100
AcDbCircle
39
0
10
26
20
30.4885
30
0
40
1
210
0
220
0
230
1
100
AcDbArc
50
0
51
90
0
ARC
5
92
100
AcDbEntity
8
1
62
256
6
ByLayer
370
-1
48
1
60
0
100
AcDbCircle
39
0
10
-28
20
-26
30
0
40
1
210
0
220
0
230
-1
100
AcDbArc
50
0
51
90
0
ARC
5
93
100
AcDbEntity
8
1
62
256
6
ByLayer
370
-1
48
1
60
0
100
AcDbCircle
39
0
10
-28
20
26
30
0
40
1
210
0
220
0
230
-1
100
AcDbArc
50
270
51
0
0
ARC
5
94
100
AcDbEntity
8
1
62
256
6
ByLayer
370
-1
48
1
60
0
100
AcDbCircle
39
0
10
40.843912
20
24
30
0
40
1
210
0
220
0
230
1
100
AcDbArc
50
20
51
90
0
ARC
5
95
100
AcDbEntity
8
1
62
256
6
ByLayer
370
-1
48
1
60
0
100
AcDbCircle
39
0
10
40.843912
20
-24
30
0
40
1
210
0
220
0
230
1
100
AcDbArc
50
270
51
340
0
ARC
5
96
100
AcDbEntity
8
1
62
256
6
ByLayer
370
-1
48
1
60
0
100
AcDbCircle
39
0
10
-44.750519
20
-23.5
30
0
40
2.5
210
0
220
0
230
-1
100
AcDbArc
50
20
51
90
0
ARC
5
97
100
AcDbEntity
8
1
62
256
6
ByLayer
370
-1
48
1
60
0
100
AcDbCircle
39
0
10
-44.750519
20
23.5
30
0
40
2.5
210
0
220
0
230
-1
100
AcDbArc
50
270
51
340
0
ARC
5
98
100
AcDbEntity
8
1
62
256
6
ByLayer
370
-1
48
1
60
0
100
AcDbCircle
39
0
10
-0.8
20
-22.425
30
0
40
0.5
210
0
220
0
230
-1
100
AcDbArc
50
90
51
113.578588
0
ARC
5
99
100
AcDbEntity
8
1
62
256
6
ByLayer
370
-1
48
1
60
0
100
AcDbCircle
39
0
10
-0.8
20
22.425
30
0
40
0.5
210
0
220
0
230
-1
100
AcDbArc
50
246.421412
51
270
0
ARC
5
9A
100
AcDbEntity
8
1
62
256
6
ByLayer
370
-1
48
1
60
0
100
AcDbCircle
39
0
10
76.776748
20
1
30
0
40
20
210
0
220
0
230
1
100
AcDbArc
50
83
51
90
0
ARC
5
9B
100
AcDbEntity
8
1
62
256
6
ByLayer
370
-1
48
1
60
0
100
AcDbCircle
39
0
10
76.776748
20
-1
30
0
40
20
210
0
220
0
230
1
100
AcDbArc
50
270
51
277
0
ARC
5
9C
100
AcDbEntity
8
1
62
256
6
ByLayer
370
-1
48
1
60
0
100
AcDbCircle
39
0
10
92.8
20
-17.973777
30
0
40
1.2
210
0
220
0
230
1
100
AcDbArc
50
277
51
0
0
ARC
5
9D
100
AcDbEntity
8
1
62
256
6
ByLayer
370
-1
48
1
60
0
100
AcDbCircle
39
0
10
92.8
20
17.973777
30
0
40
1.2
210
0
220
0
230
1
100
AcDbArc
50
0
51
83
0
ELLIPSE
5
9E
100
AcDbEntity
8
1
62
256
6
ByLayer
370
-1
48
1
60
0
100
AcDbEllipse
10
10.594998
20
-6E-06
30
0
11
30.3492693058824
21
-8.39328874309606
31
0
210
0
220
0
230
1
40
1
41
-1.5774487989791
42
-1.56098093343872
0
ELLIPSE
5
9F
100
AcDbEntity
8
1
62
256
6
ByLayer
370
-1
48
1
60
0
100
AcDbEllipse
10
10.594998
20
6E-06
30
0
11
30.3492693058825
21
8.39328874309602
31
0
210
0
220
0
230
1
40
1
41
1.56098093343872
42
1.57744879897911
0
POINT
5
41
100
AcDbEntity
8
80
62
256
6
ByLayer
370
-1
48
1
60
0
100
AcDbPoint
10
0
20
0
30
0
39
0
210
0
220
0
230
1
50
360
0
POINT
5
43
100
AcDbEntity
8
81
62
256
6
ByLayer
370
-1
48
1
60
0
100
AcDbPoint
10
94
20
0
30
0
39
0
210
0
220
0
230
1
50
360
0
SPLINE
5
A0
100
AcDbEntity
8
1
62
256
6
ByLayer
370
-1
48
1
60
0
100
AcDbSpline
70
4
71
3
72
14
73
10
40
0
40
0
40
0
40
0
40
0.25
40
0.25
40
0.5
40
0.5
40
0.75
40
0.75
40
1
40
1
40
1
40
1
41
1
10
21.6121244936907
20
-31.1595762985737
30
0
41
1
10
21.4232830465229
20
-30.7866916465256
30
0
41
1
10
21.2267776656221
20
-30.3989111806456
30
0
41
1
10
20.8218877159037
20
-29.6005264978513
30
0
41
1
10
20.6128221573118
20
-29.1885823046998
30
0
41
1
10
20.1896590035668
20
-28.3555310704718
30
0
41
1
10
19.9751559153815
20
-27.9336219084014
30
0
41
1
10
19.5411836705927
20
-27.0809278934795
30
0
41
1
10
19.3217082654444
20
-26.6501303016001
30
0
41
1
10
19.1
20
-26.2154855563485
30
0
0
SPLINE
5
A1
100
AcDbEntity
8
1
62
256
6
ByLayer
370
-1
48
1
60
0
100
AcDbSpline
70
4
71
3
72
14
73
10
40
0
40
0
40
0
40
0
40
0.25
40
0.25
40
0.5
40
0.5
40
0.75
40
0.75
40
1
40
1
40
1
40
1
41
1
10
21.6121244936907
20
31.1595762985737
30
0
41
1
10
21.4232830465229
20
30.7866916465256
30
0
41
1
10
21.2267776656221
20
30.3989111806456
30
0
41
1
10
20.8218877159037
20
29.6005264978513
30
0
41
1
10
20.6128221573118
20
29.1885823046998
30
0
41
1
10
20.1896590035668
20
28.3555310704718
30
0
41
1
10
19.9751559153815
20
27.9336219084014
30
0
41
1
10
19.5411836705927
20
27.0809278934795
30
0
41
1
10
19.3217082654444
20
26.6501303016001
30
0
41
1
10
19.1
20
26.2154855563485
30
0
0
SPLINE
5
A2
100
AcDbEntity
8
1
62
256
6
ByLayer
370
-1
48
1
60
0
100
AcDbSpline
70
4
71
3
72
18
73
14
40
0
40
0
40
0
40
0
40
0.125000000000001
40
0.125000000000001
40
0.250000000000001
40
0.250000000000001
40
0.500000000000002
40
0.500000000000002
40
0.625000000000001
40
0.625000000000001
40
0.750000000000001
40
0.750000000000001
40
1
40
1
40
1
40
1
41
1
10
21.6121244936907
20
31.1595762985737
30
0
41
1
10
21.7243880241935
20
31.1837583586325
30
0
41
1
10
21.8308264208118
20
31.207271037413
30
0
41
1
10
22.0292467326254
20
31.2519526259515
30
0
41
1
10
22.1216827783911
20
31.2732189927505
30
0
41
1
10
22.3789736082912
20
31.3333486816157
30
0
41
1
10
22.523924954989
20
31.3685473537848
30
0
41
1
10
22.7006445541076
20
31.4122194946719
30
0
41
1
10
22.7528508950066
20
31.4252835657036
30
0
41
1
10
22.8426177216711
20
31.4479178656058
30
0
41
1
10
22.879968744676
20
31.4574339151934
30
0
41
1
10
22.9697385703788
20
31.4804328073055
30
0
41
1
10
23
20
31.4883697891511
30
0
41
1
10
23
20
31.4884984121187
30
0
0
SPLINE
5
A3
100
AcDbEntity
8
1
62
256
6
ByLayer
370
-1
48
1
60
0
100
AcDbSpline
70
4
71
3
72
8
73
4
40
0
40
0
40
0
40
0
40
1
40
1
40
1
40
1
41
1
10
14.1
20
25.8788351685465
30
0
41
1
10
13.2669284058015
20
27.3983488177734
30
0
41
1
10
12.4289425320743
20
28.9151338831969
30
0
41
1
10
11.5878755063094
20
30.4301923630134
30
0
0
SPLINE
5
A4
100
AcDbEntity
8
1
62
256
6
ByLayer
370
-1
48
1
60
0
100
AcDbSpline
70
4
71
3
72
18
73
14
40
0
40
0
40
0
40
0
40
0.125
40
0.125
40
0.25
40
0.25
40
0.5
40
0.5
40
0.625
40
0.625
40
0.75
40
0.75
40
1
40
1
40
1
40
1
41
1
10
21.6121244936907
20
-31.1595762985737
30
0
41
1
10
21.7243880241935
20
-31.1837583586325
30
0
41
1
10
21.8308264208118
20
-31.207271037413
30
0
41
1
10
22.0292467326254
20
-31.2519526259515
30
0
41
1
10
22.1216827783911
20
-31.2732189927505
30
0
41
1
10
22.3789736082912
20
-31.3333486816157
30
0
41
1
10
22.523924954989
20
-31.3685473537848
30
0
41
1
10
22.7006445541076
20
-31.4122194946719
30
0
41
1
10
22.7528508950066
20
-31.4252835657036
30
0
41
1
10
22.8426177216711
20
-31.4479178656058
30
0
41
1
10
22.879968744676
20
-31.4574339151934
30
0
41
1
10
22.9697385703787
20
-31.4804328073055
30
0
41
1
10
23
20
-31.4883697891511
30
0
41
1
10
23
20
-31.4884984121187
30
0
0
SPLINE
5
A5
100
AcDbEntity
8
1
62
256
6
ByLayer
370
-1
48
1
60
0
100
AcDbSpline
70
4
71
3
72
116
73
112
40
-0.0312499999999997
40
-0.0312499999999997
40
0
40
0
40
0.0312499999999983
40
0.0312499999999983
40
0.0624999999999966
40
0.0624999999999966
40
0.0781249999999957
40
0.0781249999999957
40
0.0937499999999949
40
0.0937499999999949
40
0.124999999999993
40
0.124999999999993
40
0.140624999999992
40
0.140624999999992
40
0.156249999999992
40
0.156249999999992
40
0.18749999999999
40
0.18749999999999
40
0.203124999999989
40
0.203124999999989
40
0.218749999999989
40
0.218749999999989
40
0.234374999999988
40
0.234374999999988
40
0.249999999999988
40
0.249999999999988
40
0.265624999999987
40
0.265624999999987
40
0.273437499999987
40
0.273437499999987
40
0.281249999999987
40
0.281249999999987
40
0.312499999999987
40
0.312499999999987
40
0.328124999999987
40
0.328124999999987
40
0.343749999999988
40
0.343749999999988
40
0.359374999999988
40
0.359374999999988
40
0.367187499999988
40
0.367187499999988
40
0.374999999999988
40
0.374999999999988
40
0.406249999999989
40
0.406249999999989
40
0.421874999999989
40
0.421874999999989
40
0.43749999999999
40
0.43749999999999
40
0.468749999999991
40
0.468749999999991
40
0.484374999999992
40
0.484374999999992
40
0.499999999999992
40
0.499999999999992
40
0.531249999999994
40
0.531249999999994
40
0.546874999999994
40
0.546874999999994
40
0.554687499999995
40
0.554687499999995
40
0.562499999999995
40
0.562499999999995
40
0.593749999999996
40
0.593749999999996
40
0.609374999999997
40
0.609374999999997
40
0.624999999999997
40
0.624999999999997
40
0.656249999999999
40
0.656249999999999
40
0.671875
40
0.671875
40
0.6875
40
0.6875
40
0.718750000000002
40
0.718750000000002
40
0.726562500000002
40
0.726562500000002
40
0.734375000000002
40
0.734375000000002
40
0.750000000000002
40
0.750000000000002
40
0.765625000000003
40
0.765625000000003
40
0.773437500000003
40
0.773437500000003
40
0.781250000000003
40
0.781250000000003
40
0.812500000000002
40
0.812500000000002
40
0.828125000000002
40
0.828125000000002
40
0.843750000000002
40
0.843750000000002
40
0.859375000000002
40
0.859375000000002
40
0.875000000000002
40
0.875000000000002
40
0.906250000000001
40
0.906250000000001
40
0.921875000000001
40
0.921875000000001
40
0.937500000000001
40
0.937500000000001
40
0.953125000000001
40
0.953125000000001
40
0.96875
40
0.96875
40
1
40
1
40
1.03125
40
1.03125
41
1
10
29.75
20
-22.3689735770985
30
0
41
1
10
29.75
20
-22.0269721837477
30
0
41
1
10
29.7808118367499
20
-21.8516038646982
30
0
41
1
10
29.897169414056
20
-21.4928356821103
30
0
41
1
10
29.9827580809529
20
-21.3094312274767
30
0
41
1
10
30.1518430597583
20
-21.0291187891908
30
0
41
1
10
30.2152014910297
20
-20.9345912722457
30
0
41
1
10
30.3553665736649
20
-20.7449833198463
30
0
41
1
10
30.4315098401823
20
-20.65075765397
30
0
41
1
10
30.6778460022029
20
-20.370262601346
30
0
41
1
10
30.8657376530849
20
-20.1861018942244
30
0
41
1
10
31.1854982948819
20
-19.9169915079185
30
0
41
1
10
31.2984535378123
20
-19.8284923204688
30
0
41
1
10
31.5382379394257
20
-19.654655296318
30
0
41
1
10
31.6639063242046
20
-19.570194465134
30
0
41
1
10
32.0565632918573
20
-19.3270148649863
30
0
41
1
10
32.3398982392076
20
-19.1775783779899
30
0
41
1
10
32.803818344975
20
-18.9800382770534
30
0
41
1
10
32.9654302284705
20
-18.9186435238087
30
0
41
1
10
33.2949597461164
20
-18.8094121915628
30
0
41
1
10
33.4637751307593
20
-18.7611493882127
30
0
41
1
10
33.8101048343195
20
-18.6787323988437
30
0
41
1
10
33.9876157677801
20
-18.6445730359237
30
0
41
1
10
34.3522783770783
20
-18.5922501732288
30
0
41
1
10
34.535239695257
20
-18.5747197064666
30
0
41
1
10
34.9014476012168
20
-18.5569770849292
30
0
41
1
10
35.0848536389218
20
-18.5567423394031
30
0
41
1
10
35.3604202104996
20
-18.5694721331936
30
0
41
1
10
35.4523521023057
20
-18.5758976292735
30
0
41
1
10
35.636370807959
20
-18.5931586391864
30
0
41
1
10
35.7284705047993
20
-18.6040190375094
30
0
41
1
10
36.1819944515331
20
-18.6682298008096
30
0
41
1
10
36.5287447680452
20
-18.7515094612535
30
0
41
1
10
37.0277555523022
20
-18.9161272110853
30
0
41
1
10
37.188043393081
20
-18.9768571479792
30
0
41
1
10
37.4959817817426
20
-19.1074266755417
30
0
41
1
10
37.6439810723101
20
-19.1773897198841
30
0
41
1
10
37.929090105528
20
-19.3253185310103
30
0
41
1
10
38.0661960555891
20
-19.4032881304754
30
0
41
1
10
38.2641303463912
20
-19.5255128013299
30
0
41
1
10
38.3289341612828
20
-19.5672191997514
30
0
41
1
10
38.4548467301121
20
-19.6515023116912
30
0
41
1
10
38.5160843054314
20
-19.6941522371341
30
0
41
1
10
38.8140934775844
20
-19.9096538707997
30
0
41
1
10
39.0266258648349
20
-20.0891356568017
30
0
41
1
10
39.3105374469153
20
-20.3651902095549
30
0
41
1
10
39.3993020016819
20
-20.4583718935429
30
0
41
1
10
39.5651201539336
20
-20.6466699174982
30
0
41
1
10
39.6420342313054
20
-20.7417077256121
30
0
41
1
10
39.8515772356646
20
-21.0244594624021
30
0
41
1
10
39.9646545176185
20
-21.2113809218543
30
0
41
1
10
40.0944024258772
20
-21.488137136812
30
0
41
1
10
40.130960336625
20
-21.5797915309133
30
0
41
1
10
40.1901215778256
20
-21.7617629535306
30
0
41
1
10
40.2126690476976
20
-21.8521984731513
30
0
41
1
10
40.2574700939512
20
-22.1162802378457
30
0
41
1
10
40.2577484039918
20
-22.2844341082227
30
0
41
1
10
40.2118091833094
20
-22.5250398147826
30
0
41
1
10
40.1887247176963
20
-22.6033026347834
30
0
41
1
10
40.1417288858271
20
-22.7178032675465
30
0
41
1
10
40.1239985312072
20
-22.7554877916361
30
0
41
1
10
40.0842405533515
20
-22.8298935796753
30
0
41
1
10
40.0621780710927
20
-22.8666405982052
30
0
41
1
10
39.9422259785377
20
-23.0458195781292
30
0
41
1
10
39.814803626082
20
-23.1764323890899
30
0
41
1
10
39.5750346162963
20
-23.3554711442162
30
0
41
1
10
39.4869590711902
20
-23.4123272616252
30
0
41
1
10
39.2936140109905
20
-23.5206501593256
30
0
41
1
10
39.187592899445
20
-23.5723938374389
30
0
41
1
10
38.8497688655685
20
-23.7165917956997
30
0
41
1
10
38.5975931531293
20
-23.7989484055413
30
0
41
1
10
38.1783687058758
20
-23.9053944932108
30
0
41
1
10
38.0317287887925
20
-23.938011160845
30
0
41
1
10
37.7240900400858
20
-23.9978174061644
30
0
41
1
10
37.5660274781634
20
-24.0244417906595
30
0
41
1
10
37.0795085871336
20
-24.0956364628028
30
0
41
1
10
36.7388586999772
20
-24.1316560595129
30
0
41
1
10
36.2919433052646
20
-24.1641223896767
30
0
41
1
10
36.2014348449306
20
-24.1699753963868
30
0
41
1
10
36.0205407863304
20
-24.1802939391216
30
0
41
1
10
35.9298755894619
20
-24.1847815437132
30
0
41
1
10
35.6572366683595
20
-24.1963091299307
30
0
41
1
10
35.4746214482184
20
-24.2014235200694
30
0
41
1
10
35.1076929082595
20
-24.2066930453744
30
0
41
1
10
34.9233796926732
20
-24.2068484882223
30
0
41
1
10
34.645601496628
20
-24.2032634232413
30
0
41
1
10
34.5525152123642
20
-24.2014201526781
30
0
41
1
10
34.3678609166826
20
-24.1964683493305
30
0
41
1
10
34.276175803126
20
-24.1933624872764
30
0
41
1
10
33.8208974803504
20
-24.1746919658369
30
0
41
1
10
33.4666391187692
20
-24.1498910562464
30
0
41
1
10
32.9503182231511
20
-24.0957944536837
30
0
41
1
10
32.7804593705438
20
-24.0748207653568
30
0
41
1
10
32.4539896882097
20
-24.0276557466055
30
0
41
1
10
32.2963174906176
20
-24.0013707174811
30
0
41
1
10
31.9918617243255
20
-23.9429553356829
30
0
41
1
10
31.8450788757653
20
-23.9108256557021
30
0
41
1
10
31.5625084181347
20
-23.8400471931447
30
0
41
1
10
31.4262189872191
20
-23.8011867347441
30
0
41
1
10
31.0428474623778
20
-23.6764246220391
30
0
41
1
10
30.8181854037569
20
-23.5818536017634
30
0
41
1
10
30.5255477061855
20
-23.4199792128268
30
0
41
1
10
30.43504376974
20
-23.3623275373821
30
0
41
1
10
30.2719621209118
20
-23.2418245780615
30
0
41
1
10
30.1991393352666
20
-23.1789328745088
30
0
41
1
10
30.0700345804998
20
-23.0476537191928
30
0
41
1
10
30.0137553241169
20
-22.9792664033101
30
0
41
1
10
29.9172979624391
20
-22.836723300135
30
0
41
1
10
29.8770378035468
20
-22.7623576268481
30
0
41
1
10
29.7809143313512
20
-22.5315419326316
30
0
41
1
10
29.75
20
-22.3689735770985
30
0
41
1
10
29.75
20
-22.0269721837477
30
0
0
SPLINE
5
A6
100
AcDbEntity
8
1
62
256
6
ByLayer
370
-1
48
1
60
0
100
AcDbSpline
70
4
71
3
72
24
73
20
40
0
40
0
40
0
40
0
40
0.250000000000001
40
0.250000000000001
40
0.375
40
0.375
40
0.499999999999999
40
0.499999999999999
40
0.624999999999997
40
0.624999999999997
40
0.749999999999996
40
0.749999999999996
40
0.812499999999997
40
0.812499999999997
40
0.874999999999998
40
0.874999999999998
40
0.937499999999999
40
0.937499999999999
40
1
40
1
40
1
40
1
41
1
10
2
20
-30.2927649324059
30
0
41
1
10
1.87780387218348
20
-30.2580940886936
30
0
41
1
10
1.76149749081807
20
-30.201773450651
30
0
41
1
10
1.59510501489004
20
-30.0876390996262
30
0
41
1
10
1.54062620401692
20
-30.0441388529442
30
0
41
1
10
1.43711694300478
20
-29.9483874133349
30
0
41
1
10
1.38801702074977
20
-29.8962128366988
30
0
41
1
10
1.29544380331419
20
-29.782752300197
30
0
41
1
10
1.25195716259361
20
-29.7214879512054
30
0
41
1
10
1.17163995011487
20
-29.5881808607119
30
0
41
1
10
1.1348693170593
20
-29.5159631369588
30
0
41
1
10
1.08834784988733
20
-29.4022568780343
30
0
41
1
10
1.07418517986071
20
-29.3632929940115
30
0
41
1
10
1.04893094470961
20
-29.2829398434032
30
0
41
1
10
1.03779349822255
20
-29.2412894956062
30
0
41
1
10
1.01959044678134
20
-29.1570939341671
30
0
41
1
10
1.01246174737452
20
-29.1144331044659
30
0
41
1
10
1.00266784003196
20
-29.0278375547516
30
0
41
1
10
1
20
-28.9835784747739
30
0
41
1
10
1
20
-28.9393263095394
30
0
0
SPLINE
5
A7
100
AcDbEntity
8
1
62
256
6
ByLayer
370
-1
48
1
60
0
100
AcDbSpline
70
4
71
3
72
8
73
4
40
0
40
0
40
0
40
0
40
1
40
1
40
1
40
1
41
1
10
14.1
20
-25.8788351685465
30
0
41
1
10
13.2669606258407
20
-27.3982900487678
30
0
41
1
10
12.4289507478118
20
-28.9151190837548
30
0
41
1
10
11.5878755063094
20
-30.4301923630134
30
0
0
SPLINE
5
A8
100
AcDbEntity
8
1
62
256
6
ByLayer
370
-1
48
1
60
0
100
AcDbSpline
70
4
71
3
72
16
73
12
40
0
40
0
40
0
40
0
40
0.25
40
0.25
40
0.5
40
0.5
40
0.625
40
0.625
40
0.75
40
0.75
40
1
40
1
40
1
40
1
41
1
10
19.1
20
25.578478224365
30
0
41
1
10
18.7859855683415
20
25.5270267615828
30
0
41
1
10
18.4622320920908
20
25.4796137311927
30
0
41
1
10
17.7955813795747
20
25.3952718713574
30
0
41
1
10
17.4526838710613
20
25.3583368229869
30
0
41
1
10
16.9234291840528
20
25.312623281431
30
0
41
1
10
16.7440537825827
20
25.2989719671523
30
0
41
1
10
16.3822896339553
20
25.2753630465714
30
0
41
1
10
16.2006559201055
20
25.2654448288
30
0
41
1
10
15.6535162567279
20
25.2415152827231
30
0
41
1
10
15.2857814257644
20
25.2333306362834
30
0
41
1
10
14.915
20
25.2333306362834
30
0
0
SPLINE
5
A9
100
AcDbEntity
8
1
62
256
6
ByLayer
370
-1
48
1
60
0
100
AcDbSpline
70
4
71
3
72
24
73
20
40
0
40
0
40
0
40
0
40
0.25
40
0.25
40
0.375000000000001
40
0.375000000000001
40
0.500000000000002
40
0.500000000000002
40
0.625000000000003
40
0.625000000000003
40
0.750000000000004
40
0.750000000000004
40
0.812500000000003
40
0.812500000000003
40
0.875000000000002
40
0.875000000000002
40
0.937500000000001
40
0.937500000000001
40
1
40
1
40
1
40
1
41
1
10
2
20
30.2927649324059
30
0
41
1
10
1.87780387218348
20
30.2580940886936
30
0
41
1
10
1.76149749081807
20
30.2017734506511
30
0
41
1
10
1.59510501489004
20
30.0876390996262
30
0
41
1
10
1.54062620401692
20
30.0441388529442
30
0
41
1
10
1.43711694300478
20
29.9483874133349
30
0
41
1
10
1.38801702074977
20
29.8962128366987
30
0
41
1
10
1.29544380331419
20
29.782752300197
30
0
41
1
10
1.25195716259361
20
29.7214879512054
30
0
41
1
10
1.17163995011487
20
29.5881808607119
30
0
41
1
10
1.1348693170593
20
29.5159631369588
30
0
41
1
10
1.08834784988733
20
29.4022568780343
30
0
41
1
10
1.07418517986071
20
29.3632929940115
30
0
41
1
10
1.04893094470961
20
29.2829398434032
30
0
41
1
10
1.03779349822255
20
29.2412894956062
30
0
41
1
10
1.01959044678134
20
29.1570939341671
30
0
41
1
10
1.01246174737452
20
29.1144331044659
30
0
41
1
10
1.00266784003196
20
29.0278375547516
30
0
41
1
10
1
20
28.9835784747739
30
0
41
1
10
1
20
28.9393263095394
30
0
0
SPLINE
5
AA
100
AcDbEntity
8
1
62
256
6
ByLayer
370
-1
48
1
60
0
100
AcDbSpline
70
4
71
3
72
16
73
12
40
0
40
0
40
0
40
0
40
0.25
40
0.25
40
0.5
40
0.5
40
0.625
40
0.625
40
0.75
40
0.75
40
1
40
1
40
1
40
1
41
1
10
19.1
20
-25.578478224365
30
0
41
1
10
18.7859855683415
20
-25.5270267615828
30
0
41
1
10
18.4622320920908
20
-25.4796137311927
30
0
41
1
10
17.7955813795747
20
-25.3952718713574
30
0
41
1
10
17.4526838710613
20
-25.3583368229869
30
0
41
1
10
16.9234291840528
20
-25.312623281431
30
0
41
1
10
16.7440537825827
20
-25.2989719671523
30
0
41
1
10
16.3822896339552
20
-25.2753630465714
30
0
41
1
10
16.2006559201055
20
-25.2654448288
30
0
41
1
10
15.6535162567279
20
-25.2415152827231
30
0
41
1
10
15.2857814257644
20
-25.2333306362834
30
0
41
1
10
14.915
20
-25.2333306362834
30
0
0
INSERT
5
D5
100
AcDbEntity
8
SK6
62
256
6
ByLayer
370
-1
48
1
60
0
100
AcDbBlockReference
2
LABLE3D_1
10
0
20
0
30
0
41
1
42
1
43
1
50
0
210
0
220
0
230
1
0
LINE
5
45
100
AcDbEntity
8
SK3
62
256
6
ByLayer
370
-1
48
0.05
60
0
100
AcDbLine
10
43
20
8.5
30
0
11
43
21
-8.5
31
0
39
0
210
0
220
0
230
1
0
LINE
5
47
100
AcDbEntity
8
SK3
62
256
6
ByLayer
370
-1
48
0.05
60
0
100
AcDbLine
10
44.5
20
-10
30
0
11
94
21
-10
31
0
39
0
210
0
220
0
230
1
0
LINE
5
48
100
AcDbEntity
8
4
62
256
6
ByLayer
370
-1
48
0.05
60
0
100
AcDbLine
10
94
20
0
30
0
11
0
21
0
31
0
39
0
210
0
220
0
230
1
0
LINE
5
4A
100
AcDbEntity
8
80
62
256
6
ByLayer
370
-1
48
1
60
0
100
AcDbLine
10
0
20
0
30
0
11
-10.875929
21
0
31
0
39
0
210
0
220
0
230
1
0
LINE
5
4B
100
AcDbEntity
8
SK3
62
256
6
ByLayer
370
-1
48
0.05
60
0
100
AcDbLine
10
94
20
10
30
0
11
44.5
21
10
31
0
39
0
210
0
220
0
230
1
0
LINE
5
4C
100
AcDbEntity
8
SK3
62
256
6
ByLayer
370
-1
48
0.05
60
0
100
AcDbLine
10
44.5
20
10
30
0
11
43
21
8.5
31
0
39
0
210
0
220
0
230
1
0
LINE
5
4D
100
AcDbEntity
8
SK3
62
256
6
ByLayer
370
-1
48
0.05
60
0
100
AcDbLine
10
43
20
-8.5
30
0
11
44.5
21
-10
31
0
39
0
210
0
220
0
230
1
0
LINE
5
4E
100
AcDbEntity
8
SK3
62
256
6
ByLayer
370
-1
48
0.05
60
0
100
AcDbLine
10
44.5
20
-10
30
0
11
44.5
21
10
31
0
39
0
210
0
220
0
230
1
0
LINE
5
4F
100
AcDbEntity
8
81
62
256
6
ByLayer
370
-1
48
1
60
0
100
AcDbLine
10
94
20
0
30
0
11
98.742527
21
0
31
0
39
0
210
0
220
0
230
1
0
LINE
5
50
100
AcDbEntity
8
SK4
62
256
6
ByLayer
370
-1
48
0.05
60
0
100
AcDbLine
10
-75.4
20
0
30
0
11
104
21
0
31
0
39
0
210
0
220
0
230
1
0
LINE
5
52
100
AcDbEntity
8
1
62
256
6
ByLayer
370
-1
48
1
60
0
100
AcDbLine
10
26
20
-31.4885
30
0
11
26
21
31.4885
31
0
39
0
210
0
220
0
230
1
0
LINE
5
54
100
AcDbEntity
8
1
62
256
6
ByLayer
370
-1
48
1
60
0
100
AcDbLine
10
0.8
20
-21.925
30
0
11
0.8
21
21.925
31
0
39
0
210
0
220
0
230
1
0
LINE
5
55
100
AcDbEntity
8
1
62
256
6
ByLayer
370
-1
48
1
60
0
100
AcDbLine
10
94
20
-17.973777
30
0
11
94
21
17.973777
31
0
39
0
210
0
220
0
230
1
0
LINE
5
56
100
AcDbEntity
8
1
62
256
6
ByLayer
370
-1
48
1
60
0
100
AcDbLine
10
2
20
30.292765
30
0
11
2
21
-30.292765
31
0
39
0
210
0
220
0
230
1
0
LINE
5
57
100
AcDbEntity
8
1
62
256
6
ByLayer
370
-1
48
1
60
0
100
AcDbLine
10
2.5
20
30.430192
30
0
11
11.587876
21
30.430192
31
0
39
0
210
0
220
0
230
1
0
LINE
5
58
100
AcDbEntity
8
1
62
256
6
ByLayer
370
-1
48
1
60
0
100
AcDbLine
10
41.783604
20
24.34202
30
0
11
41.783604
21
-24.34202
31
0
39
0
210
0
220
0
230
1
0
LINE
5
59
100
AcDbEntity
8
1
62
256
6
ByLayer
370
-1
48
1
60
0
100
AcDbLine
10
44.750519
20
-21
30
0
11
44.750519
21
0
31
0
39
0
210
0
220
0
230
1
0
LINE
5
5A
100
AcDbEntity
8
1
62
256
6
ByLayer
370
-1
48
1
60
0
100
AcDbLine
10
44.750519
20
0
30
0
11
44.750519
21
21
31
0
39
0
210
0
220
0
230
1
0
LINE
5
5B
100
AcDbEntity
8
1
62
256
6
ByLayer
370
-1
48
1
60
0
100
AcDbLine
10
2.5
20
-30.430192
30
0
11
11.587876
21
-30.430192
31
0
39
0
210
0
220
0
230
1
0
LINE
5
5C
100
AcDbEntity
8
1
62
256
6
ByLayer
370
-1
48
1
60
0
100
AcDbLine
10
92.946243
20
-19.164832
30
0
11
92.946243
21
19.164832
31
0
39
0
210
0
220
0
230
1
0
LINE
5
5D
100
AcDbEntity
8
1
62
256
6
ByLayer
370
-1
48
1
60
0
100
AcDbLine
10
11.587876
20
-30.430192
30
0
11
11.587876
21
30.430192
31
0
39
0
210
0
220
0
230
1
0
LINE
5
5E
100
AcDbEntity
8
1
62
256
6
ByLayer
370
-1
48
1
60
0
100
AcDbLine
10
79.214134
20
-20.850923
30
0
11
79.214134
21
0
31
0
39
0
210
0
220
0
230
1
0
LINE
5
5F
100
AcDbEntity
8
1
62
256
6
ByLayer
370
-1
48
1
60
0
100
AcDbLine
10
79.214134
20
0
30
0
11
79.214134
21
20.850923
31
0
39
0
210
0
220
0
230
1
0
LINE
5
60
100
AcDbEntity
8
1
62
256
6
ByLayer
370
-1
48
1
60
0
100
AcDbLine
10
42.401287
20
-22.64495
30
0
11
42.401287
21
22.64495
31
0
39
0
210
0
220
0
230
1
0
LINE
5
61
100
AcDbEntity
8
1
62
256
6
ByLayer
370
-1
48
1
60
0
100
AcDbLine
10
14.915
20
-25.233331
30
0
11
14.1
21
-25.233331
31
0
39
0
210
0
220
0
230
1
0
LINE
5
62
100
AcDbEntity
8
1
62
256
6
ByLayer
370
-1
48
1
60
0
100
AcDbLine
10
40.843912
20
25
30
0
11
40.843912
21
-25
31
0
39
0
210
0
220
0
230
1
0
LINE
5
63
100
AcDbEntity
8
1
62
256
6
ByLayer
370
-1
48
1
60
0
100
AcDbLine
10
14.1
20
-25.878835
30
0
11
14.1
21
25.878835
31
0
39
0
210
0
220
0
230
1
0
LINE
5
64
100
AcDbEntity
8
1
62
256
6
ByLayer
370
-1
48
1
60
0
100
AcDbLine
10
27
20
-30.4885
30
0
11
27
21
0
31
0
39
0
210
0
220
0
230
1
0
LINE
5
65
100
AcDbEntity
8
1
62
256
6
ByLayer
370
-1
48
1
60
0
100
AcDbLine
10
27
20
0
30
0
11
27
21
30.4885
31
0
39
0
210
0
220
0
230
1
0
LINE
5
66
100
AcDbEntity
8
1
62
256
6
ByLayer
370
-1
48
1
60
0
100
AcDbLine
10
23
20
31.488498
30
0
11
23
21
31.4885
31
0
39
0
210
0
220
0
230
1
0
LINE
5
67
100
AcDbEntity
8
1
62
256
6
ByLayer
370
-1
48
1
60
0
100
AcDbLine
10
28
20
-25
30
0
11
28
21
0
31
0
39
0
210
0
220
0
230
1
0
LINE
5
68
100
AcDbEntity
8
1
62
256
6
ByLayer
370
-1
48
1
60
0
100
AcDbLine
10
28
20
0
30
0
11
28
21
25
31
0
39
0
210
0
220
0
230
1
0
LINE
5
69
100
AcDbEntity
8
1
62
256
6
ByLayer
370
-1
48
1
60
0
100
AcDbLine
10
0
20
-22.225
30
0
11
0
21
22.225
31
0
39
0
210
0
220
0
230
1
0
LINE
5
6A
100
AcDbEntity
8
1
62
256
6
ByLayer
370
-1
48
1
60
0
100
AcDbLine
10
76.776748
20
21
30
0
11
76.776748
21
-21
31
0
39
0
210
0
220
0
230
1
0
LINE
5
6B
100
AcDbEntity
8
1
62
256
6
ByLayer
370
-1
48
1
60
0
100
AcDbLine
10
14.915
20
25.233331
30
0
11
14.1
21
25.233331
31
0
39
0
210
0
220
0
230
1
0
LINE
5
6C
100
AcDbEntity
8
1
62
256
6
ByLayer
370
-1
48
1
60
0
100
AcDbLine
10
0.428444
20
0
30
0
11
0.428444
21
-21.925
31
0
39
0
210
0
220
0
230
1
0
LINE
5
6D
100
AcDbEntity
8
1
62
256
6
ByLayer
370
-1
48
1
60
0
100
AcDbLine
10
0.428444
20
21.925
30
0
11
0.428444
21
0
31
0
39
0
210
0
220
0
230
1
0
LINE
5
6E
100
AcDbEntity
8
1
62
256
6
ByLayer
370
-1
48
1
60
0
100
AcDbLine
10
1
20
-28.939326
30
0
11
1
21
28.939326
31
0
39
0
210
0
220
0
230
1
0
LINE
5
6F
100
AcDbEntity
8
1
62
256
6
ByLayer
370
-1
48
1
60
0
100
AcDbLine
10
21.612124
20
31.159576
30
0
11
21.612124
21
-31.159576
31
0
39
0
210
0
220
0
230
1
0
LINE
5
70
100
AcDbEntity
8
1
62
256
6
ByLayer
370
-1
48
1
60
0
100
AcDbLine
10
19.1
20
-26.215486
30
0
11
19.1
21
26.215486
31
0
39
0
210
0
220
0
230
1
0
LINE
5
71
100
AcDbEntity
8
SK1
62
256
6
ByLayer
370
-1
48
1
60
0
100
AcDbLine
10
0
20
-22.225
30
0
11
0
21
22.225
31
0
39
0
210
0
220
0
230
1
0
LINE
5
73
100
AcDbEntity
8
SK1
62
256
6
ByLayer
370
-1
48
1
60
0
100
AcDbLine
10
-65.4
20
11.821868
30
0
11
-65.4
21
-11.821868
31
0
39
0
210
0
220
0
230
1
0
LINE
5
74
100
AcDbEntity
8
SK1
62
256
6
ByLayer
370
-1
48
1
60
0
100
AcDbLine
10
-64.54432
20
-12.811399
30
0
11
-64.54432
21
0
31
0
39
0
210
0
220
0
230
1
0
LINE
5
75
100
AcDbEntity
8
SK1
62
256
6
ByLayer
370
-1
48
1
60
0
100
AcDbLine
10
-64.54432
20
0
30
0
11
-64.54432
21
12.811399
31
0
39
0
210
0
220
0
230
1
0
LINE
5
76
100
AcDbEntity
8
1
62
256
6
ByLayer
370
-1
48
1
60
0
100
AcDbLine
10
39.08
20
-22.5
30
0
11
30.92
21
-22.5
31
0
39
0
210
0
220
0
230
1
0
LINE
5
77
100
AcDbEntity
8
1
62
256
6
ByLayer
370
-1
48
1
60
0
100
AcDbLine
10
40
20
-21.58
30
0
11
30
21
-21.58
31
0
39
0
210
0
220
0
230
1
0
LINE
5
78
100
AcDbEntity
8
1
62
256
6
ByLayer
370
-1
48
1
60
0
100
AcDbLine
10
44.750519
20
-21
30
0
11
76.776748
21
-21
31
0
39
0
210
0
220
0
230
1
0
LINE
5
79
100
AcDbEntity
8
SK1
62
256
6
ByLayer
370
-1
48
1
60
0
100
AcDbLine
10
0
20
22.225
30
0
11
-64.54432
21
12.811399
31
0
39
0
210
0
220
0
230
1
0
LINE
5
7A
100
AcDbEntity
8
SK1
62
256
6
ByLayer
370
-1
48
1
60
0
100
AcDbLine
10
-64.54432
20
-12.811399
30
0
11
0
21
-22.225
31
0
39
0
210
0
220
0
230
1
0
LINE
5
7B
100
AcDbEntity
8
1
62
256
6
ByLayer
370
-1
48
1
60
0
100
AcDbLine
10
40
20
-21.58
30
0
11
40
21
-21.316059
31
0
39
0
210
0
220
0
230
1
0
LINE
5
7C
100
AcDbEntity
8
1
62
256
6
ByLayer
370
-1
48
1
60
0
100
AcDbLine
10
30
20
-21.341119
30
0
11
30
21
-21.58
31
0
39
0
210
0
220
0
230
1
0
LINE
5
7D
100
AcDbEntity
8
1
62
256
6
ByLayer
370
-1
48
1
60
0
100
AcDbLine
10
30
20
-21.58
30
0
11
30.92
21
-22.5
31
0
39
0
210
0
220
0
230
1
0
LINE
5
7E
100
AcDbEntity
8
1
62
256
6
ByLayer
370
-1
48
1
60
0
100
AcDbLine
10
39.08
20
-22.5
30
0
11
40
21
-21.58
31
0
39
0
210
0
220
0
230
1
0
LINE
5
7F
100
AcDbEntity
8
1
62
256
6
ByLayer
370
-1
48
1
60
0
100
AcDbLine
10
26
20
31.4885
30
0
11
23
21
31.4885
31
0
39
0
210
0
220
0
230
1
0
LINE
5
80
100
AcDbEntity
8
1
62
256
6
ByLayer
370
-1
48
1
60
0
100
AcDbLine
10
23
20
-31.4885
30
0
11
26
21
-31.4885
31
0
39
0
210
0
220
0
230
1
0
LINE
5
81
100
AcDbEntity
8
1
62
256
6
ByLayer
370
-1
48
1
60
0
100
AcDbLine
10
28
20
-25
30
0
11
40.843912
21
-25
31
0
39
0
210
0
220
0
230
1
0
LINE
5
82
100
AcDbEntity
8
1
62
256
6
ByLayer
370
-1
48
1
60
0
100
AcDbLine
10
40.843912
20
25
30
0
11
28
21
25
31
0
39
0
210
0
220
0
230
1
0
LINE
5
83
100
AcDbEntity
8
1
62
256
6
ByLayer
370
-1
48
1
60
0
100
AcDbLine
10
41.783604
20
-24.34202
30
0
11
42.401287
21
-22.64495
31
0
39
0
210
0
220
0
230
1
0
LINE
5
84
100
AcDbEntity
8
1
62
256
6
ByLayer
370
-1
48
1
60
0
100
AcDbLine
10
42.401287
20
22.64495
30
0
11
41.783604
21
24.34202
31
0
39
0
210
0
220
0
230
1
0
LINE
5
85
100
AcDbEntity
8
1
62
256
6
ByLayer
370
-1
48
1
60
0
100
AcDbLine
10
0
20
-22.225
30
0
11
0.428444
21
-21.925
31
0
39
0
210
0
220
0
230
1
0
LINE
5
86
100
AcDbEntity
8
1
62
256
6
ByLayer
370
-1
48
1
60
0
100
AcDbLine
10
0.428444
20
21.925
30
0
11
0
21
22.225
31
0
39
0
210
0
220
0
230
1
0
LINE
5
87
100
AcDbEntity
8
1
62
256
6
ByLayer
370
-1
48
1
60
0
100
AcDbLine
10
0.8
20
21.925
30
0
11
0.428444
21
21.925
31
0
39
0
210
0
220
0
230
1
0
LINE
5
88
100
AcDbEntity
8
1
62
256
6
ByLayer
370
-1
48
1
60
0
100
AcDbLine
10
0.428444
20
-21.925
30
0
11
0.8
21
-21.925
31
0
39
0
210
0
220
0
230
1
0
LINE
5
89
100
AcDbEntity
8
1
62
256
6
ByLayer
370
-1
48
1
60
0
100
AcDbLine
10
76.776748
20
21
30
0
11
44.750519
21
21
31
0
39
0
210
0
220
0
230
1
0
LINE
5
8A
100
AcDbEntity
8
1
62
256
6
ByLayer
370
-1
48
1
60
0
100
AcDbLine
10
79.214134
20
-20.850923
30
0
11
92.946243
21
-19.164832
31
0
39
0
210
0
220
0
230
1
0
LINE
5
8B
100
AcDbEntity
8
1
62
256
6
ByLayer
370
-1
48
1
60
0
100
AcDbLine
10
92.946243
20
19.164832
30
0
11
79.214134
21
20.850923
31
0
39
0
210
0
220
0
230
1
0
LINE
5
8C
100
AcDbEntity
8
1
62
256
6
ByLayer
370
-1
48
1
60
0
100
AcDbLine
10
30.92
20
-22.5
30
0
11
30.92
21
-21.341063
31
0
39
0
210
0
220
0
230
1
0
LINE
5
8D
100
AcDbEntity
8
1
62
256
6
ByLayer
370
-1
48
1
60
0
100
AcDbLine
10
39.08
20
-22.5
30
0
11
39.08
21
-21.315938
31
0
39
0
210
0
220
0
230
1
0
MTEXT
5
D8
100
AcDbEntity
8
SK6
62
256
6
ByLayer
370
-1
48
1
60
0
100
AcDbMText
10
-69.538158
20
38.8635
30
0
210
0
220
0
230
1
1
\W01.000;\fsimplex.shx,bigfont.shx;  
40
3.5
41
0
44
1.084337
50
0
71
7
72
5
7
DEFAULT
0
MTEXT
5
D9
100
AcDbEntity
8
SK6
62
256
6
ByLayer
370
-1
48
1
60
0
100
AcDbMText
10
-111.851316
20
38.8635
30
0
210
0
220
0
230
1
1
\W00.807;\fsimplex.shx,bigfont.shx;MAS-BT40 Big-Plus 
40
3.5
41
0
44
1.084337
50
0
71
7
72
5
7
DEFAULT
0
MTEXT
5
DA
100
AcDbEntity
8
SK6
62
256
6
ByLayer
370
-1
48
1
60
0
100
AcDbMText
10
-7.125
20
-45.8635
30
0
210
0
220
0
230
1
1
\W00.733;\fsimplex.shx,bigfont.shx;930-BB40-S-20-094 
40
3.5
41
0
44
1.084337
50
0
71
7
72
5
7
DEFAULT
0
DIMENSION
5
E5
100
AcDbEntity
8
2
62
256
6
ByLayer
370
-3
48
1
60
0
100
AcDbDimension
2
DimnDraft3D1
10
94
20
70.5885
30
0
11
44.134211
21
70.5885
31
0
70
32
71
5
72
1
41
1
210
0
220
0
230
1
3
Standard
100
AcDbAlignedDimension
13
0
23
33.076
33
0
14
94
24
22.5875
34
0
50
0
100
AcDbRotatedDimension
1001
ACAD
1000
DSTYLE
1002
{
1070
   279
1070
     0
1070
   172
1070
     1
1070
   173
1070
     1
1070
   340
1005
AD
1070
   271
1070
     1
1070
   272
1070
     2
1070
    77
1070
     1
1070
    73
1070
     0
1070
   171
1070
     3
1070
   274
1070
     4
1070
   177
1070
     2
1070
   176
1070
     2
1070
   178
1070
     2
1070
    78
1070
     8
1070
    48
1040
-0.005
1070
    41
1041
4.5
1070
   147
1041
2.25
1070
    42
1041
1.5875
1070
    44
1041
2.0
1070
   140
1041
4.5
1070
   343
1005
0
1070
   344
1005
0
1002
}
0
DIMENSION
5
F0
100
AcDbEntity
8
SK2
62
256
6
ByLayer
370
-3
48
1
60
0
100
AcDbDimension
2
DimnDraft3D2
10
94
20
-40.0885
30
0
11
83.933553
21
-40.0885
31
0
70
32
71
5
72
1
41
1
210
0
220
0
230
1
3
Standard
100
AcDbAlignedDimension
13
78
23
-22.5875
33
0
14
94
24
-22.5875
34
0
50
0
100
AcDbRotatedDimension
1001
ACAD
1000
DSTYLE
1002
{
1070
   279
1070
     0
1070
   172
1070
     1
1070
   173
1070
     1
1070
   340
1005
AD
1070
   271
1070
     1
1070
   272
1070
     2
1070
    77
1070
     1
1070
    73
1070
     0
1070
   171
1070
     3
1070
   274
1070
     4
1070
   177
1070
     2
1070
   176
1070
     2
1070
   178
1070
     2
1070
    78
1070
     8
1070
    48
1040
-0.005
1070
    41
1041
4.5
1070
   147
1041
2.25
1070
    42
1041
1.5875
1070
    44
1041
2.0
1070
   140
1041
4.5
1070
   343
1005
0
1070
   344
1005
0
1002
}
0
DIMENSION
5
FA
100
AcDbEntity
8
SK2
62
256
6
ByLayer
370
-3
48
1
60
0
100
AcDbDimension
2
DimnDraft3D3
10
27
20
50.5885
30
0
11
10.871053
21
50.5885
31
0
70
32
71
5
72
1
41
1
210
0
220
0
230
1
3
Standard
100
AcDbAlignedDimension
13
0
23
23.8125
33
0
14
27
24
33.076
34
0
50
0
100
AcDbRotatedDimension
1001
ACAD
1000
DSTYLE
1002
{
1070
   279
1070
     0
1070
   172
1070
     1
1070
   173
1070
     1
1070
   340
1005
AD
1070
   271
1070
     2
1070
   272
1070
     2
1070
    77
1070
     1
1070
    73
1070
     0
1070
   171
1070
     3
1070
   274
1070
     4
1070
   177
1070
     2
1070
   176
1070
     2
1070
   178
1070
     2
1070
    78
1070
     8
1070
    48
1040
-0.005
1070
    41
1041
4.5
1070
   147
1041
2.25
1070
    42
1041
1.5875
1070
    44
1041
2.0
1070
   140
1041
4.5
1070
   343
1005
0
1070
   344
1005
0
1002
}
0
DIMENSION
5
104
100
AcDbEntity
8
SK2
62
256
6
ByLayer
370
-3
48
1
60
0
100
AcDbDimension
2
DimnDraft3D4
10
43
20
50.5885
30
0
11
66.433553
21
50.5885
31
0
70
32
71
5
72
1
41
1
210
0
220
0
230
1
3
Standard
100
AcDbAlignedDimension
13
94
23
22.5875
33
0
14
43
24
22.5875
34
0
50
0
100
AcDbRotatedDimension
1001
ACAD
1000
DSTYLE
1002
{
1070
   279
1070
     0
1070
   172
1070
     1
1070
   173
1070
     1
1070
   340
1005
AD
1070
   271
1070
     1
1070
   272
1070
     2
1070
    77
1070
     1
1070
    73
1070
     0
1070
   171
1070
     3
1070
   274
1070
     4
1070
   177
1070
     2
1070
   176
1070
     2
1070
   178
1070
     2
1070
    78
1070
     8
1070
    48
1040
-0.005
1070
    41
1041
4.5
1070
   147
1041
2.25
1070
    42
1041
1.5875
1070
    44
1041
2.0
1070
   140
1041
4.5
1070
   343
1005
0
1070
   344
1005
0
1002
}
0
DIMENSION
5
10E
100
AcDbEntity
8
SK2
62
256
6
ByLayer
370
-3
48
1
60
0
100
AcDbDimension
2
DimnDraft3D5
10
-65.4
20
70.5885
30
0
11
-37.981579
21
70.5885
31
0
70
32
71
5
72
1
41
1
210
0
220
0
230
1
3
Standard
100
AcDbAlignedDimension
13
0
23
23.8125
33
0
14
-65.4
24
13.7875
34
0
50
0
100
AcDbRotatedDimension
1001
ACAD
1000
DSTYLE
1002
{
1070
   279
1070
     0
1070
   172
1070
     1
1070
   173
1070
     1
1070
   340
1005
AD
1070
   271
1070
     1
1070
   272
1070
     2
1070
    77
1070
     1
1070
    73
1070
     0
1070
   171
1070
     3
1070
   274
1070
     4
1070
   177
1070
     2
1070
   176
1070
     2
1070
   178
1070
     2
1070
    78
1070
     8
1070
    48
1040
-0.005
1070
    41
1041
4.5
1070
   147
1041
2.25
1070
    42
1041
1.5875
1070
    44
1041
2.0
1070
   140
1041
4.5
1070
   343
1005
0
1070
   344
1005
0
1002
}
0
DIMENSION
5
118
100
AcDbEntity
8
SK2
62
256
6
ByLayer
370
-3
48
1
60
0
100
AcDbDimension
2
DimnDraft3D6
10
94
20
-50.0885
30
0
11
48.883553
21
-50.0885
31
0
70
32
71
5
72
1
41
1
210
0
220
0
230
1
3
Standard
100
AcDbAlignedDimension
13
43
23
-11.5875
33
0
14
94
24
-11.5875
34
0
50
0
100
AcDbRotatedDimension
1001
ACAD
1000
DSTYLE
1002
{
1070
   279
1070
     0
1070
   172
1070
     1
1070
   173
1070
     1
1070
   340
1005
AD
1070
   271
1070
     0
1070
   272
1070
     2
1070
    77
1070
     1
1070
    73
1070
     0
1070
   171
1070
     3
1070
   274
1070
     4
1070
   177
1070
     2
1070
   176
1070
     2
1070
   178
1070
     2
1070
    78
1070
     8
1070
    48
1040
-0.005
1070
    41
1041
4.5
1070
   147
1041
2.25
1070
    42
1041
1.5875
1070
    44
1041
2.0
1070
   140
1041
4.5
1070
   343
1005
0
1070
   344
1005
0
1002
}
0
DIMENSION
5
123
100
AcDbEntity
8
SK2
62
256
6
ByLayer
370
-3
48
1
60
0
100
AcDbDimension
2
DimnDraft3D7
10
158.25
20
21
30
0
11
158.25
21
-8.115789
31
0
70
32
71
5
72
1
41
1
210
0
220
0
230
1
3
Standard
100
AcDbAlignedDimension
13
95.5875
23
-21
33
0
14
95.5875
24
21
34
0
50
90
100
AcDbRotatedDimension
1001
ACAD
1000
DSTYLE
1002
{
1070
    74
1070
     0
1070
   279
1070
     0
1070
   172
1070
     1
1070
   173
1070
     1
1070
   340
1005
AD
1070
   271
1070
     1
1070
   272
1070
     2
1070
    77
1070
     1
1070
    73
1070
     0
1070
   171
1070
     3
1070
   274
1070
     4
1070
   177
1070
     2
1070
   176
1070
     2
1070
   178
1070
     2
1070
    78
1070
     8
1070
    48
1040
-0.005
1070
    41
1041
4.5
1070
   147
1041
2.25
1070
    42
1041
1.5875
1070
    44
1041
2.0
1070
   140
1041
4.5
1070
   343
1005
0
1070
   344
1005
0
1002
}
0
DIMENSION
5
12E
100
AcDbEntity
8
SK2
62
256
6
ByLayer
370
-3
48
1
60
0
100
AcDbDimension
2
DimnDraft3D8
10
146.25
20
-10
30
0
11
146.25
21
-7.878947
31
0
70
32
71
5
72
1
41
1
210
0
220
0
230
1
3
Standard
100
AcDbAlignedDimension
13
95.5875
23
10
33
0
14
95.5875
24
-10
34
0
50
90
100
AcDbRotatedDimension
1001
ACAD
1000
DSTYLE
1002
{
1070
    74
1070
     0
1070
   279
1070
     0
1070
   172
1070
     1
1070
   173
1070
     1
1070
   340
1005
AD
1070
   271
1070
     1
1070
   272
1070
     2
1070
    77
1070
     1
1070
    73
1070
     0
1070
   171
1070
     3
1070
   274
1070
     4
1070
   177
1070
     2
1070
   176
1070
     2
1070
   178
1070
     2
1070
    78
1070
     8
1070
    48
1040
-0.005
1070
    41
1041
4.5
1070
   147
1041
2.25
1070
    42
1041
1.5875
1070
    44
1041
2.0
1070
   140
1041
4.5
1070
   343
1005
0
1070
   344
1005
0
1002
}
0
DIMENSION
5
139
100
AcDbEntity
8
SK2
62
256
6
ByLayer
370
-3
48
1
60
0
100
AcDbDimension
2
DimnDraft3D9
10
178.25
20
-25
30
0
11
178.25
21
-7.878947
31
0
70
32
71
5
72
1
41
1
210
0
220
0
230
1
3
Standard
100
AcDbAlignedDimension
13
44.5875
23
25
33
0
14
44.5875
24
-25
34
0
50
90
100
AcDbRotatedDimension
1001
ACAD
1000
DSTYLE
1002
{
1070
    74
1070
     0
1070
   279
1070
     0
1070
   172
1070
     1
1070
   173
1070
     1
1070
   340
1005
AD
1070
   271
1070
     1
1070
   272
1070
     2
1070
    77
1070
     1
1070
    73
1070
     0
1070
   171
1070
     3
1070
   274
1070
     4
1070
   177
1070
     2
1070
   176
1070
     2
1070
   178
1070
     2
1070
    78
1070
     8
1070
    48
1040
-0.005
1070
    41
1041
4.5
1070
   147
1041
2.25
1070
    42
1041
1.5875
1070
    44
1041
2.0
1070
   140
1041
4.5
1070
   343
1005
0
1070
   344
1005
0
1002
}
0
ENDSEC
0
SECTION
2
OBJECTS
0
DICTIONARY
5
16b
330
0
100
AcDbDictionary
280
0
281
1
3
ACAD_GROUP
350
16c
3
ACAD_MLINESTYLE
350
16d
0
DICTIONARY
5
16c
330
0
100
AcDbDictionary
280
0
281
1
0
DICTIONARY
5
16d
330
0
100
AcDbDictionary
280
0
281
1
3
Standard
350
18
0
MLINESTYLE
5
18
330
16d
100
AcDbMlineStyle
2
Standard
70
0
3

62
256
51
90
52
90
71
2
49
-0.5
62
256
6
ByLayer
49
0.5
62
256
6
ByLayer
0
RASTERVARIABLES
5
158
330

100
AcDbRasterVariables
90
0
70
1
71
1
72
1
0
ENDSEC
0
EOF
