0
SECTION
2
HEADER
9
$ACADVER
1
AC1015
9
$DWGCODEPAGE
3
ANSI_1252
9
$HANDSEED
5
173
9
$ANGBASE
50
0
9
$ANGDIR
70
0
9
$ATTMODE
70
1
9
$AUNITS
70
0
9
$AUPREC
70
0
9
$CECOLOR
62
256
9
$CELTSCALE
40
1
9
$CELTYPE
6
ByLayer
9
$CELWEIGHT
370
-1
9
$CLAYER
8
0
9
$CMLJUST
70
0
9
$CMLSCALE
40
1
9
$CMLSTYLE
2
Standard
9
$DIMSTYLE
2
Standard
9
$TEXTSIZE
40
0.2
9
$TEXTSTYLE
7
Standard
9
$LUNITS
70
2
9
$LUPREC
70
4
9
$EXTNAMES
290
1
9
$INSUNITS
70
4
9
$LTSCALE
40
1
9
$LWDISPLAY
290
0
9
$PDMODE
70
0
9
$PDSIZE
40
0
9
$PLINEGEN
70
0
0
ENDSEC
0
SECTION
2
CLASSES
0
CLASS
1
RASTERVARIABLES
2
AcDbRasterVariables
3
ISM
90
0
280
0
281
0
0
ENDSEC
0
SECTION
2
TABLES
0
TABLE
2
VPORT
5
169
100
AcDbSymbolTable
0
VPORT
5
1
100
AcDbSymbolTableRecord
100
AcDbViewportTableRecord
2
*Active
70
0
10
0
20
0
11
1
21
1
12
-1
22
1
13
0
23
0
14
0.5
24
0.5
15
10
25
10
16
0
26
0
36
1
17
0
27
0
37
0
0
ENDTAB
0
TABLE
2
LTYPE
5
16a
100
AcDbSymbolTable
0
LTYPE
5
14
100
AcDbSymbolTableRecord
100
AcDbLinetypeTableRecord
70
0
2
ByBlock
3

72
65
73
0
40
0
0
LTYPE
5
15
100
AcDbSymbolTableRecord
100
AcDbLinetypeTableRecord
70
0
2
ByLayer
3

72
65
73
0
40
0
0
LTYPE
5
16
100
AcDbSymbolTableRecord
100
AcDbLinetypeTableRecord
70
0
2
CONTINUOUS
3
Solid line
72
65
73
0
40
0
0
LTYPE
5
3B
100
AcDbSymbolTableRecord
100
AcDbLinetypeTableRecord
70
0
2
DASHED
3
__ __ __ __ __ __ __ __ __
72
65
73
2
40
25.72
49
12.86
74
0
49
-12.86
74
0
0
LTYPE
5
3C
100
AcDbSymbolTableRecord
100
AcDbLinetypeTableRecord
70
0
2
HIDDEN
3
_ _ _ _ _ _ _ _ _ _ _ _ _ _ _
72
65
73
2
40
0.5
49
0.25
74
0
49
-0.25
74
0
0
LTYPE
5
3D
100
AcDbSymbolTableRecord
100
AcDbLinetypeTableRecord
70
0
2
PHANTOM
3
____ _ _ ____ _ _ _____ _ _ ____
72
65
73
6
40
50.5
49
18
74
0
49
-6.5
74
0
49
6.5
74
0
49
-6.5
74
0
49
6.5
74
0
49
-6.5
74
0
0
LTYPE
5
3E
100
AcDbSymbolTableRecord
100
AcDbLinetypeTableRecord
70
0
2
CENTER
3
____ _ ____ _ ____ _ ____
72
65
73
4
40
47.5
49
22
74
0
49
-8.5
74
0
49
8.5
74
0
49
-8.5
74
0
0
LTYPE
5
3F
100
AcDbSymbolTableRecord
100
AcDbLinetypeTableRecord
70
0
2
DOT
3
.........................
72
65
73
2
40
10
49
0
74
0
49
-10
74
0
0
LTYPE
5
40
100
AcDbSymbolTableRecord
100
AcDbLinetypeTableRecord
70
0
2
DASHDOT
3
_._._._._._._._._._._._._._._._.
72
65
73
4
40
70
49
31
74
0
49
-13
74
0
49
13
74
0
49
-13
74
0
0
ENDTAB
0
TABLE
2
LAYER
5
16b
100
AcDbSymbolTable
0
LAYER
5
10
100
AcDbSymbolTableRecord
100
AcDbLayerTableRecord
2
0
70
0
62
7
6
CONTINUOUS
290
1
370
-3
390
0
0
LAYER
5
42
100
AcDbSymbolTableRecord
100
AcDbLayerTableRecord
2
80
70
0
62
-6
6
CONTINUOUS
290
1
370
-3
390
0
0
LAYER
5
44
100
AcDbSymbolTableRecord
100
AcDbLayerTableRecord
2
81
70
0
62
-3
6
CONTINUOUS
290
1
370
-3
390
0
0
LAYER
5
49
100
AcDbSymbolTableRecord
100
AcDbLayerTableRecord
2
4
70
0
62
-2
6
CENTER
290
1
370
-3
390
0
0
LAYER
5
53
100
AcDbSymbolTableRecord
100
AcDbLayerTableRecord
2
1
70
0
62
4
6
CONTINUOUS
290
1
370
-3
390
0
0
LAYER
5
D8
100
AcDbSymbolTableRecord
100
AcDbLayerTableRecord
2
2
70
0
62
7
6
CONTINUOUS
290
1
370
-3
390
0
0
LAYER
5
154
100
AcDbSymbolTableRecord
100
AcDbLayerTableRecord
2
SK3
70
0
62
1
6
DASHED
290
1
370
-3
390
0
0
LAYER
5
155
100
AcDbSymbolTableRecord
100
AcDbLayerTableRecord
2
SK4
70
0
62
2
6
CENTER
290
1
370
-3
390
0
0
LAYER
5
156
100
AcDbSymbolTableRecord
100
AcDbLayerTableRecord
2
SK1
70
0
62
4
6
CONTINUOUS
290
1
370
-3
390
0
0
LAYER
5
157
100
AcDbSymbolTableRecord
100
AcDbLayerTableRecord
2
SK6
70
0
62
5
6
CONTINUOUS
290
1
370
-3
390
0
0
LAYER
5
158
100
AcDbSymbolTableRecord
100
AcDbLayerTableRecord
2
SK2
70
0
62
7
6
CONTINUOUS
290
1
370
-3
390
0
0
ENDTAB
0
TABLE
2
STYLE
5
16c
100
AcDbSymbolTable
0
STYLE
5
11
100
AcDbSymbolTableRecord
100
AcDbTextStyleTableRecord
2
Standard
3
txt
70
0
71
0
40
0
41
1
42
0
50
0
0
STYLE
5
A8
100
AcDbSymbolTableRecord
100
AcDbTextStyleTableRecord
2
DEFAULT
3
simplex.shx
70
0
71
0
40
0
41
1
42
0
50
0
0
STYLE
5
CB
100
AcDbSymbolTableRecord
100
AcDbTextStyleTableRecord
2
DWGDirectTextStyle
3
SIMPLEX
70
0
71
0
40
0
41
1
42
0
50
0
0
ENDTAB
0
TABLE
2
DIMSTYLE
5
16d
100
AcDbSymbolTable
100
AcDbDimStyleTable
0
DIMSTYLE
105
27
100
AcDbSymbolTableRecord
100
AcDbDimStyleTableRecord
2
Standard
70
0
3
<>
41
0.18
42
0.0625
44
0.18
140
0.18
147
0.09
73
0
74
0
77
1
271
2
275
0
278
52
280
0
340
11
0
ENDTAB
0
TABLE
2
VIEW
5
16e
100
AcDbSymbolTable
0
ENDTAB
0
TABLE
2
UCS
5
16f
100
AcDbSymbolTable
0
ENDTAB
0
TABLE
2
APPID
5
170
100
AcDbSymbolTable
0
APPID
5
12
100
AcDbSymbolTableRecord
100
AcDbRegAppTableRecord
2
ACAD
70
0
0
ENDTAB
0
TABLE
2
BLOCK_RECORD
5
171
100
AcDbSymbolTable
0
BLOCK_RECORD
5
1F
100
AcDbSymbolTableRecord
100
AcDbBlockTableRecord
2
*Model_Space
340
0
70
0
0
BLOCK_RECORD
5
1B
100
AcDbSymbolTableRecord
100
AcDbBlockTableRecord
2
*Paper_Space
340
0
70
0
0
BLOCK_RECORD
5
23
100
AcDbSymbolTableRecord
100
AcDbBlockTableRecord
2
*Paper_Space0
340
0
70
0
0
BLOCK_RECORD
5
A6
100
AcDbSymbolTableRecord
100
AcDbBlockTableRecord
2
LABLE3D_1
340
0
70
0
0
BLOCK_RECORD
5
D6
100
AcDbSymbolTableRecord
100
AcDbBlockTableRecord
2
DimnDraft3D1
340
0
70
0
0
BLOCK_RECORD
5
E1
100
AcDbSymbolTableRecord
100
AcDbBlockTableRecord
2
DimnDraft3D2
340
0
70
0
0
BLOCK_RECORD
5
EC
100
AcDbSymbolTableRecord
100
AcDbBlockTableRecord
2
DimnDraft3D3
340
0
70
0
0
BLOCK_RECORD
5
F6
100
AcDbSymbolTableRecord
100
AcDbBlockTableRecord
2
DimnDraft3D4
340
0
70
0
0
BLOCK_RECORD
5
100
100
AcDbSymbolTableRecord
100
AcDbBlockTableRecord
2
DimnDraft3D5
340
0
70
0
0
BLOCK_RECORD
5
10A
100
AcDbSymbolTableRecord
100
AcDbBlockTableRecord
2
DimnDraft3D6
340
0
70
0
0
BLOCK_RECORD
5
114
100
AcDbSymbolTableRecord
100
AcDbBlockTableRecord
2
DimnDraft3D7
340
0
70
0
0
BLOCK_RECORD
5
11F
100
AcDbSymbolTableRecord
100
AcDbBlockTableRecord
2
DimnDraft3D8
340
0
70
0
0
BLOCK_RECORD
5
12A
100
AcDbSymbolTableRecord
100
AcDbBlockTableRecord
2
DimnDraft3D9
340
0
70
0
0
ENDTAB
0
ENDSEC
0
SECTION
2
BLOCKS
0
BLOCK
5
20
100
AcDbEntity
8
0
100
AcDbBlockBegin
2
*Model_Space
70
0
10
0
20
0
30
0
3
*Model_Space
0
ENDBLK
5
21
100
AcDbEntity
8
0
100
AcDbBlockEnd
0
BLOCK
5
1C
100
AcDbEntity
8
0
100
AcDbBlockBegin
2
*Paper_Space
70
0
10
0
20
0
30
0
3
*Paper_Space
0
ENDBLK
5
1D
100
AcDbEntity
8
0
100
AcDbBlockEnd
0
BLOCK
5
24
100
AcDbEntity
8
0
100
AcDbBlockBegin
2
*Paper_Space0
70
0
10
0
20
0
30
0
3
*Paper_Space0
0
ENDBLK
5
25
100
AcDbEntity
8
0
100
AcDbBlockEnd
0
BLOCK
5
D1
100
AcDbEntity
8
0
100
AcDbBlockBegin
2
LABLE3D_1
70
0
10
0
20
0
30
0
3
LABLE3D_1
0
MTEXT
5
A7
100
AcDbEntity
8
SK6
62
256
6
ByLayer
370
-1
48
1
60
0
100
AcDbMText
10
-68.525
20
38.8635
30
0
210
0
220
0
230
1
1
\W01.000;\fsimplex.shx,bigfont.shx; 
40
3.5
41
0
44
1.084337
50
0
71
7
72
5
7
DEFAULT
0
LINE
5
CD
100
AcDbEntity
8
SK6
62
256
6
ByLayer
370
-1
48
1
60
0
100
AcDbLine
10
-67.9
20
41.4885
30
0
11
-60.823077
21
41.4885
31
0
39
0
210
0
220
0
230
1
0
LINE
5
CE
100
AcDbEntity
8
SK6
62
256
6
ByLayer
370
-1
48
1
60
0
100
AcDbLine
10
-35.373827
20
17.06583
30
0
11
-60.823077
21
41.4885
31
0
39
0
210
0
220
0
230
1
0
SOLID
5
CF
100
AcDbEntity
8
SK6
62
256
6
ByLayer
370
-1
48
1
60
0
100
AcDbTrace
10
-35.373827
20
17.06583
30
0
11
-39.311377
21
19.461853
31
0
12
-37.92986
22
20.901451
32
0
13
-35.373827
23
17.06583
33
0
39
0
210
0
220
0
230
1
0
ENDBLK
5
D2
100
AcDbEntity
8
0
100
AcDbBlockEnd
0
BLOCK
5
DE
100
AcDbEntity
8
0
100
AcDbBlockBegin
2
DimnDraft3D1
70
0
10
0
20
0
30
0
3
DimnDraft3D1
0
MTEXT
5
D7
100
AcDbEntity
8
2
62
256
6
ByLayer
370
-1
48
1
60
0
100
AcDbMText
10
73.906579
20
71.7135
30
0
210
0
220
0
230
1
1
\W01.000;\fsimplex.shx,bigfont.shx;153 
40
4.5
41
0
44
1.084337
50
0
71
7
72
5
7
DEFAULT
0
LINE
5
D9
100
AcDbEntity
8
2
62
256
6
ByLayer
370
-1
48
1
60
0
100
AcDbLine
10
0
20
23.8125
30
0
11
0
21
72.5885
31
0
39
0
210
0
220
0
230
1
0
LINE
5
DA
100
AcDbEntity
8
2
62
256
6
ByLayer
370
-1
48
1
60
0
100
AcDbLine
10
153
20
17.5875
30
0
11
153
21
72.5885
31
0
39
0
210
0
220
0
230
1
0
LINE
5
DB
100
AcDbEntity
8
2
62
256
6
ByLayer
370
-1
48
1
60
0
100
AcDbLine
10
0
20
70.5885
30
0
11
153
21
70.5885
31
0
39
0
210
0
220
0
230
1
0
SOLID
5
DC
100
AcDbEntity
8
2
62
256
6
ByLayer
370
-1
48
1
60
0
100
AcDbTrace
10
0
20
70.5885
30
0
11
4.499996
21
71.586126
31
0
12
4.500004
22
69.590874
32
0
13
0
23
70.5885
33
0
39
0
210
0
220
0
230
1
0
SOLID
5
DD
100
AcDbEntity
8
2
62
256
6
ByLayer
370
-1
48
1
60
0
100
AcDbTrace
10
153
20
70.5885
30
0
11
148.500004
21
69.590874
31
0
12
148.499996
22
71.586126
32
0
13
153
23
70.5885
33
0
39
0
210
0
220
0
230
1
0
ENDBLK
5
DF
100
AcDbEntity
8
0
100
AcDbBlockEnd
0
BLOCK
5
E9
100
AcDbEntity
8
0
100
AcDbBlockBegin
2
DimnDraft3D2
70
0
10
0
20
0
30
0
3
DimnDraft3D2
0
MTEXT
5
E2
100
AcDbEntity
8
SK2
62
256
6
ByLayer
370
-1
48
1
60
0
100
AcDbMText
10
11.996053
20
41.7135
30
0
210
0
220
0
230
1
1
\W01.000;\fsimplex.shx,bigfont.shx;27 
40
4.5
41
0
44
1.084337
50
0
71
7
72
5
7
DEFAULT
0
LINE
5
E4
100
AcDbEntity
8
SK2
62
256
6
ByLayer
370
-1
48
1
60
0
100
AcDbLine
10
0
20
23.8125
30
0
11
0
21
42.5885
31
0
39
0
210
0
220
0
230
1
0
LINE
5
E5
100
AcDbEntity
8
SK2
62
256
6
ByLayer
370
-1
48
1
60
0
100
AcDbLine
10
27
20
33.076
30
0
11
27
21
42.5885
31
0
39
0
210
0
220
0
230
1
0
LINE
5
E6
100
AcDbEntity
8
SK2
62
256
6
ByLayer
370
-1
48
1
60
0
100
AcDbLine
10
0
20
40.5885
30
0
11
27
21
40.5885
31
0
39
0
210
0
220
0
230
1
0
SOLID
5
E7
100
AcDbEntity
8
SK2
62
256
6
ByLayer
370
-1
48
1
60
0
100
AcDbTrace
10
0
20
40.5885
30
0
11
4.499996
21
41.586126
31
0
12
4.500004
22
39.590874
32
0
13
0
23
40.5885
33
0
39
0
210
0
220
0
230
1
0
SOLID
5
E8
100
AcDbEntity
8
SK2
62
256
6
ByLayer
370
-1
48
1
60
0
100
AcDbTrace
10
27
20
40.5885
30
0
11
22.500004
21
39.590874
31
0
12
22.499996
22
41.586126
32
0
13
27
23
40.5885
33
0
39
0
210
0
220
0
230
1
0
ENDBLK
5
EA
100
AcDbEntity
8
0
100
AcDbBlockEnd
0
BLOCK
5
F3
100
AcDbEntity
8
0
100
AcDbBlockBegin
2
DimnDraft3D3
70
0
10
0
20
0
30
0
3
DimnDraft3D3
0
MTEXT
5
ED
100
AcDbEntity
8
SK2
62
256
6
ByLayer
370
-1
48
1
60
0
100
AcDbMText
10
121.496053
20
41.7135
30
0
210
0
220
0
230
1
1
\W01.000;\fsimplex.shx,bigfont.shx;60 
40
4.5
41
0
44
1.084337
50
0
71
7
72
5
7
DEFAULT
0
LINE
5
EE
100
AcDbEntity
8
SK2
62
256
6
ByLayer
370
-1
48
1
60
0
100
AcDbLine
10
153
20
17.5875
30
0
11
153
21
42.5885
31
0
39
0
210
0
220
0
230
1
0
LINE
5
EF
100
AcDbEntity
8
SK2
62
256
6
ByLayer
370
-1
48
1
60
0
100
AcDbLine
10
93
20
17.5875
30
0
11
93
21
42.5885
31
0
39
0
210
0
220
0
230
1
0
LINE
5
F0
100
AcDbEntity
8
SK2
62
256
6
ByLayer
370
-1
48
1
60
0
100
AcDbLine
10
153
20
40.5885
30
0
11
93
21
40.5885
31
0
39
0
210
0
220
0
230
1
0
SOLID
5
F1
100
AcDbEntity
8
SK2
62
256
6
ByLayer
370
-1
48
1
60
0
100
AcDbTrace
10
153
20
40.5885
30
0
11
148.500004
21
39.590874
31
0
12
148.499996
22
41.586126
32
0
13
153
23
40.5885
33
0
39
0
210
0
220
0
230
1
0
SOLID
5
F2
100
AcDbEntity
8
SK2
62
256
6
ByLayer
370
-1
48
1
60
0
100
AcDbTrace
10
93
20
40.5885
30
0
11
97.499996
21
41.586126
31
0
12
97.500004
22
39.590874
32
0
13
93
23
40.5885
33
0
39
0
210
0
220
0
230
1
0
ENDBLK
5
F4
100
AcDbEntity
8
0
100
AcDbBlockEnd
0
BLOCK
5
FD
100
AcDbEntity
8
0
100
AcDbBlockBegin
2
DimnDraft3D4
70
0
10
0
20
0
30
0
3
DimnDraft3D4
0
MTEXT
5
F7
100
AcDbEntity
8
SK2
62
256
6
ByLayer
370
-1
48
1
60
0
100
AcDbMText
10
96.406579
20
51.7135
30
0
210
0
220
0
230
1
1
\W01.000;\fsimplex.shx,bigfont.shx;108 
40
4.5
41
0
44
1.084337
50
0
71
7
72
5
7
DEFAULT
0
LINE
5
F8
100
AcDbEntity
8
SK2
62
256
6
ByLayer
370
-1
48
1
60
0
100
AcDbLine
10
153
20
17.5875
30
0
11
153
21
52.5885
31
0
39
0
210
0
220
0
230
1
0
LINE
5
F9
100
AcDbEntity
8
SK2
62
256
6
ByLayer
370
-1
48
1
60
0
100
AcDbLine
10
45
20
21.5875
30
0
11
45
21
52.5885
31
0
39
0
210
0
220
0
230
1
0
LINE
5
FA
100
AcDbEntity
8
SK2
62
256
6
ByLayer
370
-1
48
1
60
0
100
AcDbLine
10
153
20
50.5885
30
0
11
45
21
50.5885
31
0
39
0
210
0
220
0
230
1
0
SOLID
5
FB
100
AcDbEntity
8
SK2
62
256
6
ByLayer
370
-1
48
1
60
0
100
AcDbTrace
10
153
20
50.5885
30
0
11
148.500004
21
49.590874
31
0
12
148.499996
22
51.586126
32
0
13
153
23
50.5885
33
0
39
0
210
0
220
0
230
1
0
SOLID
5
FC
100
AcDbEntity
8
SK2
62
256
6
ByLayer
370
-1
48
1
60
0
100
AcDbTrace
10
45
20
50.5885
30
0
11
49.499996
21
51.586126
31
0
12
49.500004
22
49.590874
32
0
13
45
23
50.5885
33
0
39
0
210
0
220
0
230
1
0
ENDBLK
5
FE
100
AcDbEntity
8
0
100
AcDbBlockEnd
0
BLOCK
5
107
100
AcDbEntity
8
0
100
AcDbBlockBegin
2
DimnDraft3D5
70
0
10
0
20
0
30
0
3
DimnDraft3D5
0
MTEXT
5
101
100
AcDbEntity
8
SK2
62
256
6
ByLayer
370
-1
48
1
60
0
100
AcDbMText
10
-36.856579
20
71.7135
30
0
210
0
220
0
230
1
1
\W01.000;\fsimplex.shx,bigfont.shx;65,4 
40
4.5
41
0
44
1.084337
50
0
71
7
72
5
7
DEFAULT
0
LINE
5
102
100
AcDbEntity
8
SK2
62
256
6
ByLayer
370
-1
48
1
60
0
100
AcDbLine
10
0
20
23.8125
30
0
11
0
21
72.5885
31
0
39
0
210
0
220
0
230
1
0
LINE
5
103
100
AcDbEntity
8
SK2
62
256
6
ByLayer
370
-1
48
1
60
0
100
AcDbLine
10
-65.4
20
13.7875
30
0
11
-65.4
21
72.5885
31
0
39
0
210
0
220
0
230
1
0
LINE
5
104
100
AcDbEntity
8
SK2
62
256
6
ByLayer
370
-1
48
1
60
0
100
AcDbLine
10
0
20
70.5885
30
0
11
-65.4
21
70.5885
31
0
39
0
210
0
220
0
230
1
0
SOLID
5
105
100
AcDbEntity
8
SK2
62
256
6
ByLayer
370
-1
48
1
60
0
100
AcDbTrace
10
0
20
70.5885
30
0
11
-4.499996
21
69.590874
31
0
12
-4.500004
22
71.586126
32
0
13
0
23
70.5885
33
0
39
0
210
0
220
0
230
1
0
SOLID
5
106
100
AcDbEntity
8
SK2
62
256
6
ByLayer
370
-1
48
1
60
0
100
AcDbTrace
10
-65.4
20
70.5885
30
0
11
-60.900004
21
71.586126
31
0
12
-60.899996
22
69.590874
32
0
13
-65.4
23
70.5885
33
0
39
0
210
0
220
0
230
1
0
ENDBLK
5
108
100
AcDbEntity
8
0
100
AcDbBlockEnd
0
BLOCK
5
111
100
AcDbEntity
8
0
100
AcDbBlockBegin
2
DimnDraft3D6
70
0
10
0
20
0
30
0
3
DimnDraft3D6
0
MTEXT
5
10B
100
AcDbEntity
8
SK2
62
256
6
ByLayer
370
-1
48
1
60
0
100
AcDbMText
10
109.008553
20
-38.9635
30
0
210
0
220
0
230
1
1
\W01.000;\fsimplex.shx,bigfont.shx;min 41-max 51 
40
4.5
41
0
44
1.084337
50
0
71
7
72
5
7
DEFAULT
0
LINE
5
10C
100
AcDbEntity
8
SK2
62
256
6
ByLayer
370
-1
48
1
60
0
100
AcDbLine
10
153
20
-11.5875
30
0
11
153
21
-42.0885
31
0
39
0
210
0
220
0
230
1
0
LINE
5
10D
100
AcDbEntity
8
SK2
62
256
6
ByLayer
370
-1
48
1
60
0
100
AcDbLine
10
102
20
-11.5875
30
0
11
102
21
-42.0885
31
0
39
0
210
0
220
0
230
1
0
LINE
5
10E
100
AcDbEntity
8
SK2
62
256
6
ByLayer
370
-1
48
1
60
0
100
AcDbLine
10
164.25
20
-40.0885
30
0
11
90.75
21
-40.0885
31
0
39
0
210
0
220
0
230
1
0
SOLID
5
10F
100
AcDbEntity
8
SK2
62
256
6
ByLayer
370
-1
48
1
60
0
100
AcDbTrace
10
153
20
-40.0885
30
0
11
157.499996
21
-39.090874
31
0
12
157.500004
22
-41.086126
32
0
13
153
23
-40.0885
33
0
39
0
210
0
220
0
230
1
0
SOLID
5
110
100
AcDbEntity
8
SK2
62
256
6
ByLayer
370
-1
48
1
60
0
100
AcDbTrace
10
102
20
-40.0885
30
0
11
97.500004
21
-41.086126
31
0
12
97.499996
22
-39.090874
32
0
13
102
23
-40.0885
33
0
39
0
210
0
220
0
230
1
0
ENDBLK
5
112
100
AcDbEntity
8
0
100
AcDbBlockEnd
0
BLOCK
5
11C
100
AcDbEntity
8
0
100
AcDbBlockBegin
2
DimnDraft3D7
70
0
10
0
20
0
30
0
3
DimnDraft3D7
0
MTEXT
5
115
100
AcDbEntity
8
SK2
62
256
6
ByLayer
370
-1
48
1
60
0
100
AcDbMText
10
215.25
20
3.746053
30
0
210
0
220
0
230
1
1
\W01.000;\fsimplex.shx,bigfont.shx;32 
40
4.5
41
0
44
1.084337
50
90
71
7
72
5
7
DEFAULT
0
MTEXT
5
116
100
AcDbEntity
8
SK2
62
256
6
ByLayer
370
-1
48
1
60
0
100
AcDbMText
10
215
20
-7.003947
30
0
210
0
220
0
230
1
1
\W01.000;\fsimplex.shx,bigfont.shx;%%c 
40
3.5
41
0
44
1.084337
50
90
71
7
72
5
7
DEFAULT
0
LINE
5
117
100
AcDbEntity
8
SK2
62
256
6
ByLayer
370
-1
48
1
60
0
100
AcDbLine
10
154.5875
20
-16
30
0
11
219.25
21
-16
31
0
39
0
210
0
220
0
230
1
0
LINE
5
118
100
AcDbEntity
8
SK2
62
256
6
ByLayer
370
-1
48
1
60
0
100
AcDbLine
10
154.5875
20
16
30
0
11
219.25
21
16
31
0
39
0
210
0
220
0
230
1
0
LINE
5
119
100
AcDbEntity
8
SK2
62
256
6
ByLayer
370
-1
48
1
60
0
100
AcDbLine
10
217.25
20
-16
30
0
11
217.25
21
16
31
0
39
0
210
0
220
0
230
1
0
SOLID
5
11A
100
AcDbEntity
8
SK2
62
256
6
ByLayer
370
-1
48
1
60
0
100
AcDbTrace
10
217.25
20
-16
30
0
11
216.252374
21
-11.500004
31
0
12
218.247626
22
-11.499996
32
0
13
217.25
23
-16
33
0
39
0
210
0
220
0
230
1
0
SOLID
5
11B
100
AcDbEntity
8
SK2
62
256
6
ByLayer
370
-1
48
1
60
0
100
AcDbTrace
10
217.25
20
16
30
0
11
218.247626
21
11.500004
31
0
12
216.252374
22
11.499996
32
0
13
217.25
23
16
33
0
39
0
210
0
220
0
230
1
0
ENDBLK
5
11D
100
AcDbEntity
8
0
100
AcDbBlockEnd
0
BLOCK
5
127
100
AcDbEntity
8
0
100
AcDbBlockBegin
2
DimnDraft3D8
70
0
10
0
20
0
30
0
3
DimnDraft3D8
0
MTEXT
5
120
100
AcDbEntity
8
SK2
62
256
6
ByLayer
370
-1
48
1
60
0
100
AcDbMText
10
225.25
20
3.509211
30
0
210
0
220
0
230
1
1
\W01.000;\fsimplex.shx,bigfont.shx;42 
40
4.5
41
0
44
1.084337
50
90
71
7
72
5
7
DEFAULT
0
MTEXT
5
121
100
AcDbEntity
8
SK2
62
256
6
ByLayer
370
-1
48
1
60
0
100
AcDbMText
10
225
20
-7.240789
30
0
210
0
220
0
230
1
1
\W01.000;\fsimplex.shx,bigfont.shx;%%c 
40
3.5
41
0
44
1.084337
50
90
71
7
72
5
7
DEFAULT
0
LINE
5
122
100
AcDbEntity
8
SK2
62
256
6
ByLayer
370
-1
48
1
60
0
100
AcDbLine
10
46.5875
20
21
30
0
11
229.25
21
21
31
0
39
0
210
0
220
0
230
1
0
LINE
5
123
100
AcDbEntity
8
SK2
62
256
6
ByLayer
370
-1
48
1
60
0
100
AcDbLine
10
46.5875
20
-21
30
0
11
229.25
21
-21
31
0
39
0
210
0
220
0
230
1
0
LINE
5
124
100
AcDbEntity
8
SK2
62
256
6
ByLayer
370
-1
48
1
60
0
100
AcDbLine
10
227.25
20
21
30
0
11
227.25
21
-21
31
0
39
0
210
0
220
0
230
1
0
SOLID
5
125
100
AcDbEntity
8
SK2
62
256
6
ByLayer
370
-1
48
1
60
0
100
AcDbTrace
10
227.25
20
21
30
0
11
228.247626
21
16.500004
31
0
12
226.252374
22
16.499996
32
0
13
227.25
23
21
33
0
39
0
210
0
220
0
230
1
0
SOLID
5
126
100
AcDbEntity
8
SK2
62
256
6
ByLayer
370
-1
48
1
60
0
100
AcDbTrace
10
227.25
20
-21
30
0
11
226.252374
21
-16.500004
31
0
12
228.247626
22
-16.499996
32
0
13
227.25
23
-21
33
0
39
0
210
0
220
0
230
1
0
ENDBLK
5
128
100
AcDbEntity
8
0
100
AcDbBlockEnd
0
BLOCK
5
132
100
AcDbEntity
8
0
100
AcDbBlockBegin
2
DimnDraft3D9
70
0
10
0
20
0
30
0
3
DimnDraft3D9
0
MTEXT
5
12B
100
AcDbEntity
8
SK2
62
256
6
ByLayer
370
-1
48
1
60
0
100
AcDbMText
10
206.25
20
3.746053
30
0
210
0
220
0
230
1
1
\W01.000;\fsimplex.shx,bigfont.shx;20 
40
4.5
41
0
44
1.084337
50
90
71
7
72
5
7
DEFAULT
0
MTEXT
5
12C
100
AcDbEntity
8
SK2
62
256
6
ByLayer
370
-1
48
1
60
0
100
AcDbMText
10
206
20
-7.003947
30
0
210
0
220
0
230
1
1
\W01.000;\fsimplex.shx,bigfont.shx;%%c 
40
3.5
41
0
44
1.084337
50
90
71
7
72
5
7
DEFAULT
0
LINE
5
12D
100
AcDbEntity
8
SK2
62
256
6
ByLayer
370
-1
48
1
60
0
100
AcDbLine
10
154.5875
20
10
30
0
11
210.25
21
10
31
0
39
0
210
0
220
0
230
1
0
LINE
5
12E
100
AcDbEntity
8
SK2
62
256
6
ByLayer
370
-1
48
1
60
0
100
AcDbLine
10
154.5875
20
-10
30
0
11
210.25
21
-10
31
0
39
0
210
0
220
0
230
1
0
LINE
5
12F
100
AcDbEntity
8
SK2
62
256
6
ByLayer
370
-1
48
1
60
0
100
AcDbLine
10
208.25
20
21.25
30
0
11
208.25
21
-21.25
31
0
39
0
210
0
220
0
230
1
0
SOLID
5
130
100
AcDbEntity
8
SK2
62
256
6
ByLayer
370
-1
48
1
60
0
100
AcDbTrace
10
208.25
20
10
30
0
11
207.252374
21
14.499996
31
0
12
209.247626
22
14.500004
32
0
13
208.25
23
10
33
0
39
0
210
0
220
0
230
1
0
SOLID
5
131
100
AcDbEntity
8
SK2
62
256
6
ByLayer
370
-1
48
1
60
0
100
AcDbTrace
10
208.25
20
-10
30
0
11
209.247626
21
-14.499996
31
0
12
207.252374
22
-14.500004
32
0
13
208.25
23
-10
33
0
39
0
210
0
220
0
230
1
0
ENDBLK
5
133
100
AcDbEntity
8
0
100
AcDbBlockEnd
0
ENDSEC
0
SECTION
2
ENTITIES
0
ARC
5
8B
100
AcDbEntity
8
SK1
62
256
6
ByLayer
370
-1
48
1
60
0
100
AcDbCircle
39
0
10
-64.4
20
11.821868
30
0
40
1
210
0
220
0
230
1
100
AcDbArc
50
98.297917
51
180
0
ARC
5
8C
100
AcDbEntity
8
SK1
62
256
6
ByLayer
370
-1
48
1
60
0
100
AcDbCircle
39
0
10
-64.4
20
-11.821868
30
0
40
1
210
0
220
0
230
1
100
AcDbArc
50
180
51
261.702083
0
ARC
5
8D
100
AcDbEntity
8
1
62
256
6
ByLayer
370
-1
48
1
60
0
100
AcDbCircle
39
0
10
26
20
-30.4885
30
0
40
1
210
0
220
0
230
1
100
AcDbArc
50
270
51
0
0
ARC
5
8E
100
AcDbEntity
8
1
62
256
6
ByLayer
370
-1
48
1
60
0
100
AcDbCircle
39
0
10
26
20
30.4885
30
0
40
1
210
0
220
0
230
1
100
AcDbArc
50
0
51
90
0
ARC
5
8F
100
AcDbEntity
8
1
62
256
6
ByLayer
370
-1
48
1
60
0
100
AcDbCircle
39
0
10
-29.5
20
-23.5
30
0
40
2.5
210
0
220
0
230
-1
100
AcDbArc
50
0
51
90
0
ARC
5
90
100
AcDbEntity
8
1
62
256
6
ByLayer
370
-1
48
1
60
0
100
AcDbCircle
39
0
10
-29.5
20
23.5
30
0
40
2.5
210
0
220
0
230
-1
100
AcDbArc
50
270
51
0
0
ARC
5
91
100
AcDbEntity
8
1
62
256
6
ByLayer
370
-1
48
1
60
0
100
AcDbCircle
39
0
10
-0.8
20
-22.425
30
0
40
0.5
210
0
220
0
230
-1
100
AcDbArc
50
90
51
113.578588
0
ARC
5
92
100
AcDbEntity
8
1
62
256
6
ByLayer
370
-1
48
1
60
0
100
AcDbCircle
39
0
10
-0.8
20
22.425
30
0
40
0.5
210
0
220
0
230
-1
100
AcDbArc
50
246.421412
51
270
0
ARC
5
93
100
AcDbEntity
8
1
62
256
6
ByLayer
370
-1
48
1
60
0
100
AcDbCircle
39
0
10
42.402859
20
29
30
0
40
50
210
0
220
0
230
1
100
AcDbArc
50
270
51
275.946863
0
ARC
5
94
100
AcDbEntity
8
1
62
256
6
ByLayer
370
-1
48
1
60
0
100
AcDbCircle
39
0
10
42.402859
20
-29
30
0
40
50
210
0
220
0
230
1
100
AcDbArc
50
84.053137
51
90
0
ARC
5
95
100
AcDbEntity
8
1
62
256
6
ByLayer
370
-1
48
1
60
0
100
AcDbCircle
39
0
10
-95.59714
20
-66
30
0
40
50
210
0
220
0
230
-1
100
AcDbArc
50
84.053137
51
90
0
ARC
5
96
100
AcDbEntity
8
1
62
256
6
ByLayer
370
-1
48
1
60
0
100
AcDbCircle
39
0
10
-95.59714
20
66
30
0
40
50
210
0
220
0
230
-1
100
AcDbArc
50
270
51
275.946863
0
ARC
5
97
100
AcDbEntity
8
1
62
256
6
ByLayer
370
-1
48
1
60
0
100
AcDbCircle
39
0
10
152.2
20
-14.969571
30
0
40
0.800000000000011
210
0
220
0
230
1
100
AcDbArc
50
282
51
0
0
ARC
5
98
100
AcDbEntity
8
1
62
256
6
ByLayer
370
-1
48
1
60
0
100
AcDbCircle
39
0
10
152.2
20
14.969571
30
0
40
0.800000000000011
210
0
220
0
230
1
100
AcDbArc
50
0
51
78
0
ELLIPSE
5
99
100
AcDbEntity
8
1
62
256
6
ByLayer
370
-1
48
1
60
0
100
AcDbEllipse
10
10.594998
20
6E-06
30
0
11
30.3492693058825
21
8.39328874309602
31
0
210
0
220
0
230
1
40
1
41
1.56098093343872
42
1.57744879897911
0
ELLIPSE
5
9A
100
AcDbEntity
8
1
62
256
6
ByLayer
370
-1
48
1
60
0
100
AcDbEllipse
10
10.594998
20
-6E-06
30
0
11
30.3492693058824
21
-8.39328874309606
31
0
210
0
220
0
230
1
40
1
41
-1.5774487989791
42
-1.56098093343872
0
POINT
5
41
100
AcDbEntity
8
80
62
256
6
ByLayer
370
-1
48
1
60
0
100
AcDbPoint
10
0
20
0
30
0
39
0
210
0
220
0
230
1
50
360
0
POINT
5
43
100
AcDbEntity
8
81
62
256
6
ByLayer
370
-1
48
1
60
0
100
AcDbPoint
10
153
20
0
30
0
39
0
210
0
220
0
230
1
50
360
0
SPLINE
5
9B
100
AcDbEntity
8
1
62
256
6
ByLayer
370
-1
48
1
60
0
100
AcDbSpline
70
4
71
3
72
8
73
4
40
0
40
0
40
0
40
0
40
1
40
1
40
1
40
1
41
1
10
14.1
20
25.8788351685465
30
0
41
1
10
13.2669284058015
20
27.3983488177734
30
0
41
1
10
12.4289425320743
20
28.9151338831969
30
0
41
1
10
11.5878755063094
20
30.4301923630134
30
0
0
SPLINE
5
9C
100
AcDbEntity
8
1
62
256
6
ByLayer
370
-1
48
1
60
0
100
AcDbSpline
70
4
71
3
72
139
73
135
40
-0.0039062499999996
40
-0.0039062499999996
40
0
40
0
40
0.0312500000000034
40
0.0312500000000034
40
0.0625000000000068
40
0.0625000000000068
40
0.0781250000000085
40
0.0781250000000085
40
0.0937500000000102
40
0.0937500000000102
40
0.125000000000013
40
0.125000000000013
40
0.156250000000016
40
0.156250000000016
40
0.171875000000017
40
0.171875000000017
40
0.187500000000019
40
0.187500000000019
40
0.218750000000021
40
0.218750000000021
40
0.250000000000024
40
0.250000000000024
40
0.265625000000025
40
0.265625000000025
40
0.281250000000026
40
0.281250000000026
40
0.296875000000027
40
0.296875000000027
40
0.304687500000027
40
0.304687500000027
40
0.312500000000027
40
0.312500000000027
40
0.328125000000027
40
0.328125000000027
40
0.335937500000026
40
0.335937500000026
40
0.343750000000026
40
0.343750000000026
40
0.351562500000026
40
0.351562500000026
40
0.359375000000026
40
0.359375000000026
40
0.375000000000025
40
0.375000000000025
40
0.378906250000025
40
0.378906250000025
40
0.382812500000025
40
0.382812500000025
40
0.390625000000025
40
0.390625000000025
40
0.398437500000025
40
0.398437500000025
40
0.406250000000024
40
0.406250000000024
40
0.414062500000024
40
0.414062500000024
40
0.421875000000024
40
0.421875000000024
40
0.437500000000023
40
0.437500000000023
40
0.453125000000023
40
0.453125000000023
40
0.468750000000023
40
0.468750000000023
40
0.500000000000023
40
0.500000000000023
40
0.531250000000022
40
0.531250000000022
40
0.546875000000021
40
0.546875000000021
40
0.562500000000021
40
0.562500000000021
40
0.593750000000021
40
0.593750000000021
40
0.62500000000002
40
0.62500000000002
40
0.65625000000002
40
0.65625000000002
40
0.68750000000002
40
0.68750000000002
40
0.703125000000019
40
0.703125000000019
40
0.718750000000019
40
0.718750000000019
40
0.750000000000019
40
0.750000000000019
40
0.765625000000019
40
0.765625000000019
40
0.781250000000019
40
0.781250000000019
40
0.789062500000019
40
0.789062500000019
40
0.796875000000018
40
0.796875000000018
40
0.804687500000018
40
0.804687500000018
40
0.812500000000018
40
0.812500000000018
40
0.820312500000018
40
0.820312500000018
40
0.824218750000017
40
0.824218750000017
40
0.828125000000017
40
0.828125000000017
40
0.843750000000015
40
0.843750000000015
40
0.851562500000015
40
0.851562500000015
40
0.859375000000014
40
0.859375000000014
40
0.867187500000014
40
0.867187500000014
40
0.875000000000013
40
0.875000000000013
40
0.882812500000012
40
0.882812500000012
40
0.890625000000012
40
0.890625000000012
40
0.90625000000001
40
0.90625000000001
40
0.921875000000009
40
0.921875000000009
40
0.929687500000008
40
0.929687500000008
40
0.937500000000007
40
0.937500000000007
40
0.968750000000004
40
0.968750000000004
40
0.984375000000002
40
0.984375000000002
40
0.992187500000001
40
0.99609375
40
0.99609375
40
1
40
1
40
1.03125
40
1.03125
41
1
10
50.9130673597293
20
-17.0008007941437
30
0
41
1
10
51.3142938838761
20
-17.2010881834447
30
0
41
1
10
51.6895467730878
20
-17.354038278555
30
0
41
1
10
52.4744894125541
20
-17.6190664259759
30
0
41
1
10
52.8842178211715
20
-17.7310794482128
30
0
41
1
10
53.524303286938
20
-17.8728993049768
30
0
41
1
10
53.7419278073181
20
-17.9157869544112
30
0
41
1
10
54.1857896621624
20
-17.9933560584632
30
0
41
1
10
54.4125559808015
20
-18.0280894800012
30
0
41
1
10
55.0985841127134
20
-18.1197815757603
30
0
41
1
10
55.5653628097543
20
-18.1647075084239
30
0
41
1
10
56.5176313895256
20
-18.2274085005649
30
0
41
1
10
57.0031165471402
20
-18.2451748259524
30
0
41
1
10
57.7459041422099
20
-18.2537654518048
30
0
41
1
10
57.995933566574
20
-18.2536033688684
30
0
41
1
10
58.5010515016027
20
-18.2474108404144
30
0
41
1
10
58.7552534062078
20
-18.2413768233111
30
0
41
1
10
59.5166452504776
20
-18.2150409219422
30
0
41
1
10
60.0250730536695
20
-18.186583537293
30
0
41
1
10
61.0438471981072
20
-18.1083534910861
30
0
41
1
10
61.5541902209636
20
-18.0586513326704
30
0
41
1
10
62.3213770050802
20
-17.9655018718795
30
0
41
1
10
62.5773853583466
20
-17.9313176600532
30
0
41
1
10
63.0900185218662
20
-17.8555376696873
30
0
41
1
10
63.3475430668464
20
-17.8137671807535
30
0
41
1
10
63.8546440705653
20
-17.7224971506034
30
0
41
1
10
64.1050075649101
20
-17.6729248285311
30
0
41
1
10
64.4747919698412
20
-17.5910075487733
30
0
41
1
10
64.5970881698773
20
-17.562433241371
30
0
41
1
10
64.8394976462901
20
-17.5023201340985
30
0
41
1
10
64.9593700895361
20
-17.4708300686625
30
0
41
1
10
65.3112723140362
20
-17.3722602240556
30
0
41
1
10
65.5368756551004
20
-17.3008899671885
30
0
41
1
10
65.8578258515904
20
-17.1818408971414
30
0
41
1
10
65.9618776639498
20
-17.140139676189
30
0
41
1
10
66.1630191771788
20
-17.0517372754309
30
0
41
1
10
66.2605350177495
20
-17.0047696025507
30
0
41
1
10
66.4427389664829
20
-16.9069058284052
30
0
41
1
10
66.5279014524204
20
-16.8558438069757
30
0
41
1
10
66.6847787871927
20
-16.7486247112128
30
0
41
1
10
66.7567477947551
20
-16.6922407591974
30
0
41
1
10
66.9476016410769
20
-16.5152288605866
30
0
41
1
10
67.0371819220472
20
-16.3910500107689
30
0
41
1
10
67.0995869679293
20
-16.226252811017
30
0
41
1
10
67.109605393789
20
-16.1926562524074
30
0
41
1
10
67.1243832928938
20
-16.125311801541
30
0
41
1
10
67.1291640671466
20
-16.0916098272692
30
0
41
1
10
67.1361161079407
20
-15.9903754311197
30
0
41
1
10
67.1309126257015
20
-15.9227130132563
30
0
41
1
10
67.1026948902191
20
-15.7868775994379
30
0
41
1
10
67.0794448011793
20
-15.7183675914311
30
0
41
1
10
67.0183723882835
20
-15.5840479367923
30
0
41
1
10
66.980554587376
20
-15.5178666325337
30
0
41
1
10
66.8926939999554
20
-15.3870345325215
30
0
41
1
10
66.8426417099801
20
-15.3223857285186
30
0
41
1
10
66.7319934838083
20
-15.1943255928123
30
0
41
1
10
66.6711266960061
20
-15.1306723721942
30
0
41
1
10
66.4769673739405
20
-14.9434411800593
30
0
41
1
10
66.3324259330345
20
-14.8234340376943
30
0
41
1
10
66.0216203986419
20
-14.5900845810106
30
0
41
1
10
65.8552649539828
20
-14.476777238619
30
0
41
1
10
65.5055311075667
20
-14.2552863573188
30
0
41
1
10
65.3214819732036
20
-14.1467814824106
30
0
41
1
10
64.7546847890638
20
-13.8310087366502
30
0
41
1
10
64.3568339677857
20
-13.6326145587327
30
0
41
1
10
63.5338865650796
20
-13.2528578079179
30
0
41
1
10
63.1085899471512
20
-13.071624612896
30
0
41
1
10
62.4544450845476
20
-12.8106817566101
30
0
41
1
10
62.2336630534152
20
-12.7255415667564
30
0
41
1
10
61.7870757472412
20
-12.5588183061279
30
0
41
1
10
61.5610174405462
20
-12.4771484754698
30
0
41
1
10
60.8775876176799
20
-12.2380871039674
30
0
41
1
10
60.4161749925015
20
-12.0869756583199
30
0
41
1
10
59.4828990279139
20
-11.8013968429941
30
0
41
1
10
59.0110299134202
20
-11.6669281301801
30
0
41
1
10
58.0569654410563
20
-11.4164533301575
30
0
41
1
10
57.5747766529412
20
-11.3004232071271
30
0
41
1
10
56.5992121554679
20
-11.0906693024882
30
0
41
1
10
56.1058621502775
20
-10.9968791832872
30
0
41
1
10
55.3557306524376
20
-10.87826054857
30
0
41
1
10
55.1039894100511
20
-10.84242919186
30
0
41
1
10
54.5965839809745
20
-10.7796467623137
30
0
41
1
10
54.3408912682784
20
-10.7527207834292
30
0
41
1
10
53.5747036075866
20
-10.68882746481
30
0
41
1
10
53.0628068976413
20
-10.6678401506158
30
0
41
1
10
52.292613070542
20
-10.6864731683934
30
0
41
1
10
52.0354847992646
20
-10.7011413700987
30
0
41
1
10
51.5201705145694
20
-10.7529560657961
30
0
41
1
10
51.261991190227
20
-10.789997039509
30
0
41
1
10
50.8735571939416
20
-10.8694995487126
30
0
41
1
10
50.7444569570777
20
-10.8999622588763
30
0
41
1
10
50.4906451468269
20
-10.9692379366296
30
0
41
1
10
50.3654622586041
20
-11.0081393845394
30
0
41
1
10
50.1191108797411
20
-11.0958288381692
30
0
41
1
10
49.9979395984015
20
-11.1446104460915
30
0
41
1
10
49.7603693275719
20
-11.2538577569946
30
0
41
1
10
49.6441841764817
20
-11.3143552699013
30
0
41
1
10
49.4235460114611
20
-11.4453379908049
30
0
41
1
10
49.3183357632364
20
-11.5161450502674
30
0
41
1
10
49.1689573152562
20
-11.6309895212201
30
0
41
1
10
49.1205724529317
20
-11.6707113848828
30
0
41
1
10
49.0267740303082
20
-11.7531666649926
30
0
41
1
10
48.9813910345329
20
-11.7959079314254
30
0
41
1
10
48.7661280010985
20
-12.0133079229187
30
0
41
1
10
48.6275363614
20
-12.2019442562087
30
0
41
1
10
48.4670740630415
20
-12.5038602898778
30
0
41
1
10
48.4225747914219
20
-12.6057168721932
30
0
41
1
10
48.3498067562809
20
-12.8100216999782
30
0
41
1
10
48.3214315458709
20
-12.9126861686592
30
0
41
1
10
48.2789747105472
20
-13.1186424585242
30
0
41
1
10
48.265041840805
20
-13.2215983386418
30
0
41
1
10
48.2501236804466
20
-13.4235074447039
30
0
41
1
10
48.2490148699836
20
-13.5230419382006
30
0
41
1
10
48.2577344196605
20
-13.7194501194986
30
0
41
1
10
48.2675703002672
20
-13.8163230609327
30
0
41
1
10
48.2969743348268
20
-14.0075298817863
30
0
41
1
10
48.3166178109657
20
-14.1021267053522
30
0
41
1
10
48.388389253782
20
-14.3803895894
30
0
41
1
10
48.452634569914
20
-14.556911141983
30
0
41
1
10
48.6069583860361
20
-14.8950809265604
30
0
41
1
10
48.6971169151928
20
-15.0566974102993
30
0
41
1
10
48.8491573800888
20
-15.2892465606401
30
0
41
1
10
48.9026568140689
20
-15.365109594993
30
0
41
1
10
49.0150249274853
20
-15.5136799709074
30
0
41
1
10
49.0739810056594
20
-15.5864667818509
30
0
41
1
10
49.3787385284247
20
-15.9395543019192
30
0
41
1
10
49.6558715310163
20
-16.1905117843168
30
0
41
1
10
50.1131205213379
20
-16.5296286137865
30
0
41
1
10
50.2725653357822
20
-16.6363679102664
30
0
41
1
10
50.5218846323122
20
-16.7877700941822
30
0
41
1
10
50.6490869263347
20
-16.8612911058266
30
0
41
1
10
50.7800701035539
20
-16.9316527463735
30
0
41
1
10
50.8682305589032
20
-16.9778694977697
30
0
41
1
10
50.9130673597293
20
-17.0008007941437
30
0
41
1
10
51.3142938838761
20
-17.2010881834447
30
0
0
SPLINE
5
9D
100
AcDbEntity
8
1
62
256
6
ByLayer
370
-1
48
1
60
0
100
AcDbSpline
70
4
71
3
72
18
73
14
40
0
40
0
40
0
40
0
40
0.125000000000001
40
0.125000000000001
40
0.250000000000001
40
0.250000000000001
40
0.500000000000002
40
0.500000000000002
40
0.625000000000001
40
0.625000000000001
40
0.750000000000001
40
0.750000000000001
40
1
40
1
40
1
40
1
41
1
10
21.6121244936907
20
31.1595762985737
30
0
41
1
10
21.7243880241935
20
31.1837583586325
30
0
41
1
10
21.8308264208118
20
31.207271037413
30
0
41
1
10
22.0292467326254
20
31.2519526259515
30
0
41
1
10
22.1216827783911
20
31.2732189927505
30
0
41
1
10
22.3789736082912
20
31.3333486816157
30
0
41
1
10
22.523924954989
20
31.3685473537848
30
0
41
1
10
22.7006445541077
20
31.4122194946719
30
0
41
1
10
22.7528508950066
20
31.4252835657036
30
0
41
1
10
22.8426177216711
20
31.4479178656058
30
0
41
1
10
22.879968744676
20
31.4574339151934
30
0
41
1
10
22.9697385703788
20
31.4804328073055
30
0
41
1
10
23
20
31.4883697891511
30
0
41
1
10
23
20
31.4884984121187
30
0
0
SPLINE
5
9E
100
AcDbEntity
8
1
62
256
6
ByLayer
370
-1
48
1
60
0
100
AcDbSpline
70
4
71
3
72
14
73
10
40
0
40
0
40
0
40
0
40
0.25
40
0.25
40
0.5
40
0.5
40
0.75
40
0.75
40
1
40
1
40
1
40
1
41
1
10
21.6121244936907
20
-31.1595762985737
30
0
41
1
10
21.4232830465229
20
-30.7866916465256
30
0
41
1
10
21.2267776656221
20
-30.3989111806456
30
0
41
1
10
20.8218877159037
20
-29.6005264978513
30
0
41
1
10
20.6128221573118
20
-29.1885823046998
30
0
41
1
10
20.1896590035668
20
-28.3555310704718
30
0
41
1
10
19.9751559153815
20
-27.9336219084014
30
0
41
1
10
19.5411836705927
20
-27.0809278934795
30
0
41
1
10
19.3217082654444
20
-26.6501303016001
30
0
41
1
10
19.1
20
-26.2154855563485
30
0
0
SPLINE
5
9F
100
AcDbEntity
8
1
62
256
6
ByLayer
370
-1
48
1
60
0
100
AcDbSpline
70
4
71
3
72
18
73
14
40
0
40
0
40
0
40
0
40
0.125
40
0.125
40
0.25
40
0.25
40
0.5
40
0.5
40
0.625
40
0.625
40
0.75
40
0.75
40
1
40
1
40
1
40
1
41
1
10
21.6121244936907
20
-31.1595762985737
30
0
41
1
10
21.7243880241935
20
-31.1837583586325
30
0
41
1
10
21.8308264208118
20
-31.207271037413
30
0
41
1
10
22.0292467326254
20
-31.2519526259515
30
0
41
1
10
22.1216827783911
20
-31.2732189927505
30
0
41
1
10
22.3789736082912
20
-31.3333486816157
30
0
41
1
10
22.523924954989
20
-31.3685473537848
30
0
41
1
10
22.7006445541076
20
-31.4122194946719
30
0
41
1
10
22.7528508950066
20
-31.4252835657036
30
0
41
1
10
22.8426177216711
20
-31.4479178656058
30
0
41
1
10
22.879968744676
20
-31.4574339151934
30
0
41
1
10
22.9697385703787
20
-31.4804328073055
30
0
41
1
10
23
20
-31.4883697891511
30
0
41
1
10
23
20
-31.4884984121187
30
0
0
SPLINE
5
A0
100
AcDbEntity
8
1
62
256
6
ByLayer
370
-1
48
1
60
0
100
AcDbSpline
70
4
71
3
72
14
73
10
40
0
40
0
40
0
40
0
40
0.25
40
0.25
40
0.5
40
0.5
40
0.75
40
0.75
40
1
40
1
40
1
40
1
41
1
10
21.6121244936907
20
31.1595762985737
30
0
41
1
10
21.4232830465229
20
30.7866916465256
30
0
41
1
10
21.2267776656221
20
30.3989111806456
30
0
41
1
10
20.8218877159036
20
29.6005264978513
30
0
41
1
10
20.6128221573118
20
29.1885823046998
30
0
41
1
10
20.1896590035668
20
28.3555310704718
30
0
41
1
10
19.9751559153815
20
27.9336219084014
30
0
41
1
10
19.5411836705927
20
27.0809278934795
30
0
41
1
10
19.3217082654444
20
26.6501303016001
30
0
41
1
10
19.1
20
26.2154855563485
30
0
0
SPLINE
5
A1
100
AcDbEntity
8
1
62
256
6
ByLayer
370
-1
48
1
60
0
100
AcDbSpline
70
4
71
3
72
24
73
20
40
0
40
0
40
0
40
0
40
0.250000000000001
40
0.250000000000001
40
0.375
40
0.375
40
0.499999999999999
40
0.499999999999999
40
0.624999999999997
40
0.624999999999997
40
0.749999999999996
40
0.749999999999996
40
0.812499999999997
40
0.812499999999997
40
0.874999999999998
40
0.874999999999998
40
0.937499999999999
40
0.937499999999999
40
1
40
1
40
1
40
1
41
1
10
2
20
-30.2927649324059
30
0
41
1
10
1.87780387218348
20
-30.2580940886936
30
0
41
1
10
1.76149749081807
20
-30.201773450651
30
0
41
1
10
1.59510501489004
20
-30.0876390996262
30
0
41
1
10
1.54062620401692
20
-30.0441388529442
30
0
41
1
10
1.43711694300478
20
-29.9483874133349
30
0
41
1
10
1.38801702074977
20
-29.8962128366988
30
0
41
1
10
1.29544380331419
20
-29.782752300197
30
0
41
1
10
1.25195716259361
20
-29.7214879512054
30
0
41
1
10
1.17163995011487
20
-29.5881808607119
30
0
41
1
10
1.1348693170593
20
-29.5159631369588
30
0
41
1
10
1.08834784988733
20
-29.4022568780343
30
0
41
1
10
1.07418517986071
20
-29.3632929940115
30
0
41
1
10
1.04893094470961
20
-29.2829398434032
30
0
41
1
10
1.03779349822255
20
-29.2412894956062
30
0
41
1
10
1.01959044678134
20
-29.1570939341671
30
0
41
1
10
1.01246174737452
20
-29.1144331044659
30
0
41
1
10
1.00266784003196
20
-29.0278375547516
30
0
41
1
10
1
20
-28.9835784747739
30
0
41
1
10
1
20
-28.9393263095394
30
0
0
SPLINE
5
A2
100
AcDbEntity
8
1
62
256
6
ByLayer
370
-1
48
1
60
0
100
AcDbSpline
70
4
71
3
72
16
73
12
40
0
40
0
40
0
40
0
40
0.25
40
0.25
40
0.5
40
0.5
40
0.625
40
0.625
40
0.75
40
0.75
40
1
40
1
40
1
40
1
41
1
10
19.1
20
-25.578478224365
30
0
41
1
10
18.7859855683415
20
-25.5270267615828
30
0
41
1
10
18.4622320920908
20
-25.4796137311927
30
0
41
1
10
17.7955813795747
20
-25.3952718713574
30
0
41
1
10
17.4526838710613
20
-25.3583368229869
30
0
41
1
10
16.9234291840528
20
-25.312623281431
30
0
41
1
10
16.7440537825827
20
-25.2989719671523
30
0
41
1
10
16.3822896339553
20
-25.2753630465714
30
0
41
1
10
16.2006559201055
20
-25.2654448288
30
0
41
1
10
15.6535162567279
20
-25.2415152827231
30
0
41
1
10
15.2857814257644
20
-25.2333306362834
30
0
41
1
10
14.915
20
-25.2333306362834
30
0
0
SPLINE
5
A3
100
AcDbEntity
8
1
62
256
6
ByLayer
370
-1
48
1
60
0
100
AcDbSpline
70
4
71
3
72
8
73
4
40
0
40
0
40
0
40
0
40
1
40
1
40
1
40
1
41
1
10
14.1
20
-25.8788351685465
30
0
41
1
10
13.2669606258407
20
-27.3982900487678
30
0
41
1
10
12.4289507478118
20
-28.9151190837548
30
0
41
1
10
11.5878755063094
20
-30.4301923630134
30
0
0
SPLINE
5
A4
100
AcDbEntity
8
1
62
256
6
ByLayer
370
-1
48
1
60
0
100
AcDbSpline
70
4
71
3
72
16
73
12
40
0
40
0
40
0
40
0
40
0.25
40
0.25
40
0.5
40
0.5
40
0.625
40
0.625
40
0.75
40
0.75
40
1
40
1
40
1
40
1
41
1
10
19.1
20
25.578478224365
30
0
41
1
10
18.7859855683415
20
25.5270267615828
30
0
41
1
10
18.4622320920908
20
25.4796137311927
30
0
41
1
10
17.7955813795747
20
25.3952718713574
30
0
41
1
10
17.4526838710613
20
25.3583368229869
30
0
41
1
10
16.9234291840528
20
25.312623281431
30
0
41
1
10
16.7440537825827
20
25.2989719671523
30
0
41
1
10
16.3822896339553
20
25.2753630465714
30
0
41
1
10
16.2006559201055
20
25.2654448288
30
0
41
1
10
15.6535162567279
20
25.2415152827231
30
0
41
1
10
15.2857814257644
20
25.2333306362834
30
0
41
1
10
14.915
20
25.2333306362834
30
0
0
SPLINE
5
A5
100
AcDbEntity
8
1
62
256
6
ByLayer
370
-1
48
1
60
0
100
AcDbSpline
70
4
71
3
72
24
73
20
40
0
40
0
40
0
40
0
40
0.25
40
0.25
40
0.375000000000001
40
0.375000000000001
40
0.500000000000002
40
0.500000000000002
40
0.625000000000003
40
0.625000000000003
40
0.750000000000004
40
0.750000000000004
40
0.812500000000003
40
0.812500000000003
40
0.875000000000002
40
0.875000000000002
40
0.937500000000001
40
0.937500000000001
40
1
40
1
40
1
40
1
41
1
10
2
20
30.2927649324059
30
0
41
1
10
1.87780387218348
20
30.2580940886936
30
0
41
1
10
1.76149749081807
20
30.2017734506511
30
0
41
1
10
1.59510501489004
20
30.0876390996262
30
0
41
1
10
1.54062620401692
20
30.0441388529442
30
0
41
1
10
1.43711694300478
20
29.9483874133349
30
0
41
1
10
1.38801702074977
20
29.8962128366987
30
0
41
1
10
1.29544380331419
20
29.782752300197
30
0
41
1
10
1.25195716259361
20
29.7214879512054
30
0
41
1
10
1.17163995011487
20
29.5881808607119
30
0
41
1
10
1.1348693170593
20
29.5159631369588
30
0
41
1
10
1.08834784988733
20
29.4022568780343
30
0
41
1
10
1.07418517986071
20
29.3632929940115
30
0
41
1
10
1.04893094470961
20
29.2829398434032
30
0
41
1
10
1.03779349822255
20
29.2412894956062
30
0
41
1
10
1.01959044678134
20
29.1570939341671
30
0
41
1
10
1.01246174737452
20
29.1144331044659
30
0
41
1
10
1.00266784003196
20
29.0278375547516
30
0
41
1
10
1
20
28.9835784747739
30
0
41
1
10
1
20
28.9393263095394
30
0
0
INSERT
5
D0
100
AcDbEntity
8
SK6
62
256
6
ByLayer
370
-1
48
1
60
0
100
AcDbBlockReference
2
LABLE3D_1
10
0
20
0
30
0
41
1
42
1
43
1
50
0
210
0
220
0
230
1
0
LINE
5
45
100
AcDbEntity
8
SK3
62
256
6
ByLayer
370
-1
48
0.05
60
0
100
AcDbLine
10
153
20
10
30
0
11
103.5
21
10
31
0
39
0
210
0
220
0
230
1
0
LINE
5
47
100
AcDbEntity
8
SK3
62
256
6
ByLayer
370
-1
48
0.05
60
0
100
AcDbLine
10
102
20
8.5
30
0
11
102
21
-8.5
31
0
39
0
210
0
220
0
230
1
0
LINE
5
48
100
AcDbEntity
8
4
62
256
6
ByLayer
370
-1
48
0.05
60
0
100
AcDbLine
10
153
20
0
30
0
11
0
21
0
31
0
39
0
210
0
220
0
230
1
0
LINE
5
4A
100
AcDbEntity
8
80
62
256
6
ByLayer
370
-1
48
1
60
0
100
AcDbLine
10
0
20
0
30
0
11
-10.875929
21
0
31
0
39
0
210
0
220
0
230
1
0
LINE
5
4B
100
AcDbEntity
8
SK3
62
256
6
ByLayer
370
-1
48
0.05
60
0
100
AcDbLine
10
103.5
20
-10
30
0
11
153
21
-10
31
0
39
0
210
0
220
0
230
1
0
LINE
5
4C
100
AcDbEntity
8
SK3
62
256
6
ByLayer
370
-1
48
0.05
60
0
100
AcDbLine
10
103.5
20
10
30
0
11
102
21
8.5
31
0
39
0
210
0
220
0
230
1
0
LINE
5
4D
100
AcDbEntity
8
SK3
62
256
6
ByLayer
370
-1
48
0.05
60
0
100
AcDbLine
10
102
20
-8.5
30
0
11
103.5
21
-10
31
0
39
0
210
0
220
0
230
1
0
LINE
5
4E
100
AcDbEntity
8
SK3
62
256
6
ByLayer
370
-1
48
0.05
60
0
100
AcDbLine
10
103.5
20
-10
30
0
11
103.5
21
10
31
0
39
0
210
0
220
0
230
1
0
LINE
5
4F
100
AcDbEntity
8
81
62
256
6
ByLayer
370
-1
48
1
60
0
100
AcDbLine
10
153
20
0
30
0
11
157.742527
21
0
31
0
39
0
210
0
220
0
230
1
0
LINE
5
50
100
AcDbEntity
8
SK4
62
256
6
ByLayer
370
-1
48
0.05
60
0
100
AcDbLine
10
-75.4
20
0
30
0
11
163
21
0
31
0
39
0
210
0
220
0
230
1
0
LINE
5
52
100
AcDbEntity
8
1
62
256
6
ByLayer
370
-1
48
1
60
0
100
AcDbLine
10
2.5
20
-30.430192
30
0
11
11.587876
21
-30.430192
31
0
39
0
210
0
220
0
230
1
0
LINE
5
54
100
AcDbEntity
8
1
62
256
6
ByLayer
370
-1
48
1
60
0
100
AcDbLine
10
27
20
-30.4885
30
0
11
27
21
0
31
0
39
0
210
0
220
0
230
1
0
LINE
5
55
100
AcDbEntity
8
1
62
256
6
ByLayer
370
-1
48
1
60
0
100
AcDbLine
10
27
20
0
30
0
11
27
21
30.4885
31
0
39
0
210
0
220
0
230
1
0
LINE
5
56
100
AcDbEntity
8
1
62
256
6
ByLayer
370
-1
48
1
60
0
100
AcDbLine
10
152.366329
20
-15.752089
30
0
11
152.366329
21
15.752089
31
0
39
0
210
0
220
0
230
1
0
LINE
5
57
100
AcDbEntity
8
1
62
256
6
ByLayer
370
-1
48
1
60
0
100
AcDbLine
10
11.587876
20
-30.430192
30
0
11
11.587876
21
30.430192
31
0
39
0
210
0
220
0
230
1
0
LINE
5
58
100
AcDbEntity
8
1
62
256
6
ByLayer
370
-1
48
1
60
0
100
AcDbLine
10
14.915
20
-25.233331
30
0
11
14.1
21
-25.233331
31
0
39
0
210
0
220
0
230
1
0
LINE
5
59
100
AcDbEntity
8
1
62
256
6
ByLayer
370
-1
48
1
60
0
100
AcDbLine
10
19.1
20
-26.215486
30
0
11
19.1
21
26.215486
31
0
39
0
210
0
220
0
230
1
0
LINE
5
5A
100
AcDbEntity
8
1
62
256
6
ByLayer
370
-1
48
1
60
0
100
AcDbLine
10
14.1
20
-25.878835
30
0
11
14.1
21
25.878835
31
0
39
0
210
0
220
0
230
1
0
LINE
5
5B
100
AcDbEntity
8
1
62
256
6
ByLayer
370
-1
48
1
60
0
100
AcDbLine
10
0.428444
20
0
30
0
11
0.428444
21
-21.925
31
0
39
0
210
0
220
0
230
1
0
LINE
5
5C
100
AcDbEntity
8
1
62
256
6
ByLayer
370
-1
48
1
60
0
100
AcDbLine
10
0.428444
20
21.925
30
0
11
0.428444
21
0
31
0
39
0
210
0
220
0
230
1
0
LINE
5
5D
100
AcDbEntity
8
1
62
256
6
ByLayer
370
-1
48
1
60
0
100
AcDbLine
10
14.915
20
25.233331
30
0
11
14.1
21
25.233331
31
0
39
0
210
0
220
0
230
1
0
LINE
5
5E
100
AcDbEntity
8
1
62
256
6
ByLayer
370
-1
48
1
60
0
100
AcDbLine
10
21.612124
20
31.159576
30
0
11
21.612124
21
-31.159576
31
0
39
0
210
0
220
0
230
1
0
LINE
5
5F
100
AcDbEntity
8
1
62
256
6
ByLayer
370
-1
48
1
60
0
100
AcDbLine
10
2
20
30.292765
30
0
11
2
21
-30.292765
31
0
39
0
210
0
220
0
230
1
0
LINE
5
60
100
AcDbEntity
8
1
62
256
6
ByLayer
370
-1
48
1
60
0
100
AcDbLine
10
1
20
-28.939326
30
0
11
1
21
28.939326
31
0
39
0
210
0
220
0
230
1
0
LINE
5
61
100
AcDbEntity
8
1
62
256
6
ByLayer
370
-1
48
1
60
0
100
AcDbLine
10
0.8
20
-21.925
30
0
11
0.8
21
21.925
31
0
39
0
210
0
220
0
230
1
0
LINE
5
62
100
AcDbEntity
8
1
62
256
6
ByLayer
370
-1
48
1
60
0
100
AcDbLine
10
2.5
20
30.430192
30
0
11
11.587876
21
30.430192
31
0
39
0
210
0
220
0
230
1
0
LINE
5
63
100
AcDbEntity
8
1
62
256
6
ByLayer
370
-1
48
1
60
0
100
AcDbLine
10
23
20
31.488498
30
0
11
23
21
31.4885
31
0
39
0
210
0
220
0
230
1
0
LINE
5
64
100
AcDbEntity
8
1
62
256
6
ByLayer
370
-1
48
1
60
0
100
AcDbLine
10
42.402859
20
21
30
0
11
42.402859
21
-21
31
0
39
0
210
0
220
0
230
1
0
LINE
5
65
100
AcDbEntity
8
1
62
256
6
ByLayer
370
-1
48
1
60
0
100
AcDbLine
10
151.2
20
-16
30
0
11
151.2
21
16
31
0
39
0
210
0
220
0
230
1
0
LINE
5
66
100
AcDbEntity
8
1
62
256
6
ByLayer
370
-1
48
1
60
0
100
AcDbLine
10
95.59714
20
-16
30
0
11
95.59714
21
0
31
0
39
0
210
0
220
0
230
1
0
LINE
5
67
100
AcDbEntity
8
1
62
256
6
ByLayer
370
-1
48
1
60
0
100
AcDbLine
10
95.59714
20
0
30
0
11
95.59714
21
16
31
0
39
0
210
0
220
0
230
1
0
LINE
5
68
100
AcDbEntity
8
1
62
256
6
ByLayer
370
-1
48
1
60
0
100
AcDbLine
10
153
20
-14.969571
30
0
11
153
21
14.969571
31
0
39
0
210
0
220
0
230
1
0
LINE
5
69
100
AcDbEntity
8
1
62
256
6
ByLayer
370
-1
48
1
60
0
100
AcDbLine
10
0
20
-22.225
30
0
11
0
21
22.225
31
0
39
0
210
0
220
0
230
1
0
LINE
5
6A
100
AcDbEntity
8
1
62
256
6
ByLayer
370
-1
48
1
60
0
100
AcDbLine
10
47.583163
20
20.73092
30
0
11
47.583163
21
-20.73092
31
0
39
0
210
0
220
0
230
1
0
LINE
5
6B
100
AcDbEntity
8
1
62
256
6
ByLayer
370
-1
48
1
60
0
100
AcDbLine
10
29.5
20
-21
30
0
11
29.5
21
0
31
0
39
0
210
0
220
0
230
1
0
LINE
5
6C
100
AcDbEntity
8
1
62
256
6
ByLayer
370
-1
48
1
60
0
100
AcDbLine
10
29.5
20
0
30
0
11
29.5
21
21
31
0
39
0
210
0
220
0
230
1
0
LINE
5
6D
100
AcDbEntity
8
1
62
256
6
ByLayer
370
-1
48
1
60
0
100
AcDbLine
10
90.416836
20
-16.26908
30
0
11
90.416836
21
16.26908
31
0
39
0
210
0
220
0
230
1
0
LINE
5
6E
100
AcDbEntity
8
1
62
256
6
ByLayer
370
-1
48
1
60
0
100
AcDbLine
10
26
20
-31.4885
30
0
11
26
21
31.4885
31
0
39
0
210
0
220
0
230
1
0
LINE
5
6F
100
AcDbEntity
8
SK1
62
256
6
ByLayer
370
-1
48
1
60
0
100
AcDbLine
10
0
20
-22.225
30
0
11
0
21
22.225
31
0
39
0
210
0
220
0
230
1
0
LINE
5
71
100
AcDbEntity
8
SK1
62
256
6
ByLayer
370
-1
48
1
60
0
100
AcDbLine
10
-65.4
20
11.821868
30
0
11
-65.4
21
-11.821868
31
0
39
0
210
0
220
0
230
1
0
LINE
5
72
100
AcDbEntity
8
SK1
62
256
6
ByLayer
370
-1
48
1
60
0
100
AcDbLine
10
-64.54432
20
-12.811399
30
0
11
-64.54432
21
0
31
0
39
0
210
0
220
0
230
1
0
LINE
5
73
100
AcDbEntity
8
SK1
62
256
6
ByLayer
370
-1
48
1
60
0
100
AcDbLine
10
-64.54432
20
0
30
0
11
-64.54432
21
12.811399
31
0
39
0
210
0
220
0
230
1
0
LINE
5
74
100
AcDbEntity
8
1
62
256
6
ByLayer
370
-1
48
1
60
0
100
AcDbLine
10
50.426281
20
-16.436248
30
0
11
53.222246
21
-12.29106
31
0
39
0
210
0
220
0
230
1
0
LINE
5
75
100
AcDbEntity
8
1
62
256
6
ByLayer
370
-1
48
1
60
0
100
AcDbLine
10
53.222246
20
-12.29106
30
0
11
54.264003
21
-10.746592
31
0
39
0
210
0
220
0
230
1
0
LINE
5
76
100
AcDbEntity
8
1
62
256
6
ByLayer
370
-1
48
1
60
0
100
AcDbLine
10
51.703453
20
-16.187991
30
0
11
53.98496
21
-12.805517
31
0
39
0
210
0
220
0
230
1
0
LINE
5
77
100
AcDbEntity
8
1
62
256
6
ByLayer
370
-1
48
1
60
0
100
AcDbLine
10
53.98496
20
-12.805517
30
0
11
55.277343
21
-10.889481
31
0
39
0
210
0
220
0
230
1
0
LINE
5
78
100
AcDbEntity
8
1
62
256
6
ByLayer
370
-1
48
1
60
0
100
AcDbLine
10
48.988361
20
-15.466358
30
0
11
50.426281
21
-16.436248
31
0
39
0
210
0
220
0
230
1
0
LINE
5
79
100
AcDbEntity
8
1
62
256
6
ByLayer
370
-1
48
1
60
0
100
AcDbLine
10
50.426281
20
-16.436248
30
0
11
51.703453
21
-16.187991
31
0
39
0
210
0
220
0
230
1
0
LINE
5
7A
100
AcDbEntity
8
SK1
62
256
6
ByLayer
370
-1
48
1
60
0
100
AcDbLine
10
0
20
22.225
30
0
11
-64.54432
21
12.811399
31
0
39
0
210
0
220
0
230
1
0
LINE
5
7B
100
AcDbEntity
8
SK1
62
256
6
ByLayer
370
-1
48
1
60
0
100
AcDbLine
10
-64.54432
20
-12.811399
30
0
11
0
21
-22.225
31
0
39
0
210
0
220
0
230
1
0
LINE
5
7C
100
AcDbEntity
8
1
62
256
6
ByLayer
370
-1
48
1
60
0
100
AcDbLine
10
26
20
31.4885
30
0
11
23
21
31.4885
31
0
39
0
210
0
220
0
230
1
0
LINE
5
7D
100
AcDbEntity
8
1
62
256
6
ByLayer
370
-1
48
1
60
0
100
AcDbLine
10
23
20
-31.4885
30
0
11
26
21
-31.4885
31
0
39
0
210
0
220
0
230
1
0
LINE
5
7E
100
AcDbEntity
8
1
62
256
6
ByLayer
370
-1
48
1
60
0
100
AcDbLine
10
0
20
-22.225
30
0
11
0.428444
21
-21.925
31
0
39
0
210
0
220
0
230
1
0
LINE
5
7F
100
AcDbEntity
8
1
62
256
6
ByLayer
370
-1
48
1
60
0
100
AcDbLine
10
0.428444
20
21.925
30
0
11
0
21
22.225
31
0
39
0
210
0
220
0
230
1
0
LINE
5
80
100
AcDbEntity
8
1
62
256
6
ByLayer
370
-1
48
1
60
0
100
AcDbLine
10
0.8
20
21.925
30
0
11
0.428444
21
21.925
31
0
39
0
210
0
220
0
230
1
0
LINE
5
81
100
AcDbEntity
8
1
62
256
6
ByLayer
370
-1
48
1
60
0
100
AcDbLine
10
0.428444
20
-21.925
30
0
11
0.8
21
-21.925
31
0
39
0
210
0
220
0
230
1
0
LINE
5
82
100
AcDbEntity
8
1
62
256
6
ByLayer
370
-1
48
1
60
0
100
AcDbLine
10
29.5
20
-21
30
0
11
42.402859
21
-21
31
0
39
0
210
0
220
0
230
1
0
LINE
5
83
100
AcDbEntity
8
1
62
256
6
ByLayer
370
-1
48
1
60
0
100
AcDbLine
10
42.402859
20
21
30
0
11
29.5
21
21
31
0
39
0
210
0
220
0
230
1
0
LINE
5
84
100
AcDbEntity
8
1
62
256
6
ByLayer
370
-1
48
1
60
0
100
AcDbLine
10
47.583163
20
-20.73092
30
0
11
90.416836
21
-16.26908
31
0
39
0
210
0
220
0
230
1
0
LINE
5
85
100
AcDbEntity
8
1
62
256
6
ByLayer
370
-1
48
1
60
0
100
AcDbLine
10
90.416836
20
16.26908
30
0
11
47.583163
21
20.73092
31
0
39
0
210
0
220
0
230
1
0
LINE
5
86
100
AcDbEntity
8
1
62
256
6
ByLayer
370
-1
48
1
60
0
100
AcDbLine
10
151.2
20
-16
30
0
11
152.366329
21
-15.752089
31
0
39
0
210
0
220
0
230
1
0
LINE
5
87
100
AcDbEntity
8
1
62
256
6
ByLayer
370
-1
48
1
60
0
100
AcDbLine
10
152.366329
20
15.752089
30
0
11
151.2
21
16
31
0
39
0
210
0
220
0
230
1
0
LINE
5
88
100
AcDbEntity
8
1
62
256
6
ByLayer
370
-1
48
1
60
0
100
AcDbLine
10
95.59714
20
-16
30
0
11
151.2
21
-16
31
0
39
0
210
0
220
0
230
1
0
LINE
5
89
100
AcDbEntity
8
1
62
256
6
ByLayer
370
-1
48
1
60
0
100
AcDbLine
10
151.2
20
16
30
0
11
95.59714
21
16
31
0
39
0
210
0
220
0
230
1
0
LINE
5
8A
100
AcDbEntity
8
1
62
256
6
ByLayer
370
-1
48
1
60
0
100
AcDbLine
10
51.703453
20
-16.187991
30
0
11
49.502669
21
-14.703543
31
0
39
0
210
0
220
0
230
1
0
MTEXT
5
D3
100
AcDbEntity
8
SK6
62
256
6
ByLayer
370
-1
48
1
60
0
100
AcDbMText
10
-69.538158
20
38.8635
30
0
210
0
220
0
230
1
1
\W01.000;\fsimplex.shx,bigfont.shx;  
40
3.5
41
0
44
1.084337
50
0
71
7
72
5
7
DEFAULT
0
MTEXT
5
D4
100
AcDbEntity
8
SK6
62
256
6
ByLayer
370
-1
48
1
60
0
100
AcDbMText
10
-111.851316
20
38.8635
30
0
210
0
220
0
230
1
1
\W00.807;\fsimplex.shx,bigfont.shx;MAS-BT40 Big-Plus 
40
3.5
41
0
44
1.084337
50
0
71
7
72
5
7
DEFAULT
0
MTEXT
5
D5
100
AcDbEntity
8
SK6
62
256
6
ByLayer
370
-1
48
1
60
0
100
AcDbMText
10
-2.125
20
-45.8635
30
0
210
0
220
0
230
1
1
\W00.712;\fsimplex.shx,bigfont.shx;930-BB40-P-20-153 
40
3.5
41
0
44
1.084337
50
0
71
7
72
5
7
DEFAULT
0
DIMENSION
5
E0
100
AcDbEntity
8
2
62
256
6
ByLayer
370
-3
48
1
60
0
100
AcDbDimension
2
DimnDraft3D1
10
153
20
70.5885
30
0
11
72.781579
21
70.5885
31
0
70
32
71
5
72
1
41
1
210
0
220
0
230
1
3
Standard
100
AcDbAlignedDimension
13
0
23
23.8125
33
0
14
153
24
17.5875
34
0
50
0
100
AcDbRotatedDimension
1001
ACAD
1000
DSTYLE
1002
{
1070
   279
1070
     0
1070
   172
1070
     1
1070
   173
1070
     1
1070
   340
1005
A8
1070
   271
1070
     1
1070
   272
1070
     2
1070
    77
1070
     1
1070
    73
1070
     0
1070
   171
1070
     3
1070
   274
1070
     4
1070
   177
1070
     2
1070
   176
1070
     2
1070
   178
1070
     2
1070
    78
1070
     8
1070
    48
1040
-0.005
1070
    41
1041
4.5
1070
   147
1041
2.25
1070
    42
1041
1.5875
1070
    44
1041
2.0
1070
   140
1041
4.5
1070
   343
1005
0
1070
   344
1005
0
1002
}
0
DIMENSION
5
EB
100
AcDbEntity
8
SK2
62
256
6
ByLayer
370
-3
48
1
60
0
100
AcDbDimension
2
DimnDraft3D2
10
27
20
40.5885
30
0
11
10.871053
21
40.5885
31
0
70
32
71
5
72
1
41
1
210
0
220
0
230
1
3
Standard
100
AcDbAlignedDimension
13
0
23
23.8125
33
0
14
27
24
33.076
34
0
50
0
100
AcDbRotatedDimension
1001
ACAD
1000
DSTYLE
1002
{
1070
   279
1070
     0
1070
   172
1070
     1
1070
   173
1070
     1
1070
   340
1005
A8
1070
   271
1070
     2
1070
   272
1070
     2
1070
    77
1070
     1
1070
    73
1070
     0
1070
   171
1070
     3
1070
   274
1070
     4
1070
   177
1070
     2
1070
   176
1070
     2
1070
   178
1070
     2
1070
    78
1070
     8
1070
    48
1040
-0.005
1070
    41
1041
4.5
1070
   147
1041
2.25
1070
    42
1041
1.5875
1070
    44
1041
2.0
1070
   140
1041
4.5
1070
   343
1005
0
1070
   344
1005
0
1002
}
0
DIMENSION
5
F5
100
AcDbEntity
8
SK2
62
256
6
ByLayer
370
-3
48
1
60
0
100
AcDbDimension
2
DimnDraft3D3
10
93
20
40.5885
30
0
11
120.371053
21
40.5885
31
0
70
32
71
5
72
1
41
1
210
0
220
0
230
1
3
Standard
100
AcDbAlignedDimension
13
153
23
17.5875
33
0
14
93
24
17.5875
34
0
50
0
100
AcDbRotatedDimension
1001
ACAD
1000
DSTYLE
1002
{
1070
   279
1070
     0
1070
   172
1070
     1
1070
   173
1070
     1
1070
   340
1005
A8
1070
   271
1070
     1
1070
   272
1070
     2
1070
    77
1070
     1
1070
    73
1070
     0
1070
   171
1070
     3
1070
   274
1070
     4
1070
   177
1070
     2
1070
   176
1070
     2
1070
   178
1070
     2
1070
    78
1070
     8
1070
    48
1040
-0.005
1070
    41
1041
4.5
1070
   147
1041
2.25
1070
    42
1041
1.5875
1070
    44
1041
2.0
1070
   140
1041
4.5
1070
   343
1005
0
1070
   344
1005
0
1002
}
0
DIMENSION
5
FF
100
AcDbEntity
8
SK2
62
256
6
ByLayer
370
-3
48
1
60
0
100
AcDbDimension
2
DimnDraft3D4
10
45
20
50.5885
30
0
11
95.281579
21
50.5885
31
0
70
32
71
5
72
1
41
1
210
0
220
0
230
1
3
Standard
100
AcDbAlignedDimension
13
153
23
17.5875
33
0
14
45
24
21.5875
34
0
50
0
100
AcDbRotatedDimension
1001
ACAD
1000
DSTYLE
1002
{
1070
   279
1070
     0
1070
   172
1070
     1
1070
   173
1070
     1
1070
   340
1005
A8
1070
   271
1070
     1
1070
   272
1070
     2
1070
    77
1070
     1
1070
    73
1070
     0
1070
   171
1070
     3
1070
   274
1070
     4
1070
   177
1070
     2
1070
   176
1070
     2
1070
   178
1070
     2
1070
    78
1070
     8
1070
    48
1040
-0.005
1070
    41
1041
4.5
1070
   147
1041
2.25
1070
    42
1041
1.5875
1070
    44
1041
2.0
1070
   140
1041
4.5
1070
   343
1005
0
1070
   344
1005
0
1002
}
0
DIMENSION
5
109
100
AcDbEntity
8
SK2
62
256
6
ByLayer
370
-3
48
1
60
0
100
AcDbDimension
2
DimnDraft3D5
10
-65.4
20
70.5885
30
0
11
-37.981579
21
70.5885
31
0
70
32
71
5
72
1
41
1
210
0
220
0
230
1
3
Standard
100
AcDbAlignedDimension
13
0
23
23.8125
33
0
14
-65.4
24
13.7875
34
0
50
0
100
AcDbRotatedDimension
1001
ACAD
1000
DSTYLE
1002
{
1070
   279
1070
     0
1070
   172
1070
     1
1070
   173
1070
     1
1070
   340
1005
A8
1070
   271
1070
     1
1070
   272
1070
     2
1070
    77
1070
     1
1070
    73
1070
     0
1070
   171
1070
     3
1070
   274
1070
     4
1070
   177
1070
     2
1070
   176
1070
     2
1070
   178
1070
     2
1070
    78
1070
     8
1070
    48
1040
-0.005
1070
    41
1041
4.5
1070
   147
1041
2.25
1070
    42
1041
1.5875
1070
    44
1041
2.0
1070
   140
1041
4.5
1070
   343
1005
0
1070
   344
1005
0
1002
}
0
DIMENSION
5
113
100
AcDbEntity
8
SK2
62
256
6
ByLayer
370
-3
48
1
60
0
100
AcDbDimension
2
DimnDraft3D6
10
102
20
-40.0885
30
0
11
107.883553
21
-40.0885
31
0
70
32
71
5
72
1
41
1
210
0
220
0
230
1
3
Standard
100
AcDbAlignedDimension
13
153
23
-11.5875
33
0
14
102
24
-11.5875
34
0
50
0
100
AcDbRotatedDimension
1001
ACAD
1000
DSTYLE
1002
{
1070
   279
1070
     0
1070
   172
1070
     1
1070
   173
1070
     1
1070
   340
1005
A8
1070
   271
1070
     0
1070
   272
1070
     2
1070
    77
1070
     1
1070
    73
1070
     0
1070
   171
1070
     3
1070
   274
1070
     4
1070
   177
1070
     2
1070
   176
1070
     2
1070
   178
1070
     2
1070
    78
1070
     8
1070
    48
1040
-0.005
1070
    41
1041
4.5
1070
   147
1041
2.25
1070
    42
1041
1.5875
1070
    44
1041
2.0
1070
   140
1041
4.5
1070
   343
1005
0
1070
   344
1005
0
1002
}
0
DIMENSION
5
11E
100
AcDbEntity
8
SK2
62
256
6
ByLayer
370
-3
48
1
60
0
100
AcDbDimension
2
DimnDraft3D7
10
217.25
20
16
30
0
11
217.25
21
-7.878947
31
0
70
32
71
5
72
1
41
1
210
0
220
0
230
1
3
Standard
100
AcDbAlignedDimension
13
154.5875
23
-16
33
0
14
154.5875
24
16
34
0
50
90
100
AcDbRotatedDimension
1001
ACAD
1000
DSTYLE
1002
{
1070
    74
1070
     0
1070
   279
1070
     0
1070
   172
1070
     1
1070
   173
1070
     1
1070
   340
1005
A8
1070
   271
1070
     1
1070
   272
1070
     2
1070
    77
1070
     1
1070
    73
1070
     0
1070
   171
1070
     3
1070
   274
1070
     4
1070
   177
1070
     2
1070
   176
1070
     2
1070
   178
1070
     2
1070
    78
1070
     8
1070
    48
1040
-0.005
1070
    41
1041
4.5
1070
   147
1041
2.25
1070
    42
1041
1.5875
1070
    44
1041
2.0
1070
   140
1041
4.5
1070
   343
1005
0
1070
   344
1005
0
1002
}
0
DIMENSION
5
129
100
AcDbEntity
8
SK2
62
256
6
ByLayer
370
-3
48
1
60
0
100
AcDbDimension
2
DimnDraft3D8
10
227.25
20
-21
30
0
11
227.25
21
-8.115789
31
0
70
32
71
5
72
1
41
1
210
0
220
0
230
1
3
Standard
100
AcDbAlignedDimension
13
46.5875
23
21
33
0
14
46.5875
24
-21
34
0
50
90
100
AcDbRotatedDimension
1001
ACAD
1000
DSTYLE
1002
{
1070
    74
1070
     0
1070
   279
1070
     0
1070
   172
1070
     1
1070
   173
1070
     1
1070
   340
1005
A8
1070
   271
1070
     1
1070
   272
1070
     2
1070
    77
1070
     1
1070
    73
1070
     0
1070
   171
1070
     3
1070
   274
1070
     4
1070
   177
1070
     2
1070
   176
1070
     2
1070
   178
1070
     2
1070
    78
1070
     8
1070
    48
1040
-0.005
1070
    41
1041
4.5
1070
   147
1041
2.25
1070
    42
1041
1.5875
1070
    44
1041
2.0
1070
   140
1041
4.5
1070
   343
1005
0
1070
   344
1005
0
1002
}
0
DIMENSION
5
134
100
AcDbEntity
8
SK2
62
256
6
ByLayer
370
-3
48
1
60
0
100
AcDbDimension
2
DimnDraft3D9
10
208.25
20
-10
30
0
11
208.25
21
-7.878947
31
0
70
32
71
5
72
1
41
1
210
0
220
0
230
1
3
Standard
100
AcDbAlignedDimension
13
154.5875
23
10
33
0
14
154.5875
24
-10
34
0
50
90
100
AcDbRotatedDimension
1001
ACAD
1000
DSTYLE
1002
{
1070
    74
1070
     0
1070
   279
1070
     0
1070
   172
1070
     1
1070
   173
1070
     1
1070
   340
1005
A8
1070
   271
1070
     1
1070
   272
1070
     2
1070
    77
1070
     1
1070
    73
1070
     0
1070
   171
1070
     3
1070
   274
1070
     4
1070
   177
1070
     2
1070
   176
1070
     2
1070
   178
1070
     2
1070
    78
1070
     8
1070
    48
1040
-0.005
1070
    41
1041
4.5
1070
   147
1041
2.25
1070
    42
1041
1.5875
1070
    44
1041
2.0
1070
   140
1041
4.5
1070
   343
1005
0
1070
   344
1005
0
1002
}
0
ENDSEC
0
SECTION
2
OBJECTS
0
DICTIONARY
5
166
330
0
100
AcDbDictionary
280
0
281
1
3
ACAD_GROUP
350
167
3
ACAD_MLINESTYLE
350
168
0
DICTIONARY
5
167
330
0
100
AcDbDictionary
280
0
281
1
0
DICTIONARY
5
168
330
0
100
AcDbDictionary
280
0
281
1
3
Standard
350
18
0
MLINESTYLE
5
18
330
168
100
AcDbMlineStyle
2
Standard
70
0
3

62
256
51
90
52
90
71
2
49
-0.5
62
256
6
ByLayer
49
0.5
62
256
6
ByLayer
0
RASTERVARIABLES
5
153
330

100
AcDbRasterVariables
90
0
70
1
71
1
72
1
0
ENDSEC
0
EOF
