0
SECTION
2
HEADER
9
$ACADVER
1
AC1015
9
$DWGCODEPAGE
3
ANSI_1252
9
$HANDSEED
5
16b
9
$ANGBASE
50
0
9
$ANGDIR
70
0
9
$ATTMODE
70
1
9
$AUNITS
70
0
9
$AUPREC
70
0
9
$CECOLOR
62
256
9
$CELTSCALE
40
1
9
$CELTYPE
6
ByLayer
9
$CELWEIGHT
370
-1
9
$CLAYER
8
0
9
$CMLJUST
70
0
9
$CMLSCALE
40
1
9
$CMLSTYLE
2
Standard
9
$DIMSTYLE
2
Standard
9
$TEXTSIZE
40
0.2
9
$TEXTSTYLE
7
Standard
9
$LUNITS
70
2
9
$LUPREC
70
4
9
$EXTNAMES
290
1
9
$INSUNITS
70
4
9
$LTSCALE
40
1
9
$LWDISPLAY
290
0
9
$PDMODE
70
0
9
$PDSIZE
40
0
9
$PLINEGEN
70
0
0
ENDSEC
0
SECTION
2
CLASSES
0
CLASS
1
RASTERVARIABLES
2
AcDbRasterVariables
3
ISM
90
0
280
0
281
0
0
ENDSEC
0
SECTION
2
TABLES
0
TABLE
2
VPORT
5
161
100
AcDbSymbolTable
0
VPORT
5
1
100
AcDbSymbolTableRecord
100
AcDbViewportTableRecord
2
*Active
70
0
10
0
20
0
11
1
21
1
12
-1
22
1
13
0
23
0
14
0.5
24
0.5
15
10
25
10
16
0
26
0
36
1
17
0
27
0
37
0
0
ENDTAB
0
TABLE
2
LTYPE
5
162
100
AcDbSymbolTable
0
LTYPE
5
14
100
AcDbSymbolTableRecord
100
AcDbLinetypeTableRecord
70
0
2
ByBlock
3

72
65
73
0
40
0
0
LTYPE
5
15
100
AcDbSymbolTableRecord
100
AcDbLinetypeTableRecord
70
0
2
ByLayer
3

72
65
73
0
40
0
0
LTYPE
5
16
100
AcDbSymbolTableRecord
100
AcDbLinetypeTableRecord
70
0
2
CONTINUOUS
3
Solid line
72
65
73
0
40
0
0
LTYPE
5
3B
100
AcDbSymbolTableRecord
100
AcDbLinetypeTableRecord
70
0
2
DASHED
3
__ __ __ __ __ __ __ __ __
72
65
73
2
40
25.72
49
12.86
74
0
49
-12.86
74
0
0
LTYPE
5
3C
100
AcDbSymbolTableRecord
100
AcDbLinetypeTableRecord
70
0
2
HIDDEN
3
_ _ _ _ _ _ _ _ _ _ _ _ _ _ _
72
65
73
2
40
0.5
49
0.25
74
0
49
-0.25
74
0
0
LTYPE
5
3D
100
AcDbSymbolTableRecord
100
AcDbLinetypeTableRecord
70
0
2
PHANTOM
3
____ _ _ ____ _ _ _____ _ _ ____
72
65
73
6
40
50.5
49
18
74
0
49
-6.5
74
0
49
6.5
74
0
49
-6.5
74
0
49
6.5
74
0
49
-6.5
74
0
0
LTYPE
5
3E
100
AcDbSymbolTableRecord
100
AcDbLinetypeTableRecord
70
0
2
CENTER
3
____ _ ____ _ ____ _ ____
72
65
73
4
40
47.5
49
22
74
0
49
-8.5
74
0
49
8.5
74
0
49
-8.5
74
0
0
LTYPE
5
3F
100
AcDbSymbolTableRecord
100
AcDbLinetypeTableRecord
70
0
2
DOT
3
.........................
72
65
73
2
40
10
49
0
74
0
49
-10
74
0
0
LTYPE
5
40
100
AcDbSymbolTableRecord
100
AcDbLinetypeTableRecord
70
0
2
DASHDOT
3
_._._._._._._._._._._._._._._._.
72
65
73
4
40
70
49
31
74
0
49
-13
74
0
49
13
74
0
49
-13
74
0
0
ENDTAB
0
TABLE
2
LAYER
5
163
100
AcDbSymbolTable
0
LAYER
5
10
100
AcDbSymbolTableRecord
100
AcDbLayerTableRecord
2
0
70
0
62
7
6
CONTINUOUS
290
1
370
-3
390
0
0
LAYER
5
42
100
AcDbSymbolTableRecord
100
AcDbLayerTableRecord
2
80
70
0
62
-6
6
CONTINUOUS
290
1
370
-3
390
0
0
LAYER
5
44
100
AcDbSymbolTableRecord
100
AcDbLayerTableRecord
2
81
70
0
62
-3
6
CONTINUOUS
290
1
370
-3
390
0
0
LAYER
5
49
100
AcDbSymbolTableRecord
100
AcDbLayerTableRecord
2
4
70
0
62
-2
6
CENTER
290
1
370
-3
390
0
0
LAYER
5
53
100
AcDbSymbolTableRecord
100
AcDbLayerTableRecord
2
1
70
0
62
4
6
CONTINUOUS
290
1
370
-3
390
0
0
LAYER
5
DA
100
AcDbSymbolTableRecord
100
AcDbLayerTableRecord
2
2
70
0
62
7
6
CONTINUOUS
290
1
370
-3
390
0
0
LAYER
5
14c
100
AcDbSymbolTableRecord
100
AcDbLayerTableRecord
2
SK3
70
0
62
1
6
DASHED
290
1
370
-3
390
0
0
LAYER
5
14d
100
AcDbSymbolTableRecord
100
AcDbLayerTableRecord
2
SK4
70
0
62
2
6
CENTER
290
1
370
-3
390
0
0
LAYER
5
14e
100
AcDbSymbolTableRecord
100
AcDbLayerTableRecord
2
SK1
70
0
62
4
6
CONTINUOUS
290
1
370
-3
390
0
0
LAYER
5
14f
100
AcDbSymbolTableRecord
100
AcDbLayerTableRecord
2
SK6
70
0
62
5
6
CONTINUOUS
290
1
370
-3
390
0
0
LAYER
5
150
100
AcDbSymbolTableRecord
100
AcDbLayerTableRecord
2
SK2
70
0
62
7
6
CONTINUOUS
290
1
370
-3
390
0
0
ENDTAB
0
TABLE
2
STYLE
5
164
100
AcDbSymbolTable
0
STYLE
5
11
100
AcDbSymbolTableRecord
100
AcDbTextStyleTableRecord
2
Standard
3
txt
70
0
71
0
40
0
41
1
42
0
50
0
0
STYLE
5
AA
100
AcDbSymbolTableRecord
100
AcDbTextStyleTableRecord
2
DEFAULT
3
simplex.shx
70
0
71
0
40
0
41
1
42
0
50
0
0
STYLE
5
CD
100
AcDbSymbolTableRecord
100
AcDbTextStyleTableRecord
2
DWGDirectTextStyle
3
SIMPLEX
70
0
71
0
40
0
41
1
42
0
50
0
0
ENDTAB
0
TABLE
2
DIMSTYLE
5
165
100
AcDbSymbolTable
100
AcDbDimStyleTable
0
DIMSTYLE
105
27
100
AcDbSymbolTableRecord
100
AcDbDimStyleTableRecord
2
Standard
70
0
3
<>
41
0.18
42
0.0625
44
0.18
140
0.18
147
0.09
73
0
74
0
77
1
271
2
275
0
278
52
280
0
340
11
0
ENDTAB
0
TABLE
2
VIEW
5
166
100
AcDbSymbolTable
0
ENDTAB
0
TABLE
2
UCS
5
167
100
AcDbSymbolTable
0
ENDTAB
0
TABLE
2
APPID
5
168
100
AcDbSymbolTable
0
APPID
5
12
100
AcDbSymbolTableRecord
100
AcDbRegAppTableRecord
2
ACAD
70
0
0
ENDTAB
0
TABLE
2
BLOCK_RECORD
5
169
100
AcDbSymbolTable
0
BLOCK_RECORD
5
1F
100
AcDbSymbolTableRecord
100
AcDbBlockTableRecord
2
*Model_Space
340
0
70
0
0
BLOCK_RECORD
5
1B
100
AcDbSymbolTableRecord
100
AcDbBlockTableRecord
2
*Paper_Space
340
0
70
0
0
BLOCK_RECORD
5
23
100
AcDbSymbolTableRecord
100
AcDbBlockTableRecord
2
*Paper_Space0
340
0
70
0
0
BLOCK_RECORD
5
A8
100
AcDbSymbolTableRecord
100
AcDbBlockTableRecord
2
LABLE3D_1
340
0
70
0
0
BLOCK_RECORD
5
D8
100
AcDbSymbolTableRecord
100
AcDbBlockTableRecord
2
DimnDraft3D1
340
0
70
0
0
BLOCK_RECORD
5
E3
100
AcDbSymbolTableRecord
100
AcDbBlockTableRecord
2
DimnDraft3D2
340
0
70
0
0
BLOCK_RECORD
5
EE
100
AcDbSymbolTableRecord
100
AcDbBlockTableRecord
2
DimnDraft3D3
340
0
70
0
0
BLOCK_RECORD
5
F8
100
AcDbSymbolTableRecord
100
AcDbBlockTableRecord
2
DimnDraft3D4
340
0
70
0
0
BLOCK_RECORD
5
102
100
AcDbSymbolTableRecord
100
AcDbBlockTableRecord
2
DimnDraft3D5
340
0
70
0
0
BLOCK_RECORD
5
10C
100
AcDbSymbolTableRecord
100
AcDbBlockTableRecord
2
DimnDraft3D6
340
0
70
0
0
BLOCK_RECORD
5
117
100
AcDbSymbolTableRecord
100
AcDbBlockTableRecord
2
DimnDraft3D7
340
0
70
0
0
BLOCK_RECORD
5
122
100
AcDbSymbolTableRecord
100
AcDbBlockTableRecord
2
DimnDraft3D8
340
0
70
0
0
ENDTAB
0
ENDSEC
0
SECTION
2
BLOCKS
0
BLOCK
5
20
100
AcDbEntity
8
0
100
AcDbBlockBegin
2
*Model_Space
70
0
10
0
20
0
30
0
3
*Model_Space
0
ENDBLK
5
21
100
AcDbEntity
8
0
100
AcDbBlockEnd
0
BLOCK
5
1C
100
AcDbEntity
8
0
100
AcDbBlockBegin
2
*Paper_Space
70
0
10
0
20
0
30
0
3
*Paper_Space
0
ENDBLK
5
1D
100
AcDbEntity
8
0
100
AcDbBlockEnd
0
BLOCK
5
24
100
AcDbEntity
8
0
100
AcDbBlockBegin
2
*Paper_Space0
70
0
10
0
20
0
30
0
3
*Paper_Space0
0
ENDBLK
5
25
100
AcDbEntity
8
0
100
AcDbBlockEnd
0
BLOCK
5
D3
100
AcDbEntity
8
0
100
AcDbBlockBegin
2
LABLE3D_1
70
0
10
0
20
0
30
0
3
LABLE3D_1
0
MTEXT
5
A9
100
AcDbEntity
8
SK6
62
256
6
ByLayer
370
-1
48
1
60
0
100
AcDbMText
10
-51.525
20
30.36525
30
0
210
0
220
0
230
1
1
\W01.000;\fsimplex.shx,bigfont.shx; 
40
3.5
41
0
44
1.084337
50
0
71
7
72
5
7
DEFAULT
0
LINE
5
CF
100
AcDbEntity
8
SK6
62
256
6
ByLayer
370
-1
48
1
60
0
100
AcDbLine
10
-50.9
20
32.99025
30
0
11
-43.823077
21
32.99025
31
0
39
0
210
0
220
0
230
1
0
LINE
5
D0
100
AcDbEntity
8
SK6
62
256
6
ByLayer
370
-1
48
1
60
0
100
AcDbLine
10
-18.373827
20
13.195231
30
0
11
-43.823077
21
32.99025
31
0
39
0
210
0
220
0
230
1
0
SOLID
5
D1
100
AcDbEntity
8
SK6
62
256
6
ByLayer
370
-1
48
1
60
0
100
AcDbTrace
10
-18.373827
20
13.195231
30
0
11
-22.538336
21
15.170601
31
0
12
-21.313331
22
16.745527
32
0
13
-18.373827
23
13.195231
33
0
39
0
210
0
220
0
230
1
0
ENDBLK
5
D4
100
AcDbEntity
8
0
100
AcDbBlockEnd
0
BLOCK
5
E0
100
AcDbEntity
8
0
100
AcDbBlockBegin
2
DimnDraft3D1
70
0
10
0
20
0
30
0
3
DimnDraft3D1
0
MTEXT
5
D9
100
AcDbEntity
8
2
62
256
6
ByLayer
370
-1
48
1
60
0
100
AcDbMText
10
48.906579
20
63.21525
30
0
210
0
220
0
230
1
1
\W01.000;\fsimplex.shx,bigfont.shx;103 
40
4.5
41
0
44
1.084337
50
0
71
7
72
5
7
DEFAULT
0
LINE
5
DB
100
AcDbEntity
8
2
62
256
6
ByLayer
370
-1
48
1
60
0
100
AcDbLine
10
0
20
17.4625
30
0
11
0
21
64.09025
31
0
39
0
210
0
220
0
230
1
0
LINE
5
DC
100
AcDbEntity
8
2
62
256
6
ByLayer
370
-1
48
1
60
0
100
AcDbLine
10
103
20
12.5875
30
0
11
103
21
64.09025
31
0
39
0
210
0
220
0
230
1
0
LINE
5
DD
100
AcDbEntity
8
2
62
256
6
ByLayer
370
-1
48
1
60
0
100
AcDbLine
10
0
20
62.09025
30
0
11
103
21
62.09025
31
0
39
0
210
0
220
0
230
1
0
SOLID
5
DE
100
AcDbEntity
8
2
62
256
6
ByLayer
370
-1
48
1
60
0
100
AcDbTrace
10
0
20
62.09025
30
0
11
4.499996
21
63.087876
31
0
12
4.500004
22
61.092624
32
0
13
0
23
62.09025
33
0
39
0
210
0
220
0
230
1
0
SOLID
5
DF
100
AcDbEntity
8
2
62
256
6
ByLayer
370
-1
48
1
60
0
100
AcDbTrace
10
103
20
62.09025
30
0
11
98.500004
21
61.092624
31
0
12
98.499996
22
63.087876
32
0
13
103
23
62.09025
33
0
39
0
210
0
220
0
230
1
0
ENDBLK
5
E1
100
AcDbEntity
8
0
100
AcDbBlockEnd
0
BLOCK
5
EB
100
AcDbEntity
8
0
100
AcDbBlockBegin
2
DimnDraft3D2
70
0
10
0
20
0
30
0
3
DimnDraft3D2
0
MTEXT
5
E4
100
AcDbEntity
8
SK2
62
256
6
ByLayer
370
-1
48
1
60
0
100
AcDbMText
10
9.496053
20
33.21525
30
0
210
0
220
0
230
1
1
\W01.000;\fsimplex.shx,bigfont.shx;22 
40
4.5
41
0
44
1.084337
50
0
71
7
72
5
7
DEFAULT
0
LINE
5
E6
100
AcDbEntity
8
SK2
62
256
6
ByLayer
370
-1
48
1
60
0
100
AcDbLine
10
0
20
17.4625
30
0
11
0
21
34.09025
31
0
39
0
210
0
220
0
230
1
0
LINE
5
E7
100
AcDbEntity
8
SK2
62
256
6
ByLayer
370
-1
48
1
60
0
100
AcDbLine
10
22
20
24.57775
30
0
11
22
21
34.09025
31
0
39
0
210
0
220
0
230
1
0
LINE
5
E8
100
AcDbEntity
8
SK2
62
256
6
ByLayer
370
-1
48
1
60
0
100
AcDbLine
10
0
20
32.09025
30
0
11
22
21
32.09025
31
0
39
0
210
0
220
0
230
1
0
SOLID
5
E9
100
AcDbEntity
8
SK2
62
256
6
ByLayer
370
-1
48
1
60
0
100
AcDbTrace
10
0
20
32.09025
30
0
11
4.499996
21
33.087876
31
0
12
4.500004
22
31.092624
32
0
13
0
23
32.09025
33
0
39
0
210
0
220
0
230
1
0
SOLID
5
EA
100
AcDbEntity
8
SK2
62
256
6
ByLayer
370
-1
48
1
60
0
100
AcDbTrace
10
22
20
32.09025
30
0
11
17.500004
21
31.092624
31
0
12
17.499996
22
33.087876
32
0
13
22
23
32.09025
33
0
39
0
210
0
220
0
230
1
0
ENDBLK
5
EC
100
AcDbEntity
8
0
100
AcDbBlockEnd
0
BLOCK
5
F5
100
AcDbEntity
8
0
100
AcDbBlockBegin
2
DimnDraft3D3
70
0
10
0
20
0
30
0
3
DimnDraft3D3
0
MTEXT
5
EF
100
AcDbEntity
8
SK2
62
256
6
ByLayer
370
-1
48
1
60
0
100
AcDbMText
10
68.996053
20
33.21525
30
0
210
0
220
0
230
1
1
\W01.000;\fsimplex.shx,bigfont.shx;65 
40
4.5
41
0
44
1.084337
50
0
71
7
72
5
7
DEFAULT
0
LINE
5
F0
100
AcDbEntity
8
SK2
62
256
6
ByLayer
370
-1
48
1
60
0
100
AcDbLine
10
103
20
12.5875
30
0
11
103
21
34.09025
31
0
39
0
210
0
220
0
230
1
0
LINE
5
F1
100
AcDbEntity
8
SK2
62
256
6
ByLayer
370
-1
48
1
60
0
100
AcDbLine
10
38
20
12.5875
30
0
11
38
21
34.09025
31
0
39
0
210
0
220
0
230
1
0
LINE
5
F2
100
AcDbEntity
8
SK2
62
256
6
ByLayer
370
-1
48
1
60
0
100
AcDbLine
10
103
20
32.09025
30
0
11
38
21
32.09025
31
0
39
0
210
0
220
0
230
1
0
SOLID
5
F3
100
AcDbEntity
8
SK2
62
256
6
ByLayer
370
-1
48
1
60
0
100
AcDbTrace
10
103
20
32.09025
30
0
11
98.500004
21
31.092624
31
0
12
98.499996
22
33.087876
32
0
13
103
23
32.09025
33
0
39
0
210
0
220
0
230
1
0
SOLID
5
F4
100
AcDbEntity
8
SK2
62
256
6
ByLayer
370
-1
48
1
60
0
100
AcDbTrace
10
38
20
32.09025
30
0
11
42.499996
21
33.087876
31
0
12
42.500004
22
31.092624
32
0
13
38
23
32.09025
33
0
39
0
210
0
220
0
230
1
0
ENDBLK
5
F6
100
AcDbEntity
8
0
100
AcDbBlockEnd
0
BLOCK
5
FF
100
AcDbEntity
8
0
100
AcDbBlockBegin
2
DimnDraft3D4
70
0
10
0
20
0
30
0
3
DimnDraft3D4
0
MTEXT
5
F9
100
AcDbEntity
8
SK2
62
256
6
ByLayer
370
-1
48
1
60
0
100
AcDbMText
10
-28.593421
20
63.21525
30
0
210
0
220
0
230
1
1
\W01.000;\fsimplex.shx,bigfont.shx;48,4 
40
4.5
41
0
44
1.084337
50
0
71
7
72
5
7
DEFAULT
0
LINE
5
FA
100
AcDbEntity
8
SK2
62
256
6
ByLayer
370
-1
48
1
60
0
100
AcDbLine
10
0
20
17.4625
30
0
11
0
21
64.09025
31
0
39
0
210
0
220
0
230
1
0
LINE
5
FB
100
AcDbEntity
8
SK2
62
256
6
ByLayer
370
-1
48
1
60
0
100
AcDbLine
10
-48.4
20
13.7875
30
0
11
-48.4
21
64.09025
31
0
39
0
210
0
220
0
230
1
0
LINE
5
FC
100
AcDbEntity
8
SK2
62
256
6
ByLayer
370
-1
48
1
60
0
100
AcDbLine
10
0
20
62.09025
30
0
11
-48.4
21
62.09025
31
0
39
0
210
0
220
0
230
1
0
SOLID
5
FD
100
AcDbEntity
8
SK2
62
256
6
ByLayer
370
-1
48
1
60
0
100
AcDbTrace
10
0
20
62.09025
30
0
11
-4.499996
21
61.092624
31
0
12
-4.500004
22
63.087876
32
0
13
0
23
62.09025
33
0
39
0
210
0
220
0
230
1
0
SOLID
5
FE
100
AcDbEntity
8
SK2
62
256
6
ByLayer
370
-1
48
1
60
0
100
AcDbTrace
10
-48.4
20
62.09025
30
0
11
-43.900004
21
63.087876
31
0
12
-43.899996
22
61.092624
32
0
13
-48.4
23
62.09025
33
0
39
0
210
0
220
0
230
1
0
ENDBLK
5
100
100
AcDbEntity
8
0
100
AcDbBlockEnd
0
BLOCK
5
109
100
AcDbEntity
8
0
100
AcDbBlockBegin
2
DimnDraft3D5
70
0
10
0
20
0
30
0
3
DimnDraft3D5
0
MTEXT
5
103
100
AcDbEntity
8
SK2
62
256
6
ByLayer
370
-1
48
1
60
0
100
AcDbMText
10
60.383553
20
-30.46525
30
0
210
0
220
0
230
1
1
\W01.000;\fsimplex.shx,bigfont.shx;min 36-max 46 
40
4.5
41
0
44
1.084337
50
0
71
7
72
5
7
DEFAULT
0
LINE
5
104
100
AcDbEntity
8
SK2
62
256
6
ByLayer
370
-1
48
1
60
0
100
AcDbLine
10
103
20
-7.5875
30
0
11
103
21
-33.59025
31
0
39
0
210
0
220
0
230
1
0
LINE
5
105
100
AcDbEntity
8
SK2
62
256
6
ByLayer
370
-1
48
1
60
0
100
AcDbLine
10
57
20
-7.5875
30
0
11
57
21
-33.59025
31
0
39
0
210
0
220
0
230
1
0
LINE
5
106
100
AcDbEntity
8
SK2
62
256
6
ByLayer
370
-1
48
1
60
0
100
AcDbLine
10
114.25
20
-31.59025
30
0
11
45.75
21
-31.59025
31
0
39
0
210
0
220
0
230
1
0
SOLID
5
107
100
AcDbEntity
8
SK2
62
256
6
ByLayer
370
-1
48
1
60
0
100
AcDbTrace
10
103
20
-31.59025
30
0
11
107.499996
21
-30.592624
31
0
12
107.500004
22
-32.587876
32
0
13
103
23
-31.59025
33
0
39
0
210
0
220
0
230
1
0
SOLID
5
108
100
AcDbEntity
8
SK2
62
256
6
ByLayer
370
-1
48
1
60
0
100
AcDbTrace
10
57
20
-31.59025
30
0
11
52.500004
21
-32.587876
31
0
12
52.499996
22
-30.592624
32
0
13
57
23
-31.59025
33
0
39
0
210
0
220
0
230
1
0
ENDBLK
5
10A
100
AcDbEntity
8
0
100
AcDbBlockEnd
0
BLOCK
5
114
100
AcDbEntity
8
0
100
AcDbBlockBegin
2
DimnDraft3D6
70
0
10
0
20
0
30
0
3
DimnDraft3D6
0
MTEXT
5
10D
100
AcDbEntity
8
SK2
62
256
6
ByLayer
370
-1
48
1
60
0
100
AcDbMText
10
145.25
20
3.746053
30
0
210
0
220
0
230
1
1
\W01.000;\fsimplex.shx,bigfont.shx;22 
40
4.5
41
0
44
1.084337
50
90
71
7
72
5
7
DEFAULT
0
MTEXT
5
10E
100
AcDbEntity
8
SK2
62
256
6
ByLayer
370
-1
48
1
60
0
100
AcDbMText
10
145
20
-7.003947
30
0
210
0
220
0
230
1
1
\W01.000;\fsimplex.shx,bigfont.shx;%%c 
40
3.5
41
0
44
1.084337
50
90
71
7
72
5
7
DEFAULT
0
LINE
5
10F
100
AcDbEntity
8
SK2
62
256
6
ByLayer
370
-1
48
1
60
0
100
AcDbLine
10
104.5875
20
-11
30
0
11
149.25
21
-11
31
0
39
0
210
0
220
0
230
1
0
LINE
5
110
100
AcDbEntity
8
SK2
62
256
6
ByLayer
370
-1
48
1
60
0
100
AcDbLine
10
104.5875
20
11
30
0
11
149.25
21
11
31
0
39
0
210
0
220
0
230
1
0
LINE
5
111
100
AcDbEntity
8
SK2
62
256
6
ByLayer
370
-1
48
1
60
0
100
AcDbLine
10
147.25
20
-22.25
30
0
11
147.25
21
22.25
31
0
39
0
210
0
220
0
230
1
0
SOLID
5
112
100
AcDbEntity
8
SK2
62
256
6
ByLayer
370
-1
48
1
60
0
100
AcDbTrace
10
147.25
20
-11
30
0
11
148.247626
21
-15.499996
31
0
12
146.252374
22
-15.500004
32
0
13
147.25
23
-11
33
0
39
0
210
0
220
0
230
1
0
SOLID
5
113
100
AcDbEntity
8
SK2
62
256
6
ByLayer
370
-1
48
1
60
0
100
AcDbTrace
10
147.25
20
11
30
0
11
146.252374
21
15.499996
31
0
12
148.247626
22
15.500004
32
0
13
147.25
23
11
33
0
39
0
210
0
220
0
230
1
0
ENDBLK
5
115
100
AcDbEntity
8
0
100
AcDbBlockEnd
0
BLOCK
5
11F
100
AcDbEntity
8
0
100
AcDbBlockBegin
2
DimnDraft3D7
70
0
10
0
20
0
30
0
3
DimnDraft3D7
0
MTEXT
5
118
100
AcDbEntity
8
SK2
62
256
6
ByLayer
370
-1
48
1
60
0
100
AcDbMText
10
136.25
20
28.625
30
0
210
0
220
0
230
1
1
\W01.000;\fsimplex.shx,bigfont.shx;12 
40
4.5
41
0
44
1.084337
50
90
71
7
72
5
7
DEFAULT
0
MTEXT
5
119
100
AcDbEntity
8
SK2
62
256
6
ByLayer
370
-1
48
1
60
0
100
AcDbMText
10
136
20
17.875
30
0
210
0
220
0
230
1
1
\W01.000;\fsimplex.shx,bigfont.shx;%%c 
40
3.5
41
0
44
1.084337
50
90
71
7
72
5
7
DEFAULT
0
LINE
5
11A
100
AcDbEntity
8
SK2
62
256
6
ByLayer
370
-1
48
1
60
0
100
AcDbLine
10
104.5875
20
6
30
0
11
140.25
21
6
31
0
39
0
210
0
220
0
230
1
0
LINE
5
11B
100
AcDbEntity
8
SK2
62
256
6
ByLayer
370
-1
48
1
60
0
100
AcDbLine
10
104.5875
20
-6
30
0
11
140.25
21
-6
31
0
39
0
210
0
220
0
230
1
0
LINE
5
11C
100
AcDbEntity
8
SK2
62
256
6
ByLayer
370
-1
48
1
60
0
100
AcDbLine
10
138.25
20
-6
30
0
11
138.25
21
31.632895
31
0
39
0
210
0
220
0
230
1
0
SOLID
5
11D
100
AcDbEntity
8
SK2
62
256
6
ByLayer
370
-1
48
1
60
0
100
AcDbTrace
10
138.25
20
6
30
0
11
139.247626
21
1.500004
31
0
12
137.252374
22
1.499996
32
0
13
138.25
23
6
33
0
39
0
210
0
220
0
230
1
0
SOLID
5
11E
100
AcDbEntity
8
SK2
62
256
6
ByLayer
370
-1
48
1
60
0
100
AcDbTrace
10
138.25
20
-6
30
0
11
137.252374
21
-1.500004
31
0
12
139.247626
22
-1.499996
32
0
13
138.25
23
-6
33
0
39
0
210
0
220
0
230
1
0
ENDBLK
5
120
100
AcDbEntity
8
0
100
AcDbBlockEnd
0
BLOCK
5
12A
100
AcDbEntity
8
0
100
AcDbBlockBegin
2
DimnDraft3D8
70
0
10
0
20
0
30
0
3
DimnDraft3D8
0
MTEXT
5
123
100
AcDbEntity
8
SK2
62
256
6
ByLayer
370
-1
48
1
60
0
100
AcDbMText
10
155.25
20
3.509211
30
0
210
0
220
0
230
1
1
\W01.000;\fsimplex.shx,bigfont.shx;40 
40
4.5
41
0
44
1.084337
50
90
71
7
72
5
7
DEFAULT
0
MTEXT
5
124
100
AcDbEntity
8
SK2
62
256
6
ByLayer
370
-1
48
1
60
0
100
AcDbMText
10
155
20
-7.240789
30
0
210
0
220
0
230
1
1
\W01.000;\fsimplex.shx,bigfont.shx;%%c 
40
3.5
41
0
44
1.084337
50
90
71
7
72
5
7
DEFAULT
0
LINE
5
125
100
AcDbEntity
8
SK2
62
256
6
ByLayer
370
-1
48
1
60
0
100
AcDbLine
10
39.5875
20
20
30
0
11
159.25
21
20
31
0
39
0
210
0
220
0
230
1
0
LINE
5
126
100
AcDbEntity
8
SK2
62
256
6
ByLayer
370
-1
48
1
60
0
100
AcDbLine
10
39.5875
20
-20
30
0
11
159.25
21
-20
31
0
39
0
210
0
220
0
230
1
0
LINE
5
127
100
AcDbEntity
8
SK2
62
256
6
ByLayer
370
-1
48
1
60
0
100
AcDbLine
10
157.25
20
20
30
0
11
157.25
21
-20
31
0
39
0
210
0
220
0
230
1
0
SOLID
5
128
100
AcDbEntity
8
SK2
62
256
6
ByLayer
370
-1
48
1
60
0
100
AcDbTrace
10
157.25
20
20
30
0
11
158.247626
21
15.500004
31
0
12
156.252374
22
15.499996
32
0
13
157.25
23
20
33
0
39
0
210
0
220
0
230
1
0
SOLID
5
129
100
AcDbEntity
8
SK2
62
256
6
ByLayer
370
-1
48
1
60
0
100
AcDbTrace
10
157.25
20
-20
30
0
11
156.252374
21
-15.500004
31
0
12
158.247626
22
-15.499996
32
0
13
157.25
23
-20
33
0
39
0
210
0
220
0
230
1
0
ENDBLK
5
12B
100
AcDbEntity
8
0
100
AcDbBlockEnd
0
ENDSEC
0
SECTION
2
ENTITIES
0
ARC
5
8A
100
AcDbEntity
8
1
62
256
6
ByLayer
370
-1
48
1
60
0
100
AcDbCircle
39
0
10
21.5
20
-22.49025
30
0
40
0.5
210
0
220
0
230
1
100
AcDbArc
50
270
51
0
0
ARC
5
8B
100
AcDbEntity
8
1
62
256
6
ByLayer
370
-1
48
1
60
0
100
AcDbCircle
39
0
10
21.5
20
22.49025
30
0
40
0.5
210
0
220
0
230
1
100
AcDbArc
50
0
51
90
0
ARC
5
8C
100
AcDbEntity
8
1
62
256
6
ByLayer
370
-1
48
1
60
0
100
AcDbCircle
39
0
10
-23
20
-21
30
0
40
1
210
0
220
0
230
-1
100
AcDbArc
50
0
51
90
0
ARC
5
8D
100
AcDbEntity
8
1
62
256
6
ByLayer
370
-1
48
1
60
0
100
AcDbCircle
39
0
10
-23
20
21
30
0
40
1
210
0
220
0
230
-1
100
AcDbArc
50
270
51
0
0
ARC
5
8E
100
AcDbEntity
8
1
62
256
6
ByLayer
370
-1
48
1
60
0
100
AcDbCircle
39
0
10
35.573958
20
19
30
0
40
1
210
0
220
0
230
1
100
AcDbArc
50
10
51
90
0
ARC
5
8F
100
AcDbEntity
8
1
62
256
6
ByLayer
370
-1
48
1
60
0
100
AcDbCircle
39
0
10
35.573958
20
-19
30
0
40
1
210
0
220
0
230
1
100
AcDbArc
50
270
51
350
0
ARC
5
90
100
AcDbEntity
8
1
62
256
6
ByLayer
370
-1
48
1
60
0
100
AcDbCircle
39
0
10
-0.8
20
16.075
30
0
40
0.5
210
0
220
0
230
-1
100
AcDbArc
50
246.421412
51
270
0
ARC
5
91
100
AcDbEntity
8
1
62
256
6
ByLayer
370
-1
48
1
60
0
100
AcDbCircle
39
0
10
-0.8
20
-16.075
30
0
40
0.5
210
0
220
0
230
-1
100
AcDbArc
50
90
51
113.578588
0
ARC
5
92
100
AcDbEntity
8
1
62
256
6
ByLayer
370
-1
48
1
60
0
100
AcDbCircle
39
0
10
-42.195498
20
-16
30
0
40
5
210
0
220
0
230
-1
100
AcDbArc
50
10
51
90
0
ARC
5
93
100
AcDbEntity
8
1
62
256
6
ByLayer
370
-1
48
1
60
0
100
AcDbCircle
39
0
10
-42.195498
20
16
30
0
40
5
210
0
220
0
230
-1
100
AcDbArc
50
270
51
350
0
ARC
5
94
100
AcDbEntity
8
1
62
256
6
ByLayer
370
-1
48
1
60
0
100
AcDbCircle
39
0
10
102.2
20
-9.969571
30
0
40
0.799999999999997
210
0
220
0
230
1
100
AcDbArc
50
282
51
0
0
ARC
5
95
100
AcDbEntity
8
1
62
256
6
ByLayer
370
-1
48
1
60
0
100
AcDbCircle
39
0
10
102.2
20
9.969571
30
0
40
0.799999999999997
210
0
220
0
230
1
100
AcDbArc
50
0
51
78
0
ARC
5
96
100
AcDbEntity
8
SK1
62
256
6
ByLayer
370
-1
48
1
60
0
100
AcDbCircle
39
0
10
-47.9
20
8.383635
30
0
40
0.5
210
0
220
0
230
1
100
AcDbArc
50
98.297917
51
180
0
ARC
5
97
100
AcDbEntity
8
SK1
62
256
6
ByLayer
370
-1
48
1
60
0
100
AcDbCircle
39
0
10
-47.9
20
-8.383635
30
0
40
0.5
210
0
220
0
230
1
100
AcDbArc
50
180
51
261.702083
0
ELLIPSE
5
98
100
AcDbEntity
8
1
62
256
6
ByLayer
370
-1
48
1
60
0
100
AcDbEllipse
10
10.595
20
0
30
0
11
21.347134722115
21
-8.53530492954622
31
0
210
0
220
0
230
1
40
1
41
-1.59715703417776
42
-1.55025329576461
0
ELLIPSE
5
99
100
AcDbEntity
8
1
62
256
6
ByLayer
370
-1
48
1
60
0
100
AcDbEllipse
10
10.595
20
0
30
0
11
21.347134722115
21
8.5353049295462
31
0
210
0
220
0
230
1
40
1
41
1.55025329576461
42
1.59715703417776
0
POINT
5
41
100
AcDbEntity
8
80
62
256
6
ByLayer
370
-1
48
1
60
0
100
AcDbPoint
10
0
20
0
30
0
39
0
210
0
220
0
230
1
50
360
0
POINT
5
43
100
AcDbEntity
8
81
62
256
6
ByLayer
370
-1
48
1
60
0
100
AcDbPoint
10
103
20
0
30
0
39
0
210
0
220
0
230
1
50
360
0
SPLINE
5
9A
100
AcDbEntity
8
1
62
256
6
ByLayer
370
-1
48
1
60
0
100
AcDbSpline
70
4
71
3
72
12
73
8
40
0
40
0
40
0
40
0
40
0.25
40
0.25
40
0.5
40
0.5
40
1
40
1
40
1
40
1
41
1
10
17.616010667241
20
-22.5387963392974
30
0
41
1
10
17.4608669504935
20
-22.2170831286277
30
0
41
1
10
17.3010634462643
20
-21.8852873929605
30
0
41
1
10
16.9742694602937
20
-21.2056741034114
30
0
41
1
10
16.8072606143484
20
-20.8578193412874
30
0
41
1
10
16.2974869109692
20
-19.7939702572417
30
0
41
1
10
15.950805113918
20
-19.0678052935429
30
0
41
1
10
15.6
20
-18.3289394467065
30
0
0
SPLINE
5
9B
100
AcDbEntity
8
1
62
256
6
ByLayer
370
-1
48
1
60
0
100
AcDbSpline
70
4
71
3
72
18
73
14
40
0
40
0
40
0
40
0
40
0.250000000000006
40
0.250000000000006
40
0.375000000000006
40
0.375000000000006
40
0.500000000000007
40
0.500000000000007
40
0.625000000000007
40
0.625000000000007
40
0.750000000000007
40
0.750000000000007
40
1
40
1
40
1
40
1
41
1
10
1.5
20
21.1147476911873
30
0
41
1
10
1.43681644956905
20
21.0875319081918
30
0
41
1
10
1.37760170804418
20
21.0491211245336
30
0
41
1
10
1.29384812935754
20
20.9772079046786
30
0
41
1
10
1.26662530879804
20
20.9505796198051
30
0
41
1
10
1.2150545143086
20
20.8932840424646
30
0
41
1
10
1.1906997248731
20
20.8626732683756
30
0
41
1
10
1.14496987032211
20
20.7973631395579
30
0
41
1
10
1.12358923768278
20
20.7626714242171
30
0
41
1
10
1.08427786917448
20
20.6885542733555
30
0
41
1
10
1.06630122122238
20
20.648915540035
30
0
41
1
10
1.02074883266306
20
20.5255017503036
30
0
41
1
10
1
20
20.4345816747811
30
0
41
1
10
1
20
20.3407797309371
30
0
0
SPLINE
5
9C
100
AcDbEntity
8
1
62
256
6
ByLayer
370
-1
48
1
60
0
100
AcDbSpline
70
4
71
3
72
16
73
12
40
0
40
0
40
0
40
0
40
0.250000000000001
40
0.250000000000001
40
0.500000000000002
40
0.500000000000002
40
0.625000000000001
40
0.625000000000001
40
0.750000000000001
40
0.750000000000001
40
1
40
1
40
1
40
1
41
1
10
15.6
20
17.8171298285426
30
0
41
1
10
15.3085298705521
20
17.7403716780144
30
0
41
1
10
15.0059519577649
20
17.6673436275285
30
0
41
1
10
14.3784953002308
20
17.5324930247018
30
0
41
1
10
14.0536184959125
20
17.4706603996126
30
0
41
1
10
13.5485459454065
20
17.3892986395093
30
0
41
1
10
13.3768442124266
20
17.3640302199922
30
0
41
1
10
13.0288758639491
20
17.3180624339741
30
0
41
1
10
12.8535326979434
20
17.2974755006167
30
0
41
1
10
12.3234079187194
20
17.2433550721048
30
0
41
1
10
11.9645475767359
20
17.217463308427
30
0
41
1
10
11.6
20
17.202929442689
30
0
0
SPLINE
5
9D
100
AcDbEntity
8
1
62
256
6
ByLayer
370
-1
48
1
60
0
100
AcDbSpline
70
4
71
3
72
8
73
4
40
0
40
0
40
0
40
0
40
1
40
1
40
1
40
1
41
1
10
10.915
20
-19.0224260464903
30
0
41
1
10
10.4744729019256
20
-19.8558504419073
30
0
41
1
10
10.0304555656175
20
-20.6875680300875
30
0
41
1
10
9.58398933275902
20
-21.5179592448378
30
0
0
SPLINE
5
9E
100
AcDbEntity
8
1
62
256
6
ByLayer
370
-1
48
1
60
0
100
AcDbSpline
70
4
71
3
72
18
73
14
40
0
40
0
40
0
40
0
40
0.250000000000006
40
0.250000000000006
40
0.375000000000006
40
0.375000000000006
40
0.500000000000007
40
0.500000000000007
40
0.625000000000007
40
0.625000000000007
40
0.750000000000007
40
0.750000000000007
40
1
40
1
40
1
40
1
41
1
10
1.5
20
-21.1147476911873
30
0
41
1
10
1.43681644956905
20
-21.0875319081918
30
0
41
1
10
1.37760170804418
20
-21.0491211245336
30
0
41
1
10
1.29384812935754
20
-20.9772079046786
30
0
41
1
10
1.26662530879804
20
-20.9505796198051
30
0
41
1
10
1.2150545143086
20
-20.8932840424646
30
0
41
1
10
1.1906997248731
20
-20.8626732683756
30
0
41
1
10
1.14496987032211
20
-20.7973631395579
30
0
41
1
10
1.12358923768278
20
-20.7626714242171
30
0
41
1
10
1.08427786917448
20
-20.6885542733555
30
0
41
1
10
1.06630122122238
20
-20.648915540035
30
0
41
1
10
1.02074883266306
20
-20.5255017503036
30
0
41
1
10
1
20
-20.4345816747811
30
0
41
1
10
1
20
-20.3407797309371
30
0
0
SPLINE
5
9F
100
AcDbEntity
8
1
62
256
6
ByLayer
370
-1
48
1
60
0
100
AcDbSpline
70
4
71
3
72
16
73
12
40
0
40
0
40
0
40
0
40
0.25
40
0.25
40
0.499999999999999
40
0.499999999999999
40
0.624999999999999
40
0.624999999999999
40
0.75
40
0.75
40
1
40
1
40
1
40
1
41
1
10
17.616010667241
20
-22.5387963392974
30
0
41
1
10
17.8397577952358
20
-22.6054656625528
30
0
41
1
10
18.0367629699911
20
-22.6671713048729
30
0
41
1
10
18.3784915700087
20
-22.777162513991
30
0
41
1
10
18.5233427110632
20
-22.8255022329368
30
0
41
1
10
18.7002862645849
20
-22.8855428510773
30
0
41
1
10
18.752681769792
20
-22.9035338048515
30
0
41
1
10
18.8424007418491
20
-22.9345624431598
30
0
41
1
10
18.8797649149732
20
-22.9476118886706
30
0
41
1
10
18.9696195769109
20
-22.9791617015855
30
0
41
1
10
19
20
-22.9900713055981
30
0
41
1
10
19
20
-22.9902478251649
30
0
0
SPLINE
5
A0
100
AcDbEntity
8
1
62
256
6
ByLayer
370
-1
48
1
60
0
100
AcDbSpline
70
4
71
3
72
8
73
4
40
0
40
0
40
0
40
0
40
1
40
1
40
1
40
1
41
1
10
11.6
20
-17.7324754990393
30
0
41
1
10
11.3708682037838
20
-18.1618141995351
30
0
41
1
10
11.1425998112782
20
-18.5918345211546
30
0
41
1
10
10.915
20
-19.0224260464903
30
0
0
SPLINE
5
A1
100
AcDbEntity
8
1
62
256
6
ByLayer
370
-1
48
1
60
0
100
AcDbSpline
70
4
71
3
72
16
73
12
40
0
40
0
40
0
40
0
40
0.250000000000001
40
0.250000000000001
40
0.500000000000002
40
0.500000000000002
40
0.625000000000001
40
0.625000000000001
40
0.750000000000001
40
0.750000000000001
40
1
40
1
40
1
40
1
41
1
10
15.6
20
-17.8171298285426
30
0
41
1
10
15.3085298705521
20
-17.7403716780144
30
0
41
1
10
15.0059519577649
20
-17.6673436275285
30
0
41
1
10
14.3784953002308
20
-17.5324930247018
30
0
41
1
10
14.0536184959125
20
-17.4706603996126
30
0
41
1
10
13.5485459454065
20
-17.3892986395093
30
0
41
1
10
13.3768442124266
20
-17.3640302199922
30
0
41
1
10
13.0288758639491
20
-17.3180624339741
30
0
41
1
10
12.8535326979434
20
-17.2974755006167
30
0
41
1
10
12.3234079187194
20
-17.2433550721048
30
0
41
1
10
11.9645475767359
20
-17.217463308427
30
0
41
1
10
11.6
20
-17.202929442689
30
0
0
SPLINE
5
A2
100
AcDbEntity
8
1
62
256
6
ByLayer
370
-1
48
1
60
0
100
AcDbSpline
70
4
71
3
72
12
73
8
40
0
40
0
40
0
40
0
40
0.249999999999999
40
0.249999999999999
40
0.499999999999999
40
0.499999999999999
40
1
40
1
40
1
40
1
41
1
10
17.616010667241
20
22.5387963392974
30
0
41
1
10
17.4608669504935
20
22.2170831286277
30
0
41
1
10
17.3010634462643
20
21.8852873929605
30
0
41
1
10
16.9742694602937
20
21.2056741034114
30
0
41
1
10
16.8072606143484
20
20.8578193412874
30
0
41
1
10
16.2974869109692
20
19.7939702572417
30
0
41
1
10
15.9508051139181
20
19.0678052935429
30
0
41
1
10
15.6
20
18.3289394467065
30
0
0
SPLINE
5
A3
100
AcDbEntity
8
1
62
256
6
ByLayer
370
-1
48
1
60
0
100
AcDbSpline
70
4
71
3
72
65
73
61
40
0
40
0
40
0
40
0
40
0.0556034392313834
40
0.0556034392313834
40
0.083405158847075
40
0.083405158847075
40
0.111206878462767
40
0.111206878462767
40
0.16681031769415
40
0.16681031769415
40
0.194612037309842
40
0.194612037309842
40
0.222413756925533
40
0.222413756925533
40
0.278017196156917
40
0.278017196156917
40
0.305818915772609
40
0.305818915772609
40
0.319719775580455
40
0.319719775580455
40
0.333620635388301
40
0.333620635388301
40
0.389224074619686
40
0.389224074619686
40
0.403124934427532
40
0.403124934427532
40
0.417025794235378
40
0.417025794235378
40
0.44482751385107
40
0.472629233466762
40
0.472629233466762
40
0.500430953082454
40
0.500430953082454
40
0.556034392313839
40
0.556034392313839
40
0.58383611192953
40
0.58383611192953
40
0.611637831545222
40
0.611637831545222
40
0.639439551160914
40
0.639439551160914
40
0.667241270776606
40
0.667241270776606
40
0.722844710007989
40
0.722844710007989
40
0.750646429623681
40
0.750646429623681
40
0.778448149239372
40
0.778448149239372
40
0.834051588470756
40
0.834051588470756
40
0.861853308086448
40
0.861853308086448
40
0.88965502770214
40
0.88965502770214
40
0.945258466933525
40
0.945258466933525
40
0.973060186549217
40
0.973060186549217
40
1
40
1
40
1
40
1
41
1
10
23.75
20
-18.7349939951952
30
0
41
1
10
23.75
20
-18.6085995310791
30
0
41
1
10
23.7823610660596
20
-18.4751367433756
30
0
41
1
10
23.8747459878285
20
-18.265233816874
30
0
41
1
10
23.9129085368476
20
-18.1936484095645
30
0
41
1
10
24.0038465132538
20
-18.0474054644727
30
0
41
1
10
24.0568270679601
20
-17.9724923314845
30
0
41
1
10
24.2367241348385
20
-17.7451810005512
30
0
41
1
10
24.3826321689525
20
-17.5921646743776
30
0
41
1
10
24.6391955612061
20
-17.3627207199621
30
0
41
1
10
24.7310501711457
20
-17.2862601882809
30
0
41
1
10
24.9278383645669
20
-17.1338905872394
30
0
41
1
10
25.0333371124928
20
-17.0576128782552
30
0
41
1
10
25.3658613535573
20
-16.8337948042639
30
0
41
1
10
25.6082400879961
20
-16.6912556948297
30
0
41
1
10
26.0049028490457
20
-16.4919803908614
30
0
41
1
10
26.1426831090466
20
-16.4279986722226
30
0
41
1
10
26.3584239043168
20
-16.3365227925288
30
0
41
1
10
26.4318529900345
20
-16.3067825393192
30
0
41
1
10
26.5819170329531
20
-16.248976916329
30
0
41
1
10
26.6587001745505
20
-16.2208686453634
30
0
41
1
10
27.0463271909753
20
-16.0866063421679
30
0
41
1
10
27.3713434914785
20
-15.9977960607309
30
0
41
1
10
27.7986312238582
20
-15.9158213161912
30
0
41
1
10
27.8851502481194
20
-15.900889799042
30
0
41
1
10
28.0604177361178
20
-15.8741506447422
30
0
41
1
10
28.1489061520711
20
-15.8623967821432
30
0
41
1
10
28.4139117838445
20
-15.8324618157196
30
0
41
1
10
28.7683346542949
20
-15.8063777704421
30
0
41
1
10
29.1249138763944
20
-15.8082005352456
30
0
41
1
10
29.4825929477076
20
-15.8242442502062
30
0
41
1
10
29.6630263607177
20
-15.8395809409185
30
0
41
1
10
30.1912554464934
20
-15.9052696086803
30
0
41
1
10
30.5300572330159
20
-15.9750136906831
30
0
41
1
10
31.020127422263
20
-16.1123821532963
30
0
41
1
10
31.1789978859971
20
-16.1632958385003
30
0
41
1
10
31.4849278168126
20
-16.2727497478626
30
0
41
1
10
31.6325981200368
20
-16.3314624928851
30
0
41
1
10
31.9180646530782
20
-16.455701115029
30
0
41
1
10
32.0561006820943
20
-16.5213547645572
30
0
41
1
10
32.3216151433909
20
-16.6580534646241
30
0
41
1
10
32.4478692571451
20
-16.7284410246014
30
0
41
1
10
32.8085914025421
20
-16.9443045999176
30
0
41
1
10
33.0252088578037
20
-17.0944132570042
30
0
41
1
10
33.3160966232704
20
-17.3249905723561
30
0
41
1
10
33.4069709984686
20
-17.4025285602552
30
0
41
1
10
33.574521401313
20
-17.5563761297292
30
0
41
1
10
33.6515805007749
20
-17.632985328913
30
0
41
1
10
33.8629410518799
20
-17.861276882158
30
0
41
1
10
33.9776375611794
20
-18.0114044972848
30
0
41
1
10
34.1079236358911
20
-18.2316319998875
30
0
41
1
10
34.1438669474487
20
-18.3034826721211
30
0
41
1
10
34.2003288601782
20
-18.4428533180143
30
0
41
1
10
34.2209561378913
20
-18.5105554503913
30
0
41
1
10
34.2597467036458
20
-18.7076214916934
30
0
41
1
10
34.2550682817458
20
-18.8309478204891
30
0
41
1
10
34.1970801918853
20
-19.0034705114082
30
0
41
1
10
34.1693403877307
20
-19.0582506097665
30
0
41
1
10
34.0987775254592
20
-19.15993803276
30
0
41
1
10
34.0563910352577
20
-19.2072179223193
30
0
41
1
10
34.0062567114927
20
-19.2518981221175
30
0
0
SPLINE
5
A4
100
AcDbEntity
8
1
62
256
6
ByLayer
370
-1
48
1
60
0
100
AcDbSpline
70
4
71
3
72
14
73
10
40
0
40
0
40
0
40
0
40
0.0464084807522926
40
0.0464084807522926
40
0.364272320501529
40
0.364272320501529
40
0.682136160250762
40
0.682136160250762
40
1
40
1
40
1
40
1
41
1
10
23.9950875979825
20
-19.2530912901839
30
0
41
1
10
23.9873927833147
20
-19.2462604312957
30
0
41
1
10
23.9798856490189
20
-19.2393742720866
30
0
41
1
10
23.9224929406921
20
-19.1849405721566
30
0
41
1
10
23.8812223111867
20
-19.1349301830767
30
0
41
1
10
23.8154228362628
20
-19.0297354105751
30
0
41
1
10
23.7908964114077
20
-18.9745512520497
30
0
41
1
10
23.7581848394373
20
-18.8588348145774
30
0
41
1
10
23.75
20
-18.7981912272533
30
0
41
1
10
23.75
20
-18.7349939951952
30
0
0
SPLINE
5
A5
100
AcDbEntity
8
1
62
256
6
ByLayer
370
-1
48
1
60
0
100
AcDbSpline
70
4
71
3
72
8
73
4
40
0
40
0
40
0
40
0
40
1
40
1
40
1
40
1
41
1
10
11.6
20
17.7324754990393
30
0
41
1
10
11.3708682037838
20
18.1618141995351
30
0
41
1
10
11.1425998112782
20
18.5918345211546
30
0
41
1
10
10.915
20
19.0224260464903
30
0
0
SPLINE
5
A6
100
AcDbEntity
8
1
62
256
6
ByLayer
370
-1
48
1
60
0
100
AcDbSpline
70
4
71
3
72
8
73
4
40
0
40
0
40
0
40
0
40
1
40
1
40
1
40
1
41
1
10
10.915
20
19.0224260464903
30
0
41
1
10
10.4744594438788
20
19.8558759029167
30
0
41
1
10
10.0304331233107
20
20.6876097709696
30
0
41
1
10
9.58398933275902
20
21.5179592448378
30
0
0
SPLINE
5
A7
100
AcDbEntity
8
1
62
256
6
ByLayer
370
-1
48
1
60
0
100
AcDbSpline
70
4
71
3
72
16
73
12
40
0
40
0
40
0
40
0
40
0.25
40
0.25
40
0.5
40
0.5
40
0.625
40
0.625
40
0.75
40
0.75
40
1
40
1
40
1
40
1
41
1
10
17.616010667241
20
22.5387963392974
30
0
41
1
10
17.8397577952358
20
22.6054656625528
30
0
41
1
10
18.0367629699911
20
22.6671713048729
30
0
41
1
10
18.3784915700087
20
22.777162513991
30
0
41
1
10
18.5233427110632
20
22.8255022329368
30
0
41
1
10
18.7002862645849
20
22.8855428510773
30
0
41
1
10
18.752681769792
20
22.9035338048515
30
0
41
1
10
18.8424007418491
20
22.9345624431598
30
0
41
1
10
18.8797649149731
20
22.9476118886705
30
0
41
1
10
18.9696195769109
20
22.9791617015855
30
0
41
1
10
19
20
22.9900713055981
30
0
41
1
10
19
20
22.9902478251649
30
0
0
INSERT
5
D2
100
AcDbEntity
8
SK6
62
256
6
ByLayer
370
-1
48
1
60
0
100
AcDbBlockReference
2
LABLE3D_1
10
0
20
0
30
0
41
1
42
1
43
1
50
0
210
0
220
0
230
1
0
LINE
5
45
100
AcDbEntity
8
SK3
62
256
6
ByLayer
370
-1
48
0.05
60
0
100
AcDbLine
10
103
20
6
30
0
11
58.5
21
6
31
0
39
0
210
0
220
0
230
1
0
LINE
5
47
100
AcDbEntity
8
SK3
62
256
6
ByLayer
370
-1
48
0.05
60
0
100
AcDbLine
10
57
20
4.5
30
0
11
57
21
-4.5
31
0
39
0
210
0
220
0
230
1
0
LINE
5
48
100
AcDbEntity
8
4
62
256
6
ByLayer
370
-1
48
0.05
60
0
100
AcDbLine
10
103
20
0
30
0
11
0
21
0
31
0
39
0
210
0
220
0
230
1
0
LINE
5
4A
100
AcDbEntity
8
80
62
256
6
ByLayer
370
-1
48
1
60
0
100
AcDbLine
10
0
20
0
30
0
11
-10.875929
21
0
31
0
39
0
210
0
220
0
230
1
0
LINE
5
4B
100
AcDbEntity
8
SK3
62
256
6
ByLayer
370
-1
48
0.05
60
0
100
AcDbLine
10
58.5
20
-6
30
0
11
103
21
-6
31
0
39
0
210
0
220
0
230
1
0
LINE
5
4C
100
AcDbEntity
8
SK3
62
256
6
ByLayer
370
-1
48
0.05
60
0
100
AcDbLine
10
58.5
20
6
30
0
11
57
21
4.5
31
0
39
0
210
0
220
0
230
1
0
LINE
5
4D
100
AcDbEntity
8
SK3
62
256
6
ByLayer
370
-1
48
0.05
60
0
100
AcDbLine
10
57
20
-4.5
30
0
11
58.5
21
-6
31
0
39
0
210
0
220
0
230
1
0
LINE
5
4E
100
AcDbEntity
8
SK3
62
256
6
ByLayer
370
-1
48
0.05
60
0
100
AcDbLine
10
58.5
20
-6
30
0
11
58.5
21
6
31
0
39
0
210
0
220
0
230
1
0
LINE
5
4F
100
AcDbEntity
8
81
62
256
6
ByLayer
370
-1
48
1
60
0
100
AcDbLine
10
103
20
0
30
0
11
107.742527
21
0
31
0
39
0
210
0
220
0
230
1
0
LINE
5
50
100
AcDbEntity
8
SK4
62
256
6
ByLayer
370
-1
48
0.05
60
0
100
AcDbLine
10
-58.4
20
0
30
0
11
113
21
0
31
0
39
0
210
0
220
0
230
1
0
LINE
5
52
100
AcDbEntity
8
1
62
256
6
ByLayer
370
-1
48
1
60
0
100
AcDbLine
10
103
20
-9.969571
30
0
11
103
21
9.969571
31
0
39
0
210
0
220
0
230
1
0
LINE
5
54
100
AcDbEntity
8
1
62
256
6
ByLayer
370
-1
48
1
60
0
100
AcDbLine
10
9.583989
20
-21.517959
30
0
11
9.583989
21
21.517959
31
0
39
0
210
0
220
0
230
1
0
LINE
5
55
100
AcDbEntity
8
1
62
256
6
ByLayer
370
-1
48
1
60
0
100
AcDbLine
10
22
20
-22.49025
30
0
11
22
21
0
31
0
39
0
210
0
220
0
230
1
0
LINE
5
56
100
AcDbEntity
8
1
62
256
6
ByLayer
370
-1
48
1
60
0
100
AcDbLine
10
22
20
0
30
0
11
22
21
22.49025
31
0
39
0
210
0
220
0
230
1
0
LINE
5
57
100
AcDbEntity
8
1
62
256
6
ByLayer
370
-1
48
1
60
0
100
AcDbLine
10
15.6
20
-18.328939
30
0
11
15.6
21
18.328939
31
0
39
0
210
0
220
0
230
1
0
LINE
5
58
100
AcDbEntity
8
1
62
256
6
ByLayer
370
-1
48
1
60
0
100
AcDbLine
10
1.5
20
21.114748
30
0
11
1.5
21
-21.114748
31
0
39
0
210
0
220
0
230
1
0
LINE
5
59
100
AcDbEntity
8
1
62
256
6
ByLayer
370
-1
48
1
60
0
100
AcDbLine
10
101.2
20
-11
30
0
11
101.2
21
11
31
0
39
0
210
0
220
0
230
1
0
LINE
5
5A
100
AcDbEntity
8
1
62
256
6
ByLayer
370
-1
48
1
60
0
100
AcDbLine
10
23
20
-20
30
0
11
23
21
0
31
0
39
0
210
0
220
0
230
1
0
LINE
5
5B
100
AcDbEntity
8
1
62
256
6
ByLayer
370
-1
48
1
60
0
100
AcDbLine
10
23
20
0
30
0
11
23
21
20
31
0
39
0
210
0
220
0
230
1
0
LINE
5
5C
100
AcDbEntity
8
1
62
256
6
ByLayer
370
-1
48
1
60
0
100
AcDbLine
10
17.616011
20
22.538796
30
0
11
17.616011
21
-22.538796
31
0
39
0
210
0
220
0
230
1
0
LINE
5
5D
100
AcDbEntity
8
1
62
256
6
ByLayer
370
-1
48
1
60
0
100
AcDbLine
10
36.558765
20
19.173648
30
0
11
36.558765
21
-19.173648
31
0
39
0
210
0
220
0
230
1
0
LINE
5
5E
100
AcDbEntity
8
1
62
256
6
ByLayer
370
-1
48
1
60
0
100
AcDbLine
10
35.573958
20
20
30
0
11
35.573958
21
-20
31
0
39
0
210
0
220
0
230
1
0
LINE
5
5F
100
AcDbEntity
8
1
62
256
6
ByLayer
370
-1
48
1
60
0
100
AcDbLine
10
2.5
20
-21.517959
30
0
11
9.583989
21
-21.517959
31
0
39
0
210
0
220
0
230
1
0
LINE
5
60
100
AcDbEntity
8
1
62
256
6
ByLayer
370
-1
48
1
60
0
100
AcDbLine
10
37.271459
20
-15.131759
30
0
11
37.271459
21
15.131759
31
0
39
0
210
0
220
0
230
1
0
LINE
5
61
100
AcDbEntity
8
1
62
256
6
ByLayer
370
-1
48
1
60
0
100
AcDbLine
10
21.5
20
-22.99025
30
0
11
21.5
21
22.99025
31
0
39
0
210
0
220
0
230
1
0
LINE
5
62
100
AcDbEntity
8
1
62
256
6
ByLayer
370
-1
48
1
60
0
100
AcDbLine
10
0.8
20
15.575
30
0
11
0.8
21
-15.575
31
0
39
0
210
0
220
0
230
1
0
LINE
5
63
100
AcDbEntity
8
1
62
256
6
ByLayer
370
-1
48
1
60
0
100
AcDbLine
10
102.366329
20
-10.752089
30
0
11
102.366329
21
10.752089
31
0
39
0
210
0
220
0
230
1
0
LINE
5
64
100
AcDbEntity
8
1
62
256
6
ByLayer
370
-1
48
1
60
0
100
AcDbLine
10
0
20
-15.875
30
0
11
0
21
15.875
31
0
39
0
210
0
220
0
230
1
0
LINE
5
65
100
AcDbEntity
8
1
62
256
6
ByLayer
370
-1
48
1
60
0
100
AcDbLine
10
11.6
20
-17.732475
30
0
11
11.6
21
17.732475
31
0
39
0
210
0
220
0
230
1
0
LINE
5
66
100
AcDbEntity
8
1
62
256
6
ByLayer
370
-1
48
1
60
0
100
AcDbLine
10
0.428444
20
0
30
0
11
0.428444
21
-15.575
31
0
39
0
210
0
220
0
230
1
0
LINE
5
67
100
AcDbEntity
8
1
62
256
6
ByLayer
370
-1
48
1
60
0
100
AcDbLine
10
0.428444
20
15.575
30
0
11
0.428444
21
0
31
0
39
0
210
0
220
0
230
1
0
LINE
5
68
100
AcDbEntity
8
1
62
256
6
ByLayer
370
-1
48
1
60
0
100
AcDbLine
10
42.195498
20
-11
30
0
11
42.195498
21
0
31
0
39
0
210
0
220
0
230
1
0
LINE
5
69
100
AcDbEntity
8
1
62
256
6
ByLayer
370
-1
48
1
60
0
100
AcDbLine
10
42.195498
20
0
30
0
11
42.195498
21
11
31
0
39
0
210
0
220
0
230
1
0
LINE
5
6A
100
AcDbEntity
8
1
62
256
6
ByLayer
370
-1
48
1
60
0
100
AcDbLine
10
2.5
20
21.517959
30
0
11
9.583989
21
21.517959
31
0
39
0
210
0
220
0
230
1
0
LINE
5
6B
100
AcDbEntity
8
1
62
256
6
ByLayer
370
-1
48
1
60
0
100
AcDbLine
10
1
20
-20.34078
30
0
11
1
21
20.34078
31
0
39
0
210
0
220
0
230
1
0
LINE
5
6C
100
AcDbEntity
8
SK1
62
256
6
ByLayer
370
-1
48
1
60
0
100
AcDbLine
10
0
20
-15.875
30
0
11
0
21
15.875
31
0
39
0
210
0
220
0
230
1
0
LINE
5
6E
100
AcDbEntity
8
SK1
62
256
6
ByLayer
370
-1
48
1
60
0
100
AcDbLine
10
-48.4
20
8.383635
30
0
11
-48.4
21
-8.383635
31
0
39
0
210
0
220
0
230
1
0
LINE
5
6F
100
AcDbEntity
8
SK1
62
256
6
ByLayer
370
-1
48
1
60
0
100
AcDbLine
10
-47.97216
20
-8.8784
30
0
11
-47.97216
21
0
31
0
39
0
210
0
220
0
230
1
0
LINE
5
70
100
AcDbEntity
8
SK1
62
256
6
ByLayer
370
-1
48
1
60
0
100
AcDbLine
10
-47.97216
20
0
30
0
11
-47.97216
21
8.8784
31
0
39
0
210
0
220
0
230
1
0
LINE
5
71
100
AcDbEntity
8
1
62
256
6
ByLayer
370
-1
48
1
60
0
100
AcDbLine
10
34
20
-21.08
30
0
11
24
21
-21.08
31
0
39
0
210
0
220
0
230
1
0
LINE
5
72
100
AcDbEntity
8
1
62
256
6
ByLayer
370
-1
48
1
60
0
100
AcDbLine
10
33.08
20
-22
30
0
11
24.92
21
-22
31
0
39
0
210
0
220
0
230
1
0
LINE
5
73
100
AcDbEntity
8
1
62
256
6
ByLayer
370
-1
48
1
60
0
100
AcDbLine
10
21.5
20
22.99025
30
0
11
19
21
22.99025
31
0
39
0
210
0
220
0
230
1
0
LINE
5
74
100
AcDbEntity
8
1
62
256
6
ByLayer
370
-1
48
1
60
0
100
AcDbLine
10
19
20
-22.99025
30
0
11
21.5
21
-22.99025
31
0
39
0
210
0
220
0
230
1
0
LINE
5
75
100
AcDbEntity
8
1
62
256
6
ByLayer
370
-1
48
1
60
0
100
AcDbLine
10
23
20
-20
30
0
11
24.000023
21
-20
31
0
39
0
210
0
220
0
230
1
0
LINE
5
76
100
AcDbEntity
8
1
62
256
6
ByLayer
370
-1
48
1
60
0
100
AcDbLine
10
33.999855
20
-20
30
0
11
35.573958
21
-20
31
0
39
0
210
0
220
0
230
1
0
LINE
5
77
100
AcDbEntity
8
1
62
256
6
ByLayer
370
-1
48
1
60
0
100
AcDbLine
10
35.573958
20
20
30
0
11
23
21
20
31
0
39
0
210
0
220
0
230
1
0
LINE
5
78
100
AcDbEntity
8
1
62
256
6
ByLayer
370
-1
48
1
60
0
100
AcDbLine
10
36.558765
20
-19.173648
30
0
11
37.271459
21
-15.131759
31
0
39
0
210
0
220
0
230
1
0
LINE
5
79
100
AcDbEntity
8
1
62
256
6
ByLayer
370
-1
48
1
60
0
100
AcDbLine
10
37.271459
20
15.131759
30
0
11
36.558765
21
19.173648
31
0
39
0
210
0
220
0
230
1
0
LINE
5
7A
100
AcDbEntity
8
1
62
256
6
ByLayer
370
-1
48
1
60
0
100
AcDbLine
10
0
20
-15.875
30
0
11
0.428444
21
-15.575
31
0
39
0
210
0
220
0
230
1
0
LINE
5
7B
100
AcDbEntity
8
1
62
256
6
ByLayer
370
-1
48
1
60
0
100
AcDbLine
10
0.428444
20
15.575
30
0
11
0
21
15.875
31
0
39
0
210
0
220
0
230
1
0
LINE
5
7C
100
AcDbEntity
8
1
62
256
6
ByLayer
370
-1
48
1
60
0
100
AcDbLine
10
0.8
20
15.575
30
0
11
0.428444
21
15.575
31
0
39
0
210
0
220
0
230
1
0
LINE
5
7D
100
AcDbEntity
8
1
62
256
6
ByLayer
370
-1
48
1
60
0
100
AcDbLine
10
0.428444
20
-15.575
30
0
11
0.8
21
-15.575
31
0
39
0
210
0
220
0
230
1
0
LINE
5
7E
100
AcDbEntity
8
1
62
256
6
ByLayer
370
-1
48
1
60
0
100
AcDbLine
10
101.2
20
-11
30
0
11
102.366329
21
-10.752089
31
0
39
0
210
0
220
0
230
1
0
LINE
5
7F
100
AcDbEntity
8
1
62
256
6
ByLayer
370
-1
48
1
60
0
100
AcDbLine
10
102.366329
20
10.752089
30
0
11
101.2
21
11
31
0
39
0
210
0
220
0
230
1
0
LINE
5
80
100
AcDbEntity
8
1
62
256
6
ByLayer
370
-1
48
1
60
0
100
AcDbLine
10
42.195498
20
-11
30
0
11
101.2
21
-11
31
0
39
0
210
0
220
0
230
1
0
LINE
5
81
100
AcDbEntity
8
1
62
256
6
ByLayer
370
-1
48
1
60
0
100
AcDbLine
10
101.2
20
11
30
0
11
42.195498
21
11
31
0
39
0
210
0
220
0
230
1
0
LINE
5
82
100
AcDbEntity
8
SK1
62
256
6
ByLayer
370
-1
48
1
60
0
100
AcDbLine
10
0
20
15.875
30
0
11
-47.97216
21
8.8784
31
0
39
0
210
0
220
0
230
1
0
LINE
5
83
100
AcDbEntity
8
SK1
62
256
6
ByLayer
370
-1
48
1
60
0
100
AcDbLine
10
-47.97216
20
-8.8784
30
0
11
0
21
-15.875
31
0
39
0
210
0
220
0
230
1
0
LINE
5
84
100
AcDbEntity
8
1
62
256
6
ByLayer
370
-1
48
1
60
0
100
AcDbLine
10
34
20
-21.08
30
0
11
34
21
-18.075525
31
0
39
0
210
0
220
0
230
1
0
LINE
5
85
100
AcDbEntity
8
1
62
256
6
ByLayer
370
-1
48
1
60
0
100
AcDbLine
10
24
20
-18.080567
30
0
11
24
21
-21.08
31
0
39
0
210
0
220
0
230
1
0
LINE
5
86
100
AcDbEntity
8
1
62
256
6
ByLayer
370
-1
48
1
60
0
100
AcDbLine
10
24
20
-21.08
30
0
11
24.92
21
-22
31
0
39
0
210
0
220
0
230
1
0
LINE
5
87
100
AcDbEntity
8
1
62
256
6
ByLayer
370
-1
48
1
60
0
100
AcDbLine
10
33.08
20
-22
30
0
11
34
21
-21.08
31
0
39
0
210
0
220
0
230
1
0
LINE
5
88
100
AcDbEntity
8
1
62
256
6
ByLayer
370
-1
48
1
60
0
100
AcDbLine
10
24.92
20
-22
30
0
11
24.92
21
-18.0805
31
0
39
0
210
0
220
0
230
1
0
LINE
5
89
100
AcDbEntity
8
1
62
256
6
ByLayer
370
-1
48
1
60
0
100
AcDbLine
10
33.08
20
-22
30
0
11
33.08
21
-18.075438
31
0
39
0
210
0
220
0
230
1
0
MTEXT
5
D5
100
AcDbEntity
8
SK6
62
256
6
ByLayer
370
-1
48
1
60
0
100
AcDbMText
10
-52.538158
20
30.36525
30
0
210
0
220
0
230
1
1
\W01.000;\fsimplex.shx,bigfont.shx;  
40
3.5
41
0
44
1.084337
50
0
71
7
72
5
7
DEFAULT
0
MTEXT
5
D6
100
AcDbEntity
8
SK6
62
256
6
ByLayer
370
-1
48
1
60
0
100
AcDbMText
10
-94.482895
20
30.36525
30
0
210
0
220
0
230
1
1
\W00.800;\fsimplex.shx,bigfont.shx;MAS-BT30 Big-Plus 
40
3.5
41
0
44
1.084337
50
0
71
7
72
5
7
DEFAULT
0
MTEXT
5
D7
100
AcDbEntity
8
SK6
62
256
6
ByLayer
370
-1
48
1
60
0
100
AcDbMText
10
-2.125
20
-37.36525
30
0
210
0
220
0
230
1
1
\W00.691;\fsimplex.shx,bigfont.shx;930-BB30-P-12-103 
40
3.5
41
0
44
1.084337
50
0
71
7
72
5
7
DEFAULT
0
DIMENSION
5
E2
100
AcDbEntity
8
2
62
256
6
ByLayer
370
-3
48
1
60
0
100
AcDbDimension
2
DimnDraft3D1
10
103
20
62.09025
30
0
11
47.781579
21
62.09025
31
0
70
32
71
5
72
1
41
1
210
0
220
0
230
1
3
Standard
100
AcDbAlignedDimension
13
0
23
17.4625
33
0
14
103
24
12.5875
34
0
50
0
100
AcDbRotatedDimension
1001
ACAD
1000
DSTYLE
1002
{
1070
   279
1070
     0
1070
   172
1070
     1
1070
   173
1070
     1
1070
   340
1005
AA
1070
   271
1070
     1
1070
   272
1070
     2
1070
    77
1070
     1
1070
    73
1070
     0
1070
   171
1070
     3
1070
   274
1070
     4
1070
   177
1070
     2
1070
   176
1070
     2
1070
   178
1070
     2
1070
    78
1070
     8
1070
    48
1040
-0.005
1070
    41
1041
4.5
1070
   147
1041
2.25
1070
    42
1041
1.5875
1070
    44
1041
2.0
1070
   140
1041
4.5
1070
   343
1005
0
1070
   344
1005
0
1002
}
0
DIMENSION
5
ED
100
AcDbEntity
8
SK2
62
256
6
ByLayer
370
-3
48
1
60
0
100
AcDbDimension
2
DimnDraft3D2
10
22
20
32.09025
30
0
11
8.371053
21
32.09025
31
0
70
32
71
5
72
1
41
1
210
0
220
0
230
1
3
Standard
100
AcDbAlignedDimension
13
0
23
17.4625
33
0
14
22
24
24.57775
34
0
50
0
100
AcDbRotatedDimension
1001
ACAD
1000
DSTYLE
1002
{
1070
   279
1070
     0
1070
   172
1070
     1
1070
   173
1070
     1
1070
   340
1005
AA
1070
   271
1070
     2
1070
   272
1070
     2
1070
    77
1070
     1
1070
    73
1070
     0
1070
   171
1070
     3
1070
   274
1070
     4
1070
   177
1070
     2
1070
   176
1070
     2
1070
   178
1070
     2
1070
    78
1070
     8
1070
    48
1040
-0.005
1070
    41
1041
4.5
1070
   147
1041
2.25
1070
    42
1041
1.5875
1070
    44
1041
2.0
1070
   140
1041
4.5
1070
   343
1005
0
1070
   344
1005
0
1002
}
0
DIMENSION
5
F7
100
AcDbEntity
8
SK2
62
256
6
ByLayer
370
-3
48
1
60
0
100
AcDbDimension
2
DimnDraft3D3
10
38
20
32.09025
30
0
11
67.871053
21
32.09025
31
0
70
32
71
5
72
1
41
1
210
0
220
0
230
1
3
Standard
100
AcDbAlignedDimension
13
103
23
12.5875
33
0
14
38
24
12.5875
34
0
50
0
100
AcDbRotatedDimension
1001
ACAD
1000
DSTYLE
1002
{
1070
   279
1070
     0
1070
   172
1070
     1
1070
   173
1070
     1
1070
   340
1005
AA
1070
   271
1070
     1
1070
   272
1070
     2
1070
    77
1070
     1
1070
    73
1070
     0
1070
   171
1070
     3
1070
   274
1070
     4
1070
   177
1070
     2
1070
   176
1070
     2
1070
   178
1070
     2
1070
    78
1070
     8
1070
    48
1040
-0.005
1070
    41
1041
4.5
1070
   147
1041
2.25
1070
    42
1041
1.5875
1070
    44
1041
2.0
1070
   140
1041
4.5
1070
   343
1005
0
1070
   344
1005
0
1002
}
0
DIMENSION
5
101
100
AcDbEntity
8
SK2
62
256
6
ByLayer
370
-3
48
1
60
0
100
AcDbDimension
2
DimnDraft3D4
10
-48.4
20
62.09025
30
0
11
-29.718421
21
62.09025
31
0
70
32
71
5
72
1
41
1
210
0
220
0
230
1
3
Standard
100
AcDbAlignedDimension
13
0
23
17.4625
33
0
14
-48.4
24
13.7875
34
0
50
0
100
AcDbRotatedDimension
1001
ACAD
1000
DSTYLE
1002
{
1070
   279
1070
     0
1070
   172
1070
     1
1070
   173
1070
     1
1070
   340
1005
AA
1070
   271
1070
     1
1070
   272
1070
     2
1070
    77
1070
     1
1070
    73
1070
     0
1070
   171
1070
     3
1070
   274
1070
     4
1070
   177
1070
     2
1070
   176
1070
     2
1070
   178
1070
     2
1070
    78
1070
     8
1070
    48
1040
-0.005
1070
    41
1041
4.5
1070
   147
1041
2.25
1070
    42
1041
1.5875
1070
    44
1041
2.0
1070
   140
1041
4.5
1070
   343
1005
0
1070
   344
1005
0
1002
}
0
DIMENSION
5
10B
100
AcDbEntity
8
SK2
62
256
6
ByLayer
370
-3
48
1
60
0
100
AcDbDimension
2
DimnDraft3D5
10
57
20
-31.59025
30
0
11
59.258553
21
-31.59025
31
0
70
32
71
5
72
1
41
1
210
0
220
0
230
1
3
Standard
100
AcDbAlignedDimension
13
103
23
-7.5875
33
0
14
57
24
-7.5875
34
0
50
0
100
AcDbRotatedDimension
1001
ACAD
1000
DSTYLE
1002
{
1070
   279
1070
     0
1070
   172
1070
     1
1070
   173
1070
     1
1070
   340
1005
AA
1070
   271
1070
     0
1070
   272
1070
     2
1070
    77
1070
     1
1070
    73
1070
     0
1070
   171
1070
     3
1070
   274
1070
     4
1070
   177
1070
     2
1070
   176
1070
     2
1070
   178
1070
     2
1070
    78
1070
     8
1070
    48
1040
-0.005
1070
    41
1041
4.5
1070
   147
1041
2.25
1070
    42
1041
1.5875
1070
    44
1041
2.0
1070
   140
1041
4.5
1070
   343
1005
0
1070
   344
1005
0
1002
}
0
DIMENSION
5
116
100
AcDbEntity
8
SK2
62
256
6
ByLayer
370
-3
48
1
60
0
100
AcDbDimension
2
DimnDraft3D6
10
147.25
20
11
30
0
11
147.25
21
-7.878947
31
0
70
32
71
5
72
1
41
1
210
0
220
0
230
1
3
Standard
100
AcDbAlignedDimension
13
104.5875
23
-11
33
0
14
104.5875
24
11
34
0
50
90
100
AcDbRotatedDimension
1001
ACAD
1000
DSTYLE
1002
{
1070
    74
1070
     0
1070
   279
1070
     0
1070
   172
1070
     1
1070
   173
1070
     1
1070
   340
1005
AA
1070
   271
1070
     1
1070
   272
1070
     2
1070
    77
1070
     1
1070
    73
1070
     0
1070
   171
1070
     3
1070
   274
1070
     4
1070
   177
1070
     2
1070
   176
1070
     2
1070
   178
1070
     2
1070
    78
1070
     8
1070
    48
1040
-0.005
1070
    41
1041
4.5
1070
   147
1041
2.25
1070
    42
1041
1.5875
1070
    44
1041
2.0
1070
   140
1041
4.5
1070
   343
1005
0
1070
   344
1005
0
1002
}
0
DIMENSION
5
121
100
AcDbEntity
8
SK2
62
256
6
ByLayer
370
-3
48
1
60
0
100
AcDbDimension
2
DimnDraft3D7
10
138.25
20
-6
30
0
11
138.25
21
17
31
0
70
32
71
5
72
1
41
1
210
0
220
0
230
1
3
Standard
100
AcDbAlignedDimension
13
104.5875
23
6
33
0
14
104.5875
24
-6
34
0
50
90
100
AcDbRotatedDimension
1001
ACAD
1000
DSTYLE
1002
{
1070
    74
1070
     0
1070
   279
1070
     0
1070
   172
1070
     1
1070
   173
1070
     1
1070
   340
1005
AA
1070
   271
1070
     1
1070
   272
1070
     2
1070
    77
1070
     1
1070
    73
1070
     0
1070
   171
1070
     3
1070
   274
1070
     4
1070
   177
1070
     2
1070
   176
1070
     2
1070
   178
1070
     2
1070
    78
1070
     8
1070
    48
1040
-0.005
1070
    41
1041
4.5
1070
   147
1041
2.25
1070
    42
1041
1.5875
1070
    44
1041
2.0
1070
   140
1041
4.5
1070
   343
1005
0
1070
   344
1005
0
1002
}
0
DIMENSION
5
12C
100
AcDbEntity
8
SK2
62
256
6
ByLayer
370
-3
48
1
60
0
100
AcDbDimension
2
DimnDraft3D8
10
157.25
20
-20
30
0
11
157.25
21
-8.115789
31
0
70
32
71
5
72
1
41
1
210
0
220
0
230
1
3
Standard
100
AcDbAlignedDimension
13
39.5875
23
20
33
0
14
39.5875
24
-20
34
0
50
90
100
AcDbRotatedDimension
1001
ACAD
1000
DSTYLE
1002
{
1070
    74
1070
     0
1070
   279
1070
     0
1070
   172
1070
     1
1070
   173
1070
     1
1070
   340
1005
AA
1070
   271
1070
     1
1070
   272
1070
     2
1070
    77
1070
     1
1070
    73
1070
     0
1070
   171
1070
     3
1070
   274
1070
     4
1070
   177
1070
     2
1070
   176
1070
     2
1070
   178
1070
     2
1070
    78
1070
     8
1070
    48
1040
-0.005
1070
    41
1041
4.5
1070
   147
1041
2.25
1070
    42
1041
1.5875
1070
    44
1041
2.0
1070
   140
1041
4.5
1070
   343
1005
0
1070
   344
1005
0
1002
}
0
ENDSEC
0
SECTION
2
OBJECTS
0
DICTIONARY
5
15e
330
0
100
AcDbDictionary
280
0
281
1
3
ACAD_GROUP
350
15f
3
ACAD_MLINESTYLE
350
160
0
DICTIONARY
5
15f
330
0
100
AcDbDictionary
280
0
281
1
0
DICTIONARY
5
160
330
0
100
AcDbDictionary
280
0
281
1
3
Standard
350
18
0
MLINESTYLE
5
18
330
160
100
AcDbMlineStyle
2
Standard
70
0
3

62
256
51
90
52
90
71
2
49
-0.5
62
256
6
ByLayer
49
0.5
62
256
6
ByLayer
0
RASTERVARIABLES
5
14b
330

100
AcDbRasterVariables
90
0
70
1
71
1
72
1
0
ENDSEC
0
EOF
