0
SECTION
2
HEADER
9
$ACADVER
1
AC1015
9
$DWGCODEPAGE
3
ANSI_1252
9
$HANDSEED
5
1a8
9
$ANGBASE
50
0
9
$ANGDIR
70
0
9
$ATTMODE
70
1
9
$AUNITS
70
0
9
$AUPREC
70
0
9
$CECOLOR
62
256
9
$CELTSCALE
40
1
9
$CELTYPE
6
ByLayer
9
$CELWEIGHT
370
-1
9
$CLAYER
8
0
9
$CMLJUST
70
0
9
$CMLSCALE
40
1
9
$CMLSTYLE
2
Standard
9
$DIMSTYLE
2
Standard
9
$TEXTSIZE
40
0.2
9
$TEXTSTYLE
7
Standard
9
$LUNITS
70
2
9
$LUPREC
70
4
9
$EXTNAMES
290
1
9
$INSUNITS
70
4
9
$LTSCALE
40
1
9
$LWDISPLAY
290
0
9
$PDMODE
70
0
9
$PDSIZE
40
0
9
$PLINEGEN
70
0
0
ENDSEC
0
SECTION
2
CLASSES
0
CLASS
1
RASTERVARIABLES
2
AcDbRasterVariables
3
ISM
90
0
280
0
281
0
0
ENDSEC
0
SECTION
2
TABLES
0
TABLE
2
VPORT
5
19e
100
AcDbSymbolTable
0
VPORT
5
1
100
AcDbSymbolTableRecord
100
AcDbViewportTableRecord
2
*Active
70
0
10
0
20
0
11
1
21
1
12
-1
22
1
13
0
23
0
14
0.5
24
0.5
15
10
25
10
16
0
26
0
36
1
17
0
27
0
37
0
0
ENDTAB
0
TABLE
2
LTYPE
5
19f
100
AcDbSymbolTable
0
LTYPE
5
14
100
AcDbSymbolTableRecord
100
AcDbLinetypeTableRecord
70
0
2
ByBlock
3

72
65
73
0
40
0
0
LTYPE
5
15
100
AcDbSymbolTableRecord
100
AcDbLinetypeTableRecord
70
0
2
ByLayer
3

72
65
73
0
40
0
0
LTYPE
5
16
100
AcDbSymbolTableRecord
100
AcDbLinetypeTableRecord
70
0
2
CONTINUOUS
3
Solid line
72
65
73
0
40
0
0
LTYPE
5
3B
100
AcDbSymbolTableRecord
100
AcDbLinetypeTableRecord
70
0
2
DASHED
3
__ __ __ __ __ __ __ __ __
72
65
73
2
40
25.72
49
12.86
74
0
49
-12.86
74
0
0
LTYPE
5
3C
100
AcDbSymbolTableRecord
100
AcDbLinetypeTableRecord
70
0
2
HIDDEN
3
_ _ _ _ _ _ _ _ _ _ _ _ _ _ _
72
65
73
2
40
0.5
49
0.25
74
0
49
-0.25
74
0
0
LTYPE
5
3D
100
AcDbSymbolTableRecord
100
AcDbLinetypeTableRecord
70
0
2
PHANTOM
3
____ _ _ ____ _ _ _____ _ _ ____
72
65
73
6
40
50.5
49
18
74
0
49
-6.5
74
0
49
6.5
74
0
49
-6.5
74
0
49
6.5
74
0
49
-6.5
74
0
0
LTYPE
5
3E
100
AcDbSymbolTableRecord
100
AcDbLinetypeTableRecord
70
0
2
CENTER
3
____ _ ____ _ ____ _ ____
72
65
73
4
40
47.5
49
22
74
0
49
-8.5
74
0
49
8.5
74
0
49
-8.5
74
0
0
LTYPE
5
3F
100
AcDbSymbolTableRecord
100
AcDbLinetypeTableRecord
70
0
2
DOT
3
.........................
72
65
73
2
40
10
49
0
74
0
49
-10
74
0
0
LTYPE
5
40
100
AcDbSymbolTableRecord
100
AcDbLinetypeTableRecord
70
0
2
DASHDOT
3
_._._._._._._._._._._._._._._._.
72
65
73
4
40
70
49
31
74
0
49
-13
74
0
49
13
74
0
49
-13
74
0
0
ENDTAB
0
TABLE
2
LAYER
5
1a0
100
AcDbSymbolTable
0
LAYER
5
10
100
AcDbSymbolTableRecord
100
AcDbLayerTableRecord
2
0
70
0
62
7
6
CONTINUOUS
290
1
370
-3
390
0
0
LAYER
5
42
100
AcDbSymbolTableRecord
100
AcDbLayerTableRecord
2
80
70
0
62
-6
6
CONTINUOUS
290
1
370
-3
390
0
0
LAYER
5
44
100
AcDbSymbolTableRecord
100
AcDbLayerTableRecord
2
81
70
0
62
-3
6
CONTINUOUS
290
1
370
-3
390
0
0
LAYER
5
4C
100
AcDbSymbolTableRecord
100
AcDbLayerTableRecord
2
4
70
0
62
-2
6
CENTER
290
1
370
-3
390
0
0
LAYER
5
56
100
AcDbSymbolTableRecord
100
AcDbLayerTableRecord
2
1
70
0
62
4
6
CONTINUOUS
290
1
370
-3
390
0
0
LAYER
5
F9
100
AcDbSymbolTableRecord
100
AcDbLayerTableRecord
2
2
70
0
62
7
6
CONTINUOUS
290
1
370
-3
390
0
0
LAYER
5
189
100
AcDbSymbolTableRecord
100
AcDbLayerTableRecord
2
SK2
70
0
62
7
6
CONTINUOUS
290
1
370
-3
390
0
0
LAYER
5
18a
100
AcDbSymbolTableRecord
100
AcDbLayerTableRecord
2
SK3
70
0
62
1
6
DASHED
290
1
370
-3
390
0
0
LAYER
5
18b
100
AcDbSymbolTableRecord
100
AcDbLayerTableRecord
2
SK4
70
0
62
2
6
CENTER
290
1
370
-3
390
0
0
LAYER
5
18c
100
AcDbSymbolTableRecord
100
AcDbLayerTableRecord
2
SK1
70
0
62
4
6
CONTINUOUS
290
1
370
-3
390
0
0
LAYER
5
18d
100
AcDbSymbolTableRecord
100
AcDbLayerTableRecord
2
SK6
70
0
62
5
6
CONTINUOUS
290
1
370
-3
390
0
0
ENDTAB
0
TABLE
2
STYLE
5
1a1
100
AcDbSymbolTable
0
STYLE
5
11
100
AcDbSymbolTableRecord
100
AcDbTextStyleTableRecord
2
Standard
3
txt
70
0
71
0
40
0
41
1
42
0
50
0
0
STYLE
5
BE
100
AcDbSymbolTableRecord
100
AcDbTextStyleTableRecord
2
DEFAULT
3
simplex.shx
70
0
71
0
40
0
41
1
42
0
50
0
0
STYLE
5
E1
100
AcDbSymbolTableRecord
100
AcDbTextStyleTableRecord
2
DWGDirectTextStyle
3
SIMPLEX
70
0
71
0
40
0
41
1
42
0
50
0
0
ENDTAB
0
TABLE
2
DIMSTYLE
5
1a2
100
AcDbSymbolTable
100
AcDbDimStyleTable
0
DIMSTYLE
105
27
100
AcDbSymbolTableRecord
100
AcDbDimStyleTableRecord
2
Standard
70
0
3
<>
41
0.18
42
0.0625
44
0.18
140
0.18
147
0.09
73
0
74
0
77
1
271
2
275
0
278
52
280
0
340
11
0
ENDTAB
0
TABLE
2
VIEW
5
1a3
100
AcDbSymbolTable
0
ENDTAB
0
TABLE
2
UCS
5
1a4
100
AcDbSymbolTable
0
ENDTAB
0
TABLE
2
APPID
5
1a5
100
AcDbSymbolTable
0
APPID
5
12
100
AcDbSymbolTableRecord
100
AcDbRegAppTableRecord
2
ACAD
70
0
0
ENDTAB
0
TABLE
2
BLOCK_RECORD
5
1a6
100
AcDbSymbolTable
0
BLOCK_RECORD
5
1F
100
AcDbSymbolTableRecord
100
AcDbBlockTableRecord
2
*Model_Space
340
0
70
0
0
BLOCK_RECORD
5
1B
100
AcDbSymbolTableRecord
100
AcDbBlockTableRecord
2
*Paper_Space
340
0
70
0
0
BLOCK_RECORD
5
23
100
AcDbSymbolTableRecord
100
AcDbBlockTableRecord
2
*Paper_Space0
340
0
70
0
0
BLOCK_RECORD
5
BC
100
AcDbSymbolTableRecord
100
AcDbBlockTableRecord
2
LABLE3D_1
340
0
70
0
0
BLOCK_RECORD
5
EC
100
AcDbSymbolTableRecord
100
AcDbBlockTableRecord
2
DimnDraft3D1
340
0
70
0
0
BLOCK_RECORD
5
F7
100
AcDbSymbolTableRecord
100
AcDbBlockTableRecord
2
DimnDraft3D2
340
0
70
0
0
BLOCK_RECORD
5
102
100
AcDbSymbolTableRecord
100
AcDbBlockTableRecord
2
DimnDraft3D3
340
0
70
0
0
BLOCK_RECORD
5
10C
100
AcDbSymbolTableRecord
100
AcDbBlockTableRecord
2
DimnDraft3D4
340
0
70
0
0
BLOCK_RECORD
5
116
100
AcDbSymbolTableRecord
100
AcDbBlockTableRecord
2
DimnDraft3D5
340
0
70
0
0
BLOCK_RECORD
5
120
100
AcDbSymbolTableRecord
100
AcDbBlockTableRecord
2
DimnDraft3D6
340
0
70
0
0
BLOCK_RECORD
5
12A
100
AcDbSymbolTableRecord
100
AcDbBlockTableRecord
2
DimnDraft3D7
340
0
70
0
0
BLOCK_RECORD
5
134
100
AcDbSymbolTableRecord
100
AcDbBlockTableRecord
2
DimnDraft3D8
340
0
70
0
0
BLOCK_RECORD
5
13E
100
AcDbSymbolTableRecord
100
AcDbBlockTableRecord
2
DimnDraft3D9
340
0
70
0
0
BLOCK_RECORD
5
149
100
AcDbSymbolTableRecord
100
AcDbBlockTableRecord
2
DimnDraft3D10
340
0
70
0
0
BLOCK_RECORD
5
154
100
AcDbSymbolTableRecord
100
AcDbBlockTableRecord
2
DimnDraft3D11
340
0
70
0
0
BLOCK_RECORD
5
15F
100
AcDbSymbolTableRecord
100
AcDbBlockTableRecord
2
DimnDraft3D12
340
0
70
0
0
ENDTAB
0
ENDSEC
0
SECTION
2
BLOCKS
0
BLOCK
5
20
100
AcDbEntity
8
0
100
AcDbBlockBegin
2
*Model_Space
70
0
10
0
20
0
30
0
3
*Model_Space
0
ENDBLK
5
21
100
AcDbEntity
8
0
100
AcDbBlockEnd
0
BLOCK
5
1C
100
AcDbEntity
8
0
100
AcDbBlockBegin
2
*Paper_Space
70
0
10
0
20
0
30
0
3
*Paper_Space
0
ENDBLK
5
1D
100
AcDbEntity
8
0
100
AcDbBlockEnd
0
BLOCK
5
24
100
AcDbEntity
8
0
100
AcDbBlockBegin
2
*Paper_Space0
70
0
10
0
20
0
30
0
3
*Paper_Space0
0
ENDBLK
5
25
100
AcDbEntity
8
0
100
AcDbBlockEnd
0
BLOCK
5
E7
100
AcDbEntity
8
0
100
AcDbBlockBegin
2
LABLE3D_1
70
0
10
0
20
0
30
0
3
LABLE3D_1
0
MTEXT
5
BD
100
AcDbEntity
8
SK6
62
256
6
ByLayer
370
-1
48
1
60
0
100
AcDbMText
10
-51.525
20
30.36525
30
0
210
0
220
0
230
1
1
\W01.000;\fsimplex.shx,bigfont.shx; 
40
3.5
41
0
44
1.084337
50
0
71
7
72
5
7
DEFAULT
0
LINE
5
E3
100
AcDbEntity
8
SK6
62
256
6
ByLayer
370
-1
48
1
60
0
100
AcDbLine
10
-50.9
20
32.99025
30
0
11
-43.823077
21
32.99025
31
0
39
0
210
0
220
0
230
1
0
LINE
5
E4
100
AcDbEntity
8
SK6
62
256
6
ByLayer
370
-1
48
1
60
0
100
AcDbLine
10
-18.373827
20
13.195231
30
0
11
-43.823077
21
32.99025
31
0
39
0
210
0
220
0
230
1
0
SOLID
5
E5
100
AcDbEntity
8
SK6
62
256
6
ByLayer
370
-1
48
1
60
0
100
AcDbTrace
10
-18.373827
20
13.195231
30
0
11
-22.538336
21
15.170601
31
0
12
-21.313331
22
16.745527
32
0
13
-18.373827
23
13.195231
33
0
39
0
210
0
220
0
230
1
0
ENDBLK
5
E8
100
AcDbEntity
8
0
100
AcDbBlockEnd
0
BLOCK
5
F4
100
AcDbEntity
8
0
100
AcDbBlockBegin
2
DimnDraft3D1
70
0
10
0
20
0
30
0
3
DimnDraft3D1
0
MTEXT
5
ED
100
AcDbEntity
8
SK2
62
256
6
ByLayer
370
-1
48
1
60
0
100
AcDbMText
10
-78.75
20
2.759211
30
0
210
0
220
0
230
1
1
\W01.000;\fsimplex.shx,bigfont.shx;46 
40
4.5
41
0
44
1.084337
50
90
71
7
72
5
7
DEFAULT
0
MTEXT
5
EE
100
AcDbEntity
8
SK2
62
256
6
ByLayer
370
-1
48
1
60
0
100
AcDbMText
10
-78.75
20
-6.240789
30
0
210
0
220
0
230
1
1
\W01.000;\fsimplex.shx,bigfont.shx;%%c 
40
4.5
41
0
44
1.084337
50
90
71
7
72
5
7
DEFAULT
0
LINE
5
EF
100
AcDbEntity
8
SK2
62
256
6
ByLayer
370
-1
48
1
60
0
100
AcDbLine
10
-1.5875
20
-22.99025
30
0
11
-78.5
21
-22.99025
31
0
39
0
210
0
220
0
230
1
0
LINE
5
F0
100
AcDbEntity
8
SK2
62
256
6
ByLayer
370
-1
48
1
60
0
100
AcDbLine
10
-1.5875
20
22.99025
30
0
11
-78.5
21
22.99025
31
0
39
0
210
0
220
0
230
1
0
LINE
5
F1
100
AcDbEntity
8
SK2
62
256
6
ByLayer
370
-1
48
1
60
0
100
AcDbLine
10
-76.5
20
-22.99025
30
0
11
-76.5
21
22.99025
31
0
39
0
210
0
220
0
230
1
0
SOLID
5
F2
100
AcDbEntity
8
SK2
62
256
6
ByLayer
370
-1
48
1
60
0
100
AcDbTrace
10
-76.5
20
-22.99025
30
0
11
-77.497626
21
-18.490254
31
0
12
-75.502374
22
-18.490246
32
0
13
-76.5
23
-22.99025
33
0
39
0
210
0
220
0
230
1
0
SOLID
5
F3
100
AcDbEntity
8
SK2
62
256
6
ByLayer
370
-1
48
1
60
0
100
AcDbTrace
10
-76.5
20
22.99025
30
0
11
-75.502374
21
18.490254
31
0
12
-77.497626
22
18.490246
32
0
13
-76.5
23
22.99025
33
0
39
0
210
0
220
0
230
1
0
ENDBLK
5
F5
100
AcDbEntity
8
0
100
AcDbBlockEnd
0
BLOCK
5
FF
100
AcDbEntity
8
0
100
AcDbBlockBegin
2
DimnDraft3D2
70
0
10
0
20
0
30
0
3
DimnDraft3D2
0
MTEXT
5
F8
100
AcDbEntity
8
2
62
256
6
ByLayer
370
-1
48
1
60
0
100
AcDbMText
10
91.406579
20
63.21525
30
0
210
0
220
0
230
1
1
\W01.000;\fsimplex.shx,bigfont.shx;188 
40
4.5
41
0
44
1.084337
50
0
71
7
72
5
7
DEFAULT
0
LINE
5
FA
100
AcDbEntity
8
2
62
256
6
ByLayer
370
-1
48
1
60
0
100
AcDbLine
10
0
20
17.4625
30
0
11
0
21
64.09025
31
0
39
0
210
0
220
0
230
1
0
LINE
5
FB
100
AcDbEntity
8
2
62
256
6
ByLayer
370
-1
48
1
60
0
100
AcDbLine
10
188
20
12.5875
30
0
11
188
21
64.09025
31
0
39
0
210
0
220
0
230
1
0
LINE
5
FC
100
AcDbEntity
8
2
62
256
6
ByLayer
370
-1
48
1
60
0
100
AcDbLine
10
0
20
62.09025
30
0
11
188
21
62.09025
31
0
39
0
210
0
220
0
230
1
0
SOLID
5
FD
100
AcDbEntity
8
2
62
256
6
ByLayer
370
-1
48
1
60
0
100
AcDbTrace
10
0
20
62.09025
30
0
11
4.499996
21
63.087876
31
0
12
4.500004
22
61.092624
32
0
13
0
23
62.09025
33
0
39
0
210
0
220
0
230
1
0
SOLID
5
FE
100
AcDbEntity
8
2
62
256
6
ByLayer
370
-1
48
1
60
0
100
AcDbTrace
10
188
20
62.09025
30
0
11
183.500004
21
61.092624
31
0
12
183.499996
22
63.087876
32
0
13
188
23
62.09025
33
0
39
0
210
0
220
0
230
1
0
ENDBLK
5
100
100
AcDbEntity
8
0
100
AcDbBlockEnd
0
BLOCK
5
109
100
AcDbEntity
8
0
100
AcDbBlockBegin
2
DimnDraft3D3
70
0
10
0
20
0
30
0
3
DimnDraft3D3
0
MTEXT
5
103
100
AcDbEntity
8
SK2
62
256
6
ByLayer
370
-1
48
1
60
0
100
AcDbMText
10
9.496053
20
53.21525
30
0
210
0
220
0
230
1
1
\W01.000;\fsimplex.shx,bigfont.shx;22 
40
4.5
41
0
44
1.084337
50
0
71
7
72
5
7
DEFAULT
0
LINE
5
104
100
AcDbEntity
8
SK2
62
256
6
ByLayer
370
-1
48
1
60
0
100
AcDbLine
10
0
20
17.4625
30
0
11
0
21
54.09025
31
0
39
0
210
0
220
0
230
1
0
LINE
5
105
100
AcDbEntity
8
SK2
62
256
6
ByLayer
370
-1
48
1
60
0
100
AcDbLine
10
22
20
24.57775
30
0
11
22
21
54.09025
31
0
39
0
210
0
220
0
230
1
0
LINE
5
106
100
AcDbEntity
8
SK2
62
256
6
ByLayer
370
-1
48
1
60
0
100
AcDbLine
10
0
20
52.09025
30
0
11
22
21
52.09025
31
0
39
0
210
0
220
0
230
1
0
SOLID
5
107
100
AcDbEntity
8
SK2
62
256
6
ByLayer
370
-1
48
1
60
0
100
AcDbTrace
10
0
20
52.09025
30
0
11
4.499996
21
53.087876
31
0
12
4.500004
22
51.092624
32
0
13
0
23
52.09025
33
0
39
0
210
0
220
0
230
1
0
SOLID
5
108
100
AcDbEntity
8
SK2
62
256
6
ByLayer
370
-1
48
1
60
0
100
AcDbTrace
10
22
20
52.09025
30
0
11
17.500004
21
51.092624
31
0
12
17.499996
22
53.087876
32
0
13
22
23
52.09025
33
0
39
0
210
0
220
0
230
1
0
ENDBLK
5
10A
100
AcDbEntity
8
0
100
AcDbBlockEnd
0
BLOCK
5
113
100
AcDbEntity
8
0
100
AcDbBlockBegin
2
DimnDraft3D4
70
0
10
0
20
0
30
0
3
DimnDraft3D4
0
MTEXT
5
10D
100
AcDbEntity
8
SK2
62
256
6
ByLayer
370
-1
48
1
60
0
100
AcDbMText
10
161.496053
20
33.21525
30
0
210
0
220
0
230
1
1
\W01.000;\fsimplex.shx,bigfont.shx;50 
40
4.5
41
0
44
1.084337
50
0
71
7
72
5
7
DEFAULT
0
LINE
5
10E
100
AcDbEntity
8
SK2
62
256
6
ByLayer
370
-1
48
1
60
0
100
AcDbLine
10
188
20
12.5875
30
0
11
188
21
34.09025
31
0
39
0
210
0
220
0
230
1
0
LINE
5
10F
100
AcDbEntity
8
SK2
62
256
6
ByLayer
370
-1
48
1
60
0
100
AcDbLine
10
138
20
12.5875
30
0
11
138
21
34.09025
31
0
39
0
210
0
220
0
230
1
0
LINE
5
110
100
AcDbEntity
8
SK2
62
256
6
ByLayer
370
-1
48
1
60
0
100
AcDbLine
10
188
20
32.09025
30
0
11
138
21
32.09025
31
0
39
0
210
0
220
0
230
1
0
SOLID
5
111
100
AcDbEntity
8
SK2
62
256
6
ByLayer
370
-1
48
1
60
0
100
AcDbTrace
10
188
20
32.09025
30
0
11
183.500004
21
31.092624
31
0
12
183.499996
22
33.087876
32
0
13
188
23
32.09025
33
0
39
0
210
0
220
0
230
1
0
SOLID
5
112
100
AcDbEntity
8
SK2
62
256
6
ByLayer
370
-1
48
1
60
0
100
AcDbTrace
10
138
20
32.09025
30
0
11
142.499996
21
33.087876
31
0
12
142.500004
22
31.092624
32
0
13
138
23
32.09025
33
0
39
0
210
0
220
0
230
1
0
ENDBLK
5
114
100
AcDbEntity
8
0
100
AcDbBlockEnd
0
BLOCK
5
11D
100
AcDbEntity
8
0
100
AcDbBlockBegin
2
DimnDraft3D5
70
0
10
0
20
0
30
0
3
DimnDraft3D5
0
MTEXT
5
117
100
AcDbEntity
8
SK2
62
256
6
ByLayer
370
-1
48
1
60
0
100
AcDbMText
10
110.406579
20
53.21525
30
0
210
0
220
0
230
1
1
\W01.000;\fsimplex.shx,bigfont.shx;150 
40
4.5
41
0
44
1.084337
50
0
71
7
72
5
7
DEFAULT
0
LINE
5
118
100
AcDbEntity
8
SK2
62
256
6
ByLayer
370
-1
48
1
60
0
100
AcDbLine
10
188
20
12.5875
30
0
11
188
21
54.09025
31
0
39
0
210
0
220
0
230
1
0
LINE
5
119
100
AcDbEntity
8
SK2
62
256
6
ByLayer
370
-1
48
1
60
0
100
AcDbLine
10
38
20
12.5875
30
0
11
38
21
54.09025
31
0
39
0
210
0
220
0
230
1
0
LINE
5
11A
100
AcDbEntity
8
SK2
62
256
6
ByLayer
370
-1
48
1
60
0
100
AcDbLine
10
188
20
52.09025
30
0
11
38
21
52.09025
31
0
39
0
210
0
220
0
230
1
0
SOLID
5
11B
100
AcDbEntity
8
SK2
62
256
6
ByLayer
370
-1
48
1
60
0
100
AcDbTrace
10
188
20
52.09025
30
0
11
183.500004
21
51.092624
31
0
12
183.499996
22
53.087876
32
0
13
188
23
52.09025
33
0
39
0
210
0
220
0
230
1
0
SOLID
5
11C
100
AcDbEntity
8
SK2
62
256
6
ByLayer
370
-1
48
1
60
0
100
AcDbTrace
10
38
20
52.09025
30
0
11
42.499996
21
53.087876
31
0
12
42.500004
22
51.092624
32
0
13
38
23
52.09025
33
0
39
0
210
0
220
0
230
1
0
ENDBLK
5
11E
100
AcDbEntity
8
0
100
AcDbBlockEnd
0
BLOCK
5
127
100
AcDbEntity
8
0
100
AcDbBlockBegin
2
DimnDraft3D6
70
0
10
0
20
0
30
0
3
DimnDraft3D6
0
MTEXT
5
121
100
AcDbEntity
8
SK2
62
256
6
ByLayer
370
-1
48
1
60
0
100
AcDbMText
10
148.996053
20
43.21525
30
0
210
0
220
0
230
1
1
\W01.000;\fsimplex.shx,bigfont.shx;75 
40
4.5
41
0
44
1.084337
50
0
71
7
72
5
7
DEFAULT
0
LINE
5
122
100
AcDbEntity
8
SK2
62
256
6
ByLayer
370
-1
48
1
60
0
100
AcDbLine
10
188
20
12.5875
30
0
11
188
21
44.09025
31
0
39
0
210
0
220
0
230
1
0
LINE
5
123
100
AcDbEntity
8
SK2
62
256
6
ByLayer
370
-1
48
1
60
0
100
AcDbLine
10
113
20
14.5875
30
0
11
113
21
44.09025
31
0
39
0
210
0
220
0
230
1
0
LINE
5
124
100
AcDbEntity
8
SK2
62
256
6
ByLayer
370
-1
48
1
60
0
100
AcDbLine
10
188
20
42.09025
30
0
11
113
21
42.09025
31
0
39
0
210
0
220
0
230
1
0
SOLID
5
125
100
AcDbEntity
8
SK2
62
256
6
ByLayer
370
-1
48
1
60
0
100
AcDbTrace
10
188
20
42.09025
30
0
11
183.500004
21
41.092624
31
0
12
183.499996
22
43.087876
32
0
13
188
23
42.09025
33
0
39
0
210
0
220
0
230
1
0
SOLID
5
126
100
AcDbEntity
8
SK2
62
256
6
ByLayer
370
-1
48
1
60
0
100
AcDbTrace
10
113
20
42.09025
30
0
11
117.499996
21
43.087876
31
0
12
117.500004
22
41.092624
32
0
13
113
23
42.09025
33
0
39
0
210
0
220
0
230
1
0
ENDBLK
5
128
100
AcDbEntity
8
0
100
AcDbBlockEnd
0
BLOCK
5
131
100
AcDbEntity
8
0
100
AcDbBlockBegin
2
DimnDraft3D7
70
0
10
0
20
0
30
0
3
DimnDraft3D7
0
MTEXT
5
12B
100
AcDbEntity
8
SK2
62
256
6
ByLayer
370
-1
48
1
60
0
100
AcDbMText
10
-28.593421
20
63.21525
30
0
210
0
220
0
230
1
1
\W01.000;\fsimplex.shx,bigfont.shx;48,4 
40
4.5
41
0
44
1.084337
50
0
71
7
72
5
7
DEFAULT
0
LINE
5
12C
100
AcDbEntity
8
SK2
62
256
6
ByLayer
370
-1
48
1
60
0
100
AcDbLine
10
0
20
17.4625
30
0
11
0
21
64.09025
31
0
39
0
210
0
220
0
230
1
0
LINE
5
12D
100
AcDbEntity
8
SK2
62
256
6
ByLayer
370
-1
48
1
60
0
100
AcDbLine
10
-48.4
20
13.7875
30
0
11
-48.4
21
64.09025
31
0
39
0
210
0
220
0
230
1
0
LINE
5
12E
100
AcDbEntity
8
SK2
62
256
6
ByLayer
370
-1
48
1
60
0
100
AcDbLine
10
0
20
62.09025
30
0
11
-48.4
21
62.09025
31
0
39
0
210
0
220
0
230
1
0
SOLID
5
12F
100
AcDbEntity
8
SK2
62
256
6
ByLayer
370
-1
48
1
60
0
100
AcDbTrace
10
0
20
62.09025
30
0
11
-4.499996
21
61.092624
31
0
12
-4.500004
22
63.087876
32
0
13
0
23
62.09025
33
0
39
0
210
0
220
0
230
1
0
SOLID
5
130
100
AcDbEntity
8
SK2
62
256
6
ByLayer
370
-1
48
1
60
0
100
AcDbTrace
10
-48.4
20
62.09025
30
0
11
-43.900004
21
63.087876
31
0
12
-43.899996
22
61.092624
32
0
13
-48.4
23
62.09025
33
0
39
0
210
0
220
0
230
1
0
ENDBLK
5
132
100
AcDbEntity
8
0
100
AcDbBlockEnd
0
BLOCK
5
13B
100
AcDbEntity
8
0
100
AcDbBlockBegin
2
DimnDraft3D8
70
0
10
0
20
0
30
0
3
DimnDraft3D8
0
MTEXT
5
135
100
AcDbEntity
8
SK2
62
256
6
ByLayer
370
-1
48
1
60
0
100
AcDbMText
10
145.383553
20
-30.46525
30
0
210
0
220
0
230
1
1
\W01.000;\fsimplex.shx,bigfont.shx;min 36-max 46 
40
4.5
41
0
44
1.084337
50
0
71
7
72
5
7
DEFAULT
0
LINE
5
136
100
AcDbEntity
8
SK2
62
256
6
ByLayer
370
-1
48
1
60
0
100
AcDbLine
10
188
20
-7.5875
30
0
11
188
21
-33.59025
31
0
39
0
210
0
220
0
230
1
0
LINE
5
137
100
AcDbEntity
8
SK2
62
256
6
ByLayer
370
-1
48
1
60
0
100
AcDbLine
10
142
20
-7.5875
30
0
11
142
21
-33.59025
31
0
39
0
210
0
220
0
230
1
0
LINE
5
138
100
AcDbEntity
8
SK2
62
256
6
ByLayer
370
-1
48
1
60
0
100
AcDbLine
10
199.25
20
-31.59025
30
0
11
130.75
21
-31.59025
31
0
39
0
210
0
220
0
230
1
0
SOLID
5
139
100
AcDbEntity
8
SK2
62
256
6
ByLayer
370
-1
48
1
60
0
100
AcDbTrace
10
188
20
-31.59025
30
0
11
192.499996
21
-30.592624
31
0
12
192.500004
22
-32.587876
32
0
13
188
23
-31.59025
33
0
39
0
210
0
220
0
230
1
0
SOLID
5
13A
100
AcDbEntity
8
SK2
62
256
6
ByLayer
370
-1
48
1
60
0
100
AcDbTrace
10
142
20
-31.59025
30
0
11
137.500004
21
-32.587876
31
0
12
137.499996
22
-30.592624
32
0
13
142
23
-31.59025
33
0
39
0
210
0
220
0
230
1
0
ENDBLK
5
13C
100
AcDbEntity
8
0
100
AcDbBlockEnd
0
BLOCK
5
146
100
AcDbEntity
8
0
100
AcDbBlockBegin
2
DimnDraft3D9
70
0
10
0
20
0
30
0
3
DimnDraft3D9
0
MTEXT
5
13F
100
AcDbEntity
8
SK2
62
256
6
ByLayer
370
-1
48
1
60
0
100
AcDbMText
10
230.25
20
3.746053
30
0
210
0
220
0
230
1
1
\W01.000;\fsimplex.shx,bigfont.shx;22 
40
4.5
41
0
44
1.084337
50
90
71
7
72
5
7
DEFAULT
0
MTEXT
5
140
100
AcDbEntity
8
SK2
62
256
6
ByLayer
370
-1
48
1
60
0
100
AcDbMText
10
230
20
-7.003947
30
0
210
0
220
0
230
1
1
\W01.000;\fsimplex.shx,bigfont.shx;%%c 
40
3.5
41
0
44
1.084337
50
90
71
7
72
5
7
DEFAULT
0
LINE
5
141
100
AcDbEntity
8
SK2
62
256
6
ByLayer
370
-1
48
1
60
0
100
AcDbLine
10
189.5875
20
-11
30
0
11
234.25
21
-11
31
0
39
0
210
0
220
0
230
1
0
LINE
5
142
100
AcDbEntity
8
SK2
62
256
6
ByLayer
370
-1
48
1
60
0
100
AcDbLine
10
189.5875
20
11
30
0
11
234.25
21
11
31
0
39
0
210
0
220
0
230
1
0
LINE
5
143
100
AcDbEntity
8
SK2
62
256
6
ByLayer
370
-1
48
1
60
0
100
AcDbLine
10
232.25
20
-22.25
30
0
11
232.25
21
22.25
31
0
39
0
210
0
220
0
230
1
0
SOLID
5
144
100
AcDbEntity
8
SK2
62
256
6
ByLayer
370
-1
48
1
60
0
100
AcDbTrace
10
232.25
20
-11
30
0
11
233.247626
21
-15.499996
31
0
12
231.252374
22
-15.500004
32
0
13
232.25
23
-11
33
0
39
0
210
0
220
0
230
1
0
SOLID
5
145
100
AcDbEntity
8
SK2
62
256
6
ByLayer
370
-1
48
1
60
0
100
AcDbTrace
10
232.25
20
11
30
0
11
231.252374
21
15.499996
31
0
12
233.247626
22
15.500004
32
0
13
232.25
23
11
33
0
39
0
210
0
220
0
230
1
0
ENDBLK
5
147
100
AcDbEntity
8
0
100
AcDbBlockEnd
0
BLOCK
5
151
100
AcDbEntity
8
0
100
AcDbBlockBegin
2
DimnDraft3D10
70
0
10
0
20
0
30
0
3
DimnDraft3D10
0
MTEXT
5
14A
100
AcDbEntity
8
SK2
62
256
6
ByLayer
370
-1
48
1
60
0
100
AcDbMText
10
221.25
20
28.625
30
0
210
0
220
0
230
1
1
\W01.000;\fsimplex.shx,bigfont.shx;12 
40
4.5
41
0
44
1.084337
50
90
71
7
72
5
7
DEFAULT
0
MTEXT
5
14B
100
AcDbEntity
8
SK2
62
256
6
ByLayer
370
-1
48
1
60
0
100
AcDbMText
10
221
20
17.875
30
0
210
0
220
0
230
1
1
\W01.000;\fsimplex.shx,bigfont.shx;%%c 
40
3.5
41
0
44
1.084337
50
90
71
7
72
5
7
DEFAULT
0
LINE
5
14C
100
AcDbEntity
8
SK2
62
256
6
ByLayer
370
-1
48
1
60
0
100
AcDbLine
10
189.5875
20
6
30
0
11
225.25
21
6
31
0
39
0
210
0
220
0
230
1
0
LINE
5
14D
100
AcDbEntity
8
SK2
62
256
6
ByLayer
370
-1
48
1
60
0
100
AcDbLine
10
189.5875
20
-6
30
0
11
225.25
21
-6
31
0
39
0
210
0
220
0
230
1
0
LINE
5
14E
100
AcDbEntity
8
SK2
62
256
6
ByLayer
370
-1
48
1
60
0
100
AcDbLine
10
223.25
20
-6
30
0
11
223.25
21
31.632895
31
0
39
0
210
0
220
0
230
1
0
SOLID
5
14F
100
AcDbEntity
8
SK2
62
256
6
ByLayer
370
-1
48
1
60
0
100
AcDbTrace
10
223.25
20
6
30
0
11
224.247626
21
1.500004
31
0
12
222.252374
22
1.499996
32
0
13
223.25
23
6
33
0
39
0
210
0
220
0
230
1
0
SOLID
5
150
100
AcDbEntity
8
SK2
62
256
6
ByLayer
370
-1
48
1
60
0
100
AcDbTrace
10
223.25
20
-6
30
0
11
222.252374
21
-1.500004
31
0
12
224.247626
22
-1.499996
32
0
13
223.25
23
-6
33
0
39
0
210
0
220
0
230
1
0
ENDBLK
5
152
100
AcDbEntity
8
0
100
AcDbBlockEnd
0
BLOCK
5
15C
100
AcDbEntity
8
0
100
AcDbBlockBegin
2
DimnDraft3D11
70
0
10
0
20
0
30
0
3
DimnDraft3D11
0
MTEXT
5
155
100
AcDbEntity
8
SK2
62
256
6
ByLayer
370
-1
48
1
60
0
100
AcDbMText
10
250.25
20
3.509211
30
0
210
0
220
0
230
1
1
\W01.000;\fsimplex.shx,bigfont.shx;40 
40
4.5
41
0
44
1.084337
50
90
71
7
72
5
7
DEFAULT
0
MTEXT
5
156
100
AcDbEntity
8
SK2
62
256
6
ByLayer
370
-1
48
1
60
0
100
AcDbMText
10
250
20
-7.240789
30
0
210
0
220
0
230
1
1
\W01.000;\fsimplex.shx,bigfont.shx;%%c 
40
3.5
41
0
44
1.084337
50
90
71
7
72
5
7
DEFAULT
0
LINE
5
157
100
AcDbEntity
8
SK2
62
256
6
ByLayer
370
-1
48
1
60
0
100
AcDbLine
10
39.5875
20
20
30
0
11
254.25
21
20
31
0
39
0
210
0
220
0
230
1
0
LINE
5
158
100
AcDbEntity
8
SK2
62
256
6
ByLayer
370
-1
48
1
60
0
100
AcDbLine
10
39.5875
20
-20
30
0
11
254.25
21
-20
31
0
39
0
210
0
220
0
230
1
0
LINE
5
159
100
AcDbEntity
8
SK2
62
256
6
ByLayer
370
-1
48
1
60
0
100
AcDbLine
10
252.25
20
20
30
0
11
252.25
21
-20
31
0
39
0
210
0
220
0
230
1
0
SOLID
5
15A
100
AcDbEntity
8
SK2
62
256
6
ByLayer
370
-1
48
1
60
0
100
AcDbTrace
10
252.25
20
20
30
0
11
253.247626
21
15.500004
31
0
12
251.252374
22
15.499996
32
0
13
252.25
23
20
33
0
39
0
210
0
220
0
230
1
0
SOLID
5
15B
100
AcDbEntity
8
SK2
62
256
6
ByLayer
370
-1
48
1
60
0
100
AcDbTrace
10
252.25
20
-20
30
0
11
251.252374
21
-15.500004
31
0
12
253.247626
22
-15.499996
32
0
13
252.25
23
-20
33
0
39
0
210
0
220
0
230
1
0
ENDBLK
5
15D
100
AcDbEntity
8
0
100
AcDbBlockEnd
0
BLOCK
5
167
100
AcDbEntity
8
0
100
AcDbBlockBegin
2
DimnDraft3D12
70
0
10
0
20
0
30
0
3
DimnDraft3D12
0
MTEXT
5
160
100
AcDbEntity
8
SK2
62
256
6
ByLayer
370
-1
48
1
60
0
100
AcDbMText
10
240.25
20
3.746053
30
0
210
0
220
0
230
1
1
\W01.000;\fsimplex.shx,bigfont.shx;26 
40
4.5
41
0
44
1.084337
50
90
71
7
72
5
7
DEFAULT
0
MTEXT
5
161
100
AcDbEntity
8
SK2
62
256
6
ByLayer
370
-1
48
1
60
0
100
AcDbMText
10
240
20
-7.003947
30
0
210
0
220
0
230
1
1
\W01.000;\fsimplex.shx,bigfont.shx;%%c 
40
3.5
41
0
44
1.084337
50
90
71
7
72
5
7
DEFAULT
0
LINE
5
162
100
AcDbEntity
8
SK2
62
256
6
ByLayer
370
-1
48
1
60
0
100
AcDbLine
10
114.5875
20
13
30
0
11
244.25
21
13
31
0
39
0
210
0
220
0
230
1
0
LINE
5
163
100
AcDbEntity
8
SK2
62
256
6
ByLayer
370
-1
48
1
60
0
100
AcDbLine
10
114.5875
20
-13
30
0
11
244.25
21
-13
31
0
39
0
210
0
220
0
230
1
0
LINE
5
164
100
AcDbEntity
8
SK2
62
256
6
ByLayer
370
-1
48
1
60
0
100
AcDbLine
10
242.25
20
24.25
30
0
11
242.25
21
-24.25
31
0
39
0
210
0
220
0
230
1
0
SOLID
5
165
100
AcDbEntity
8
SK2
62
256
6
ByLayer
370
-1
48
1
60
0
100
AcDbTrace
10
242.25
20
13
30
0
11
241.252374
21
17.499996
31
0
12
243.247626
22
17.500004
32
0
13
242.25
23
13
33
0
39
0
210
0
220
0
230
1
0
SOLID
5
166
100
AcDbEntity
8
SK2
62
256
6
ByLayer
370
-1
48
1
60
0
100
AcDbTrace
10
242.25
20
-13
30
0
11
243.247626
21
-17.499996
31
0
12
241.252374
22
-17.500004
32
0
13
242.25
23
-13
33
0
39
0
210
0
220
0
230
1
0
ENDBLK
5
168
100
AcDbEntity
8
0
100
AcDbBlockEnd
0
ENDSEC
0
SECTION
2
ENTITIES
0
ARC
5
9B
100
AcDbEntity
8
1
62
256
6
ByLayer
370
-1
48
1
60
0
100
AcDbCircle
39
0
10
-1.4
20
16.25
30
0
40
0.6
210
0
220
0
230
-1
100
AcDbArc
50
180
51
270
0
ARC
5
9C
100
AcDbEntity
8
1
62
256
6
ByLayer
370
-1
48
1
60
0
100
AcDbCircle
39
0
10
35.926612
20
-19
30
0
40
1
210
0
220
0
230
1
100
AcDbArc
50
270
51
350
0
ARC
5
9D
100
AcDbEntity
8
1
62
256
6
ByLayer
370
-1
48
1
60
0
100
AcDbCircle
39
0
10
-42.195498
20
-18
30
0
40
5
210
0
220
0
230
-1
100
AcDbArc
50
10
51
90
0
ARC
5
9E
100
AcDbEntity
8
1
62
256
6
ByLayer
370
-1
48
1
60
0
100
AcDbCircle
39
0
10
-42.195498
20
18
30
0
40
5
210
0
220
0
230
-1
100
AcDbArc
50
270
51
350
0
ARC
5
9F
100
AcDbEntity
8
1
62
256
6
ByLayer
370
-1
48
1
60
0
100
AcDbCircle
39
0
10
21.5
20
-22.49025
30
0
40
0.5
210
0
220
0
230
1
100
AcDbArc
50
270
51
0
0
ARC
5
A0
100
AcDbEntity
8
1
62
256
6
ByLayer
370
-1
48
1
60
0
100
AcDbCircle
39
0
10
21.5
20
22.49025
30
0
40
0.5
210
0
220
0
230
1
100
AcDbArc
50
0
51
90
0
ARC
5
A1
100
AcDbEntity
8
1
62
256
6
ByLayer
370
-1
48
1
60
0
100
AcDbCircle
39
0
10
-23
20
-21
30
0
40
1
210
0
220
0
230
-1
100
AcDbArc
50
0
51
90
0
ARC
5
A2
100
AcDbEntity
8
1
62
256
6
ByLayer
370
-1
48
1
60
0
100
AcDbCircle
39
0
10
-23
20
21
30
0
40
1
210
0
220
0
230
-1
100
AcDbArc
50
270
51
0
0
ARC
5
A3
100
AcDbEntity
8
1
62
256
6
ByLayer
370
-1
48
1
60
0
100
AcDbCircle
39
0
10
35.926612
20
19
30
0
40
1
210
0
220
0
230
1
100
AcDbArc
50
10
51
90
0
ARC
5
A4
100
AcDbEntity
8
1
62
256
6
ByLayer
370
-1
48
1
60
0
100
AcDbCircle
39
0
10
-1.4
20
-16.25
30
0
40
0.6
210
0
220
0
230
-1
100
AcDbArc
50
90
51
180
0
ARC
5
A5
100
AcDbEntity
8
1
62
256
6
ByLayer
370
-1
48
1
60
0
100
AcDbCircle
39
0
10
111.00319
20
37
30
0
40
50
210
0
220
0
230
1
100
AcDbArc
50
270
51
274.573921
0
ARC
5
A6
100
AcDbEntity
8
1
62
256
6
ByLayer
370
-1
48
1
60
0
100
AcDbCircle
39
0
10
111.00319
20
-37
30
0
40
50
210
0
220
0
230
1
100
AcDbArc
50
85.426079
51
90
0
ARC
5
A7
100
AcDbEntity
8
1
62
256
6
ByLayer
370
-1
48
1
60
0
100
AcDbCircle
39
0
10
-139.99681
20
-61
30
0
40
50
210
0
220
0
230
-1
100
AcDbArc
50
85.426079
51
90
0
ARC
5
A8
100
AcDbEntity
8
1
62
256
6
ByLayer
370
-1
48
1
60
0
100
AcDbCircle
39
0
10
-139.99681
20
61
30
0
40
50
210
0
220
0
230
-1
100
AcDbArc
50
270
51
274.573921
0
ARC
5
A9
100
AcDbEntity
8
1
62
256
6
ByLayer
370
-1
48
1
60
0
100
AcDbCircle
39
0
10
187.2
20
-9.969571
30
0
40
0.800000000000011
210
0
220
0
230
1
100
AcDbArc
50
282
51
0
0
ARC
5
AA
100
AcDbEntity
8
1
62
256
6
ByLayer
370
-1
48
1
60
0
100
AcDbCircle
39
0
10
187.2
20
9.969571
30
0
40
0.800000000000011
210
0
220
0
230
1
100
AcDbArc
50
0
51
78
0
ARC
5
AB
100
AcDbEntity
8
SK1
62
256
6
ByLayer
370
-1
48
1
60
0
100
AcDbCircle
39
0
10
-47.9
20
8.383635
30
0
40
0.5
210
0
220
0
230
1
100
AcDbArc
50
98.297917
51
180
0
ARC
5
AC
100
AcDbEntity
8
SK1
62
256
6
ByLayer
370
-1
48
1
60
0
100
AcDbCircle
39
0
10
-47.9
20
-8.383635
30
0
40
0.5
210
0
220
0
230
1
100
AcDbArc
50
180
51
261.702083
0
POINT
5
41
100
AcDbEntity
8
80
62
256
6
ByLayer
370
-1
48
1
60
0
100
AcDbPoint
10
0
20
0
30
0
39
0
210
0
220
0
230
1
50
360
0
POINT
5
43
100
AcDbEntity
8
81
62
256
6
ByLayer
370
-1
48
1
60
0
100
AcDbPoint
10
188
20
0
30
0
39
0
210
0
220
0
230
1
50
360
0
POINT
5
45
100
AcDbEntity
8
SK2
62
256
6
ByLayer
370
-1
48
1
60
1
100
AcDbPoint
10
0
20
-22.99025
30
0
39
0
210
0
220
0
230
1
50
360
0
POINT
5
47
100
AcDbEntity
8
SK2
62
256
6
ByLayer
370
-1
48
1
60
1
100
AcDbPoint
10
0
20
22.99025
30
0
39
0
210
0
220
0
230
1
50
360
0
SPLINE
5
AD
100
AcDbEntity
8
1
62
256
6
ByLayer
370
-1
48
1
60
0
100
AcDbSpline
70
4
71
3
72
8
73
4
40
0
40
0
40
0
40
0
40
1
40
1
40
1
40
1
41
1
10
11.6
20
-17.7324754990393
30
0
41
1
10
11.3708682037838
20
-18.1618141995351
30
0
41
1
10
11.1425998112782
20
-18.5918345211546
30
0
41
1
10
10.915
20
-19.0224260464903
30
0
0
SPLINE
5
AE
100
AcDbEntity
8
1
62
256
6
ByLayer
370
-1
48
1
60
0
100
AcDbSpline
70
4
71
3
72
8
73
4
40
0
40
0
40
0
40
0
40
1
40
1
40
1
40
1
41
1
10
11.6
20
17.7324754990393
30
0
41
1
10
11.3708682037838
20
18.1618141995351
30
0
41
1
10
11.1425998112782
20
18.5918345211546
30
0
41
1
10
10.915
20
19.0224260464903
30
0
0
SPLINE
5
AF
100
AcDbEntity
8
1
62
256
6
ByLayer
370
-1
48
1
60
0
100
AcDbSpline
70
4
71
3
72
8
73
4
40
0
40
0
40
0
40
0
40
1
40
1
40
1
40
1
41
1
10
10.915
20
-19.0224260464903
30
0
41
1
10
10.4744729019256
20
-19.8558504419073
30
0
41
1
10
10.0304555656175
20
-20.6875680300875
30
0
41
1
10
9.58398933275902
20
-21.5179592448378
30
0
0
SPLINE
5
B0
100
AcDbEntity
8
1
62
256
6
ByLayer
370
-1
48
1
60
0
100
AcDbSpline
70
4
71
3
72
12
73
8
40
0
40
0
40
0
40
0
40
0.249999999999999
40
0.249999999999999
40
0.499999999999999
40
0.499999999999999
40
1
40
1
40
1
40
1
41
1
10
17.616010667241
20
22.5387963392974
30
0
41
1
10
17.4608669504935
20
22.2170831286277
30
0
41
1
10
17.3010634462643
20
21.8852873929605
30
0
41
1
10
16.9742694602937
20
21.2056741034114
30
0
41
1
10
16.8072606143484
20
20.8578193412874
30
0
41
1
10
16.2974869109692
20
19.7939702572417
30
0
41
1
10
15.9508051139181
20
19.0678052935429
30
0
41
1
10
15.6
20
18.3289394467065
30
0
0
SPLINE
5
B1
100
AcDbEntity
8
1
62
256
6
ByLayer
370
-1
48
1
60
0
100
AcDbSpline
70
4
71
3
72
16
73
12
40
0
40
0
40
0
40
0
40
0.25
40
0.25
40
0.500000000000001
40
0.500000000000001
40
0.625
40
0.625
40
0.75
40
0.75
40
1
40
1
40
1
40
1
41
1
10
15.6
20
-17.8171298285426
30
0
41
1
10
15.3085298705521
20
-17.7403716780144
30
0
41
1
10
15.0059519577649
20
-17.6673436275285
30
0
41
1
10
14.3784953002308
20
-17.5324930247018
30
0
41
1
10
14.0536184959125
20
-17.4706603996126
30
0
41
1
10
13.5485459454065
20
-17.3892986395093
30
0
41
1
10
13.3768442124266
20
-17.3640302199922
30
0
41
1
10
13.0288758639491
20
-17.3180624339741
30
0
41
1
10
12.8535326979434
20
-17.2974755006167
30
0
41
1
10
12.3234079187194
20
-17.2433550721048
30
0
41
1
10
11.9645475767359
20
-17.217463308427
30
0
41
1
10
11.6
20
-17.202929442689
30
0
0
SPLINE
5
B2
100
AcDbEntity
8
1
62
256
6
ByLayer
370
-1
48
1
60
0
100
AcDbSpline
70
4
71
3
72
16
73
12
40
0
40
0
40
0
40
0
40
0.25
40
0.25
40
0.500000000000001
40
0.500000000000001
40
0.625
40
0.625
40
0.75
40
0.75
40
1
40
1
40
1
40
1
41
1
10
15.6
20
17.8171298285426
30
0
41
1
10
15.3085298705521
20
17.7403716780144
30
0
41
1
10
15.0059519577649
20
17.6673436275285
30
0
41
1
10
14.3784953002308
20
17.5324930247018
30
0
41
1
10
14.0536184959125
20
17.4706603996126
30
0
41
1
10
13.5485459454065
20
17.3892986395093
30
0
41
1
10
13.3768442124266
20
17.3640302199922
30
0
41
1
10
13.0288758639491
20
17.3180624339741
30
0
41
1
10
12.8535326979434
20
17.2974755006167
30
0
41
1
10
12.3234079187194
20
17.2433550721048
30
0
41
1
10
11.9645475767359
20
17.217463308427
30
0
41
1
10
11.6
20
17.202929442689
30
0
0
SPLINE
5
B3
100
AcDbEntity
8
1
62
256
6
ByLayer
370
-1
48
1
60
0
100
AcDbSpline
70
4
71
3
72
12
73
8
40
0
40
0
40
0
40
0
40
0.642095822094295
40
0.642095822094295
40
0.963143733141442
40
0.963143733141442
40
1
40
1
40
1
40
1
41
1
10
23.75
20
-18.7349939951952
30
0
41
1
10
23.75
20
-18.861410752843
30
0
41
1
10
23.7824216601418
20
-18.9767082143829
30
0
41
1
10
23.8806550346073
20
-19.1341558296405
30
0
41
1
10
23.921717666405
20
-19.1840510346122
30
0
41
1
10
23.977235934149
20
-19.2368770751889
30
0
41
1
10
23.9830715904408
20
-19.2422846723567
30
0
41
1
10
23.9890236913069
20
-19.2476585748908
30
0
0
SPLINE
5
B4
100
AcDbEntity
8
1
62
256
6
ByLayer
370
-1
48
1
60
0
100
AcDbSpline
70
4
71
3
72
12
73
8
40
0
40
0
40
0
40
0
40
0.307634287470469
40
0.307634287470469
40
0.620525527068015
40
0.620525527068015
40
1
40
1
40
1
40
1
41
1
10
33.9975104398325
20
-19.2595981523064
30
0
41
1
10
34.0494136985952
20
-19.2144571159597
30
0
41
1
10
34.0933020920849
20
-19.1666270427897
30
0
41
1
10
34.1658452270964
20
-19.0643735993604
30
0
41
1
10
34.1943034471254
20
-19.0095400410004
30
0
41
1
10
34.2383043099041
20
-18.883220604157
30
0
41
1
10
34.2500719856735
20
-18.8107301808878
30
0
41
1
10
34.25005248564
20
-18.7349948718573
30
0
0
SPLINE
5
B5
100
AcDbEntity
8
1
62
256
6
ByLayer
370
-1
48
1
60
0
100
AcDbSpline
70
4
71
3
72
61
73
57
40
0
40
0
40
0
40
0
40
0.0240093716483711
40
0.0240093716483711
40
0.0545090787843607
40
0.0545090787843607
40
0.0850087859203499
40
0.0850087859203499
40
0.146008200192328
40
0.146008200192328
40
0.176507907328318
40
0.176507907328318
40
0.207007614464307
40
0.207007614464307
40
0.268007028736286
40
0.268007028736286
40
0.298506735872276
40
0.298506735872276
40
0.329006443008265
40
0.329006443008265
40
0.359506150144255
40
0.359506150144255
40
0.374756003712249
40
0.374756003712249
40
0.390005857280243
40
0.390005857280243
40
0.451005271552218
40
0.451005271552218
40
0.466255125120213
40
0.466255125120213
40
0.481504978688207
40
0.481504978688207
40
0.512004685824195
40
0.542504392960183
40
0.542504392960183
40
0.573004100096171
40
0.573004100096171
40
0.634003514368147
40
0.634003514368147
40
0.695002928640123
40
0.695002928640123
40
0.725502635776111
40
0.725502635776111
40
0.756002342912099
40
0.756002342912099
40
0.817001757184074
40
0.817001757184074
40
0.847501464320062
40
0.847501464320062
40
0.87800117145605
40
0.87800117145605
40
0.939000585728025
40
0.939000585728025
40
0.969500292864012
40
0.969500292864012
40
1
40
1
40
1
40
1
41
1
10
34.25005248564
20
-18.7349948718718
30
0
41
1
10
34.2500398286254
20
-18.6858368538669
30
0
41
1
10
34.2450612291189
20
-18.6353117640245
30
0
41
1
10
34.2228323673621
20
-18.5175070710173
30
0
41
1
10
34.2025710364317
20
-18.4493893584722
30
0
41
1
10
34.1463742777126
20
-18.3087509273053
30
0
41
1
10
34.1108148027914
20
-18.2371738251095
30
0
41
1
10
33.9829842287038
20
-18.0192141753719
30
0
41
1
10
33.8697291437809
20
-17.8694997750104
30
0
41
1
10
33.6584778787189
20
-17.6400213907132
30
0
41
1
10
33.580720778766
20
-17.5623752862588
30
0
41
1
10
33.4133766217113
20
-17.4081257576792
30
0
41
1
10
33.3237571416517
20
-17.3314183236458
30
0
41
1
10
33.0371985024766
20
-17.1032544816839
30
0
41
1
10
32.8227803923398
20
-16.9536740265538
30
0
41
1
10
32.4629636107992
20
-16.7370739416352
30
0
41
1
10
32.3359740770336
20
-16.6658905307216
30
0
41
1
10
32.0728365728302
20
-16.5295762510822
30
0
41
1
10
31.936400058633
20
-16.4642216694255
30
0
41
1
10
31.6533639510129
20
-16.3400291175446
30
0
41
1
10
31.5067668591801
20
-16.2811884510482
30
0
41
1
10
31.2786432670267
20
-16.198698939358
30
0
41
1
10
31.201227538097
20
-16.1721667055624
30
0
41
1
10
31.0435010660048
20
-16.1212124083276
30
0
41
1
10
30.962940976834
20
-16.0967214009658
30
0
41
1
10
30.5557835464076
20
-15.9809926953105
30
0
41
1
10
30.2181227162762
20
-15.9101519220337
30
0
41
1
10
29.7796566367692
20
-15.8537739186994
30
0
41
1
10
29.691136537704
20
-15.8441166578433
30
0
41
1
10
29.5123736473703
20
-15.8282067628408
30
0
41
1
10
29.4222708658609
20
-15.8219830736238
30
0
41
1
10
29.1533990875958
20
-15.8087742279162
30
0
41
1
10
28.7961139441599
20
-15.8054623090878
30
0
41
1
10
28.4411952360374
20
-15.8301488538073
30
0
41
1
10
28.0874604226423
20
-15.8686782039992
30
0
41
1
10
27.9107082728462
20
-15.8950515086777
30
0
41
1
10
27.3963193659912
20
-15.9916955343159
30
0
41
1
10
27.069574995914
20
-16.0796853074332
30
0
41
1
10
26.4450497699454
20
-16.2938133312918
30
0
41
1
10
26.156336330783
20
-16.4167739292418
30
0
41
1
10
25.7545287845309
20
-16.6173653109607
30
0
41
1
10
25.6255879622712
20
-16.687105287671
30
0
41
1
10
25.3786212968066
20
-16.830816288661
30
0
41
1
10
25.2617476193989
20
-16.9040940016999
30
0
41
1
10
24.929633606478
20
-17.1269914735735
30
0
41
1
10
24.7327081930808
20
-17.2796202460662
30
0
41
1
10
24.4728349648639
20
-17.5112457595094
30
0
41
1
10
24.3921260050137
20
-17.5890374112413
30
0
41
1
10
24.245407128151
20
-17.7424265454195
30
0
41
1
10
24.1789994361965
20
-17.8183569122742
30
0
41
1
10
24.0003617139483
20
-18.0433812484001
30
0
41
1
10
23.9085030951909
20
-18.1896963117327
30
0
41
1
10
23.8142737144871
20
-18.4020733470224
30
0
41
1
10
23.7902361915799
20
-18.4717184070003
30
0
41
1
10
23.7581689957563
20
-18.6064181338529
30
0
41
1
10
23.75
20
-18.6717856163713
30
0
41
1
10
23.75
20
-18.7349939951952
30
0
0
SPLINE
5
B6
100
AcDbEntity
8
1
62
256
6
ByLayer
370
-1
48
1
60
0
100
AcDbSpline
70
4
71
3
72
16
73
12
40
0
40
0
40
0
40
0
40
0.25
40
0.25
40
0.5
40
0.5
40
0.625
40
0.625
40
0.75
40
0.75
40
1
40
1
40
1
40
1
41
1
10
17.616010667241
20
-22.5387963392974
30
0
41
1
10
17.8397577952358
20
-22.6054656625528
30
0
41
1
10
18.0367629699911
20
-22.6671713048729
30
0
41
1
10
18.3784915700087
20
-22.777162513991
30
0
41
1
10
18.5233427110632
20
-22.8255022329368
30
0
41
1
10
18.7002862645849
20
-22.8855428510773
30
0
41
1
10
18.752681769792
20
-22.9035338048515
30
0
41
1
10
18.8424007418491
20
-22.9345624431598
30
0
41
1
10
18.8797649149732
20
-22.9476118886706
30
0
41
1
10
18.9696195769109
20
-22.9791617015855
30
0
41
1
10
19
20
-22.9900713055981
30
0
41
1
10
19
20
-22.9902478251649
30
0
0
SPLINE
5
B7
100
AcDbEntity
8
1
62
256
6
ByLayer
370
-1
48
1
60
0
100
AcDbSpline
70
4
71
3
72
8
73
4
40
0
40
0
40
0
40
0
40
1
40
1
40
1
40
1
41
1
10
10.915
20
19.0224260464903
30
0
41
1
10
10.4744594438787
20
19.8558759029169
30
0
41
1
10
10.0304331233105
20
20.68760977097
30
0
41
1
10
9.58398933275872
20
21.5179592448384
30
0
0
SPLINE
5
B8
100
AcDbEntity
8
1
62
256
6
ByLayer
370
-1
48
1
60
0
100
AcDbSpline
70
4
71
3
72
12
73
8
40
0
40
0
40
0
40
0
40
0.25
40
0.25
40
0.5
40
0.5
40
1
40
1
40
1
40
1
41
1
10
17.616010667241
20
-22.5387963392974
30
0
41
1
10
17.4608669504935
20
-22.2170831286277
30
0
41
1
10
17.3010634462643
20
-21.8852873929605
30
0
41
1
10
16.9742694602937
20
-21.2056741034114
30
0
41
1
10
16.8072606143484
20
-20.8578193412874
30
0
41
1
10
16.2974869109692
20
-19.7939702572417
30
0
41
1
10
15.950805113918
20
-19.0678052935429
30
0
41
1
10
15.6
20
-18.3289394467065
30
0
0
SPLINE
5
B9
100
AcDbEntity
8
1
62
256
6
ByLayer
370
-1
48
1
60
0
100
AcDbSpline
70
4
71
3
72
18
73
14
40
0
40
0
40
0
40
0
40
0.249999999999999
40
0.249999999999999
40
0.375
40
0.375
40
0.5
40
0.5
40
0.625
40
0.625
40
0.75
40
0.75
40
1
40
1
40
1
40
1
41
1
10
2.50000000000334
20
-21.517959244839
30
0
41
1
10
2.4376803385083
20
-21.4945147511465
30
0
41
1
10
2.37891639623304
20
-21.4600815162654
30
0
41
1
10
2.29543373534217
20
-21.3940201562025
30
0
41
1
10
2.26822244030858
20
-21.3693323483934
30
0
41
1
10
2.21658039345287
20
-21.3157864399078
30
0
41
1
10
2.19214899983531
20
-21.2869921408972
30
0
41
1
10
2.14620096614755
20
-21.2251637649234
30
0
41
1
10
2.12467837162211
20
-21.1921383492646
30
0
41
1
10
2.08503611095939
20
-21.121137644649
30
0
41
1
10
2.06687021276342
20
-21.0829449527211
30
0
41
1
10
2.02086591188645
20
-20.9635521285018
30
0
41
1
10
2
20
-20.8749605159152
30
0
41
1
10
2
20
-20.7831017911788
30
0
0
SPLINE
5
BA
100
AcDbEntity
8
1
62
256
6
ByLayer
370
-1
48
1
60
0
100
AcDbSpline
70
4
71
3
72
18
73
14
40
0
40
0
40
0
40
0
40
0.249999999999999
40
0.249999999999999
40
0.375
40
0.375
40
0.5
40
0.5
40
0.625
40
0.625
40
0.75
40
0.75
40
1
40
1
40
1
40
1
41
1
10
2.50000000000334
20
21.517959244839
30
0
41
1
10
2.4376803385083
20
21.4945147511465
30
0
41
1
10
2.37891639623304
20
21.4600815162654
30
0
41
1
10
2.29543373534217
20
21.3940201562025
30
0
41
1
10
2.26822244030858
20
21.3693323483934
30
0
41
1
10
2.21658039345287
20
21.3157864399078
30
0
41
1
10
2.19214899983531
20
21.2869921408972
30
0
41
1
10
2.14620096614755
20
21.2251637649234
30
0
41
1
10
2.12467837162211
20
21.1921383492646
30
0
41
1
10
2.08503611095939
20
21.121137644649
30
0
41
1
10
2.06687021276342
20
21.0829449527211
30
0
41
1
10
2.02086591188645
20
20.9635521285018
30
0
41
1
10
2
20
20.8749605159152
30
0
41
1
10
2
20
20.7831017911788
30
0
0
SPLINE
5
BB
100
AcDbEntity
8
1
62
256
6
ByLayer
370
-1
48
1
60
0
100
AcDbSpline
70
4
71
3
72
16
73
12
40
0
40
0
40
0
40
0
40
0.25
40
0.25
40
0.499999999999999
40
0.499999999999999
40
0.624999999999999
40
0.624999999999999
40
0.75
40
0.75
40
1
40
1
40
1
40
1
41
1
10
17.616010667241
20
22.5387963392974
30
0
41
1
10
17.8397577952358
20
22.6054656625528
30
0
41
1
10
18.0367629699911
20
22.6671713048729
30
0
41
1
10
18.3784915700087
20
22.777162513991
30
0
41
1
10
18.5233427110632
20
22.8255022329368
30
0
41
1
10
18.7002862645849
20
22.8855428510773
30
0
41
1
10
18.752681769792
20
22.9035338048515
30
0
41
1
10
18.8424007418491
20
22.9345624431598
30
0
41
1
10
18.8797649149731
20
22.9476118886705
30
0
41
1
10
18.9696195769109
20
22.9791617015855
30
0
41
1
10
19
20
22.9900713055981
30
0
41
1
10
19
20
22.9902478251649
30
0
0
INSERT
5
E6
100
AcDbEntity
8
SK6
62
256
6
ByLayer
370
-1
48
1
60
0
100
AcDbBlockReference
2
LABLE3D_1
10
0
20
0
30
0
41
1
42
1
43
1
50
0
210
0
220
0
230
1
0
LINE
5
48
100
AcDbEntity
8
SK3
62
256
6
ByLayer
370
-1
48
0.05
60
0
100
AcDbLine
10
188
20
6
30
0
11
143.5
21
6
31
0
39
0
210
0
220
0
230
1
0
LINE
5
4A
100
AcDbEntity
8
SK3
62
256
6
ByLayer
370
-1
48
0.05
60
0
100
AcDbLine
10
142
20
4.5
30
0
11
142
21
-4.5
31
0
39
0
210
0
220
0
230
1
0
LINE
5
4B
100
AcDbEntity
8
4
62
256
6
ByLayer
370
-1
48
0.05
60
0
100
AcDbLine
10
188
20
0
30
0
11
0
21
0
31
0
39
0
210
0
220
0
230
1
0
LINE
5
4D
100
AcDbEntity
8
80
62
256
6
ByLayer
370
-1
48
1
60
0
100
AcDbLine
10
0
20
0
30
0
11
-10.875929
21
0
31
0
39
0
210
0
220
0
230
1
0
LINE
5
4E
100
AcDbEntity
8
SK3
62
256
6
ByLayer
370
-1
48
0.05
60
0
100
AcDbLine
10
143.5
20
-6
30
0
11
188
21
-6
31
0
39
0
210
0
220
0
230
1
0
LINE
5
4F
100
AcDbEntity
8
SK3
62
256
6
ByLayer
370
-1
48
0.05
60
0
100
AcDbLine
10
143.5
20
6
30
0
11
142
21
4.5
31
0
39
0
210
0
220
0
230
1
0
LINE
5
50
100
AcDbEntity
8
SK3
62
256
6
ByLayer
370
-1
48
0.05
60
0
100
AcDbLine
10
142
20
-4.5
30
0
11
143.5
21
-6
31
0
39
0
210
0
220
0
230
1
0
LINE
5
51
100
AcDbEntity
8
SK3
62
256
6
ByLayer
370
-1
48
0.05
60
0
100
AcDbLine
10
143.5
20
-6
30
0
11
143.5
21
6
31
0
39
0
210
0
220
0
230
1
0
LINE
5
52
100
AcDbEntity
8
81
62
256
6
ByLayer
370
-1
48
1
60
0
100
AcDbLine
10
188
20
0
30
0
11
192.742527
21
0
31
0
39
0
210
0
220
0
230
1
0
LINE
5
53
100
AcDbEntity
8
SK4
62
256
6
ByLayer
370
-1
48
0.05
60
0
100
AcDbLine
10
-58.4
20
0
30
0
11
198
21
0
31
0
39
0
210
0
220
0
230
1
0
LINE
5
55
100
AcDbEntity
8
1
62
256
6
ByLayer
370
-1
48
1
60
0
100
AcDbLine
10
111.00319
20
13
30
0
11
111.00319
21
-13
31
0
39
0
210
0
220
0
230
1
0
LINE
5
57
100
AcDbEntity
8
1
62
256
6
ByLayer
370
-1
48
1
60
0
100
AcDbLine
10
139.99681
20
-11
30
0
11
139.99681
21
0
31
0
39
0
210
0
220
0
230
1
0
LINE
5
58
100
AcDbEntity
8
1
62
256
6
ByLayer
370
-1
48
1
60
0
100
AcDbLine
10
139.99681
20
0
30
0
11
139.99681
21
11
31
0
39
0
210
0
220
0
230
1
0
LINE
5
59
100
AcDbEntity
8
1
62
256
6
ByLayer
370
-1
48
1
60
0
100
AcDbLine
10
9.583989
20
-21.517959
30
0
11
9.583989
21
21.517959
31
0
39
0
210
0
220
0
230
1
0
LINE
5
5A
100
AcDbEntity
8
1
62
256
6
ByLayer
370
-1
48
1
60
0
100
AcDbLine
10
0.4
20
0
30
0
11
0.4
21
-15.933339
31
0
39
0
210
0
220
0
230
1
0
LINE
5
5B
100
AcDbEntity
8
1
62
256
6
ByLayer
370
-1
48
1
60
0
100
AcDbLine
10
0.4
20
15.933339
30
0
11
0.4
21
0
31
0
39
0
210
0
220
0
230
1
0
LINE
5
5C
100
AcDbEntity
8
1
62
256
6
ByLayer
370
-1
48
1
60
0
100
AcDbLine
10
21.5
20
-22.99025
30
0
11
21.5
21
22.99025
31
0
39
0
210
0
220
0
230
1
0
LINE
5
5D
100
AcDbEntity
8
1
62
256
6
ByLayer
370
-1
48
1
60
0
100
AcDbLine
10
17.616011
20
22.538796
30
0
11
17.616011
21
-22.538796
31
0
39
0
210
0
220
0
230
1
0
LINE
5
5E
100
AcDbEntity
8
1
62
256
6
ByLayer
370
-1
48
1
60
0
100
AcDbLine
10
42.195498
20
-13
30
0
11
42.195498
21
0
31
0
39
0
210
0
220
0
230
1
0
LINE
5
5F
100
AcDbEntity
8
1
62
256
6
ByLayer
370
-1
48
1
60
0
100
AcDbLine
10
42.195498
20
0
30
0
11
42.195498
21
13
31
0
39
0
210
0
220
0
230
1
0
LINE
5
60
100
AcDbEntity
8
1
62
256
6
ByLayer
370
-1
48
1
60
0
100
AcDbLine
10
2.5
20
-21.517959
30
0
11
9.583989
21
-21.517959
31
0
39
0
210
0
220
0
230
1
0
LINE
5
61
100
AcDbEntity
8
1
62
256
6
ByLayer
370
-1
48
1
60
0
100
AcDbLine
10
186.2
20
-11
30
0
11
186.2
21
11
31
0
39
0
210
0
220
0
230
1
0
LINE
5
62
100
AcDbEntity
8
1
62
256
6
ByLayer
370
-1
48
1
60
0
100
AcDbLine
10
188
20
-9.969571
30
0
11
188
21
9.969571
31
0
39
0
210
0
220
0
230
1
0
LINE
5
63
100
AcDbEntity
8
1
62
256
6
ByLayer
370
-1
48
1
60
0
100
AcDbLine
10
114.990451
20
0
30
0
11
114.990451
21
-12.840764
31
0
39
0
210
0
220
0
230
1
0
LINE
5
64
100
AcDbEntity
8
1
62
256
6
ByLayer
370
-1
48
1
60
0
100
AcDbLine
10
114.990451
20
12.840764
30
0
11
114.990451
21
0
31
0
39
0
210
0
220
0
230
1
0
LINE
5
65
100
AcDbEntity
8
1
62
256
6
ByLayer
370
-1
48
1
60
0
100
AcDbLine
10
23
20
-20
30
0
11
23
21
0
31
0
39
0
210
0
220
0
230
1
0
LINE
5
66
100
AcDbEntity
8
1
62
256
6
ByLayer
370
-1
48
1
60
0
100
AcDbLine
10
23
20
0
30
0
11
23
21
20
31
0
39
0
210
0
220
0
230
1
0
LINE
5
67
100
AcDbEntity
8
1
62
256
6
ByLayer
370
-1
48
1
60
0
100
AcDbLine
10
0
20
-15.875
30
0
11
0
21
15.875
31
0
39
0
210
0
220
0
230
1
0
LINE
5
68
100
AcDbEntity
8
1
62
256
6
ByLayer
370
-1
48
1
60
0
100
AcDbLine
10
2
20
-20.783102
30
0
11
2
21
20.783102
31
0
39
0
210
0
220
0
230
1
0
LINE
5
69
100
AcDbEntity
8
1
62
256
6
ByLayer
370
-1
48
1
60
0
100
AcDbLine
10
187.366329
20
-10.752089
30
0
11
187.366329
21
10.752089
31
0
39
0
210
0
220
0
230
1
0
LINE
5
6A
100
AcDbEntity
8
1
62
256
6
ByLayer
370
-1
48
1
60
0
100
AcDbLine
10
15.6
20
-18.328939
30
0
11
15.6
21
18.328939
31
0
39
0
210
0
220
0
230
1
0
LINE
5
6B
100
AcDbEntity
8
1
62
256
6
ByLayer
370
-1
48
1
60
0
100
AcDbLine
10
37.271459
20
-17.131759
30
0
11
37.271459
21
17.131759
31
0
39
0
210
0
220
0
230
1
0
LINE
5
6C
100
AcDbEntity
8
1
62
256
6
ByLayer
370
-1
48
1
60
0
100
AcDbLine
10
22
20
-22.49025
30
0
11
22
21
0
31
0
39
0
210
0
220
0
230
1
0
LINE
5
6D
100
AcDbEntity
8
1
62
256
6
ByLayer
370
-1
48
1
60
0
100
AcDbLine
10
22
20
0
30
0
11
22
21
22.49025
31
0
39
0
210
0
220
0
230
1
0
LINE
5
6E
100
AcDbEntity
8
1
62
256
6
ByLayer
370
-1
48
1
60
0
100
AcDbLine
10
35.926612
20
20
30
0
11
35.926612
21
-20
31
0
39
0
210
0
220
0
230
1
0
LINE
5
6F
100
AcDbEntity
8
1
62
256
6
ByLayer
370
-1
48
1
60
0
100
AcDbLine
10
36.911419
20
-19.173648
30
0
11
36.911419
21
19.173648
31
0
39
0
210
0
220
0
230
1
0
LINE
5
70
100
AcDbEntity
8
1
62
256
6
ByLayer
370
-1
48
1
60
0
100
AcDbLine
10
0.890757
20
0
30
0
11
0.890757
21
-15.65
31
0
39
0
210
0
220
0
230
1
0
LINE
5
71
100
AcDbEntity
8
1
62
256
6
ByLayer
370
-1
48
1
60
0
100
AcDbLine
10
0.890757
20
15.65
30
0
11
0.890757
21
0
31
0
39
0
210
0
220
0
230
1
0
LINE
5
72
100
AcDbEntity
8
1
62
256
6
ByLayer
370
-1
48
1
60
0
100
AcDbLine
10
2.5
20
21.517959
30
0
11
9.583989
21
21.517959
31
0
39
0
210
0
220
0
230
1
0
LINE
5
73
100
AcDbEntity
8
1
62
256
6
ByLayer
370
-1
48
1
60
0
100
AcDbLine
10
11.6
20
-17.732475
30
0
11
11.6
21
17.732475
31
0
39
0
210
0
220
0
230
1
0
LINE
5
74
100
AcDbEntity
8
1
62
256
6
ByLayer
370
-1
48
1
60
0
100
AcDbLine
10
2.5
20
21.517959
30
0
11
2.5
21
-21.517959
31
0
39
0
210
0
220
0
230
1
0
LINE
5
75
100
AcDbEntity
8
1
62
256
6
ByLayer
370
-1
48
1
60
0
100
AcDbLine
10
1.4
20
15.65
30
0
11
1.4
21
-15.65
31
0
39
0
210
0
220
0
230
1
0
LINE
5
76
100
AcDbEntity
8
1
62
256
6
ByLayer
370
-1
48
1
60
0
100
AcDbLine
10
136.009549
20
-11.159236
30
0
11
136.009549
21
11.159236
31
0
39
0
210
0
220
0
230
1
0
LINE
5
77
100
AcDbEntity
8
SK1
62
256
6
ByLayer
370
-1
48
1
60
0
100
AcDbLine
10
0
20
-15.875
30
0
11
0
21
15.875
31
0
39
0
210
0
220
0
230
1
0
LINE
5
79
100
AcDbEntity
8
SK1
62
256
6
ByLayer
370
-1
48
1
60
0
100
AcDbLine
10
-47.97216
20
-8.8784
30
0
11
-47.97216
21
0
31
0
39
0
210
0
220
0
230
1
0
LINE
5
7A
100
AcDbEntity
8
SK1
62
256
6
ByLayer
370
-1
48
1
60
0
100
AcDbLine
10
-47.97216
20
0
30
0
11
-47.97216
21
8.8784
31
0
39
0
210
0
220
0
230
1
0
LINE
5
7B
100
AcDbEntity
8
SK1
62
256
6
ByLayer
370
-1
48
1
60
0
100
AcDbLine
10
-48.4
20
8.383635
30
0
11
-48.4
21
-8.383635
31
0
39
0
210
0
220
0
230
1
0
LINE
5
7C
100
AcDbEntity
8
1
62
256
6
ByLayer
370
-1
48
1
60
0
100
AcDbLine
10
34
20
-21.08
30
0
11
24
21
-21.08
31
0
39
0
210
0
220
0
230
1
0
LINE
5
7D
100
AcDbEntity
8
1
62
256
6
ByLayer
370
-1
48
1
60
0
100
AcDbLine
10
33.08
20
-22
30
0
11
24.92
21
-22
31
0
39
0
210
0
220
0
230
1
0
LINE
5
7E
100
AcDbEntity
8
1
62
256
6
ByLayer
370
-1
48
1
60
0
100
AcDbLine
10
36.911419
20
-19.173648
30
0
11
37.271459
21
-17.131759
31
0
39
0
210
0
220
0
230
1
0
LINE
5
7F
100
AcDbEntity
8
1
62
256
6
ByLayer
370
-1
48
1
60
0
100
AcDbLine
10
37.271459
20
17.131759
30
0
11
36.911419
21
19.173648
31
0
39
0
210
0
220
0
230
1
0
LINE
5
80
100
AcDbEntity
8
1
62
256
6
ByLayer
370
-1
48
1
60
0
100
AcDbLine
10
34
20
-21.08
30
0
11
34
21
-18.072411
31
0
39
0
210
0
220
0
230
1
0
LINE
5
81
100
AcDbEntity
8
1
62
256
6
ByLayer
370
-1
48
1
60
0
100
AcDbLine
10
24
20
-18.076267
30
0
11
24
21
-21.08
31
0
39
0
210
0
220
0
230
1
0
LINE
5
82
100
AcDbEntity
8
1
62
256
6
ByLayer
370
-1
48
1
60
0
100
AcDbLine
10
24
20
-21.08
30
0
11
24.92
21
-22
31
0
39
0
210
0
220
0
230
1
0
LINE
5
83
100
AcDbEntity
8
1
62
256
6
ByLayer
370
-1
48
1
60
0
100
AcDbLine
10
33.08
20
-22
30
0
11
34
21
-21.08
31
0
39
0
210
0
220
0
230
1
0
LINE
5
84
100
AcDbEntity
8
1
62
256
6
ByLayer
370
-1
48
1
60
0
100
AcDbLine
10
21.5
20
22.99025
30
0
11
19
21
22.99025
31
0
39
0
210
0
220
0
230
1
0
LINE
5
85
100
AcDbEntity
8
1
62
256
6
ByLayer
370
-1
48
1
60
0
100
AcDbLine
10
19
20
-22.99025
30
0
11
21.5
21
-22.99025
31
0
39
0
210
0
220
0
230
1
0
LINE
5
86
100
AcDbEntity
8
1
62
256
6
ByLayer
370
-1
48
1
60
0
100
AcDbLine
10
23
20
-20
30
0
11
24.000197
21
-20
31
0
39
0
210
0
220
0
230
1
0
LINE
5
87
100
AcDbEntity
8
1
62
256
6
ByLayer
370
-1
48
1
60
0
100
AcDbLine
10
33.99994
20
-20
30
0
11
35.926612
21
-20
31
0
39
0
210
0
220
0
230
1
0
LINE
5
88
100
AcDbEntity
8
1
62
256
6
ByLayer
370
-1
48
1
60
0
100
AcDbLine
10
35.926612
20
20
30
0
11
23
21
20
31
0
39
0
210
0
220
0
230
1
0
LINE
5
89
100
AcDbEntity
8
1
62
256
6
ByLayer
370
-1
48
1
60
0
100
AcDbLine
10
0.4
20
-15.933339
30
0
11
0.890757
21
-15.65
31
0
39
0
210
0
220
0
230
1
0
LINE
5
8A
100
AcDbEntity
8
1
62
256
6
ByLayer
370
-1
48
1
60
0
100
AcDbLine
10
0.890757
20
15.65
30
0
11
0.4
21
15.933339
31
0
39
0
210
0
220
0
230
1
0
LINE
5
8B
100
AcDbEntity
8
1
62
256
6
ByLayer
370
-1
48
1
60
0
100
AcDbLine
10
0.4
20
15.933339
30
0
11
0
21
15.875
31
0
39
0
210
0
220
0
230
1
0
LINE
5
8C
100
AcDbEntity
8
1
62
256
6
ByLayer
370
-1
48
1
60
0
100
AcDbLine
10
0
20
-15.875
30
0
11
0.4
21
-15.933339
31
0
39
0
210
0
220
0
230
1
0
LINE
5
8D
100
AcDbEntity
8
1
62
256
6
ByLayer
370
-1
48
1
60
0
100
AcDbLine
10
1.4
20
15.65
30
0
11
0.890757
21
15.65
31
0
39
0
210
0
220
0
230
1
0
LINE
5
8E
100
AcDbEntity
8
1
62
256
6
ByLayer
370
-1
48
1
60
0
100
AcDbLine
10
0.890757
20
-15.65
30
0
11
1.4
21
-15.65
31
0
39
0
210
0
220
0
230
1
0
LINE
5
8F
100
AcDbEntity
8
1
62
256
6
ByLayer
370
-1
48
1
60
0
100
AcDbLine
10
42.195498
20
-13
30
0
11
111.00319
21
-13
31
0
39
0
210
0
220
0
230
1
0
LINE
5
90
100
AcDbEntity
8
1
62
256
6
ByLayer
370
-1
48
1
60
0
100
AcDbLine
10
111.00319
20
13
30
0
11
42.195498
21
13
31
0
39
0
210
0
220
0
230
1
0
LINE
5
91
100
AcDbEntity
8
1
62
256
6
ByLayer
370
-1
48
1
60
0
100
AcDbLine
10
114.990451
20
-12.840764
30
0
11
136.009549
21
-11.159236
31
0
39
0
210
0
220
0
230
1
0
LINE
5
92
100
AcDbEntity
8
1
62
256
6
ByLayer
370
-1
48
1
60
0
100
AcDbLine
10
136.009549
20
11.159236
30
0
11
114.990451
21
12.840764
31
0
39
0
210
0
220
0
230
1
0
LINE
5
93
100
AcDbEntity
8
1
62
256
6
ByLayer
370
-1
48
1
60
0
100
AcDbLine
10
139.99681
20
-11
30
0
11
186.2
21
-11
31
0
39
0
210
0
220
0
230
1
0
LINE
5
94
100
AcDbEntity
8
1
62
256
6
ByLayer
370
-1
48
1
60
0
100
AcDbLine
10
186.2
20
11
30
0
11
139.99681
21
11
31
0
39
0
210
0
220
0
230
1
0
LINE
5
95
100
AcDbEntity
8
1
62
256
6
ByLayer
370
-1
48
1
60
0
100
AcDbLine
10
186.2
20
-11
30
0
11
187.366329
21
-10.752089
31
0
39
0
210
0
220
0
230
1
0
LINE
5
96
100
AcDbEntity
8
1
62
256
6
ByLayer
370
-1
48
1
60
0
100
AcDbLine
10
187.366329
20
10.752089
30
0
11
186.2
21
11
31
0
39
0
210
0
220
0
230
1
0
LINE
5
97
100
AcDbEntity
8
SK1
62
256
6
ByLayer
370
-1
48
1
60
0
100
AcDbLine
10
0
20
15.875
30
0
11
-47.97216
21
8.8784
31
0
39
0
210
0
220
0
230
1
0
LINE
5
98
100
AcDbEntity
8
SK1
62
256
6
ByLayer
370
-1
48
1
60
0
100
AcDbLine
10
-47.97216
20
-8.8784
30
0
11
0
21
-15.875
31
0
39
0
210
0
220
0
230
1
0
LINE
5
99
100
AcDbEntity
8
1
62
256
6
ByLayer
370
-1
48
1
60
0
100
AcDbLine
10
24.92
20
-22
30
0
11
24.92
21
-18.076188
31
0
39
0
210
0
220
0
230
1
0
LINE
5
9A
100
AcDbEntity
8
1
62
256
6
ByLayer
370
-1
48
1
60
0
100
AcDbLine
10
33.08
20
-22
30
0
11
33.08
21
-18.07225
31
0
39
0
210
0
220
0
230
1
0
MTEXT
5
E9
100
AcDbEntity
8
SK6
62
256
6
ByLayer
370
-1
48
1
60
0
100
AcDbMText
10
-52.538158
20
30.36525
30
0
210
0
220
0
230
1
1
\W01.000;\fsimplex.shx,bigfont.shx;  
40
3.5
41
0
44
1.084337
50
0
71
7
72
5
7
DEFAULT
0
MTEXT
5
EA
100
AcDbEntity
8
SK6
62
256
6
ByLayer
370
-1
48
1
60
0
100
AcDbMText
10
-73.703947
20
30.36525
30
0
210
0
220
0
230
1
1
\W00.820;\fsimplex.shx,bigfont.shx;MAS-BT30 
40
3.5
41
0
44
1.084337
50
0
71
7
72
5
7
DEFAULT
0
MTEXT
5
EB
100
AcDbEntity
8
SK6
62
256
6
ByLayer
370
-1
48
1
60
0
100
AcDbMText
10
-2.125
20
-37.36525
30
0
210
0
220
0
230
1
1
\W00.683;\fsimplex.shx,bigfont.shx;930-B30-P-12-188 
40
3.5
41
0
44
1.084337
50
0
71
7
72
5
7
DEFAULT
0
DIMENSION
5
F6
100
AcDbEntity
8
SK2
62
256
6
ByLayer
370
-3
48
1
60
0
100
AcDbDimension
2
DimnDraft3D1
10
-78.5
20
22.99025
30
0
11
-79.875
21
1.634211
31
0
70
33
71
5
72
1
41
1
210
0
220
0
230
1
3
Standard
100
AcDbAlignedDimension
13
-1.5875
23
-22.99025
33
0
14
-1.5875
24
22.99025
34
0
1001
ACAD
1000
DSTYLE
1002
{
1070
   279
1070
     0
1070
    74
1070
     0
1070
   173
1070
     1
1070
   340
1005
BE
1070
   271
1070
     0
1070
   272
1070
     2
1070
    77
1070
     1
1070
    73
1070
     0
1070
   171
1070
     3
1070
   274
1070
     4
1070
   177
1070
     2
1070
   176
1070
     2
1070
   178
1070
     2
1070
    78
1070
     8
1070
    48
1040
-0.005
1070
    41
1041
4.5
1070
   147
1041
2.25
1070
    42
1041
1.5875
1070
    44
1041
2.0
1070
   140
1041
4.5
1070
   343
1005
0
1070
   344
1005
0
1002
}
0
DIMENSION
5
101
100
AcDbEntity
8
2
62
256
6
ByLayer
370
-3
48
1
60
0
100
AcDbDimension
2
DimnDraft3D2
10
188
20
62.09025
30
0
11
90.281579
21
62.09025
31
0
70
32
71
5
72
1
41
1
210
0
220
0
230
1
3
Standard
100
AcDbAlignedDimension
13
0
23
17.4625
33
0
14
188
24
12.5875
34
0
50
0
100
AcDbRotatedDimension
1001
ACAD
1000
DSTYLE
1002
{
1070
   279
1070
     0
1070
   172
1070
     1
1070
   173
1070
     1
1070
   340
1005
BE
1070
   271
1070
     1
1070
   272
1070
     2
1070
    77
1070
     1
1070
    73
1070
     0
1070
   171
1070
     3
1070
   274
1070
     4
1070
   177
1070
     2
1070
   176
1070
     2
1070
   178
1070
     2
1070
    78
1070
     8
1070
    48
1040
-0.005
1070
    41
1041
4.5
1070
   147
1041
2.25
1070
    42
1041
1.5875
1070
    44
1041
2.0
1070
   140
1041
4.5
1070
   343
1005
0
1070
   344
1005
0
1002
}
0
DIMENSION
5
10B
100
AcDbEntity
8
SK2
62
256
6
ByLayer
370
-3
48
1
60
0
100
AcDbDimension
2
DimnDraft3D3
10
22
20
52.09025
30
0
11
8.371053
21
52.09025
31
0
70
32
71
5
72
1
41
1
210
0
220
0
230
1
3
Standard
100
AcDbAlignedDimension
13
0
23
17.4625
33
0
14
22
24
24.57775
34
0
50
0
100
AcDbRotatedDimension
1001
ACAD
1000
DSTYLE
1002
{
1070
   279
1070
     0
1070
   172
1070
     1
1070
   173
1070
     1
1070
   340
1005
BE
1070
   271
1070
     2
1070
   272
1070
     2
1070
    77
1070
     1
1070
    73
1070
     0
1070
   171
1070
     3
1070
   274
1070
     4
1070
   177
1070
     2
1070
   176
1070
     2
1070
   178
1070
     2
1070
    78
1070
     8
1070
    48
1040
-0.005
1070
    41
1041
4.5
1070
   147
1041
2.25
1070
    42
1041
1.5875
1070
    44
1041
2.0
1070
   140
1041
4.5
1070
   343
1005
0
1070
   344
1005
0
1002
}
0
DIMENSION
5
115
100
AcDbEntity
8
SK2
62
256
6
ByLayer
370
-3
48
1
60
0
100
AcDbDimension
2
DimnDraft3D4
10
138
20
32.09025
30
0
11
160.371053
21
32.09025
31
0
70
32
71
5
72
1
41
1
210
0
220
0
230
1
3
Standard
100
AcDbAlignedDimension
13
188
23
12.5875
33
0
14
138
24
12.5875
34
0
50
0
100
AcDbRotatedDimension
1001
ACAD
1000
DSTYLE
1002
{
1070
   279
1070
     0
1070
   172
1070
     1
1070
   173
1070
     1
1070
   340
1005
BE
1070
   271
1070
     1
1070
   272
1070
     2
1070
    77
1070
     1
1070
    73
1070
     0
1070
   171
1070
     3
1070
   274
1070
     4
1070
   177
1070
     2
1070
   176
1070
     2
1070
   178
1070
     2
1070
    78
1070
     8
1070
    48
1040
-0.005
1070
    41
1041
4.5
1070
   147
1041
2.25
1070
    42
1041
1.5875
1070
    44
1041
2.0
1070
   140
1041
4.5
1070
   343
1005
0
1070
   344
1005
0
1002
}
0
DIMENSION
5
11F
100
AcDbEntity
8
SK2
62
256
6
ByLayer
370
-3
48
1
60
0
100
AcDbDimension
2
DimnDraft3D5
10
38
20
52.09025
30
0
11
109.281579
21
52.09025
31
0
70
32
71
5
72
1
41
1
210
0
220
0
230
1
3
Standard
100
AcDbAlignedDimension
13
188
23
12.5875
33
0
14
38
24
12.5875
34
0
50
0
100
AcDbRotatedDimension
1001
ACAD
1000
DSTYLE
1002
{
1070
   279
1070
     0
1070
   172
1070
     1
1070
   173
1070
     1
1070
   340
1005
BE
1070
   271
1070
     1
1070
   272
1070
     2
1070
    77
1070
     1
1070
    73
1070
     0
1070
   171
1070
     3
1070
   274
1070
     4
1070
   177
1070
     2
1070
   176
1070
     2
1070
   178
1070
     2
1070
    78
1070
     8
1070
    48
1040
-0.005
1070
    41
1041
4.5
1070
   147
1041
2.25
1070
    42
1041
1.5875
1070
    44
1041
2.0
1070
   140
1041
4.5
1070
   343
1005
0
1070
   344
1005
0
1002
}
0
DIMENSION
5
129
100
AcDbEntity
8
SK2
62
256
6
ByLayer
370
-3
48
1
60
0
100
AcDbDimension
2
DimnDraft3D6
10
113
20
42.09025
30
0
11
147.871053
21
42.09025
31
0
70
32
71
5
72
1
41
1
210
0
220
0
230
1
3
Standard
100
AcDbAlignedDimension
13
188
23
12.5875
33
0
14
113
24
14.5875
34
0
50
0
100
AcDbRotatedDimension
1001
ACAD
1000
DSTYLE
1002
{
1070
   279
1070
     0
1070
   172
1070
     1
1070
   173
1070
     1
1070
   340
1005
BE
1070
   271
1070
     1
1070
   272
1070
     2
1070
    77
1070
     1
1070
    73
1070
     0
1070
   171
1070
     3
1070
   274
1070
     4
1070
   177
1070
     2
1070
   176
1070
     2
1070
   178
1070
     2
1070
    78
1070
     8
1070
    48
1040
-0.005
1070
    41
1041
4.5
1070
   147
1041
2.25
1070
    42
1041
1.5875
1070
    44
1041
2.0
1070
   140
1041
4.5
1070
   343
1005
0
1070
   344
1005
0
1002
}
0
DIMENSION
5
133
100
AcDbEntity
8
SK2
62
256
6
ByLayer
370
-3
48
1
60
0
100
AcDbDimension
2
DimnDraft3D7
10
-48.4
20
62.09025
30
0
11
-29.718421
21
62.09025
31
0
70
32
71
5
72
1
41
1
210
0
220
0
230
1
3
Standard
100
AcDbAlignedDimension
13
0
23
17.4625
33
0
14
-48.4
24
13.7875
34
0
50
0
100
AcDbRotatedDimension
1001
ACAD
1000
DSTYLE
1002
{
1070
   279
1070
     0
1070
   172
1070
     1
1070
   173
1070
     1
1070
   340
1005
BE
1070
   271
1070
     1
1070
   272
1070
     2
1070
    77
1070
     1
1070
    73
1070
     0
1070
   171
1070
     3
1070
   274
1070
     4
1070
   177
1070
     2
1070
   176
1070
     2
1070
   178
1070
     2
1070
    78
1070
     8
1070
    48
1040
-0.005
1070
    41
1041
4.5
1070
   147
1041
2.25
1070
    42
1041
1.5875
1070
    44
1041
2.0
1070
   140
1041
4.5
1070
   343
1005
0
1070
   344
1005
0
1002
}
0
DIMENSION
5
13D
100
AcDbEntity
8
SK2
62
256
6
ByLayer
370
-3
48
1
60
0
100
AcDbDimension
2
DimnDraft3D8
10
142
20
-31.59025
30
0
11
144.258553
21
-31.59025
31
0
70
32
71
5
72
1
41
1
210
0
220
0
230
1
3
Standard
100
AcDbAlignedDimension
13
188
23
-7.5875
33
0
14
142
24
-7.5875
34
0
50
0
100
AcDbRotatedDimension
1001
ACAD
1000
DSTYLE
1002
{
1070
   279
1070
     0
1070
   172
1070
     1
1070
   173
1070
     1
1070
   340
1005
BE
1070
   271
1070
     0
1070
   272
1070
     2
1070
    77
1070
     1
1070
    73
1070
     0
1070
   171
1070
     3
1070
   274
1070
     4
1070
   177
1070
     2
1070
   176
1070
     2
1070
   178
1070
     2
1070
    78
1070
     8
1070
    48
1040
-0.005
1070
    41
1041
4.5
1070
   147
1041
2.25
1070
    42
1041
1.5875
1070
    44
1041
2.0
1070
   140
1041
4.5
1070
   343
1005
0
1070
   344
1005
0
1002
}
0
DIMENSION
5
148
100
AcDbEntity
8
SK2
62
256
6
ByLayer
370
-3
48
1
60
0
100
AcDbDimension
2
DimnDraft3D9
10
232.25
20
11
30
0
11
232.25
21
-7.878947
31
0
70
32
71
5
72
1
41
1
210
0
220
0
230
1
3
Standard
100
AcDbAlignedDimension
13
189.5875
23
-11
33
0
14
189.5875
24
11
34
0
50
90
100
AcDbRotatedDimension
1001
ACAD
1000
DSTYLE
1002
{
1070
    74
1070
     0
1070
   279
1070
     0
1070
   172
1070
     1
1070
   173
1070
     1
1070
   340
1005
BE
1070
   271
1070
     1
1070
   272
1070
     2
1070
    77
1070
     1
1070
    73
1070
     0
1070
   171
1070
     3
1070
   274
1070
     4
1070
   177
1070
     2
1070
   176
1070
     2
1070
   178
1070
     2
1070
    78
1070
     8
1070
    48
1040
-0.005
1070
    41
1041
4.5
1070
   147
1041
2.25
1070
    42
1041
1.5875
1070
    44
1041
2.0
1070
   140
1041
4.5
1070
   343
1005
0
1070
   344
1005
0
1002
}
0
DIMENSION
5
153
100
AcDbEntity
8
SK2
62
256
6
ByLayer
370
-3
48
1
60
0
100
AcDbDimension
2
DimnDraft3D10
10
223.25
20
-6
30
0
11
223.25
21
17
31
0
70
32
71
5
72
1
41
1
210
0
220
0
230
1
3
Standard
100
AcDbAlignedDimension
13
189.5875
23
6
33
0
14
189.5875
24
-6
34
0
50
90
100
AcDbRotatedDimension
1001
ACAD
1000
DSTYLE
1002
{
1070
    74
1070
     0
1070
   279
1070
     0
1070
   172
1070
     1
1070
   173
1070
     1
1070
   340
1005
BE
1070
   271
1070
     1
1070
   272
1070
     2
1070
    77
1070
     1
1070
    73
1070
     0
1070
   171
1070
     3
1070
   274
1070
     4
1070
   177
1070
     2
1070
   176
1070
     2
1070
   178
1070
     2
1070
    78
1070
     8
1070
    48
1040
-0.005
1070
    41
1041
4.5
1070
   147
1041
2.25
1070
    42
1041
1.5875
1070
    44
1041
2.0
1070
   140
1041
4.5
1070
   343
1005
0
1070
   344
1005
0
1002
}
0
DIMENSION
5
15E
100
AcDbEntity
8
SK2
62
256
6
ByLayer
370
-3
48
1
60
0
100
AcDbDimension
2
DimnDraft3D11
10
252.25
20
-20
30
0
11
252.25
21
-8.115789
31
0
70
32
71
5
72
1
41
1
210
0
220
0
230
1
3
Standard
100
AcDbAlignedDimension
13
39.5875
23
20
33
0
14
39.5875
24
-20
34
0
50
90
100
AcDbRotatedDimension
1001
ACAD
1000
DSTYLE
1002
{
1070
    74
1070
     0
1070
   279
1070
     0
1070
   172
1070
     1
1070
   173
1070
     1
1070
   340
1005
BE
1070
   271
1070
     1
1070
   272
1070
     2
1070
    77
1070
     1
1070
    73
1070
     0
1070
   171
1070
     3
1070
   274
1070
     4
1070
   177
1070
     2
1070
   176
1070
     2
1070
   178
1070
     2
1070
    78
1070
     8
1070
    48
1040
-0.005
1070
    41
1041
4.5
1070
   147
1041
2.25
1070
    42
1041
1.5875
1070
    44
1041
2.0
1070
   140
1041
4.5
1070
   343
1005
0
1070
   344
1005
0
1002
}
0
DIMENSION
5
169
100
AcDbEntity
8
SK2
62
256
6
ByLayer
370
-3
48
1
60
0
100
AcDbDimension
2
DimnDraft3D12
10
242.25
20
-13
30
0
11
242.25
21
-7.878947
31
0
70
32
71
5
72
1
41
1
210
0
220
0
230
1
3
Standard
100
AcDbAlignedDimension
13
114.5875
23
13
33
0
14
114.5875
24
-13
34
0
50
90
100
AcDbRotatedDimension
1001
ACAD
1000
DSTYLE
1002
{
1070
    74
1070
     0
1070
   279
1070
     0
1070
   172
1070
     1
1070
   173
1070
     1
1070
   340
1005
BE
1070
   271
1070
     1
1070
   272
1070
     2
1070
    77
1070
     1
1070
    73
1070
     0
1070
   171
1070
     3
1070
   274
1070
     4
1070
   177
1070
     2
1070
   176
1070
     2
1070
   178
1070
     2
1070
    78
1070
     8
1070
    48
1040
-0.005
1070
    41
1041
4.5
1070
   147
1041
2.25
1070
    42
1041
1.5875
1070
    44
1041
2.0
1070
   140
1041
4.5
1070
   343
1005
0
1070
   344
1005
0
1002
}
0
ENDSEC
0
SECTION
2
OBJECTS
0
DICTIONARY
5
19b
330
0
100
AcDbDictionary
280
0
281
1
3
ACAD_GROUP
350
19c
3
ACAD_MLINESTYLE
350
19d
0
DICTIONARY
5
19c
330
0
100
AcDbDictionary
280
0
281
1
0
DICTIONARY
5
19d
330
0
100
AcDbDictionary
280
0
281
1
3
Standard
350
18
0
MLINESTYLE
5
18
330
19d
100
AcDbMlineStyle
2
Standard
70
0
3

62
256
51
90
52
90
71
2
49
-0.5
62
256
6
ByLayer
49
0.5
62
256
6
ByLayer
0
RASTERVARIABLES
5
188
330

100
AcDbRasterVariables
90
0
70
1
71
1
72
1
0
ENDSEC
0
EOF
