0
SECTION
2
HEADER
9
$ACADVER
1
AC1015
9
$DWGCODEPAGE
3
ANSI_1252
9
$HANDSEED
5
181
9
$ANGBASE
50
0
9
$ANGDIR
70
0
9
$ATTMODE
70
1
9
$AUNITS
70
0
9
$AUPREC
70
0
9
$CECOLOR
62
256
9
$CELTSCALE
40
1
9
$CELTYPE
6
ByLayer
9
$CELWEIGHT
370
-1
9
$CLAYER
8
0
9
$CMLJUST
70
0
9
$CMLSCALE
40
1
9
$CMLSTYLE
2
Standard
9
$DIMSTYLE
2
Standard
9
$TEXTSIZE
40
0.2
9
$TEXTSTYLE
7
Standard
9
$LUNITS
70
2
9
$LUPREC
70
4
9
$EXTNAMES
290
1
9
$INSUNITS
70
4
9
$LTSCALE
40
1
9
$LWDISPLAY
290
0
9
$PDMODE
70
0
9
$PDSIZE
40
0
9
$PLINEGEN
70
0
0
ENDSEC
0
SECTION
2
CLASSES
0
CLASS
1
RASTERVARIABLES
2
AcDbRasterVariables
3
ISM
90
0
280
0
281
0
0
ENDSEC
0
SECTION
2
TABLES
0
TABLE
2
VPORT
5
177
100
AcDbSymbolTable
0
VPORT
5
1
100
AcDbSymbolTableRecord
100
AcDbViewportTableRecord
2
*Active
70
0
10
0
20
0
11
1
21
1
12
-1
22
1
13
0
23
0
14
0.5
24
0.5
15
10
25
10
16
0
26
0
36
1
17
0
27
0
37
0
0
ENDTAB
0
TABLE
2
LTYPE
5
178
100
AcDbSymbolTable
0
LTYPE
5
14
100
AcDbSymbolTableRecord
100
AcDbLinetypeTableRecord
70
0
2
ByBlock
3

72
65
73
0
40
0
0
LTYPE
5
15
100
AcDbSymbolTableRecord
100
AcDbLinetypeTableRecord
70
0
2
ByLayer
3

72
65
73
0
40
0
0
LTYPE
5
16
100
AcDbSymbolTableRecord
100
AcDbLinetypeTableRecord
70
0
2
CONTINUOUS
3
Solid line
72
65
73
0
40
0
0
LTYPE
5
3C
100
AcDbSymbolTableRecord
100
AcDbLinetypeTableRecord
70
0
2
DASHED
3
__ __ __ __ __ __ __ __ __
72
65
73
2
40
25.72
49
12.86
74
0
49
-12.86
74
0
0
LTYPE
5
3D
100
AcDbSymbolTableRecord
100
AcDbLinetypeTableRecord
70
0
2
HIDDEN
3
_ _ _ _ _ _ _ _ _ _ _ _ _ _ _
72
65
73
2
40
0.5
49
0.25
74
0
49
-0.25
74
0
0
LTYPE
5
3E
100
AcDbSymbolTableRecord
100
AcDbLinetypeTableRecord
70
0
2
PHANTOM
3
____ _ _ ____ _ _ _____ _ _ ____
72
65
73
6
40
50.5
49
18
74
0
49
-6.5
74
0
49
6.5
74
0
49
-6.5
74
0
49
6.5
74
0
49
-6.5
74
0
0
LTYPE
5
3F
100
AcDbSymbolTableRecord
100
AcDbLinetypeTableRecord
70
0
2
CENTER
3
____ _ ____ _ ____ _ ____
72
65
73
4
40
47.5
49
22
74
0
49
-8.5
74
0
49
8.5
74
0
49
-8.5
74
0
0
LTYPE
5
40
100
AcDbSymbolTableRecord
100
AcDbLinetypeTableRecord
70
0
2
DOT
3
.........................
72
65
73
2
40
10
49
0
74
0
49
-10
74
0
0
LTYPE
5
41
100
AcDbSymbolTableRecord
100
AcDbLinetypeTableRecord
70
0
2
DASHDOT
3
_._._._._._._._._._._._._._._._.
72
65
73
4
40
70
49
31
74
0
49
-13
74
0
49
13
74
0
49
-13
74
0
0
ENDTAB
0
TABLE
2
LAYER
5
179
100
AcDbSymbolTable
0
LAYER
5
10
100
AcDbSymbolTableRecord
100
AcDbLayerTableRecord
2
0
70
0
62
7
6
CONTINUOUS
290
1
370
-3
390
0
0
LAYER
5
43
100
AcDbSymbolTableRecord
100
AcDbLayerTableRecord
2
1
70
0
62
4
6
CONTINUOUS
290
1
370
-3
390
0
0
LAYER
5
4B
100
AcDbSymbolTableRecord
100
AcDbLayerTableRecord
2
81
70
0
62
-3
6
CONTINUOUS
290
1
370
-3
390
0
0
LAYER
5
4D
100
AcDbSymbolTableRecord
100
AcDbLayerTableRecord
2
80
70
0
62
-6
6
CONTINUOUS
290
1
370
-3
390
0
0
LAYER
5
51
100
AcDbSymbolTableRecord
100
AcDbLayerTableRecord
2
4
70
0
62
-2
6
CENTER
290
1
370
-3
390
0
0
LAYER
5
9D
100
AcDbSymbolTableRecord
100
AcDbLayerTableRecord
2
2
70
0
62
7
6
CONTINUOUS
290
1
370
-3
390
0
0
LAYER
5
163
100
AcDbSymbolTableRecord
100
AcDbLayerTableRecord
2
SK4
70
0
62
2
6
CENTER
290
1
370
-3
390
0
0
LAYER
5
164
100
AcDbSymbolTableRecord
100
AcDbLayerTableRecord
2
SK1
70
0
62
4
6
CONTINUOUS
290
1
370
-3
390
0
0
LAYER
5
165
100
AcDbSymbolTableRecord
100
AcDbLayerTableRecord
2
SK6
70
0
62
5
6
CONTINUOUS
290
1
370
-3
390
0
0
LAYER
5
166
100
AcDbSymbolTableRecord
100
AcDbLayerTableRecord
2
SK2
70
0
62
7
6
CONTINUOUS
290
1
370
-3
390
0
0
ENDTAB
0
TABLE
2
STYLE
5
17a
100
AcDbSymbolTable
0
STYLE
5
11
100
AcDbSymbolTableRecord
100
AcDbTextStyleTableRecord
2
Standard
3
txt
70
0
71
0
40
0
41
1
42
0
50
0
0
STYLE
5
C7
100
AcDbSymbolTableRecord
100
AcDbTextStyleTableRecord
2
DEFAULT
3
simplex.shx
70
0
71
0
40
0
41
1
42
0
50
0
0
STYLE
5
C8
100
AcDbSymbolTableRecord
100
AcDbTextStyleTableRecord
2
DWGDirectTextStyle
3
SIMPLEX
70
0
71
0
40
0
41
1
42
0
50
0
0
ENDTAB
0
TABLE
2
DIMSTYLE
5
17b
100
AcDbSymbolTable
100
AcDbDimStyleTable
0
DIMSTYLE
105
27
100
AcDbSymbolTableRecord
100
AcDbDimStyleTableRecord
2
Standard
70
0
3
<>
41
0.18
42
0.0625
44
0.18
140
0.18
147
0.09
73
0
74
0
77
1
271
2
275
0
278
52
280
0
340
11
0
ENDTAB
0
TABLE
2
VIEW
5
17c
100
AcDbSymbolTable
0
ENDTAB
0
TABLE
2
UCS
5
17d
100
AcDbSymbolTable
0
ENDTAB
0
TABLE
2
APPID
5
17e
100
AcDbSymbolTable
0
APPID
5
12
100
AcDbSymbolTableRecord
100
AcDbRegAppTableRecord
2
ACAD
70
0
0
ENDTAB
0
TABLE
2
BLOCK_RECORD
5
17f
100
AcDbSymbolTable
0
BLOCK_RECORD
5
1F
100
AcDbSymbolTableRecord
100
AcDbBlockTableRecord
2
*Model_Space
340
0
70
0
0
BLOCK_RECORD
5
1B
100
AcDbSymbolTableRecord
100
AcDbBlockTableRecord
2
*Paper_Space
340
0
70
0
0
BLOCK_RECORD
5
23
100
AcDbSymbolTableRecord
100
AcDbBlockTableRecord
2
*Paper_Space0
340
0
70
0
0
BLOCK_RECORD
5
CA
100
AcDbSymbolTableRecord
100
AcDbBlockTableRecord
2
DimnDraft3D1
340
0
70
0
0
BLOCK_RECORD
5
D8
100
AcDbSymbolTableRecord
100
AcDbBlockTableRecord
2
_CLOSED
340
0
70
0
0
BLOCK_RECORD
5
DF
100
AcDbSymbolTableRecord
100
AcDbBlockTableRecord
2
DimnDraft3D2
340
0
70
0
0
BLOCK_RECORD
5
EE
100
AcDbSymbolTableRecord
100
AcDbBlockTableRecord
2
DimnDraft3D3
340
0
70
0
0
BLOCK_RECORD
5
FC
100
AcDbSymbolTableRecord
100
AcDbBlockTableRecord
2
DimnDraft3D4
340
0
70
0
0
BLOCK_RECORD
5
10A
100
AcDbSymbolTableRecord
100
AcDbBlockTableRecord
2
DimnDraft3D5
340
0
70
0
0
BLOCK_RECORD
5
118
100
AcDbSymbolTableRecord
100
AcDbBlockTableRecord
2
DimnDraft3D6
340
0
70
0
0
ENDTAB
0
ENDSEC
0
SECTION
2
BLOCKS
0
BLOCK
5
20
100
AcDbEntity
8
0
100
AcDbBlockBegin
2
*Model_Space
70
0
10
0
20
0
30
0
3
*Model_Space
0
ENDBLK
5
21
100
AcDbEntity
8
0
100
AcDbBlockEnd
0
BLOCK
5
1C
100
AcDbEntity
8
0
100
AcDbBlockBegin
2
*Paper_Space
70
0
10
0
20
0
30
0
3
*Paper_Space
0
ENDBLK
5
1D
100
AcDbEntity
8
0
100
AcDbBlockEnd
0
BLOCK
5
24
100
AcDbEntity
8
0
100
AcDbBlockBegin
2
*Paper_Space0
70
0
10
0
20
0
30
0
3
*Paper_Space0
0
ENDBLK
5
25
100
AcDbEntity
8
0
100
AcDbBlockEnd
0
BLOCK
5
D5
100
AcDbEntity
8
0
100
AcDbBlockBegin
2
DimnDraft3D1
70
0
10
0
20
0
30
0
3
DimnDraft3D1
0
MTEXT
5
CB
100
AcDbEntity
8
2
62
256
6
ByLayer
370
-1
48
1
60
0
100
AcDbMText
10
131.425
20
-3.659211
30
0
210
0
220
0
230
1
1
\W01.000;\fsimplex.shx,bigfont.shx;%%c22\P
40
4.5
41
0
44
1.084337
50
90
71
7
72
5
7
DEFAULT
0
LINE
5
CC
100
AcDbEntity
8
2
62
256
6
ByLayer
370
-1
48
1
60
0
100
AcDbLine
10
131.799997
20
11
30
0
11
135.549994
21
11
31
0
39
0
210
0
220
0
230
1
0
LINE
5
CD
100
AcDbEntity
8
2
62
256
6
ByLayer
370
-1
48
1
60
0
100
AcDbLine
10
131.799997
20
-11
30
0
11
135.549994
21
-11
31
0
39
0
210
0
220
0
230
1
0
LINE
5
CE
100
AcDbEntity
8
2
62
256
6
ByLayer
370
-1
48
1
60
0
100
AcDbLine
10
132.55
20
11
30
0
11
132.55
21
-11
31
0
39
0
210
0
220
0
230
1
0
LINE
5
CF
100
AcDbEntity
8
2
62
256
6
ByLayer
370
-1
48
1
60
0
100
AcDbLine
10
132.55
20
11
30
0
11
133.049999
21
8.000008
31
0
39
0
210
0
220
0
230
1
0
LINE
5
D0
100
AcDbEntity
8
2
62
256
6
ByLayer
370
-1
48
1
60
0
100
AcDbLine
10
132.55
20
11
30
0
11
132.050001
21
8.000004
31
0
39
0
210
0
220
0
230
1
0
LINE
5
D1
100
AcDbEntity
8
2
62
256
6
ByLayer
370
-1
48
1
60
0
100
AcDbLine
10
133.049999
20
8.000008
30
0
11
132.050001
21
8.000004
31
0
39
0
210
0
220
0
230
1
0
LINE
5
D2
100
AcDbEntity
8
2
62
256
6
ByLayer
370
-1
48
1
60
0
100
AcDbLine
10
132.55
20
-11
30
0
11
132.050001
21
-8.000008
31
0
39
0
210
0
220
0
230
1
0
LINE
5
D3
100
AcDbEntity
8
2
62
256
6
ByLayer
370
-1
48
1
60
0
100
AcDbLine
10
132.55
20
-11
30
0
11
133.049999
21
-8.000004
31
0
39
0
210
0
220
0
230
1
0
LINE
5
D4
100
AcDbEntity
8
2
62
256
6
ByLayer
370
-1
48
1
60
0
100
AcDbLine
10
132.050001
20
-8.000008
30
0
11
133.049999
21
-8.000004
31
0
39
0
210
0
220
0
230
1
0
ENDBLK
5
D6
100
AcDbEntity
8
0
100
AcDbBlockEnd
0
BLOCK
5
D9
100
AcDbEntity
8
0
100
AcDbBlockBegin
2
_CLOSED
70
0
10
0
20
0
30
0
3
_CLOSED
0
LINE
5
DB
100
AcDbEntity
8
0
62
256
6
ByLayer
370
-2
48
1
60
0
100
AcDbLine
10
-1
20
0.166667
30
0
11
0
21
0
31
0
39
0
210
0
220
0
230
1
0
LINE
5
DC
100
AcDbEntity
8
0
62
256
6
ByLayer
370
-2
48
1
60
0
100
AcDbLine
10
0
20
0
30
0
11
-1
21
-0.166667
31
0
39
0
210
0
220
0
230
1
0
LINE
5
DD
100
AcDbEntity
8
0
62
256
6
ByLayer
370
-2
48
1
60
0
100
AcDbLine
10
-1
20
0.166667
30
0
11
-1
21
-0.166667
31
0
39
0
210
0
220
0
230
1
0
LINE
5
DE
100
AcDbEntity
8
0
62
256
6
ByLayer
370
-2
48
1
60
0
100
AcDbLine
10
0
20
0
30
0
11
-1
21
0
31
0
39
0
210
0
220
0
230
1
0
ENDBLK
5
DA
100
AcDbEntity
8
0
100
AcDbBlockEnd
0
BLOCK
5
EB
100
AcDbEntity
8
0
100
AcDbBlockBegin
2
DimnDraft3D2
70
0
10
0
20
0
30
0
3
DimnDraft3D2
0
MTEXT
5
E0
100
AcDbEntity
8
SK2
62
256
6
ByLayer
370
-1
48
1
60
0
100
AcDbMText
10
-47.825
20
-3.896053
30
0
210
0
220
0
230
1
1
\W01.000;\fsimplex.shx,bigfont.shx;%%c40\P
40
4.5
41
0
44
1.084337
50
90
71
7
72
5
7
DEFAULT
0
LINE
5
E2
100
AcDbEntity
8
SK2
62
256
6
ByLayer
370
-1
48
1
60
0
100
AcDbLine
10
-1.499997
20
-20
30
0
11
-49.699994
21
-20
31
0
39
0
210
0
220
0
230
1
0
LINE
5
E3
100
AcDbEntity
8
SK2
62
256
6
ByLayer
370
-1
48
1
60
0
100
AcDbLine
10
-1.499997
20
20
30
0
11
-49.699994
21
20
31
0
39
0
210
0
220
0
230
1
0
LINE
5
E4
100
AcDbEntity
8
SK2
62
256
6
ByLayer
370
-1
48
1
60
0
100
AcDbLine
10
-46.7
20
-20
30
0
11
-46.7
21
20
31
0
39
0
210
0
220
0
230
1
0
LINE
5
E5
100
AcDbEntity
8
SK2
62
256
6
ByLayer
370
-1
48
1
60
0
100
AcDbLine
10
-46.7
20
-20
30
0
11
-47.199999
21
-17.000008
31
0
39
0
210
0
220
0
230
1
0
LINE
5
E6
100
AcDbEntity
8
SK2
62
256
6
ByLayer
370
-1
48
1
60
0
100
AcDbLine
10
-46.7
20
-20
30
0
11
-46.200001
21
-17.000004
31
0
39
0
210
0
220
0
230
1
0
LINE
5
E7
100
AcDbEntity
8
SK2
62
256
6
ByLayer
370
-1
48
1
60
0
100
AcDbLine
10
-47.199999
20
-17.000008
30
0
11
-46.200001
21
-17.000004
31
0
39
0
210
0
220
0
230
1
0
LINE
5
E8
100
AcDbEntity
8
SK2
62
256
6
ByLayer
370
-1
48
1
60
0
100
AcDbLine
10
-46.7
20
20
30
0
11
-46.200001
21
17.000008
31
0
39
0
210
0
220
0
230
1
0
LINE
5
E9
100
AcDbEntity
8
SK2
62
256
6
ByLayer
370
-1
48
1
60
0
100
AcDbLine
10
-46.7
20
20
30
0
11
-47.199999
21
17.000004
31
0
39
0
210
0
220
0
230
1
0
LINE
5
EA
100
AcDbEntity
8
SK2
62
256
6
ByLayer
370
-1
48
1
60
0
100
AcDbLine
10
-46.200001
20
17.000008
30
0
11
-47.199999
21
17.000004
31
0
39
0
210
0
220
0
230
1
0
ENDBLK
5
EC
100
AcDbEntity
8
0
100
AcDbBlockEnd
0
BLOCK
5
F9
100
AcDbEntity
8
0
100
AcDbBlockBegin
2
DimnDraft3D3
70
0
10
0
20
0
30
0
3
DimnDraft3D3
0
MTEXT
5
EF
100
AcDbEntity
8
2
62
256
6
ByLayer
370
-1
48
1
60
0
100
AcDbMText
10
78.361842
20
35.125
30
0
210
0
220
0
230
1
1
\W01.000;\fsimplex.shx,bigfont.shx;69.0\P
40
4.5
41
0
44
1.084337
50
0
71
7
72
5
7
DEFAULT
0
LINE
5
F0
100
AcDbEntity
8
2
62
256
6
ByLayer
370
-1
48
1
60
0
100
AcDbLine
10
116.485745
20
-5.659116
30
0
11
116.485745
21
36.999994
31
0
39
0
210
0
220
0
230
1
0
LINE
5
F1
100
AcDbEntity
8
2
62
256
6
ByLayer
370
-1
48
1
60
0
100
AcDbLine
10
48
20
12.599997
30
0
11
48
21
36.999994
31
0
39
0
210
0
220
0
230
1
0
LINE
5
F2
100
AcDbEntity
8
2
62
256
6
ByLayer
370
-1
48
1
60
0
100
AcDbLine
10
116.485745
20
34
30
0
11
48
21
34
31
0
39
0
210
0
220
0
230
1
0
LINE
5
F3
100
AcDbEntity
8
2
62
256
6
ByLayer
370
-1
48
1
60
0
100
AcDbLine
10
116.485745
20
34
30
0
11
113.485753
21
33.500001
31
0
39
0
210
0
220
0
230
1
0
LINE
5
F4
100
AcDbEntity
8
2
62
256
6
ByLayer
370
-1
48
1
60
0
100
AcDbLine
10
116.485745
20
34
30
0
11
113.485749
21
34.499999
31
0
39
0
210
0
220
0
230
1
0
LINE
5
F5
100
AcDbEntity
8
2
62
256
6
ByLayer
370
-1
48
1
60
0
100
AcDbLine
10
113.485753
20
33.500001
30
0
11
113.485749
21
34.499999
31
0
39
0
210
0
220
0
230
1
0
LINE
5
F6
100
AcDbEntity
8
2
62
256
6
ByLayer
370
-1
48
1
60
0
100
AcDbLine
10
48
20
34
30
0
11
50.999992
21
34.499999
31
0
39
0
210
0
220
0
230
1
0
LINE
5
F7
100
AcDbEntity
8
2
62
256
6
ByLayer
370
-1
48
1
60
0
100
AcDbLine
10
48
20
34
30
0
11
50.999996
21
33.500001
31
0
39
0
210
0
220
0
230
1
0
LINE
5
F8
100
AcDbEntity
8
2
62
256
6
ByLayer
370
-1
48
1
60
0
100
AcDbLine
10
50.999992
20
34.499999
30
0
11
50.999996
21
33.500001
31
0
39
0
210
0
220
0
230
1
0
ENDBLK
5
FA
100
AcDbEntity
8
0
100
AcDbBlockEnd
0
BLOCK
5
107
100
AcDbEntity
8
0
100
AcDbBlockBegin
2
DimnDraft3D4
70
0
10
0
20
0
30
0
3
DimnDraft3D4
0
MTEXT
5
FD
100
AcDbEntity
8
SK2
62
256
6
ByLayer
370
-1
48
1
60
0
100
AcDbMText
10
-20.375
20
46.375
30
0
210
0
220
0
230
1
1
\W01.000;\fsimplex.shx,bigfont.shx;24.0\P
40
4.5
41
0
44
1.084337
50
0
71
7
72
5
7
DEFAULT
0
LINE
5
FE
100
AcDbEntity
8
SK2
62
256
6
ByLayer
370
-1
48
1
60
0
100
AcDbLine
10
0
20
1.499997
30
0
11
0
21
48.249994
31
0
39
0
210
0
220
0
230
1
0
LINE
5
FF
100
AcDbEntity
8
SK2
62
256
6
ByLayer
370
-1
48
1
60
0
100
AcDbLine
10
-24
20
14.673772
30
0
11
-24
21
48.249994
31
0
39
0
210
0
220
0
230
1
0
LINE
5
100
100
AcDbEntity
8
SK2
62
256
6
ByLayer
370
-1
48
1
60
0
100
AcDbLine
10
0
20
45.25
30
0
11
-24
21
45.25
31
0
39
0
210
0
220
0
230
1
0
LINE
5
101
100
AcDbEntity
8
SK2
62
256
6
ByLayer
370
-1
48
1
60
0
100
AcDbLine
10
0
20
45.25
30
0
11
-2.999992
21
44.750001
31
0
39
0
210
0
220
0
230
1
0
LINE
5
102
100
AcDbEntity
8
SK2
62
256
6
ByLayer
370
-1
48
1
60
0
100
AcDbLine
10
0
20
45.25
30
0
11
-2.999996
21
45.749999
31
0
39
0
210
0
220
0
230
1
0
LINE
5
103
100
AcDbEntity
8
SK2
62
256
6
ByLayer
370
-1
48
1
60
0
100
AcDbLine
10
-2.999992
20
44.750001
30
0
11
-2.999996
21
45.749999
31
0
39
0
210
0
220
0
230
1
0
LINE
5
104
100
AcDbEntity
8
SK2
62
256
6
ByLayer
370
-1
48
1
60
0
100
AcDbLine
10
-24
20
45.25
30
0
11
-21.000008
21
45.749999
31
0
39
0
210
0
220
0
230
1
0
LINE
5
105
100
AcDbEntity
8
SK2
62
256
6
ByLayer
370
-1
48
1
60
0
100
AcDbLine
10
-24
20
45.25
30
0
11
-21.000004
21
44.750001
31
0
39
0
210
0
220
0
230
1
0
LINE
5
106
100
AcDbEntity
8
SK2
62
256
6
ByLayer
370
-1
48
1
60
0
100
AcDbLine
10
-21.000008
20
45.749999
30
0
11
-21.000004
21
44.750001
31
0
39
0
210
0
220
0
230
1
0
ENDBLK
5
108
100
AcDbEntity
8
0
100
AcDbBlockEnd
0
BLOCK
5
115
100
AcDbEntity
8
0
100
AcDbBlockBegin
2
DimnDraft3D5
70
0
10
0
20
0
30
0
3
DimnDraft3D5
0
MTEXT
5
10B
100
AcDbEntity
8
SK2
62
256
6
ByLayer
370
-1
48
1
60
0
100
AcDbMText
10
39.733553
20
57.625
30
0
210
0
220
0
230
1
1
\W01.000;\fsimplex.shx,bigfont.shx;(141.0)\P
40
4.5
41
0
44
1.084337
50
0
71
7
72
5
7
DEFAULT
0
LINE
5
10C
100
AcDbEntity
8
SK2
62
256
6
ByLayer
370
-1
48
1
60
0
100
AcDbLine
10
116.485745
20
-5.659116
30
0
11
116.485745
21
59.499994
31
0
39
0
210
0
220
0
230
1
0
LINE
5
10D
100
AcDbEntity
8
SK2
62
256
6
ByLayer
370
-1
48
1
60
0
100
AcDbLine
10
-24
20
14.673772
30
0
11
-24
21
59.499994
31
0
39
0
210
0
220
0
230
1
0
LINE
5
10E
100
AcDbEntity
8
SK2
62
256
6
ByLayer
370
-1
48
1
60
0
100
AcDbLine
10
116.485745
20
56.5
30
0
11
-24
21
56.5
31
0
39
0
210
0
220
0
230
1
0
LINE
5
10F
100
AcDbEntity
8
SK2
62
256
6
ByLayer
370
-1
48
1
60
0
100
AcDbLine
10
116.485745
20
56.5
30
0
11
113.485753
21
56.000001
31
0
39
0
210
0
220
0
230
1
0
LINE
5
110
100
AcDbEntity
8
SK2
62
256
6
ByLayer
370
-1
48
1
60
0
100
AcDbLine
10
116.485745
20
56.5
30
0
11
113.485749
21
56.999999
31
0
39
0
210
0
220
0
230
1
0
LINE
5
111
100
AcDbEntity
8
SK2
62
256
6
ByLayer
370
-1
48
1
60
0
100
AcDbLine
10
113.485753
20
56.000001
30
0
11
113.485749
21
56.999999
31
0
39
0
210
0
220
0
230
1
0
LINE
5
112
100
AcDbEntity
8
SK2
62
256
6
ByLayer
370
-1
48
1
60
0
100
AcDbLine
10
-24
20
56.5
30
0
11
-21.000008
21
56.999999
31
0
39
0
210
0
220
0
230
1
0
LINE
5
113
100
AcDbEntity
8
SK2
62
256
6
ByLayer
370
-1
48
1
60
0
100
AcDbLine
10
-24
20
56.5
30
0
11
-21.000004
21
56.000001
31
0
39
0
210
0
220
0
230
1
0
LINE
5
114
100
AcDbEntity
8
SK2
62
256
6
ByLayer
370
-1
48
1
60
0
100
AcDbLine
10
-21.000008
20
56.999999
30
0
11
-21.000004
21
56.000001
31
0
39
0
210
0
220
0
230
1
0
ENDBLK
5
116
100
AcDbEntity
8
0
100
AcDbBlockEnd
0
BLOCK
5
123
100
AcDbEntity
8
0
100
AcDbBlockBegin
2
DimnDraft3D6
70
0
10
0
20
0
30
0
3
DimnDraft3D6
0
MTEXT
5
119
100
AcDbEntity
8
2
62
256
6
ByLayer
370
-1
48
1
60
0
100
AcDbMText
10
53.834868
20
46.375
30
0
210
0
220
0
230
1
1
\W01.000;\fsimplex.shx,bigfont.shx;117.0\P
40
4.5
41
0
44
1.084337
50
0
71
7
72
5
7
DEFAULT
0
LINE
5
11A
100
AcDbEntity
8
2
62
256
6
ByLayer
370
-1
48
1
60
0
100
AcDbLine
10
116.485745
20
-5.659116
30
0
11
116.485745
21
48.249994
31
0
39
0
210
0
220
0
230
1
0
LINE
5
11B
100
AcDbEntity
8
2
62
256
6
ByLayer
370
-1
48
1
60
0
100
AcDbLine
10
0
20
17.599997
30
0
11
0
21
48.249994
31
0
39
0
210
0
220
0
230
1
0
LINE
5
11C
100
AcDbEntity
8
2
62
256
6
ByLayer
370
-1
48
1
60
0
100
AcDbLine
10
116.485745
20
45.25
30
0
11
0
21
45.25
31
0
39
0
210
0
220
0
230
1
0
LINE
5
11D
100
AcDbEntity
8
2
62
256
6
ByLayer
370
-1
48
1
60
0
100
AcDbLine
10
116.485745
20
45.25
30
0
11
113.485753
21
44.750001
31
0
39
0
210
0
220
0
230
1
0
LINE
5
11E
100
AcDbEntity
8
2
62
256
6
ByLayer
370
-1
48
1
60
0
100
AcDbLine
10
116.485745
20
45.25
30
0
11
113.485749
21
45.749999
31
0
39
0
210
0
220
0
230
1
0
LINE
5
11F
100
AcDbEntity
8
2
62
256
6
ByLayer
370
-1
48
1
60
0
100
AcDbLine
10
113.485753
20
44.750001
30
0
11
113.485749
21
45.749999
31
0
39
0
210
0
220
0
230
1
0
LINE
5
120
100
AcDbEntity
8
2
62
256
6
ByLayer
370
-1
48
1
60
0
100
AcDbLine
10
0
20
45.25
30
0
11
2.999992
21
45.749999
31
0
39
0
210
0
220
0
230
1
0
LINE
5
121
100
AcDbEntity
8
2
62
256
6
ByLayer
370
-1
48
1
60
0
100
AcDbLine
10
0
20
45.25
30
0
11
2.999996
21
44.750001
31
0
39
0
210
0
220
0
230
1
0
LINE
5
122
100
AcDbEntity
8
2
62
256
6
ByLayer
370
-1
48
1
60
0
100
AcDbLine
10
2.999992
20
45.749999
30
0
11
2.999996
21
44.750001
31
0
39
0
210
0
220
0
230
1
0
ENDBLK
5
124
100
AcDbEntity
8
0
100
AcDbBlockEnd
0
ENDSEC
0
SECTION
2
ENTITIES
0
ARC
5
A1
100
AcDbEntity
8
1
62
256
6
ByLayer
370
-1
48
1
60
0
100
AcDbCircle
39
0
10
49.239366
20
-18.499995
30
0
40
8
210
0
220
0
230
1
100
AcDbArc
50
90
51
122.241848
0
ARC
5
A2
100
AcDbEntity
8
1
62
256
6
ByLayer
370
-1
48
1
60
0
100
AcDbCircle
39
0
10
35.399994
20
3.441
30
0
40
17.941
210
0
220
0
230
1
100
AcDbArc
50
270
51
302.241848
0
ARC
5
A3
100
AcDbEntity
8
1
62
256
6
ByLayer
370
-1
48
1
60
0
100
AcDbCircle
39
0
10
-49.239366
20
18.499995
30
0
40
8
210
0
220
0
230
-1
100
AcDbArc
50
270
51
302.241848
0
ARC
5
A4
100
AcDbEntity
8
1
62
256
6
ByLayer
370
-1
48
1
60
0
100
AcDbCircle
39
0
10
-35.399994
20
-3.441
30
0
40
17.941
210
0
220
0
230
-1
100
AcDbArc
50
90
51
122.241848
0
ARC
5
A5
100
AcDbEntity
8
1
62
256
6
ByLayer
370
-1
48
1
60
0
100
AcDbCircle
39
0
10
116.176608
20
3.377933
30
1
40
0.396
210
0
220
0
230
1
100
AcDbArc
50
253
51
355
0
ARC
5
A6
100
AcDbEntity
8
1
62
256
6
ByLayer
370
-1
48
1
60
0
100
AcDbCircle
39
0
10
-115.79937
20
10.576054
30
-1
40
0.396
210
0
220
0
230
-1
100
AcDbArc
50
67
51
169
0
ARC
5
A7
100
AcDbEntity
8
1
62
256
6
ByLayer
370
-1
48
1
60
0
100
AcDbCircle
39
0
10
107.623392
20
10.14757
30
1
40
0.396
210
0
220
0
230
1
100
AcDbArc
50
73
51
175
0
ARC
5
A8
100
AcDbEntity
8
1
62
256
6
ByLayer
370
-1
48
1
60
0
100
AcDbCircle
39
0
10
-108.00063
20
2.949448
30
-1
40
0.396
210
0
220
0
230
-1
100
AcDbArc
50
247
51
349
0
ARC
5
AB
100
AcDbEntity
8
1
62
256
6
ByLayer
370
-1
48
1
60
0
100
AcDbCircle
39
0
10
116.093599
20
-7.104
30
-0.26
40
0.396
210
0
220
0
230
1
100
AcDbArc
50
250
51
352
0
ARC
5
AC
100
AcDbEntity
8
1
62
256
6
ByLayer
370
-1
48
1
60
0
100
AcDbCircle
39
0
10
-116.093599
20
0.104
30
0.26
40
0.396
210
0
220
0
230
-1
100
AcDbArc
50
70
51
172
0
ARC
5
AD
100
AcDbEntity
8
1
62
256
6
ByLayer
370
-1
48
1
60
0
100
AcDbCircle
39
0
10
107.906401
20
0.104
30
-0.26
40
0.396
210
0
220
0
230
1
100
AcDbArc
50
70
51
172
0
ARC
5
AE
100
AcDbEntity
8
1
62
256
6
ByLayer
370
-1
48
1
60
0
100
AcDbCircle
39
0
10
-107.906401
20
-7.104
30
0.26
40
0.396
210
0
220
0
230
-1
100
AcDbArc
50
250
51
352
0
CIRCLE
5
A9
100
AcDbEntity
8
1
62
256
6
ByLayer
370
-1
48
1
60
0
100
AcDbCircle
10
111.9
20
6.762751
30
1
40
1.875
39
0
210
0
220
0
230
1
0
CIRCLE
5
AA
100
AcDbEntity
8
1
62
256
6
ByLayer
370
-1
48
1
60
0
100
AcDbCircle
10
111.9
20
6.762751
30
1
40
1.3
39
0
210
0
220
0
230
1
0
CIRCLE
5
AF
100
AcDbEntity
8
1
62
256
6
ByLayer
370
-1
48
1
60
0
100
AcDbCircle
10
112
20
-3.5
30
-0.26
40
1
39
0
210
0
220
0
230
1
0
POINT
5
42
100
AcDbEntity
8
1
62
256
6
ByLayer
370
-1
48
1
60
1
100
AcDbPoint
10
116.8
20
0
30
0
39
0
210
0
220
0
230
1
50
360
0
POINT
5
44
100
AcDbEntity
8
1
62
256
6
ByLayer
370
-1
48
1
60
1
100
AcDbPoint
10
45.1509
20
-4.333203
30
7.117721
39
0
210
0
220
0
230
1
50
360
0
POINT
5
45
100
AcDbEntity
8
1
62
256
6
ByLayer
370
-1
48
1
60
1
100
AcDbPoint
10
35.4
20
-2.701785
30
15.770236
39
0
210
0
220
0
230
1
50
360
0
POINT
5
46
100
AcDbEntity
8
1
62
256
6
ByLayer
370
-1
48
1
60
0
100
AcDbPoint
10
0
20
0
30
0
39
0
210
0
220
0
230
1
50
360
0
POINT
5
47
100
AcDbEntity
8
1
62
256
6
ByLayer
370
-1
48
1
60
0
100
AcDbPoint
10
30
20
0
30
0
39
0
210
0
220
0
230
1
50
360
0
POINT
5
48
100
AcDbEntity
8
1
62
256
6
ByLayer
370
-1
48
1
60
0
100
AcDbPoint
10
111.9
20
6.762751
30
1
39
0
210
0
220
0
230
1
50
360
0
POINT
5
49
100
AcDbEntity
8
1
62
256
6
ByLayer
370
-1
48
1
60
0
100
AcDbPoint
10
112
20
-3.5
30
-0.26
39
0
210
0
220
0
230
1
50
360
0
POINT
5
4A
100
AcDbEntity
8
81
62
256
6
ByLayer
370
-1
48
1
60
0
100
AcDbPoint
10
117
20
0
30
0
39
0
210
0
220
0
230
1
50
360
0
POINT
5
4C
100
AcDbEntity
8
80
62
256
6
ByLayer
370
-1
48
1
60
0
100
AcDbPoint
10
0
20
0
30
0
39
0
210
0
220
0
230
1
50
360
0
SPLINE
5
B0
100
AcDbEntity
8
1
62
256
6
ByLayer
370
-1
48
1
60
0
100
AcDbSpline
70
4
71
3
72
29
73
25
40
0
40
0
40
0
40
0
40
0.0005000065117478
40
0.0500000174587368
40
0.100000015518877
40
0.150000013579017
40
0.200000011639158
40
0.250000009699298
40
0.300000007759439
40
0.350000005819579
40
0.400000003879719
40
0.45000000193986
40
0.5
40
0.54999999806014
40
0.599999996120281
40
0.649999994180421
40
0.699999992240561
40
0.749999990300701
40
0.799999988360842
40
0.849999986420982
40
0.899999984481123
40
0.949999982541263
40
0.999499993488252
40
1
40
1
40
1
40
1
41
1
10
98.8
20
9.62389534624686
30
4.19888537167758
41
1
10
98.7959451168959
20
9.62455394696345
30
4.19737585082517
41
1
10
98.390461912355
20
9.69037732110527
30
4.04641101451613
41
1
10
97.5794778541387
20
9.81492155785179
30
3.74137755586464
41
1
10
96.3670704394685
20
9.97956643210989
30
3.27714128363634
41
1
10
95.1506045747178
20
10.122669993532
30
2.80409595399552
41
1
10
93.9341396961499
20
10.2433639440815
30
2.3248433774244
41
1
10
92.7176745533352
20
10.3413813235101
30
1.84044398097367
41
1
10
91.5012094813251
20
10.4165050805464
30
1.35197026500352
41
1
10
90.2847443903434
20
10.4685689237793
30
0.860503567516424
41
1
10
89.0682793044434
20
10.497457590548
30
0.367131901110531
41
1
10
87.8518142171883
20
10.5031071287045
30
-0.127052517486437
41
1
10
86.635349130272
20
10.4855050310521
30
-0.620955668802092
41
1
10
85.4188840433556
20
10.4446902649894
30
-1.11348415690462
41
1
10
84.2024189561005
20
10.3807531855597
30
-1.60354762905837
41
1
10
82.9859538702005
20
10.2938353362093
30
-2.09006118872974
41
1
10
81.7694887792188
20
10.1841291329844
30
-2.57194780141474
41
1
10
80.5530237072087
20
10.0518774476037
30
-3.04814066337185
41
1
10
79.336558564394
20
9.8973730360849
30
-3.51758562156517
41
1
10
78.1200936858262
20
9.72095801643571
30
-3.97924328985571
41
1
10
76.9036278210754
20
9.52302264182249
30
-4.43209216162577
41
1
10
75.6912204064052
20
9.30473622472003
30
-4.87365109447669
41
1
10
74.8802363481893
20
9.14506036416795
30
-5.16185292889244
41
1
10
74.4747531436481
20
9.06187916500624
30
-5.30399365666342
41
1
10
74.4706982605439
20
9.06104700365415
30
-5.30541489400877
0
SPLINE
5
B1
100
AcDbEntity
8
1
62
256
6
ByLayer
370
-1
48
1
60
0
100
AcDbSpline
70
4
71
3
72
29
73
25
40
0
40
0
40
0
40
0
40
0.0005000159037652
40
0.0500000426371057
40
0.10000003789965
40
0.150000033162193
40
0.200000028424737
40
0.250000023687281
40
0.300000018949825
40
0.350000014212369
40
0.400000009474912
40
0.450000004737456
40
0.5
40
0.549999995262544
40
0.599999990525087
40
0.649999985787631
40
0.699999981050175
40
0.749999976312719
40
0.799999971575263
40
0.849999966837807
40
0.89999996210035
40
0.949999957362894
40
0.999499984096235
40
1
40
1
40
1
40
1
41
1
10
98.8
20
1.04812594618472
30
10.4475562693356
41
1
10
98.793662814722
20
1.0506870271454
30
10.4472993346767
41
1
10
98.159963775624
20
1.30677433642867
30
10.4215129185033
41
1
10
96.8924983320235
20
1.81707587220878
30
10.3510959669739
41
1
10
94.9976899856638
20
2.57022496253504
30
10.1903322220129
41
1
10
93.0965308390919
20
3.31200527101831
30
9.97394368827435
41
1
10
91.1953754567115
20
4.0358799490765
30
9.70363864190559
41
1
10
89.2942190657192
20
4.73793811264048
30
9.38087804606899
41
1
10
87.3930629449832
20
5.41438401590589
30
9.00740672992582
41
1
10
85.491906751834
20
6.06156111600215
30
8.58524357090964
41
1
10
83.5907505780812
20
6.67597088927667
30
8.116670684485
41
1
10
81.689594399156
20
7.25429199803503
30
7.60422105992898
41
1
10
79.7884382215239
20
7.79339817666794
30
7.05066487493379
41
1
10
77.8872820438918
20
8.29037514975387
30
6.45899451906919
41
1
10
75.9861258649666
20
8.74253638103321
30
5.8324084168685
41
1
10
74.0849696912138
20
9.14743759743778
30
5.17429374271082
41
1
10
72.1838134980646
20
9.50289000203536
30
4.48820809223755
41
1
10
70.2826573773286
20
9.80697210565305
30
3.77786031946304
41
1
10
68.3815009863363
20
10.0580401160878
30
3.04709023155033
41
1
10
66.4803456039559
20
10.2547368160844
30
2.29984878741282
41
1
10
64.579186457384
20
10.3959989298541
30
1.54017317321924
41
1
10
62.6843781110243
20
10.4807792316287
30
0.774738111059074
41
1
10
61.4169126674239
20
10.4999054014754
30
0.259956221217093
41
1
10
60.7832136283258
20
10.4999999996284
30
0.0025739368885402
41
1
10
60.7768764430478
20
10.5
30
1E-14
0
SPLINE
5
B2
100
AcDbEntity
8
1
62
256
6
ByLayer
370
-1
48
1
60
0
100
AcDbSpline
70
4
71
3
72
29
73
25
40
0
40
0
40
0
40
0
40
0.0005000177452813
40
0.0500000475735171
40
0.100000042287571
40
0.150000037001624
40
0.200000031715678
40
0.250000026429732
40
0.300000021143785
40
0.350000015857839
40
0.400000010571893
40
0.450000005285946
40
0.5
40
0.549999994714053
40
0.599999989428107
40
0.649999984142161
40
0.699999978856215
40
0.749999973570268
40
0.799999968284322
40
0.849999962998376
40
0.899999957712429
40
0.949999952426483
40
0.999499982254719
40
1
40
1
40
1
40
1
41
1
10
88.1645200780401
20
-10.5
30
1.23E-14
41
1
10
88.1578259936959
20
-10.4999999995374
30
0.0027188992984057
41
1
10
87.4884405291771
20
-10.4998944519772
30
0.274595387537717
41
1
10
86.1495902014623
20
-10.4785522521417
30
0.81836875979423
41
1
10
84.1480708298257
20
-10.3839685223813
30
1.62640249083161
41
1
10
82.1398413269043
20
-10.2264377977628
30
2.4273365754385
41
1
10
80.1316162605616
20
-10.0072266176684
30
3.21362818658984
41
1
10
78.1233900054415
20
-9.72765712517574
30
3.9805374413721
41
1
10
76.1151640688527
20
-9.38941554203121
30
4.72343804791981
41
1
10
74.1069380469159
20
-8.99454196123407
30
5.43784940959842
41
1
10
72.0987120478401
20
-8.54541805218385
30
6.11946252398804
41
1
10
70.090486042668
20
-8.04475269307992
30
6.76416627411653
41
1
10
68.08226003902
20
-7.49556563299902
30
7.3680721437343
41
1
10
66.0740340353721
20
-6.90116927858871
30
7.92753769243487
41
1
10
64.0658080302
20
-6.26514871387624
30
8.43918851917047
41
1
10
62.0575820311242
20
-5.59134008272125
30
8.89993861626163
41
1
10
60.0493560091873
20
-4.88380742957719
30
9.30700898271191
41
1
10
58.0411300725986
20
-4.14681826811085
30
9.65794438368795
41
1
10
56.0329038174784
20
-3.38481754029699
30
9.95062816700095
41
1
10
54.0246787511358
20
-2.60240193214908
30
10.1832950004171
41
1
10
52.0164492482144
20
-1.80428794935635
30
10.3545416282806
41
1
10
50.0149298765778
20
-0.997995583116904
30
10.4629723092413
41
1
10
48.6760795488627
20
-0.454668320729299
30
10.4936391613036
41
1
10
48.0066940843442
20
-0.18283364630329
30
10.498408414635
41
1
10
48
20
-0.180115147065301
30
10.4984550546163
0
SPLINE
5
B3
100
AcDbEntity
8
1
62
256
6
ByLayer
370
-1
48
1
60
0
100
AcDbSpline
70
4
71
3
72
29
73
25
40
0
40
0
40
0
40
0
40
0.0005000077084091
40
0.0500000206669553
40
0.100000018370627
40
0.150000016074299
40
0.20000001377797
40
0.250000011481642
40
0.300000009185313
40
0.350000006888985
40
0.400000004592657
40
0.450000002296328
40
0.5
40
0.549999997703671
40
0.599999995407343
40
0.649999993111015
40
0.699999990814686
40
0.749999988518358
40
0.79999998622203
40
0.849999983925701
40
0.899999981629373
40
0.949999979333044
40
0.999499992291591
40
1
40
1
40
1
40
1
41
1
10
74.4706982605439
20
-9.06104700365415
30
-5.30541489400877
41
1
10
74.4662864781691
20
-9.06195241007724
30
-5.3038685623387
41
1
10
74.0251148168397
20
-9.15245154105998
30
-5.14921554918154
41
1
10
73.1427487628188
20
-9.32553438111999
30
-4.83526809158263
41
1
10
71.823629224542
20
-9.5600563456587
30
-4.35335391084232
41
1
10
70.5000933097684
20
-9.77031113808566
30
-3.85841792998391
41
1
10
69.1765586651584
20
-9.95496204288809
30
-3.3533712837555
41
1
10
67.853023680209
20
-10.1135255487115
30
-2.83953682215495
41
1
10
66.5294887864532
20
-10.2455860312721
30
-2.31826124841302
41
1
10
65.2059538682627
20
-10.3507974464068
30
-1.79091054469307
41
1
10
63.8824189566173
20
-10.4288840750875
30
-1.25886667252388
41
1
10
62.5588840432264
20
-10.479641289318
30
-0.723523876265815
41
1
10
61.235349130272
20
-10.5029360767393
30
-0.186285049502463
41
1
10
59.9118142173175
20
-10.4987073923641
30
0.351441946594558
41
1
10
58.5882793039267
20
-10.4669663175046
30
0.888247971587401
41
1
10
57.2647443922812
20
-10.4077960317395
30
1.42272629740985
41
1
10
55.9412094740907
20
-10.3213515919576
30
1.95347630016008
41
1
10
54.6176745803349
20
-10.2078595369367
30
2.47910711002689
41
1
10
53.2941395953856
20
-10.0676172530145
30
2.9982413326588
41
1
10
51.9706049507755
20
-9.90099234655136
30
3.50951837307532
41
1
10
50.647069036002
20
-9.70842111415788
30
4.01159906712882
41
1
10
49.3279494977252
20
-9.4911361965425
30
4.50152670875213
41
1
10
48.4455834437042
20
-9.32929535925994
30
4.82141453134587
41
1
10
48.0044117823748
20
-9.2443374222014
30
4.97917953417591
41
1
10
48
20
-9.24348742094085
30
4.9807570005882
0
SPLINE
5
B4
100
AcDbEntity
8
1
62
256
6
ByLayer
370
-1
48
1
60
0
100
AcDbSpline
70
4
71
3
72
9
73
5
40
0
40
0
40
0
40
0
40
0.562142096702034
40
1
40
1
40
1
40
1
41
1
10
48
20
-9.24348742094085
30
4.9807570005882
41
1
10
38.4078470015834
20
-6.44376403763327
30
11.8672120212105
41
1
10
30.9364264752779
20
-2.56473144843126
30
18.2650484026932
41
1
10
40.5285794736945
20
-0.645029709371164
30
14.2517361844336
41
1
10
48
20
-0.180115147065301
30
10.4984550546163
0
SPLINE
5
B5
100
AcDbEntity
8
1
62
256
6
ByLayer
370
-1
48
1
60
0
100
AcDbSpline
70
4
71
3
72
16
73
12
40
0
40
0
40
0
40
0
40
0.0463470189311361
40
0.0463470189311361
40
0.292714190516279
40
0.292714190516279
40
0.624961574752601
40
0.624961574752601
40
0.880903213804346
40
0.880903213804346
40
1
40
1
40
1
40
1
41
1
10
9.33660254037845
20
6.1698063921468
30
19.0245496420658
41
1
10
9.41120970705357
20
6.4402689496347
30
18.9368365740867
41
1
10
9.48289389445297
20
6.70966326688875
30
18.8430756135634
41
1
10
9.91644779893528
20
8.4014429398824
30
18.2132817825428
41
1
10
10.1968857470654
20
9.79592967066933
30
17.5057124532486
41
1
10
10.6104994244177
20
12.8306959686099
30
15.4840886154574
41
1
10
10.6603659269754
20
14.4297824024
30
14.0071576081823
41
1
10
10.4040057931725
20
16.7286941568393
30
11.0802943355344
41
1
10
10.1767842109767
20
17.5747161700864
30
9.67771638760926
41
1
10
9.70100248234614
20
18.5335352447912
30
7.5534748488203
41
1
10
9.52830884327845
20
18.7991995076926
30
6.86473914991821
41
1
10
9.33659112649157
20
19.0245904583064
30
6.16973761852513
0
SPLINE
5
B6
100
AcDbEntity
8
1
62
256
6
ByLayer
370
-1
48
1
60
0
100
AcDbSpline
70
4
71
3
72
16
73
12
40
0
40
0
40
0
40
0
40
0.0463492595373783
40
0.0463492595373783
40
0.29272440709006
40
0.29272440709006
40
0.624973152517318
40
0.624973152517318
40
0.880915511168991
40
0.880915511168991
40
1
40
1
40
1
40
1
41
1
10
6.66339745962155
20
6.16980639336087
30
19.024549641672
41
1
10
6.73800822761631
20
5.89933078050227
30
19.1122669436263
41
1
10
6.51709918401399
20
6.70968927922732
30
18.8430665597784
41
1
10
6.08353203432038
20
8.40152698944123
30
18.2132471355468
41
1
10
5.80308950801756
20
9.79605700675114
30
17.5056457299704
41
1
10
5.38948896335545
20
12.830854303
30
15.4839587254809
41
1
10
5.33963545766467
20
14.429932300597
30
14.0070043182712
41
1
10
5.59601990931222
20
16.7288187252401
30
11.0801068091082
41
1
10
5.8232523467298
20
17.5748263953976
30
9.67751661405653
41
1
10
6.29903323852959
20
18.5335902214347
30
7.55333237374364
41
1
10
6.47171096722612
20
18.7992227994875
30
6.86466733249556
41
1
10
6.66340887413668
20
19.024590460553
30
6.16973761473966
0
SPLINE
5
B7
100
AcDbEntity
8
1
62
256
6
ByLayer
370
-1
48
1
60
0
100
AcDbSpline
70
4
71
3
72
12
73
8
40
0
40
0
40
0
40
0
40
0.48557129858128
40
0.48557129858128
40
0.936402085205193
40
0.936402085205193
40
1
40
1
40
1
40
1
41
1
10
9.33660254037845
20
6.16980639330488
30
19.0245496416902
41
1
10
9.35456651699916
20
6.23492859639202
30
19.0034300150751
41
1
10
9.29375666287366
20
6.03987724384563
30
19.0662952264127
41
1
10
9.22189536050024
20
5.92914516396304
30
19.101007006467
41
1
10
9.16894029016483
20
5.87474700467883
30
19.1177302439758
41
1
10
9.09537819879925
20
5.86084605005278
30
19.1219922204584
41
1
10
9.0860652092108
20
5.85996421168224
30
19.1222597889947
41
1
10
9.07679491924311
20
5.85996421168224
30
19.1222597889947
0
SPLINE
5
B8
100
AcDbEntity
8
1
62
256
6
ByLayer
370
-1
48
1
60
0
100
AcDbSpline
70
4
71
3
72
12
73
8
40
0
40
0
40
0
40
0
40
0.485571298590738
40
0.485571298590738
40
0.936402085205416
40
0.936402085205416
40
1
40
1
40
1
40
1
41
1
10
9.33660254037845
20
19.024549641672
30
6.1698063933609
41
1
10
9.31863856375527
20
19.0456692682904
30
6.10468419026449
41
1
10
9.29375666288881
20
19.0662952264032
30
6.03987724387556
41
1
10
9.22189536051243
20
19.1010070064631
30
5.92914516397584
41
1
10
9.16894029017443
20
19.1177302439747
30
5.87474700468218
41
1
10
9.09537819880148
20
19.1219922204584
30
5.86084605005308
41
1
10
9.08606520921191
20
19.1222597889947
30
5.85996421168232
41
1
10
9.07679491924311
20
19.1222597889947
30
5.85996421168232
0
SPLINE
5
B9
100
AcDbEntity
8
1
62
256
6
ByLayer
370
-1
48
1
60
0
100
AcDbSpline
70
4
71
3
72
9
73
5
40
0
40
0
40
0
40
0
40
0.505050505050505
40
1
40
1
40
1
40
1
41
1
10
9.07679491924311
20
5.85996421168224
30
19.1222597889947
41
1
10
8.71423770737674
20
5.85996421168224
30
19.1222597889947
41
1
10
7.99637442788135
20
5.85996421157611
30
19.1222597890272
41
1
10
7.27851114838593
20
5.85996421168224
30
19.1222597889947
41
1
10
6.92320508075689
20
5.85996421168224
30
19.1222597889947
0
SPLINE
5
BA
100
AcDbEntity
8
1
62
256
6
ByLayer
370
-1
48
1
60
0
100
AcDbSpline
70
4
71
3
72
9
73
5
40
0
40
0
40
0
40
0
40
0.494949494949495
40
1
40
1
40
1
40
1
41
1
10
6.92320508075689
20
19.1222597889947
30
5.85996421168232
41
1
10
7.27851114838593
20
19.1222597889947
30
5.85996421168232
41
1
10
7.99637442788135
20
19.1222597901563
30
5.85996420789166
41
1
10
8.71423770737674
20
19.1222597889947
30
5.85996421168232
41
1
10
9.07679491924311
20
19.1222597889947
30
5.85996421168232
0
SPLINE
5
BB
100
AcDbEntity
8
1
62
256
6
ByLayer
370
-1
48
1
60
0
100
AcDbSpline
70
4
71
3
72
12
73
8
40
0
40
0
40
0
40
0
40
0.485571298590726
40
0.485571298590726
40
0.936402085205378
40
0.936402085205378
40
1
40
1
40
1
40
1
41
1
10
6.66339745962155
20
6.16980639336087
30
19.024549641672
41
1
10
6.68136143624474
20
6.10468419026446
30
19.0456692682904
41
1
10
6.70624333711118
20
6.03987724387551
30
19.0662952264033
41
1
10
6.77810463948755
20
5.92914516397578
30
19.1010070064631
41
1
10
6.83105970982554
20
5.87474700468211
30
19.1177302439747
41
1
10
6.9046218011985
20
5.860846050053
30
19.1219922204584
41
1
10
6.91393479078809
20
5.85996421168224
30
19.1222597889947
41
1
10
6.92320508075689
20
5.85996421168224
30
19.1222597889947
0
SPLINE
5
BC
100
AcDbEntity
8
1
62
256
6
ByLayer
370
-1
48
1
60
0
100
AcDbSpline
70
4
71
3
72
12
73
8
40
0
40
0
40
0
40
0
40
0.485571298585116
40
0.485571298585116
40
0.936402085205247
40
0.936402085205247
40
1
40
1
40
1
40
1
41
1
10
6.66339745962156
20
19.0245496416828
30
6.16980639332778
41
1
10
6.64543348299985
20
19.0034300150663
30
6.2349285964187
41
1
10
6.70624333712016
20
19.0662952264088
30
6.03987724385789
41
1
10
6.7781046394948
20
19.1010070064654
30
5.92914516396832
41
1
10
6.83105970983124
20
19.1177302439753
30
5.87474700468025
41
1
10
6.90462180119982
20
19.1219922204584
30
5.86084605005295
41
1
10
6.91393479078874
20
19.1222597889947
30
5.85996421168232
41
1
10
6.92320508075689
20
19.1222597889947
30
5.85996421168232
0
SPLINE
5
BD
100
AcDbEntity
8
1
62
256
6
ByLayer
370
-1
48
1
60
0
100
AcDbSpline
70
4
71
3
72
16
73
12
40
0
40
0
40
0
40
0
40
0.0463470189311361
40
0.0463470189311361
40
0.292714190516279
40
0.292714190516279
40
0.624961574752601
40
0.624961574752601
40
0.880903213804346
40
0.880903213804346
40
1
40
1
40
1
40
1
41
1
10
9.33660254037845
20
-6.1698063921468
30
19.0245496420658
41
1
10
9.41120970705357
20
-6.44026894963469
30
18.9368365740867
41
1
10
9.48289389445297
20
-6.70966326688875
30
18.8430756135634
41
1
10
9.91644779893527
20
-8.4014429398824
30
18.2132817825428
41
1
10
10.1968857470654
20
-9.79592967066934
30
17.5057124532486
41
1
10
10.6104994244177
20
-12.8306959686099
30
15.4840886154574
41
1
10
10.6603659269754
20
-14.4297824024
30
14.0071576081823
41
1
10
10.4040057931725
20
-16.7286941568393
30
11.0802943355344
41
1
10
10.1767842109767
20
-17.5747161700864
30
9.67771638760926
41
1
10
9.70100248234614
20
-18.5335352447912
30
7.5534748488203
41
1
10
9.52830884327845
20
-18.7991995076926
30
6.86473914991821
41
1
10
9.33659112649157
20
-19.0245904583064
30
6.16973761852513
0
SPLINE
5
BE
100
AcDbEntity
8
1
62
256
6
ByLayer
370
-1
48
1
60
0
100
AcDbSpline
70
4
71
3
72
16
73
12
40
0
40
0
40
0
40
0
40
0.0463492595373783
40
0.0463492595373783
40
0.29272440709006
40
0.29272440709006
40
0.624973152517318
40
0.624973152517318
40
0.880915511168991
40
0.880915511168991
40
1
40
1
40
1
40
1
41
1
10
6.66339745962156
20
-6.16980639336087
30
19.024549641672
41
1
10
6.73800822761631
20
-5.89933078050227
30
19.1122669436263
41
1
10
6.51709918401399
20
-6.70968927922732
30
18.8430665597784
41
1
10
6.08353203432037
20
-8.40152698944124
30
18.2132471355468
41
1
10
5.80308950801756
20
-9.79605700675114
30
17.5056457299704
41
1
10
5.38948896335545
20
-12.830854303
30
15.4839587254809
41
1
10
5.33963545766466
20
-14.429932300597
30
14.0070043182712
41
1
10
5.59601990931222
20
-16.7288187252401
30
11.0801068091082
41
1
10
5.8232523467298
20
-17.5748263953976
30
9.67751661405653
41
1
10
6.29903323852959
20
-18.5335902214347
30
7.55333237374364
41
1
10
6.47171096722612
20
-18.7992227994875
30
6.86466733249556
41
1
10
6.66340887413668
20
-19.024590460553
30
6.16973761473966
0
SPLINE
5
BF
100
AcDbEntity
8
1
62
256
6
ByLayer
370
-1
48
1
60
0
100
AcDbSpline
70
4
71
3
72
12
73
8
40
0
40
0
40
0
40
0
40
0.48557129858128
40
0.48557129858128
40
0.936402085205193
40
0.936402085205193
40
1
40
1
40
1
40
1
41
1
10
9.33660254037845
20
-6.16980639330488
30
19.0245496416902
41
1
10
9.35456651699916
20
-6.23492859639202
30
19.0034300150751
41
1
10
9.29375666287366
20
-6.03987724384563
30
19.0662952264127
41
1
10
9.22189536050024
20
-5.92914516396304
30
19.101007006467
41
1
10
9.16894029016483
20
-5.87474700467883
30
19.1177302439758
41
1
10
9.09537819879925
20
-5.86084605005278
30
19.1219922204584
41
1
10
9.0860652092108
20
-5.85996421168224
30
19.1222597889947
41
1
10
9.07679491924311
20
-5.85996421168224
30
19.1222597889947
0
SPLINE
5
C0
100
AcDbEntity
8
1
62
256
6
ByLayer
370
-1
48
1
60
0
100
AcDbSpline
70
4
71
3
72
12
73
8
40
0
40
0
40
0
40
0
40
0.485571298590738
40
0.485571298590738
40
0.936402085205416
40
0.936402085205416
40
1
40
1
40
1
40
1
41
1
10
9.33660254037845
20
-19.024549641672
30
6.1698063933609
41
1
10
9.31863856375527
20
-19.0456692682904
30
6.10468419026449
41
1
10
9.29375666288881
20
-19.0662952264032
30
6.03987724387556
41
1
10
9.22189536051243
20
-19.1010070064631
30
5.92914516397584
41
1
10
9.16894029017443
20
-19.1177302439747
30
5.87474700468218
41
1
10
9.09537819880148
20
-19.1219922204584
30
5.86084605005308
41
1
10
9.08606520921191
20
-19.1222597889947
30
5.85996421168232
41
1
10
9.07679491924311
20
-19.1222597889947
30
5.85996421168232
0
SPLINE
5
C1
100
AcDbEntity
8
1
62
256
6
ByLayer
370
-1
48
1
60
0
100
AcDbSpline
70
4
71
3
72
9
73
5
40
0
40
0
40
0
40
0
40
0.505050505050505
40
1
40
1
40
1
40
1
41
1
10
9.07679491924311
20
-5.85996421168224
30
19.1222597889947
41
1
10
8.71423770737674
20
-5.85996421168224
30
19.1222597889947
41
1
10
7.99637442788135
20
-5.8599642115761
30
19.1222597890272
41
1
10
7.27851114838593
20
-5.85996421168224
30
19.1222597889947
41
1
10
6.92320508075689
20
-5.85996421168224
30
19.1222597889947
0
SPLINE
5
C2
100
AcDbEntity
8
1
62
256
6
ByLayer
370
-1
48
1
60
0
100
AcDbSpline
70
4
71
3
72
9
73
5
40
0
40
0
40
0
40
0
40
0.494949494949495
40
1
40
1
40
1
40
1
41
1
10
6.92320508075689
20
-19.1222597889947
30
5.85996421168232
41
1
10
7.27851114838593
20
-19.1222597889947
30
5.85996421168232
41
1
10
7.99637442788135
20
-19.1222597901563
30
5.85996420789166
41
1
10
8.71423770737674
20
-19.1222597889947
30
5.85996421168232
41
1
10
9.07679491924311
20
-19.1222597889947
30
5.85996421168232
0
SPLINE
5
C3
100
AcDbEntity
8
1
62
256
6
ByLayer
370
-1
48
1
60
0
100
AcDbSpline
70
4
71
3
72
12
73
8
40
0
40
0
40
0
40
0
40
0.485571298590726
40
0.485571298590726
40
0.936402085205378
40
0.936402085205378
40
1
40
1
40
1
40
1
41
1
10
6.66339745962156
20
-6.16980639336087
30
19.024549641672
41
1
10
6.68136143624474
20
-6.10468419026446
30
19.0456692682904
41
1
10
6.70624333711118
20
-6.03987724387551
30
19.0662952264033
41
1
10
6.77810463948755
20
-5.92914516397578
30
19.1010070064631
41
1
10
6.83105970982554
20
-5.87474700468211
30
19.1177302439747
41
1
10
6.9046218011985
20
-5.860846050053
30
19.1219922204584
41
1
10
6.91393479078808
20
-5.85996421168224
30
19.1222597889947
41
1
10
6.92320508075689
20
-5.85996421168224
30
19.1222597889947
0
SPLINE
5
C4
100
AcDbEntity
8
1
62
256
6
ByLayer
370
-1
48
1
60
0
100
AcDbSpline
70
4
71
3
72
12
73
8
40
0
40
0
40
0
40
0
40
0.485571298585116
40
0.485571298585116
40
0.936402085205247
40
0.936402085205247
40
1
40
1
40
1
40
1
41
1
10
6.66339745962156
20
-19.0245496416828
30
6.16980639332778
41
1
10
6.64543348299985
20
-19.0034300150663
30
6.2349285964187
41
1
10
6.70624333712016
20
-19.0662952264088
30
6.03987724385789
41
1
10
6.7781046394948
20
-19.1010070064654
30
5.92914516396832
41
1
10
6.83105970983125
20
-19.1177302439753
30
5.87474700468025
41
1
10
6.90462180119982
20
-19.1219922204584
30
5.86084605005295
41
1
10
6.91393479078874
20
-19.1222597889947
30
5.85996421168232
41
1
10
6.92320508075689
20
-19.1222597889947
30
5.85996421168232
0
SPLINE
5
C5
100
AcDbEntity
8
1
62
256
6
ByLayer
370
-1
48
1
60
0
100
AcDbSpline
70
4
71
3
72
9
73
5
40
0
40
0
40
0
40
0
40
0.260048655175891
40
1
40
1
40
1
40
1
41
1
10
115.572549396148
20
-2.44604764093902
30
0
41
1
10
115.483459971891
20
-3.14310153406039
30
0
41
1
10
115.248853798358
20
-5.82466236809954
30
0
41
1
10
115.42948279662
20
-8.51039908794
30
0
41
1
10
115.790492346914
20
-10.5
30
0
0
LINE
5
4E
100
AcDbEntity
8
SK4
62
256
6
ByLayer
370
-1
48
0.05
60
0
100
AcDbLine
10
118.8
20
0
30
0
11
-26.2
21
0
31
0
39
0
210
0
220
0
230
1
0
LINE
5
50
100
AcDbEntity
8
4
62
256
6
ByLayer
370
-1
48
0.05
60
0
100
AcDbLine
10
118.8
20
0
30
0
11
-2.2
21
0
31
0
39
0
210
0
220
0
230
1
0
LINE
5
52
100
AcDbEntity
8
1
62
256
6
ByLayer
370
-1
48
1
60
0
100
AcDbLine
10
98.8
20
10.5
30
0
11
88.16452
21
10.5
31
0
39
0
210
0
220
0
230
1
0
LINE
5
53
100
AcDbEntity
8
1
62
256
6
ByLayer
370
-1
48
1
60
0
100
AcDbLine
10
98.8
20
-10.5
30
0
11
88.16452
21
-10.5
31
0
39
0
210
0
220
0
230
1
0
LINE
5
54
100
AcDbEntity
8
1
62
256
6
ByLayer
370
-1
48
1
60
0
100
AcDbLine
10
60.776876
20
10.5
30
0
11
48
21
10.5
31
0
39
0
210
0
220
0
230
1
0
LINE
5
55
100
AcDbEntity
8
1
62
256
6
ByLayer
370
-1
48
1
60
0
100
AcDbLine
10
60.776876
20
-10.5
30
0
11
48
21
-10.5
31
0
39
0
210
0
220
0
230
1
0
LINE
5
56
100
AcDbEntity
8
1
62
256
6
ByLayer
370
-1
48
1
60
0
100
AcDbLine
10
48
20
-10.499995
30
0
11
48
21
-9.243487
31
4.980757
39
0
210
0
220
0
230
1
0
LINE
5
57
100
AcDbEntity
8
1
62
256
6
ByLayer
370
-1
48
1
60
0
100
AcDbLine
10
48
20
-0.180115
30
10.498455
11
48
21
10.499995
31
0
39
0
210
0
220
0
230
1
0
LINE
5
58
100
AcDbEntity
8
1
62
256
6
ByLayer
370
-1
48
1
60
0
100
AcDbLine
10
35.4
20
14.5
30
0
11
35.4
21
-14.5
31
0
39
0
210
0
220
0
230
1
0
LINE
5
59
100
AcDbEntity
8
1
62
256
6
ByLayer
370
-1
48
1
60
0
100
AcDbLine
10
34.9981
20
16
30
0
11
34.9981
21
-16
31
0
39
0
210
0
220
0
230
1
0
LINE
5
5A
100
AcDbEntity
8
1
62
256
6
ByLayer
370
-1
48
1
60
0
100
AcDbLine
10
30.2
20
-16
30
0
11
30
21
-15.8
31
0
39
0
210
0
220
0
230
1
0
LINE
5
5B
100
AcDbEntity
8
1
62
256
6
ByLayer
370
-1
48
1
60
0
100
AcDbLine
10
30.2
20
-16
30
0
11
30.2
21
16
31
0
39
0
210
0
220
0
230
1
0
LINE
5
5C
100
AcDbEntity
8
1
62
256
6
ByLayer
370
-1
48
1
60
0
100
AcDbLine
10
30
20
-15.8
30
0
11
30
21
15.8
31
0
39
0
210
0
220
0
230
1
0
LINE
5
5D
100
AcDbEntity
8
1
62
256
6
ByLayer
370
-1
48
1
60
0
100
AcDbLine
10
30.2
20
16
30
0
11
30
21
15.8
31
0
39
0
210
0
220
0
230
1
0
LINE
5
5E
100
AcDbEntity
8
1
62
256
6
ByLayer
370
-1
48
1
60
0
100
AcDbLine
10
30.2
20
-16
30
0
11
34.9981
21
-16
31
0
39
0
210
0
220
0
230
1
0
LINE
5
5F
100
AcDbEntity
8
1
62
256
6
ByLayer
370
-1
48
1
60
0
100
AcDbLine
10
30.2
20
16
30
0
11
34.9981
21
16
31
0
39
0
210
0
220
0
230
1
0
LINE
5
60
100
AcDbEntity
8
1
62
256
6
ByLayer
370
-1
48
1
60
0
100
AcDbLine
10
34.9981
20
-16
30
0
11
35.4
21
-14.5
31
0
39
0
210
0
220
0
230
1
0
LINE
5
61
100
AcDbEntity
8
1
62
256
6
ByLayer
370
-1
48
1
60
0
100
AcDbLine
10
34.9981
20
16
30
0
11
35.4
21
14.5
31
0
39
0
210
0
220
0
230
1
0
LINE
5
62
100
AcDbEntity
8
1
62
256
6
ByLayer
370
-1
48
1
60
0
100
AcDbLine
10
115.790492
20
-10.5
30
0
11
116.774278
21
-3.5
31
0
39
0
210
0
220
0
230
1
0
LINE
5
63
100
AcDbEntity
8
1
62
256
6
ByLayer
370
-1
48
1
60
0
100
AcDbLine
10
116.774278
20
-3.5
30
0
11
116.282385
21
0
31
0
39
0
210
0
220
0
230
1
0
LINE
5
64
100
AcDbEntity
8
1
62
256
6
ByLayer
370
-1
48
1
60
0
100
AcDbLine
10
29.711325
20
-20
30
0
11
0
21
-20
31
0
39
0
210
0
220
0
230
1
0
LINE
5
65
100
AcDbEntity
8
1
62
256
6
ByLayer
370
-1
48
1
60
0
100
AcDbLine
10
0
20
-20
30
0
11
0
21
20
31
0
39
0
210
0
220
0
230
1
0
LINE
5
66
100
AcDbEntity
8
SK1
62
256
6
ByLayer
370
-1
48
1
60
0
100
AcDbLine
10
-24
20
-13.173775
30
0
11
-24
21
13.173775
31
0
39
0
210
0
220
0
230
1
0
LINE
5
68
100
AcDbEntity
8
SK1
62
256
6
ByLayer
370
-1
48
1
60
0
100
AcDbLine
10
-1.6
20
-14.0625
30
0
11
-1.6
21
14.0625
31
0
39
0
210
0
220
0
230
1
0
LINE
5
69
100
AcDbEntity
8
SK1
62
256
6
ByLayer
370
-1
48
1
60
0
100
AcDbLine
10
0
20
-13.912453
30
0
11
-1.6
21
-13.87245
31
0
39
0
210
0
220
0
230
1
0
LINE
5
6A
100
AcDbEntity
8
SK1
62
256
6
ByLayer
370
-1
48
1
60
0
100
AcDbLine
10
-1.6
20
13.87245
30
0
11
0.003749
21
13.912547
31
0
39
0
210
0
220
0
230
1
0
LINE
5
6B
100
AcDbEntity
8
1
62
256
6
ByLayer
370
-1
48
1
60
0
100
AcDbLine
10
6.663397
20
6.169806
30
19.02455
11
6.663409
21
19.02459
31
6.169738
39
0
210
0
220
0
230
1
0
LINE
5
6C
100
AcDbEntity
8
1
62
256
6
ByLayer
370
-1
48
1
60
0
100
AcDbLine
10
6.923205
20
5.859964
30
19.12226
11
6.923205
21
19.12226
31
5.859964
39
0
210
0
220
0
230
1
0
LINE
5
6D
100
AcDbEntity
8
1
62
256
6
ByLayer
370
-1
48
1
60
0
100
AcDbLine
10
9.076795
20
5.859964
30
19.12226
11
9.076795
21
19.12226
31
5.859964
39
0
210
0
220
0
230
1
0
LINE
5
6E
100
AcDbEntity
8
1
62
256
6
ByLayer
370
-1
48
1
60
0
100
AcDbLine
10
9.336603
20
6.169806
30
19.02455
11
9.336591
21
19.02459
31
6.169738
39
0
210
0
220
0
230
1
0
LINE
5
6F
100
AcDbEntity
8
1
62
256
6
ByLayer
370
-1
48
1
60
0
100
AcDbLine
10
6.663397
20
-6.169806
30
19.02455
11
6.663409
21
-19.02459
31
6.169738
39
0
210
0
220
0
230
1
0
LINE
5
70
100
AcDbEntity
8
1
62
256
6
ByLayer
370
-1
48
1
60
0
100
AcDbLine
10
6.923205
20
-5.859964
30
19.12226
11
6.923205
21
-19.12226
31
5.859964
39
0
210
0
220
0
230
1
0
LINE
5
71
100
AcDbEntity
8
1
62
256
6
ByLayer
370
-1
48
1
60
0
100
AcDbLine
10
9.076795
20
-5.859964
30
19.12226
11
9.076795
21
-19.12226
31
5.859964
39
0
210
0
220
0
230
1
0
LINE
5
72
100
AcDbEntity
8
1
62
256
6
ByLayer
370
-1
48
1
60
0
100
AcDbLine
10
9.336603
20
-6.169806
30
19.02455
11
9.336591
21
-19.02459
31
6.169738
39
0
210
0
220
0
230
1
0
LINE
5
73
100
AcDbEntity
8
SK1
62
256
6
ByLayer
370
-1
48
1
60
0
100
AcDbLine
10
-23.5
20
-13.46245
30
0
11
-23.5
21
13.46245
31
0
39
0
210
0
220
0
230
1
0
LINE
5
74
100
AcDbEntity
8
1
62
256
6
ByLayer
370
-1
48
1
60
0
100
AcDbLine
10
29.711325
20
20
30
0
11
0
21
20
31
0
39
0
210
0
220
0
230
1
0
LINE
5
75
100
AcDbEntity
8
SK1
62
256
6
ByLayer
370
-1
48
1
60
0
100
AcDbLine
10
-1.6
20
-14.0625
30
0
11
-23.5
21
-13.46245
31
0
39
0
210
0
220
0
230
1
0
LINE
5
76
100
AcDbEntity
8
SK1
62
256
6
ByLayer
370
-1
48
1
60
0
100
AcDbLine
10
-1.6
20
14.0625
30
0
11
-23.5
21
13.46245
31
0
39
0
210
0
220
0
230
1
0
LINE
5
77
100
AcDbEntity
8
SK1
62
256
6
ByLayer
370
-1
48
1
60
0
100
AcDbLine
10
-24
20
-13.173775
30
0
11
-23.5
21
-13.46245
31
0
39
0
210
0
220
0
230
1
0
LINE
5
78
100
AcDbEntity
8
SK1
62
256
6
ByLayer
370
-1
48
1
60
0
100
AcDbLine
10
-24
20
13.173775
30
0
11
-23.5
21
13.46245
31
0
39
0
210
0
220
0
230
1
0
LINE
5
79
100
AcDbEntity
8
1
62
256
6
ByLayer
370
-1
48
1
60
0
100
AcDbLine
10
30
20
-19.5
30
0
11
30
21
19.5
31
0
39
0
210
0
220
0
230
1
0
LINE
5
7A
100
AcDbEntity
8
1
62
256
6
ByLayer
370
-1
48
1
60
0
100
AcDbLine
10
29.711325
20
20
30
0
11
30
21
19.5
31
0
39
0
210
0
220
0
230
1
0
LINE
5
7B
100
AcDbEntity
8
1
62
256
6
ByLayer
370
-1
48
1
60
0
100
AcDbLine
10
29.711325
20
-20
30
0
11
30
21
-19.5
31
0
39
0
210
0
220
0
230
1
0
LINE
5
7C
100
AcDbEntity
8
1
62
256
6
ByLayer
370
-1
48
1
60
0
100
AcDbLine
10
29.711325
20
-20
30
0
11
29.711325
21
20
31
0
39
0
210
0
220
0
230
1
0
LINE
5
7D
100
AcDbEntity
8
1
62
256
6
ByLayer
370
-1
48
1
60
0
100
AcDbLine
10
116.060829
20
2.999236
30
1
11
115.288789
21
3.235272
31
1
39
0
210
0
220
0
230
1
0
LINE
5
7E
100
AcDbEntity
8
1
62
256
6
ByLayer
370
-1
48
1
60
0
100
AcDbLine
10
116.571101
20
3.343419
30
1
11
116.893148
21
7.024431
31
1
39
0
210
0
220
0
230
1
0
LINE
5
7F
100
AcDbEntity
8
1
62
256
6
ByLayer
370
-1
48
1
60
0
100
AcDbLine
10
115.644641
20
10.940574
30
1
11
114.901503
21
10.625131
31
1
39
0
210
0
220
0
230
1
0
LINE
5
80
100
AcDbEntity
8
1
62
256
6
ByLayer
370
-1
48
1
60
0
100
AcDbLine
10
116.188095
20
10.651615
30
1
11
116.893148
21
7.024431
31
1
39
0
210
0
220
0
230
1
0
LINE
5
81
100
AcDbEntity
8
1
62
256
6
ByLayer
370
-1
48
1
60
0
100
AcDbLine
10
107.739171
20
10.526266
30
1
11
108.511211
21
10.29023
31
1
39
0
210
0
220
0
230
1
0
LINE
5
82
100
AcDbEntity
8
1
62
256
6
ByLayer
370
-1
48
1
60
0
100
AcDbLine
10
107.228899
20
10.182083
30
1
11
106.906852
21
6.501071
31
1
39
0
210
0
220
0
230
1
0
LINE
5
83
100
AcDbEntity
8
1
62
256
6
ByLayer
370
-1
48
1
60
0
100
AcDbLine
10
108.155359
20
2.584928
30
1
11
108.898497
21
2.900371
31
1
39
0
210
0
220
0
230
1
0
LINE
5
84
100
AcDbEntity
8
1
62
256
6
ByLayer
370
-1
48
1
60
0
100
AcDbLine
10
107.611905
20
2.873888
30
1
11
106.906852
21
6.501071
31
1
39
0
210
0
220
0
230
1
0
LINE
5
85
100
AcDbEntity
8
1
62
256
6
ByLayer
370
-1
48
1
60
0
100
AcDbLine
10
115.288789
20
3.235272
30
1
11
108.898497
21
2.900371
31
1
39
0
210
0
220
0
230
1
0
LINE
5
86
100
AcDbEntity
8
1
62
256
6
ByLayer
370
-1
48
1
60
0
100
AcDbLine
10
114.901503
20
10.625131
30
1
11
108.511211
21
10.29023
31
1
39
0
210
0
220
0
230
1
0
LINE
5
87
100
AcDbEntity
8
1
62
256
6
ByLayer
370
-1
48
1
60
0
100
AcDbLine
10
115.958159
20
-7.476118
30
-0.26
11
115.19953
21
-7.2
31
-0.26
39
0
210
0
220
0
230
1
0
LINE
5
88
100
AcDbEntity
8
1
62
256
6
ByLayer
370
-1
48
1
60
0
100
AcDbLine
10
116.485745
20
-7.159113
30
-0.26
11
117
21
-3.5
31
-0.26
39
0
210
0
220
0
230
1
0
LINE
5
89
100
AcDbEntity
8
1
62
256
6
ByLayer
370
-1
48
1
60
0
100
AcDbLine
10
115.958159
20
0.476118
30
-0.26
11
115.19953
21
0.2
31
-0.26
39
0
210
0
220
0
230
1
0
LINE
5
8A
100
AcDbEntity
8
1
62
256
6
ByLayer
370
-1
48
1
60
0
100
AcDbLine
10
116.485745
20
0.159113
30
-0.26
11
117
21
-3.5
31
-0.26
39
0
210
0
220
0
230
1
0
LINE
5
8B
100
AcDbEntity
8
1
62
256
6
ByLayer
370
-1
48
1
60
0
100
AcDbLine
10
108.041841
20
0.476118
30
-0.26
11
108.80047
21
0.2
31
-0.26
39
0
210
0
220
0
230
1
0
LINE
5
8C
100
AcDbEntity
8
1
62
256
6
ByLayer
370
-1
48
1
60
0
100
AcDbLine
10
107.514255
20
0.159113
30
-0.26
11
107
21
-3.5
31
-0.26
39
0
210
0
220
0
230
1
0
LINE
5
8D
100
AcDbEntity
8
1
62
256
6
ByLayer
370
-1
48
1
60
0
100
AcDbLine
10
108.041841
20
-7.476118
30
-0.26
11
108.80047
21
-7.2
31
-0.26
39
0
210
0
220
0
230
1
0
LINE
5
8E
100
AcDbEntity
8
1
62
256
6
ByLayer
370
-1
48
1
60
0
100
AcDbLine
10
107.514255
20
-7.159113
30
-0.26
11
107
21
-3.5
31
-0.26
39
0
210
0
220
0
230
1
0
LINE
5
8F
100
AcDbEntity
8
1
62
256
6
ByLayer
370
-1
48
1
60
0
100
AcDbLine
10
115.19953
20
-7.2
30
-0.26
11
108.80047
21
-7.2
31
-0.26
39
0
210
0
220
0
230
1
0
LINE
5
90
100
AcDbEntity
8
1
62
256
6
ByLayer
370
-1
48
1
60
0
100
AcDbLine
10
115.19953
20
0.2
30
-0.26
11
108.80047
21
0.2
31
-0.26
39
0
210
0
220
0
230
1
0
LINE
5
91
100
AcDbEntity
8
1
62
256
6
ByLayer
370
-1
48
1
60
0
100
AcDbLine
10
116.774278
20
-3.5
30
0
11
115.572549
21
-2.446048
31
0
39
0
210
0
220
0
230
1
0
LINE
5
92
100
AcDbEntity
8
1
62
256
6
ByLayer
370
-1
48
1
60
0
100
AcDbLine
10
115.572549
20
-2.446048
30
0
11
115.22878
21
0
31
0
39
0
210
0
220
0
230
1
0
LINE
5
93
100
AcDbEntity
8
1
62
256
6
ByLayer
370
-1
48
1
60
0
100
AcDbLine
10
115.22878
20
0
30
0
11
116.282385
21
0
31
0
39
0
210
0
220
0
230
1
0
LINE
5
94
100
AcDbEntity
8
1
62
256
6
ByLayer
370
-1
48
1
60
0
100
AcDbLine
10
95.422078
20
2.400436
30
10.5
11
116.119357
21
2.400436
31
0
39
0
210
0
220
0
230
1
0
LINE
5
95
100
AcDbEntity
8
1
62
256
6
ByLayer
370
-1
48
1
60
0
100
AcDbLine
10
98.8
20
1.048126
30
10.447556
11
101.473883
21
-0.037902
31
10.5
39
0
210
0
220
0
230
1
0
LINE
5
96
100
AcDbEntity
8
1
62
256
6
ByLayer
370
-1
48
1
60
0
100
AcDbLine
10
115.234107
20
-0.037902
30
0
11
101.473883
21
-0.037902
31
10.5
39
0
210
0
220
0
230
1
0
LINE
5
97
100
AcDbEntity
8
1
62
256
6
ByLayer
370
-1
48
1
60
0
100
AcDbLine
10
107.442813
20
10.5
30
1
11
98.8
21
10.5
31
0
39
0
210
0
220
0
230
1
0
LINE
5
98
100
AcDbEntity
8
1
62
256
6
ByLayer
370
-1
48
1
60
0
100
AcDbLine
10
115.909346
20
0
30
0
11
116.170236
21
2.981984
31
1
39
0
210
0
220
0
230
1
0
LINE
5
99
100
AcDbEntity
8
1
62
256
6
ByLayer
370
-1
48
1
60
0
100
AcDbLine
10
115.790492
20
-10.5
30
0
11
98.8
21
-10.5
31
0
39
0
210
0
220
0
230
1
0
LINE
5
9A
100
AcDbEntity
8
81
62
256
6
ByLayer
370
-1
48
1
60
0
100
AcDbLine
10
117
20
0
30
0
11
127
21
0
31
0
39
0
210
0
220
0
230
1
0
LINE
5
9B
100
AcDbEntity
8
80
62
256
6
ByLayer
370
-1
48
1
60
0
100
AcDbLine
10
0
20
0
30
0
11
-10
21
0
31
0
39
0
210
0
220
0
230
1
0
LINE
5
9C
100
AcDbEntity
8
2
62
256
6
ByLayer
370
-1
48
1
60
0
100
AcDbLine
10
130.3
20
11
30
0
11
118.8
21
11
31
0
39
0
210
0
220
0
230
1
0
LINE
5
9E
100
AcDbEntity
8
2
62
256
6
ByLayer
370
-1
48
1
60
0
100
AcDbLine
10
130.3
20
-11
30
0
11
118.8
21
-11
31
0
39
0
210
0
220
0
230
1
0
LINE
5
9F
100
AcDbEntity
8
2
62
256
6
ByLayer
370
-1
48
1
60
1
100
AcDbLine
10
48
20
11
30
0
11
48
21
11.1
31
0
39
0
210
0
220
0
230
1
0
LINE
5
A0
100
AcDbEntity
8
2
62
256
6
ByLayer
370
-1
48
1
60
1
100
AcDbLine
10
0
20
16
30
0
11
0
21
16.1
31
0
39
0
210
0
220
0
230
1
0
MTEXT
5
C6
100
AcDbEntity
8
SK6
62
256
6
ByLayer
370
-1
48
1
60
0
100
AcDbMText
10
3.675
20
21.125
30
0
210
0
220
0
230
1
1
\W00.717;\fsimplex.shx,bigfont.shx;881-D2200C4-03\P
40
3.5
41
0
44
1.084337
50
0
71
7
72
5
7
DEFAULT
0
DIMENSION
5
D7
100
AcDbEntity
8
2
62
256
6
ByLayer
370
-3
48
1
60
0
100
AcDbDimension
2
DimnDraft3D1
10
132.55
20
-11
30
0
11
132.55
21
0
31
0
70
32
71
5
72
1
41
1
210
0
220
0
230
1
3
Standard
100
AcDbAlignedDimension
13
131.799997
23
11
33
0
14
131.799997
24
-11
34
0
50
90
100
AcDbRotatedDimension
1001
ACAD
1000
DSTYLE
1002
{
1070
    74
1070
     0
1070
   279
1070
     0
1070
   173
1070
     1
1070
   340
1005
C7
1070
    77
1070
     1
1070
    73
1070
     0
1070
   171
1070
     4
1070
   274
1070
     4
1070
   177
1070
     7
1070
   176
1070
     7
1070
   178
1070
     7
1070
    41
1041
2.999994
1070
   147
1041
2.25
1070
    42
1041
1.499997
1070
    44
1041
2.999994
1070
   140
1041
4.5
1070
   343
1005
D8
1070
   344
1005
D8
1002
}
0
DIMENSION
5
ED
100
AcDbEntity
8
SK2
62
256
6
ByLayer
370
-3
48
1
60
0
100
AcDbDimension
2
DimnDraft3D2
10
-46.7
20
20
30
0
11
-46.7
21
0
31
0
70
32
71
5
72
1
41
1
210
0
220
0
230
1
3
Standard
100
AcDbAlignedDimension
13
-1.499997
23
-20
33
0
14
-1.499997
24
20
34
0
50
90
100
AcDbRotatedDimension
1001
ACAD
1000
DSTYLE
1002
{
1070
    74
1070
     0
1070
   279
1070
     0
1070
   173
1070
     1
1070
   340
1005
C7
1070
    77
1070
     1
1070
    73
1070
     0
1070
   171
1070
     4
1070
   274
1070
     4
1070
   177
1070
     7
1070
   176
1070
     7
1070
   178
1070
     7
1070
    41
1041
2.999994
1070
   147
1041
2.25
1070
    42
1041
1.499997
1070
    44
1041
2.999994
1070
   140
1041
4.5
1070
   343
1005
D8
1070
   344
1005
D8
1002
}
0
DIMENSION
5
FB
100
AcDbEntity
8
2
62
256
6
ByLayer
370
-3
48
1
60
0
100
AcDbDimension
2
DimnDraft3D3
10
48
20
34
30
0
11
82.4
21
34
31
0
70
32
71
5
72
1
41
1
210
0
220
0
230
1
3
Standard
100
AcDbAlignedDimension
13
116.485745
23
-5.659116
33
0
14
48
24
12.599997
34
0
50
0
100
AcDbRotatedDimension
1001
ACAD
1000
DSTYLE
1002
{
1070
   279
1070
     0
1070
   173
1070
     1
1070
   340
1005
C7
1070
    77
1070
     1
1070
    73
1070
     0
1070
   171
1070
     4
1070
   274
1070
     4
1070
   177
1070
     7
1070
   176
1070
     7
1070
   178
1070
     7
1070
    41
1041
2.999994
1070
   147
1041
2.25
1070
    42
1041
1.499997
1070
    44
1041
2.999994
1070
   140
1041
4.5
1070
   343
1005
D8
1070
   344
1005
D8
1002
}
0
DIMENSION
5
109
100
AcDbEntity
8
SK2
62
256
6
ByLayer
370
-3
48
1
60
0
100
AcDbDimension
2
DimnDraft3D4
10
-24
20
45.25
30
0
11
-10.7
21
45.25
31
0
70
32
71
5
72
1
41
1
210
0
220
0
230
1
3
Standard
100
AcDbAlignedDimension
13
0
23
1.499997
33
0
14
-24
24
14.673772
34
0
50
0
100
AcDbRotatedDimension
1001
ACAD
1000
DSTYLE
1002
{
1070
   279
1070
     0
1070
   173
1070
     1
1070
   340
1005
C7
1070
    77
1070
     1
1070
    73
1070
     0
1070
   171
1070
     4
1070
   274
1070
     4
1070
   177
1070
     7
1070
   176
1070
     7
1070
   178
1070
     7
1070
    41
1041
2.999994
1070
   147
1041
2.25
1070
    42
1041
1.499997
1070
    44
1041
2.999994
1070
   140
1041
4.5
1070
   343
1005
D8
1070
   344
1005
D8
1002
}
0
DIMENSION
5
117
100
AcDbEntity
8
SK2
62
256
6
ByLayer
370
-3
48
1
60
0
100
AcDbDimension
2
DimnDraft3D5
10
-24
20
56.5
30
0
11
46.3
21
56.5
31
0
70
32
71
5
72
1
41
1
210
0
220
0
230
1
3
Standard
100
AcDbAlignedDimension
13
116.485745
23
-5.659116
33
0
14
-24
24
14.673772
34
0
50
0
100
AcDbRotatedDimension
1001
ACAD
1000
DSTYLE
1002
{
1070
   279
1070
     0
1070
   173
1070
     1
1070
   340
1005
C7
1070
    77
1070
     1
1070
    73
1070
     0
1070
   171
1070
     4
1070
   274
1070
     4
1070
   177
1070
     7
1070
   176
1070
     7
1070
   178
1070
     7
1070
    41
1041
2.999994
1070
   147
1041
2.25
1070
    42
1041
1.499997
1070
    44
1041
2.999994
1070
   140
1041
4.5
1070
   343
1005
D8
1070
   344
1005
D8
1002
}
0
DIMENSION
5
125
100
AcDbEntity
8
2
62
256
6
ByLayer
370
-3
48
1
60
0
100
AcDbDimension
2
DimnDraft3D6
10
0
20
45.25
30
0
11
58.4
21
45.25
31
0
70
32
71
5
72
1
41
1
210
0
220
0
230
1
3
Standard
100
AcDbAlignedDimension
13
116.485745
23
-5.659116
33
0
14
0
24
17.599997
34
0
50
0
100
AcDbRotatedDimension
1001
ACAD
1000
DSTYLE
1002
{
1070
   279
1070
     0
1070
   173
1070
     1
1070
   340
1005
C7
1070
    77
1070
     1
1070
    73
1070
     0
1070
   171
1070
     4
1070
   274
1070
     4
1070
   177
1070
     7
1070
   176
1070
     7
1070
   178
1070
     7
1070
    41
1041
2.999994
1070
   147
1041
2.25
1070
    42
1041
1.499997
1070
    44
1041
2.999994
1070
   140
1041
4.5
1070
   343
1005
D8
1070
   344
1005
D8
1002
}
0
ENDSEC
0
SECTION
2
OBJECTS
0
DICTIONARY
5
174
330
0
100
AcDbDictionary
280
0
281
1
3
ACAD_GROUP
350
175
3
ACAD_MLINESTYLE
350
176
0
DICTIONARY
5
175
330
0
100
AcDbDictionary
280
0
281
1
0
DICTIONARY
5
176
330
0
100
AcDbDictionary
280
0
281
1
3
Standard
350
18
0
MLINESTYLE
5
18
330
176
100
AcDbMlineStyle
2
Standard
70
0
3

62
256
51
90
52
90
71
2
49
-0.5
62
256
6
ByLayer
49
0.5
62
256
6
ByLayer
0
RASTERVARIABLES
5
162
330

100
AcDbRasterVariables
90
0
70
1
71
1
72
1
0
ENDSEC
0
EOF
