0
SECTION
2
HEADER
9
$ACADVER
1
AC1015
9
$DWGCODEPAGE
3
ANSI_1252
9
$HANDSEED
5
181
9
$ANGBASE
50
0
9
$ANGDIR
70
0
9
$ATTMODE
70
1
9
$AUNITS
70
0
9
$AUPREC
70
0
9
$CECOLOR
62
256
9
$CELTSCALE
40
1
9
$CELTYPE
6
ByLayer
9
$CELWEIGHT
370
-1
9
$CLAYER
8
0
9
$CMLJUST
70
0
9
$CMLSCALE
40
1
9
$CMLSTYLE
2
Standard
9
$DIMSTYLE
2
Standard
9
$TEXTSIZE
40
0.2
9
$TEXTSTYLE
7
Standard
9
$LUNITS
70
2
9
$LUPREC
70
4
9
$EXTNAMES
290
1
9
$INSUNITS
70
4
9
$LTSCALE
40
1
9
$LWDISPLAY
290
0
9
$PDMODE
70
0
9
$PDSIZE
40
0
9
$PLINEGEN
70
0
0
ENDSEC
0
SECTION
2
CLASSES
0
CLASS
1
RASTERVARIABLES
2
AcDbRasterVariables
3
ISM
90
0
280
0
281
0
0
ENDSEC
0
SECTION
2
TABLES
0
TABLE
2
VPORT
5
177
100
AcDbSymbolTable
0
VPORT
5
1
100
AcDbSymbolTableRecord
100
AcDbViewportTableRecord
2
*Active
70
0
10
0
20
0
11
1
21
1
12
-1
22
1
13
0
23
0
14
0.5
24
0.5
15
10
25
10
16
0
26
0
36
1
17
0
27
0
37
0
0
ENDTAB
0
TABLE
2
LTYPE
5
178
100
AcDbSymbolTable
0
LTYPE
5
14
100
AcDbSymbolTableRecord
100
AcDbLinetypeTableRecord
70
0
2
ByBlock
3

72
65
73
0
40
0
0
LTYPE
5
15
100
AcDbSymbolTableRecord
100
AcDbLinetypeTableRecord
70
0
2
ByLayer
3

72
65
73
0
40
0
0
LTYPE
5
16
100
AcDbSymbolTableRecord
100
AcDbLinetypeTableRecord
70
0
2
CONTINUOUS
3
Solid line
72
65
73
0
40
0
0
LTYPE
5
3C
100
AcDbSymbolTableRecord
100
AcDbLinetypeTableRecord
70
0
2
DASHED
3
__ __ __ __ __ __ __ __ __
72
65
73
2
40
25.72
49
12.86
74
0
49
-12.86
74
0
0
LTYPE
5
3D
100
AcDbSymbolTableRecord
100
AcDbLinetypeTableRecord
70
0
2
HIDDEN
3
_ _ _ _ _ _ _ _ _ _ _ _ _ _ _
72
65
73
2
40
0.5
49
0.25
74
0
49
-0.25
74
0
0
LTYPE
5
3E
100
AcDbSymbolTableRecord
100
AcDbLinetypeTableRecord
70
0
2
PHANTOM
3
____ _ _ ____ _ _ _____ _ _ ____
72
65
73
6
40
50.5
49
18
74
0
49
-6.5
74
0
49
6.5
74
0
49
-6.5
74
0
49
6.5
74
0
49
-6.5
74
0
0
LTYPE
5
3F
100
AcDbSymbolTableRecord
100
AcDbLinetypeTableRecord
70
0
2
CENTER
3
____ _ ____ _ ____ _ ____
72
65
73
4
40
47.5
49
22
74
0
49
-8.5
74
0
49
8.5
74
0
49
-8.5
74
0
0
LTYPE
5
40
100
AcDbSymbolTableRecord
100
AcDbLinetypeTableRecord
70
0
2
DOT
3
.........................
72
65
73
2
40
10
49
0
74
0
49
-10
74
0
0
LTYPE
5
41
100
AcDbSymbolTableRecord
100
AcDbLinetypeTableRecord
70
0
2
DASHDOT
3
_._._._._._._._._._._._._._._._.
72
65
73
4
40
70
49
31
74
0
49
-13
74
0
49
13
74
0
49
-13
74
0
0
ENDTAB
0
TABLE
2
LAYER
5
179
100
AcDbSymbolTable
0
LAYER
5
10
100
AcDbSymbolTableRecord
100
AcDbLayerTableRecord
2
0
70
0
62
7
6
CONTINUOUS
290
1
370
-3
390
0
0
LAYER
5
43
100
AcDbSymbolTableRecord
100
AcDbLayerTableRecord
2
1
70
0
62
4
6
CONTINUOUS
290
1
370
-3
390
0
0
LAYER
5
4B
100
AcDbSymbolTableRecord
100
AcDbLayerTableRecord
2
81
70
0
62
-3
6
CONTINUOUS
290
1
370
-3
390
0
0
LAYER
5
4D
100
AcDbSymbolTableRecord
100
AcDbLayerTableRecord
2
80
70
0
62
-6
6
CONTINUOUS
290
1
370
-3
390
0
0
LAYER
5
51
100
AcDbSymbolTableRecord
100
AcDbLayerTableRecord
2
4
70
0
62
-2
6
CENTER
290
1
370
-3
390
0
0
LAYER
5
9D
100
AcDbSymbolTableRecord
100
AcDbLayerTableRecord
2
2
70
0
62
7
6
CONTINUOUS
290
1
370
-3
390
0
0
LAYER
5
163
100
AcDbSymbolTableRecord
100
AcDbLayerTableRecord
2
SK4
70
0
62
2
6
CENTER
290
1
370
-3
390
0
0
LAYER
5
164
100
AcDbSymbolTableRecord
100
AcDbLayerTableRecord
2
SK1
70
0
62
4
6
CONTINUOUS
290
1
370
-3
390
0
0
LAYER
5
165
100
AcDbSymbolTableRecord
100
AcDbLayerTableRecord
2
SK6
70
0
62
5
6
CONTINUOUS
290
1
370
-3
390
0
0
LAYER
5
166
100
AcDbSymbolTableRecord
100
AcDbLayerTableRecord
2
SK2
70
0
62
7
6
CONTINUOUS
290
1
370
-3
390
0
0
ENDTAB
0
TABLE
2
STYLE
5
17a
100
AcDbSymbolTable
0
STYLE
5
11
100
AcDbSymbolTableRecord
100
AcDbTextStyleTableRecord
2
Standard
3
txt
70
0
71
0
40
0
41
1
42
0
50
0
0
STYLE
5
C7
100
AcDbSymbolTableRecord
100
AcDbTextStyleTableRecord
2
DEFAULT
3
simplex.shx
70
0
71
0
40
0
41
1
42
0
50
0
0
STYLE
5
C8
100
AcDbSymbolTableRecord
100
AcDbTextStyleTableRecord
2
DWGDirectTextStyle
3
SIMPLEX
70
0
71
0
40
0
41
1
42
0
50
0
0
ENDTAB
0
TABLE
2
DIMSTYLE
5
17b
100
AcDbSymbolTable
100
AcDbDimStyleTable
0
DIMSTYLE
105
27
100
AcDbSymbolTableRecord
100
AcDbDimStyleTableRecord
2
Standard
70
0
3
<>
41
0.18
42
0.0625
44
0.18
140
0.18
147
0.09
73
0
74
0
77
1
271
2
275
0
278
52
280
0
340
11
0
ENDTAB
0
TABLE
2
VIEW
5
17c
100
AcDbSymbolTable
0
ENDTAB
0
TABLE
2
UCS
5
17d
100
AcDbSymbolTable
0
ENDTAB
0
TABLE
2
APPID
5
17e
100
AcDbSymbolTable
0
APPID
5
12
100
AcDbSymbolTableRecord
100
AcDbRegAppTableRecord
2
ACAD
70
0
0
ENDTAB
0
TABLE
2
BLOCK_RECORD
5
17f
100
AcDbSymbolTable
0
BLOCK_RECORD
5
1F
100
AcDbSymbolTableRecord
100
AcDbBlockTableRecord
2
*Model_Space
340
0
70
0
0
BLOCK_RECORD
5
1B
100
AcDbSymbolTableRecord
100
AcDbBlockTableRecord
2
*Paper_Space
340
0
70
0
0
BLOCK_RECORD
5
23
100
AcDbSymbolTableRecord
100
AcDbBlockTableRecord
2
*Paper_Space0
340
0
70
0
0
BLOCK_RECORD
5
CA
100
AcDbSymbolTableRecord
100
AcDbBlockTableRecord
2
DimnDraft3D1
340
0
70
0
0
BLOCK_RECORD
5
D8
100
AcDbSymbolTableRecord
100
AcDbBlockTableRecord
2
_CLOSED
340
0
70
0
0
BLOCK_RECORD
5
DF
100
AcDbSymbolTableRecord
100
AcDbBlockTableRecord
2
DimnDraft3D2
340
0
70
0
0
BLOCK_RECORD
5
EE
100
AcDbSymbolTableRecord
100
AcDbBlockTableRecord
2
DimnDraft3D3
340
0
70
0
0
BLOCK_RECORD
5
FC
100
AcDbSymbolTableRecord
100
AcDbBlockTableRecord
2
DimnDraft3D4
340
0
70
0
0
BLOCK_RECORD
5
10A
100
AcDbSymbolTableRecord
100
AcDbBlockTableRecord
2
DimnDraft3D5
340
0
70
0
0
BLOCK_RECORD
5
118
100
AcDbSymbolTableRecord
100
AcDbBlockTableRecord
2
DimnDraft3D6
340
0
70
0
0
ENDTAB
0
ENDSEC
0
SECTION
2
BLOCKS
0
BLOCK
5
20
100
AcDbEntity
8
0
100
AcDbBlockBegin
2
*Model_Space
70
0
10
0
20
0
30
0
3
*Model_Space
0
ENDBLK
5
21
100
AcDbEntity
8
0
100
AcDbBlockEnd
0
BLOCK
5
1C
100
AcDbEntity
8
0
100
AcDbBlockBegin
2
*Paper_Space
70
0
10
0
20
0
30
0
3
*Paper_Space
0
ENDBLK
5
1D
100
AcDbEntity
8
0
100
AcDbBlockEnd
0
BLOCK
5
24
100
AcDbEntity
8
0
100
AcDbBlockBegin
2
*Paper_Space0
70
0
10
0
20
0
30
0
3
*Paper_Space0
0
ENDBLK
5
25
100
AcDbEntity
8
0
100
AcDbBlockEnd
0
BLOCK
5
D5
100
AcDbEntity
8
0
100
AcDbBlockBegin
2
DimnDraft3D1
70
0
10
0
20
0
30
0
3
DimnDraft3D1
0
MTEXT
5
CB
100
AcDbEntity
8
2
62
256
6
ByLayer
370
-1
48
1
60
0
100
AcDbMText
10
120.425
20
-3.096711
30
0
210
0
220
0
230
1
1
\W01.000;\fsimplex.shx,bigfont.shx;%%c19\P
40
4.5
41
0
44
1.084337
50
90
71
7
72
5
7
DEFAULT
0
LINE
5
CC
100
AcDbEntity
8
2
62
256
6
ByLayer
370
-1
48
1
60
0
100
AcDbLine
10
120.799997
20
9.5
30
0
11
124.549994
21
9.5
31
0
39
0
210
0
220
0
230
1
0
LINE
5
CD
100
AcDbEntity
8
2
62
256
6
ByLayer
370
-1
48
1
60
0
100
AcDbLine
10
120.799997
20
-9.5
30
0
11
124.549994
21
-9.5
31
0
39
0
210
0
220
0
230
1
0
LINE
5
CE
100
AcDbEntity
8
2
62
256
6
ByLayer
370
-1
48
1
60
0
100
AcDbLine
10
121.55
20
9.5
30
0
11
121.55
21
-9.5
31
0
39
0
210
0
220
0
230
1
0
LINE
5
CF
100
AcDbEntity
8
2
62
256
6
ByLayer
370
-1
48
1
60
0
100
AcDbLine
10
121.55
20
9.5
30
0
11
122.049999
21
6.500008
31
0
39
0
210
0
220
0
230
1
0
LINE
5
D0
100
AcDbEntity
8
2
62
256
6
ByLayer
370
-1
48
1
60
0
100
AcDbLine
10
121.55
20
9.5
30
0
11
121.050001
21
6.500004
31
0
39
0
210
0
220
0
230
1
0
LINE
5
D1
100
AcDbEntity
8
2
62
256
6
ByLayer
370
-1
48
1
60
0
100
AcDbLine
10
122.049999
20
6.500008
30
0
11
121.050001
21
6.500004
31
0
39
0
210
0
220
0
230
1
0
LINE
5
D2
100
AcDbEntity
8
2
62
256
6
ByLayer
370
-1
48
1
60
0
100
AcDbLine
10
121.55
20
-9.5
30
0
11
121.050001
21
-6.500008
31
0
39
0
210
0
220
0
230
1
0
LINE
5
D3
100
AcDbEntity
8
2
62
256
6
ByLayer
370
-1
48
1
60
0
100
AcDbLine
10
121.55
20
-9.5
30
0
11
122.049999
21
-6.500004
31
0
39
0
210
0
220
0
230
1
0
LINE
5
D4
100
AcDbEntity
8
2
62
256
6
ByLayer
370
-1
48
1
60
0
100
AcDbLine
10
121.050001
20
-6.500008
30
0
11
122.049999
21
-6.500004
31
0
39
0
210
0
220
0
230
1
0
ENDBLK
5
D6
100
AcDbEntity
8
0
100
AcDbBlockEnd
0
BLOCK
5
D9
100
AcDbEntity
8
0
100
AcDbBlockBegin
2
_CLOSED
70
0
10
0
20
0
30
0
3
_CLOSED
0
LINE
5
DB
100
AcDbEntity
8
0
62
256
6
ByLayer
370
-2
48
1
60
0
100
AcDbLine
10
-1
20
0.166667
30
0
11
0
21
0
31
0
39
0
210
0
220
0
230
1
0
LINE
5
DC
100
AcDbEntity
8
0
62
256
6
ByLayer
370
-2
48
1
60
0
100
AcDbLine
10
0
20
0
30
0
11
-1
21
-0.166667
31
0
39
0
210
0
220
0
230
1
0
LINE
5
DD
100
AcDbEntity
8
0
62
256
6
ByLayer
370
-2
48
1
60
0
100
AcDbLine
10
-1
20
0.166667
30
0
11
-1
21
-0.166667
31
0
39
0
210
0
220
0
230
1
0
LINE
5
DE
100
AcDbEntity
8
0
62
256
6
ByLayer
370
-2
48
1
60
0
100
AcDbLine
10
0
20
0
30
0
11
-1
21
0
31
0
39
0
210
0
220
0
230
1
0
ENDBLK
5
DA
100
AcDbEntity
8
0
100
AcDbBlockEnd
0
BLOCK
5
EB
100
AcDbEntity
8
0
100
AcDbBlockBegin
2
DimnDraft3D2
70
0
10
0
20
0
30
0
3
DimnDraft3D2
0
MTEXT
5
E0
100
AcDbEntity
8
SK2
62
256
6
ByLayer
370
-1
48
1
60
0
100
AcDbMText
10
-47.825
20
-3.896053
30
0
210
0
220
0
230
1
1
\W01.000;\fsimplex.shx,bigfont.shx;%%c40\P
40
4.5
41
0
44
1.084337
50
90
71
7
72
5
7
DEFAULT
0
LINE
5
E2
100
AcDbEntity
8
SK2
62
256
6
ByLayer
370
-1
48
1
60
0
100
AcDbLine
10
-1.499997
20
-20
30
0
11
-49.699994
21
-20
31
0
39
0
210
0
220
0
230
1
0
LINE
5
E3
100
AcDbEntity
8
SK2
62
256
6
ByLayer
370
-1
48
1
60
0
100
AcDbLine
10
-1.499997
20
20
30
0
11
-49.699994
21
20
31
0
39
0
210
0
220
0
230
1
0
LINE
5
E4
100
AcDbEntity
8
SK2
62
256
6
ByLayer
370
-1
48
1
60
0
100
AcDbLine
10
-46.7
20
-20
30
0
11
-46.7
21
20
31
0
39
0
210
0
220
0
230
1
0
LINE
5
E5
100
AcDbEntity
8
SK2
62
256
6
ByLayer
370
-1
48
1
60
0
100
AcDbLine
10
-46.7
20
-20
30
0
11
-47.199999
21
-17.000008
31
0
39
0
210
0
220
0
230
1
0
LINE
5
E6
100
AcDbEntity
8
SK2
62
256
6
ByLayer
370
-1
48
1
60
0
100
AcDbLine
10
-46.7
20
-20
30
0
11
-46.200001
21
-17.000004
31
0
39
0
210
0
220
0
230
1
0
LINE
5
E7
100
AcDbEntity
8
SK2
62
256
6
ByLayer
370
-1
48
1
60
0
100
AcDbLine
10
-47.199999
20
-17.000008
30
0
11
-46.200001
21
-17.000004
31
0
39
0
210
0
220
0
230
1
0
LINE
5
E8
100
AcDbEntity
8
SK2
62
256
6
ByLayer
370
-1
48
1
60
0
100
AcDbLine
10
-46.7
20
20
30
0
11
-46.200001
21
17.000008
31
0
39
0
210
0
220
0
230
1
0
LINE
5
E9
100
AcDbEntity
8
SK2
62
256
6
ByLayer
370
-1
48
1
60
0
100
AcDbLine
10
-46.7
20
20
30
0
11
-47.199999
21
17.000004
31
0
39
0
210
0
220
0
230
1
0
LINE
5
EA
100
AcDbEntity
8
SK2
62
256
6
ByLayer
370
-1
48
1
60
0
100
AcDbLine
10
-46.200001
20
17.000008
30
0
11
-47.199999
21
17.000004
31
0
39
0
210
0
220
0
230
1
0
ENDBLK
5
EC
100
AcDbEntity
8
0
100
AcDbBlockEnd
0
BLOCK
5
F9
100
AcDbEntity
8
0
100
AcDbBlockBegin
2
DimnDraft3D3
70
0
10
0
20
0
30
0
3
DimnDraft3D3
0
MTEXT
5
EF
100
AcDbEntity
8
2
62
256
6
ByLayer
370
-1
48
1
60
0
100
AcDbMText
10
71.861842
20
35.125
30
0
210
0
220
0
230
1
1
\W01.000;\fsimplex.shx,bigfont.shx;60.0\P
40
4.5
41
0
44
1.084337
50
0
71
7
72
5
7
DEFAULT
0
LINE
5
F0
100
AcDbEntity
8
2
62
256
6
ByLayer
370
-1
48
1
60
0
100
AcDbLine
10
105.591151
20
-4.159116
30
0
11
105.591151
21
36.999994
31
0
39
0
210
0
220
0
230
1
0
LINE
5
F1
100
AcDbEntity
8
2
62
256
6
ByLayer
370
-1
48
1
60
0
100
AcDbLine
10
46
20
11.099997
30
0
11
46
21
36.999994
31
0
39
0
210
0
220
0
230
1
0
LINE
5
F2
100
AcDbEntity
8
2
62
256
6
ByLayer
370
-1
48
1
60
0
100
AcDbLine
10
105.591151
20
34
30
0
11
46
21
34
31
0
39
0
210
0
220
0
230
1
0
LINE
5
F3
100
AcDbEntity
8
2
62
256
6
ByLayer
370
-1
48
1
60
0
100
AcDbLine
10
105.591151
20
34
30
0
11
102.591159
21
33.500001
31
0
39
0
210
0
220
0
230
1
0
LINE
5
F4
100
AcDbEntity
8
2
62
256
6
ByLayer
370
-1
48
1
60
0
100
AcDbLine
10
105.591151
20
34
30
0
11
102.591155
21
34.499999
31
0
39
0
210
0
220
0
230
1
0
LINE
5
F5
100
AcDbEntity
8
2
62
256
6
ByLayer
370
-1
48
1
60
0
100
AcDbLine
10
102.591159
20
33.500001
30
0
11
102.591155
21
34.499999
31
0
39
0
210
0
220
0
230
1
0
LINE
5
F6
100
AcDbEntity
8
2
62
256
6
ByLayer
370
-1
48
1
60
0
100
AcDbLine
10
46
20
34
30
0
11
48.999992
21
34.499999
31
0
39
0
210
0
220
0
230
1
0
LINE
5
F7
100
AcDbEntity
8
2
62
256
6
ByLayer
370
-1
48
1
60
0
100
AcDbLine
10
46
20
34
30
0
11
48.999996
21
33.500001
31
0
39
0
210
0
220
0
230
1
0
LINE
5
F8
100
AcDbEntity
8
2
62
256
6
ByLayer
370
-1
48
1
60
0
100
AcDbLine
10
48.999992
20
34.499999
30
0
11
48.999996
21
33.500001
31
0
39
0
210
0
220
0
230
1
0
ENDBLK
5
FA
100
AcDbEntity
8
0
100
AcDbBlockEnd
0
BLOCK
5
107
100
AcDbEntity
8
0
100
AcDbBlockBegin
2
DimnDraft3D4
70
0
10
0
20
0
30
0
3
DimnDraft3D4
0
MTEXT
5
FD
100
AcDbEntity
8
SK2
62
256
6
ByLayer
370
-1
48
1
60
0
100
AcDbMText
10
-20.375
20
46.375
30
0
210
0
220
0
230
1
1
\W01.000;\fsimplex.shx,bigfont.shx;24.0\P
40
4.5
41
0
44
1.084337
50
0
71
7
72
5
7
DEFAULT
0
LINE
5
FE
100
AcDbEntity
8
SK2
62
256
6
ByLayer
370
-1
48
1
60
0
100
AcDbLine
10
0
20
1.499997
30
0
11
0
21
48.249994
31
0
39
0
210
0
220
0
230
1
0
LINE
5
FF
100
AcDbEntity
8
SK2
62
256
6
ByLayer
370
-1
48
1
60
0
100
AcDbLine
10
-24
20
14.673772
30
0
11
-24
21
48.249994
31
0
39
0
210
0
220
0
230
1
0
LINE
5
100
100
AcDbEntity
8
SK2
62
256
6
ByLayer
370
-1
48
1
60
0
100
AcDbLine
10
0
20
45.25
30
0
11
-24
21
45.25
31
0
39
0
210
0
220
0
230
1
0
LINE
5
101
100
AcDbEntity
8
SK2
62
256
6
ByLayer
370
-1
48
1
60
0
100
AcDbLine
10
0
20
45.25
30
0
11
-2.999992
21
44.750001
31
0
39
0
210
0
220
0
230
1
0
LINE
5
102
100
AcDbEntity
8
SK2
62
256
6
ByLayer
370
-1
48
1
60
0
100
AcDbLine
10
0
20
45.25
30
0
11
-2.999996
21
45.749999
31
0
39
0
210
0
220
0
230
1
0
LINE
5
103
100
AcDbEntity
8
SK2
62
256
6
ByLayer
370
-1
48
1
60
0
100
AcDbLine
10
-2.999992
20
44.750001
30
0
11
-2.999996
21
45.749999
31
0
39
0
210
0
220
0
230
1
0
LINE
5
104
100
AcDbEntity
8
SK2
62
256
6
ByLayer
370
-1
48
1
60
0
100
AcDbLine
10
-24
20
45.25
30
0
11
-21.000008
21
45.749999
31
0
39
0
210
0
220
0
230
1
0
LINE
5
105
100
AcDbEntity
8
SK2
62
256
6
ByLayer
370
-1
48
1
60
0
100
AcDbLine
10
-24
20
45.25
30
0
11
-21.000004
21
44.750001
31
0
39
0
210
0
220
0
230
1
0
LINE
5
106
100
AcDbEntity
8
SK2
62
256
6
ByLayer
370
-1
48
1
60
0
100
AcDbLine
10
-21.000008
20
45.749999
30
0
11
-21.000004
21
44.750001
31
0
39
0
210
0
220
0
230
1
0
ENDBLK
5
108
100
AcDbEntity
8
0
100
AcDbBlockEnd
0
BLOCK
5
115
100
AcDbEntity
8
0
100
AcDbBlockBegin
2
DimnDraft3D5
70
0
10
0
20
0
30
0
3
DimnDraft3D5
0
MTEXT
5
10B
100
AcDbEntity
8
SK2
62
256
6
ByLayer
370
-1
48
1
60
0
100
AcDbMText
10
33.907895
20
57.625
30
0
210
0
220
0
230
1
1
\W01.000;\fsimplex.shx,bigfont.shx;(130.0)\P
40
4.5
41
0
44
1.084337
50
0
71
7
72
5
7
DEFAULT
0
LINE
5
10C
100
AcDbEntity
8
SK2
62
256
6
ByLayer
370
-1
48
1
60
0
100
AcDbLine
10
105.591151
20
-4.159116
30
0
11
105.591151
21
59.499994
31
0
39
0
210
0
220
0
230
1
0
LINE
5
10D
100
AcDbEntity
8
SK2
62
256
6
ByLayer
370
-1
48
1
60
0
100
AcDbLine
10
-24
20
14.673772
30
0
11
-24
21
59.499994
31
0
39
0
210
0
220
0
230
1
0
LINE
5
10E
100
AcDbEntity
8
SK2
62
256
6
ByLayer
370
-1
48
1
60
0
100
AcDbLine
10
105.591151
20
56.5
30
0
11
-24
21
56.5
31
0
39
0
210
0
220
0
230
1
0
LINE
5
10F
100
AcDbEntity
8
SK2
62
256
6
ByLayer
370
-1
48
1
60
0
100
AcDbLine
10
105.591151
20
56.5
30
0
11
102.591159
21
56.000001
31
0
39
0
210
0
220
0
230
1
0
LINE
5
110
100
AcDbEntity
8
SK2
62
256
6
ByLayer
370
-1
48
1
60
0
100
AcDbLine
10
105.591151
20
56.5
30
0
11
102.591155
21
56.999999
31
0
39
0
210
0
220
0
230
1
0
LINE
5
111
100
AcDbEntity
8
SK2
62
256
6
ByLayer
370
-1
48
1
60
0
100
AcDbLine
10
102.591159
20
56.000001
30
0
11
102.591155
21
56.999999
31
0
39
0
210
0
220
0
230
1
0
LINE
5
112
100
AcDbEntity
8
SK2
62
256
6
ByLayer
370
-1
48
1
60
0
100
AcDbLine
10
-24
20
56.5
30
0
11
-21.000008
21
56.999999
31
0
39
0
210
0
220
0
230
1
0
LINE
5
113
100
AcDbEntity
8
SK2
62
256
6
ByLayer
370
-1
48
1
60
0
100
AcDbLine
10
-24
20
56.5
30
0
11
-21.000004
21
56.000001
31
0
39
0
210
0
220
0
230
1
0
LINE
5
114
100
AcDbEntity
8
SK2
62
256
6
ByLayer
370
-1
48
1
60
0
100
AcDbLine
10
-21.000008
20
56.999999
30
0
11
-21.000004
21
56.000001
31
0
39
0
210
0
220
0
230
1
0
ENDBLK
5
116
100
AcDbEntity
8
0
100
AcDbBlockEnd
0
BLOCK
5
123
100
AcDbEntity
8
0
100
AcDbBlockBegin
2
DimnDraft3D6
70
0
10
0
20
0
30
0
3
DimnDraft3D6
0
MTEXT
5
119
100
AcDbEntity
8
2
62
256
6
ByLayer
370
-1
48
1
60
0
100
AcDbMText
10
47.772368
20
46.375
30
0
210
0
220
0
230
1
1
\W01.000;\fsimplex.shx,bigfont.shx;106.0\P
40
4.5
41
0
44
1.084337
50
0
71
7
72
5
7
DEFAULT
0
LINE
5
11A
100
AcDbEntity
8
2
62
256
6
ByLayer
370
-1
48
1
60
0
100
AcDbLine
10
105.591151
20
-4.159116
30
0
11
105.591151
21
48.249994
31
0
39
0
210
0
220
0
230
1
0
LINE
5
11B
100
AcDbEntity
8
2
62
256
6
ByLayer
370
-1
48
1
60
0
100
AcDbLine
10
0
20
17.599997
30
0
11
0
21
48.249994
31
0
39
0
210
0
220
0
230
1
0
LINE
5
11C
100
AcDbEntity
8
2
62
256
6
ByLayer
370
-1
48
1
60
0
100
AcDbLine
10
105.591151
20
45.25
30
0
11
0
21
45.25
31
0
39
0
210
0
220
0
230
1
0
LINE
5
11D
100
AcDbEntity
8
2
62
256
6
ByLayer
370
-1
48
1
60
0
100
AcDbLine
10
105.591151
20
45.25
30
0
11
102.591159
21
44.750001
31
0
39
0
210
0
220
0
230
1
0
LINE
5
11E
100
AcDbEntity
8
2
62
256
6
ByLayer
370
-1
48
1
60
0
100
AcDbLine
10
105.591151
20
45.25
30
0
11
102.591155
21
45.749999
31
0
39
0
210
0
220
0
230
1
0
LINE
5
11F
100
AcDbEntity
8
2
62
256
6
ByLayer
370
-1
48
1
60
0
100
AcDbLine
10
102.591159
20
44.750001
30
0
11
102.591155
21
45.749999
31
0
39
0
210
0
220
0
230
1
0
LINE
5
120
100
AcDbEntity
8
2
62
256
6
ByLayer
370
-1
48
1
60
0
100
AcDbLine
10
0
20
45.25
30
0
11
2.999992
21
45.749999
31
0
39
0
210
0
220
0
230
1
0
LINE
5
121
100
AcDbEntity
8
2
62
256
6
ByLayer
370
-1
48
1
60
0
100
AcDbLine
10
0
20
45.25
30
0
11
2.999996
21
44.750001
31
0
39
0
210
0
220
0
230
1
0
LINE
5
122
100
AcDbEntity
8
2
62
256
6
ByLayer
370
-1
48
1
60
0
100
AcDbLine
10
2.999992
20
45.749999
30
0
11
2.999996
21
44.750001
31
0
39
0
210
0
220
0
230
1
0
ENDBLK
5
124
100
AcDbEntity
8
0
100
AcDbBlockEnd
0
ENDSEC
0
SECTION
2
ENTITIES
0
ARC
5
A1
100
AcDbEntity
8
1
62
256
6
ByLayer
370
-1
48
1
60
0
100
AcDbCircle
39
0
10
47.936143
20
-17.050001
30
0
40
8
210
0
220
0
230
1
100
AcDbArc
50
90
51
136.993276
0
ARC
5
A2
100
AcDbEntity
8
1
62
256
6
ByLayer
370
-1
48
1
60
0
100
AcDbCircle
39
0
10
35.399992
20
-5.3571
30
0
40
9.1429
210
0
220
0
230
1
100
AcDbArc
50
270
51
316.993276
0
ARC
5
A3
100
AcDbEntity
8
1
62
256
6
ByLayer
370
-1
48
1
60
0
100
AcDbCircle
39
0
10
-47.936143
20
17.050001
30
0
40
8
210
0
220
0
230
-1
100
AcDbArc
50
270
51
316.993276
0
ARC
5
A4
100
AcDbEntity
8
1
62
256
6
ByLayer
370
-1
48
1
60
0
100
AcDbCircle
39
0
10
-35.399992
20
5.3571
30
0
40
9.1429
210
0
220
0
230
-1
100
AcDbArc
50
90
51
136.993276
0
ARC
5
A5
100
AcDbEntity
8
1
62
256
6
ByLayer
370
-1
48
1
60
0
100
AcDbCircle
39
0
10
105.243987
20
3.368556
30
1
40
0.396
210
0
220
0
230
1
100
AcDbArc
50
253
51
355
0
ARC
5
A6
100
AcDbEntity
8
1
62
256
6
ByLayer
370
-1
48
1
60
0
100
AcDbCircle
39
0
10
-104.945254
20
9.068733
30
-1
40
0.396
210
0
220
0
230
-1
100
AcDbArc
50
67
51
169
0
ARC
5
A7
100
AcDbEntity
8
1
62
256
6
ByLayer
370
-1
48
1
60
0
100
AcDbCircle
39
0
10
98.556013
20
8.733888
30
1
40
0.396
210
0
220
0
230
1
100
AcDbArc
50
73
51
175
0
ARC
5
A8
100
AcDbEntity
8
1
62
256
6
ByLayer
370
-1
48
1
60
0
100
AcDbCircle
39
0
10
-98.854746
20
3.03371
30
-1
40
0.396
210
0
220
0
230
-1
100
AcDbArc
50
247
51
349
0
ARC
5
AB
100
AcDbEntity
8
1
62
256
6
ByLayer
370
-1
48
1
60
0
100
AcDbCircle
39
0
10
105.199005
20
-5.604
30
-0.26
40
0.396
210
0
220
0
230
1
100
AcDbArc
50
250
51
352
0
ARC
5
AC
100
AcDbEntity
8
1
62
256
6
ByLayer
370
-1
48
1
60
0
100
AcDbCircle
39
0
10
-105.199005
20
0.104
30
0.26
40
0.396
210
0
220
0
230
-1
100
AcDbArc
50
70
51
172
0
ARC
5
AD
100
AcDbEntity
8
1
62
256
6
ByLayer
370
-1
48
1
60
0
100
AcDbCircle
39
0
10
98.800995
20
0.104
30
-0.26
40
0.396
210
0
220
0
230
1
100
AcDbArc
50
70
51
172
0
ARC
5
AE
100
AcDbEntity
8
1
62
256
6
ByLayer
370
-1
48
1
60
0
100
AcDbCircle
39
0
10
-98.800995
20
-5.604
30
0.26
40
0.396
210
0
220
0
230
-1
100
AcDbArc
50
250
51
352
0
CIRCLE
5
A9
100
AcDbEntity
8
1
62
256
6
ByLayer
370
-1
48
1
60
0
100
AcDbCircle
10
101.9
20
6.051222
30
1
40
1.65
39
0
210
0
220
0
230
1
0
CIRCLE
5
AA
100
AcDbEntity
8
1
62
256
6
ByLayer
370
-1
48
1
60
0
100
AcDbCircle
10
101.9
20
6.051222
30
1
40
1.1
39
0
210
0
220
0
230
1
0
CIRCLE
5
AF
100
AcDbEntity
8
1
62
256
6
ByLayer
370
-1
48
1
60
0
100
AcDbCircle
10
102
20
-2.75
30
-0.26
40
0.85
39
0
210
0
220
0
230
1
0
POINT
5
42
100
AcDbEntity
8
1
62
256
6
ByLayer
370
-1
48
1
60
1
100
AcDbPoint
10
105.8
20
0
30
0
39
0
210
0
220
0
230
1
50
360
0
POINT
5
44
100
AcDbEntity
8
1
62
256
6
ByLayer
370
-1
48
1
60
1
100
AcDbPoint
10
45.413327
20
-3.500712
30
6.718531
39
0
210
0
220
0
230
1
50
360
0
POINT
5
45
100
AcDbEntity
8
1
62
256
6
ByLayer
370
-1
48
1
60
1
100
AcDbPoint
10
35.4
20
-0.463786
30
15.993277
39
0
210
0
220
0
230
1
50
360
0
POINT
5
46
100
AcDbEntity
8
1
62
256
6
ByLayer
370
-1
48
1
60
0
100
AcDbPoint
10
0
20
0
30
0
39
0
210
0
220
0
230
1
50
360
0
POINT
5
47
100
AcDbEntity
8
1
62
256
6
ByLayer
370
-1
48
1
60
0
100
AcDbPoint
10
30
20
0
30
0
39
0
210
0
220
0
230
1
50
360
0
POINT
5
48
100
AcDbEntity
8
1
62
256
6
ByLayer
370
-1
48
1
60
0
100
AcDbPoint
10
101.9
20
6.051222
30
1
39
0
210
0
220
0
230
1
50
360
0
POINT
5
49
100
AcDbEntity
8
1
62
256
6
ByLayer
370
-1
48
1
60
0
100
AcDbPoint
10
102
20
-2.75
30
-0.26
39
0
210
0
220
0
230
1
50
360
0
POINT
5
4A
100
AcDbEntity
8
81
62
256
6
ByLayer
370
-1
48
1
60
0
100
AcDbPoint
10
106
20
0
30
0
39
0
210
0
220
0
230
1
50
360
0
POINT
5
4C
100
AcDbEntity
8
80
62
256
6
ByLayer
370
-1
48
1
60
0
100
AcDbPoint
10
0
20
0
30
0
39
0
210
0
220
0
230
1
50
360
0
SPLINE
5
B0
100
AcDbEntity
8
1
62
256
6
ByLayer
370
-1
48
1
60
0
100
AcDbSpline
70
4
71
3
72
29
73
25
40
0
40
0
40
0
40
0
40
0.0005000063921422
40
0.0500000171380801
40
0.100000015233849
40
0.150000013329618
40
0.200000011425387
40
0.250000009521156
40
0.300000007616924
40
0.350000005712693
40
0.400000003808462
40
0.450000001904231
40
0.5
40
0.549999998095769
40
0.599999996191538
40
0.649999994287307
40
0.699999992383075
40
0.749999990478844
40
0.799999988574613
40
0.849999986670382
40
0.899999984766151
40
0.94999998286192
40
0.999499993607858
40
1
40
1
40
1
40
1
41
1
10
90.8
20
8.4248155190715
30
3.30529627561766
41
1
10
90.7965652531343
20
8.42532725825316
30
3.3039919118631
41
1
10
90.4530948121247
20
8.47646998582132
30
3.17354597388077
41
1
10
89.7661392547462
20
8.57269741561532
30
2.91027325254493
41
1
10
88.739152131636
20
8.69821938002536
30
2.51045758072615
41
1
10
87.7087272956983
20
8.80540011915151
30
2.10388852435697
41
1
10
86.6783032797775
20
8.89358800084162
30
1.69278186482034
41
1
10
85.6478790441339
20
8.96259298449847
30
1.27802388055799
41
1
10
84.6174548673647
20
9.01226618352806
30
0.860509301257701
41
1
10
83.5870306748206
20
9.04250046841474
30
0.441138648197149
41
1
10
82.5566064865019
20
9.05323062224798
30
0.0208164874158092
41
1
10
81.5261822970564
20
9.0444335016363
30
-0.399550573770617
41
1
10
80.4957581078926
20
9.01612808119144
30
-0.819055828246059
41
1
10
79.4653339187288
20
8.96837541409516
30
-1.23679442850256
41
1
10
78.4349097292833
20
8.90127849987044
30
-1.65186533758086
41
1
10
77.4044855409646
20
8.81498206288675
30
-2.06337327190182
41
1
10
76.3740613484205
20
8.70967223806288
30
-2.47043063570526
41
1
10
75.3436371716513
20
8.58557617725757
30
-2.87215942272796
41
1
10
74.3132129360077
20
8.44296152996216
30
-3.26769315789559
41
1
10
73.2827889200869
20
8.28213597554192
30
-3.65617858752941
41
1
10
72.2523640841493
20
8.1034461507639
30
-4.03677818679005
41
1
10
71.2253769610389
20
7.90793230377263
30
-4.40742987047153
41
1
10
70.5384214036611
20
7.7658384424452
30
-4.64905267282554
41
1
10
70.1949509626509
20
7.69202659775135
30
-4.7681473112527
41
1
10
70.1915162157852
20
7.69128818973597
30
-4.76933810737171
0
SPLINE
5
B1
100
AcDbEntity
8
1
62
256
6
ByLayer
370
-1
48
1
60
0
100
AcDbSpline
70
4
71
3
72
29
73
25
40
0
40
0
40
0
40
0
40
0.000500016311961
40
0.0500000437313749
40
0.100000038872333
40
0.150000034013292
40
0.20000002915425
40
0.250000024295208
40
0.300000019436167
40
0.350000014577125
40
0.400000009718083
40
0.450000004859042
40
0.5
40
0.549999995140958
40
0.599999990281917
40
0.649999985422875
40
0.699999980563834
40
0.749999975704792
40
0.79999997084575
40
0.849999965986709
40
0.899999961127667
40
0.949999956268625
40
0.999499983688039
40
1
40
1
40
1
40
1
41
1
10
90.8
20
0.78446661204975
30
9.01593656447178
41
1
10
90.7945129078633
20
0.786696582446483
30
9.01574253689519
41
1
10
90.2458210017015
20
1.00967631915024
30
8.99625800075828
41
1
10
89.1483773635567
20
1.4542109305152
30
8.94073389673976
41
1
10
87.5077457414337
20
2.11084434068047
30
8.80893191571267
41
1
10
85.8616149360317
20
2.75806318703887
30
8.62821164778657
41
1
10
84.2154874735303
20
3.39010242104421
30
8.40000910693588
41
1
10
82.5693591153015
20
4.00348579807502
30
8.12557994025874
41
1
10
80.9232309970817
20
4.59483724457539
30
7.80643442542279
41
1
10
79.2771028145533
20
5.16090260076262
30
7.44432885747554
41
1
10
77.6309746492504
20
5.69856668109201
30
7.04125596455932
41
1
10
75.984846479354
20
6.20487064475706
30
6.59943391995905
41
1
10
74.3387183106061
20
6.67702821780014
30
6.12129414086516
41
1
10
72.692590141858
20
7.11244104272637
30
5.60946790665706
41
1
10
71.0464619719617
20
7.50871297331837
30
5.06677187779504
41
1
10
69.4003338066588
20
7.86366326214421
30
4.49619259956743
41
1
10
67.7542056241304
20
8.1753385613804
30
3.90087005030542
41
1
10
66.1080775059106
20
8.44202367196932
30
3.28408042271094
41
1
10
64.4619491476818
20
8.66225098451462
30
2.64921786628638
41
1
10
62.8158216851804
20
8.83480854866693
30
1.99977666030498
41
1
10
61.1696908797784
20
8.95874676920599
30
1.3393288063374
41
1
10
59.5290592576554
20
9.03313475963485
30
0.673742129466594
41
1
10
58.431615619511
20
9.04991699600089
30
0.226067802113581
41
1
10
57.8829237133488
20
9.04999999966849
30
0.0022383955572737
41
1
10
57.8774366212121
20
9.05
30
8.6E-15
0
SPLINE
5
B2
100
AcDbEntity
8
1
62
256
6
ByLayer
370
-1
48
1
60
0
100
AcDbSpline
70
4
71
3
72
29
73
25
40
0
40
0
40
0
40
0
40
0.0005000200550797
40
0.0500000537651032
40
0.100000047791203
40
0.150000041817303
40
0.200000035843402
40
0.250000029869502
40
0.300000023895601
40
0.350000017921701
40
0.400000011947801
40
0.4500000059739
40
0.5
40
0.5499999940261
40
0.599999988052199
40
0.649999982078299
40
0.699999976104398
40
0.749999970130498
40
0.799999964156598
40
0.849999958182697
40
0.899999952208797
40
0.949999946234897
40
0.99949997994492
40
1
40
1
40
1
40
1
41
1
10
82.5055958103583
20
-9.05
30
1.06E-14
41
1
10
82.499511546789
20
-9.04999999949887
30
0.0024820099373813
41
1
10
81.8911087846158
20
-9.04989795717271
30
0.250669167799771
41
1
10
80.6742217016469
20
-9.02926198225992
30
0.747064593433782
41
1
10
78.8550390639844
20
-8.93783023737319
30
1.48415051924271
41
1
10
77.0297556792592
20
-8.78562403574963
30
2.21366836554856
41
1
10
75.2044768518062
20
-8.573978984319
30
2.92820758413583
41
1
10
73.3791968032359
20
-8.30432693623475
30
3.6229366729787
41
1
10
71.5539170818625
20
-7.97849222082525
30
4.29315474269312
41
1
10
69.7286372728191
20
-7.59867926105715
30
4.93432764673345
41
1
10
67.9033574872587
20
-7.1674576703147
30
5.54211749774595
41
1
10
66.0780776954362
20
-6.68774486491137
30
6.11241232604119
41
1
10
64.2527979051792
20
-6.16278632705606
30
6.64135381575892
41
1
10
62.4275181149222
20
-5.59613364786439
30
7.12536343051558
41
1
10
60.6022383230996
20
-4.99162049763564
30
7.5611666178017
41
1
10
58.7769585375392
20
-4.3533366952226
30
7.94581496485833
41
1
10
56.9516787284958
20
-3.68560051623652
30
8.27670614418528
41
1
10
55.1263990071224
20
-2.99292956094263
30
8.55160152506674
41
1
10
53.3011189585521
20
-2.28000988059959
30
8.76864129861079
41
1
10
51.4758401310991
20
-1.55166543096631
30
8.92635713606151
41
1
10
49.6505567463739
20
-0.812821118581704
30
9.02368183975136
41
1
10
47.8313741087114
20
-0.070966515991218
30
9.05983670960216
41
1
10
46.6144870257428
20
0.425584378547123
30
9.04336032698364
41
1
10
46.0060842635693
20
0.673086703386184
30
9.02493548126676
41
1
10
46
20
0.675561788472443
30
9.02475020540491
0
SPLINE
5
B3
100
AcDbEntity
8
1
62
256
6
ByLayer
370
-1
48
1
60
0
100
AcDbSpline
70
4
71
3
72
29
73
25
40
0
40
0
40
0
40
0
40
0.0005000088078899
40
0.0500000236146016
40
0.100000020990757
40
0.150000018366912
40
0.200000015743068
40
0.250000013119223
40
0.300000010495379
40
0.350000007871534
40
0.400000005247689
40
0.450000002623844
40
0.5
40
0.549999997376155
40
0.599999994752311
40
0.649999992128466
40
0.699999989504621
40
0.749999986880777
40
0.799999984256932
40
0.849999981633088
40
0.899999979009243
40
0.949999976385398
40
0.99949999119211
40
1
40
1
40
1
40
1
41
1
10
70.1915162157852
20
-7.69128818973597
30
-4.76933810737171
41
1
10
70.1874842971141
20
-7.69215497995889
30
-4.76794027519268
41
1
10
69.7842992971421
20
-7.77879379184071
30
-4.62813686136216
41
1
10
68.9779055600005
20
-7.94445155290351
30
-4.34379771567346
41
1
10
67.7723654192181
20
-8.16869338949558
30
-3.90591152461641
41
1
10
66.5627885623563
20
-8.36940936849489
30
-3.45495070356972
41
1
10
65.3532130318613
20
-8.54525149253282
30
-2.99372244399219
41
1
10
64.1436371459675
20
-8.69569757659003
30
-2.52359682591674
41
1
10
62.9340613553023
20
-8.82030039130274
30
-2.04597122259661
41
1
10
61.7244855391213
20
-8.91868965182777
30
-1.56226506899494
41
1
10
60.5149097297749
20
-8.9905729415413
30
-1.07391593228568
41
1
10
59.3053339186059
20
-9.03573662845896
30
-0.58237516203404
41
1
10
58.0957581078926
20
-9.05404648743246
30
-0.0891035975674033
41
1
10
56.8861822971793
20
-9.04544810252515
30
0.404432779029077
41
1
10
55.6766064860103
20
-9.00996702758633
30
0.896767198663494
41
1
10
54.4670306766639
20
-8.94770871143224
30
1.38643646330482
41
1
10
53.2574548604829
20
-8.85885818110053
30
1.87198530006437
41
1
10
52.0478790698178
20
-8.74367950425603
30
2.35197066523878
41
1
10
50.8383031839239
20
-8.60251495855572
30
2.82496611132277
41
1
10
49.6287276534289
20
-8.43578418546402
30
3.28956573392628
41
1
10
48.4191507965671
20
-8.24398230473287
30
3.74438944141385
41
1
10
47.2136106557847
20
-8.0284018051638
30
4.1866040565073
41
1
10
46.407216918642
20
-7.86837212161222
30
4.47414839039972
41
1
10
46.0040319186711
20
-7.78450151875081
30
4.61562983871943
41
1
10
46
20
-7.78366240672128
30
4.61704445919616
0
SPLINE
5
B4
100
AcDbEntity
8
1
62
256
6
ByLayer
370
-1
48
1
60
0
100
AcDbSpline
70
4
71
3
72
9
73
5
40
0
40
0
40
0
40
0
40
0.574350641214535
40
1
40
1
40
1
40
1
41
1
10
46
20
-7.78366240672128
30
4.61704445919616
41
1
10
37.6989576974455
20
-4.23664384736634
30
12.3873089244419
41
1
10
31.5470827280685
20
0.0115601446052841
30
18.9896824029646
41
1
10
39.848125030623
20
0.903803263877257
30
13.5325093936618
41
1
10
46
20
0.675561788472443
30
9.02475020540491
0
SPLINE
5
B5
100
AcDbEntity
8
1
62
256
6
ByLayer
370
-1
48
1
60
0
100
AcDbSpline
70
4
71
3
72
16
73
12
40
0
40
0
40
0
40
0
40
0.0463470189311361
40
0.0463470189311361
40
0.292714190516279
40
0.292714190516279
40
0.624961574752601
40
0.624961574752601
40
0.880903213804346
40
0.880903213804346
40
1
40
1
40
1
40
1
41
1
10
9.33660254037845
20
6.1698063921468
30
19.0245496420658
41
1
10
9.41120970705357
20
6.4402689496347
30
18.9368365740867
41
1
10
9.48289389445297
20
6.70966326688875
30
18.8430756135634
41
1
10
9.91644779893528
20
8.4014429398824
30
18.2132817825428
41
1
10
10.1968857470654
20
9.79592967066933
30
17.5057124532486
41
1
10
10.6104994244177
20
12.8306959686099
30
15.4840886154574
41
1
10
10.6603659269754
20
14.4297824024
30
14.0071576081823
41
1
10
10.4040057931725
20
16.7286941568393
30
11.0802943355344
41
1
10
10.1767842109767
20
17.5747161700864
30
9.67771638760926
41
1
10
9.70100248234614
20
18.5335352447912
30
7.5534748488203
41
1
10
9.52830884327845
20
18.7991995076926
30
6.86473914991821
41
1
10
9.33659112649157
20
19.0245904583064
30
6.16973761852513
0
SPLINE
5
B6
100
AcDbEntity
8
1
62
256
6
ByLayer
370
-1
48
1
60
0
100
AcDbSpline
70
4
71
3
72
16
73
12
40
0
40
0
40
0
40
0
40
0.0463492595373783
40
0.0463492595373783
40
0.29272440709006
40
0.29272440709006
40
0.624973152517318
40
0.624973152517318
40
0.880915511168991
40
0.880915511168991
40
1
40
1
40
1
40
1
41
1
10
6.66339745962155
20
6.16980639336087
30
19.024549641672
41
1
10
6.73800822761631
20
5.89933078050227
30
19.1122669436263
41
1
10
6.51709918401399
20
6.70968927922732
30
18.8430665597784
41
1
10
6.08353203432038
20
8.40152698944123
30
18.2132471355468
41
1
10
5.80308950801756
20
9.79605700675114
30
17.5056457299704
41
1
10
5.38948896335545
20
12.830854303
30
15.4839587254809
41
1
10
5.33963545766467
20
14.429932300597
30
14.0070043182712
41
1
10
5.59601990931222
20
16.7288187252401
30
11.0801068091082
41
1
10
5.8232523467298
20
17.5748263953976
30
9.67751661405653
41
1
10
6.29903323852959
20
18.5335902214347
30
7.55333237374364
41
1
10
6.47171096722612
20
18.7992227994875
30
6.86466733249556
41
1
10
6.66340887413668
20
19.024590460553
30
6.16973761473966
0
SPLINE
5
B7
100
AcDbEntity
8
1
62
256
6
ByLayer
370
-1
48
1
60
0
100
AcDbSpline
70
4
71
3
72
12
73
8
40
0
40
0
40
0
40
0
40
0.48557129858128
40
0.48557129858128
40
0.936402085205193
40
0.936402085205193
40
1
40
1
40
1
40
1
41
1
10
9.33660254037845
20
6.16980639330488
30
19.0245496416902
41
1
10
9.35456651699916
20
6.23492859639202
30
19.0034300150751
41
1
10
9.29375666287366
20
6.03987724384563
30
19.0662952264127
41
1
10
9.22189536050024
20
5.92914516396304
30
19.101007006467
41
1
10
9.16894029016483
20
5.87474700467883
30
19.1177302439758
41
1
10
9.09537819879925
20
5.86084605005278
30
19.1219922204584
41
1
10
9.0860652092108
20
5.85996421168224
30
19.1222597889947
41
1
10
9.07679491924311
20
5.85996421168224
30
19.1222597889947
0
SPLINE
5
B8
100
AcDbEntity
8
1
62
256
6
ByLayer
370
-1
48
1
60
0
100
AcDbSpline
70
4
71
3
72
12
73
8
40
0
40
0
40
0
40
0
40
0.485571298590738
40
0.485571298590738
40
0.936402085205416
40
0.936402085205416
40
1
40
1
40
1
40
1
41
1
10
9.33660254037845
20
19.024549641672
30
6.1698063933609
41
1
10
9.31863856375527
20
19.0456692682904
30
6.10468419026449
41
1
10
9.29375666288881
20
19.0662952264032
30
6.03987724387556
41
1
10
9.22189536051243
20
19.1010070064631
30
5.92914516397584
41
1
10
9.16894029017443
20
19.1177302439747
30
5.87474700468218
41
1
10
9.09537819880148
20
19.1219922204584
30
5.86084605005308
41
1
10
9.08606520921191
20
19.1222597889947
30
5.85996421168232
41
1
10
9.07679491924311
20
19.1222597889947
30
5.85996421168232
0
SPLINE
5
B9
100
AcDbEntity
8
1
62
256
6
ByLayer
370
-1
48
1
60
0
100
AcDbSpline
70
4
71
3
72
9
73
5
40
0
40
0
40
0
40
0
40
0.505050505050505
40
1
40
1
40
1
40
1
41
1
10
9.07679491924311
20
5.85996421168224
30
19.1222597889947
41
1
10
8.71423770737674
20
5.85996421168224
30
19.1222597889947
41
1
10
7.99637442788135
20
5.85996421157611
30
19.1222597890272
41
1
10
7.27851114838593
20
5.85996421168224
30
19.1222597889947
41
1
10
6.92320508075689
20
5.85996421168224
30
19.1222597889947
0
SPLINE
5
BA
100
AcDbEntity
8
1
62
256
6
ByLayer
370
-1
48
1
60
0
100
AcDbSpline
70
4
71
3
72
9
73
5
40
0
40
0
40
0
40
0
40
0.494949494949495
40
1
40
1
40
1
40
1
41
1
10
6.92320508075689
20
19.1222597889947
30
5.85996421168232
41
1
10
7.27851114838593
20
19.1222597889947
30
5.85996421168232
41
1
10
7.99637442788135
20
19.1222597901563
30
5.85996420789166
41
1
10
8.71423770737674
20
19.1222597889947
30
5.85996421168232
41
1
10
9.07679491924311
20
19.1222597889947
30
5.85996421168232
0
SPLINE
5
BB
100
AcDbEntity
8
1
62
256
6
ByLayer
370
-1
48
1
60
0
100
AcDbSpline
70
4
71
3
72
12
73
8
40
0
40
0
40
0
40
0
40
0.485571298590726
40
0.485571298590726
40
0.936402085205378
40
0.936402085205378
40
1
40
1
40
1
40
1
41
1
10
6.66339745962155
20
6.16980639336087
30
19.024549641672
41
1
10
6.68136143624474
20
6.10468419026446
30
19.0456692682904
41
1
10
6.70624333711118
20
6.03987724387551
30
19.0662952264033
41
1
10
6.77810463948755
20
5.92914516397578
30
19.1010070064631
41
1
10
6.83105970982554
20
5.87474700468211
30
19.1177302439747
41
1
10
6.9046218011985
20
5.860846050053
30
19.1219922204584
41
1
10
6.91393479078809
20
5.85996421168224
30
19.1222597889947
41
1
10
6.92320508075689
20
5.85996421168224
30
19.1222597889947
0
SPLINE
5
BC
100
AcDbEntity
8
1
62
256
6
ByLayer
370
-1
48
1
60
0
100
AcDbSpline
70
4
71
3
72
12
73
8
40
0
40
0
40
0
40
0
40
0.485571298585116
40
0.485571298585116
40
0.936402085205247
40
0.936402085205247
40
1
40
1
40
1
40
1
41
1
10
6.66339745962156
20
19.0245496416828
30
6.16980639332778
41
1
10
6.64543348299985
20
19.0034300150663
30
6.2349285964187
41
1
10
6.70624333712016
20
19.0662952264088
30
6.03987724385789
41
1
10
6.7781046394948
20
19.1010070064654
30
5.92914516396832
41
1
10
6.83105970983124
20
19.1177302439753
30
5.87474700468025
41
1
10
6.90462180119982
20
19.1219922204584
30
5.86084605005295
41
1
10
6.91393479078874
20
19.1222597889947
30
5.85996421168232
41
1
10
6.92320508075689
20
19.1222597889947
30
5.85996421168232
0
SPLINE
5
BD
100
AcDbEntity
8
1
62
256
6
ByLayer
370
-1
48
1
60
0
100
AcDbSpline
70
4
71
3
72
16
73
12
40
0
40
0
40
0
40
0
40
0.0463470189311361
40
0.0463470189311361
40
0.292714190516279
40
0.292714190516279
40
0.624961574752601
40
0.624961574752601
40
0.880903213804346
40
0.880903213804346
40
1
40
1
40
1
40
1
41
1
10
9.33660254037845
20
-6.1698063921468
30
19.0245496420658
41
1
10
9.41120970705357
20
-6.44026894963469
30
18.9368365740867
41
1
10
9.48289389445297
20
-6.70966326688875
30
18.8430756135634
41
1
10
9.91644779893527
20
-8.4014429398824
30
18.2132817825428
41
1
10
10.1968857470654
20
-9.79592967066934
30
17.5057124532486
41
1
10
10.6104994244177
20
-12.8306959686099
30
15.4840886154574
41
1
10
10.6603659269754
20
-14.4297824024
30
14.0071576081823
41
1
10
10.4040057931725
20
-16.7286941568393
30
11.0802943355344
41
1
10
10.1767842109767
20
-17.5747161700864
30
9.67771638760926
41
1
10
9.70100248234614
20
-18.5335352447912
30
7.5534748488203
41
1
10
9.52830884327845
20
-18.7991995076926
30
6.86473914991821
41
1
10
9.33659112649157
20
-19.0245904583064
30
6.16973761852513
0
SPLINE
5
BE
100
AcDbEntity
8
1
62
256
6
ByLayer
370
-1
48
1
60
0
100
AcDbSpline
70
4
71
3
72
16
73
12
40
0
40
0
40
0
40
0
40
0.0463492595373783
40
0.0463492595373783
40
0.29272440709006
40
0.29272440709006
40
0.624973152517318
40
0.624973152517318
40
0.880915511168991
40
0.880915511168991
40
1
40
1
40
1
40
1
41
1
10
6.66339745962156
20
-6.16980639336087
30
19.024549641672
41
1
10
6.73800822761631
20
-5.89933078050227
30
19.1122669436263
41
1
10
6.51709918401399
20
-6.70968927922732
30
18.8430665597784
41
1
10
6.08353203432037
20
-8.40152698944124
30
18.2132471355468
41
1
10
5.80308950801756
20
-9.79605700675114
30
17.5056457299704
41
1
10
5.38948896335545
20
-12.830854303
30
15.4839587254809
41
1
10
5.33963545766466
20
-14.429932300597
30
14.0070043182712
41
1
10
5.59601990931222
20
-16.7288187252401
30
11.0801068091082
41
1
10
5.8232523467298
20
-17.5748263953976
30
9.67751661405653
41
1
10
6.29903323852959
20
-18.5335902214347
30
7.55333237374364
41
1
10
6.47171096722612
20
-18.7992227994875
30
6.86466733249556
41
1
10
6.66340887413668
20
-19.024590460553
30
6.16973761473966
0
SPLINE
5
BF
100
AcDbEntity
8
1
62
256
6
ByLayer
370
-1
48
1
60
0
100
AcDbSpline
70
4
71
3
72
12
73
8
40
0
40
0
40
0
40
0
40
0.48557129858128
40
0.48557129858128
40
0.936402085205193
40
0.936402085205193
40
1
40
1
40
1
40
1
41
1
10
9.33660254037845
20
-6.16980639330488
30
19.0245496416902
41
1
10
9.35456651699916
20
-6.23492859639202
30
19.0034300150751
41
1
10
9.29375666287366
20
-6.03987724384563
30
19.0662952264127
41
1
10
9.22189536050024
20
-5.92914516396304
30
19.101007006467
41
1
10
9.16894029016483
20
-5.87474700467883
30
19.1177302439758
41
1
10
9.09537819879925
20
-5.86084605005278
30
19.1219922204584
41
1
10
9.0860652092108
20
-5.85996421168224
30
19.1222597889947
41
1
10
9.07679491924311
20
-5.85996421168224
30
19.1222597889947
0
SPLINE
5
C0
100
AcDbEntity
8
1
62
256
6
ByLayer
370
-1
48
1
60
0
100
AcDbSpline
70
4
71
3
72
12
73
8
40
0
40
0
40
0
40
0
40
0.485571298590738
40
0.485571298590738
40
0.936402085205416
40
0.936402085205416
40
1
40
1
40
1
40
1
41
1
10
9.33660254037845
20
-19.024549641672
30
6.1698063933609
41
1
10
9.31863856375527
20
-19.0456692682904
30
6.10468419026449
41
1
10
9.29375666288881
20
-19.0662952264032
30
6.03987724387556
41
1
10
9.22189536051243
20
-19.1010070064631
30
5.92914516397584
41
1
10
9.16894029017443
20
-19.1177302439747
30
5.87474700468218
41
1
10
9.09537819880148
20
-19.1219922204584
30
5.86084605005308
41
1
10
9.08606520921191
20
-19.1222597889947
30
5.85996421168232
41
1
10
9.07679491924311
20
-19.1222597889947
30
5.85996421168232
0
SPLINE
5
C1
100
AcDbEntity
8
1
62
256
6
ByLayer
370
-1
48
1
60
0
100
AcDbSpline
70
4
71
3
72
9
73
5
40
0
40
0
40
0
40
0
40
0.505050505050505
40
1
40
1
40
1
40
1
41
1
10
9.07679491924311
20
-5.85996421168224
30
19.1222597889947
41
1
10
8.71423770737674
20
-5.85996421168224
30
19.1222597889947
41
1
10
7.99637442788135
20
-5.8599642115761
30
19.1222597890272
41
1
10
7.27851114838593
20
-5.85996421168224
30
19.1222597889947
41
1
10
6.92320508075689
20
-5.85996421168224
30
19.1222597889947
0
SPLINE
5
C2
100
AcDbEntity
8
1
62
256
6
ByLayer
370
-1
48
1
60
0
100
AcDbSpline
70
4
71
3
72
9
73
5
40
0
40
0
40
0
40
0
40
0.494949494949495
40
1
40
1
40
1
40
1
41
1
10
6.92320508075689
20
-19.1222597889947
30
5.85996421168232
41
1
10
7.27851114838593
20
-19.1222597889947
30
5.85996421168232
41
1
10
7.99637442788135
20
-19.1222597901563
30
5.85996420789166
41
1
10
8.71423770737674
20
-19.1222597889947
30
5.85996421168232
41
1
10
9.07679491924311
20
-19.1222597889947
30
5.85996421168232
0
SPLINE
5
C3
100
AcDbEntity
8
1
62
256
6
ByLayer
370
-1
48
1
60
0
100
AcDbSpline
70
4
71
3
72
12
73
8
40
0
40
0
40
0
40
0
40
0.485571298590726
40
0.485571298590726
40
0.936402085205378
40
0.936402085205378
40
1
40
1
40
1
40
1
41
1
10
6.66339745962156
20
-6.16980639336087
30
19.024549641672
41
1
10
6.68136143624474
20
-6.10468419026446
30
19.0456692682904
41
1
10
6.70624333711118
20
-6.03987724387551
30
19.0662952264033
41
1
10
6.77810463948755
20
-5.92914516397578
30
19.1010070064631
41
1
10
6.83105970982554
20
-5.87474700468211
30
19.1177302439747
41
1
10
6.9046218011985
20
-5.860846050053
30
19.1219922204584
41
1
10
6.91393479078808
20
-5.85996421168224
30
19.1222597889947
41
1
10
6.92320508075689
20
-5.85996421168224
30
19.1222597889947
0
SPLINE
5
C4
100
AcDbEntity
8
1
62
256
6
ByLayer
370
-1
48
1
60
0
100
AcDbSpline
70
4
71
3
72
12
73
8
40
0
40
0
40
0
40
0
40
0.485571298585116
40
0.485571298585116
40
0.936402085205247
40
0.936402085205247
40
1
40
1
40
1
40
1
41
1
10
6.66339745962156
20
-19.0245496416828
30
6.16980639332778
41
1
10
6.64543348299985
20
-19.0034300150663
30
6.2349285964187
41
1
10
6.70624333712016
20
-19.0662952264088
30
6.03987724385789
41
1
10
6.7781046394948
20
-19.1010070064654
30
5.92914516396832
41
1
10
6.83105970983125
20
-19.1177302439753
30
5.87474700468025
41
1
10
6.90462180119982
20
-19.1219922204584
30
5.86084605005295
41
1
10
6.91393479078874
20
-19.1222597889947
30
5.85996421168232
41
1
10
6.92320508075689
20
-19.1222597889947
30
5.85996421168232
0
SPLINE
5
C5
100
AcDbEntity
8
1
62
256
6
ByLayer
370
-1
48
1
60
0
100
AcDbSpline
70
4
71
3
72
9
73
5
40
0
40
0
40
0
40
0
40
0.25026268454092
40
1
40
1
40
1
40
1
41
1
10
104.730939546691
20
-1.83368403710433
30
0
41
1
10
104.656405281417
20
-2.43440303682765
30
0
41
1
10
104.446290198189
20
-4.83602942771858
30
0
41
1
10
104.586643035722
20
-7.24274061741707
30
0
41
1
10
104.888870931206
20
-9.05
30
0
0
LINE
5
4E
100
AcDbEntity
8
SK4
62
256
6
ByLayer
370
-1
48
0.05
60
0
100
AcDbLine
10
107.8
20
0
30
0
11
-26.2
21
0
31
0
39
0
210
0
220
0
230
1
0
LINE
5
50
100
AcDbEntity
8
4
62
256
6
ByLayer
370
-1
48
0.05
60
0
100
AcDbLine
10
107.8
20
0
30
0
11
-2.2
21
0
31
0
39
0
210
0
220
0
230
1
0
LINE
5
52
100
AcDbEntity
8
1
62
256
6
ByLayer
370
-1
48
1
60
0
100
AcDbLine
10
90.8
20
9.05
30
0
11
82.505596
21
9.05
31
0
39
0
210
0
220
0
230
1
0
LINE
5
53
100
AcDbEntity
8
1
62
256
6
ByLayer
370
-1
48
1
60
0
100
AcDbLine
10
90.8
20
-9.05
30
0
11
82.505596
21
-9.05
31
0
39
0
210
0
220
0
230
1
0
LINE
5
54
100
AcDbEntity
8
1
62
256
6
ByLayer
370
-1
48
1
60
0
100
AcDbLine
10
57.877437
20
9.05
30
0
11
46
21
9.05
31
0
39
0
210
0
220
0
230
1
0
LINE
5
55
100
AcDbEntity
8
1
62
256
6
ByLayer
370
-1
48
1
60
0
100
AcDbLine
10
57.877437
20
-9.05
30
0
11
46
21
-9.05
31
0
39
0
210
0
220
0
230
1
0
LINE
5
56
100
AcDbEntity
8
1
62
256
6
ByLayer
370
-1
48
1
60
0
100
AcDbLine
10
46
20
-9.050001
30
0
11
46
21
-7.783662
31
4.617044
39
0
210
0
220
0
230
1
0
LINE
5
57
100
AcDbEntity
8
1
62
256
6
ByLayer
370
-1
48
1
60
0
100
AcDbLine
10
46
20
0.675562
30
9.02475
11
46
21
9.050001
31
0
39
0
210
0
220
0
230
1
0
LINE
5
58
100
AcDbEntity
8
1
62
256
6
ByLayer
370
-1
48
1
60
0
100
AcDbLine
10
35.4
20
14.5
30
0
11
35.4
21
-14.5
31
0
39
0
210
0
220
0
230
1
0
LINE
5
59
100
AcDbEntity
8
1
62
256
6
ByLayer
370
-1
48
1
60
0
100
AcDbLine
10
34.9981
20
16
30
0
11
34.9981
21
-16
31
0
39
0
210
0
220
0
230
1
0
LINE
5
5A
100
AcDbEntity
8
1
62
256
6
ByLayer
370
-1
48
1
60
0
100
AcDbLine
10
30.2
20
-16
30
0
11
30
21
-15.8
31
0
39
0
210
0
220
0
230
1
0
LINE
5
5B
100
AcDbEntity
8
1
62
256
6
ByLayer
370
-1
48
1
60
0
100
AcDbLine
10
30.2
20
-16
30
0
11
30.2
21
16
31
0
39
0
210
0
220
0
230
1
0
LINE
5
5C
100
AcDbEntity
8
1
62
256
6
ByLayer
370
-1
48
1
60
0
100
AcDbLine
10
30
20
-15.8
30
0
11
30
21
15.8
31
0
39
0
210
0
220
0
230
1
0
LINE
5
5D
100
AcDbEntity
8
1
62
256
6
ByLayer
370
-1
48
1
60
0
100
AcDbLine
10
30.2
20
16
30
0
11
30
21
15.8
31
0
39
0
210
0
220
0
230
1
0
LINE
5
5E
100
AcDbEntity
8
1
62
256
6
ByLayer
370
-1
48
1
60
0
100
AcDbLine
10
30.2
20
-16
30
0
11
34.9981
21
-16
31
0
39
0
210
0
220
0
230
1
0
LINE
5
5F
100
AcDbEntity
8
1
62
256
6
ByLayer
370
-1
48
1
60
0
100
AcDbLine
10
30.2
20
16
30
0
11
34.9981
21
16
31
0
39
0
210
0
220
0
230
1
0
LINE
5
60
100
AcDbEntity
8
1
62
256
6
ByLayer
370
-1
48
1
60
0
100
AcDbLine
10
34.9981
20
-16
30
0
11
35.4
21
-14.5
31
0
39
0
210
0
220
0
230
1
0
LINE
5
61
100
AcDbEntity
8
1
62
256
6
ByLayer
370
-1
48
1
60
0
100
AcDbLine
10
34.9981
20
16
30
0
11
35.4
21
14.5
31
0
39
0
210
0
220
0
230
1
0
LINE
5
62
100
AcDbEntity
8
1
62
256
6
ByLayer
370
-1
48
1
60
0
100
AcDbLine
10
104.888871
20
-9.05
30
0
11
105.774278
21
-2.75
31
0
39
0
210
0
220
0
230
1
0
LINE
5
63
100
AcDbEntity
8
1
62
256
6
ByLayer
370
-1
48
1
60
0
100
AcDbLine
10
105.774278
20
-2.75
30
0
11
105.387791
21
0
31
0
39
0
210
0
220
0
230
1
0
LINE
5
64
100
AcDbEntity
8
1
62
256
6
ByLayer
370
-1
48
1
60
0
100
AcDbLine
10
29.711325
20
-20
30
0
11
0
21
-20
31
0
39
0
210
0
220
0
230
1
0
LINE
5
65
100
AcDbEntity
8
1
62
256
6
ByLayer
370
-1
48
1
60
0
100
AcDbLine
10
0
20
-20
30
0
11
0
21
20
31
0
39
0
210
0
220
0
230
1
0
LINE
5
66
100
AcDbEntity
8
SK1
62
256
6
ByLayer
370
-1
48
1
60
0
100
AcDbLine
10
-24
20
-13.173775
30
0
11
-24
21
13.173775
31
0
39
0
210
0
220
0
230
1
0
LINE
5
68
100
AcDbEntity
8
SK1
62
256
6
ByLayer
370
-1
48
1
60
0
100
AcDbLine
10
-1.6
20
-14.0625
30
0
11
-1.6
21
14.0625
31
0
39
0
210
0
220
0
230
1
0
LINE
5
69
100
AcDbEntity
8
SK1
62
256
6
ByLayer
370
-1
48
1
60
0
100
AcDbLine
10
0
20
-13.912453
30
0
11
-1.6
21
-13.87245
31
0
39
0
210
0
220
0
230
1
0
LINE
5
6A
100
AcDbEntity
8
SK1
62
256
6
ByLayer
370
-1
48
1
60
0
100
AcDbLine
10
-1.6
20
13.87245
30
0
11
0.003749
21
13.912547
31
0
39
0
210
0
220
0
230
1
0
LINE
5
6B
100
AcDbEntity
8
1
62
256
6
ByLayer
370
-1
48
1
60
0
100
AcDbLine
10
6.663397
20
6.169806
30
19.02455
11
6.663409
21
19.02459
31
6.169738
39
0
210
0
220
0
230
1
0
LINE
5
6C
100
AcDbEntity
8
1
62
256
6
ByLayer
370
-1
48
1
60
0
100
AcDbLine
10
6.923205
20
5.859964
30
19.12226
11
6.923205
21
19.12226
31
5.859964
39
0
210
0
220
0
230
1
0
LINE
5
6D
100
AcDbEntity
8
1
62
256
6
ByLayer
370
-1
48
1
60
0
100
AcDbLine
10
9.076795
20
5.859964
30
19.12226
11
9.076795
21
19.12226
31
5.859964
39
0
210
0
220
0
230
1
0
LINE
5
6E
100
AcDbEntity
8
1
62
256
6
ByLayer
370
-1
48
1
60
0
100
AcDbLine
10
9.336603
20
6.169806
30
19.02455
11
9.336591
21
19.02459
31
6.169738
39
0
210
0
220
0
230
1
0
LINE
5
6F
100
AcDbEntity
8
1
62
256
6
ByLayer
370
-1
48
1
60
0
100
AcDbLine
10
6.663397
20
-6.169806
30
19.02455
11
6.663409
21
-19.02459
31
6.169738
39
0
210
0
220
0
230
1
0
LINE
5
70
100
AcDbEntity
8
1
62
256
6
ByLayer
370
-1
48
1
60
0
100
AcDbLine
10
6.923205
20
-5.859964
30
19.12226
11
6.923205
21
-19.12226
31
5.859964
39
0
210
0
220
0
230
1
0
LINE
5
71
100
AcDbEntity
8
1
62
256
6
ByLayer
370
-1
48
1
60
0
100
AcDbLine
10
9.076795
20
-5.859964
30
19.12226
11
9.076795
21
-19.12226
31
5.859964
39
0
210
0
220
0
230
1
0
LINE
5
72
100
AcDbEntity
8
1
62
256
6
ByLayer
370
-1
48
1
60
0
100
AcDbLine
10
9.336603
20
-6.169806
30
19.02455
11
9.336591
21
-19.02459
31
6.169738
39
0
210
0
220
0
230
1
0
LINE
5
73
100
AcDbEntity
8
SK1
62
256
6
ByLayer
370
-1
48
1
60
0
100
AcDbLine
10
-23.5
20
-13.46245
30
0
11
-23.5
21
13.46245
31
0
39
0
210
0
220
0
230
1
0
LINE
5
74
100
AcDbEntity
8
1
62
256
6
ByLayer
370
-1
48
1
60
0
100
AcDbLine
10
29.711325
20
20
30
0
11
0
21
20
31
0
39
0
210
0
220
0
230
1
0
LINE
5
75
100
AcDbEntity
8
SK1
62
256
6
ByLayer
370
-1
48
1
60
0
100
AcDbLine
10
-1.6
20
-14.0625
30
0
11
-23.5
21
-13.46245
31
0
39
0
210
0
220
0
230
1
0
LINE
5
76
100
AcDbEntity
8
SK1
62
256
6
ByLayer
370
-1
48
1
60
0
100
AcDbLine
10
-1.6
20
14.0625
30
0
11
-23.5
21
13.46245
31
0
39
0
210
0
220
0
230
1
0
LINE
5
77
100
AcDbEntity
8
SK1
62
256
6
ByLayer
370
-1
48
1
60
0
100
AcDbLine
10
-24
20
-13.173775
30
0
11
-23.5
21
-13.46245
31
0
39
0
210
0
220
0
230
1
0
LINE
5
78
100
AcDbEntity
8
SK1
62
256
6
ByLayer
370
-1
48
1
60
0
100
AcDbLine
10
-24
20
13.173775
30
0
11
-23.5
21
13.46245
31
0
39
0
210
0
220
0
230
1
0
LINE
5
79
100
AcDbEntity
8
1
62
256
6
ByLayer
370
-1
48
1
60
0
100
AcDbLine
10
30
20
-19.5
30
0
11
30
21
19.5
31
0
39
0
210
0
220
0
230
1
0
LINE
5
7A
100
AcDbEntity
8
1
62
256
6
ByLayer
370
-1
48
1
60
0
100
AcDbLine
10
29.711325
20
20
30
0
11
30
21
19.5
31
0
39
0
210
0
220
0
230
1
0
LINE
5
7B
100
AcDbEntity
8
1
62
256
6
ByLayer
370
-1
48
1
60
0
100
AcDbLine
10
29.711325
20
-20
30
0
11
30
21
-19.5
31
0
39
0
210
0
220
0
230
1
0
LINE
5
7C
100
AcDbEntity
8
1
62
256
6
ByLayer
370
-1
48
1
60
0
100
AcDbLine
10
29.711325
20
-20
30
0
11
29.711325
21
20
31
0
39
0
210
0
220
0
230
1
0
LINE
5
7D
100
AcDbEntity
8
1
62
256
6
ByLayer
370
-1
48
1
60
0
100
AcDbLine
10
105.128208
20
2.989859
30
1
11
104.356168
21
3.225896
31
1
39
0
210
0
220
0
230
1
0
LINE
5
7E
100
AcDbEntity
8
1
62
256
6
ByLayer
370
-1
48
1
60
0
100
AcDbLine
10
105.638481
20
3.334042
30
1
11
105.894518
21
6.260566
31
1
39
0
210
0
220
0
230
1
0
LINE
5
7F
100
AcDbEntity
8
1
62
256
6
ByLayer
370
-1
48
1
60
0
100
AcDbLine
10
104.790524
20
9.433253
30
1
11
104.047386
21
9.11781
31
1
39
0
210
0
220
0
230
1
0
LINE
5
80
100
AcDbEntity
8
1
62
256
6
ByLayer
370
-1
48
1
60
0
100
AcDbLine
10
105.333978
20
9.144294
30
1
11
105.894518
21
6.260566
31
1
39
0
210
0
220
0
230
1
0
LINE
5
81
100
AcDbEntity
8
1
62
256
6
ByLayer
370
-1
48
1
60
0
100
AcDbLine
10
98.671792
20
9.112584
30
1
11
99.443832
21
8.876548
31
1
39
0
210
0
220
0
230
1
0
LINE
5
82
100
AcDbEntity
8
1
62
256
6
ByLayer
370
-1
48
1
60
0
100
AcDbLine
10
98.161519
20
8.768401
30
1
11
97.905482
21
5.841878
31
1
39
0
210
0
220
0
230
1
0
LINE
5
83
100
AcDbEntity
8
1
62
256
6
ByLayer
370
-1
48
1
60
0
100
AcDbLine
10
99.009476
20
2.66919
30
1
11
99.752614
21
2.984634
31
1
39
0
210
0
220
0
230
1
0
LINE
5
84
100
AcDbEntity
8
1
62
256
6
ByLayer
370
-1
48
1
60
0
100
AcDbLine
10
98.466022
20
2.95815
30
1
11
97.905482
21
5.841878
31
1
39
0
210
0
220
0
230
1
0
LINE
5
85
100
AcDbEntity
8
1
62
256
6
ByLayer
370
-1
48
1
60
0
100
AcDbLine
10
104.356168
20
3.225896
30
1
11
99.752614
21
2.984634
31
1
39
0
210
0
220
0
230
1
0
LINE
5
86
100
AcDbEntity
8
1
62
256
6
ByLayer
370
-1
48
1
60
0
100
AcDbLine
10
104.047386
20
9.11781
30
1
11
99.443832
21
8.876548
31
1
39
0
210
0
220
0
230
1
0
LINE
5
87
100
AcDbEntity
8
1
62
256
6
ByLayer
370
-1
48
1
60
0
100
AcDbLine
10
105.063565
20
-5.976118
30
-0.26
11
104.304936
21
-5.7
31
-0.26
39
0
210
0
220
0
230
1
0
LINE
5
88
100
AcDbEntity
8
1
62
256
6
ByLayer
370
-1
48
1
60
0
100
AcDbLine
10
105.591151
20
-5.659113
30
-0.26
11
106
21
-2.75
31
-0.26
39
0
210
0
220
0
230
1
0
LINE
5
89
100
AcDbEntity
8
1
62
256
6
ByLayer
370
-1
48
1
60
0
100
AcDbLine
10
105.063565
20
0.476118
30
-0.26
11
104.304936
21
0.2
31
-0.26
39
0
210
0
220
0
230
1
0
LINE
5
8A
100
AcDbEntity
8
1
62
256
6
ByLayer
370
-1
48
1
60
0
100
AcDbLine
10
105.591151
20
0.159113
30
-0.26
11
106
21
-2.75
31
-0.26
39
0
210
0
220
0
230
1
0
LINE
5
8B
100
AcDbEntity
8
1
62
256
6
ByLayer
370
-1
48
1
60
0
100
AcDbLine
10
98.936435
20
0.476118
30
-0.26
11
99.695064
21
0.2
31
-0.26
39
0
210
0
220
0
230
1
0
LINE
5
8C
100
AcDbEntity
8
1
62
256
6
ByLayer
370
-1
48
1
60
0
100
AcDbLine
10
98.408849
20
0.159113
30
-0.26
11
98
21
-2.75
31
-0.26
39
0
210
0
220
0
230
1
0
LINE
5
8D
100
AcDbEntity
8
1
62
256
6
ByLayer
370
-1
48
1
60
0
100
AcDbLine
10
98.936435
20
-5.976118
30
-0.26
11
99.695064
21
-5.7
31
-0.26
39
0
210
0
220
0
230
1
0
LINE
5
8E
100
AcDbEntity
8
1
62
256
6
ByLayer
370
-1
48
1
60
0
100
AcDbLine
10
98.408849
20
-5.659113
30
-0.26
11
98
21
-2.75
31
-0.26
39
0
210
0
220
0
230
1
0
LINE
5
8F
100
AcDbEntity
8
1
62
256
6
ByLayer
370
-1
48
1
60
0
100
AcDbLine
10
104.304936
20
-5.7
30
-0.26
11
99.695064
21
-5.7
31
-0.26
39
0
210
0
220
0
230
1
0
LINE
5
90
100
AcDbEntity
8
1
62
256
6
ByLayer
370
-1
48
1
60
0
100
AcDbLine
10
104.304936
20
0.2
30
-0.26
11
99.695064
21
0.2
31
-0.26
39
0
210
0
220
0
230
1
0
LINE
5
91
100
AcDbEntity
8
1
62
256
6
ByLayer
370
-1
48
1
60
0
100
AcDbLine
10
105.774278
20
-2.75
30
0
11
104.73094
21
-1.833684
31
0
39
0
210
0
220
0
230
1
0
LINE
5
92
100
AcDbEntity
8
1
62
256
6
ByLayer
370
-1
48
1
60
0
100
AcDbLine
10
104.73094
20
-1.833684
30
0
11
104.473232
21
0
31
0
39
0
210
0
220
0
230
1
0
LINE
5
93
100
AcDbEntity
8
1
62
256
6
ByLayer
370
-1
48
1
60
0
100
AcDbLine
10
104.473232
20
0
30
0
11
105.387791
21
0
31
0
39
0
210
0
220
0
230
1
0
LINE
5
94
100
AcDbEntity
8
1
62
256
6
ByLayer
370
-1
48
1
60
0
100
AcDbLine
10
87.126635
20
2.259778
30
9.05
11
105.173881
21
2.259778
31
0
39
0
210
0
220
0
230
1
0
LINE
5
95
100
AcDbEntity
8
1
62
256
6
ByLayer
370
-1
48
1
60
0
100
AcDbLine
10
90.8
20
0.784467
30
9.015937
11
92.208311
21
0.209966
31
9.05
39
0
210
0
220
0
230
1
0
LINE
5
96
100
AcDbEntity
8
1
62
256
6
ByLayer
370
-1
48
1
60
0
100
AcDbLine
10
104.994546
20
0.209966
30
0
11
92.208311
21
0.209966
31
9.05
39
0
210
0
220
0
230
1
0
LINE
5
97
100
AcDbEntity
8
1
62
256
6
ByLayer
370
-1
48
1
60
0
100
AcDbLine
10
98.317499
20
9.05
30
1
11
90.8
21
9.05
31
0
39
0
210
0
220
0
230
1
0
LINE
5
98
100
AcDbEntity
8
1
62
256
6
ByLayer
370
-1
48
1
60
0
100
AcDbLine
10
104.976176
20
0
30
0
11
105.236248
21
2.972632
31
1
39
0
210
0
220
0
230
1
0
LINE
5
99
100
AcDbEntity
8
1
62
256
6
ByLayer
370
-1
48
1
60
0
100
AcDbLine
10
104.888871
20
-9.05
30
0
11
90.8
21
-9.05
31
0
39
0
210
0
220
0
230
1
0
LINE
5
9A
100
AcDbEntity
8
81
62
256
6
ByLayer
370
-1
48
1
60
0
100
AcDbLine
10
106
20
0
30
0
11
116
21
0
31
0
39
0
210
0
220
0
230
1
0
LINE
5
9B
100
AcDbEntity
8
80
62
256
6
ByLayer
370
-1
48
1
60
0
100
AcDbLine
10
0
20
0
30
0
11
-10
21
0
31
0
39
0
210
0
220
0
230
1
0
LINE
5
9C
100
AcDbEntity
8
2
62
256
6
ByLayer
370
-1
48
1
60
0
100
AcDbLine
10
119.3
20
9.5
30
0
11
107.8
21
9.5
31
0
39
0
210
0
220
0
230
1
0
LINE
5
9E
100
AcDbEntity
8
2
62
256
6
ByLayer
370
-1
48
1
60
0
100
AcDbLine
10
119.3
20
-9.5
30
0
11
107.8
21
-9.5
31
0
39
0
210
0
220
0
230
1
0
LINE
5
9F
100
AcDbEntity
8
2
62
256
6
ByLayer
370
-1
48
1
60
1
100
AcDbLine
10
46
20
9.5
30
0
11
46
21
9.6
31
0
39
0
210
0
220
0
230
1
0
LINE
5
A0
100
AcDbEntity
8
2
62
256
6
ByLayer
370
-1
48
1
60
1
100
AcDbLine
10
0
20
16
30
0
11
0
21
16.1
31
0
39
0
210
0
220
0
230
1
0
MTEXT
5
C6
100
AcDbEntity
8
SK6
62
256
6
ByLayer
370
-1
48
1
60
0
100
AcDbMText
10
3.675
20
21.125
30
0
210
0
220
0
230
1
1
\W00.699;\fsimplex.shx,bigfont.shx;881-D1900C4-03\P
40
3.5
41
0
44
1.084337
50
0
71
7
72
5
7
DEFAULT
0
DIMENSION
5
D7
100
AcDbEntity
8
2
62
256
6
ByLayer
370
-3
48
1
60
0
100
AcDbDimension
2
DimnDraft3D1
10
121.55
20
-9.5
30
0
11
121.55
21
0
31
0
70
32
71
5
72
1
41
1
210
0
220
0
230
1
3
Standard
100
AcDbAlignedDimension
13
120.799997
23
9.5
33
0
14
120.799997
24
-9.5
34
0
50
90
100
AcDbRotatedDimension
1001
ACAD
1000
DSTYLE
1002
{
1070
    74
1070
     0
1070
   279
1070
     0
1070
   173
1070
     1
1070
   340
1005
C7
1070
    77
1070
     1
1070
    73
1070
     0
1070
   171
1070
     4
1070
   274
1070
     4
1070
   177
1070
     7
1070
   176
1070
     7
1070
   178
1070
     7
1070
    41
1041
2.999994
1070
   147
1041
2.25
1070
    42
1041
1.499997
1070
    44
1041
2.999994
1070
   140
1041
4.5
1070
   343
1005
D8
1070
   344
1005
D8
1002
}
0
DIMENSION
5
ED
100
AcDbEntity
8
SK2
62
256
6
ByLayer
370
-3
48
1
60
0
100
AcDbDimension
2
DimnDraft3D2
10
-46.7
20
20
30
0
11
-46.7
21
0
31
0
70
32
71
5
72
1
41
1
210
0
220
0
230
1
3
Standard
100
AcDbAlignedDimension
13
-1.499997
23
-20
33
0
14
-1.499997
24
20
34
0
50
90
100
AcDbRotatedDimension
1001
ACAD
1000
DSTYLE
1002
{
1070
    74
1070
     0
1070
   279
1070
     0
1070
   173
1070
     1
1070
   340
1005
C7
1070
    77
1070
     1
1070
    73
1070
     0
1070
   171
1070
     4
1070
   274
1070
     4
1070
   177
1070
     7
1070
   176
1070
     7
1070
   178
1070
     7
1070
    41
1041
2.999994
1070
   147
1041
2.25
1070
    42
1041
1.499997
1070
    44
1041
2.999994
1070
   140
1041
4.5
1070
   343
1005
D8
1070
   344
1005
D8
1002
}
0
DIMENSION
5
FB
100
AcDbEntity
8
2
62
256
6
ByLayer
370
-3
48
1
60
0
100
AcDbDimension
2
DimnDraft3D3
10
46
20
34
30
0
11
75.9
21
34
31
0
70
32
71
5
72
1
41
1
210
0
220
0
230
1
3
Standard
100
AcDbAlignedDimension
13
105.591151
23
-4.159116
33
0
14
46
24
11.099997
34
0
50
0
100
AcDbRotatedDimension
1001
ACAD
1000
DSTYLE
1002
{
1070
   279
1070
     0
1070
   173
1070
     1
1070
   340
1005
C7
1070
    77
1070
     1
1070
    73
1070
     0
1070
   171
1070
     4
1070
   274
1070
     4
1070
   177
1070
     7
1070
   176
1070
     7
1070
   178
1070
     7
1070
    41
1041
2.999994
1070
   147
1041
2.25
1070
    42
1041
1.499997
1070
    44
1041
2.999994
1070
   140
1041
4.5
1070
   343
1005
D8
1070
   344
1005
D8
1002
}
0
DIMENSION
5
109
100
AcDbEntity
8
SK2
62
256
6
ByLayer
370
-3
48
1
60
0
100
AcDbDimension
2
DimnDraft3D4
10
-24
20
45.25
30
0
11
-10.7
21
45.25
31
0
70
32
71
5
72
1
41
1
210
0
220
0
230
1
3
Standard
100
AcDbAlignedDimension
13
0
23
1.499997
33
0
14
-24
24
14.673772
34
0
50
0
100
AcDbRotatedDimension
1001
ACAD
1000
DSTYLE
1002
{
1070
   279
1070
     0
1070
   173
1070
     1
1070
   340
1005
C7
1070
    77
1070
     1
1070
    73
1070
     0
1070
   171
1070
     4
1070
   274
1070
     4
1070
   177
1070
     7
1070
   176
1070
     7
1070
   178
1070
     7
1070
    41
1041
2.999994
1070
   147
1041
2.25
1070
    42
1041
1.499997
1070
    44
1041
2.999994
1070
   140
1041
4.5
1070
   343
1005
D8
1070
   344
1005
D8
1002
}
0
DIMENSION
5
117
100
AcDbEntity
8
SK2
62
256
6
ByLayer
370
-3
48
1
60
0
100
AcDbDimension
2
DimnDraft3D5
10
-24
20
56.5
30
0
11
40.8
21
56.5
31
0
70
32
71
5
72
1
41
1
210
0
220
0
230
1
3
Standard
100
AcDbAlignedDimension
13
105.591151
23
-4.159116
33
0
14
-24
24
14.673772
34
0
50
0
100
AcDbRotatedDimension
1001
ACAD
1000
DSTYLE
1002
{
1070
   279
1070
     0
1070
   173
1070
     1
1070
   340
1005
C7
1070
    77
1070
     1
1070
    73
1070
     0
1070
   171
1070
     4
1070
   274
1070
     4
1070
   177
1070
     7
1070
   176
1070
     7
1070
   178
1070
     7
1070
    41
1041
2.999994
1070
   147
1041
2.25
1070
    42
1041
1.499997
1070
    44
1041
2.999994
1070
   140
1041
4.5
1070
   343
1005
D8
1070
   344
1005
D8
1002
}
0
DIMENSION
5
125
100
AcDbEntity
8
2
62
256
6
ByLayer
370
-3
48
1
60
0
100
AcDbDimension
2
DimnDraft3D6
10
0
20
45.25
30
0
11
52.9
21
45.25
31
0
70
32
71
5
72
1
41
1
210
0
220
0
230
1
3
Standard
100
AcDbAlignedDimension
13
105.591151
23
-4.159116
33
0
14
0
24
17.599997
34
0
50
0
100
AcDbRotatedDimension
1001
ACAD
1000
DSTYLE
1002
{
1070
   279
1070
     0
1070
   173
1070
     1
1070
   340
1005
C7
1070
    77
1070
     1
1070
    73
1070
     0
1070
   171
1070
     4
1070
   274
1070
     4
1070
   177
1070
     7
1070
   176
1070
     7
1070
   178
1070
     7
1070
    41
1041
2.999994
1070
   147
1041
2.25
1070
    42
1041
1.499997
1070
    44
1041
2.999994
1070
   140
1041
4.5
1070
   343
1005
D8
1070
   344
1005
D8
1002
}
0
ENDSEC
0
SECTION
2
OBJECTS
0
DICTIONARY
5
174
330
0
100
AcDbDictionary
280
0
281
1
3
ACAD_GROUP
350
175
3
ACAD_MLINESTYLE
350
176
0
DICTIONARY
5
175
330
0
100
AcDbDictionary
280
0
281
1
0
DICTIONARY
5
176
330
0
100
AcDbDictionary
280
0
281
1
3
Standard
350
18
0
MLINESTYLE
5
18
330
176
100
AcDbMlineStyle
2
Standard
70
0
3

62
256
51
90
52
90
71
2
49
-0.5
62
256
6
ByLayer
49
0.5
62
256
6
ByLayer
0
RASTERVARIABLES
5
162
330

100
AcDbRasterVariables
90
0
70
1
71
1
72
1
0
ENDSEC
0
EOF
