0
SECTION
2
HEADER
9
$ACADVER
1
AC1015
9
$DWGCODEPAGE
3
ANSI_1252
9
$HANDSEED
5
181
9
$ANGBASE
50
0
9
$ANGDIR
70
0
9
$ATTMODE
70
1
9
$AUNITS
70
0
9
$AUPREC
70
0
9
$CECOLOR
62
256
9
$CELTSCALE
40
1
9
$CELTYPE
6
ByLayer
9
$CELWEIGHT
370
-1
9
$CLAYER
8
0
9
$CMLJUST
70
0
9
$CMLSCALE
40
1
9
$CMLSTYLE
2
Standard
9
$DIMSTYLE
2
Standard
9
$TEXTSIZE
40
0.2
9
$TEXTSTYLE
7
Standard
9
$LUNITS
70
2
9
$LUPREC
70
4
9
$EXTNAMES
290
1
9
$INSUNITS
70
4
9
$LTSCALE
40
1
9
$LWDISPLAY
290
0
9
$PDMODE
70
0
9
$PDSIZE
40
0
9
$PLINEGEN
70
0
0
ENDSEC
0
SECTION
2
CLASSES
0
CLASS
1
RASTERVARIABLES
2
AcDbRasterVariables
3
ISM
90
0
280
0
281
0
0
ENDSEC
0
SECTION
2
TABLES
0
TABLE
2
VPORT
5
177
100
AcDbSymbolTable
0
VPORT
5
1
100
AcDbSymbolTableRecord
100
AcDbViewportTableRecord
2
*Active
70
0
10
0
20
0
11
1
21
1
12
-1
22
1
13
0
23
0
14
0.5
24
0.5
15
10
25
10
16
0
26
0
36
1
17
0
27
0
37
0
0
ENDTAB
0
TABLE
2
LTYPE
5
178
100
AcDbSymbolTable
0
LTYPE
5
14
100
AcDbSymbolTableRecord
100
AcDbLinetypeTableRecord
70
0
2
ByBlock
3

72
65
73
0
40
0
0
LTYPE
5
15
100
AcDbSymbolTableRecord
100
AcDbLinetypeTableRecord
70
0
2
ByLayer
3

72
65
73
0
40
0
0
LTYPE
5
16
100
AcDbSymbolTableRecord
100
AcDbLinetypeTableRecord
70
0
2
CONTINUOUS
3
Solid line
72
65
73
0
40
0
0
LTYPE
5
3C
100
AcDbSymbolTableRecord
100
AcDbLinetypeTableRecord
70
0
2
DASHED
3
__ __ __ __ __ __ __ __ __
72
65
73
2
40
25.72
49
12.86
74
0
49
-12.86
74
0
0
LTYPE
5
3D
100
AcDbSymbolTableRecord
100
AcDbLinetypeTableRecord
70
0
2
HIDDEN
3
_ _ _ _ _ _ _ _ _ _ _ _ _ _ _
72
65
73
2
40
0.5
49
0.25
74
0
49
-0.25
74
0
0
LTYPE
5
3E
100
AcDbSymbolTableRecord
100
AcDbLinetypeTableRecord
70
0
2
PHANTOM
3
____ _ _ ____ _ _ _____ _ _ ____
72
65
73
6
40
50.5
49
18
74
0
49
-6.5
74
0
49
6.5
74
0
49
-6.5
74
0
49
6.5
74
0
49
-6.5
74
0
0
LTYPE
5
3F
100
AcDbSymbolTableRecord
100
AcDbLinetypeTableRecord
70
0
2
CENTER
3
____ _ ____ _ ____ _ ____
72
65
73
4
40
47.5
49
22
74
0
49
-8.5
74
0
49
8.5
74
0
49
-8.5
74
0
0
LTYPE
5
40
100
AcDbSymbolTableRecord
100
AcDbLinetypeTableRecord
70
0
2
DOT
3
.........................
72
65
73
2
40
10
49
0
74
0
49
-10
74
0
0
LTYPE
5
41
100
AcDbSymbolTableRecord
100
AcDbLinetypeTableRecord
70
0
2
DASHDOT
3
_._._._._._._._._._._._._._._._.
72
65
73
4
40
70
49
31
74
0
49
-13
74
0
49
13
74
0
49
-13
74
0
0
ENDTAB
0
TABLE
2
LAYER
5
179
100
AcDbSymbolTable
0
LAYER
5
10
100
AcDbSymbolTableRecord
100
AcDbLayerTableRecord
2
0
70
0
62
7
6
CONTINUOUS
290
1
370
-3
390
0
0
LAYER
5
43
100
AcDbSymbolTableRecord
100
AcDbLayerTableRecord
2
1
70
0
62
4
6
CONTINUOUS
290
1
370
-3
390
0
0
LAYER
5
4B
100
AcDbSymbolTableRecord
100
AcDbLayerTableRecord
2
81
70
0
62
-3
6
CONTINUOUS
290
1
370
-3
390
0
0
LAYER
5
4D
100
AcDbSymbolTableRecord
100
AcDbLayerTableRecord
2
80
70
0
62
-6
6
CONTINUOUS
290
1
370
-3
390
0
0
LAYER
5
51
100
AcDbSymbolTableRecord
100
AcDbLayerTableRecord
2
4
70
0
62
-2
6
CENTER
290
1
370
-3
390
0
0
LAYER
5
9D
100
AcDbSymbolTableRecord
100
AcDbLayerTableRecord
2
2
70
0
62
7
6
CONTINUOUS
290
1
370
-3
390
0
0
LAYER
5
163
100
AcDbSymbolTableRecord
100
AcDbLayerTableRecord
2
SK4
70
0
62
2
6
CENTER
290
1
370
-3
390
0
0
LAYER
5
164
100
AcDbSymbolTableRecord
100
AcDbLayerTableRecord
2
SK1
70
0
62
4
6
CONTINUOUS
290
1
370
-3
390
0
0
LAYER
5
165
100
AcDbSymbolTableRecord
100
AcDbLayerTableRecord
2
SK6
70
0
62
5
6
CONTINUOUS
290
1
370
-3
390
0
0
LAYER
5
166
100
AcDbSymbolTableRecord
100
AcDbLayerTableRecord
2
SK2
70
0
62
7
6
CONTINUOUS
290
1
370
-3
390
0
0
ENDTAB
0
TABLE
2
STYLE
5
17a
100
AcDbSymbolTable
0
STYLE
5
11
100
AcDbSymbolTableRecord
100
AcDbTextStyleTableRecord
2
Standard
3
txt
70
0
71
0
40
0
41
1
42
0
50
0
0
STYLE
5
C7
100
AcDbSymbolTableRecord
100
AcDbTextStyleTableRecord
2
DEFAULT
3
simplex.shx
70
0
71
0
40
0
41
1
42
0
50
0
0
STYLE
5
C8
100
AcDbSymbolTableRecord
100
AcDbTextStyleTableRecord
2
DWGDirectTextStyle
3
SIMPLEX
70
0
71
0
40
0
41
1
42
0
50
0
0
ENDTAB
0
TABLE
2
DIMSTYLE
5
17b
100
AcDbSymbolTable
100
AcDbDimStyleTable
0
DIMSTYLE
105
27
100
AcDbSymbolTableRecord
100
AcDbDimStyleTableRecord
2
Standard
70
0
3
<>
41
0.18
42
0.0625
44
0.18
140
0.18
147
0.09
73
0
74
0
77
1
271
2
275
0
278
52
280
0
340
11
0
ENDTAB
0
TABLE
2
VIEW
5
17c
100
AcDbSymbolTable
0
ENDTAB
0
TABLE
2
UCS
5
17d
100
AcDbSymbolTable
0
ENDTAB
0
TABLE
2
APPID
5
17e
100
AcDbSymbolTable
0
APPID
5
12
100
AcDbSymbolTableRecord
100
AcDbRegAppTableRecord
2
ACAD
70
0
0
ENDTAB
0
TABLE
2
BLOCK_RECORD
5
17f
100
AcDbSymbolTable
0
BLOCK_RECORD
5
1F
100
AcDbSymbolTableRecord
100
AcDbBlockTableRecord
2
*Model_Space
340
0
70
0
0
BLOCK_RECORD
5
1B
100
AcDbSymbolTableRecord
100
AcDbBlockTableRecord
2
*Paper_Space
340
0
70
0
0
BLOCK_RECORD
5
23
100
AcDbSymbolTableRecord
100
AcDbBlockTableRecord
2
*Paper_Space0
340
0
70
0
0
BLOCK_RECORD
5
CA
100
AcDbSymbolTableRecord
100
AcDbBlockTableRecord
2
DimnDraft3D1
340
0
70
0
0
BLOCK_RECORD
5
D8
100
AcDbSymbolTableRecord
100
AcDbBlockTableRecord
2
_CLOSED
340
0
70
0
0
BLOCK_RECORD
5
DF
100
AcDbSymbolTableRecord
100
AcDbBlockTableRecord
2
DimnDraft3D2
340
0
70
0
0
BLOCK_RECORD
5
EE
100
AcDbSymbolTableRecord
100
AcDbBlockTableRecord
2
DimnDraft3D3
340
0
70
0
0
BLOCK_RECORD
5
FC
100
AcDbSymbolTableRecord
100
AcDbBlockTableRecord
2
DimnDraft3D4
340
0
70
0
0
BLOCK_RECORD
5
10A
100
AcDbSymbolTableRecord
100
AcDbBlockTableRecord
2
DimnDraft3D5
340
0
70
0
0
BLOCK_RECORD
5
118
100
AcDbSymbolTableRecord
100
AcDbBlockTableRecord
2
DimnDraft3D6
340
0
70
0
0
ENDTAB
0
ENDSEC
0
SECTION
2
BLOCKS
0
BLOCK
5
20
100
AcDbEntity
8
0
100
AcDbBlockBegin
2
*Model_Space
70
0
10
0
20
0
30
0
3
*Model_Space
0
ENDBLK
5
21
100
AcDbEntity
8
0
100
AcDbBlockEnd
0
BLOCK
5
1C
100
AcDbEntity
8
0
100
AcDbBlockBegin
2
*Paper_Space
70
0
10
0
20
0
30
0
3
*Paper_Space
0
ENDBLK
5
1D
100
AcDbEntity
8
0
100
AcDbBlockEnd
0
BLOCK
5
24
100
AcDbEntity
8
0
100
AcDbBlockBegin
2
*Paper_Space0
70
0
10
0
20
0
30
0
3
*Paper_Space0
0
ENDBLK
5
25
100
AcDbEntity
8
0
100
AcDbBlockEnd
0
BLOCK
5
D5
100
AcDbEntity
8
0
100
AcDbBlockBegin
2
DimnDraft3D1
70
0
10
0
20
0
30
0
3
DimnDraft3D1
0
MTEXT
5
CB
100
AcDbEntity
8
2
62
256
6
ByLayer
370
-1
48
1
60
0
100
AcDbMText
10
117.425
20
-3.096711
30
0
210
0
220
0
230
1
1
\W01.000;\fsimplex.shx,bigfont.shx;%%c18\P
40
4.5
41
0
44
1.084337
50
90
71
7
72
5
7
DEFAULT
0
LINE
5
CC
100
AcDbEntity
8
2
62
256
6
ByLayer
370
-1
48
1
60
0
100
AcDbLine
10
117.799997
20
9
30
0
11
121.549994
21
9
31
0
39
0
210
0
220
0
230
1
0
LINE
5
CD
100
AcDbEntity
8
2
62
256
6
ByLayer
370
-1
48
1
60
0
100
AcDbLine
10
117.799997
20
-9
30
0
11
121.549994
21
-9
31
0
39
0
210
0
220
0
230
1
0
LINE
5
CE
100
AcDbEntity
8
2
62
256
6
ByLayer
370
-1
48
1
60
0
100
AcDbLine
10
118.55
20
9
30
0
11
118.55
21
-9
31
0
39
0
210
0
220
0
230
1
0
LINE
5
CF
100
AcDbEntity
8
2
62
256
6
ByLayer
370
-1
48
1
60
0
100
AcDbLine
10
118.55
20
9
30
0
11
119.049999
21
6.000008
31
0
39
0
210
0
220
0
230
1
0
LINE
5
D0
100
AcDbEntity
8
2
62
256
6
ByLayer
370
-1
48
1
60
0
100
AcDbLine
10
118.55
20
9
30
0
11
118.050001
21
6.000004
31
0
39
0
210
0
220
0
230
1
0
LINE
5
D1
100
AcDbEntity
8
2
62
256
6
ByLayer
370
-1
48
1
60
0
100
AcDbLine
10
119.049999
20
6.000008
30
0
11
118.050001
21
6.000004
31
0
39
0
210
0
220
0
230
1
0
LINE
5
D2
100
AcDbEntity
8
2
62
256
6
ByLayer
370
-1
48
1
60
0
100
AcDbLine
10
118.55
20
-9
30
0
11
118.050001
21
-6.000008
31
0
39
0
210
0
220
0
230
1
0
LINE
5
D3
100
AcDbEntity
8
2
62
256
6
ByLayer
370
-1
48
1
60
0
100
AcDbLine
10
118.55
20
-9
30
0
11
119.049999
21
-6.000004
31
0
39
0
210
0
220
0
230
1
0
LINE
5
D4
100
AcDbEntity
8
2
62
256
6
ByLayer
370
-1
48
1
60
0
100
AcDbLine
10
118.050001
20
-6.000008
30
0
11
119.049999
21
-6.000004
31
0
39
0
210
0
220
0
230
1
0
ENDBLK
5
D6
100
AcDbEntity
8
0
100
AcDbBlockEnd
0
BLOCK
5
D9
100
AcDbEntity
8
0
100
AcDbBlockBegin
2
_CLOSED
70
0
10
0
20
0
30
0
3
_CLOSED
0
LINE
5
DB
100
AcDbEntity
8
0
62
256
6
ByLayer
370
-2
48
1
60
0
100
AcDbLine
10
-1
20
0.166667
30
0
11
0
21
0
31
0
39
0
210
0
220
0
230
1
0
LINE
5
DC
100
AcDbEntity
8
0
62
256
6
ByLayer
370
-2
48
1
60
0
100
AcDbLine
10
0
20
0
30
0
11
-1
21
-0.166667
31
0
39
0
210
0
220
0
230
1
0
LINE
5
DD
100
AcDbEntity
8
0
62
256
6
ByLayer
370
-2
48
1
60
0
100
AcDbLine
10
-1
20
0.166667
30
0
11
-1
21
-0.166667
31
0
39
0
210
0
220
0
230
1
0
LINE
5
DE
100
AcDbEntity
8
0
62
256
6
ByLayer
370
-2
48
1
60
0
100
AcDbLine
10
0
20
0
30
0
11
-1
21
0
31
0
39
0
210
0
220
0
230
1
0
ENDBLK
5
DA
100
AcDbEntity
8
0
100
AcDbBlockEnd
0
BLOCK
5
EB
100
AcDbEntity
8
0
100
AcDbBlockBegin
2
DimnDraft3D2
70
0
10
0
20
0
30
0
3
DimnDraft3D2
0
MTEXT
5
E0
100
AcDbEntity
8
SK2
62
256
6
ByLayer
370
-1
48
1
60
0
100
AcDbMText
10
-47.825
20
-3.896053
30
0
210
0
220
0
230
1
1
\W01.000;\fsimplex.shx,bigfont.shx;%%c40\P
40
4.5
41
0
44
1.084337
50
90
71
7
72
5
7
DEFAULT
0
LINE
5
E2
100
AcDbEntity
8
SK2
62
256
6
ByLayer
370
-1
48
1
60
0
100
AcDbLine
10
-1.499997
20
-20
30
0
11
-49.699994
21
-20
31
0
39
0
210
0
220
0
230
1
0
LINE
5
E3
100
AcDbEntity
8
SK2
62
256
6
ByLayer
370
-1
48
1
60
0
100
AcDbLine
10
-1.499997
20
20
30
0
11
-49.699994
21
20
31
0
39
0
210
0
220
0
230
1
0
LINE
5
E4
100
AcDbEntity
8
SK2
62
256
6
ByLayer
370
-1
48
1
60
0
100
AcDbLine
10
-46.7
20
-20
30
0
11
-46.7
21
20
31
0
39
0
210
0
220
0
230
1
0
LINE
5
E5
100
AcDbEntity
8
SK2
62
256
6
ByLayer
370
-1
48
1
60
0
100
AcDbLine
10
-46.7
20
-20
30
0
11
-47.199999
21
-17.000008
31
0
39
0
210
0
220
0
230
1
0
LINE
5
E6
100
AcDbEntity
8
SK2
62
256
6
ByLayer
370
-1
48
1
60
0
100
AcDbLine
10
-46.7
20
-20
30
0
11
-46.200001
21
-17.000004
31
0
39
0
210
0
220
0
230
1
0
LINE
5
E7
100
AcDbEntity
8
SK2
62
256
6
ByLayer
370
-1
48
1
60
0
100
AcDbLine
10
-47.199999
20
-17.000008
30
0
11
-46.200001
21
-17.000004
31
0
39
0
210
0
220
0
230
1
0
LINE
5
E8
100
AcDbEntity
8
SK2
62
256
6
ByLayer
370
-1
48
1
60
0
100
AcDbLine
10
-46.7
20
20
30
0
11
-46.200001
21
17.000008
31
0
39
0
210
0
220
0
230
1
0
LINE
5
E9
100
AcDbEntity
8
SK2
62
256
6
ByLayer
370
-1
48
1
60
0
100
AcDbLine
10
-46.7
20
20
30
0
11
-47.199999
21
17.000004
31
0
39
0
210
0
220
0
230
1
0
LINE
5
EA
100
AcDbEntity
8
SK2
62
256
6
ByLayer
370
-1
48
1
60
0
100
AcDbLine
10
-46.200001
20
17.000008
30
0
11
-47.199999
21
17.000004
31
0
39
0
210
0
220
0
230
1
0
ENDBLK
5
EC
100
AcDbEntity
8
0
100
AcDbBlockEnd
0
BLOCK
5
F9
100
AcDbEntity
8
0
100
AcDbBlockBegin
2
DimnDraft3D3
70
0
10
0
20
0
30
0
3
DimnDraft3D3
0
MTEXT
5
EF
100
AcDbEntity
8
2
62
256
6
ByLayer
370
-1
48
1
60
0
100
AcDbMText
10
70.361842
20
35.125
30
0
210
0
220
0
230
1
1
\W01.000;\fsimplex.shx,bigfont.shx;57.0\P
40
4.5
41
0
44
1.084337
50
0
71
7
72
5
7
DEFAULT
0
LINE
5
F0
100
AcDbEntity
8
2
62
256
6
ByLayer
370
-1
48
1
60
0
100
AcDbLine
10
102.591151
20
-4.159116
30
0
11
102.591151
21
36.999994
31
0
39
0
210
0
220
0
230
1
0
LINE
5
F1
100
AcDbEntity
8
2
62
256
6
ByLayer
370
-1
48
1
60
0
100
AcDbLine
10
46
20
10.599997
30
0
11
46
21
36.999994
31
0
39
0
210
0
220
0
230
1
0
LINE
5
F2
100
AcDbEntity
8
2
62
256
6
ByLayer
370
-1
48
1
60
0
100
AcDbLine
10
102.591151
20
34
30
0
11
46
21
34
31
0
39
0
210
0
220
0
230
1
0
LINE
5
F3
100
AcDbEntity
8
2
62
256
6
ByLayer
370
-1
48
1
60
0
100
AcDbLine
10
102.591151
20
34
30
0
11
99.591159
21
33.500001
31
0
39
0
210
0
220
0
230
1
0
LINE
5
F4
100
AcDbEntity
8
2
62
256
6
ByLayer
370
-1
48
1
60
0
100
AcDbLine
10
102.591151
20
34
30
0
11
99.591155
21
34.499999
31
0
39
0
210
0
220
0
230
1
0
LINE
5
F5
100
AcDbEntity
8
2
62
256
6
ByLayer
370
-1
48
1
60
0
100
AcDbLine
10
99.591159
20
33.500001
30
0
11
99.591155
21
34.499999
31
0
39
0
210
0
220
0
230
1
0
LINE
5
F6
100
AcDbEntity
8
2
62
256
6
ByLayer
370
-1
48
1
60
0
100
AcDbLine
10
46
20
34
30
0
11
48.999992
21
34.499999
31
0
39
0
210
0
220
0
230
1
0
LINE
5
F7
100
AcDbEntity
8
2
62
256
6
ByLayer
370
-1
48
1
60
0
100
AcDbLine
10
46
20
34
30
0
11
48.999996
21
33.500001
31
0
39
0
210
0
220
0
230
1
0
LINE
5
F8
100
AcDbEntity
8
2
62
256
6
ByLayer
370
-1
48
1
60
0
100
AcDbLine
10
48.999992
20
34.499999
30
0
11
48.999996
21
33.500001
31
0
39
0
210
0
220
0
230
1
0
ENDBLK
5
FA
100
AcDbEntity
8
0
100
AcDbBlockEnd
0
BLOCK
5
107
100
AcDbEntity
8
0
100
AcDbBlockBegin
2
DimnDraft3D4
70
0
10
0
20
0
30
0
3
DimnDraft3D4
0
MTEXT
5
FD
100
AcDbEntity
8
SK2
62
256
6
ByLayer
370
-1
48
1
60
0
100
AcDbMText
10
-20.375
20
46.375
30
0
210
0
220
0
230
1
1
\W01.000;\fsimplex.shx,bigfont.shx;24.0\P
40
4.5
41
0
44
1.084337
50
0
71
7
72
5
7
DEFAULT
0
LINE
5
FE
100
AcDbEntity
8
SK2
62
256
6
ByLayer
370
-1
48
1
60
0
100
AcDbLine
10
0
20
1.499997
30
0
11
0
21
48.249994
31
0
39
0
210
0
220
0
230
1
0
LINE
5
FF
100
AcDbEntity
8
SK2
62
256
6
ByLayer
370
-1
48
1
60
0
100
AcDbLine
10
-24
20
14.673772
30
0
11
-24
21
48.249994
31
0
39
0
210
0
220
0
230
1
0
LINE
5
100
100
AcDbEntity
8
SK2
62
256
6
ByLayer
370
-1
48
1
60
0
100
AcDbLine
10
0
20
45.25
30
0
11
-24
21
45.25
31
0
39
0
210
0
220
0
230
1
0
LINE
5
101
100
AcDbEntity
8
SK2
62
256
6
ByLayer
370
-1
48
1
60
0
100
AcDbLine
10
0
20
45.25
30
0
11
-2.999992
21
44.750001
31
0
39
0
210
0
220
0
230
1
0
LINE
5
102
100
AcDbEntity
8
SK2
62
256
6
ByLayer
370
-1
48
1
60
0
100
AcDbLine
10
0
20
45.25
30
0
11
-2.999996
21
45.749999
31
0
39
0
210
0
220
0
230
1
0
LINE
5
103
100
AcDbEntity
8
SK2
62
256
6
ByLayer
370
-1
48
1
60
0
100
AcDbLine
10
-2.999992
20
44.750001
30
0
11
-2.999996
21
45.749999
31
0
39
0
210
0
220
0
230
1
0
LINE
5
104
100
AcDbEntity
8
SK2
62
256
6
ByLayer
370
-1
48
1
60
0
100
AcDbLine
10
-24
20
45.25
30
0
11
-21.000008
21
45.749999
31
0
39
0
210
0
220
0
230
1
0
LINE
5
105
100
AcDbEntity
8
SK2
62
256
6
ByLayer
370
-1
48
1
60
0
100
AcDbLine
10
-24
20
45.25
30
0
11
-21.000004
21
44.750001
31
0
39
0
210
0
220
0
230
1
0
LINE
5
106
100
AcDbEntity
8
SK2
62
256
6
ByLayer
370
-1
48
1
60
0
100
AcDbLine
10
-21.000008
20
45.749999
30
0
11
-21.000004
21
44.750001
31
0
39
0
210
0
220
0
230
1
0
ENDBLK
5
108
100
AcDbEntity
8
0
100
AcDbBlockEnd
0
BLOCK
5
115
100
AcDbEntity
8
0
100
AcDbBlockBegin
2
DimnDraft3D5
70
0
10
0
20
0
30
0
3
DimnDraft3D5
0
MTEXT
5
10B
100
AcDbEntity
8
SK2
62
256
6
ByLayer
370
-1
48
1
60
0
100
AcDbMText
10
32.407895
20
57.625
30
0
210
0
220
0
230
1
1
\W01.000;\fsimplex.shx,bigfont.shx;(127.0)\P
40
4.5
41
0
44
1.084337
50
0
71
7
72
5
7
DEFAULT
0
LINE
5
10C
100
AcDbEntity
8
SK2
62
256
6
ByLayer
370
-1
48
1
60
0
100
AcDbLine
10
102.591151
20
-4.159116
30
0
11
102.591151
21
59.499994
31
0
39
0
210
0
220
0
230
1
0
LINE
5
10D
100
AcDbEntity
8
SK2
62
256
6
ByLayer
370
-1
48
1
60
0
100
AcDbLine
10
-24
20
14.673772
30
0
11
-24
21
59.499994
31
0
39
0
210
0
220
0
230
1
0
LINE
5
10E
100
AcDbEntity
8
SK2
62
256
6
ByLayer
370
-1
48
1
60
0
100
AcDbLine
10
102.591151
20
56.5
30
0
11
-24
21
56.5
31
0
39
0
210
0
220
0
230
1
0
LINE
5
10F
100
AcDbEntity
8
SK2
62
256
6
ByLayer
370
-1
48
1
60
0
100
AcDbLine
10
102.591151
20
56.5
30
0
11
99.591159
21
56.000001
31
0
39
0
210
0
220
0
230
1
0
LINE
5
110
100
AcDbEntity
8
SK2
62
256
6
ByLayer
370
-1
48
1
60
0
100
AcDbLine
10
102.591151
20
56.5
30
0
11
99.591155
21
56.999999
31
0
39
0
210
0
220
0
230
1
0
LINE
5
111
100
AcDbEntity
8
SK2
62
256
6
ByLayer
370
-1
48
1
60
0
100
AcDbLine
10
99.591159
20
56.000001
30
0
11
99.591155
21
56.999999
31
0
39
0
210
0
220
0
230
1
0
LINE
5
112
100
AcDbEntity
8
SK2
62
256
6
ByLayer
370
-1
48
1
60
0
100
AcDbLine
10
-24
20
56.5
30
0
11
-21.000008
21
56.999999
31
0
39
0
210
0
220
0
230
1
0
LINE
5
113
100
AcDbEntity
8
SK2
62
256
6
ByLayer
370
-1
48
1
60
0
100
AcDbLine
10
-24
20
56.5
30
0
11
-21.000004
21
56.000001
31
0
39
0
210
0
220
0
230
1
0
LINE
5
114
100
AcDbEntity
8
SK2
62
256
6
ByLayer
370
-1
48
1
60
0
100
AcDbLine
10
-21.000008
20
56.999999
30
0
11
-21.000004
21
56.000001
31
0
39
0
210
0
220
0
230
1
0
ENDBLK
5
116
100
AcDbEntity
8
0
100
AcDbBlockEnd
0
BLOCK
5
123
100
AcDbEntity
8
0
100
AcDbBlockBegin
2
DimnDraft3D6
70
0
10
0
20
0
30
0
3
DimnDraft3D6
0
MTEXT
5
119
100
AcDbEntity
8
2
62
256
6
ByLayer
370
-1
48
1
60
0
100
AcDbMText
10
46.272368
20
46.375
30
0
210
0
220
0
230
1
1
\W01.000;\fsimplex.shx,bigfont.shx;103.0\P
40
4.5
41
0
44
1.084337
50
0
71
7
72
5
7
DEFAULT
0
LINE
5
11A
100
AcDbEntity
8
2
62
256
6
ByLayer
370
-1
48
1
60
0
100
AcDbLine
10
102.591151
20
-4.159116
30
0
11
102.591151
21
48.249994
31
0
39
0
210
0
220
0
230
1
0
LINE
5
11B
100
AcDbEntity
8
2
62
256
6
ByLayer
370
-1
48
1
60
0
100
AcDbLine
10
0
20
17.599997
30
0
11
0
21
48.249994
31
0
39
0
210
0
220
0
230
1
0
LINE
5
11C
100
AcDbEntity
8
2
62
256
6
ByLayer
370
-1
48
1
60
0
100
AcDbLine
10
102.591151
20
45.25
30
0
11
0
21
45.25
31
0
39
0
210
0
220
0
230
1
0
LINE
5
11D
100
AcDbEntity
8
2
62
256
6
ByLayer
370
-1
48
1
60
0
100
AcDbLine
10
102.591151
20
45.25
30
0
11
99.591159
21
44.750001
31
0
39
0
210
0
220
0
230
1
0
LINE
5
11E
100
AcDbEntity
8
2
62
256
6
ByLayer
370
-1
48
1
60
0
100
AcDbLine
10
102.591151
20
45.25
30
0
11
99.591155
21
45.749999
31
0
39
0
210
0
220
0
230
1
0
LINE
5
11F
100
AcDbEntity
8
2
62
256
6
ByLayer
370
-1
48
1
60
0
100
AcDbLine
10
99.591159
20
44.750001
30
0
11
99.591155
21
45.749999
31
0
39
0
210
0
220
0
230
1
0
LINE
5
120
100
AcDbEntity
8
2
62
256
6
ByLayer
370
-1
48
1
60
0
100
AcDbLine
10
0
20
45.25
30
0
11
2.999992
21
45.749999
31
0
39
0
210
0
220
0
230
1
0
LINE
5
121
100
AcDbEntity
8
2
62
256
6
ByLayer
370
-1
48
1
60
0
100
AcDbLine
10
0
20
45.25
30
0
11
2.999996
21
44.750001
31
0
39
0
210
0
220
0
230
1
0
LINE
5
122
100
AcDbEntity
8
2
62
256
6
ByLayer
370
-1
48
1
60
0
100
AcDbLine
10
2.999992
20
45.749999
30
0
11
2.999996
21
44.750001
31
0
39
0
210
0
220
0
230
1
0
ENDBLK
5
124
100
AcDbEntity
8
0
100
AcDbBlockEnd
0
ENDSEC
0
SECTION
2
ENTITIES
0
ARC
5
A1
100
AcDbEntity
8
1
62
256
6
ByLayer
370
-1
48
1
60
0
100
AcDbCircle
39
0
10
48.091778
20
-16.55
30
0
40
8
210
0
220
0
230
1
100
AcDbArc
50
90
51
140.235126
0
ARC
5
A2
100
AcDbEntity
8
1
62
256
6
ByLayer
370
-1
48
1
60
0
100
AcDbCircle
39
0
10
35.400018
20
-5.9888
30
0
40
8.5112
210
0
220
0
230
1
100
AcDbArc
50
270
51
320.235126
0
ARC
5
A3
100
AcDbEntity
8
1
62
256
6
ByLayer
370
-1
48
1
60
0
100
AcDbCircle
39
0
10
-48.091778
20
16.55
30
0
40
8
210
0
220
0
230
-1
100
AcDbArc
50
270
51
320.235126
0
ARC
5
A4
100
AcDbEntity
8
1
62
256
6
ByLayer
370
-1
48
1
60
0
100
AcDbCircle
39
0
10
-35.400018
20
5.9888
30
0
40
8.5112
210
0
220
0
230
-1
100
AcDbArc
50
90
51
140.235126
0
ARC
5
A5
100
AcDbEntity
8
1
62
256
6
ByLayer
370
-1
48
1
60
0
100
AcDbCircle
39
0
10
102.243987
20
2.865606
30
1
40
0.396
210
0
220
0
230
1
100
AcDbArc
50
253
51
355
0
ARC
5
A6
100
AcDbEntity
8
1
62
256
6
ByLayer
370
-1
48
1
60
0
100
AcDbCircle
39
0
10
-101.945254
20
8.565784
30
-1
40
0.396
210
0
220
0
230
-1
100
AcDbArc
50
67
51
169
0
ARC
5
A7
100
AcDbEntity
8
1
62
256
6
ByLayer
370
-1
48
1
60
0
100
AcDbCircle
39
0
10
95.556013
20
8.230938
30
1
40
0.396
210
0
220
0
230
1
100
AcDbArc
50
73
51
175
0
ARC
5
A8
100
AcDbEntity
8
1
62
256
6
ByLayer
370
-1
48
1
60
0
100
AcDbCircle
39
0
10
-95.854746
20
2.53076
30
-1
40
0.396
210
0
220
0
230
-1
100
AcDbArc
50
247
51
349
0
ARC
5
AB
100
AcDbEntity
8
1
62
256
6
ByLayer
370
-1
48
1
60
0
100
AcDbCircle
39
0
10
102.199005
20
-5.604
30
-0.26
40
0.396
210
0
220
0
230
1
100
AcDbArc
50
250
51
352
0
ARC
5
AC
100
AcDbEntity
8
1
62
256
6
ByLayer
370
-1
48
1
60
0
100
AcDbCircle
39
0
10
-102.199005
20
0.104
30
0.26
40
0.396
210
0
220
0
230
-1
100
AcDbArc
50
70
51
172
0
ARC
5
AD
100
AcDbEntity
8
1
62
256
6
ByLayer
370
-1
48
1
60
0
100
AcDbCircle
39
0
10
95.800995
20
0.104
30
-0.26
40
0.396
210
0
220
0
230
1
100
AcDbArc
50
70
51
172
0
ARC
5
AE
100
AcDbEntity
8
1
62
256
6
ByLayer
370
-1
48
1
60
0
100
AcDbCircle
39
0
10
-95.800995
20
-5.604
30
0.26
40
0.396
210
0
220
0
230
-1
100
AcDbArc
50
250
51
352
0
CIRCLE
5
A9
100
AcDbEntity
8
1
62
256
6
ByLayer
370
-1
48
1
60
0
100
AcDbCircle
10
98.9
20
5.548272
30
1
40
1.65
39
0
210
0
220
0
230
1
0
CIRCLE
5
AA
100
AcDbEntity
8
1
62
256
6
ByLayer
370
-1
48
1
60
0
100
AcDbCircle
10
98.9
20
5.548272
30
1
40
1.1
39
0
210
0
220
0
230
1
0
CIRCLE
5
AF
100
AcDbEntity
8
1
62
256
6
ByLayer
370
-1
48
1
60
0
100
AcDbCircle
10
99
20
-2.75
30
-0.26
40
0.85
39
0
210
0
220
0
230
1
0
POINT
5
42
100
AcDbEntity
8
1
62
256
6
ByLayer
370
-1
48
1
60
1
100
AcDbPoint
10
102.8
20
0
30
0
39
0
210
0
220
0
230
1
50
360
0
POINT
5
44
100
AcDbEntity
8
1
62
256
6
ByLayer
370
-1
48
1
60
1
100
AcDbPoint
10
45.426907
20
-3.530264
30
6.65833
39
0
210
0
220
0
230
1
50
360
0
POINT
5
45
100
AcDbEntity
8
1
62
256
6
ByLayer
370
-1
48
1
60
1
100
AcDbPoint
10
35.4
20
-0.090904
30
15.999742
39
0
210
0
220
0
230
1
50
360
0
POINT
5
46
100
AcDbEntity
8
1
62
256
6
ByLayer
370
-1
48
1
60
0
100
AcDbPoint
10
0
20
0
30
0
39
0
210
0
220
0
230
1
50
360
0
POINT
5
47
100
AcDbEntity
8
1
62
256
6
ByLayer
370
-1
48
1
60
0
100
AcDbPoint
10
30
20
0
30
0
39
0
210
0
220
0
230
1
50
360
0
POINT
5
48
100
AcDbEntity
8
1
62
256
6
ByLayer
370
-1
48
1
60
0
100
AcDbPoint
10
98.9
20
5.548272
30
1
39
0
210
0
220
0
230
1
50
360
0
POINT
5
49
100
AcDbEntity
8
1
62
256
6
ByLayer
370
-1
48
1
60
0
100
AcDbPoint
10
99
20
-2.75
30
-0.26
39
0
210
0
220
0
230
1
50
360
0
POINT
5
4A
100
AcDbEntity
8
81
62
256
6
ByLayer
370
-1
48
1
60
0
100
AcDbPoint
10
103
20
0
30
0
39
0
210
0
220
0
230
1
50
360
0
POINT
5
4C
100
AcDbEntity
8
80
62
256
6
ByLayer
370
-1
48
1
60
0
100
AcDbPoint
10
0
20
0
30
0
39
0
210
0
220
0
230
1
50
360
0
SPLINE
5
B0
100
AcDbEntity
8
1
62
256
6
ByLayer
370
-1
48
1
60
0
100
AcDbSpline
70
4
71
3
72
29
73
25
40
0
40
0
40
0
40
0
40
0.0005000064215407
40
0.0500000172169075
40
0.100000015303918
40
0.150000013390928
40
0.200000011477938
40
0.250000009564949
40
0.300000007651959
40
0.350000005738969
40
0.40000000382598
40
0.45000000191299
40
0.5
40
0.54999999808701
40
0.599999996174021
40
0.649999994261031
40
0.699999992348041
40
0.749999990435052
40
0.799999988522062
40
0.849999986609072
40
0.899999984696082
40
0.949999982783093
40
0.99949999357846
40
1
40
1
40
1
40
1
41
1
10
87.8
20
8.07520055280124
30
2.80956153732902
41
1
10
87.7967904772589
20
8.07563387609788
30
2.80831608572308
41
1
10
87.4758421885616
20
8.11893663203395
30
2.68376311877285
41
1
10
86.8339318350366
20
8.19977973800579
30
2.43264844637585
41
1
10
85.8742865909999
20
8.3032338671146
30
2.05207037730662
41
1
10
84.9114290399991
20
8.38926160415043
30
1.66582583031289
41
1
10
83.9485722587688
20
8.45733226265963
30
1.27601597619639
41
1
10
82.9857152712791
20
8.50730028817973
30
0.883474756551641
41
1
10
82.0228583390564
20
8.53905868580902
30
0.489042510469366
41
1
10
81.0600013920253
20
8.55253948833429
30
0.0935634770611787
41
1
10
80.0971444489607
20
8.54771383764298
30
-0.302115824378989
41
1
10
79.1342875048384
20
8.52459206366319
30
-0.697148456487928
41
1
10
78.1714305609805
20
8.48322365764202
30
-1.09068886325072
41
1
10
77.2085736171227
20
8.42369716748402
30
-1.48189468342884
41
1
10
76.2457166730004
20
8.34614000773587
30
-1.86992855287156
41
1
10
75.2828597299358
20
8.25071818751143
30
-2.25395989627706
41
1
10
74.3200027829047
20
8.13763595302703
30
-2.63316670811752
41
1
10
73.357145850682
20
8.00713535827565
30
-3.00673730029392
41
1
10
72.3942888631923
20
7.85949571761656
30
-3.37387208371905
41
1
10
71.431432081962
20
7.69503311725869
30
-3.73378511488037
41
1
10
70.4685745309612
20
7.51409933059959
30
-4.08570639367308
41
1
10
69.5089292869245
20
7.31773929407757
30
-4.42773732727881
41
1
10
68.867018933399
20
7.17600379820547
30
-4.65023504790998
41
1
10
68.5460706447022
20
7.10260261641969
30
-4.75978337861491
41
1
10
68.5428611219611
20
7.10186833822965
30
-4.76087871158794
0
SPLINE
5
B1
100
AcDbEntity
8
1
62
256
6
ByLayer
370
-1
48
1
60
0
100
AcDbSpline
70
4
71
3
72
29
73
25
40
0
40
0
40
0
40
0
40
0.000500017231525
40
0.0500000461964573
40
0.100000041063518
40
0.150000035930578
40
0.200000030797638
40
0.250000025664699
40
0.300000020531759
40
0.350000015398819
40
0.40000001026588
40
0.45000000513294
40
0.5
40
0.549999994867061
40
0.599999989734121
40
0.649999984601181
40
0.699999979468241
40
0.749999974335302
40
0.799999969202362
40
0.849999964069422
40
0.899999958936483
40
0.949999953803543
40
0.999499982768475
40
1
40
1
40
1
40
1
41
1
10
87.8
20
0.468711498513349
30
8.53714293725725
41
1
10
87.7947422297986
20
0.470868496973988
30
8.5370245120536
41
1
10
87.2689827287179
20
0.686553565969235
30
8.52510088560928
41
1
10
86.2174031694875
20
1.1170415614802
30
8.48489579954595
41
1
10
84.645338915143
20
1.75424992779192
30
8.37646920425569
41
1
10
83.0680046516623
20
2.38352140645084
30
8.21957774101312
41
1
10
81.4906737719427
20
2.99910392629496
30
8.01548543995168
41
1
10
79.9133419855471
20
3.59746451138216
30
7.7653641742417
41
1
10
78.3360104420942
20
4.17516653716196
30
7.47065029972592
41
1
10
76.7586788335465
20
4.72889269298358
30
7.13303620216235
41
1
10
75.181347242435
20
5.25546316690175
30
6.7544606334813
41
1
10
73.6040156466738
20
5.75185413748905
30
6.33709756384121
41
1
10
72.0266840520751
20
6.21521507604211
30
5.88334370144939
41
1
10
70.4493524574763
20
6.64288513238242
30
5.39580472872811
41
1
10
68.8720208617151
20
7.03240841034471
30
4.87728033826462
41
1
10
67.2946892706036
20
7.38154807192136
30
4.33074815996337
41
1
10
65.717357662056
20
7.68829918212864
30
3.75934664535104
41
1
10
64.140026118603
20
7.9509002219107
30
3.16635710722447
41
1
10
62.5626943322075
20
8.16784320559799
30
2.55518464451438
41
1
10
60.9853634524878
20
8.33788233322612
30
1.92933945505802
41
1
10
59.4080291890071
20
8.46004117177621
30
1.2924134442404
41
1
10
57.8359649346626
20
8.53337292077667
30
0.650219327751891
41
1
10
56.7843853754323
20
8.54991817142692
30
0.218174633414257
41
1
10
56.2586258743515
20
8.54999999965963
30
0.0021602469507252
41
1
10
56.2533681041501
20
8.55
30
1.38E-14
0
SPLINE
5
B2
100
AcDbEntity
8
1
62
256
6
ByLayer
370
-1
48
1
60
0
100
AcDbSpline
70
4
71
3
72
29
73
25
40
0
40
0
40
0
40
0
40
0.0005000210072934
40
0.0500000563176137
40
0.100000050060101
40
0.150000043802588
40
0.200000037545076
40
0.250000031287563
40
0.300000025030051
40
0.350000018772538
40
0.400000012515025
40
0.450000006257513
40
0.5
40
0.549999993742487
40
0.599999987484975
40
0.649999981227462
40
0.69999997496995
40
0.749999968712437
40
0.799999962454924
40
0.849999956197412
40
0.899999949939899
40
0.949999943682387
40
0.999499978992707
40
1
40
1
40
1
40
1
41
1
10
80.832354139772
20
-8.55
30
1E-14
41
1
10
80.8265487498132
20
-8.54999999949411
30
0.0023852511198722
41
1
10
80.2460333361052
20
-8.54990024914285
30
0.240896486976864
41
1
10
79.0849209935588
20
-8.5297269739455
30
0.71794035051862
41
1
10
77.3491215589453
20
-8.44035223903853
30
1.42612367444391
41
1
10
75.6075002596658
20
-8.29159374157423
30
2.12670000627106
41
1
10
73.8658835152286
20
-8.08479181340646
30
2.8123867168569
41
1
10
72.1242655503253
20
-7.82139410008343
30
3.47838651366977
41
1
10
70.3826479124443
20
-7.50324446522793
30
4.1200364892607
41
1
10
68.6410301869401
20
-7.13257004251311
30
4.73284511040112
41
1
10
66.8994124849064
20
-6.7119656559464
30
5.31252249514965
41
1
10
65.1577947766138
20
-6.24437565250855
30
5.85501075535185
41
1
10
63.416177069886
20
-5.73307329157363
30
6.35651231933266
41
1
10
61.6745593631582
20
-5.18163783140829
30
6.81351653839967
41
1
10
59.9329416548657
20
-4.59392947182736
30
7.2228242562
41
1
10
58.191323952832
20
-3.97406233769077
30
7.58157020587101
41
1
10
56.4497062273277
20
-3.32637565658218
30
7.88724306517244
41
1
10
54.7080885894467
20
-2.65540346628714
30
8.13770304438113
41
1
10
52.9664706245434
20
-1.96584256449503
30
8.33119683616327
41
1
10
51.2248538801062
20
-1.26252078975951
30
8.46636999825848
41
1
10
49.4832325808267
20
-0.550358896695945
30
8.54227602800798
41
1
10
47.7474331462132
20
0.163261245463566
30
8.55833081638502
41
1
10
46.5863208036671
20
0.639849729149151
30
8.52932692021117
41
1
10
46.0058053899588
20
0.877106050632098
30
8.50489216020502
41
1
10
46
20
0.879478649317997
30
8.50464680662247
0
SPLINE
5
B3
100
AcDbEntity
8
1
62
256
6
ByLayer
370
-1
48
1
60
0
100
AcDbSpline
70
4
71
3
72
29
73
25
40
0
40
0
40
0
40
0
40
0.0005000087996506
40
0.0500000235925306
40
0.100000020971138
40
0.150000018349746
40
0.200000015728354
40
0.250000013106962
40
0.300000010485569
40
0.350000007864177
40
0.400000005242785
40
0.450000002621392
40
0.5
40
0.549999997378608
40
0.599999994757216
40
0.649999992135823
40
0.699999989514431
40
0.749999986893039
40
0.799999984271646
40
0.849999981650254
40
0.899999979028862
40
0.949999976407469
40
0.999499991200349
40
1
40
1
40
1
40
1
41
1
10
68.5428611219611
20
-7.10186833822965
30
-4.76087871158794
41
1
10
68.5391039790908
20
-7.10272790267112
30
-4.75959648731377
41
1
10
68.1633960852141
20
-7.18864754341084
30
-4.63135391706931
41
1
10
67.411958198649
20
-7.35354341788679
30
-4.37020710173609
41
1
10
66.2885757778326
20
-7.57867175991382
30
-3.96708413294968
41
1
10
65.1614317478638
20
-7.78232581677914
30
-3.550975631234
41
1
10
64.0342889527136
20
-7.96315383946968
30
-3.12445253285527
41
1
10
62.9071458266948
20
-8.12062586216709
30
-2.6887652243688
41
1
10
61.7800027893319
20
-8.25427990748135
30
-2.24519174969461
41
1
10
60.6528597282142
20
-8.36372399465687
30
-1.79503307441888
41
1
10
59.5257166734594
20
-8.44863711422969
30
-1.3396095345462
41
1
10
58.3985736170079
20
-8.50877021645729
30
-0.880256893059996
41
1
10
57.2714305609805
20
-8.54394692920514
30
-0.418322441066874
41
1
10
56.1442875049532
20
-8.55406407867174
30
0.0448389588193857
41
1
10
55.0171444485016
20
-8.5390919908922
30
0.507868845340115
41
1
10
53.8900013937469
20
-8.49907457977909
30
0.969409141905383
41
1
10
52.7628583326292
20
-8.43412921540326
30
1.42810614515455
41
1
10
51.6357152952662
20
-8.34444639041375
30
1.88261447529306
41
1
10
50.5085721692475
20
-8.23028912156358
30
2.3316010972288
41
1
10
49.3814293740973
20
-8.09199232662991
30
2.77374895004711
41
1
10
48.2542853441285
20
-7.92996128843558
30
3.20776185623706
41
1
10
47.130902923312
20
-7.7452901401334
30
3.63094912605001
41
1
10
46.3794650367469
20
-7.60669395478146
30
3.90695529624152
41
1
10
46.0037571428703
20
-7.53371306791152
30
4.04297783716551
41
1
10
46
20
-7.53298287309185
30
4.04433789806254
0
SPLINE
5
B4
100
AcDbEntity
8
1
62
256
6
ByLayer
370
-1
48
1
60
0
100
AcDbSpline
70
4
71
3
72
9
73
5
40
0
40
0
40
0
40
0
40
0.575179101282328
40
1
40
1
40
1
40
1
41
1
10
46
20
-7.53298287309185
30
4.04433789806254
41
1
10
37.6827695059289
20
-3.87734363110981
30
12.2672505387992
41
1
10
31.5397553987473
20
0.435561615068412
30
19.1957613497559
41
1
10
39.8569858928185
20
1.19696689990027
30
13.3147771683616
41
1
10
46
20
0.879478649317997
30
8.50464680662247
0
SPLINE
5
B5
100
AcDbEntity
8
1
62
256
6
ByLayer
370
-1
48
1
60
0
100
AcDbSpline
70
4
71
3
72
16
73
12
40
0
40
0
40
0
40
0
40
0.0463470189311361
40
0.0463470189311361
40
0.292714190516279
40
0.292714190516279
40
0.624961574752601
40
0.624961574752601
40
0.880903213804346
40
0.880903213804346
40
1
40
1
40
1
40
1
41
1
10
9.33660254037845
20
6.1698063921468
30
19.0245496420658
41
1
10
9.41120970705357
20
6.4402689496347
30
18.9368365740867
41
1
10
9.48289389445297
20
6.70966326688875
30
18.8430756135634
41
1
10
9.91644779893528
20
8.4014429398824
30
18.2132817825428
41
1
10
10.1968857470654
20
9.79592967066933
30
17.5057124532486
41
1
10
10.6104994244177
20
12.8306959686099
30
15.4840886154574
41
1
10
10.6603659269754
20
14.4297824024
30
14.0071576081823
41
1
10
10.4040057931725
20
16.7286941568393
30
11.0802943355344
41
1
10
10.1767842109767
20
17.5747161700864
30
9.67771638760926
41
1
10
9.70100248234614
20
18.5335352447912
30
7.5534748488203
41
1
10
9.52830884327845
20
18.7991995076926
30
6.86473914991821
41
1
10
9.33659112649157
20
19.0245904583064
30
6.16973761852513
0
SPLINE
5
B6
100
AcDbEntity
8
1
62
256
6
ByLayer
370
-1
48
1
60
0
100
AcDbSpline
70
4
71
3
72
16
73
12
40
0
40
0
40
0
40
0
40
0.0463492595373783
40
0.0463492595373783
40
0.29272440709006
40
0.29272440709006
40
0.624973152517318
40
0.624973152517318
40
0.880915511168991
40
0.880915511168991
40
1
40
1
40
1
40
1
41
1
10
6.66339745962155
20
6.16980639336087
30
19.024549641672
41
1
10
6.73800822761631
20
5.89933078050227
30
19.1122669436263
41
1
10
6.51709918401399
20
6.70968927922732
30
18.8430665597784
41
1
10
6.08353203432038
20
8.40152698944123
30
18.2132471355468
41
1
10
5.80308950801756
20
9.79605700675114
30
17.5056457299704
41
1
10
5.38948896335545
20
12.830854303
30
15.4839587254809
41
1
10
5.33963545766467
20
14.429932300597
30
14.0070043182712
41
1
10
5.59601990931222
20
16.7288187252401
30
11.0801068091082
41
1
10
5.8232523467298
20
17.5748263953976
30
9.67751661405653
41
1
10
6.29903323852959
20
18.5335902214347
30
7.55333237374364
41
1
10
6.47171096722612
20
18.7992227994875
30
6.86466733249556
41
1
10
6.66340887413668
20
19.024590460553
30
6.16973761473966
0
SPLINE
5
B7
100
AcDbEntity
8
1
62
256
6
ByLayer
370
-1
48
1
60
0
100
AcDbSpline
70
4
71
3
72
12
73
8
40
0
40
0
40
0
40
0
40
0.48557129858128
40
0.48557129858128
40
0.936402085205193
40
0.936402085205193
40
1
40
1
40
1
40
1
41
1
10
9.33660254037845
20
6.16980639330488
30
19.0245496416902
41
1
10
9.35456651699916
20
6.23492859639202
30
19.0034300150751
41
1
10
9.29375666287366
20
6.03987724384563
30
19.0662952264127
41
1
10
9.22189536050024
20
5.92914516396304
30
19.101007006467
41
1
10
9.16894029016483
20
5.87474700467883
30
19.1177302439758
41
1
10
9.09537819879925
20
5.86084605005278
30
19.1219922204584
41
1
10
9.0860652092108
20
5.85996421168224
30
19.1222597889947
41
1
10
9.07679491924311
20
5.85996421168224
30
19.1222597889947
0
SPLINE
5
B8
100
AcDbEntity
8
1
62
256
6
ByLayer
370
-1
48
1
60
0
100
AcDbSpline
70
4
71
3
72
12
73
8
40
0
40
0
40
0
40
0
40
0.485571298590738
40
0.485571298590738
40
0.936402085205416
40
0.936402085205416
40
1
40
1
40
1
40
1
41
1
10
9.33660254037845
20
19.024549641672
30
6.1698063933609
41
1
10
9.31863856375527
20
19.0456692682904
30
6.10468419026449
41
1
10
9.29375666288881
20
19.0662952264032
30
6.03987724387556
41
1
10
9.22189536051243
20
19.1010070064631
30
5.92914516397584
41
1
10
9.16894029017443
20
19.1177302439747
30
5.87474700468218
41
1
10
9.09537819880148
20
19.1219922204584
30
5.86084605005308
41
1
10
9.08606520921191
20
19.1222597889947
30
5.85996421168232
41
1
10
9.07679491924311
20
19.1222597889947
30
5.85996421168232
0
SPLINE
5
B9
100
AcDbEntity
8
1
62
256
6
ByLayer
370
-1
48
1
60
0
100
AcDbSpline
70
4
71
3
72
9
73
5
40
0
40
0
40
0
40
0
40
0.505050505050505
40
1
40
1
40
1
40
1
41
1
10
9.07679491924311
20
5.85996421168224
30
19.1222597889947
41
1
10
8.71423770737674
20
5.85996421168224
30
19.1222597889947
41
1
10
7.99637442788135
20
5.85996421157611
30
19.1222597890272
41
1
10
7.27851114838593
20
5.85996421168224
30
19.1222597889947
41
1
10
6.92320508075689
20
5.85996421168224
30
19.1222597889947
0
SPLINE
5
BA
100
AcDbEntity
8
1
62
256
6
ByLayer
370
-1
48
1
60
0
100
AcDbSpline
70
4
71
3
72
9
73
5
40
0
40
0
40
0
40
0
40
0.494949494949495
40
1
40
1
40
1
40
1
41
1
10
6.92320508075689
20
19.1222597889947
30
5.85996421168232
41
1
10
7.27851114838593
20
19.1222597889947
30
5.85996421168232
41
1
10
7.99637442788135
20
19.1222597901563
30
5.85996420789166
41
1
10
8.71423770737674
20
19.1222597889947
30
5.85996421168232
41
1
10
9.07679491924311
20
19.1222597889947
30
5.85996421168232
0
SPLINE
5
BB
100
AcDbEntity
8
1
62
256
6
ByLayer
370
-1
48
1
60
0
100
AcDbSpline
70
4
71
3
72
12
73
8
40
0
40
0
40
0
40
0
40
0.485571298590726
40
0.485571298590726
40
0.936402085205378
40
0.936402085205378
40
1
40
1
40
1
40
1
41
1
10
6.66339745962155
20
6.16980639336087
30
19.024549641672
41
1
10
6.68136143624474
20
6.10468419026446
30
19.0456692682904
41
1
10
6.70624333711118
20
6.03987724387551
30
19.0662952264033
41
1
10
6.77810463948755
20
5.92914516397578
30
19.1010070064631
41
1
10
6.83105970982554
20
5.87474700468211
30
19.1177302439747
41
1
10
6.9046218011985
20
5.860846050053
30
19.1219922204584
41
1
10
6.91393479078809
20
5.85996421168224
30
19.1222597889947
41
1
10
6.92320508075689
20
5.85996421168224
30
19.1222597889947
0
SPLINE
5
BC
100
AcDbEntity
8
1
62
256
6
ByLayer
370
-1
48
1
60
0
100
AcDbSpline
70
4
71
3
72
12
73
8
40
0
40
0
40
0
40
0
40
0.485571298585116
40
0.485571298585116
40
0.936402085205247
40
0.936402085205247
40
1
40
1
40
1
40
1
41
1
10
6.66339745962156
20
19.0245496416828
30
6.16980639332778
41
1
10
6.64543348299985
20
19.0034300150663
30
6.2349285964187
41
1
10
6.70624333712016
20
19.0662952264088
30
6.03987724385789
41
1
10
6.7781046394948
20
19.1010070064654
30
5.92914516396832
41
1
10
6.83105970983124
20
19.1177302439753
30
5.87474700468025
41
1
10
6.90462180119982
20
19.1219922204584
30
5.86084605005295
41
1
10
6.91393479078874
20
19.1222597889947
30
5.85996421168232
41
1
10
6.92320508075689
20
19.1222597889947
30
5.85996421168232
0
SPLINE
5
BD
100
AcDbEntity
8
1
62
256
6
ByLayer
370
-1
48
1
60
0
100
AcDbSpline
70
4
71
3
72
16
73
12
40
0
40
0
40
0
40
0
40
0.0463470189311361
40
0.0463470189311361
40
0.292714190516279
40
0.292714190516279
40
0.624961574752601
40
0.624961574752601
40
0.880903213804346
40
0.880903213804346
40
1
40
1
40
1
40
1
41
1
10
9.33660254037845
20
-6.1698063921468
30
19.0245496420658
41
1
10
9.41120970705357
20
-6.44026894963469
30
18.9368365740867
41
1
10
9.48289389445297
20
-6.70966326688875
30
18.8430756135634
41
1
10
9.91644779893527
20
-8.4014429398824
30
18.2132817825428
41
1
10
10.1968857470654
20
-9.79592967066934
30
17.5057124532486
41
1
10
10.6104994244177
20
-12.8306959686099
30
15.4840886154574
41
1
10
10.6603659269754
20
-14.4297824024
30
14.0071576081823
41
1
10
10.4040057931725
20
-16.7286941568393
30
11.0802943355344
41
1
10
10.1767842109767
20
-17.5747161700864
30
9.67771638760926
41
1
10
9.70100248234614
20
-18.5335352447912
30
7.5534748488203
41
1
10
9.52830884327845
20
-18.7991995076926
30
6.86473914991821
41
1
10
9.33659112649157
20
-19.0245904583064
30
6.16973761852513
0
SPLINE
5
BE
100
AcDbEntity
8
1
62
256
6
ByLayer
370
-1
48
1
60
0
100
AcDbSpline
70
4
71
3
72
16
73
12
40
0
40
0
40
0
40
0
40
0.0463492595373783
40
0.0463492595373783
40
0.29272440709006
40
0.29272440709006
40
0.624973152517318
40
0.624973152517318
40
0.880915511168991
40
0.880915511168991
40
1
40
1
40
1
40
1
41
1
10
6.66339745962156
20
-6.16980639336087
30
19.024549641672
41
1
10
6.73800822761631
20
-5.89933078050227
30
19.1122669436263
41
1
10
6.51709918401399
20
-6.70968927922732
30
18.8430665597784
41
1
10
6.08353203432037
20
-8.40152698944124
30
18.2132471355468
41
1
10
5.80308950801756
20
-9.79605700675114
30
17.5056457299704
41
1
10
5.38948896335545
20
-12.830854303
30
15.4839587254809
41
1
10
5.33963545766466
20
-14.429932300597
30
14.0070043182712
41
1
10
5.59601990931222
20
-16.7288187252401
30
11.0801068091082
41
1
10
5.8232523467298
20
-17.5748263953976
30
9.67751661405653
41
1
10
6.29903323852959
20
-18.5335902214347
30
7.55333237374364
41
1
10
6.47171096722612
20
-18.7992227994875
30
6.86466733249556
41
1
10
6.66340887413668
20
-19.024590460553
30
6.16973761473966
0
SPLINE
5
BF
100
AcDbEntity
8
1
62
256
6
ByLayer
370
-1
48
1
60
0
100
AcDbSpline
70
4
71
3
72
12
73
8
40
0
40
0
40
0
40
0
40
0.48557129858128
40
0.48557129858128
40
0.936402085205193
40
0.936402085205193
40
1
40
1
40
1
40
1
41
1
10
9.33660254037845
20
-6.16980639330488
30
19.0245496416902
41
1
10
9.35456651699916
20
-6.23492859639202
30
19.0034300150751
41
1
10
9.29375666287366
20
-6.03987724384563
30
19.0662952264127
41
1
10
9.22189536050024
20
-5.92914516396304
30
19.101007006467
41
1
10
9.16894029016483
20
-5.87474700467883
30
19.1177302439758
41
1
10
9.09537819879925
20
-5.86084605005278
30
19.1219922204584
41
1
10
9.0860652092108
20
-5.85996421168224
30
19.1222597889947
41
1
10
9.07679491924311
20
-5.85996421168224
30
19.1222597889947
0
SPLINE
5
C0
100
AcDbEntity
8
1
62
256
6
ByLayer
370
-1
48
1
60
0
100
AcDbSpline
70
4
71
3
72
12
73
8
40
0
40
0
40
0
40
0
40
0.485571298590738
40
0.485571298590738
40
0.936402085205416
40
0.936402085205416
40
1
40
1
40
1
40
1
41
1
10
9.33660254037845
20
-19.024549641672
30
6.1698063933609
41
1
10
9.31863856375527
20
-19.0456692682904
30
6.10468419026449
41
1
10
9.29375666288881
20
-19.0662952264032
30
6.03987724387556
41
1
10
9.22189536051243
20
-19.1010070064631
30
5.92914516397584
41
1
10
9.16894029017443
20
-19.1177302439747
30
5.87474700468218
41
1
10
9.09537819880148
20
-19.1219922204584
30
5.86084605005308
41
1
10
9.08606520921191
20
-19.1222597889947
30
5.85996421168232
41
1
10
9.07679491924311
20
-19.1222597889947
30
5.85996421168232
0
SPLINE
5
C1
100
AcDbEntity
8
1
62
256
6
ByLayer
370
-1
48
1
60
0
100
AcDbSpline
70
4
71
3
72
9
73
5
40
0
40
0
40
0
40
0
40
0.505050505050505
40
1
40
1
40
1
40
1
41
1
10
9.07679491924311
20
-5.85996421168224
30
19.1222597889947
41
1
10
8.71423770737674
20
-5.85996421168224
30
19.1222597889947
41
1
10
7.99637442788135
20
-5.8599642115761
30
19.1222597890272
41
1
10
7.27851114838593
20
-5.85996421168224
30
19.1222597889947
41
1
10
6.92320508075689
20
-5.85996421168224
30
19.1222597889947
0
SPLINE
5
C2
100
AcDbEntity
8
1
62
256
6
ByLayer
370
-1
48
1
60
0
100
AcDbSpline
70
4
71
3
72
9
73
5
40
0
40
0
40
0
40
0
40
0.494949494949495
40
1
40
1
40
1
40
1
41
1
10
6.92320508075689
20
-19.1222597889947
30
5.85996421168232
41
1
10
7.27851114838593
20
-19.1222597889947
30
5.85996421168232
41
1
10
7.99637442788135
20
-19.1222597901563
30
5.85996420789166
41
1
10
8.71423770737674
20
-19.1222597889947
30
5.85996421168232
41
1
10
9.07679491924311
20
-19.1222597889947
30
5.85996421168232
0
SPLINE
5
C3
100
AcDbEntity
8
1
62
256
6
ByLayer
370
-1
48
1
60
0
100
AcDbSpline
70
4
71
3
72
12
73
8
40
0
40
0
40
0
40
0
40
0.485571298590726
40
0.485571298590726
40
0.936402085205378
40
0.936402085205378
40
1
40
1
40
1
40
1
41
1
10
6.66339745962156
20
-6.16980639336087
30
19.024549641672
41
1
10
6.68136143624474
20
-6.10468419026446
30
19.0456692682904
41
1
10
6.70624333711118
20
-6.03987724387551
30
19.0662952264033
41
1
10
6.77810463948755
20
-5.92914516397578
30
19.1010070064631
41
1
10
6.83105970982554
20
-5.87474700468211
30
19.1177302439747
41
1
10
6.9046218011985
20
-5.860846050053
30
19.1219922204584
41
1
10
6.91393479078808
20
-5.85996421168224
30
19.1222597889947
41
1
10
6.92320508075689
20
-5.85996421168224
30
19.1222597889947
0
SPLINE
5
C4
100
AcDbEntity
8
1
62
256
6
ByLayer
370
-1
48
1
60
0
100
AcDbSpline
70
4
71
3
72
12
73
8
40
0
40
0
40
0
40
0
40
0.485571298585116
40
0.485571298585116
40
0.936402085205247
40
0.936402085205247
40
1
40
1
40
1
40
1
41
1
10
6.66339745962156
20
-19.0245496416828
30
6.16980639332778
41
1
10
6.64543348299985
20
-19.0034300150663
30
6.2349285964187
41
1
10
6.70624333712016
20
-19.0662952264088
30
6.03987724385789
41
1
10
6.7781046394948
20
-19.1010070064654
30
5.92914516396832
41
1
10
6.83105970983125
20
-19.1177302439753
30
5.87474700468025
41
1
10
6.90462180119982
20
-19.1219922204584
30
5.86084605005295
41
1
10
6.91393479078874
20
-19.1222597889947
30
5.85996421168232
41
1
10
6.92320508075689
20
-19.1222597889947
30
5.85996421168232
0
SPLINE
5
C5
100
AcDbEntity
8
1
62
256
6
ByLayer
370
-1
48
1
60
0
100
AcDbSpline
70
4
71
3
72
9
73
5
40
0
40
0
40
0
40
0
40
0.256079785642215
40
1
40
1
40
1
40
1
41
1
10
101.796206903433
20
-1.88870644653023
30
0
41
1
10
101.724639618948
20
-2.45627010773413
30
0
41
1
10
101.530642372186
20
-4.67366878482319
30
0
41
1
10
101.670429210972
20
-6.89514384986668
30
0
41
1
10
101.959141348557
20
-8.55
30
0
0
LINE
5
4E
100
AcDbEntity
8
SK4
62
256
6
ByLayer
370
-1
48
0.05
60
0
100
AcDbLine
10
104.8
20
0
30
0
11
-26.2
21
0
31
0
39
0
210
0
220
0
230
1
0
LINE
5
50
100
AcDbEntity
8
4
62
256
6
ByLayer
370
-1
48
0.05
60
0
100
AcDbLine
10
104.8
20
0
30
0
11
-2.2
21
0
31
0
39
0
210
0
220
0
230
1
0
LINE
5
52
100
AcDbEntity
8
1
62
256
6
ByLayer
370
-1
48
1
60
0
100
AcDbLine
10
87.8
20
8.55
30
0
11
80.832354
21
8.55
31
0
39
0
210
0
220
0
230
1
0
LINE
5
53
100
AcDbEntity
8
1
62
256
6
ByLayer
370
-1
48
1
60
0
100
AcDbLine
10
87.8
20
-8.55
30
0
11
80.832354
21
-8.55
31
0
39
0
210
0
220
0
230
1
0
LINE
5
54
100
AcDbEntity
8
1
62
256
6
ByLayer
370
-1
48
1
60
0
100
AcDbLine
10
56.253368
20
8.55
30
0
11
46
21
8.55
31
0
39
0
210
0
220
0
230
1
0
LINE
5
55
100
AcDbEntity
8
1
62
256
6
ByLayer
370
-1
48
1
60
0
100
AcDbLine
10
56.253368
20
-8.55
30
0
11
46
21
-8.55
31
0
39
0
210
0
220
0
230
1
0
LINE
5
56
100
AcDbEntity
8
1
62
256
6
ByLayer
370
-1
48
1
60
0
100
AcDbLine
10
46
20
-8.55
30
0
11
46
21
-7.532983
31
4.044338
39
0
210
0
220
0
230
1
0
LINE
5
57
100
AcDbEntity
8
1
62
256
6
ByLayer
370
-1
48
1
60
0
100
AcDbLine
10
46
20
0.879479
30
8.504647
11
46
21
8.55
31
0
39
0
210
0
220
0
230
1
0
LINE
5
58
100
AcDbEntity
8
1
62
256
6
ByLayer
370
-1
48
1
60
0
100
AcDbLine
10
35.4
20
14.5
30
0
11
35.4
21
-14.5
31
0
39
0
210
0
220
0
230
1
0
LINE
5
59
100
AcDbEntity
8
1
62
256
6
ByLayer
370
-1
48
1
60
0
100
AcDbLine
10
34.9981
20
16
30
0
11
34.9981
21
-16
31
0
39
0
210
0
220
0
230
1
0
LINE
5
5A
100
AcDbEntity
8
1
62
256
6
ByLayer
370
-1
48
1
60
0
100
AcDbLine
10
30.2
20
-16
30
0
11
30
21
-15.8
31
0
39
0
210
0
220
0
230
1
0
LINE
5
5B
100
AcDbEntity
8
1
62
256
6
ByLayer
370
-1
48
1
60
0
100
AcDbLine
10
30.2
20
-16
30
0
11
30.2
21
16
31
0
39
0
210
0
220
0
230
1
0
LINE
5
5C
100
AcDbEntity
8
1
62
256
6
ByLayer
370
-1
48
1
60
0
100
AcDbLine
10
30
20
-15.8
30
0
11
30
21
15.8
31
0
39
0
210
0
220
0
230
1
0
LINE
5
5D
100
AcDbEntity
8
1
62
256
6
ByLayer
370
-1
48
1
60
0
100
AcDbLine
10
30.2
20
16
30
0
11
30
21
15.8
31
0
39
0
210
0
220
0
230
1
0
LINE
5
5E
100
AcDbEntity
8
1
62
256
6
ByLayer
370
-1
48
1
60
0
100
AcDbLine
10
30.2
20
-16
30
0
11
34.9981
21
-16
31
0
39
0
210
0
220
0
230
1
0
LINE
5
5F
100
AcDbEntity
8
1
62
256
6
ByLayer
370
-1
48
1
60
0
100
AcDbLine
10
30.2
20
16
30
0
11
34.9981
21
16
31
0
39
0
210
0
220
0
230
1
0
LINE
5
60
100
AcDbEntity
8
1
62
256
6
ByLayer
370
-1
48
1
60
0
100
AcDbLine
10
34.9981
20
-16
30
0
11
35.4
21
-14.5
31
0
39
0
210
0
220
0
230
1
0
LINE
5
61
100
AcDbEntity
8
1
62
256
6
ByLayer
370
-1
48
1
60
0
100
AcDbLine
10
34.9981
20
16
30
0
11
35.4
21
14.5
31
0
39
0
210
0
220
0
230
1
0
LINE
5
62
100
AcDbEntity
8
1
62
256
6
ByLayer
370
-1
48
1
60
0
100
AcDbLine
10
101.959141
20
-8.55
30
0
11
102.774278
21
-2.75
31
0
39
0
210
0
220
0
230
1
0
LINE
5
63
100
AcDbEntity
8
1
62
256
6
ByLayer
370
-1
48
1
60
0
100
AcDbLine
10
102.774278
20
-2.75
30
0
11
102.387791
21
0
31
0
39
0
210
0
220
0
230
1
0
LINE
5
64
100
AcDbEntity
8
1
62
256
6
ByLayer
370
-1
48
1
60
0
100
AcDbLine
10
29.711325
20
-20
30
0
11
0
21
-20
31
0
39
0
210
0
220
0
230
1
0
LINE
5
65
100
AcDbEntity
8
1
62
256
6
ByLayer
370
-1
48
1
60
0
100
AcDbLine
10
0
20
-20
30
0
11
0
21
20
31
0
39
0
210
0
220
0
230
1
0
LINE
5
66
100
AcDbEntity
8
SK1
62
256
6
ByLayer
370
-1
48
1
60
0
100
AcDbLine
10
-24
20
-13.173775
30
0
11
-24
21
13.173775
31
0
39
0
210
0
220
0
230
1
0
LINE
5
68
100
AcDbEntity
8
SK1
62
256
6
ByLayer
370
-1
48
1
60
0
100
AcDbLine
10
-1.6
20
-14.0625
30
0
11
-1.6
21
14.0625
31
0
39
0
210
0
220
0
230
1
0
LINE
5
69
100
AcDbEntity
8
SK1
62
256
6
ByLayer
370
-1
48
1
60
0
100
AcDbLine
10
0
20
-13.912453
30
0
11
-1.6
21
-13.87245
31
0
39
0
210
0
220
0
230
1
0
LINE
5
6A
100
AcDbEntity
8
SK1
62
256
6
ByLayer
370
-1
48
1
60
0
100
AcDbLine
10
-1.6
20
13.87245
30
0
11
0.003749
21
13.912547
31
0
39
0
210
0
220
0
230
1
0
LINE
5
6B
100
AcDbEntity
8
1
62
256
6
ByLayer
370
-1
48
1
60
0
100
AcDbLine
10
6.663397
20
6.169806
30
19.02455
11
6.663409
21
19.02459
31
6.169738
39
0
210
0
220
0
230
1
0
LINE
5
6C
100
AcDbEntity
8
1
62
256
6
ByLayer
370
-1
48
1
60
0
100
AcDbLine
10
6.923205
20
5.859964
30
19.12226
11
6.923205
21
19.12226
31
5.859964
39
0
210
0
220
0
230
1
0
LINE
5
6D
100
AcDbEntity
8
1
62
256
6
ByLayer
370
-1
48
1
60
0
100
AcDbLine
10
9.076795
20
5.859964
30
19.12226
11
9.076795
21
19.12226
31
5.859964
39
0
210
0
220
0
230
1
0
LINE
5
6E
100
AcDbEntity
8
1
62
256
6
ByLayer
370
-1
48
1
60
0
100
AcDbLine
10
9.336603
20
6.169806
30
19.02455
11
9.336591
21
19.02459
31
6.169738
39
0
210
0
220
0
230
1
0
LINE
5
6F
100
AcDbEntity
8
1
62
256
6
ByLayer
370
-1
48
1
60
0
100
AcDbLine
10
6.663397
20
-6.169806
30
19.02455
11
6.663409
21
-19.02459
31
6.169738
39
0
210
0
220
0
230
1
0
LINE
5
70
100
AcDbEntity
8
1
62
256
6
ByLayer
370
-1
48
1
60
0
100
AcDbLine
10
6.923205
20
-5.859964
30
19.12226
11
6.923205
21
-19.12226
31
5.859964
39
0
210
0
220
0
230
1
0
LINE
5
71
100
AcDbEntity
8
1
62
256
6
ByLayer
370
-1
48
1
60
0
100
AcDbLine
10
9.076795
20
-5.859964
30
19.12226
11
9.076795
21
-19.12226
31
5.859964
39
0
210
0
220
0
230
1
0
LINE
5
72
100
AcDbEntity
8
1
62
256
6
ByLayer
370
-1
48
1
60
0
100
AcDbLine
10
9.336603
20
-6.169806
30
19.02455
11
9.336591
21
-19.02459
31
6.169738
39
0
210
0
220
0
230
1
0
LINE
5
73
100
AcDbEntity
8
SK1
62
256
6
ByLayer
370
-1
48
1
60
0
100
AcDbLine
10
-23.5
20
-13.46245
30
0
11
-23.5
21
13.46245
31
0
39
0
210
0
220
0
230
1
0
LINE
5
74
100
AcDbEntity
8
1
62
256
6
ByLayer
370
-1
48
1
60
0
100
AcDbLine
10
29.711325
20
20
30
0
11
0
21
20
31
0
39
0
210
0
220
0
230
1
0
LINE
5
75
100
AcDbEntity
8
SK1
62
256
6
ByLayer
370
-1
48
1
60
0
100
AcDbLine
10
-1.6
20
-14.0625
30
0
11
-23.5
21
-13.46245
31
0
39
0
210
0
220
0
230
1
0
LINE
5
76
100
AcDbEntity
8
SK1
62
256
6
ByLayer
370
-1
48
1
60
0
100
AcDbLine
10
-1.6
20
14.0625
30
0
11
-23.5
21
13.46245
31
0
39
0
210
0
220
0
230
1
0
LINE
5
77
100
AcDbEntity
8
SK1
62
256
6
ByLayer
370
-1
48
1
60
0
100
AcDbLine
10
-24
20
-13.173775
30
0
11
-23.5
21
-13.46245
31
0
39
0
210
0
220
0
230
1
0
LINE
5
78
100
AcDbEntity
8
SK1
62
256
6
ByLayer
370
-1
48
1
60
0
100
AcDbLine
10
-24
20
13.173775
30
0
11
-23.5
21
13.46245
31
0
39
0
210
0
220
0
230
1
0
LINE
5
79
100
AcDbEntity
8
1
62
256
6
ByLayer
370
-1
48
1
60
0
100
AcDbLine
10
30
20
-19.5
30
0
11
30
21
19.5
31
0
39
0
210
0
220
0
230
1
0
LINE
5
7A
100
AcDbEntity
8
1
62
256
6
ByLayer
370
-1
48
1
60
0
100
AcDbLine
10
29.711325
20
20
30
0
11
30
21
19.5
31
0
39
0
210
0
220
0
230
1
0
LINE
5
7B
100
AcDbEntity
8
1
62
256
6
ByLayer
370
-1
48
1
60
0
100
AcDbLine
10
29.711325
20
-20
30
0
11
30
21
-19.5
31
0
39
0
210
0
220
0
230
1
0
LINE
5
7C
100
AcDbEntity
8
1
62
256
6
ByLayer
370
-1
48
1
60
0
100
AcDbLine
10
29.711325
20
-20
30
0
11
29.711325
21
20
31
0
39
0
210
0
220
0
230
1
0
LINE
5
7D
100
AcDbEntity
8
1
62
256
6
ByLayer
370
-1
48
1
60
0
100
AcDbLine
10
102.128208
20
2.48691
30
1
11
101.356168
21
2.722946
31
1
39
0
210
0
220
0
230
1
0
LINE
5
7E
100
AcDbEntity
8
1
62
256
6
ByLayer
370
-1
48
1
60
0
100
AcDbLine
10
102.638481
20
2.831093
30
1
11
102.894518
21
5.757616
31
1
39
0
210
0
220
0
230
1
0
LINE
5
7F
100
AcDbEntity
8
1
62
256
6
ByLayer
370
-1
48
1
60
0
100
AcDbLine
10
101.790524
20
8.930303
30
1
11
101.047386
21
8.61486
31
1
39
0
210
0
220
0
230
1
0
LINE
5
80
100
AcDbEntity
8
1
62
256
6
ByLayer
370
-1
48
1
60
0
100
AcDbLine
10
102.333978
20
8.641344
30
1
11
102.894518
21
5.757616
31
1
39
0
210
0
220
0
230
1
0
LINE
5
81
100
AcDbEntity
8
1
62
256
6
ByLayer
370
-1
48
1
60
0
100
AcDbLine
10
95.671792
20
8.609634
30
1
11
96.443832
21
8.373598
31
1
39
0
210
0
220
0
230
1
0
LINE
5
82
100
AcDbEntity
8
1
62
256
6
ByLayer
370
-1
48
1
60
0
100
AcDbLine
10
95.161519
20
8.265451
30
1
11
94.905482
21
5.338928
31
1
39
0
210
0
220
0
230
1
0
LINE
5
83
100
AcDbEntity
8
1
62
256
6
ByLayer
370
-1
48
1
60
0
100
AcDbLine
10
96.009476
20
2.16624
30
1
11
96.752614
21
2.481684
31
1
39
0
210
0
220
0
230
1
0
LINE
5
84
100
AcDbEntity
8
1
62
256
6
ByLayer
370
-1
48
1
60
0
100
AcDbLine
10
95.466022
20
2.4552
30
1
11
94.905482
21
5.338928
31
1
39
0
210
0
220
0
230
1
0
LINE
5
85
100
AcDbEntity
8
1
62
256
6
ByLayer
370
-1
48
1
60
0
100
AcDbLine
10
101.356168
20
2.722946
30
1
11
96.752614
21
2.481684
31
1
39
0
210
0
220
0
230
1
0
LINE
5
86
100
AcDbEntity
8
1
62
256
6
ByLayer
370
-1
48
1
60
0
100
AcDbLine
10
101.047386
20
8.61486
30
1
11
96.443832
21
8.373598
31
1
39
0
210
0
220
0
230
1
0
LINE
5
87
100
AcDbEntity
8
1
62
256
6
ByLayer
370
-1
48
1
60
0
100
AcDbLine
10
102.063565
20
-5.976118
30
-0.26
11
101.304936
21
-5.7
31
-0.26
39
0
210
0
220
0
230
1
0
LINE
5
88
100
AcDbEntity
8
1
62
256
6
ByLayer
370
-1
48
1
60
0
100
AcDbLine
10
102.591151
20
-5.659113
30
-0.26
11
103
21
-2.75
31
-0.26
39
0
210
0
220
0
230
1
0
LINE
5
89
100
AcDbEntity
8
1
62
256
6
ByLayer
370
-1
48
1
60
0
100
AcDbLine
10
102.063565
20
0.476118
30
-0.26
11
101.304936
21
0.2
31
-0.26
39
0
210
0
220
0
230
1
0
LINE
5
8A
100
AcDbEntity
8
1
62
256
6
ByLayer
370
-1
48
1
60
0
100
AcDbLine
10
102.591151
20
0.159113
30
-0.26
11
103
21
-2.75
31
-0.26
39
0
210
0
220
0
230
1
0
LINE
5
8B
100
AcDbEntity
8
1
62
256
6
ByLayer
370
-1
48
1
60
0
100
AcDbLine
10
95.936435
20
0.476118
30
-0.26
11
96.695064
21
0.2
31
-0.26
39
0
210
0
220
0
230
1
0
LINE
5
8C
100
AcDbEntity
8
1
62
256
6
ByLayer
370
-1
48
1
60
0
100
AcDbLine
10
95.408849
20
0.159113
30
-0.26
11
95
21
-2.75
31
-0.26
39
0
210
0
220
0
230
1
0
LINE
5
8D
100
AcDbEntity
8
1
62
256
6
ByLayer
370
-1
48
1
60
0
100
AcDbLine
10
95.936435
20
-5.976118
30
-0.26
11
96.695064
21
-5.7
31
-0.26
39
0
210
0
220
0
230
1
0
LINE
5
8E
100
AcDbEntity
8
1
62
256
6
ByLayer
370
-1
48
1
60
0
100
AcDbLine
10
95.408849
20
-5.659113
30
-0.26
11
95
21
-2.75
31
-0.26
39
0
210
0
220
0
230
1
0
LINE
5
8F
100
AcDbEntity
8
1
62
256
6
ByLayer
370
-1
48
1
60
0
100
AcDbLine
10
101.304936
20
-5.7
30
-0.26
11
96.695064
21
-5.7
31
-0.26
39
0
210
0
220
0
230
1
0
LINE
5
90
100
AcDbEntity
8
1
62
256
6
ByLayer
370
-1
48
1
60
0
100
AcDbLine
10
101.304936
20
0.2
30
-0.26
11
96.695064
21
0.2
31
-0.26
39
0
210
0
220
0
230
1
0
LINE
5
91
100
AcDbEntity
8
1
62
256
6
ByLayer
370
-1
48
1
60
0
100
AcDbLine
10
102.774278
20
-2.75
30
0
11
101.796207
21
-1.888706
31
0
39
0
210
0
220
0
230
1
0
LINE
5
92
100
AcDbEntity
8
1
62
256
6
ByLayer
370
-1
48
1
60
0
100
AcDbLine
10
101.796207
20
-1.888706
30
0
11
101.530767
21
0
31
0
39
0
210
0
220
0
230
1
0
LINE
5
93
100
AcDbEntity
8
1
62
256
6
ByLayer
370
-1
48
1
60
0
100
AcDbLine
10
101.530767
20
0
30
0
11
102.387791
21
0
31
0
39
0
210
0
220
0
230
1
0
LINE
5
94
100
AcDbEntity
8
1
62
256
6
ByLayer
370
-1
48
1
60
0
100
AcDbLine
10
83.476638
20
2.219542
30
8.55
11
102.214363
21
2.219542
31
0
39
0
210
0
220
0
230
1
0
LINE
5
95
100
AcDbEntity
8
1
62
256
6
ByLayer
370
-1
48
1
60
0
100
AcDbLine
10
87.8
20
0.468711
30
8.537143
11
88.201608
21
0.303705
31
8.55
39
0
210
0
220
0
230
1
0
LINE
5
96
100
AcDbEntity
8
1
62
256
6
ByLayer
370
-1
48
1
60
0
100
AcDbLine
10
102.046749
20
0.303705
30
0
11
88.201608
21
0.303705
31
8.55
39
0
210
0
220
0
230
1
0
LINE
5
97
100
AcDbEntity
8
1
62
256
6
ByLayer
370
-1
48
1
60
0
100
AcDbLine
10
95.321459
20
8.55
30
1
11
87.8
21
8.55
31
0
39
0
210
0
220
0
230
1
0
LINE
5
98
100
AcDbEntity
8
1
62
256
6
ByLayer
370
-1
48
1
60
0
100
AcDbLine
10
102.020178
20
0
30
0
11
102.236248
21
2.469682
31
1
39
0
210
0
220
0
230
1
0
LINE
5
99
100
AcDbEntity
8
1
62
256
6
ByLayer
370
-1
48
1
60
0
100
AcDbLine
10
101.959141
20
-8.55
30
0
11
87.8
21
-8.55
31
0
39
0
210
0
220
0
230
1
0
LINE
5
9A
100
AcDbEntity
8
81
62
256
6
ByLayer
370
-1
48
1
60
0
100
AcDbLine
10
103
20
0
30
0
11
113
21
0
31
0
39
0
210
0
220
0
230
1
0
LINE
5
9B
100
AcDbEntity
8
80
62
256
6
ByLayer
370
-1
48
1
60
0
100
AcDbLine
10
0
20
0
30
0
11
-10
21
0
31
0
39
0
210
0
220
0
230
1
0
LINE
5
9C
100
AcDbEntity
8
2
62
256
6
ByLayer
370
-1
48
1
60
0
100
AcDbLine
10
116.3
20
9
30
0
11
104.8
21
9
31
0
39
0
210
0
220
0
230
1
0
LINE
5
9E
100
AcDbEntity
8
2
62
256
6
ByLayer
370
-1
48
1
60
0
100
AcDbLine
10
116.3
20
-9
30
0
11
104.8
21
-9
31
0
39
0
210
0
220
0
230
1
0
LINE
5
9F
100
AcDbEntity
8
2
62
256
6
ByLayer
370
-1
48
1
60
1
100
AcDbLine
10
46
20
9
30
0
11
46
21
9.1
31
0
39
0
210
0
220
0
230
1
0
LINE
5
A0
100
AcDbEntity
8
2
62
256
6
ByLayer
370
-1
48
1
60
1
100
AcDbLine
10
0
20
16
30
0
11
0
21
16.1
31
0
39
0
210
0
220
0
230
1
0
MTEXT
5
C6
100
AcDbEntity
8
SK6
62
256
6
ByLayer
370
-1
48
1
60
0
100
AcDbMText
10
3.675
20
21.125
30
0
210
0
220
0
230
1
1
\W00.699;\fsimplex.shx,bigfont.shx;881-D1800C4-03\P
40
3.5
41
0
44
1.084337
50
0
71
7
72
5
7
DEFAULT
0
DIMENSION
5
D7
100
AcDbEntity
8
2
62
256
6
ByLayer
370
-3
48
1
60
0
100
AcDbDimension
2
DimnDraft3D1
10
118.55
20
-9
30
0
11
118.55
21
0
31
0
70
32
71
5
72
1
41
1
210
0
220
0
230
1
3
Standard
100
AcDbAlignedDimension
13
117.799997
23
9
33
0
14
117.799997
24
-9
34
0
50
90
100
AcDbRotatedDimension
1001
ACAD
1000
DSTYLE
1002
{
1070
    74
1070
     0
1070
   279
1070
     0
1070
   173
1070
     1
1070
   340
1005
C7
1070
    77
1070
     1
1070
    73
1070
     0
1070
   171
1070
     4
1070
   274
1070
     4
1070
   177
1070
     7
1070
   176
1070
     7
1070
   178
1070
     7
1070
    41
1041
2.999994
1070
   147
1041
2.25
1070
    42
1041
1.499997
1070
    44
1041
2.999994
1070
   140
1041
4.5
1070
   343
1005
D8
1070
   344
1005
D8
1002
}
0
DIMENSION
5
ED
100
AcDbEntity
8
SK2
62
256
6
ByLayer
370
-3
48
1
60
0
100
AcDbDimension
2
DimnDraft3D2
10
-46.7
20
20
30
0
11
-46.7
21
0
31
0
70
32
71
5
72
1
41
1
210
0
220
0
230
1
3
Standard
100
AcDbAlignedDimension
13
-1.499997
23
-20
33
0
14
-1.499997
24
20
34
0
50
90
100
AcDbRotatedDimension
1001
ACAD
1000
DSTYLE
1002
{
1070
    74
1070
     0
1070
   279
1070
     0
1070
   173
1070
     1
1070
   340
1005
C7
1070
    77
1070
     1
1070
    73
1070
     0
1070
   171
1070
     4
1070
   274
1070
     4
1070
   177
1070
     7
1070
   176
1070
     7
1070
   178
1070
     7
1070
    41
1041
2.999994
1070
   147
1041
2.25
1070
    42
1041
1.499997
1070
    44
1041
2.999994
1070
   140
1041
4.5
1070
   343
1005
D8
1070
   344
1005
D8
1002
}
0
DIMENSION
5
FB
100
AcDbEntity
8
2
62
256
6
ByLayer
370
-3
48
1
60
0
100
AcDbDimension
2
DimnDraft3D3
10
46
20
34
30
0
11
74.4
21
34
31
0
70
32
71
5
72
1
41
1
210
0
220
0
230
1
3
Standard
100
AcDbAlignedDimension
13
102.591151
23
-4.159116
33
0
14
46
24
10.599997
34
0
50
0
100
AcDbRotatedDimension
1001
ACAD
1000
DSTYLE
1002
{
1070
   279
1070
     0
1070
   173
1070
     1
1070
   340
1005
C7
1070
    77
1070
     1
1070
    73
1070
     0
1070
   171
1070
     4
1070
   274
1070
     4
1070
   177
1070
     7
1070
   176
1070
     7
1070
   178
1070
     7
1070
    41
1041
2.999994
1070
   147
1041
2.25
1070
    42
1041
1.499997
1070
    44
1041
2.999994
1070
   140
1041
4.5
1070
   343
1005
D8
1070
   344
1005
D8
1002
}
0
DIMENSION
5
109
100
AcDbEntity
8
SK2
62
256
6
ByLayer
370
-3
48
1
60
0
100
AcDbDimension
2
DimnDraft3D4
10
-24
20
45.25
30
0
11
-10.7
21
45.25
31
0
70
32
71
5
72
1
41
1
210
0
220
0
230
1
3
Standard
100
AcDbAlignedDimension
13
0
23
1.499997
33
0
14
-24
24
14.673772
34
0
50
0
100
AcDbRotatedDimension
1001
ACAD
1000
DSTYLE
1002
{
1070
   279
1070
     0
1070
   173
1070
     1
1070
   340
1005
C7
1070
    77
1070
     1
1070
    73
1070
     0
1070
   171
1070
     4
1070
   274
1070
     4
1070
   177
1070
     7
1070
   176
1070
     7
1070
   178
1070
     7
1070
    41
1041
2.999994
1070
   147
1041
2.25
1070
    42
1041
1.499997
1070
    44
1041
2.999994
1070
   140
1041
4.5
1070
   343
1005
D8
1070
   344
1005
D8
1002
}
0
DIMENSION
5
117
100
AcDbEntity
8
SK2
62
256
6
ByLayer
370
-3
48
1
60
0
100
AcDbDimension
2
DimnDraft3D5
10
-24
20
56.5
30
0
11
39.3
21
56.5
31
0
70
32
71
5
72
1
41
1
210
0
220
0
230
1
3
Standard
100
AcDbAlignedDimension
13
102.591151
23
-4.159116
33
0
14
-24
24
14.673772
34
0
50
0
100
AcDbRotatedDimension
1001
ACAD
1000
DSTYLE
1002
{
1070
   279
1070
     0
1070
   173
1070
     1
1070
   340
1005
C7
1070
    77
1070
     1
1070
    73
1070
     0
1070
   171
1070
     4
1070
   274
1070
     4
1070
   177
1070
     7
1070
   176
1070
     7
1070
   178
1070
     7
1070
    41
1041
2.999994
1070
   147
1041
2.25
1070
    42
1041
1.499997
1070
    44
1041
2.999994
1070
   140
1041
4.5
1070
   343
1005
D8
1070
   344
1005
D8
1002
}
0
DIMENSION
5
125
100
AcDbEntity
8
2
62
256
6
ByLayer
370
-3
48
1
60
0
100
AcDbDimension
2
DimnDraft3D6
10
0
20
45.25
30
0
11
51.4
21
45.25
31
0
70
32
71
5
72
1
41
1
210
0
220
0
230
1
3
Standard
100
AcDbAlignedDimension
13
102.591151
23
-4.159116
33
0
14
0
24
17.599997
34
0
50
0
100
AcDbRotatedDimension
1001
ACAD
1000
DSTYLE
1002
{
1070
   279
1070
     0
1070
   173
1070
     1
1070
   340
1005
C7
1070
    77
1070
     1
1070
    73
1070
     0
1070
   171
1070
     4
1070
   274
1070
     4
1070
   177
1070
     7
1070
   176
1070
     7
1070
   178
1070
     7
1070
    41
1041
2.999994
1070
   147
1041
2.25
1070
    42
1041
1.499997
1070
    44
1041
2.999994
1070
   140
1041
4.5
1070
   343
1005
D8
1070
   344
1005
D8
1002
}
0
ENDSEC
0
SECTION
2
OBJECTS
0
DICTIONARY
5
174
330
0
100
AcDbDictionary
280
0
281
1
3
ACAD_GROUP
350
175
3
ACAD_MLINESTYLE
350
176
0
DICTIONARY
5
175
330
0
100
AcDbDictionary
280
0
281
1
0
DICTIONARY
5
176
330
0
100
AcDbDictionary
280
0
281
1
3
Standard
350
18
0
MLINESTYLE
5
18
330
176
100
AcDbMlineStyle
2
Standard
70
0
3

62
256
51
90
52
90
71
2
49
-0.5
62
256
6
ByLayer
49
0.5
62
256
6
ByLayer
0
RASTERVARIABLES
5
162
330

100
AcDbRasterVariables
90
0
70
1
71
1
72
1
0
ENDSEC
0
EOF
