0
SECTION
2
HEADER
9
$ACADVER
1
AC1015
9
$DWGCODEPAGE
3
ANSI_1252
9
$HANDSEED
5
21d
9
$ANGBASE
50
0
9
$ANGDIR
70
0
9
$ATTMODE
70
1
9
$AUNITS
70
0
9
$AUPREC
70
0
9
$CECOLOR
62
256
9
$CELTSCALE
40
1
9
$CELTYPE
6
ByLayer
9
$CELWEIGHT
370
18
9
$CLAYER
8
0
9
$CMLJUST
70
0
9
$CMLSCALE
40
1
9
$CMLSTYLE
2
Standard
9
$DIMSTYLE
2
Standard
9
$TEXTSIZE
40
0.2
9
$TEXTSTYLE
7
Standard
9
$LUNITS
70
2
9
$LUPREC
70
4
9
$EXTNAMES
290
1
9
$INSUNITS
70
4
9
$LTSCALE
40
1
9
$LWDISPLAY
290
1
9
$PDMODE
70
0
9
$PDSIZE
40
0
9
$PLINEGEN
70
0
0
ENDSEC
0
SECTION
2
CLASSES
0
CLASS
1
RASTERVARIABLES
2
AcDbRasterVariables
3
ISM
90
0
280
0
281
0
0
ENDSEC
0
SECTION
2
TABLES
0
TABLE
2
VPORT
5
213
100
AcDbSymbolTable
0
VPORT
5
1
100
AcDbSymbolTableRecord
100
AcDbViewportTableRecord
2
*Active
70
0
10
0
20
0
11
1
21
1
12
-1
22
1
13
0
23
0
14
0.5
24
0.5
15
10
25
10
16
0
26
0
36
1
17
0
27
0
37
0
0
ENDTAB
0
TABLE
2
LTYPE
5
214
100
AcDbSymbolTable
0
LTYPE
5
14
100
AcDbSymbolTableRecord
100
AcDbLinetypeTableRecord
70
0
2
ByBlock
3

72
65
73
0
40
0
0
LTYPE
5
15
100
AcDbSymbolTableRecord
100
AcDbLinetypeTableRecord
70
0
2
ByLayer
3

72
65
73
0
40
0
0
LTYPE
5
16
100
AcDbSymbolTableRecord
100
AcDbLinetypeTableRecord
70
0
2
Continuous
3
Solid line
72
65
73
0
40
0
0
LTYPE
5
6E
100
AcDbSymbolTableRecord
100
AcDbLinetypeTableRecord
70
0
2
CENTER
3
____ _ ____ _ ____ _ ____
72
65
73
4
40
47.5
49
22
74
0
49
-8.5
74
0
49
8.5
74
0
49
-8.5
74
0
0
LTYPE
5
6F
100
AcDbSymbolTableRecord
100
AcDbLinetypeTableRecord
70
0
2
DASHED
3
__ __ __ __ __ __ __ __ __
72
65
73
2
40
25.72
49
12.86
74
0
49
-12.86
74
0
0
ENDTAB
0
TABLE
2
LAYER
5
215
100
AcDbSymbolTable
0
LAYER
5
10
100
AcDbSymbolTableRecord
100
AcDbLayerTableRecord
2
0
70
0
62
7
6
Continuous
290
1
370
-3
390
0
0
LAYER
5
71
100
AcDbSymbolTableRecord
100
AcDbLayerTableRecord
2
1
70
0
62
4
6
Continuous
290
1
370
-3
390
0
0
LAYER
5
79
100
AcDbSymbolTableRecord
100
AcDbLayerTableRecord
2
81
70
0
62
-3
6
Continuous
290
1
370
-3
390
0
0
LAYER
5
7B
100
AcDbSymbolTableRecord
100
AcDbLayerTableRecord
2
80
70
0
62
-6
6
Continuous
290
1
370
-3
390
0
0
LAYER
5
7F
100
AcDbSymbolTableRecord
100
AcDbLayerTableRecord
2
4
70
0
62
-2
6
CENTER
290
1
370
-3
390
0
0
LAYER
5
CE
100
AcDbSymbolTableRecord
100
AcDbLayerTableRecord
2
2
70
0
62
7
6
Continuous
290
1
370
-3
390
0
0
LAYER
5
F8
100
AcDbSymbolTableRecord
100
AcDbLayerTableRecord
2
Defpoints
70
0
62
7
6
Continuous
290
0
370
-3
390
0
0
LAYER
5
1ff
100
AcDbSymbolTableRecord
100
AcDbLayerTableRecord
2
SK1
70
0
62
4
6
Continuous
290
1
370
-3
390
0
0
LAYER
5
200
100
AcDbSymbolTableRecord
100
AcDbLayerTableRecord
2
SK4
70
0
62
2
6
CENTER
290
1
370
-3
390
0
0
LAYER
5
201
100
AcDbSymbolTableRecord
100
AcDbLayerTableRecord
2
SK6
70
0
62
5
6
Continuous
290
1
370
-3
390
0
0
LAYER
5
202
100
AcDbSymbolTableRecord
100
AcDbLayerTableRecord
2
SK2
70
0
62
7
6
Continuous
290
1
370
-3
390
0
0
ENDTAB
0
TABLE
2
STYLE
5
216
100
AcDbSymbolTable
0
STYLE
5
11
100
AcDbSymbolTableRecord
100
AcDbTextStyleTableRecord
2
Standard
3
txt
70
0
71
0
40
0
41
1
42
0
50
0
0
STYLE
5
EA
100
AcDbSymbolTableRecord
100
AcDbTextStyleTableRecord
2
iso_b_vert
3
simplex.shx
70
0
71
0
40
0
41
1
42
0
50
0
0
STYLE
5
EB
100
AcDbSymbolTableRecord
100
AcDbTextStyleTableRecord
2
DWGDirectTextStyle
3
simplex
70
0
71
0
40
0
41
1
42
0
50
0
0
ENDTAB
0
TABLE
2
DIMSTYLE
5
217
100
AcDbSymbolTable
100
AcDbDimStyleTable
0
DIMSTYLE
105
27
100
AcDbSymbolTableRecord
100
AcDbDimStyleTableRecord
2
Standard
70
0
3
<>
41
0.18
42
0.0625
44
0.18
140
0.18
147
0.09
73
0
74
0
77
1
271
2
275
0
278
52
280
0
340
11
0
ENDTAB
0
TABLE
2
VIEW
5
218
100
AcDbSymbolTable
0
ENDTAB
0
TABLE
2
UCS
5
219
100
AcDbSymbolTable
0
ENDTAB
0
TABLE
2
APPID
5
21a
100
AcDbSymbolTable
0
APPID
5
12
100
AcDbSymbolTableRecord
100
AcDbRegAppTableRecord
2
ACAD
70
0
0
APPID
5
ED
100
AcDbSymbolTableRecord
100
AcDbRegAppTableRecord
2
ACAD_DSTYLE_DIMBREAK
70
0
0
APPID
5
1BE
100
AcDbSymbolTableRecord
100
AcDbRegAppTableRecord
2
ACAD_DSTYLE_DIM_LINETYPE
70
0
0
APPID
5
1BF
100
AcDbSymbolTableRecord
100
AcDbRegAppTableRecord
2
ACAD_DSTYLE_DIM_EXT1_LINETYPE
70
0
0
APPID
5
1C0
100
AcDbSymbolTableRecord
100
AcDbRegAppTableRecord
2
ACAD_DSTYLE_DIM_EXT2_LINETYPE
70
0
0
APPID
5
1FB
100
AcDbSymbolTableRecord
100
AcDbRegAppTableRecord
2
ACAD_MLEADERVER
70
0
0
ENDTAB
0
TABLE
2
BLOCK_RECORD
5
21b
100
AcDbSymbolTable
0
BLOCK_RECORD
5
1F
100
AcDbSymbolTableRecord
100
AcDbBlockTableRecord
2
*Model_Space
340
0
70
0
0
BLOCK_RECORD
5
1B
100
AcDbSymbolTableRecord
100
AcDbBlockTableRecord
2
*Paper_Space
340
0
70
0
0
BLOCK_RECORD
5
23
100
AcDbSymbolTableRecord
100
AcDbBlockTableRecord
2
*Paper_Space0
340
0
70
0
0
BLOCK_RECORD
5
EF
100
AcDbSymbolTableRecord
100
AcDbBlockTableRecord
2
_Closed
340
0
70
0
0
BLOCK_RECORD
5
F9
100
AcDbSymbolTableRecord
100
AcDbBlockTableRecord
2
*D2
340
0
70
0
0
BLOCK_RECORD
5
106
100
AcDbSymbolTableRecord
100
AcDbBlockTableRecord
2
_U0
340
0
70
0
0
BLOCK_RECORD
5
116
100
AcDbSymbolTableRecord
100
AcDbBlockTableRecord
2
*D4
340
0
70
0
0
BLOCK_RECORD
5
123
100
AcDbSymbolTableRecord
100
AcDbBlockTableRecord
2
_U1
340
0
70
0
0
BLOCK_RECORD
5
133
100
AcDbSymbolTableRecord
100
AcDbBlockTableRecord
2
*D6
340
0
70
0
0
BLOCK_RECORD
5
13F
100
AcDbSymbolTableRecord
100
AcDbBlockTableRecord
2
_U2
340
0
70
0
0
BLOCK_RECORD
5
14F
100
AcDbSymbolTableRecord
100
AcDbBlockTableRecord
2
*D8
340
0
70
0
0
BLOCK_RECORD
5
15B
100
AcDbSymbolTableRecord
100
AcDbBlockTableRecord
2
_U3
340
0
70
0
0
BLOCK_RECORD
5
16B
100
AcDbSymbolTableRecord
100
AcDbBlockTableRecord
2
*D10
340
0
70
0
0
BLOCK_RECORD
5
177
100
AcDbSymbolTableRecord
100
AcDbBlockTableRecord
2
_U4
340
0
70
0
0
BLOCK_RECORD
5
187
100
AcDbSymbolTableRecord
100
AcDbBlockTableRecord
2
*D12
340
0
70
0
0
BLOCK_RECORD
5
193
100
AcDbSymbolTableRecord
100
AcDbBlockTableRecord
2
_U5
340
0
70
0
0
ENDTAB
0
ENDSEC
0
SECTION
2
BLOCKS
0
BLOCK
5
20
100
AcDbEntity
8
0
100
AcDbBlockBegin
2
*Model_Space
70
0
10
0
20
0
30
0
3
*Model_Space
0
ENDBLK
5
21
100
AcDbEntity
8
0
100
AcDbBlockEnd
0
BLOCK
5
1C
100
AcDbEntity
8
0
100
AcDbBlockBegin
2
*Paper_Space
70
0
10
0
20
0
30
0
3
*Paper_Space
0
ENDBLK
5
1D
100
AcDbEntity
8
0
100
AcDbBlockEnd
0
BLOCK
5
24
100
AcDbEntity
8
0
100
AcDbBlockBegin
2
*Paper_Space0
70
0
10
0
20
0
30
0
3
*Paper_Space0
0
ENDBLK
5
25
100
AcDbEntity
8
0
100
AcDbBlockEnd
0
BLOCK
5
F0
100
AcDbEntity
8
0
100
AcDbBlockBegin
2
_Closed
70
0
10
0
20
0
30
0
3
_Closed
0
LINE
5
F2
100
AcDbEntity
8
0
62
256
6
ByLayer
370
-2
48
1
60
0
100
AcDbLine
10
-1
20
0.166667
30
0
11
0
21
0
31
0
39
0
210
0
220
0
230
1
0
LINE
5
F3
100
AcDbEntity
8
0
62
256
6
ByLayer
370
-2
48
1
60
0
100
AcDbLine
10
0
20
0
30
0
11
-1
21
-0.166667
31
0
39
0
210
0
220
0
230
1
0
LINE
5
F4
100
AcDbEntity
8
0
62
256
6
ByLayer
370
-2
48
1
60
0
100
AcDbLine
10
-1
20
0.166667
30
0
11
-1
21
-0.166667
31
0
39
0
210
0
220
0
230
1
0
LINE
5
F5
100
AcDbEntity
8
0
62
256
6
ByLayer
370
-2
48
1
60
0
100
AcDbLine
10
0
20
0
30
0
11
-1
21
0
31
0
39
0
210
0
220
0
230
1
0
ENDBLK
5
F1
100
AcDbEntity
8
0
100
AcDbBlockEnd
0
BLOCK
5
FA
100
AcDbEntity
8
0
100
AcDbBlockBegin
2
*D2
70
1
10
0
20
0
30
0
3
*D2
0
LINE
5
FC
100
AcDbEntity
8
0
62
256
6
ByLayer
370
-2
48
1
60
0
100
AcDbLine
10
67.799997
20
8.5
30
0
11
71.549994
21
8.5
31
0
39
0
210
0
220
0
230
1
0
LINE
5
FD
100
AcDbEntity
8
0
62
256
6
ByLayer
370
-2
48
1
60
0
100
AcDbLine
10
67.799997
20
-8.5
30
0
11
71.549994
21
-8.5
31
0
39
0
210
0
220
0
230
1
0
LINE
5
FE
100
AcDbEntity
8
0
62
256
6
ByLayer
370
-2
48
1
60
0
100
AcDbLine
10
68.55
20
11.499994
30
0
11
68.55
21
14.499988
31
0
39
0
210
0
220
0
230
1
0
LINE
5
FF
100
AcDbEntity
8
0
62
256
6
ByLayer
370
-2
48
1
60
0
100
AcDbLine
10
68.55
20
-11.499994
30
0
11
68.55
21
-14.499988
31
0
39
0
210
0
220
0
230
1
0
SOLID
5
100
100
AcDbEntity
8
0
62
256
6
ByLayer
370
-1
48
1
60
0
100
AcDbTrace
10
68.050001
20
11.499994
30
0
11
69.049999
21
11.499994
31
0
12
68.55
22
8.5
32
0
13
68.55
23
8.5
33
0
39
0
210
0
220
0
230
1
0
SOLID
5
101
100
AcDbEntity
8
0
62
256
6
ByLayer
370
-1
48
1
60
0
100
AcDbTrace
10
69.049999
20
-11.499994
30
0
11
68.050001
21
-11.499994
31
0
12
68.55
22
-8.5
32
0
13
68.55
23
-8.5
33
0
39
0
210
0
220
0
230
1
0
MTEXT
5
102
100
AcDbEntity
8
0
62
256
6
ByLayer
370
18
48
1
60
0
100
AcDbMText
10
59.550013
20
0
30
0
210
0
220
0
230
1
1
\A1;17.0000
40
4.5
41
0
44
1
50
90
71
5
72
5
7
iso_b_vert
0
POINT
5
103
100
AcDbEntity
8
Defpoints
62
0
6
ByLayer
370
-1
48
1
60
0
100
AcDbPoint
10
66.3
20
8.5
30
0
39
0
210
0
220
0
230
1
50
360
0
POINT
5
104
100
AcDbEntity
8
Defpoints
62
0
6
ByLayer
370
-1
48
1
60
0
100
AcDbPoint
10
66.3
20
-8.5
30
0
39
0
210
0
220
0
230
1
50
360
0
POINT
5
105
100
AcDbEntity
8
Defpoints
62
0
6
ByLayer
370
-1
48
1
60
0
100
AcDbPoint
10
68.55
20
-8.5
30
0
39
0
210
0
220
0
230
1
50
360
0
ENDBLK
5
FB
100
AcDbEntity
8
0
100
AcDbBlockEnd
0
BLOCK
5
111
100
AcDbEntity
8
0
100
AcDbBlockBegin
2
_U0
70
0
10
0
20
0
30
0
3
_U0
0
MTEXT
5
107
100
AcDbEntity
8
2
62
256
6
ByLayer
370
18
48
1
60
0
100
AcDbMText
10
67.663328
20
-4.107556
30
0
210
0
220
0
230
1
1
\W0.7849;%%c17
40
4.5
41
0
44
1.084337
50
90
71
7
72
5
7
iso_b_vert
0
LINE
5
108
100
AcDbEntity
8
2
62
256
6
ByLayer
370
13
48
1
60
0
100
AcDbLine
10
67.799997
20
8.5
30
0
11
71.549994
21
8.5
31
0
39
0
210
0
220
0
230
1
0
LINE
5
109
100
AcDbEntity
8
2
62
256
6
ByLayer
370
13
48
1
60
0
100
AcDbLine
10
67.799997
20
-8.5
30
0
11
71.549994
21
-8.5
31
0
39
0
210
0
220
0
230
1
0
LINE
5
10A
100
AcDbEntity
8
2
62
256
6
ByLayer
370
13
48
1
60
0
100
AcDbLine
10
68.55
20
8.5
30
0
11
68.55
21
-8.5
31
0
39
0
210
0
220
0
230
1
0
LINE
5
10B
100
AcDbEntity
8
2
62
256
6
ByLayer
370
13
48
1
60
0
100
AcDbLine
10
68.55
20
8.5
30
0
11
69.049999
21
5.500008
31
0
39
0
210
0
220
0
230
1
0
LINE
5
10C
100
AcDbEntity
8
2
62
256
6
ByLayer
370
13
48
1
60
0
100
AcDbLine
10
68.55
20
8.5
30
0
11
68.050001
21
5.500004
31
0
39
0
210
0
220
0
230
1
0
LINE
5
10D
100
AcDbEntity
8
2
62
256
6
ByLayer
370
13
48
1
60
0
100
AcDbLine
10
69.049999
20
5.500008
30
0
11
68.050001
21
5.500004
31
0
39
0
210
0
220
0
230
1
0
LINE
5
10E
100
AcDbEntity
8
2
62
256
6
ByLayer
370
13
48
1
60
0
100
AcDbLine
10
68.55
20
-8.5
30
0
11
68.050001
21
-5.500008
31
0
39
0
210
0
220
0
230
1
0
LINE
5
10F
100
AcDbEntity
8
2
62
256
6
ByLayer
370
13
48
1
60
0
100
AcDbLine
10
68.55
20
-8.5
30
0
11
69.049999
21
-5.500004
31
0
39
0
210
0
220
0
230
1
0
LINE
5
110
100
AcDbEntity
8
2
62
256
6
ByLayer
370
13
48
1
60
0
100
AcDbLine
10
68.050001
20
-5.500008
30
0
11
69.049999
21
-5.500004
31
0
39
0
210
0
220
0
230
1
0
ENDBLK
5
112
100
AcDbEntity
8
0
100
AcDbBlockEnd
0
BLOCK
5
117
100
AcDbEntity
8
0
100
AcDbBlockBegin
2
*D4
70
1
10
0
20
0
30
0
3
*D4
0
LINE
5
119
100
AcDbEntity
8
0
62
256
6
ByLayer
370
-2
48
1
60
0
100
AcDbLine
10
-50.499997
20
-10
30
0
11
-64.449994
21
-10
31
0
39
0
210
0
220
0
230
1
0
LINE
5
11A
100
AcDbEntity
8
0
62
256
6
ByLayer
370
-2
48
1
60
0
100
AcDbLine
10
-50.499997
20
10
30
0
11
-64.449994
21
10
31
0
39
0
210
0
220
0
230
1
0
LINE
5
11B
100
AcDbEntity
8
0
62
256
6
ByLayer
370
-2
48
1
60
0
100
AcDbLine
10
-61.45
20
-7.000006
30
0
11
-61.45
21
7.000006
31
0
39
0
210
0
220
0
230
1
0
SOLID
5
11C
100
AcDbEntity
8
0
62
256
6
ByLayer
370
-1
48
1
60
0
100
AcDbTrace
10
-61.949999
20
-7.000006
30
0
11
-60.950001
21
-7.000006
31
0
12
-61.45
22
-10
32
0
13
-61.45
23
-10
33
0
39
0
210
0
220
0
230
1
0
SOLID
5
11D
100
AcDbEntity
8
0
62
256
6
ByLayer
370
-1
48
1
60
0
100
AcDbTrace
10
-60.950001
20
7.000006
30
0
11
-61.949999
21
7.000006
31
0
12
-61.45
22
10
32
0
13
-61.45
23
10
33
0
39
0
210
0
220
0
230
1
0
MTEXT
5
11E
100
AcDbEntity
8
0
62
256
6
ByLayer
370
18
48
1
60
0
100
AcDbMText
10
-70.449986
20
0
30
0
210
0
220
0
230
1
1
\A1;20.0000
40
4.5
41
0
44
1
50
90
71
5
72
5
7
iso_b_vert
0
POINT
5
11F
100
AcDbEntity
8
Defpoints
62
0
6
ByLayer
370
-1
48
1
60
0
100
AcDbPoint
10
-49
20
-10
30
0
39
0
210
0
220
0
230
1
50
360
0
POINT
5
120
100
AcDbEntity
8
Defpoints
62
0
6
ByLayer
370
-1
48
1
60
0
100
AcDbPoint
10
-49
20
10
30
0
39
0
210
0
220
0
230
1
50
360
0
POINT
5
121
100
AcDbEntity
8
Defpoints
62
0
6
ByLayer
370
-1
48
1
60
0
100
AcDbPoint
10
-61.45
20
10
30
0
39
0
210
0
220
0
230
1
50
360
0
ENDBLK
5
118
100
AcDbEntity
8
0
100
AcDbBlockEnd
0
BLOCK
5
12E
100
AcDbEntity
8
0
100
AcDbBlockBegin
2
_U1
70
0
10
0
20
0
30
0
3
_U1
0
MTEXT
5
124
100
AcDbEntity
8
SK2
62
256
6
ByLayer
370
18
48
1
60
0
100
AcDbMText
10
-62.336672
20
-4.669971
30
0
210
0
220
0
230
1
1
\W0.8879;%%c20
40
4.5
41
0
44
1.084337
50
90
71
7
72
5
7
iso_b_vert
0
LINE
5
125
100
AcDbEntity
8
SK2
62
256
6
ByLayer
370
13
48
1
60
0
100
AcDbLine
10
-50.499997
20
-10
30
0
11
-64.449994
21
-10
31
0
39
0
210
0
220
0
230
1
0
LINE
5
126
100
AcDbEntity
8
SK2
62
256
6
ByLayer
370
13
48
1
60
0
100
AcDbLine
10
-50.499997
20
10
30
0
11
-64.449994
21
10
31
0
39
0
210
0
220
0
230
1
0
LINE
5
127
100
AcDbEntity
8
SK2
62
256
6
ByLayer
370
13
48
1
60
0
100
AcDbLine
10
-61.45
20
-10
30
0
11
-61.45
21
10
31
0
39
0
210
0
220
0
230
1
0
LINE
5
128
100
AcDbEntity
8
SK2
62
256
6
ByLayer
370
13
48
1
60
0
100
AcDbLine
10
-61.45
20
-10
30
0
11
-61.949999
21
-7.000008
31
0
39
0
210
0
220
0
230
1
0
LINE
5
129
100
AcDbEntity
8
SK2
62
256
6
ByLayer
370
13
48
1
60
0
100
AcDbLine
10
-61.45
20
-10
30
0
11
-60.950001
21
-7.000004
31
0
39
0
210
0
220
0
230
1
0
LINE
5
12A
100
AcDbEntity
8
SK2
62
256
6
ByLayer
370
13
48
1
60
0
100
AcDbLine
10
-61.949999
20
-7.000008
30
0
11
-60.950001
21
-7.000004
31
0
39
0
210
0
220
0
230
1
0
LINE
5
12B
100
AcDbEntity
8
SK2
62
256
6
ByLayer
370
13
48
1
60
0
100
AcDbLine
10
-61.45
20
10
30
0
11
-60.950001
21
7.000008
31
0
39
0
210
0
220
0
230
1
0
LINE
5
12C
100
AcDbEntity
8
SK2
62
256
6
ByLayer
370
13
48
1
60
0
100
AcDbLine
10
-61.45
20
10
30
0
11
-61.949999
21
7.000004
31
0
39
0
210
0
220
0
230
1
0
LINE
5
12D
100
AcDbEntity
8
SK2
62
256
6
ByLayer
370
13
48
1
60
0
100
AcDbLine
10
-60.950001
20
7.000008
30
0
11
-61.949999
21
7.000004
31
0
39
0
210
0
220
0
230
1
0
ENDBLK
5
12F
100
AcDbEntity
8
0
100
AcDbBlockEnd
0
BLOCK
5
134
100
AcDbEntity
8
0
100
AcDbBlockBegin
2
*D6
70
1
10
0
20
0
30
0
3
*D6
0
LINE
5
136
100
AcDbEntity
8
0
62
256
6
ByLayer
370
-2
48
1
60
0
100
AcDbLine
10
52.663982
20
-3.08019
30
0
11
52.663982
21
33.499994
31
0
39
0
210
0
220
0
230
1
0
LINE
5
137
100
AcDbEntity
8
0
62
256
6
ByLayer
370
-2
48
1
60
0
100
AcDbLine
10
15
20
10.099997
30
0
11
15
21
33.499994
31
0
39
0
210
0
220
0
230
1
0
LINE
5
138
100
AcDbEntity
8
0
62
256
6
ByLayer
370
-2
48
1
60
0
100
AcDbLine
10
49.663988
20
30.5
30
0
11
17.999994
21
30.5
31
0
39
0
210
0
220
0
230
1
0
SOLID
5
139
100
AcDbEntity
8
0
62
256
6
ByLayer
370
-1
48
1
60
0
100
AcDbTrace
10
49.663988
20
30.000001
30
0
11
49.663988
21
30.999999
31
0
12
52.663982
22
30.5
32
0
13
52.663982
23
30.5
33
0
39
0
210
0
220
0
230
1
0
SOLID
5
13A
100
AcDbEntity
8
0
62
256
6
ByLayer
370
-1
48
1
60
0
100
AcDbTrace
10
17.999994
20
30.999999
30
0
11
17.999994
21
30.000001
31
0
12
15
22
30.5
32
0
13
15
23
30.5
33
0
39
0
210
0
220
0
230
1
0
MTEXT
5
13B
100
AcDbEntity
8
0
62
256
6
ByLayer
370
18
48
1
60
0
100
AcDbMText
10
33.9
20
39.499986
30
0
210
0
220
0
230
1
1
\A1;37.6640
40
4.5
41
0
44
1
50
0
71
5
72
5
7
iso_b_vert
0
POINT
5
13C
100
AcDbEntity
8
Defpoints
62
0
6
ByLayer
370
-1
48
1
60
0
100
AcDbPoint
10
52.663982
20
-4.580187
30
0
39
0
210
0
220
0
230
1
50
360
0
POINT
5
13D
100
AcDbEntity
8
Defpoints
62
0
6
ByLayer
370
-1
48
1
60
0
100
AcDbPoint
10
15
20
8.6
30
0
39
0
210
0
220
0
230
1
50
360
0
POINT
5
13E
100
AcDbEntity
8
Defpoints
62
0
6
ByLayer
370
-1
48
1
60
0
100
AcDbPoint
10
15
20
30.5
30
0
39
0
210
0
220
0
230
1
50
360
0
ENDBLK
5
135
100
AcDbEntity
8
0
100
AcDbBlockEnd
0
BLOCK
5
14A
100
AcDbEntity
8
0
100
AcDbBlockBegin
2
_U2
70
0
10
0
20
0
30
0
3
_U2
0
MTEXT
5
140
100
AcDbEntity
8
2
62
256
6
ByLayer
370
18
48
1
60
0
100
AcDbMText
10
28.857816
20
31.827672
30
0
210
0
220
0
230
1
1
\W0.7346;38.0
40
4.5
41
0
44
1.084337
50
0
71
7
72
5
7
iso_b_vert
0
LINE
5
141
100
AcDbEntity
8
2
62
256
6
ByLayer
370
13
48
1
60
0
100
AcDbLine
10
52.663982
20
-3.08019
30
0
11
52.663982
21
33.499994
31
0
39
0
210
0
220
0
230
1
0
LINE
5
142
100
AcDbEntity
8
2
62
256
6
ByLayer
370
13
48
1
60
0
100
AcDbLine
10
15
20
10.099997
30
0
11
15
21
33.499994
31
0
39
0
210
0
220
0
230
1
0
LINE
5
143
100
AcDbEntity
8
2
62
256
6
ByLayer
370
13
48
1
60
0
100
AcDbLine
10
52.663982
20
30.5
30
0
11
15
21
30.5
31
0
39
0
210
0
220
0
230
1
0
LINE
5
144
100
AcDbEntity
8
2
62
256
6
ByLayer
370
13
48
1
60
0
100
AcDbLine
10
52.663982
20
30.5
30
0
11
49.663989
21
30.000001
31
0
39
0
210
0
220
0
230
1
0
LINE
5
145
100
AcDbEntity
8
2
62
256
6
ByLayer
370
13
48
1
60
0
100
AcDbLine
10
52.663982
20
30.5
30
0
11
49.663986
21
30.999999
31
0
39
0
210
0
220
0
230
1
0
LINE
5
146
100
AcDbEntity
8
2
62
256
6
ByLayer
370
13
48
1
60
0
100
AcDbLine
10
49.663989
20
30.000001
30
0
11
49.663986
21
30.999999
31
0
39
0
210
0
220
0
230
1
0
LINE
5
147
100
AcDbEntity
8
2
62
256
6
ByLayer
370
13
48
1
60
0
100
AcDbLine
10
15
20
30.5
30
0
11
17.999992
21
30.999999
31
0
39
0
210
0
220
0
230
1
0
LINE
5
148
100
AcDbEntity
8
2
62
256
6
ByLayer
370
13
48
1
60
0
100
AcDbLine
10
15
20
30.5
30
0
11
17.999996
21
30.000001
31
0
39
0
210
0
220
0
230
1
0
LINE
5
149
100
AcDbEntity
8
2
62
256
6
ByLayer
370
13
48
1
60
0
100
AcDbLine
10
17.999992
20
30.999999
30
0
11
17.999996
21
30.000001
31
0
39
0
210
0
220
0
230
1
0
ENDBLK
5
14B
100
AcDbEntity
8
0
100
AcDbBlockEnd
0
BLOCK
5
150
100
AcDbEntity
8
0
100
AcDbBlockBegin
2
*D8
70
1
10
0
20
0
30
0
3
*D8
0
LINE
5
152
100
AcDbEntity
8
0
62
256
6
ByLayer
370
-2
48
1
60
0
100
AcDbLine
10
0
20
1.499997
30
0
11
0
21
44.749994
31
0
39
0
210
0
220
0
230
1
0
LINE
5
153
100
AcDbEntity
8
0
62
256
6
ByLayer
370
-2
48
1
60
0
100
AcDbLine
10
-50
20
10.499997
30
0
11
-50
21
44.749994
31
0
39
0
210
0
220
0
230
1
0
LINE
5
154
100
AcDbEntity
8
0
62
256
6
ByLayer
370
-2
48
1
60
0
100
AcDbLine
10
-2.999994
20
41.75
30
0
11
-47.000006
21
41.75
31
0
39
0
210
0
220
0
230
1
0
SOLID
5
155
100
AcDbEntity
8
0
62
256
6
ByLayer
370
-1
48
1
60
0
100
AcDbTrace
10
-2.999994
20
41.250001
30
0
11
-2.999994
21
42.249999
31
0
12
0
22
41.75
32
0
13
0
23
41.75
33
0
39
0
210
0
220
0
230
1
0
SOLID
5
156
100
AcDbEntity
8
0
62
256
6
ByLayer
370
-1
48
1
60
0
100
AcDbTrace
10
-47.000006
20
42.249999
30
0
11
-47.000006
21
41.250001
31
0
12
-50
22
41.75
32
0
13
-50
23
41.75
33
0
39
0
210
0
220
0
230
1
0
MTEXT
5
157
100
AcDbEntity
8
0
62
256
6
ByLayer
370
18
48
1
60
0
100
AcDbMText
10
-25.1
20
50.749986
30
0
210
0
220
0
230
1
1
\A1;50.0000
40
4.5
41
0
44
1
50
0
71
5
72
5
7
iso_b_vert
0
POINT
5
158
100
AcDbEntity
8
Defpoints
62
0
6
ByLayer
370
-1
48
1
60
0
100
AcDbPoint
10
0
20
0
30
0
39
0
210
0
220
0
230
1
50
360
0
POINT
5
159
100
AcDbEntity
8
Defpoints
62
0
6
ByLayer
370
-1
48
1
60
0
100
AcDbPoint
10
-50
20
9
30
0
39
0
210
0
220
0
230
1
50
360
0
POINT
5
15A
100
AcDbEntity
8
Defpoints
62
0
6
ByLayer
370
-1
48
1
60
0
100
AcDbPoint
10
-50
20
41.75
30
0
39
0
210
0
220
0
230
1
50
360
0
ENDBLK
5
151
100
AcDbEntity
8
0
100
AcDbBlockEnd
0
BLOCK
5
166
100
AcDbEntity
8
0
100
AcDbBlockBegin
2
_U3
70
0
10
0
20
0
30
0
3
_U3
0
MTEXT
5
15C
100
AcDbEntity
8
SK2
62
256
6
ByLayer
370
18
48
1
60
0
100
AcDbMText
10
-30.142184
20
43.077672
30
0
210
0
220
0
230
1
1
\W0.7346;50.0
40
4.5
41
0
44
1.084337
50
0
71
7
72
5
7
iso_b_vert
0
LINE
5
15D
100
AcDbEntity
8
SK2
62
256
6
ByLayer
370
13
48
1
60
0
100
AcDbLine
10
0
20
1.499997
30
0
11
0
21
44.749994
31
0
39
0
210
0
220
0
230
1
0
LINE
5
15E
100
AcDbEntity
8
SK2
62
256
6
ByLayer
370
13
48
1
60
0
100
AcDbLine
10
-50
20
10.499997
30
0
11
-50
21
44.749994
31
0
39
0
210
0
220
0
230
1
0
LINE
5
15F
100
AcDbEntity
8
SK2
62
256
6
ByLayer
370
13
48
1
60
0
100
AcDbLine
10
0
20
41.75
30
0
11
-50
21
41.75
31
0
39
0
210
0
220
0
230
1
0
LINE
5
160
100
AcDbEntity
8
SK2
62
256
6
ByLayer
370
13
48
1
60
0
100
AcDbLine
10
0
20
41.75
30
0
11
-2.999992
21
41.250001
31
0
39
0
210
0
220
0
230
1
0
LINE
5
161
100
AcDbEntity
8
SK2
62
256
6
ByLayer
370
13
48
1
60
0
100
AcDbLine
10
0
20
41.75
30
0
11
-2.999996
21
42.249999
31
0
39
0
210
0
220
0
230
1
0
LINE
5
162
100
AcDbEntity
8
SK2
62
256
6
ByLayer
370
13
48
1
60
0
100
AcDbLine
10
-2.999992
20
41.250001
30
0
11
-2.999996
21
42.249999
31
0
39
0
210
0
220
0
230
1
0
LINE
5
163
100
AcDbEntity
8
SK2
62
256
6
ByLayer
370
13
48
1
60
0
100
AcDbLine
10
-50
20
41.75
30
0
11
-47.000008
21
42.249999
31
0
39
0
210
0
220
0
230
1
0
LINE
5
164
100
AcDbEntity
8
SK2
62
256
6
ByLayer
370
13
48
1
60
0
100
AcDbLine
10
-50
20
41.75
30
0
11
-47.000004
21
41.250001
31
0
39
0
210
0
220
0
230
1
0
LINE
5
165
100
AcDbEntity
8
SK2
62
256
6
ByLayer
370
13
48
1
60
0
100
AcDbLine
10
-47.000008
20
42.249999
30
0
11
-47.000004
21
41.250001
31
0
39
0
210
0
220
0
230
1
0
ENDBLK
5
167
100
AcDbEntity
8
0
100
AcDbBlockEnd
0
BLOCK
5
16C
100
AcDbEntity
8
0
100
AcDbBlockBegin
2
*D10
70
1
10
0
20
0
30
0
3
*D10
0
LINE
5
16E
100
AcDbEntity
8
0
62
256
6
ByLayer
370
-2
48
1
60
0
100
AcDbLine
10
52.663982
20
-3.08019
30
0
11
52.663982
21
55.999994
31
0
39
0
210
0
220
0
230
1
0
LINE
5
16F
100
AcDbEntity
8
0
62
256
6
ByLayer
370
-2
48
1
60
0
100
AcDbLine
10
-50
20
10.499997
30
0
11
-50
21
55.999994
31
0
39
0
210
0
220
0
230
1
0
LINE
5
170
100
AcDbEntity
8
0
62
256
6
ByLayer
370
-2
48
1
60
0
100
AcDbLine
10
49.663988
20
53
30
0
11
-47.000006
21
53
31
0
39
0
210
0
220
0
230
1
0
SOLID
5
171
100
AcDbEntity
8
0
62
256
6
ByLayer
370
-1
48
1
60
0
100
AcDbTrace
10
49.663988
20
52.500001
30
0
11
49.663988
21
53.499999
31
0
12
52.663982
22
53
32
0
13
52.663982
23
53
33
0
39
0
210
0
220
0
230
1
0
SOLID
5
172
100
AcDbEntity
8
0
62
256
6
ByLayer
370
-1
48
1
60
0
100
AcDbTrace
10
-47.000006
20
53.499999
30
0
11
-47.000006
21
52.500001
31
0
12
-50
22
53
32
0
13
-50
23
53
33
0
39
0
210
0
220
0
230
1
0
MTEXT
5
173
100
AcDbEntity
8
0
62
256
6
ByLayer
370
18
48
1
60
0
100
AcDbMText
10
1.3
20
61.999986
30
0
210
0
220
0
230
1
1
\A1;102.6640
40
4.5
41
0
44
1
50
0
71
5
72
5
7
iso_b_vert
0
POINT
5
174
100
AcDbEntity
8
Defpoints
62
0
6
ByLayer
370
-1
48
1
60
0
100
AcDbPoint
10
52.663982
20
-4.580187
30
0
39
0
210
0
220
0
230
1
50
360
0
POINT
5
175
100
AcDbEntity
8
Defpoints
62
0
6
ByLayer
370
-1
48
1
60
0
100
AcDbPoint
10
-50
20
9
30
0
39
0
210
0
220
0
230
1
50
360
0
POINT
5
176
100
AcDbEntity
8
Defpoints
62
0
6
ByLayer
370
-1
48
1
60
0
100
AcDbPoint
10
-50
20
53
30
0
39
0
210
0
220
0
230
1
50
360
0
ENDBLK
5
16D
100
AcDbEntity
8
0
100
AcDbBlockEnd
0
BLOCK
5
182
100
AcDbEntity
8
0
100
AcDbBlockBegin
2
_U4
70
0
10
0
20
0
30
0
3
_U4
0
MTEXT
5
178
100
AcDbEntity
8
SK2
62
256
6
ByLayer
370
18
48
1
60
0
100
AcDbMText
10
-6.684283
20
54.327672
30
0
210
0
220
0
230
1
1
\W0.6706;(103.0)
40
4.5
41
0
44
1.084337
50
0
71
7
72
5
7
iso_b_vert
0
LINE
5
179
100
AcDbEntity
8
SK2
62
256
6
ByLayer
370
13
48
1
60
0
100
AcDbLine
10
52.663982
20
-3.08019
30
0
11
52.663982
21
55.999994
31
0
39
0
210
0
220
0
230
1
0
LINE
5
17A
100
AcDbEntity
8
SK2
62
256
6
ByLayer
370
13
48
1
60
0
100
AcDbLine
10
-50
20
10.499997
30
0
11
-50
21
55.999994
31
0
39
0
210
0
220
0
230
1
0
LINE
5
17B
100
AcDbEntity
8
SK2
62
256
6
ByLayer
370
13
48
1
60
0
100
AcDbLine
10
52.663982
20
53
30
0
11
-50
21
53
31
0
39
0
210
0
220
0
230
1
0
LINE
5
17C
100
AcDbEntity
8
SK2
62
256
6
ByLayer
370
13
48
1
60
0
100
AcDbLine
10
52.663982
20
53
30
0
11
49.663989
21
52.500001
31
0
39
0
210
0
220
0
230
1
0
LINE
5
17D
100
AcDbEntity
8
SK2
62
256
6
ByLayer
370
13
48
1
60
0
100
AcDbLine
10
52.663982
20
53
30
0
11
49.663986
21
53.499999
31
0
39
0
210
0
220
0
230
1
0
LINE
5
17E
100
AcDbEntity
8
SK2
62
256
6
ByLayer
370
13
48
1
60
0
100
AcDbLine
10
49.663989
20
52.500001
30
0
11
49.663986
21
53.499999
31
0
39
0
210
0
220
0
230
1
0
LINE
5
17F
100
AcDbEntity
8
SK2
62
256
6
ByLayer
370
13
48
1
60
0
100
AcDbLine
10
-50
20
53
30
0
11
-47.000008
21
53.499999
31
0
39
0
210
0
220
0
230
1
0
LINE
5
180
100
AcDbEntity
8
SK2
62
256
6
ByLayer
370
13
48
1
60
0
100
AcDbLine
10
-50
20
53
30
0
11
-47.000004
21
52.500001
31
0
39
0
210
0
220
0
230
1
0
LINE
5
181
100
AcDbEntity
8
SK2
62
256
6
ByLayer
370
13
48
1
60
0
100
AcDbLine
10
-47.000008
20
53.499999
30
0
11
-47.000004
21
52.500001
31
0
39
0
210
0
220
0
230
1
0
ENDBLK
5
183
100
AcDbEntity
8
0
100
AcDbBlockEnd
0
BLOCK
5
188
100
AcDbEntity
8
0
100
AcDbBlockBegin
2
*D12
70
1
10
0
20
0
30
0
3
*D12
0
LINE
5
18A
100
AcDbEntity
8
0
62
256
6
ByLayer
370
-2
48
1
60
0
100
AcDbLine
10
52.663982
20
-3.08019
30
0
11
52.663982
21
44.749994
31
0
39
0
210
0
220
0
230
1
0
LINE
5
18B
100
AcDbEntity
8
0
62
256
6
ByLayer
370
-2
48
1
60
0
100
AcDbLine
10
0
20
1.499997
30
0
11
0
21
44.749994
31
0
39
0
210
0
220
0
230
1
0
LINE
5
18C
100
AcDbEntity
8
0
62
256
6
ByLayer
370
-2
48
1
60
0
100
AcDbLine
10
49.663988
20
41.75
30
0
11
2.999994
21
41.75
31
0
39
0
210
0
220
0
230
1
0
SOLID
5
18D
100
AcDbEntity
8
0
62
256
6
ByLayer
370
-1
48
1
60
0
100
AcDbTrace
10
49.663988
20
41.250001
30
0
11
49.663988
21
42.249999
31
0
12
52.663982
22
41.75
32
0
13
52.663982
23
41.75
33
0
39
0
210
0
220
0
230
1
0
SOLID
5
18E
100
AcDbEntity
8
0
62
256
6
ByLayer
370
-1
48
1
60
0
100
AcDbTrace
10
2.999994
20
42.249999
30
0
11
2.999994
21
41.250001
31
0
12
0
22
41.75
32
0
13
0
23
41.75
33
0
39
0
210
0
220
0
230
1
0
MTEXT
5
18F
100
AcDbEntity
8
0
62
256
6
ByLayer
370
18
48
1
60
0
100
AcDbMText
10
26.4
20
50.749986
30
0
210
0
220
0
230
1
1
\A1;52.6640
40
4.5
41
0
44
1
50
0
71
5
72
5
7
iso_b_vert
0
POINT
5
190
100
AcDbEntity
8
Defpoints
62
0
6
ByLayer
370
-1
48
1
60
0
100
AcDbPoint
10
52.663982
20
-4.580187
30
0
39
0
210
0
220
0
230
1
50
360
0
POINT
5
191
100
AcDbEntity
8
Defpoints
62
0
6
ByLayer
370
-1
48
1
60
0
100
AcDbPoint
10
0
20
0
30
0
39
0
210
0
220
0
230
1
50
360
0
POINT
5
192
100
AcDbEntity
8
Defpoints
62
0
6
ByLayer
370
-1
48
1
60
0
100
AcDbPoint
10
0
20
41.75
30
0
39
0
210
0
220
0
230
1
50
360
0
ENDBLK
5
189
100
AcDbEntity
8
0
100
AcDbBlockEnd
0
BLOCK
5
19E
100
AcDbEntity
8
0
100
AcDbBlockBegin
2
_U5
70
0
10
0
20
0
30
0
3
_U5
0
MTEXT
5
194
100
AcDbEntity
8
2
62
256
6
ByLayer
370
18
48
1
60
0
100
AcDbMText
10
21.357816
20
43.077672
30
0
210
0
220
0
230
1
1
\W0.7346;53.0
40
4.5
41
0
44
1.084337
50
0
71
7
72
5
7
iso_b_vert
0
LINE
5
195
100
AcDbEntity
8
2
62
256
6
ByLayer
370
13
48
1
60
0
100
AcDbLine
10
52.663982
20
-3.08019
30
0
11
52.663982
21
44.749994
31
0
39
0
210
0
220
0
230
1
0
LINE
5
196
100
AcDbEntity
8
2
62
256
6
ByLayer
370
13
48
1
60
0
100
AcDbLine
10
0
20
1.499997
30
0
11
0
21
44.749994
31
0
39
0
210
0
220
0
230
1
0
LINE
5
197
100
AcDbEntity
8
2
62
256
6
ByLayer
370
13
48
1
60
0
100
AcDbLine
10
52.663982
20
41.75
30
0
11
0
21
41.75
31
0
39
0
210
0
220
0
230
1
0
LINE
5
198
100
AcDbEntity
8
2
62
256
6
ByLayer
370
13
48
1
60
0
100
AcDbLine
10
52.663982
20
41.75
30
0
11
49.663989
21
41.250001
31
0
39
0
210
0
220
0
230
1
0
LINE
5
199
100
AcDbEntity
8
2
62
256
6
ByLayer
370
13
48
1
60
0
100
AcDbLine
10
52.663982
20
41.75
30
0
11
49.663986
21
42.249999
31
0
39
0
210
0
220
0
230
1
0
LINE
5
19A
100
AcDbEntity
8
2
62
256
6
ByLayer
370
13
48
1
60
0
100
AcDbLine
10
49.663989
20
41.250001
30
0
11
49.663986
21
42.249999
31
0
39
0
210
0
220
0
230
1
0
LINE
5
19B
100
AcDbEntity
8
2
62
256
6
ByLayer
370
13
48
1
60
0
100
AcDbLine
10
0
20
41.75
30
0
11
2.999992
21
42.249999
31
0
39
0
210
0
220
0
230
1
0
LINE
5
19C
100
AcDbEntity
8
2
62
256
6
ByLayer
370
13
48
1
60
0
100
AcDbLine
10
0
20
41.75
30
0
11
2.999996
21
41.250001
31
0
39
0
210
0
220
0
230
1
0
LINE
5
19D
100
AcDbEntity
8
2
62
256
6
ByLayer
370
13
48
1
60
0
100
AcDbLine
10
2.999992
20
42.249999
30
0
11
2.999996
21
41.250001
31
0
39
0
210
0
220
0
230
1
0
ENDBLK
5
19F
100
AcDbEntity
8
0
100
AcDbBlockEnd
0
ENDSEC
0
SECTION
2
ENTITIES
0
ARC
5
D1
100
AcDbEntity
8
1
62
256
6
ByLayer
370
18
48
1
60
0
100
AcDbCircle
39
0
10
15.750959
20
-13.049766
30
0
40
5
210
0
220
0
230
1
100
AcDbArc
50
90
51
134.524917
0
ARC
5
D2
100
AcDbEntity
8
1
62
256
6
ByLayer
370
18
48
1
60
0
100
AcDbCircle
39
0
10
4.879885
20
-1.9969
30
0
40
10.5031
210
0
220
0
230
1
100
AcDbArc
50
270
51
314.524917
0
ARC
5
D3
100
AcDbEntity
8
1
62
256
6
ByLayer
370
18
48
1
60
0
100
AcDbCircle
39
0
10
-15.750959
20
13.049766
30
0
40
5
210
0
220
0
230
-1
100
AcDbArc
50
270
51
314.524917
0
ARC
5
D4
100
AcDbEntity
8
1
62
256
6
ByLayer
370
18
48
1
60
0
100
AcDbCircle
39
0
10
-4.879885
20
1.9969
30
0
40
10.5031
210
0
220
0
230
-1
100
AcDbArc
50
90
51
134.524917
0
ARC
5
D5
100
AcDbEntity
8
SK1
62
256
6
ByLayer
370
18
48
1
60
0
100
AcDbCircle
39
0
10
-47.90718
20
-10.4
30
10
40
0.8
210
0
220
0
230
1
100
AcDbArc
50
71.195807
51
150
0
ARC
5
D6
100
AcDbEntity
8
SK1
62
256
6
ByLayer
370
18
48
1
60
0
100
AcDbCircle
39
0
10
47.90718
20
10.4
30
-10
40
0.8
210
0
220
0
230
-1
100
AcDbArc
50
251.195807
51
330
0
ARC
5
D7
100
AcDbEntity
8
1
62
256
6
ByLayer
370
18
48
1
60
0
100
AcDbCircle
39
0
10
52.197378
20
3.497786
30
0.8
40
0.396
210
0
220
0
230
1
100
AcDbArc
50
252
51
350
0
ARC
5
D8
100
AcDbEntity
8
1
62
256
6
ByLayer
370
18
48
1
60
0
100
AcDbCircle
39
0
10
52.371037
20
8.064629
30
0.8
40
0.396
210
0
220
0
230
1
100
AcDbArc
50
6
51
102
0
ARC
5
D9
100
AcDbEntity
8
1
62
256
6
ByLayer
370
18
48
1
60
0
100
AcDbCircle
39
0
10
48.119222
20
7.916152
30
0.8
40
0.396
210
0
220
0
230
1
100
AcDbArc
50
72
51
170
0
ARC
5
DA
100
AcDbEntity
8
1
62
256
6
ByLayer
370
18
48
1
60
0
100
AcDbCircle
39
0
10
47.945563
20
3.34931
30
0.8
40
0.396
210
0
220
0
230
1
100
AcDbArc
50
186
51
282
0
ARC
5
DD
100
AcDbEntity
8
1
62
256
6
ByLayer
370
18
48
0.05
60
0
100
AcDbCircle
39
0
10
52.271835
20
-4.525074
30
-0.18
40
0.396
210
0
220
0
230
1
100
AcDbArc
50
254
51
352
0
ARC
5
DE
100
AcDbEntity
8
1
62
256
6
ByLayer
370
18
48
1
60
0
100
AcDbCircle
39
0
10
52.286008
20
0.045047
30
-0.18
40
0.396
210
0
220
0
230
1
100
AcDbArc
50
8
51
104
0
ARC
5
DF
100
AcDbEntity
8
1
62
256
6
ByLayer
370
18
48
0.05
60
0
100
AcDbCircle
39
0
10
48.041965
20
-0.251726
30
-0.18
40
0.396
210
0
220
0
230
1
100
AcDbArc
50
74
51
172
0
ARC
5
E0
100
AcDbEntity
8
1
62
256
6
ByLayer
370
18
48
0.05
60
0
100
AcDbCircle
39
0
10
48.027792
20
-4.821847
30
-0.18
40
0.396
210
0
220
0
230
1
100
AcDbArc
50
188
51
284
0
CIRCLE
5
DB
100
AcDbEntity
8
1
62
256
6
ByLayer
370
18
48
1
60
0
100
AcDbCircle
10
50.1583
20
5.706969
30
0.8
40
1.65
39
0
210
0
220
0
230
1
0
CIRCLE
5
DC
100
AcDbEntity
8
1
62
256
6
ByLayer
370
18
48
1
60
0
100
AcDbCircle
10
50.1583
20
5.706969
30
0.8
40
1.1
39
0
210
0
220
0
230
1
0
CIRCLE
5
E1
100
AcDbEntity
8
1
62
256
6
ByLayer
370
18
48
1
60
0
100
AcDbCircle
10
50.1569
20
-2.3884
30
-0.18
40
0.85
39
0
210
0
220
0
230
1
0
POINT
5
70
100
AcDbEntity
8
1
62
256
6
ByLayer
370
13
48
1
60
1
100
AcDbPoint
10
52.8
20
0
30
0
39
0
210
0
220
0
230
1
50
360
0
POINT
5
72
100
AcDbEntity
8
1
62
256
6
ByLayer
370
13
48
1
60
1
100
AcDbPoint
10
12.335907
20
6.738476
30
-2.432358
39
0
210
0
220
0
230
1
50
360
0
POINT
5
73
100
AcDbEntity
8
1
62
256
6
ByLayer
370
13
48
1
60
1
100
AcDbPoint
10
5.4
20
-9.852696
30
7.692489
39
0
210
0
220
0
230
1
50
360
0
POINT
5
74
100
AcDbEntity
8
SK1
62
256
6
ByLayer
370
25
48
1
60
0
100
AcDbPoint
10
0
20
0
30
0
39
0
210
0
220
0
230
1
50
360
0
POINT
5
76
100
AcDbEntity
8
1
62
256
6
ByLayer
370
18
48
1
60
0
100
AcDbPoint
10
50.1583
20
5.706969
30
0.8
39
0
210
0
220
0
230
1
50
360
0
POINT
5
77
100
AcDbEntity
8
1
62
256
6
ByLayer
370
18
48
1
60
0
100
AcDbPoint
10
50.1569
20
-2.3884
30
-0.18
39
0
210
0
220
0
230
1
50
360
0
POINT
5
78
100
AcDbEntity
8
81
62
256
6
ByLayer
370
18
48
1
60
0
100
AcDbPoint
10
53
20
0
30
0
39
0
210
0
220
0
230
1
50
360
0
POINT
5
7A
100
AcDbEntity
8
80
62
256
6
ByLayer
370
18
48
1
60
0
100
AcDbPoint
10
0
20
0
30
0
39
0
210
0
220
0
230
1
50
360
0
SPLINE
5
E2
100
AcDbEntity
8
1
62
256
6
ByLayer
370
18
48
1
60
0
100
AcDbSpline
70
4
71
3
72
29
73
25
40
0
40
0
40
0
40
0
40
0.0005000047462525
40
0.0500000127253258
40
0.100000011311401
40
0.150000009897476
40
0.200000008483551
40
0.250000007069626
40
0.300000005655701
40
0.350000004241775
40
0.40000000282785
40
0.450000001413925
40
0.5
40
0.549999998586075
40
0.59999999717215
40
0.649999995758225
40
0.6999999943443
40
0.749999992930375
40
0.79999999151645
40
0.849999990102525
40
0.899999988688599
40
0.949999987274674
40
0.999499995253748
40
1
40
1
40
1
40
1
41
1
10
41.5
20
7.77166008899459
30
2.61558778501669
41
1
10
41.4968486331903
20
7.77203619952565
30
2.61447025284754
41
1
10
41.1817148445355
20
7.80962263490798
30
2.50271047297421
41
1
10
40.5514372695581
20
7.87997460700548
30
2.27756612529403
41
1
10
39.6091800852379
20
7.97061034557557
30
1.93677394760691
41
1
10
38.6637695135309
20
8.04671896750469
30
1.59123748924818
41
1
10
37.7183595004648
20
8.10785537387736
30
1.24274052519492
41
1
10
36.7729493377114
20
8.1539059085402
30
0.891931191960801
41
1
10
35.8275392150665
20
8.18478486140796
30
0.539462302418824
41
1
10
34.8821290816749
20
8.20043478450643
30
0.185989657126036
41
1
10
33.9367189511618
20
8.2008265569108
30
-0.167829048880673
41
1
10
32.9913088198811
20
8.18595945017232
30
-0.521335483855667
41
1
10
32.0458986887923
20
8.15586112665497
30
-0.873871895162753
41
1
10
31.1004885577035
20
8.11058758889762
30
-1.22478233552435
41
1
10
30.1550784264229
20
8.05022307510276
30
-1.57341388301512
41
1
10
29.2096682959098
20
7.9748799028066
30
-1.91911785550348
41
1
10
28.2642581625181
20
7.88469825857336
30
-2.26125101979286
41
1
10
27.3188480398732
20
7.77984594203668
30
-2.59917678019306
41
1
10
26.3734378771198
20
7.66051803548589
30
-2.93226639387848
41
1
10
25.4280278640538
20
7.52693660879464
30
-3.25990002551852
41
1
10
24.4826172923468
20
7.37935005278827
30
-3.58146833066257
41
1
10
23.5403601080266
20
7.21857127446499
30
-3.89532232525205
41
1
10
22.9100825330491
20
7.10211705332285
30
-4.10045104495869
41
1
10
22.5949487443943
20
7.04170632533064
30
-4.2017107727163
41
1
10
22.5917973775847
20
7.04110199136607
30
-4.20272325369881
0
SPLINE
5
E3
100
AcDbEntity
8
1
62
256
6
ByLayer
370
18
48
1
60
0
100
AcDbSpline
70
4
71
3
72
29
73
25
40
0
40
0
40
0
40
0
40
0.0005000093222796
40
0.0500000249933553
40
0.100000022216316
40
0.150000019439276
40
0.200000016662237
40
0.250000013885197
40
0.300000011108158
40
0.350000008331118
40
0.400000005554079
40
0.450000002777039
40
0.5
40
0.549999997222961
40
0.599999994445921
40
0.649999991668882
40
0.699999988891842
40
0.749999986114803
40
0.799999983337763
40
0.849999980560724
40
0.899999977783684
40
0.949999975006645
40
0.99949999067772
40
1
40
1
40
1
40
1
41
1
10
41.5
20
1.38647628318241
30
8.08193562930148
41
1
10
41.4955833341428
20
1.38810504844522
30
8.08165621040713
41
1
10
41.0539247101749
20
1.55096870460265
30
8.05366587322568
41
1
10
40.1705799413601
20
1.87501205942978
30
7.98783395920711
41
1
10
38.8500009565179
20
2.35265877125607
30
7.86046903366161
41
1
10
37.5249997437018
20
2.82330830961811
30
7.70395404999783
41
1
10
36.2000000686749
20
3.28364027629269
30
7.51928746088748
41
1
10
34.8749999815986
20
3.73197336955072
30
7.30714392257381
41
1
10
33.5500000049305
20
4.16666906941307
30
7.06829868862255
41
1
10
32.2249999986793
20
4.58613897476331
30
6.80362453445814
41
1
10
30.9000000003522
20
4.98885024603346
30
6.51408863306074
41
1
10
29.5749999999119
20
5.3733313033919
30
6.20074900332688
41
1
10
28.25
20
5.73817717822089
30
5.86475064849583
41
1
10
26.9250000000881
20
6.0820546540714
30
5.50732137097146
41
1
10
25.5999999996478
20
6.40370713672786
30
5.12976728553449
41
1
10
24.2750000013207
20
6.70195924616826
30
4.73346804831548
41
1
10
22.9499999950695
20
6.97572111289577
30
4.31987180836272
41
1
10
21.6250000184014
20
7.2239923553354
30
3.89048994167814
41
1
10
20.2999999313251
20
7.44586575493363
30
3.44689143186406
41
1
10
18.9750002562982
20
7.64053049844958
30
2.99069749688902
41
1
10
17.6499990434821
20
7.80727541274541
30
2.52357432081213
41
1
10
16.3294200586399
20
7.94502984856808
30
2.04881973053538
41
1
10
15.4460752898251
20
8.01791507276919
30
1.72628960666457
41
1
10
15.0044166658572
20
8.0494516048986
30
1.56407531440353
41
1
10
15
20
8.04976648866533
30
1.56245303224148
0
SPLINE
5
E4
100
AcDbEntity
8
1
62
256
6
ByLayer
370
18
48
1
60
0
100
AcDbSpline
70
4
71
3
72
29
73
25
40
0
40
0
40
0
40
0
40
0.0005000049887065
40
0.0500000133753513
40
0.100000011889201
40
0.150000010403051
40
0.200000008916901
40
0.250000007430751
40
0.300000005944601
40
0.35000000445845
40
0.4000000029723
40
0.45000000148615
40
0.5
40
0.54999999851385
40
0.5999999970277
40
0.64999999554155
40
0.699999994055399
40
0.749999992569249
40
0.799999991083099
40
0.849999989596949
40
0.899999988110799
40
0.949999986624649
40
0.999499995011294
40
1
40
1
40
1
40
1
41
1
10
34.3851575223285
20
-8.2
30
9.6E-15
41
1
10
34.3819266630583
20
-8.19999999996124
30
0.0012088689912047
41
1
10
34.0588438527857
20
-8.19997327243748
30
0.122094009168641
41
1
10
33.4126674587921
20
-8.19457254871289
30
0.363866630355813
41
1
10
32.4466421445381
20
-8.17060558004202
30
0.724609672700777
41
1
10
31.4773837936477
20
-8.13057928859575
30
1.08514306338781
41
1
10
30.5081260447465
20
-8.07465211605418
30
1.44355398811021
41
1
10
29.5388681345429
20
-8.00293343662843
30
1.79914184120837
41
1
10
28.5696102675601
20
-7.91556351025228
30
2.15121111386535
41
1
10
27.6003523889965
20
-7.81271320517107
30
2.49907329217818
41
1
10
26.631094513535
20
-7.69458366460828
30
2.84204805955493
41
1
10
25.6618366372462
20
-7.56140591317182
30
3.17946466581724
41
1
10
24.6925787611642
20
-7.41344040509058
30
3.51066322864056
41
1
10
23.7233208850823
20
-7.2509765148721
30
3.83499602681714
41
1
10
22.7540630087935
20
-7.07433197122709
30
4.15182876638124
41
1
10
21.784805133332
20
-6.88385223626181
30
4.46054182081572
41
1
10
20.8155472547684
20
-6.67990982772726
30
4.76053144456457
41
1
10
19.8462893877856
20
-6.46290359845745
30
5.05121094718264
41
1
10
18.8770314775819
20
-6.23325792660351
30
5.33201186535829
41
1
10
17.9077737286808
20
-5.99142199665077
30
5.60238498268462
41
1
10
16.9385153777904
20
-5.73786850681268
30
5.86180174698127
41
1
10
15.9724900635364
20
-5.47397685349712
30
6.10892753175081
41
1
10
15.3263136695425
20
-5.29035870358869
30
6.26630460503864
41
1
10
15.0032308592702
20
-5.19685638856891
30
6.34292402108988
41
1
10
15
20
-5.19592118247707
30
6.34369001965623
0
SPLINE
5
E5
100
AcDbEntity
8
1
62
256
6
ByLayer
370
18
48
1
60
0
100
AcDbSpline
70
4
71
3
72
29
73
25
40
0
40
0
40
0
40
0
40
0.0005000007651684
40
0.0500000020515807
40
0.100000001823627
40
0.150000001595674
40
0.200000001367721
40
0.250000001139768
40
0.300000000911814
40
0.35000000068386
40
0.400000000455907
40
0.450000000227954
40
0.5
40
0.549999999772046
40
0.599999999544093
40
0.64999999931614
40
0.699999999088186
40
0.749999998860233
40
0.79999999863228
40
0.849999998404327
40
0.899999998176373
40
0.949999997948419
40
0.999499999234832
40
1
40
1
40
1
40
1
41
1
10
22.5917973775847
20
-7.04110199136607
30
-4.20272325369881
41
1
10
22.5905320780408
20
-7.04134463577481
30
-4.20231673536917
41
1
10
22.4640023108696
20
-7.06560550211647
30
-4.16166289187303
41
1
10
22.2109421293817
20
-7.11342318004892
30
-4.07993480138013
41
1
10
21.8326176623184
20
-7.1827943394074
30
-3.95653760326655
41
1
10
21.4530277649202
20
-7.25024275531716
30
-3.83154072465095
41
1
10
21.0734379036826
20
-7.31551614553455
30
-3.70539442666704
41
1
10
20.6938480327558
20
-7.37859493882115
30
-3.57813653492937
41
1
10
20.3142581644252
20
-7.43946020926473
30
-3.44980523047502
41
1
10
19.934668295399
20
-7.4980936984861
30
-3.32043901047444
41
1
10
19.5550784265591
20
-7.55447781668744
30
-3.19007668414098
41
1
10
19.1754885576695
20
-7.60859564911589
30
-3.05875735909015
41
1
10
18.7958986887923
20
-7.66043096081998
30
-2.92652043014227
41
1
10
18.4163088199152
20
-7.70996820160455
30
-2.793405567364
41
1
10
18.0367189510256
20
-7.75719251067525
30
-2.65945270419432
41
1
10
17.6571290821857
20
-7.80208972109408
30
-2.52470202549837
41
1
10
17.2775392131595
20
-7.84464636405995
30
-2.38919395535129
41
1
10
16.8979493448289
20
-7.88484967282957
30
-2.25296914552172
41
1
10
16.5183594739021
20
-7.92268758699531
30
-2.11606846099605
41
1
10
16.1387696126645
20
-7.9581487544312
30
-1.97853297623085
41
1
10
15.7591797152663
20
-7.99122254093864
30
-1.84040393106495
41
1
10
15.380855248203
20
-8.02179675555981
30
-1.70218510581561
41
1
10
15.1277950667147
20
-8.04065144636226
30
-1.60939226270136
41
1
10
15.0012652995439
20
-8.04967628037079
30
-1.562917785859
41
1
10
15
20
-8.04976648866534
30
-1.56245303224146
0
SPLINE
5
E6
100
AcDbEntity
8
1
62
256
6
ByLayer
370
18
48
1
60
0
100
AcDbSpline
70
4
71
3
72
9
73
5
40
0
40
0
40
0
40
0
40
0.555786386953971
40
1
40
1
40
1
40
1
41
1
10
15
20
-8.04976648866534
30
-1.56245303224146
41
1
10
7.79625858816619
20
-10.0641710499423
30
3.54976178701567
41
1
10
2.03865085412679
20
-11.1454793069145
30
9.1004207308059
41
1
10
9.2423922659606
20
-7.65108351969075
30
8.08829582269982
41
1
10
15
20
-5.19592118247707
30
6.34369001965623
0
SPLINE
5
E7
100
AcDbEntity
8
SK1
62
256
6
ByLayer
370
18
48
1
60
0
100
AcDbSpline
70
4
71
3
72
46
73
42
40
0
40
0
40
0
40
0
40
0.0325548106345456
40
0.0325548106345456
40
0.0651041132568983
40
0.0651041132568983
40
0.103022939875128
40
0.103022939875128
40
0.124032028705738
40
0.124032028705738
40
0.16595709986031
40
0.16595709986031
40
0.214134463056893
40
0.214134463056893
40
0.262301831660977
40
0.262301831660977
40
0.317339472330684
40
0.317339472330684
40
0.372372629392768
40
0.372372629392768
40
0.433930870829802
40
0.433930870829802
40
0.495487683750692
40
0.495487683750692
40
0.588924911572437
40
0.588924911572437
40
0.641008287221678
40
0.641008287221678
40
0.693093787379067
40
0.693093787379067
40
0.770397012893342
40
0.770397012893342
40
0.828163609079897
40
0.828163609079897
40
0.885461655554109
40
0.885461655554109
40
0.942503563676774
40
0.942503563676774
40
0.97125011169653
40
0.97125011169653
40
1
40
1
40
1
40
1
41
1
10
-6.4999999944921
20
5.93274809870277
30
8.04999999983472
41
1
10
-6.32835755734952
20
5.93274809827769
30
8.050000000148
41
1
10
-6.16807240904483
20
5.91457620232092
30
8.06349002962499
41
1
10
-5.84558347182563
20
5.84306731424594
30
8.11545729952559
41
1
10
-5.6942131763071
20
5.79156237671824
30
8.15257861479365
41
1
10
-5.37588555777174
20
5.64425350066918
30
8.25539783721071
41
1
10
-5.22279066122591
20
5.54792096018165
30
8.32093220958579
41
1
10
-5.00427828669093
20
5.37441010754897
30
8.43331432329975
41
1
10
-4.93127590987935
20
5.30866415346244
30
8.47496449370459
41
1
10
-4.72373833083552
20
5.09863917631819
30
8.60412822329611
41
1
10
-4.60658372305557
20
4.94939475422032
30
8.69136020432099
41
1
10
-4.37446628398257
20
4.58895465523982
30
8.88759985479212
41
1
10
-4.27628807325691
20
4.39327363040451
30
8.98623285282119
41
1
10
-4.10372455981936
20
3.97469870710836
30
9.17905132647953
41
1
10
-4.03370633445731
20
3.76095252916039
30
9.26895386049115
41
1
10
-3.90363542785563
20
3.27654225930472
30
9.45200458553017
41
1
10
-3.85091638180435
20
3.01856702107137
30
9.53755345890491
41
1
10
-3.76380327748035
20
2.48508117475522
30
9.69025439492699
41
1
10
-3.73100548408887
20
2.21863614478913
30
9.75489569793933
41
1
10
-3.67506496866308
20
1.62857705175722
30
9.8715915558635
41
1
10
-3.65557229922832
20
1.32361465397999
30
9.91697234950549
41
1
10
-3.62888786218017
20
0.69918888399162
30
9.98045221070489
41
1
10
-3.62221971292861
20
0.387938788768082
30
9.99746115938018
41
1
10
-3.61993240375658
20
-0.407707874154791
30
10.003185426657
41
1
10
-3.6311423337058
20
-0.875192397328286
30
9.97328500262734
41
1
10
-3.67558250680501
20
-1.61941464555185
30
9.87165335444215
41
1
10
-3.69629438392829
20
-1.87631932811171
30
9.82593773271614
41
1
10
-3.75240160009769
20
-2.39266019850418
30
9.71312566233682
41
1
10
-3.78686538548538
20
-2.6441234806158
30
9.64773193651633
41
1
10
-3.89989679508555
20
-3.27473433859042
30
9.45678848098149
41
1
10
-3.98679314491452
20
-3.6316379463807
30
9.32481591712088
41
1
10
-4.20251689992804
20
-4.23406045609152
30
9.06373926079821
41
1
10
-4.31430219347723
20
-4.48039060390434
30
8.94389186901264
41
1
10
-4.59120294807852
20
-4.93635321285415
30
8.70048466245961
41
1
10
-4.75595072910381
20
-5.14648926596649
30
8.57672527895675
41
1
10
-5.15618569741815
20
-5.51132616082467
30
8.34694178135394
41
1
10
-5.38527029245562
20
-5.66129670259563
30
8.24421419927097
41
1
10
-5.78444357983633
20
-5.82232622054866
30
8.13050103037959
41
1
10
-5.92028306664863
20
-5.86269039794998
30
8.10124432903245
41
1
10
-6.20690804880166
20
-5.91860062218603
30
8.06048789504153
41
1
10
-6.34948945621272
20
-5.93274813687162
30
8.04999997170472
41
1
10
-6.50000003372524
20
-5.93274813649508
30
8.04999997198222
0
SPLINE
5
E8
100
AcDbEntity
8
1
62
256
6
ByLayer
370
18
48
1
60
0
100
AcDbSpline
70
4
71
3
72
9
73
5
40
0
40
0
40
0
40
0
40
0.246223462312665
40
1
40
1
40
1
40
1
41
1
10
51.8344694963525
20
-1.55534679424727
30
0
41
1
10
51.7667203297598
20
-2.09968168307022
30
0
41
1
10
51.5732166769348
20
-4.31143855563537
30
0
41
1
10
51.711320410625
20
-6.52734457479245
30
0
41
1
10
52.0038321409143
20
-8.2
30
0
0
LINE
5
7C
100
AcDbEntity
8
SK4
62
256
6
ByLayer
370
13
48
0.05
60
0
100
AcDbLine
10
54.8
20
0
30
0
11
-52.2
21
0
31
0
39
0
210
0
220
0
230
1
0
LINE
5
7E
100
AcDbEntity
8
4
62
256
6
ByLayer
370
13
48
0.05
60
0
100
AcDbLine
10
54.8
20
0
30
0
11
-2.2
21
0
31
0
39
0
210
0
220
0
230
1
0
LINE
5
80
100
AcDbEntity
8
1
62
256
6
ByLayer
370
18
48
1
60
0
100
AcDbLine
10
41.5
20
8.2
30
0
11
34.385158
21
8.2
31
0
39
0
210
0
220
0
230
1
0
LINE
5
81
100
AcDbEntity
8
1
62
256
6
ByLayer
370
18
48
1
60
0
100
AcDbLine
10
41.5
20
-8.2
30
0
11
34.385158
21
-8.2
31
0
39
0
210
0
220
0
230
1
0
LINE
5
82
100
AcDbEntity
8
1
62
256
6
ByLayer
370
18
48
1
60
0
100
AcDbLine
10
15
20
-5.195921
30
6.34369
11
15
21
8.049766
31
1.562453
39
0
210
0
220
0
230
1
0
LINE
5
83
100
AcDbEntity
8
1
62
256
6
ByLayer
370
18
48
1
60
0
100
AcDbLine
10
4.9981
20
12.5
30
0
11
4.9981
21
-12.5
31
0
39
0
210
0
220
0
230
1
0
LINE
5
84
100
AcDbEntity
8
1
62
256
6
ByLayer
370
18
48
1
60
0
100
AcDbLine
10
0.2
20
-12.5
30
0
11
0
21
-12.3
31
0
39
0
210
0
220
0
230
1
0
LINE
5
85
100
AcDbEntity
8
1
62
256
6
ByLayer
370
18
48
1
60
0
100
AcDbLine
10
0.2
20
-12.5
30
0
11
0.2
21
12.5
31
0
39
0
210
0
220
0
230
1
0
LINE
5
86
100
AcDbEntity
8
1
62
256
6
ByLayer
370
18
48
1
60
0
100
AcDbLine
10
0
20
-12.3
30
0
11
0
21
12.3
31
0
39
0
210
0
220
0
230
1
0
LINE
5
87
100
AcDbEntity
8
1
62
256
6
ByLayer
370
18
48
1
60
0
100
AcDbLine
10
0.2
20
12.5
30
0
11
0
21
12.3
31
0
39
0
210
0
220
0
230
1
0
LINE
5
88
100
AcDbEntity
8
1
62
256
6
ByLayer
370
18
48
1
60
0
100
AcDbLine
10
0.2
20
-12.5
30
0
11
4.9981
21
-12.5
31
0
39
0
210
0
220
0
230
1
0
LINE
5
89
100
AcDbEntity
8
1
62
256
6
ByLayer
370
18
48
1
60
0
100
AcDbLine
10
0.2
20
12.5
30
0
11
4.9981
21
12.5
31
0
39
0
210
0
220
0
230
1
0
LINE
5
8A
100
AcDbEntity
8
1
62
256
6
ByLayer
370
18
48
1
60
0
100
AcDbLine
10
52.003832
20
-8.2
30
0
11
52.820599
21
-2.3884
31
0
39
0
210
0
220
0
230
1
0
LINE
5
8B
100
AcDbEntity
8
1
62
256
6
ByLayer
370
18
48
1
60
0
100
AcDbLine
10
52.820599
20
-2.3884
30
0
11
52.484932
21
0
31
0
39
0
210
0
220
0
230
1
0
LINE
5
8C
100
AcDbEntity
8
SK1
62
256
6
ByLayer
370
18
48
1
60
0
100
AcDbLine
10
-49
20
-10
30
10
11
-50
21
-9
31
10
39
0
210
0
220
0
230
1
0
LINE
5
8D
100
AcDbEntity
8
SK1
62
256
6
ByLayer
370
25
48
1
60
0
100
AcDbLine
10
0
20
9.75
30
0
11
0
21
-9.75
31
0
39
0
210
0
220
0
230
1
0
LINE
5
8E
100
AcDbEntity
8
SK1
62
256
6
ByLayer
370
25
48
1
60
0
100
AcDbLine
10
-49
20
10
30
0
11
-49
21
5.932748
31
0
39
0
210
0
220
0
230
1
0
LINE
5
8F
100
AcDbEntity
8
SK1
62
256
6
ByLayer
370
25
48
1
60
0
100
AcDbLine
10
-50
20
-9
30
10
11
-50
21
9
31
10
39
0
210
0
220
0
230
1
0
LINE
5
90
100
AcDbEntity
8
SK1
62
256
6
ByLayer
370
25
48
1
60
0
100
AcDbLine
10
-49
20
-10
30
0
11
-50
21
-9
31
10
39
0
210
0
220
0
230
1
0
LINE
5
91
100
AcDbEntity
8
SK1
62
256
6
ByLayer
370
25
48
1
60
0
100
AcDbLine
10
-49
20
10
30
0
11
-50
21
9
31
10
39
0
210
0
220
0
230
1
0
LINE
5
92
100
AcDbEntity
8
SK1
62
256
6
ByLayer
370
25
48
1
60
0
100
AcDbLine
10
-2
20
10
30
0
11
-2
21
-10
31
0
39
0
210
0
220
0
230
1
0
LINE
5
93
100
AcDbEntity
8
SK1
62
256
6
ByLayer
370
25
48
1
60
0
100
AcDbLine
10
0
20
-9.75
30
0
11
-2
21
-9.75
31
0
39
0
210
0
220
0
230
1
0
LINE
5
94
100
AcDbEntity
8
SK1
62
256
6
ByLayer
370
25
48
1
60
0
100
AcDbLine
10
0
20
9.75
30
0
11
-2
21
9.75
31
0
39
0
210
0
220
0
230
1
0
LINE
5
95
100
AcDbEntity
8
SK1
62
256
6
ByLayer
370
18
48
1
60
0
100
AcDbLine
10
-49
20
5.932748
30
8.05
11
-6.5
21
5.932748
31
8.05
39
0
210
0
220
0
230
1
0
LINE
5
96
100
AcDbEntity
8
SK1
62
256
6
ByLayer
370
18
48
1
60
0
100
AcDbLine
10
-49
20
-5.932748
30
8.05
11
-6.5
21
-5.932748
31
8.05
39
0
210
0
220
0
230
1
0
LINE
5
97
100
AcDbEntity
8
SK1
62
256
6
ByLayer
370
18
48
1
60
0
100
AcDbLine
10
-6.5
20
-5.932748
30
8.05
11
-6.5
21
5.932748
31
8.05
39
0
210
0
220
0
230
1
0
LINE
5
98
100
AcDbEntity
8
SK1
62
256
6
ByLayer
370
25
48
1
60
0
100
AcDbLine
10
-49
20
-10
30
0
11
-49
21
-5.932748
31
0
39
0
210
0
220
0
230
1
0
LINE
5
99
100
AcDbEntity
8
SK1
62
256
6
ByLayer
370
18
48
1
60
0
100
AcDbLine
10
-49
20
-5.932748
30
8.05
11
-50
21
-4.254116
31
10
39
0
210
0
220
0
230
1
0
LINE
5
9A
100
AcDbEntity
8
SK1
62
256
6
ByLayer
370
18
48
1
60
0
100
AcDbLine
10
-49
20
5.932748
30
8.05
11
-50
21
4.254116
31
10
39
0
210
0
220
0
230
1
0
LINE
5
9B
100
AcDbEntity
8
SK1
62
256
6
ByLayer
370
18
48
1
60
0
100
AcDbLine
10
-46.6
20
10
30
10
11
-47.649312
21
9.642699
31
10
39
0
210
0
220
0
230
1
0
LINE
5
9C
100
AcDbEntity
8
SK1
62
256
6
ByLayer
370
18
48
1
60
0
100
AcDbLine
10
-49
20
-10
30
10
11
-48.6
21
-10
31
10
39
0
210
0
220
0
230
1
0
LINE
5
9D
100
AcDbEntity
8
SK1
62
256
6
ByLayer
370
18
48
1
60
0
100
AcDbLine
10
-50
20
9
30
10
11
-49
21
10
31
10
39
0
210
0
220
0
230
1
0
LINE
5
9E
100
AcDbEntity
8
SK1
62
256
6
ByLayer
370
18
48
1
60
0
100
AcDbLine
10
-50
20
-9
30
10
11
-49
21
-10
31
10
39
0
210
0
220
0
230
1
0
LINE
5
9F
100
AcDbEntity
8
SK1
62
256
6
ByLayer
370
18
48
1
60
0
100
AcDbLine
10
-49
20
10
30
10
11
-48.6
21
10
31
10
39
0
210
0
220
0
230
1
0
LINE
5
A0
100
AcDbEntity
8
SK1
62
256
6
ByLayer
370
18
48
1
60
0
100
AcDbLine
10
-50
20
-9
30
10
11
-50
21
9
31
10
39
0
210
0
220
0
230
1
0
LINE
5
A1
100
AcDbEntity
8
SK1
62
256
6
ByLayer
370
18
48
1
60
0
100
AcDbLine
10
-46.6
20
-10
30
10
11
-47.649312
21
-9.642699
31
10
39
0
210
0
220
0
230
1
0
LINE
5
A2
100
AcDbEntity
8
SK1
62
256
6
ByLayer
370
18
48
1
60
0
100
AcDbLine
10
-46.6
20
-10
30
10
11
-2
21
-10
31
0
39
0
210
0
220
0
230
1
0
LINE
5
A3
100
AcDbEntity
8
SK1
62
256
6
ByLayer
370
18
48
1
60
0
100
AcDbLine
10
-2
20
10
30
0
11
-46.6
21
10
31
10
39
0
210
0
220
0
230
1
0
LINE
5
A4
100
AcDbEntity
8
SK1
62
256
6
ByLayer
370
18
48
1
60
0
100
AcDbLine
10
-46.6
20
-10
30
10
11
-46.6
21
-5.932748
31
10
39
0
210
0
220
0
230
1
0
LINE
5
A5
100
AcDbEntity
8
SK1
62
256
6
ByLayer
370
18
48
1
60
0
100
AcDbLine
10
-46.6
20
5.932748
30
10
11
-46.6
21
10
31
10
39
0
210
0
220
0
230
1
0
LINE
5
A6
100
AcDbEntity
8
SK1
62
256
6
ByLayer
370
18
48
1
60
0
100
AcDbLine
10
-48.6
20
10
30
10
11
-48.6
21
5.932748
31
10
39
0
210
0
220
0
230
1
0
LINE
5
A7
100
AcDbEntity
8
SK1
62
256
6
ByLayer
370
18
48
1
60
0
100
AcDbLine
10
-48.6
20
-5.932748
30
10
11
-48.6
21
-10
31
10
39
0
210
0
220
0
230
1
0
LINE
5
A8
100
AcDbEntity
8
SK1
62
256
6
ByLayer
370
18
48
1
60
0
100
AcDbLine
10
-49
20
5.932748
30
10
11
-49
21
10
31
10
39
0
210
0
220
0
230
1
0
LINE
5
A9
100
AcDbEntity
8
SK1
62
256
6
ByLayer
370
18
48
1
60
0
100
AcDbLine
10
-49
20
-5.932748
30
10
11
-49
21
-10
31
10
39
0
210
0
220
0
230
1
0
LINE
5
AA
100
AcDbEntity
8
1
62
256
6
ByLayer
370
18
48
1
60
0
100
AcDbLine
10
52.075008
20
3.121168
30
0.8
11
51.44624
21
3.325467
31
0.8
39
0
210
0
220
0
230
1
0
LINE
5
AB
100
AcDbEntity
8
1
62
256
6
ByLayer
370
18
48
1
60
0
100
AcDbLine
10
52.587362
20
3.429022
30
0.8
11
53.006564
21
5.806433
31
0.8
39
0
210
0
220
0
230
1
0
LINE
5
AC
100
AcDbEntity
8
1
62
256
6
ByLayer
370
18
48
1
60
0
100
AcDbLine
10
52.764867
20
8.106022
30
0.8
11
53.006564
21
5.806433
31
0.8
39
0
210
0
220
0
230
1
0
LINE
5
AD
100
AcDbEntity
8
1
62
256
6
ByLayer
370
18
48
1
60
0
100
AcDbLine
10
52.288704
20
8.451975
30
0.8
11
51.627287
21
8.184745
31
0.8
39
0
210
0
220
0
230
1
0
LINE
5
AE
100
AcDbEntity
8
1
62
256
6
ByLayer
370
18
48
1
60
0
100
AcDbLine
10
48.241592
20
8.292771
30
0.8
11
48.87036
21
8.088471
31
0.8
39
0
210
0
220
0
230
1
0
LINE
5
AF
100
AcDbEntity
8
1
62
256
6
ByLayer
370
18
48
1
60
0
100
AcDbLine
10
47.729238
20
7.984917
30
0.8
11
47.310036
21
5.607506
31
0.8
39
0
210
0
220
0
230
1
0
LINE
5
B0
100
AcDbEntity
8
1
62
256
6
ByLayer
370
18
48
1
60
0
100
AcDbLine
10
47.551733
20
3.307916
30
0.8
11
47.310036
21
5.607506
31
0.8
39
0
210
0
220
0
230
1
0
LINE
5
B1
100
AcDbEntity
8
1
62
256
6
ByLayer
370
18
48
1
60
0
100
AcDbLine
10
48.027896
20
2.961963
30
0.8
11
48.689313
21
3.229193
31
0.8
39
0
210
0
220
0
230
1
0
LINE
5
B2
100
AcDbEntity
8
1
62
256
6
ByLayer
370
18
48
1
60
0
100
AcDbLine
10
50.242931
20
3.283446
30
0.8
11
51.44624
21
3.325467
31
0.8
39
0
210
0
220
0
230
1
0
LINE
5
B3
100
AcDbEntity
8
1
62
256
6
ByLayer
370
18
48
1
60
0
100
AcDbLine
10
50.073669
20
8.130492
30
0.8
11
48.87036
21
8.088471
31
0.8
39
0
210
0
220
0
230
1
0
LINE
5
B4
100
AcDbEntity
8
1
62
256
6
ByLayer
370
18
48
1
60
0
100
AcDbLine
10
50.073669
20
8.130492
30
0.8
11
51.627287
21
8.184745
31
0.8
39
0
210
0
220
0
230
1
0
LINE
5
B5
100
AcDbEntity
8
1
62
256
6
ByLayer
370
18
48
1
60
0
100
AcDbLine
10
50.242931
20
3.283446
30
0.8
11
48.689313
21
3.229193
31
0.8
39
0
210
0
220
0
230
1
0
LINE
5
B6
100
AcDbEntity
8
1
62
256
6
ByLayer
370
18
48
0.05
60
0
100
AcDbLine
10
52.162683
20
-4.905734
30
-0.18
11
51.527168
21
-4.723503
31
-0.18
39
0
210
0
220
0
230
1
0
LINE
5
B7
100
AcDbEntity
8
1
62
256
6
ByLayer
370
18
48
1
60
0
100
AcDbLine
10
52.663982
20
-4.580187
30
-0.18
11
52.999958
21
-2.189594
31
-0.18
39
0
210
0
220
0
230
1
0
LINE
5
B8
100
AcDbEntity
8
1
62
256
6
ByLayer
370
18
48
1
60
0
100
AcDbLine
10
52.678154
20
0.100159
30
-0.18
11
52.999958
21
-2.189594
31
-0.18
39
0
210
0
220
0
230
1
0
LINE
5
B9
100
AcDbEntity
8
1
62
256
6
ByLayer
370
18
48
0.05
60
0
100
AcDbLine
10
52.190206
20
0.429284
30
-0.18
11
51.538519
21
0.139134
31
-0.18
39
0
210
0
220
0
230
1
0
LINE
5
BA
100
AcDbEntity
8
1
62
256
6
ByLayer
370
18
48
0.05
60
0
100
AcDbLine
10
48.151117
20
0.128934
30
-0.18
11
48.786632
21
-0.053297
31
-0.18
39
0
210
0
220
0
230
1
0
LINE
5
BB
100
AcDbEntity
8
1
62
256
6
ByLayer
370
18
48
0.05
60
0
100
AcDbLine
10
47.649818
20
-0.196613
30
-0.18
11
47.313842
21
-2.587206
31
-0.18
39
0
210
0
220
0
230
1
0
LINE
5
BC
100
AcDbEntity
8
1
62
256
6
ByLayer
370
18
48
0.05
60
0
100
AcDbLine
10
47.635646
20
-4.876959
30
-0.18
11
47.313842
21
-2.587206
31
-0.18
39
0
210
0
220
0
230
1
0
LINE
5
BD
100
AcDbEntity
8
1
62
256
6
ByLayer
370
18
48
0.05
60
0
100
AcDbLine
10
48.123594
20
-5.206084
30
-0.18
11
48.775281
21
-4.915934
31
-0.18
39
0
210
0
220
0
230
1
0
LINE
5
BE
100
AcDbEntity
8
1
62
256
6
ByLayer
370
18
48
0.05
60
0
100
AcDbLine
10
50.326059
20
-4.807493
30
-0.18
11
51.527168
21
-4.723503
31
-0.18
39
0
210
0
220
0
230
1
0
LINE
5
BF
100
AcDbEntity
8
1
62
256
6
ByLayer
370
18
48
0.05
60
0
100
AcDbLine
10
49.987741
20
0.030693
30
-0.18
11
48.786632
21
-0.053297
31
-0.18
39
0
210
0
220
0
230
1
0
LINE
5
C0
100
AcDbEntity
8
1
62
256
6
ByLayer
370
18
48
0.05
60
0
100
AcDbLine
10
49.987741
20
0.030693
30
-0.18
11
51.538519
21
0.139134
31
-0.18
39
0
210
0
220
0
230
1
0
LINE
5
C1
100
AcDbEntity
8
1
62
256
6
ByLayer
370
18
48
0.05
60
0
100
AcDbLine
10
50.326059
20
-4.807493
30
-0.18
11
48.775281
21
-4.915934
31
-0.18
39
0
210
0
220
0
230
1
0
LINE
5
C2
100
AcDbEntity
8
1
62
256
6
ByLayer
370
18
48
1
60
0
100
AcDbLine
10
52.820599
20
-2.3884
30
0
11
51.834469
21
-1.555347
31
0
39
0
210
0
220
0
230
1
0
LINE
5
C3
100
AcDbEntity
8
1
62
256
6
ByLayer
370
18
48
1
60
0
100
AcDbLine
10
51.834469
20
-1.555347
30
0
11
51.725709
21
0
31
0
39
0
210
0
220
0
230
1
0
LINE
5
C4
100
AcDbEntity
8
1
62
256
6
ByLayer
370
18
48
1
60
0
100
AcDbLine
10
51.725709
20
0
30
0
11
52.484932
21
0
31
0
39
0
210
0
220
0
230
1
0
LINE
5
C5
100
AcDbEntity
8
1
62
256
6
ByLayer
370
18
48
1
60
0
100
AcDbLine
10
37.523063
20
2.822269
30
8.2
11
52.175432
21
2.822269
31
0
39
0
210
0
220
0
230
1
0
LINE
5
C6
100
AcDbEntity
8
1
62
256
6
ByLayer
370
18
48
1
60
0
100
AcDbLine
10
41.5
20
1.386476
30
8.081936
11
42.818787
21
0.893035
31
8.2
39
0
210
0
220
0
230
1
0
LINE
5
C7
100
AcDbEntity
8
1
62
256
6
ByLayer
370
18
48
1
60
0
100
AcDbLine
10
51.835256
20
0.893035
30
0
11
42.818787
21
0.893035
31
8.2
39
0
210
0
220
0
230
1
0
LINE
5
C8
100
AcDbEntity
8
1
62
256
6
ByLayer
370
18
48
1
60
0
100
AcDbLine
10
47.843094
20
8.2
30
0.8
11
41.5
21
8.2
31
0
39
0
210
0
220
0
230
1
0
LINE
5
C9
100
AcDbEntity
8
1
62
256
6
ByLayer
370
18
48
1
60
0
100
AcDbLine
10
51.67779
20
0
30
0
11
52.224887
21
3.102743
31
0.8
39
0
210
0
220
0
230
1
0
LINE
5
CA
100
AcDbEntity
8
1
62
256
6
ByLayer
370
18
48
1
60
0
100
AcDbLine
10
52.003832
20
-8.2
30
0
11
41.5
21
-8.2
31
0
39
0
210
0
220
0
230
1
0
LINE
5
CB
100
AcDbEntity
8
81
62
256
6
ByLayer
370
18
48
1
60
0
100
AcDbLine
10
53
20
0
30
0
11
63
21
0
31
0
39
0
210
0
220
0
230
1
0
LINE
5
CC
100
AcDbEntity
8
80
62
256
6
ByLayer
370
18
48
1
60
0
100
AcDbLine
10
0
20
0
30
0
11
-10
21
0
31
0
39
0
210
0
220
0
230
1
0
LINE
5
CD
100
AcDbEntity
8
2
62
256
6
ByLayer
370
13
48
1
60
0
100
AcDbLine
10
66.3
20
8.5
30
0
11
54.8
21
8.5
31
0
39
0
210
0
220
0
230
1
0
LINE
5
CF
100
AcDbEntity
8
2
62
256
6
ByLayer
370
13
48
1
60
0
100
AcDbLine
10
66.3
20
-8.5
30
0
11
54.8
21
-8.5
31
0
39
0
210
0
220
0
230
1
0
LINE
5
D0
100
AcDbEntity
8
2
62
256
6
ByLayer
370
18
48
1
60
1
100
AcDbLine
10
15
20
8.5
30
0
11
15
21
8.6
31
0
39
0
210
0
220
0
230
1
0
MTEXT
5
E9
100
AcDbEntity
8
SK6
62
256
6
ByLayer
370
18
48
1
60
0
100
AcDbMText
10
-47.0145
20
1.282634
30
0
210
0
220
0
230
1
1
\W0.7182;881-D1700L20-02
40
3.5
41
0
44
1.084337
50
0
71
7
72
5
7
iso_b_vert
0
DIMENSION
5
EE
100
AcDbEntity
8
2
62
256
6
ByLayer
370
18
48
1
60
0
100
AcDbDimension
2
_U0
10
68.55
20
-8.5
30
0
11
68.55
21
0
31
0
70
32
71
1
72
1
41
1
210
0
220
0
230
1
3
Standard
100
AcDbAlignedDimension
13
66.3
23
8.5
33
0
14
66.3
24
-8.5
34
0
50
90
100
AcDbRotatedDimension
1001
ACAD
1000
DSTYLE
1002
{
1070
   371
1070
    13
1070
   372
1070
    13
1070
     3
1000

1070
   170
1070
     0
1070
   144
1040
1.0
1070
   277
1070
     2
1070
   278
1070
    46
1070
   146
1040
0.777778
1070
   345
1005
16
1070
   347
1005
16
1070
   346
1005
16
1070
   344
1005
EF
1070
   343
1005
EF
1070
   172
1070
     1
1070
    76
1070
     0
1070
    75
1070
     0
1070
   282
1070
     0
1070
   281
1070
     0
1070
    71
1070
     0
1070
   272
1070
     4
1070
   271
1070
     4
1070
    74
1070
     0
1070
   279
1070
     0
1070
   173
1070
     1
1070
   340
1005
EA
1070
    77
1070
     1
1070
    73
1070
     0
1070
   171
1070
     4
1070
   274
1070
     4
1070
   177
1070
     7
1070
   176
1070
     7
1070
   178
1070
     7
1070
    41
1040
2.999994
1070
   147
1040
2.25
1070
    42
1040
1.499997
1070
    44
1040
2.999994
1070
   140
1040
4.5
1002
}
1001
ACAD_DSTYLE_DIM_LINETYPE
1070
   380
1005
16
1001
ACAD_DSTYLE_DIM_EXT1_LINETYPE
1070
   381
1005
16
1001
ACAD_DSTYLE_DIM_EXT2_LINETYPE
1070
   382
1005
16
0
DIMENSION
5
113
100
AcDbEntity
8
SK2
62
256
6
ByLayer
370
18
48
1
60
0
100
AcDbDimension
2
_U1
10
-61.45
20
10
30
0
11
-61.45
21
0
31
0
70
32
71
1
72
1
41
1
210
0
220
0
230
1
3
Standard
100
AcDbAlignedDimension
13
-49
23
-10
33
10
14
-49
24
10
34
10
50
90
100
AcDbRotatedDimension
1001
ACAD
1000
DSTYLE
1002
{
1070
   371
1070
    13
1070
   372
1070
    13
1070
     3
1000

1070
   170
1070
     0
1070
   144
1040
1.0
1070
   277
1070
     2
1070
   278
1070
    46
1070
   146
1040
0.777778
1070
   345
1005
16
1070
   347
1005
16
1070
   346
1005
16
1070
   344
1005
EF
1070
   343
1005
EF
1070
   172
1070
     1
1070
    76
1070
     0
1070
    75
1070
     0
1070
   282
1070
     0
1070
   281
1070
     0
1070
    71
1070
     0
1070
   272
1070
     4
1070
   271
1070
     4
1070
    74
1070
     0
1070
   279
1070
     0
1070
   173
1070
     1
1070
   340
1005
EA
1070
    77
1070
     1
1070
    73
1070
     0
1070
   171
1070
     4
1070
   274
1070
     4
1070
   177
1070
     7
1070
   176
1070
     7
1070
   178
1070
     7
1070
    41
1040
2.999994
1070
   147
1040
2.25
1070
    42
1040
1.499997
1070
    44
1040
2.999994
1070
   140
1040
4.5
1002
}
1001
ACAD_DSTYLE_DIM_LINETYPE
1070
   380
1005
16
1001
ACAD_DSTYLE_DIM_EXT1_LINETYPE
1070
   381
1005
16
1001
ACAD_DSTYLE_DIM_EXT2_LINETYPE
1070
   382
1005
16
0
DIMENSION
5
130
100
AcDbEntity
8
2
62
256
6
ByLayer
370
18
48
1
60
0
100
AcDbDimension
2
_U2
10
15
20
30.5
30
0
11
33.9
21
30.5
31
0
70
32
71
1
72
1
41
1
210
0
220
0
230
1
3
Standard
100
AcDbAlignedDimension
13
52.663982
23
-4.580187
33
-0.18
14
15
24
8.6
34
0
50
0
100
AcDbRotatedDimension
1001
ACAD
1000
DSTYLE
1002
{
1070
   371
1070
    13
1070
   372
1070
    13
1070
     3
1000

1070
   170
1070
     0
1070
   144
1040
1.0
1070
   277
1070
     2
1070
   278
1070
    46
1070
   146
1040
0.777778
1070
   345
1005
16
1070
   347
1005
16
1070
   346
1005
16
1070
   344
1005
EF
1070
   343
1005
EF
1070
   172
1070
     1
1070
    76
1070
     0
1070
    75
1070
     0
1070
   282
1070
     0
1070
   281
1070
     0
1070
    71
1070
     0
1070
   272
1070
     4
1070
   271
1070
     4
1070
    74
1070
     0
1070
   279
1070
     0
1070
   173
1070
     1
1070
   340
1005
EA
1070
    77
1070
     1
1070
    73
1070
     1
1070
   171
1070
     4
1070
   274
1070
     4
1070
   177
1070
     7
1070
   176
1070
     7
1070
   178
1070
     7
1070
    41
1040
2.999994
1070
   147
1040
2.25
1070
    42
1040
1.499997
1070
    44
1040
2.999994
1070
   140
1040
4.5
1002
}
1001
ACAD_DSTYLE_DIM_LINETYPE
1070
   380
1005
16
1001
ACAD_DSTYLE_DIM_EXT1_LINETYPE
1070
   381
1005
16
1001
ACAD_DSTYLE_DIM_EXT2_LINETYPE
1070
   382
1005
16
0
DIMENSION
5
14C
100
AcDbEntity
8
SK2
62
256
6
ByLayer
370
18
48
1
60
0
100
AcDbDimension
2
_U3
10
-50
20
41.75
30
0
11
-25.1
21
41.75
31
0
70
32
71
1
72
1
41
1
210
0
220
0
230
1
3
Standard
100
AcDbAlignedDimension
13
0
23
0
33
0
14
-50
24
9
34
10
50
0
100
AcDbRotatedDimension
1001
ACAD
1000
DSTYLE
1002
{
1070
   371
1070
    13
1070
   372
1070
    13
1070
     3
1000

1070
   170
1070
     0
1070
   144
1040
1.0
1070
   277
1070
     2
1070
   278
1070
    46
1070
   146
1040
0.777778
1070
   345
1005
16
1070
   347
1005
16
1070
   346
1005
16
1070
   344
1005
EF
1070
   343
1005
EF
1070
   172
1070
     1
1070
    76
1070
     0
1070
    75
1070
     0
1070
   282
1070
     0
1070
   281
1070
     0
1070
    71
1070
     0
1070
   272
1070
     4
1070
   271
1070
     4
1070
    74
1070
     0
1070
   279
1070
     0
1070
   173
1070
     1
1070
   340
1005
EA
1070
    77
1070
     1
1070
    73
1070
     1
1070
   171
1070
     4
1070
   274
1070
     4
1070
   177
1070
     7
1070
   176
1070
     7
1070
   178
1070
     7
1070
    41
1040
2.999994
1070
   147
1040
2.25
1070
    42
1040
1.499997
1070
    44
1040
2.999994
1070
   140
1040
4.5
1002
}
1001
ACAD_DSTYLE_DIM_LINETYPE
1070
   380
1005
16
1001
ACAD_DSTYLE_DIM_EXT1_LINETYPE
1070
   381
1005
16
1001
ACAD_DSTYLE_DIM_EXT2_LINETYPE
1070
   382
1005
16
0
DIMENSION
5
168
100
AcDbEntity
8
SK2
62
256
6
ByLayer
370
18
48
1
60
0
100
AcDbDimension
2
_U4
10
-50
20
53
30
0
11
1.3
21
53
31
0
70
32
71
1
72
1
41
1
210
0
220
0
230
1
3
Standard
100
AcDbAlignedDimension
13
52.663982
23
-4.580187
33
-0.18
14
-50
24
9
34
10
50
0
100
AcDbRotatedDimension
1001
ACAD
1000
DSTYLE
1002
{
1070
   371
1070
    13
1070
   372
1070
    13
1070
     3
1000

1070
   170
1070
     0
1070
   144
1040
1.0
1070
   277
1070
     2
1070
   278
1070
    46
1070
   146
1040
0.777778
1070
   345
1005
16
1070
   347
1005
16
1070
   346
1005
16
1070
   344
1005
EF
1070
   343
1005
EF
1070
   172
1070
     1
1070
    76
1070
     0
1070
    75
1070
     0
1070
   282
1070
     0
1070
   281
1070
     0
1070
    71
1070
     0
1070
   272
1070
     4
1070
   271
1070
     4
1070
    74
1070
     0
1070
   279
1070
     0
1070
   173
1070
     1
1070
   340
1005
EA
1070
    77
1070
     1
1070
    73
1070
     1
1070
   171
1070
     4
1070
   274
1070
     4
1070
   177
1070
     7
1070
   176
1070
     7
1070
   178
1070
     7
1070
    41
1040
2.999994
1070
   147
1040
2.25
1070
    42
1040
1.499997
1070
    44
1040
2.999994
1070
   140
1040
4.5
1002
}
1001
ACAD_DSTYLE_DIM_LINETYPE
1070
   380
1005
16
1001
ACAD_DSTYLE_DIM_EXT1_LINETYPE
1070
   381
1005
16
1001
ACAD_DSTYLE_DIM_EXT2_LINETYPE
1070
   382
1005
16
0
DIMENSION
5
184
100
AcDbEntity
8
2
62
256
6
ByLayer
370
18
48
1
60
0
100
AcDbDimension
2
_U5
10
0
20
41.75
30
0
11
26.4
21
41.75
31
0
70
32
71
1
72
1
41
1
210
0
220
0
230
1
3
Standard
100
AcDbAlignedDimension
13
52.663982
23
-4.580187
33
-0.18
14
0
24
0
34
0
50
0
100
AcDbRotatedDimension
1001
ACAD
1000
DSTYLE
1002
{
1070
   371
1070
    13
1070
   372
1070
    13
1070
     3
1000

1070
   170
1070
     0
1070
   144
1040
1.0
1070
   277
1070
     2
1070
   278
1070
    46
1070
   146
1040
0.777778
1070
   345
1005
16
1070
   347
1005
16
1070
   346
1005
16
1070
   344
1005
EF
1070
   343
1005
EF
1070
   172
1070
     1
1070
    76
1070
     0
1070
    75
1070
     0
1070
   282
1070
     0
1070
   281
1070
     0
1070
    71
1070
     0
1070
   272
1070
     4
1070
   271
1070
     4
1070
    74
1070
     0
1070
   279
1070
     0
1070
   173
1070
     1
1070
   340
1005
EA
1070
    77
1070
     1
1070
    73
1070
     1
1070
   171
1070
     4
1070
   274
1070
     4
1070
   177
1070
     7
1070
   176
1070
     7
1070
   178
1070
     7
1070
    41
1040
2.999994
1070
   147
1040
2.25
1070
    42
1040
1.499997
1070
    44
1040
2.999994
1070
   140
1040
4.5
1002
}
1001
ACAD_DSTYLE_DIM_LINETYPE
1070
   380
1005
16
1001
ACAD_DSTYLE_DIM_EXT1_LINETYPE
1070
   381
1005
16
1001
ACAD_DSTYLE_DIM_EXT2_LINETYPE
1070
   382
1005
16
0
ENDSEC
0
SECTION
2
OBJECTS
0
DICTIONARY
5
210
330
0
100
AcDbDictionary
280
0
281
1
3
ACAD_GROUP
350
211
3
ACAD_MLINESTYLE
350
212
0
DICTIONARY
5
211
330
0
100
AcDbDictionary
280
0
281
1
0
DICTIONARY
5
212
330
0
100
AcDbDictionary
280
0
281
1
3
Standard
350
18
0
MLINESTYLE
5
18
330
212
100
AcDbMlineStyle
2
Standard
70
0
3

62
256
51
90
52
90
71
2
49
-0.5
62
256
6
ByLayer
49
0.5
62
256
6
ByLayer
0
RASTERVARIABLES
5
1fe
330

100
AcDbRasterVariables
90
0
70
1
71
1
72
1
0
ENDSEC
0
EOF
