0
SECTION
2
HEADER
9
$ACADVER
1
AC1015
9
$DWGCODEPAGE
3
ANSI_1252
9
$HANDSEED
5
220
9
$ANGBASE
50
0
9
$ANGDIR
70
0
9
$ATTMODE
70
1
9
$AUNITS
70
0
9
$AUPREC
70
0
9
$CECOLOR
62
256
9
$CELTSCALE
40
1
9
$CELTYPE
6
ByLayer
9
$CELWEIGHT
370
18
9
$CLAYER
8
0
9
$CMLJUST
70
0
9
$CMLSCALE
40
1
9
$CMLSTYLE
2
Standard
9
$DIMSTYLE
2
Standard
9
$TEXTSIZE
40
0.2
9
$TEXTSTYLE
7
Standard
9
$LUNITS
70
2
9
$LUPREC
70
4
9
$EXTNAMES
290
1
9
$INSUNITS
70
4
9
$LTSCALE
40
1
9
$LWDISPLAY
290
1
9
$PDMODE
70
0
9
$PDSIZE
40
0
9
$PLINEGEN
70
0
0
ENDSEC
0
SECTION
2
CLASSES
0
CLASS
1
RASTERVARIABLES
2
AcDbRasterVariables
3
ISM
90
0
280
0
281
0
0
ENDSEC
0
SECTION
2
TABLES
0
TABLE
2
VPORT
5
216
100
AcDbSymbolTable
0
VPORT
5
1
100
AcDbSymbolTableRecord
100
AcDbViewportTableRecord
2
*Active
70
0
10
0
20
0
11
1
21
1
12
-1
22
1
13
0
23
0
14
0.5
24
0.5
15
10
25
10
16
0
26
0
36
1
17
0
27
0
37
0
0
ENDTAB
0
TABLE
2
LTYPE
5
217
100
AcDbSymbolTable
0
LTYPE
5
14
100
AcDbSymbolTableRecord
100
AcDbLinetypeTableRecord
70
0
2
ByBlock
3

72
65
73
0
40
0
0
LTYPE
5
15
100
AcDbSymbolTableRecord
100
AcDbLinetypeTableRecord
70
0
2
ByLayer
3

72
65
73
0
40
0
0
LTYPE
5
16
100
AcDbSymbolTableRecord
100
AcDbLinetypeTableRecord
70
0
2
Continuous
3
Solid line
72
65
73
0
40
0
0
LTYPE
5
6E
100
AcDbSymbolTableRecord
100
AcDbLinetypeTableRecord
70
0
2
CENTER
3
____ _ ____ _ ____ _ ____
72
65
73
4
40
47.5
49
22
74
0
49
-8.5
74
0
49
8.5
74
0
49
-8.5
74
0
0
LTYPE
5
6F
100
AcDbSymbolTableRecord
100
AcDbLinetypeTableRecord
70
0
2
DASHED
3
__ __ __ __ __ __ __ __ __
72
65
73
2
40
25.72
49
12.86
74
0
49
-12.86
74
0
0
ENDTAB
0
TABLE
2
LAYER
5
218
100
AcDbSymbolTable
0
LAYER
5
10
100
AcDbSymbolTableRecord
100
AcDbLayerTableRecord
2
0
70
0
62
7
6
Continuous
290
1
370
-3
390
0
0
LAYER
5
71
100
AcDbSymbolTableRecord
100
AcDbLayerTableRecord
2
1
70
0
62
4
6
Continuous
290
1
370
-3
390
0
0
LAYER
5
79
100
AcDbSymbolTableRecord
100
AcDbLayerTableRecord
2
81
70
0
62
-3
6
Continuous
290
1
370
-3
390
0
0
LAYER
5
7B
100
AcDbSymbolTableRecord
100
AcDbLayerTableRecord
2
80
70
0
62
-6
6
Continuous
290
1
370
-3
390
0
0
LAYER
5
7F
100
AcDbSymbolTableRecord
100
AcDbLayerTableRecord
2
4
70
0
62
-2
6
CENTER
290
1
370
-3
390
0
0
LAYER
5
D1
100
AcDbSymbolTableRecord
100
AcDbLayerTableRecord
2
2
70
0
62
7
6
Continuous
290
1
370
-3
390
0
0
LAYER
5
FB
100
AcDbSymbolTableRecord
100
AcDbLayerTableRecord
2
Defpoints
70
0
62
7
6
Continuous
290
0
370
-3
390
0
0
LAYER
5
202
100
AcDbSymbolTableRecord
100
AcDbLayerTableRecord
2
SK1
70
0
62
4
6
Continuous
290
1
370
-3
390
0
0
LAYER
5
203
100
AcDbSymbolTableRecord
100
AcDbLayerTableRecord
2
SK4
70
0
62
2
6
CENTER
290
1
370
-3
390
0
0
LAYER
5
204
100
AcDbSymbolTableRecord
100
AcDbLayerTableRecord
2
SK6
70
0
62
5
6
Continuous
290
1
370
-3
390
0
0
LAYER
5
205
100
AcDbSymbolTableRecord
100
AcDbLayerTableRecord
2
SK2
70
0
62
7
6
Continuous
290
1
370
-3
390
0
0
ENDTAB
0
TABLE
2
STYLE
5
219
100
AcDbSymbolTable
0
STYLE
5
11
100
AcDbSymbolTableRecord
100
AcDbTextStyleTableRecord
2
Standard
3
txt
70
0
71
0
40
0
41
1
42
0
50
0
0
STYLE
5
ED
100
AcDbSymbolTableRecord
100
AcDbTextStyleTableRecord
2
iso_b_vert
3
simplex.shx
70
0
71
0
40
0
41
1
42
0
50
0
0
STYLE
5
EE
100
AcDbSymbolTableRecord
100
AcDbTextStyleTableRecord
2
DWGDirectTextStyle
3
simplex
70
0
71
0
40
0
41
1
42
0
50
0
0
ENDTAB
0
TABLE
2
DIMSTYLE
5
21a
100
AcDbSymbolTable
100
AcDbDimStyleTable
0
DIMSTYLE
105
27
100
AcDbSymbolTableRecord
100
AcDbDimStyleTableRecord
2
Standard
70
0
3
<>
41
0.18
42
0.0625
44
0.18
140
0.18
147
0.09
73
0
74
0
77
1
271
2
275
0
278
52
280
0
340
11
0
ENDTAB
0
TABLE
2
VIEW
5
21b
100
AcDbSymbolTable
0
ENDTAB
0
TABLE
2
UCS
5
21c
100
AcDbSymbolTable
0
ENDTAB
0
TABLE
2
APPID
5
21d
100
AcDbSymbolTable
0
APPID
5
12
100
AcDbSymbolTableRecord
100
AcDbRegAppTableRecord
2
ACAD
70
0
0
APPID
5
F0
100
AcDbSymbolTableRecord
100
AcDbRegAppTableRecord
2
ACAD_DSTYLE_DIMBREAK
70
0
0
APPID
5
1C1
100
AcDbSymbolTableRecord
100
AcDbRegAppTableRecord
2
ACAD_DSTYLE_DIM_LINETYPE
70
0
0
APPID
5
1C2
100
AcDbSymbolTableRecord
100
AcDbRegAppTableRecord
2
ACAD_DSTYLE_DIM_EXT1_LINETYPE
70
0
0
APPID
5
1C3
100
AcDbSymbolTableRecord
100
AcDbRegAppTableRecord
2
ACAD_DSTYLE_DIM_EXT2_LINETYPE
70
0
0
APPID
5
1FE
100
AcDbSymbolTableRecord
100
AcDbRegAppTableRecord
2
ACAD_MLEADERVER
70
0
0
ENDTAB
0
TABLE
2
BLOCK_RECORD
5
21e
100
AcDbSymbolTable
0
BLOCK_RECORD
5
1F
100
AcDbSymbolTableRecord
100
AcDbBlockTableRecord
2
*Model_Space
340
0
70
0
0
BLOCK_RECORD
5
1B
100
AcDbSymbolTableRecord
100
AcDbBlockTableRecord
2
*Paper_Space
340
0
70
0
0
BLOCK_RECORD
5
23
100
AcDbSymbolTableRecord
100
AcDbBlockTableRecord
2
*Paper_Space0
340
0
70
0
0
BLOCK_RECORD
5
F2
100
AcDbSymbolTableRecord
100
AcDbBlockTableRecord
2
_Closed
340
0
70
0
0
BLOCK_RECORD
5
FC
100
AcDbSymbolTableRecord
100
AcDbBlockTableRecord
2
*D2
340
0
70
0
0
BLOCK_RECORD
5
109
100
AcDbSymbolTableRecord
100
AcDbBlockTableRecord
2
_U0
340
0
70
0
0
BLOCK_RECORD
5
119
100
AcDbSymbolTableRecord
100
AcDbBlockTableRecord
2
*D4
340
0
70
0
0
BLOCK_RECORD
5
126
100
AcDbSymbolTableRecord
100
AcDbBlockTableRecord
2
_U1
340
0
70
0
0
BLOCK_RECORD
5
136
100
AcDbSymbolTableRecord
100
AcDbBlockTableRecord
2
*D6
340
0
70
0
0
BLOCK_RECORD
5
142
100
AcDbSymbolTableRecord
100
AcDbBlockTableRecord
2
_U2
340
0
70
0
0
BLOCK_RECORD
5
152
100
AcDbSymbolTableRecord
100
AcDbBlockTableRecord
2
*D8
340
0
70
0
0
BLOCK_RECORD
5
15E
100
AcDbSymbolTableRecord
100
AcDbBlockTableRecord
2
_U3
340
0
70
0
0
BLOCK_RECORD
5
16E
100
AcDbSymbolTableRecord
100
AcDbBlockTableRecord
2
*D10
340
0
70
0
0
BLOCK_RECORD
5
17A
100
AcDbSymbolTableRecord
100
AcDbBlockTableRecord
2
_U4
340
0
70
0
0
BLOCK_RECORD
5
18A
100
AcDbSymbolTableRecord
100
AcDbBlockTableRecord
2
*D12
340
0
70
0
0
BLOCK_RECORD
5
196
100
AcDbSymbolTableRecord
100
AcDbBlockTableRecord
2
_U5
340
0
70
0
0
ENDTAB
0
ENDSEC
0
SECTION
2
BLOCKS
0
BLOCK
5
20
100
AcDbEntity
8
0
100
AcDbBlockBegin
2
*Model_Space
70
0
10
0
20
0
30
0
3
*Model_Space
0
ENDBLK
5
21
100
AcDbEntity
8
0
100
AcDbBlockEnd
0
BLOCK
5
1C
100
AcDbEntity
8
0
100
AcDbBlockBegin
2
*Paper_Space
70
0
10
0
20
0
30
0
3
*Paper_Space
0
ENDBLK
5
1D
100
AcDbEntity
8
0
100
AcDbBlockEnd
0
BLOCK
5
24
100
AcDbEntity
8
0
100
AcDbBlockBegin
2
*Paper_Space0
70
0
10
0
20
0
30
0
3
*Paper_Space0
0
ENDBLK
5
25
100
AcDbEntity
8
0
100
AcDbBlockEnd
0
BLOCK
5
F3
100
AcDbEntity
8
0
100
AcDbBlockBegin
2
_Closed
70
0
10
0
20
0
30
0
3
_Closed
0
LINE
5
F5
100
AcDbEntity
8
0
62
256
6
ByLayer
370
-2
48
1
60
0
100
AcDbLine
10
-1
20
0.166667
30
0
11
0
21
0
31
0
39
0
210
0
220
0
230
1
0
LINE
5
F6
100
AcDbEntity
8
0
62
256
6
ByLayer
370
-2
48
1
60
0
100
AcDbLine
10
0
20
0
30
0
11
-1
21
-0.166667
31
0
39
0
210
0
220
0
230
1
0
LINE
5
F7
100
AcDbEntity
8
0
62
256
6
ByLayer
370
-2
48
1
60
0
100
AcDbLine
10
-1
20
0.166667
30
0
11
-1
21
-0.166667
31
0
39
0
210
0
220
0
230
1
0
LINE
5
F8
100
AcDbEntity
8
0
62
256
6
ByLayer
370
-2
48
1
60
0
100
AcDbLine
10
0
20
0
30
0
11
-1
21
0
31
0
39
0
210
0
220
0
230
1
0
ENDBLK
5
F4
100
AcDbEntity
8
0
100
AcDbBlockEnd
0
BLOCK
5
FD
100
AcDbEntity
8
0
100
AcDbBlockBegin
2
*D2
70
1
10
0
20
0
30
0
3
*D2
0
LINE
5
FF
100
AcDbEntity
8
0
62
256
6
ByLayer
370
-2
48
1
60
0
100
AcDbLine
10
80.799997
20
8
30
0
11
84.549994
21
8
31
0
39
0
210
0
220
0
230
1
0
LINE
5
100
100
AcDbEntity
8
0
62
256
6
ByLayer
370
-2
48
1
60
0
100
AcDbLine
10
80.799997
20
-8
30
0
11
84.549994
21
-8
31
0
39
0
210
0
220
0
230
1
0
LINE
5
101
100
AcDbEntity
8
0
62
256
6
ByLayer
370
-2
48
1
60
0
100
AcDbLine
10
81.55
20
10.999994
30
0
11
81.55
21
13.999988
31
0
39
0
210
0
220
0
230
1
0
LINE
5
102
100
AcDbEntity
8
0
62
256
6
ByLayer
370
-2
48
1
60
0
100
AcDbLine
10
81.55
20
-10.999994
30
0
11
81.55
21
-13.999988
31
0
39
0
210
0
220
0
230
1
0
SOLID
5
103
100
AcDbEntity
8
0
62
256
6
ByLayer
370
-1
48
1
60
0
100
AcDbTrace
10
81.050001
20
10.999994
30
0
11
82.049999
21
10.999994
31
0
12
81.55
22
8
32
0
13
81.55
23
8
33
0
39
0
210
0
220
0
230
1
0
SOLID
5
104
100
AcDbEntity
8
0
62
256
6
ByLayer
370
-1
48
1
60
0
100
AcDbTrace
10
82.049999
20
-10.999994
30
0
11
81.050001
21
-10.999994
31
0
12
81.55
22
-8
32
0
13
81.55
23
-8
33
0
39
0
210
0
220
0
230
1
0
MTEXT
5
105
100
AcDbEntity
8
0
62
256
6
ByLayer
370
18
48
1
60
0
100
AcDbMText
10
72.550014
20
0
30
0
210
0
220
0
230
1
1
\A1;16.0000
40
4.5
41
0
44
1
50
90
71
5
72
5
7
iso_b_vert
0
POINT
5
106
100
AcDbEntity
8
Defpoints
62
0
6
ByLayer
370
-1
48
1
60
0
100
AcDbPoint
10
79.3
20
8
30
0
39
0
210
0
220
0
230
1
50
360
0
POINT
5
107
100
AcDbEntity
8
Defpoints
62
0
6
ByLayer
370
-1
48
1
60
0
100
AcDbPoint
10
79.3
20
-8
30
0
39
0
210
0
220
0
230
1
50
360
0
POINT
5
108
100
AcDbEntity
8
Defpoints
62
0
6
ByLayer
370
-1
48
1
60
0
100
AcDbPoint
10
81.55
20
-8
30
0
39
0
210
0
220
0
230
1
50
360
0
ENDBLK
5
FE
100
AcDbEntity
8
0
100
AcDbBlockEnd
0
BLOCK
5
114
100
AcDbEntity
8
0
100
AcDbBlockBegin
2
_U0
70
0
10
0
20
0
30
0
3
_U0
0
MTEXT
5
10A
100
AcDbEntity
8
2
62
256
6
ByLayer
370
18
48
1
60
0
100
AcDbMText
10
80.663328
20
-4.107556
30
0
210
0
220
0
230
1
1
\W0.7849;%%c16
40
4.5
41
0
44
1.084337
50
90
71
7
72
5
7
iso_b_vert
0
LINE
5
10B
100
AcDbEntity
8
2
62
256
6
ByLayer
370
13
48
1
60
0
100
AcDbLine
10
80.799997
20
8
30
0
11
84.549994
21
8
31
0
39
0
210
0
220
0
230
1
0
LINE
5
10C
100
AcDbEntity
8
2
62
256
6
ByLayer
370
13
48
1
60
0
100
AcDbLine
10
80.799997
20
-8
30
0
11
84.549994
21
-8
31
0
39
0
210
0
220
0
230
1
0
LINE
5
10D
100
AcDbEntity
8
2
62
256
6
ByLayer
370
13
48
1
60
0
100
AcDbLine
10
81.55
20
8
30
0
11
81.55
21
-8
31
0
39
0
210
0
220
0
230
1
0
LINE
5
10E
100
AcDbEntity
8
2
62
256
6
ByLayer
370
13
48
1
60
0
100
AcDbLine
10
81.55
20
8
30
0
11
82.049999
21
5.000008
31
0
39
0
210
0
220
0
230
1
0
LINE
5
10F
100
AcDbEntity
8
2
62
256
6
ByLayer
370
13
48
1
60
0
100
AcDbLine
10
81.55
20
8
30
0
11
81.050001
21
5.000004
31
0
39
0
210
0
220
0
230
1
0
LINE
5
110
100
AcDbEntity
8
2
62
256
6
ByLayer
370
13
48
1
60
0
100
AcDbLine
10
82.049999
20
5.000008
30
0
11
81.050001
21
5.000004
31
0
39
0
210
0
220
0
230
1
0
LINE
5
111
100
AcDbEntity
8
2
62
256
6
ByLayer
370
13
48
1
60
0
100
AcDbLine
10
81.55
20
-8
30
0
11
81.050001
21
-5.000008
31
0
39
0
210
0
220
0
230
1
0
LINE
5
112
100
AcDbEntity
8
2
62
256
6
ByLayer
370
13
48
1
60
0
100
AcDbLine
10
81.55
20
-8
30
0
11
82.049999
21
-5.000004
31
0
39
0
210
0
220
0
230
1
0
LINE
5
113
100
AcDbEntity
8
2
62
256
6
ByLayer
370
13
48
1
60
0
100
AcDbLine
10
81.050001
20
-5.000008
30
0
11
82.049999
21
-5.000004
31
0
39
0
210
0
220
0
230
1
0
ENDBLK
5
115
100
AcDbEntity
8
0
100
AcDbBlockEnd
0
BLOCK
5
11A
100
AcDbEntity
8
0
100
AcDbBlockBegin
2
*D4
70
1
10
0
20
0
30
0
3
*D4
0
LINE
5
11C
100
AcDbEntity
8
0
62
256
6
ByLayer
370
-2
48
1
60
0
100
AcDbLine
10
-50.499997
20
-10
30
0
11
-64.449994
21
-10
31
0
39
0
210
0
220
0
230
1
0
LINE
5
11D
100
AcDbEntity
8
0
62
256
6
ByLayer
370
-2
48
1
60
0
100
AcDbLine
10
-50.499997
20
10
30
0
11
-64.449994
21
10
31
0
39
0
210
0
220
0
230
1
0
LINE
5
11E
100
AcDbEntity
8
0
62
256
6
ByLayer
370
-2
48
1
60
0
100
AcDbLine
10
-61.45
20
-7.000006
30
0
11
-61.45
21
7.000006
31
0
39
0
210
0
220
0
230
1
0
SOLID
5
11F
100
AcDbEntity
8
0
62
256
6
ByLayer
370
-1
48
1
60
0
100
AcDbTrace
10
-61.949999
20
-7.000006
30
0
11
-60.950001
21
-7.000006
31
0
12
-61.45
22
-10
32
0
13
-61.45
23
-10
33
0
39
0
210
0
220
0
230
1
0
SOLID
5
120
100
AcDbEntity
8
0
62
256
6
ByLayer
370
-1
48
1
60
0
100
AcDbTrace
10
-60.950001
20
7.000006
30
0
11
-61.949999
21
7.000006
31
0
12
-61.45
22
10
32
0
13
-61.45
23
10
33
0
39
0
210
0
220
0
230
1
0
MTEXT
5
121
100
AcDbEntity
8
0
62
256
6
ByLayer
370
18
48
1
60
0
100
AcDbMText
10
-70.449986
20
0
30
0
210
0
220
0
230
1
1
\A1;20.0000
40
4.5
41
0
44
1
50
90
71
5
72
5
7
iso_b_vert
0
POINT
5
122
100
AcDbEntity
8
Defpoints
62
0
6
ByLayer
370
-1
48
1
60
0
100
AcDbPoint
10
-49
20
-10
30
0
39
0
210
0
220
0
230
1
50
360
0
POINT
5
123
100
AcDbEntity
8
Defpoints
62
0
6
ByLayer
370
-1
48
1
60
0
100
AcDbPoint
10
-49
20
10
30
0
39
0
210
0
220
0
230
1
50
360
0
POINT
5
124
100
AcDbEntity
8
Defpoints
62
0
6
ByLayer
370
-1
48
1
60
0
100
AcDbPoint
10
-61.45
20
10
30
0
39
0
210
0
220
0
230
1
50
360
0
ENDBLK
5
11B
100
AcDbEntity
8
0
100
AcDbBlockEnd
0
BLOCK
5
131
100
AcDbEntity
8
0
100
AcDbBlockBegin
2
_U1
70
0
10
0
20
0
30
0
3
_U1
0
MTEXT
5
127
100
AcDbEntity
8
SK2
62
256
6
ByLayer
370
18
48
1
60
0
100
AcDbMText
10
-62.336672
20
-4.669971
30
0
210
0
220
0
230
1
1
\W0.8879;%%c20
40
4.5
41
0
44
1.084337
50
90
71
7
72
5
7
iso_b_vert
0
LINE
5
128
100
AcDbEntity
8
SK2
62
256
6
ByLayer
370
13
48
1
60
0
100
AcDbLine
10
-50.499997
20
-10
30
0
11
-64.449994
21
-10
31
0
39
0
210
0
220
0
230
1
0
LINE
5
129
100
AcDbEntity
8
SK2
62
256
6
ByLayer
370
13
48
1
60
0
100
AcDbLine
10
-50.499997
20
10
30
0
11
-64.449994
21
10
31
0
39
0
210
0
220
0
230
1
0
LINE
5
12A
100
AcDbEntity
8
SK2
62
256
6
ByLayer
370
13
48
1
60
0
100
AcDbLine
10
-61.45
20
-10
30
0
11
-61.45
21
10
31
0
39
0
210
0
220
0
230
1
0
LINE
5
12B
100
AcDbEntity
8
SK2
62
256
6
ByLayer
370
13
48
1
60
0
100
AcDbLine
10
-61.45
20
-10
30
0
11
-61.949999
21
-7.000008
31
0
39
0
210
0
220
0
230
1
0
LINE
5
12C
100
AcDbEntity
8
SK2
62
256
6
ByLayer
370
13
48
1
60
0
100
AcDbLine
10
-61.45
20
-10
30
0
11
-60.950001
21
-7.000004
31
0
39
0
210
0
220
0
230
1
0
LINE
5
12D
100
AcDbEntity
8
SK2
62
256
6
ByLayer
370
13
48
1
60
0
100
AcDbLine
10
-61.949999
20
-7.000008
30
0
11
-60.950001
21
-7.000004
31
0
39
0
210
0
220
0
230
1
0
LINE
5
12E
100
AcDbEntity
8
SK2
62
256
6
ByLayer
370
13
48
1
60
0
100
AcDbLine
10
-61.45
20
10
30
0
11
-60.950001
21
7.000008
31
0
39
0
210
0
220
0
230
1
0
LINE
5
12F
100
AcDbEntity
8
SK2
62
256
6
ByLayer
370
13
48
1
60
0
100
AcDbLine
10
-61.45
20
10
30
0
11
-61.949999
21
7.000004
31
0
39
0
210
0
220
0
230
1
0
LINE
5
130
100
AcDbEntity
8
SK2
62
256
6
ByLayer
370
13
48
1
60
0
100
AcDbLine
10
-60.950001
20
7.000008
30
0
11
-61.949999
21
7.000004
31
0
39
0
210
0
220
0
230
1
0
ENDBLK
5
132
100
AcDbEntity
8
0
100
AcDbBlockEnd
0
BLOCK
5
137
100
AcDbEntity
8
0
100
AcDbBlockBegin
2
*D6
70
1
10
0
20
0
30
0
3
*D6
0
LINE
5
139
100
AcDbEntity
8
0
62
256
6
ByLayer
370
-2
48
1
60
0
100
AcDbLine
10
65.663982
20
-3.08019
30
0
11
65.663982
21
33.499994
31
0
39
0
210
0
220
0
230
1
0
LINE
5
13A
100
AcDbEntity
8
0
62
256
6
ByLayer
370
-2
48
1
60
0
100
AcDbLine
10
15
20
9.599997
30
0
11
15
21
33.499994
31
0
39
0
210
0
220
0
230
1
0
LINE
5
13B
100
AcDbEntity
8
0
62
256
6
ByLayer
370
-2
48
1
60
0
100
AcDbLine
10
62.663988
20
30.5
30
0
11
17.999994
21
30.5
31
0
39
0
210
0
220
0
230
1
0
SOLID
5
13C
100
AcDbEntity
8
0
62
256
6
ByLayer
370
-1
48
1
60
0
100
AcDbTrace
10
62.663988
20
30.000001
30
0
11
62.663988
21
30.999999
31
0
12
65.663982
22
30.5
32
0
13
65.663982
23
30.5
33
0
39
0
210
0
220
0
230
1
0
SOLID
5
13D
100
AcDbEntity
8
0
62
256
6
ByLayer
370
-1
48
1
60
0
100
AcDbTrace
10
17.999994
20
30.999999
30
0
11
17.999994
21
30.000001
31
0
12
15
22
30.5
32
0
13
15
23
30.5
33
0
39
0
210
0
220
0
230
1
0
MTEXT
5
13E
100
AcDbEntity
8
0
62
256
6
ByLayer
370
18
48
1
60
0
100
AcDbMText
10
40.4
20
39.499986
30
0
210
0
220
0
230
1
1
\A1;50.6640
40
4.5
41
0
44
1
50
0
71
5
72
5
7
iso_b_vert
0
POINT
5
13F
100
AcDbEntity
8
Defpoints
62
0
6
ByLayer
370
-1
48
1
60
0
100
AcDbPoint
10
65.663982
20
-4.580187
30
0
39
0
210
0
220
0
230
1
50
360
0
POINT
5
140
100
AcDbEntity
8
Defpoints
62
0
6
ByLayer
370
-1
48
1
60
0
100
AcDbPoint
10
15
20
8.1
30
0
39
0
210
0
220
0
230
1
50
360
0
POINT
5
141
100
AcDbEntity
8
Defpoints
62
0
6
ByLayer
370
-1
48
1
60
0
100
AcDbPoint
10
15
20
30.5
30
0
39
0
210
0
220
0
230
1
50
360
0
ENDBLK
5
138
100
AcDbEntity
8
0
100
AcDbBlockEnd
0
BLOCK
5
14D
100
AcDbEntity
8
0
100
AcDbBlockBegin
2
_U2
70
0
10
0
20
0
30
0
3
_U2
0
MTEXT
5
143
100
AcDbEntity
8
2
62
256
6
ByLayer
370
18
48
1
60
0
100
AcDbMText
10
35.92023
20
31.827672
30
0
210
0
220
0
230
1
1
\W0.6563;51.0
40
4.5
41
0
44
1.084337
50
0
71
7
72
5
7
iso_b_vert
0
LINE
5
144
100
AcDbEntity
8
2
62
256
6
ByLayer
370
13
48
1
60
0
100
AcDbLine
10
65.663982
20
-3.08019
30
0
11
65.663982
21
33.499994
31
0
39
0
210
0
220
0
230
1
0
LINE
5
145
100
AcDbEntity
8
2
62
256
6
ByLayer
370
13
48
1
60
0
100
AcDbLine
10
15
20
9.599997
30
0
11
15
21
33.499994
31
0
39
0
210
0
220
0
230
1
0
LINE
5
146
100
AcDbEntity
8
2
62
256
6
ByLayer
370
13
48
1
60
0
100
AcDbLine
10
65.663982
20
30.5
30
0
11
15
21
30.5
31
0
39
0
210
0
220
0
230
1
0
LINE
5
147
100
AcDbEntity
8
2
62
256
6
ByLayer
370
13
48
1
60
0
100
AcDbLine
10
65.663982
20
30.5
30
0
11
62.663989
21
30.000001
31
0
39
0
210
0
220
0
230
1
0
LINE
5
148
100
AcDbEntity
8
2
62
256
6
ByLayer
370
13
48
1
60
0
100
AcDbLine
10
65.663982
20
30.5
30
0
11
62.663986
21
30.999999
31
0
39
0
210
0
220
0
230
1
0
LINE
5
149
100
AcDbEntity
8
2
62
256
6
ByLayer
370
13
48
1
60
0
100
AcDbLine
10
62.663989
20
30.000001
30
0
11
62.663986
21
30.999999
31
0
39
0
210
0
220
0
230
1
0
LINE
5
14A
100
AcDbEntity
8
2
62
256
6
ByLayer
370
13
48
1
60
0
100
AcDbLine
10
15
20
30.5
30
0
11
17.999992
21
30.999999
31
0
39
0
210
0
220
0
230
1
0
LINE
5
14B
100
AcDbEntity
8
2
62
256
6
ByLayer
370
13
48
1
60
0
100
AcDbLine
10
15
20
30.5
30
0
11
17.999996
21
30.000001
31
0
39
0
210
0
220
0
230
1
0
LINE
5
14C
100
AcDbEntity
8
2
62
256
6
ByLayer
370
13
48
1
60
0
100
AcDbLine
10
17.999992
20
30.999999
30
0
11
17.999996
21
30.000001
31
0
39
0
210
0
220
0
230
1
0
ENDBLK
5
14E
100
AcDbEntity
8
0
100
AcDbBlockEnd
0
BLOCK
5
153
100
AcDbEntity
8
0
100
AcDbBlockBegin
2
*D8
70
1
10
0
20
0
30
0
3
*D8
0
LINE
5
155
100
AcDbEntity
8
0
62
256
6
ByLayer
370
-2
48
1
60
0
100
AcDbLine
10
0
20
1.499997
30
0
11
0
21
44.749994
31
0
39
0
210
0
220
0
230
1
0
LINE
5
156
100
AcDbEntity
8
0
62
256
6
ByLayer
370
-2
48
1
60
0
100
AcDbLine
10
-50
20
10.499997
30
0
11
-50
21
44.749994
31
0
39
0
210
0
220
0
230
1
0
LINE
5
157
100
AcDbEntity
8
0
62
256
6
ByLayer
370
-2
48
1
60
0
100
AcDbLine
10
-2.999994
20
41.75
30
0
11
-47.000006
21
41.75
31
0
39
0
210
0
220
0
230
1
0
SOLID
5
158
100
AcDbEntity
8
0
62
256
6
ByLayer
370
-1
48
1
60
0
100
AcDbTrace
10
-2.999994
20
41.250001
30
0
11
-2.999994
21
42.249999
31
0
12
0
22
41.75
32
0
13
0
23
41.75
33
0
39
0
210
0
220
0
230
1
0
SOLID
5
159
100
AcDbEntity
8
0
62
256
6
ByLayer
370
-1
48
1
60
0
100
AcDbTrace
10
-47.000006
20
42.249999
30
0
11
-47.000006
21
41.250001
31
0
12
-50
22
41.75
32
0
13
-50
23
41.75
33
0
39
0
210
0
220
0
230
1
0
MTEXT
5
15A
100
AcDbEntity
8
0
62
256
6
ByLayer
370
18
48
1
60
0
100
AcDbMText
10
-25.1
20
50.749986
30
0
210
0
220
0
230
1
1
\A1;50.0000
40
4.5
41
0
44
1
50
0
71
5
72
5
7
iso_b_vert
0
POINT
5
15B
100
AcDbEntity
8
Defpoints
62
0
6
ByLayer
370
-1
48
1
60
0
100
AcDbPoint
10
0
20
0
30
0
39
0
210
0
220
0
230
1
50
360
0
POINT
5
15C
100
AcDbEntity
8
Defpoints
62
0
6
ByLayer
370
-1
48
1
60
0
100
AcDbPoint
10
-50
20
9
30
0
39
0
210
0
220
0
230
1
50
360
0
POINT
5
15D
100
AcDbEntity
8
Defpoints
62
0
6
ByLayer
370
-1
48
1
60
0
100
AcDbPoint
10
-50
20
41.75
30
0
39
0
210
0
220
0
230
1
50
360
0
ENDBLK
5
154
100
AcDbEntity
8
0
100
AcDbBlockEnd
0
BLOCK
5
169
100
AcDbEntity
8
0
100
AcDbBlockBegin
2
_U3
70
0
10
0
20
0
30
0
3
_U3
0
MTEXT
5
15F
100
AcDbEntity
8
SK2
62
256
6
ByLayer
370
18
48
1
60
0
100
AcDbMText
10
-30.142184
20
43.077672
30
0
210
0
220
0
230
1
1
\W0.7346;50.0
40
4.5
41
0
44
1.084337
50
0
71
7
72
5
7
iso_b_vert
0
LINE
5
160
100
AcDbEntity
8
SK2
62
256
6
ByLayer
370
13
48
1
60
0
100
AcDbLine
10
0
20
1.499997
30
0
11
0
21
44.749994
31
0
39
0
210
0
220
0
230
1
0
LINE
5
161
100
AcDbEntity
8
SK2
62
256
6
ByLayer
370
13
48
1
60
0
100
AcDbLine
10
-50
20
10.499997
30
0
11
-50
21
44.749994
31
0
39
0
210
0
220
0
230
1
0
LINE
5
162
100
AcDbEntity
8
SK2
62
256
6
ByLayer
370
13
48
1
60
0
100
AcDbLine
10
0
20
41.75
30
0
11
-50
21
41.75
31
0
39
0
210
0
220
0
230
1
0
LINE
5
163
100
AcDbEntity
8
SK2
62
256
6
ByLayer
370
13
48
1
60
0
100
AcDbLine
10
0
20
41.75
30
0
11
-2.999992
21
41.250001
31
0
39
0
210
0
220
0
230
1
0
LINE
5
164
100
AcDbEntity
8
SK2
62
256
6
ByLayer
370
13
48
1
60
0
100
AcDbLine
10
0
20
41.75
30
0
11
-2.999996
21
42.249999
31
0
39
0
210
0
220
0
230
1
0
LINE
5
165
100
AcDbEntity
8
SK2
62
256
6
ByLayer
370
13
48
1
60
0
100
AcDbLine
10
-2.999992
20
41.250001
30
0
11
-2.999996
21
42.249999
31
0
39
0
210
0
220
0
230
1
0
LINE
5
166
100
AcDbEntity
8
SK2
62
256
6
ByLayer
370
13
48
1
60
0
100
AcDbLine
10
-50
20
41.75
30
0
11
-47.000008
21
42.249999
31
0
39
0
210
0
220
0
230
1
0
LINE
5
167
100
AcDbEntity
8
SK2
62
256
6
ByLayer
370
13
48
1
60
0
100
AcDbLine
10
-50
20
41.75
30
0
11
-47.000004
21
41.250001
31
0
39
0
210
0
220
0
230
1
0
LINE
5
168
100
AcDbEntity
8
SK2
62
256
6
ByLayer
370
13
48
1
60
0
100
AcDbLine
10
-47.000008
20
42.249999
30
0
11
-47.000004
21
41.250001
31
0
39
0
210
0
220
0
230
1
0
ENDBLK
5
16A
100
AcDbEntity
8
0
100
AcDbBlockEnd
0
BLOCK
5
16F
100
AcDbEntity
8
0
100
AcDbBlockBegin
2
*D10
70
1
10
0
20
0
30
0
3
*D10
0
LINE
5
171
100
AcDbEntity
8
0
62
256
6
ByLayer
370
-2
48
1
60
0
100
AcDbLine
10
65.663982
20
-3.08019
30
0
11
65.663982
21
55.999994
31
0
39
0
210
0
220
0
230
1
0
LINE
5
172
100
AcDbEntity
8
0
62
256
6
ByLayer
370
-2
48
1
60
0
100
AcDbLine
10
-50
20
10.499997
30
0
11
-50
21
55.999994
31
0
39
0
210
0
220
0
230
1
0
LINE
5
173
100
AcDbEntity
8
0
62
256
6
ByLayer
370
-2
48
1
60
0
100
AcDbLine
10
62.663988
20
53
30
0
11
-47.000006
21
53
31
0
39
0
210
0
220
0
230
1
0
SOLID
5
174
100
AcDbEntity
8
0
62
256
6
ByLayer
370
-1
48
1
60
0
100
AcDbTrace
10
62.663988
20
52.500001
30
0
11
62.663988
21
53.499999
31
0
12
65.663982
22
53
32
0
13
65.663982
23
53
33
0
39
0
210
0
220
0
230
1
0
SOLID
5
175
100
AcDbEntity
8
0
62
256
6
ByLayer
370
-1
48
1
60
0
100
AcDbTrace
10
-47.000006
20
53.499999
30
0
11
-47.000006
21
52.500001
31
0
12
-50
22
53
32
0
13
-50
23
53
33
0
39
0
210
0
220
0
230
1
0
MTEXT
5
176
100
AcDbEntity
8
0
62
256
6
ByLayer
370
18
48
1
60
0
100
AcDbMText
10
7.8
20
61.999986
30
0
210
0
220
0
230
1
1
\A1;115.6640
40
4.5
41
0
44
1
50
0
71
5
72
5
7
iso_b_vert
0
POINT
5
177
100
AcDbEntity
8
Defpoints
62
0
6
ByLayer
370
-1
48
1
60
0
100
AcDbPoint
10
65.663982
20
-4.580187
30
0
39
0
210
0
220
0
230
1
50
360
0
POINT
5
178
100
AcDbEntity
8
Defpoints
62
0
6
ByLayer
370
-1
48
1
60
0
100
AcDbPoint
10
-50
20
9
30
0
39
0
210
0
220
0
230
1
50
360
0
POINT
5
179
100
AcDbEntity
8
Defpoints
62
0
6
ByLayer
370
-1
48
1
60
0
100
AcDbPoint
10
-50
20
53
30
0
39
0
210
0
220
0
230
1
50
360
0
ENDBLK
5
170
100
AcDbEntity
8
0
100
AcDbBlockEnd
0
BLOCK
5
185
100
AcDbEntity
8
0
100
AcDbBlockBegin
2
_U4
70
0
10
0
20
0
30
0
3
_U4
0
MTEXT
5
17B
100
AcDbEntity
8
SK2
62
256
6
ByLayer
370
18
48
1
60
0
100
AcDbMText
10
0.378131
20
54.327672
30
0
210
0
220
0
230
1
1
\W0.6246;(116.0)
40
4.5
41
0
44
1.084337
50
0
71
7
72
5
7
iso_b_vert
0
LINE
5
17C
100
AcDbEntity
8
SK2
62
256
6
ByLayer
370
13
48
1
60
0
100
AcDbLine
10
65.663982
20
-3.08019
30
0
11
65.663982
21
55.999994
31
0
39
0
210
0
220
0
230
1
0
LINE
5
17D
100
AcDbEntity
8
SK2
62
256
6
ByLayer
370
13
48
1
60
0
100
AcDbLine
10
-50
20
10.499997
30
0
11
-50
21
55.999994
31
0
39
0
210
0
220
0
230
1
0
LINE
5
17E
100
AcDbEntity
8
SK2
62
256
6
ByLayer
370
13
48
1
60
0
100
AcDbLine
10
65.663982
20
53
30
0
11
-50
21
53
31
0
39
0
210
0
220
0
230
1
0
LINE
5
17F
100
AcDbEntity
8
SK2
62
256
6
ByLayer
370
13
48
1
60
0
100
AcDbLine
10
65.663982
20
53
30
0
11
62.663989
21
52.500001
31
0
39
0
210
0
220
0
230
1
0
LINE
5
180
100
AcDbEntity
8
SK2
62
256
6
ByLayer
370
13
48
1
60
0
100
AcDbLine
10
65.663982
20
53
30
0
11
62.663986
21
53.499999
31
0
39
0
210
0
220
0
230
1
0
LINE
5
181
100
AcDbEntity
8
SK2
62
256
6
ByLayer
370
13
48
1
60
0
100
AcDbLine
10
62.663989
20
52.500001
30
0
11
62.663986
21
53.499999
31
0
39
0
210
0
220
0
230
1
0
LINE
5
182
100
AcDbEntity
8
SK2
62
256
6
ByLayer
370
13
48
1
60
0
100
AcDbLine
10
-50
20
53
30
0
11
-47.000008
21
53.499999
31
0
39
0
210
0
220
0
230
1
0
LINE
5
183
100
AcDbEntity
8
SK2
62
256
6
ByLayer
370
13
48
1
60
0
100
AcDbLine
10
-50
20
53
30
0
11
-47.000004
21
52.500001
31
0
39
0
210
0
220
0
230
1
0
LINE
5
184
100
AcDbEntity
8
SK2
62
256
6
ByLayer
370
13
48
1
60
0
100
AcDbLine
10
-47.000008
20
53.499999
30
0
11
-47.000004
21
52.500001
31
0
39
0
210
0
220
0
230
1
0
ENDBLK
5
186
100
AcDbEntity
8
0
100
AcDbBlockEnd
0
BLOCK
5
18B
100
AcDbEntity
8
0
100
AcDbBlockBegin
2
*D12
70
1
10
0
20
0
30
0
3
*D12
0
LINE
5
18D
100
AcDbEntity
8
0
62
256
6
ByLayer
370
-2
48
1
60
0
100
AcDbLine
10
65.663982
20
-3.08019
30
0
11
65.663982
21
44.749994
31
0
39
0
210
0
220
0
230
1
0
LINE
5
18E
100
AcDbEntity
8
0
62
256
6
ByLayer
370
-2
48
1
60
0
100
AcDbLine
10
0
20
1.499997
30
0
11
0
21
44.749994
31
0
39
0
210
0
220
0
230
1
0
LINE
5
18F
100
AcDbEntity
8
0
62
256
6
ByLayer
370
-2
48
1
60
0
100
AcDbLine
10
62.663988
20
41.75
30
0
11
2.999994
21
41.75
31
0
39
0
210
0
220
0
230
1
0
SOLID
5
190
100
AcDbEntity
8
0
62
256
6
ByLayer
370
-1
48
1
60
0
100
AcDbTrace
10
62.663988
20
41.250001
30
0
11
62.663988
21
42.249999
31
0
12
65.663982
22
41.75
32
0
13
65.663982
23
41.75
33
0
39
0
210
0
220
0
230
1
0
SOLID
5
191
100
AcDbEntity
8
0
62
256
6
ByLayer
370
-1
48
1
60
0
100
AcDbTrace
10
2.999994
20
42.249999
30
0
11
2.999994
21
41.250001
31
0
12
0
22
41.75
32
0
13
0
23
41.75
33
0
39
0
210
0
220
0
230
1
0
MTEXT
5
192
100
AcDbEntity
8
0
62
256
6
ByLayer
370
18
48
1
60
0
100
AcDbMText
10
32.9
20
50.749986
30
0
210
0
220
0
230
1
1
\A1;65.6640
40
4.5
41
0
44
1
50
0
71
5
72
5
7
iso_b_vert
0
POINT
5
193
100
AcDbEntity
8
Defpoints
62
0
6
ByLayer
370
-1
48
1
60
0
100
AcDbPoint
10
65.663982
20
-4.580187
30
0
39
0
210
0
220
0
230
1
50
360
0
POINT
5
194
100
AcDbEntity
8
Defpoints
62
0
6
ByLayer
370
-1
48
1
60
0
100
AcDbPoint
10
0
20
0
30
0
39
0
210
0
220
0
230
1
50
360
0
POINT
5
195
100
AcDbEntity
8
Defpoints
62
0
6
ByLayer
370
-1
48
1
60
0
100
AcDbPoint
10
0
20
41.75
30
0
39
0
210
0
220
0
230
1
50
360
0
ENDBLK
5
18C
100
AcDbEntity
8
0
100
AcDbBlockEnd
0
BLOCK
5
1A1
100
AcDbEntity
8
0
100
AcDbBlockBegin
2
_U5
70
0
10
0
20
0
30
0
3
_U5
0
MTEXT
5
197
100
AcDbEntity
8
2
62
256
6
ByLayer
370
18
48
1
60
0
100
AcDbMText
10
27.857816
20
43.077672
30
0
210
0
220
0
230
1
1
\W0.7346;66.0
40
4.5
41
0
44
1.084337
50
0
71
7
72
5
7
iso_b_vert
0
LINE
5
198
100
AcDbEntity
8
2
62
256
6
ByLayer
370
13
48
1
60
0
100
AcDbLine
10
65.663982
20
-3.08019
30
0
11
65.663982
21
44.749994
31
0
39
0
210
0
220
0
230
1
0
LINE
5
199
100
AcDbEntity
8
2
62
256
6
ByLayer
370
13
48
1
60
0
100
AcDbLine
10
0
20
1.499997
30
0
11
0
21
44.749994
31
0
39
0
210
0
220
0
230
1
0
LINE
5
19A
100
AcDbEntity
8
2
62
256
6
ByLayer
370
13
48
1
60
0
100
AcDbLine
10
65.663982
20
41.75
30
0
11
0
21
41.75
31
0
39
0
210
0
220
0
230
1
0
LINE
5
19B
100
AcDbEntity
8
2
62
256
6
ByLayer
370
13
48
1
60
0
100
AcDbLine
10
65.663982
20
41.75
30
0
11
62.663989
21
41.250001
31
0
39
0
210
0
220
0
230
1
0
LINE
5
19C
100
AcDbEntity
8
2
62
256
6
ByLayer
370
13
48
1
60
0
100
AcDbLine
10
65.663982
20
41.75
30
0
11
62.663986
21
42.249999
31
0
39
0
210
0
220
0
230
1
0
LINE
5
19D
100
AcDbEntity
8
2
62
256
6
ByLayer
370
13
48
1
60
0
100
AcDbLine
10
62.663989
20
41.250001
30
0
11
62.663986
21
42.249999
31
0
39
0
210
0
220
0
230
1
0
LINE
5
19E
100
AcDbEntity
8
2
62
256
6
ByLayer
370
13
48
1
60
0
100
AcDbLine
10
0
20
41.75
30
0
11
2.999992
21
42.249999
31
0
39
0
210
0
220
0
230
1
0
LINE
5
19F
100
AcDbEntity
8
2
62
256
6
ByLayer
370
13
48
1
60
0
100
AcDbLine
10
0
20
41.75
30
0
11
2.999996
21
41.250001
31
0
39
0
210
0
220
0
230
1
0
LINE
5
1A0
100
AcDbEntity
8
2
62
256
6
ByLayer
370
13
48
1
60
0
100
AcDbLine
10
2.999992
20
42.249999
30
0
11
2.999996
21
41.250001
31
0
39
0
210
0
220
0
230
1
0
ENDBLK
5
1A2
100
AcDbEntity
8
0
100
AcDbBlockEnd
0
ENDSEC
0
SECTION
2
ENTITIES
0
ARC
5
D4
100
AcDbEntity
8
1
62
256
6
ByLayer
370
18
48
1
60
0
100
AcDbCircle
39
0
10
15.835385
20
-12.700001
30
0
40
5
210
0
220
0
230
1
100
AcDbArc
50
90
51
137.778632
0
ARC
5
D5
100
AcDbEntity
8
1
62
256
6
ByLayer
370
18
48
1
60
0
100
AcDbCircle
39
0
10
4.998118
20
-2.866
30
0
40
9.634
210
0
220
0
230
1
100
AcDbArc
50
270
51
317.778632
0
ARC
5
D6
100
AcDbEntity
8
1
62
256
6
ByLayer
370
18
48
1
60
0
100
AcDbCircle
39
0
10
-15.835385
20
12.700001
30
0
40
5
210
0
220
0
230
-1
100
AcDbArc
50
270
51
317.778632
0
ARC
5
D7
100
AcDbEntity
8
1
62
256
6
ByLayer
370
18
48
1
60
0
100
AcDbCircle
39
0
10
-4.998118
20
2.866
30
0
40
9.634
210
0
220
0
230
-1
100
AcDbArc
50
90
51
137.778632
0
ARC
5
D8
100
AcDbEntity
8
SK1
62
256
6
ByLayer
370
18
48
1
60
0
100
AcDbCircle
39
0
10
-47.90718
20
-10.4
30
10
40
0.8
210
0
220
0
230
1
100
AcDbArc
50
71.195807
51
150
0
ARC
5
D9
100
AcDbEntity
8
SK1
62
256
6
ByLayer
370
18
48
1
60
0
100
AcDbCircle
39
0
10
47.90718
20
10.4
30
-10
40
0.8
210
0
220
0
230
-1
100
AcDbArc
50
251.195807
51
330
0
ARC
5
DA
100
AcDbEntity
8
1
62
256
6
ByLayer
370
18
48
1
60
0
100
AcDbCircle
39
0
10
65.197378
20
2.995417
30
0.8
40
0.396
210
0
220
0
230
1
100
AcDbArc
50
252
51
350
0
ARC
5
DB
100
AcDbEntity
8
1
62
256
6
ByLayer
370
18
48
1
60
0
100
AcDbCircle
39
0
10
65.371037
20
7.562259
30
0.8
40
0.396
210
0
220
0
230
1
100
AcDbArc
50
6
51
102
0
ARC
5
DC
100
AcDbEntity
8
1
62
256
6
ByLayer
370
18
48
1
60
0
100
AcDbCircle
39
0
10
61.119222
20
7.413782
30
0.8
40
0.396
210
0
220
0
230
1
100
AcDbArc
50
72
51
170
0
ARC
5
DD
100
AcDbEntity
8
1
62
256
6
ByLayer
370
18
48
1
60
0
100
AcDbCircle
39
0
10
60.945563
20
2.84694
30
0.8
40
0.396
210
0
220
0
230
1
100
AcDbArc
50
186
51
282
0
ARC
5
E0
100
AcDbEntity
8
1
62
256
6
ByLayer
370
18
48
0.05
60
0
100
AcDbCircle
39
0
10
65.271835
20
-4.525074
30
-0.18
40
0.396
210
0
220
0
230
1
100
AcDbArc
50
254
51
352
0
ARC
5
E1
100
AcDbEntity
8
1
62
256
6
ByLayer
370
18
48
1
60
0
100
AcDbCircle
39
0
10
65.286008
20
0.045047
30
-0.18
40
0.396
210
0
220
0
230
1
100
AcDbArc
50
8
51
104
0
ARC
5
E2
100
AcDbEntity
8
1
62
256
6
ByLayer
370
18
48
0.05
60
0
100
AcDbCircle
39
0
10
61.041965
20
-0.251726
30
-0.18
40
0.396
210
0
220
0
230
1
100
AcDbArc
50
74
51
172
0
ARC
5
E3
100
AcDbEntity
8
1
62
256
6
ByLayer
370
18
48
0.05
60
0
100
AcDbCircle
39
0
10
61.027792
20
-4.821847
30
-0.18
40
0.396
210
0
220
0
230
1
100
AcDbArc
50
188
51
284
0
CIRCLE
5
DE
100
AcDbEntity
8
1
62
256
6
ByLayer
370
18
48
1
60
0
100
AcDbCircle
10
63.1583
20
5.204599
30
0.8
40
1.65
39
0
210
0
220
0
230
1
0
CIRCLE
5
DF
100
AcDbEntity
8
1
62
256
6
ByLayer
370
18
48
1
60
0
100
AcDbCircle
10
63.1583
20
5.204599
30
0.8
40
1.1
39
0
210
0
220
0
230
1
0
CIRCLE
5
E4
100
AcDbEntity
8
1
62
256
6
ByLayer
370
18
48
1
60
0
100
AcDbCircle
10
63.1569
20
-2.3884
30
-0.18
40
0.85
39
0
210
0
220
0
230
1
0
POINT
5
70
100
AcDbEntity
8
1
62
256
6
ByLayer
370
13
48
1
60
1
100
AcDbPoint
10
65.8
20
0
30
0
39
0
210
0
220
0
230
1
50
360
0
POINT
5
72
100
AcDbEntity
8
1
62
256
6
ByLayer
370
13
48
1
60
1
100
AcDbPoint
10
12.515401
20
-2.943259
30
5.984709
39
0
210
0
220
0
230
1
50
360
0
POINT
5
73
100
AcDbEntity
8
1
62
256
6
ByLayer
370
13
48
1
60
1
100
AcDbPoint
10
5.4
20
-1.260629
30
12.43627
39
0
210
0
220
0
230
1
50
360
0
POINT
5
74
100
AcDbEntity
8
SK1
62
256
6
ByLayer
370
25
48
1
60
0
100
AcDbPoint
10
0
20
0
30
0
39
0
210
0
220
0
230
1
50
360
0
POINT
5
76
100
AcDbEntity
8
1
62
256
6
ByLayer
370
18
48
1
60
0
100
AcDbPoint
10
63.1583
20
5.204599
30
0.8
39
0
210
0
220
0
230
1
50
360
0
POINT
5
77
100
AcDbEntity
8
1
62
256
6
ByLayer
370
18
48
1
60
0
100
AcDbPoint
10
63.1569
20
-2.3884
30
-0.18
39
0
210
0
220
0
230
1
50
360
0
POINT
5
78
100
AcDbEntity
8
81
62
256
6
ByLayer
370
18
48
1
60
0
100
AcDbPoint
10
66
20
0
30
0
39
0
210
0
220
0
230
1
50
360
0
POINT
5
7A
100
AcDbEntity
8
80
62
256
6
ByLayer
370
18
48
1
60
0
100
AcDbPoint
10
0
20
0
30
0
39
0
210
0
220
0
230
1
50
360
0
SPLINE
5
E5
100
AcDbEntity
8
1
62
256
6
ByLayer
370
18
48
1
60
0
100
AcDbSpline
70
4
71
3
72
29
73
25
40
0
40
0
40
0
40
0
40
0.0005000049958128
40
0.0500000133944321
40
0.100000011906162
40
0.150000010417892
40
0.200000008929621
40
0.250000007441351
40
0.300000005953081
40
0.350000004464811
40
0.40000000297654
40
0.45000000148827
40
0.5
40
0.54999999851173
40
0.59999999702346
40
0.649999995535189
40
0.699999994046919
40
0.749999992558649
40
0.799999991070379
40
0.849999989582108
40
0.899999988093838
40
0.949999986605568
40
0.999499995004187
40
1
40
1
40
1
40
1
41
1
10
54.5
20
7.38977342572472
30
2.1636193557215
41
1
10
54.4971262830384
20
7.3900845450897
30
2.16255673726166
41
1
10
54.2097573630416
20
7.42117312289786
30
2.05628970496533
41
1
10
53.6350099268579
20
7.47876623717596
30
1.84241118072463
41
1
10
52.7757699871992
20
7.55106781713176
30
1.51926443409343
41
1
10
51.9136543911425
20
7.60956154620865
30
1.19220926712621
41
1
10
51.0515393312933
20
7.65389646781357
30
0.862936045294415
41
1
10
50.1894241277677
20
7.68399017415343
30
0.53205713843534
41
1
10
49.32730896274
20
7.69978664881354
30
0.200188275309116
41
1
10
48.4651937873971
20
7.70125650609541
30
-0.132053072850767
41
1
10
47.6030786148172
20
7.68839700948998
30
-0.464048715088291
41
1
10
46.7409634415005
20
7.66123208647175
30
-0.795180924761292
41
1
10
45.878848268368
20
7.61981228137175
30
-1.12483357986921
41
1
10
45.0167330952355
20
7.56421466205498
30
-1.45239331182742
41
1
10
44.1546179219188
20
7.4945426762391
30
-1.77725064623436
41
1
10
43.2925027493389
20
7.4109259594309
30
-2.09880113649657
41
1
10
42.430387573996
20
7.31352009233841
30
-2.4164464905685
41
1
10
41.5682724089683
20
7.20250631649838
30
-2.7295956762582
41
1
10
40.7061572054428
20
7.07809117799458
30
-3.03766605048559
41
1
10
39.8440421455935
20
6.94050621425615
30
-3.34008433307166
41
1
10
38.9819265495368
20
6.79000725786719
30
-3.63628808508555
41
1
10
38.1226866098781
20
6.62741871458285
30
-3.9247604475661
41
1
10
37.5479391736941
20
6.51048352064155
30
-4.11287517416012
41
1
10
37.2605702536976
20
6.45001590181962
30
-4.20562671806753
41
1
10
37.257696536736
20
6.44941101699329
30
-4.20655411636241
0
SPLINE
5
E6
100
AcDbEntity
8
1
62
256
6
ByLayer
370
18
48
1
60
0
100
AcDbSpline
70
4
71
3
72
29
73
25
40
0
40
0
40
0
40
0
40
0.0005000139295227
40
0.0500000373444014
40
0.100000033195023
40
0.150000029045645
40
0.200000024896268
40
0.250000020746889
40
0.300000016597512
40
0.350000012448134
40
0.400000008298756
40
0.450000004149378
40
0.5
40
0.549999995850622
40
0.599999991701244
40
0.649999987551866
40
0.699999983402488
40
0.74999997925311
40
0.799999975103732
40
0.849999970954354
40
0.899999966804976
40
0.949999962655599
40
0.999499986070477
40
1
40
1
40
1
40
1
41
1
10
54.5
20
0.998769402694957
30
7.63494988066329
41
1
10
54.4952012604836
20
1.00060272155247
30
7.63471005397584
41
1
10
54.0153402344659
20
1.18391865400072
30
7.61066236654915
41
1
10
53.0555735032063
20
1.54883240481878
30
7.5493537180381
41
1
10
51.6207570544893
20
2.08640545093189
30
7.41886481378916
41
1
10
50.1811328363282
20
2.61495836395286
30
7.24945774630736
41
1
10
48.7415111147182
20
3.12994654588334
30
7.04244834412873
41
1
10
47.3018887241594
20
3.62870018431889
30
6.79891015637716
41
1
10
45.8622665128446
20
4.10863189998711
30
6.52010645305362
41
1
10
44.4226442535027
20
4.56725241722551
30
6.20748335767064
41
1
10
42.9830220070252
20
5.00218287284126
30
5.8626624306621
41
1
10
41.5433997571172
20
5.41116731666298
30
5.48743223585954
41
1
10
40.1037775080668
20
5.79208436973202
30
5.08373906931902
41
1
10
38.6641552590164
20
6.14295823935969
30
4.65367686260606
41
1
10
37.2245330091084
20
6.46196896434173
30
4.19947632129621
41
1
10
35.7849107626309
20
6.74746185578911
30
3.72349335746435
41
1
10
34.345288503289
20
6.99795607977886
30
3.22819685803534
41
1
10
32.9056662919742
20
7.21215233801604
30
2.71615592251519
41
1
10
31.4660439014155
20
7.38893960866001
30
2.19002637412974
41
1
10
30.0264221798055
20
7.52740090367276
30
1.65253759294282
41
1
10
28.5867979616443
20
7.6268180455459
30
1.10647608699544
41
1
10
27.1519815129274
20
7.68647580317603
30
0.556518737745558
41
1
10
26.1922147816675
20
7.69993343560374
30
0.186735438977495
41
1
10
25.7123537556501
20
7.69999999974565
30
0.0018489388506251
41
1
10
25.7075550161337
20
7.7
30
9E-15
0
SPLINE
5
E7
100
AcDbEntity
8
1
62
256
6
ByLayer
370
18
48
1
60
0
100
AcDbSpline
70
4
71
3
72
29
73
25
40
0
40
0
40
0
40
0
40
0.0005000192040319
40
0.0500000514830934
40
0.10000004576275
40
0.150000040042406
40
0.200000034322062
40
0.250000028601718
40
0.300000022881375
40
0.350000017161031
40
0.400000011440687
40
0.450000005720344
40
0.5
40
0.549999994279656
40
0.599999988559313
40
0.649999982838969
40
0.699999977118625
40
0.749999971398281
40
0.799999965677938
40
0.849999959957594
40
0.89999995423725
40
0.949999948516907
40
0.999499980795968
40
1
40
1
40
1
40
1
41
1
10
48.8078380573384
20
-7.7
30
9E-15
41
1
10
48.8022034197897
20
-7.69999999951654
30
0.0021710147725942
41
1
10
48.238760588805
20
-7.69990824170966
30
0.219260537594036
41
1
10
47.1118026004452
20
-7.68135096964239
30
0.65345619661108
41
1
10
45.4270567653912
20
-7.59913978528369
30
1.29793543986638
41
1
10
43.7366616751705
20
-7.4623182958979
30
1.93529619912629
41
1
10
42.0462706263525
20
-7.27213982398314
30
2.55881742086566
41
1
10
40.3558784946439
20
-7.02996415787282
30
3.16404309147096
41
1
10
38.6654866530945
20
-6.7375229062987
30
3.74664512024052
41
1
10
36.9750947337992
20
-6.39690707835402
30
4.30245795521874
41
1
10
35.2847028353286
20
-6.01055214274323
30
4.82750738453953
41
1
10
33.5943109313047
20
-5.58122061096237
30
5.31803921623707
41
1
10
31.9039190286692
20
-5.11198228546188
30
5.77054605083803
41
1
10
30.2135271260337
20
-4.60619231013467
30
6.18179237889165
41
1
10
28.5231352220098
20
-4.06746717910001
30
6.54883771026303
41
1
10
26.8327433235392
20
-3.49965888310267
30
6.86905760111542
41
1
10
25.1423514042439
20
-2.90682734824729
30
7.14016241673839
41
1
10
23.4519595626945
20
-2.29321147691152
30
7.36021371074393
41
1
10
21.7615674309859
20
-1.66319857693811
30
7.5276380562935
41
1
10
20.0711763821679
20
-1.0212939687696
30
7.64123840466976
41
1
10
18.3807812919472
20
-0.372085124496343
30
7.70020224036169
41
1
10
16.6960354568932
20
0.277604811866536
30
7.70409587739821
41
1
10
15.5690774685334
20
0.710869713198355
30
7.67015817079097
41
1
10
15.0056346375487
20
0.926386074243257
30
7.64407048288463
41
1
10
15
20
0.928541245933463
30
7.64380868118769
0
SPLINE
5
E8
100
AcDbEntity
8
1
62
256
6
ByLayer
370
18
48
1
60
0
100
AcDbSpline
70
4
71
3
72
29
73
25
40
0
40
0
40
0
40
0
40
0.0005000083245821
40
0.0500000223187481
40
0.100000019838887
40
0.150000017359026
40
0.200000014879166
40
0.250000012399305
40
0.300000009919444
40
0.350000007439583
40
0.400000004959722
40
0.450000002479861
40
0.5
40
0.549999997520139
40
0.599999995040278
40
0.649999992560418
40
0.699999990080556
40
0.749999987600695
40
0.799999985120835
40
0.849999982640974
40
0.899999980161113
40
0.949999977681252
40
0.999499991675418
40
1
40
1
40
1
40
1
41
1
10
37.257696536736
20
-6.44941101699329
30
-4.20655411636241
41
1
10
37.2539869212537
20
-6.45019185055012
30
-4.20535695661979
41
1
10
36.8830313445284
20
-6.52824002627567
30
-4.08562211004947
41
1
10
36.1410995497505
20
-6.67767076207907
30
-3.84179914452528
41
1
10
35.0319276004738
20
-6.88053795290017
30
-3.46547468735734
41
1
10
33.9190418639958
20
-7.06275359040537
30
-3.07714636939509
41
1
10
32.8061572808966
20
-7.22307298609511
30
-2.67927871029982
41
1
10
31.6932723887506
20
-7.36099947115583
30
-2.27310462961843
41
1
10
30.5803875794132
20
-7.47610535084822
30
-1.85988349657574
41
1
10
29.4675027478879
20
-7.56803379908758
30
-1.44089634062934
41
1
10
28.3546179223058
20
-7.63649981230902
30
-1.01744211719207
41
1
10
27.2417330951388
20
-7.68129113386649
30
-0.590833617063614
41
1
10
26.128848268368
20
-7.70226890111765
30
-0.162393413518097
41
1
10
25.0159634415972
20
-7.69936807890999
30
0.266550242412952
41
1
10
23.9030786144303
20
-7.67259766022107
30
0.694667538900646
41
1
10
22.7901937888481
20
-7.6220406392221
30
1.12063122507708
41
1
10
21.6773089573228
20
-7.54785375118659
30
1.54312073037555
41
1
10
20.5644241479855
20
-7.45026699680639
30
1.96082624111534
41
1
10
19.4515392558394
20
-7.32958289102744
30
2.37245282639733
41
1
10
18.3386546727402
20
-7.18617566742793
30
2.77672420926749
41
1
10
17.2257689362623
20
-7.02048958719175
30
3.1723876317604
41
1
10
16.1165969869855
20
-6.83366435580599
30
3.55692830203079
41
1
10
15.3746651922071
20
-6.69464329432219
30
3.80683293941023
41
1
10
15.0037096154823
20
-6.62171117457438
30
3.92975103053748
41
1
10
15
20
-6.62098149393548
30
3.93098003772136
0
SPLINE
5
E9
100
AcDbEntity
8
1
62
256
6
ByLayer
370
18
48
1
60
0
100
AcDbSpline
70
4
71
3
72
9
73
5
40
0
40
0
40
0
40
0
40
0.559352875950438
40
1
40
1
40
1
40
1
41
1
10
15
20
-6.62098149393548
30
3.93098003772136
41
1
10
7.73795328426997
20
-4.35288511423902
30
9.48617073729312
41
1
10
2.01705662388785
20
-1.15850792797637
30
14.5547004729012
41
1
10
9.27910333961788
20
0.497519024483119
30
10.9293797810296
41
1
10
15
20
0.928541245933463
30
7.64380868118769
0
SPLINE
5
EA
100
AcDbEntity
8
SK1
62
256
6
ByLayer
370
18
48
1
60
0
100
AcDbSpline
70
4
71
3
72
46
73
42
40
0
40
0
40
0
40
0
40
0.0325548106345456
40
0.0325548106345456
40
0.0651041132568983
40
0.0651041132568983
40
0.103022939875128
40
0.103022939875128
40
0.124032028705738
40
0.124032028705738
40
0.16595709986031
40
0.16595709986031
40
0.214134463056893
40
0.214134463056893
40
0.262301831660977
40
0.262301831660977
40
0.317339472330684
40
0.317339472330684
40
0.372372629392768
40
0.372372629392768
40
0.433930870829802
40
0.433930870829802
40
0.495487683750692
40
0.495487683750692
40
0.588924911572437
40
0.588924911572437
40
0.641008287221678
40
0.641008287221678
40
0.693093787379067
40
0.693093787379067
40
0.770397012893342
40
0.770397012893342
40
0.828163609079897
40
0.828163609079897
40
0.885461655554109
40
0.885461655554109
40
0.942503563676774
40
0.942503563676774
40
0.97125011169653
40
0.97125011169653
40
1
40
1
40
1
40
1
41
1
10
-6.4999999944921
20
5.93274809870277
30
8.04999999983472
41
1
10
-6.32835755734952
20
5.93274809827769
30
8.050000000148
41
1
10
-6.16807240904483
20
5.91457620232092
30
8.06349002962499
41
1
10
-5.84558347182563
20
5.84306731424594
30
8.11545729952559
41
1
10
-5.6942131763071
20
5.79156237671824
30
8.15257861479365
41
1
10
-5.37588555777174
20
5.64425350066918
30
8.25539783721071
41
1
10
-5.22279066122591
20
5.54792096018165
30
8.32093220958579
41
1
10
-5.00427828669092
20
5.37441010754897
30
8.43331432329975
41
1
10
-4.93127590987935
20
5.30866415346244
30
8.47496449370459
41
1
10
-4.72373833083552
20
5.09863917631819
30
8.60412822329611
41
1
10
-4.60658372305556
20
4.94939475422032
30
8.69136020432099
41
1
10
-4.37446628398257
20
4.58895465523982
30
8.88759985479212
41
1
10
-4.27628807325691
20
4.39327363040451
30
8.98623285282119
41
1
10
-4.10372455981936
20
3.97469870710836
30
9.17905132647953
41
1
10
-4.03370633445732
20
3.76095252916039
30
9.26895386049115
41
1
10
-3.90363542785563
20
3.27654225930472
30
9.45200458553017
41
1
10
-3.85091638180435
20
3.01856702107137
30
9.53755345890491
41
1
10
-3.76380327748035
20
2.48508117475522
30
9.69025439492699
41
1
10
-3.73100548408888
20
2.21863614478913
30
9.75489569793933
41
1
10
-3.67506496866308
20
1.62857705175722
30
9.8715915558635
41
1
10
-3.65557229922833
20
1.32361465397999
30
9.91697234950549
41
1
10
-3.62888786218016
20
0.69918888399162
30
9.98045221070489
41
1
10
-3.62221971292861
20
0.387938788768082
30
9.99746115938018
41
1
10
-3.61993240375658
20
-0.407707874154791
30
10.003185426657
41
1
10
-3.6311423337058
20
-0.875192397328286
30
9.97328500262734
41
1
10
-3.67558250680501
20
-1.61941464555185
30
9.87165335444215
41
1
10
-3.69629438392829
20
-1.87631932811171
30
9.82593773271614
41
1
10
-3.75240160009768
20
-2.39266019850418
30
9.71312566233682
41
1
10
-3.78686538548537
20
-2.6441234806158
30
9.64773193651633
41
1
10
-3.89989679508555
20
-3.27473433859042
30
9.45678848098149
41
1
10
-3.98679314491452
20
-3.6316379463807
30
9.32481591712088
41
1
10
-4.20251689992804
20
-4.23406045609152
30
9.06373926079821
41
1
10
-4.31430219347722
20
-4.48039060390434
30
8.94389186901264
41
1
10
-4.59120294807852
20
-4.93635321285415
30
8.70048466245961
41
1
10
-4.75595072910382
20
-5.14648926596649
30
8.57672527895675
41
1
10
-5.15618569741815
20
-5.51132616082467
30
8.34694178135394
41
1
10
-5.38527029245562
20
-5.66129670259563
30
8.24421419927097
41
1
10
-5.78444357983633
20
-5.82232622054866
30
8.13050103037959
41
1
10
-5.92028306664864
20
-5.86269039794998
30
8.10124432903245
41
1
10
-6.20690804880167
20
-5.91860062218603
30
8.06048789504153
41
1
10
-6.34948945621272
20
-5.93274813687162
30
8.04999997170472
41
1
10
-6.50000003372524
20
-5.93274813649508
30
8.04999997198222
0
SPLINE
5
EB
100
AcDbEntity
8
1
62
256
6
ByLayer
370
18
48
1
60
0
100
AcDbSpline
70
4
71
3
72
9
73
5
40
0
40
0
40
0
40
0
40
0.252202504917235
40
1
40
1
40
1
40
1
41
1
10
64.8989958331469
20
-1.61014528591057
30
0
41
1
10
64.834202132862
20
-2.12132998205262
30
0
41
1
10
64.6568052114537
20
-4.14898607209918
30
0
41
1
10
64.7946886050123
20
-6.17971181847874
30
0
41
1
10
65.0741025582655
20
-7.7
30
0
0
LINE
5
7C
100
AcDbEntity
8
SK4
62
256
6
ByLayer
370
13
48
0.05
60
0
100
AcDbLine
10
67.8
20
0
30
0
11
-52.2
21
0
31
0
39
0
210
0
220
0
230
1
0
LINE
5
7E
100
AcDbEntity
8
4
62
256
6
ByLayer
370
13
48
0.05
60
0
100
AcDbLine
10
67.8
20
0
30
0
11
-2.2
21
0
31
0
39
0
210
0
220
0
230
1
0
LINE
5
80
100
AcDbEntity
8
1
62
256
6
ByLayer
370
18
48
1
60
0
100
AcDbLine
10
54.5
20
7.7
30
0
11
48.807838
21
7.7
31
0
39
0
210
0
220
0
230
1
0
LINE
5
81
100
AcDbEntity
8
1
62
256
6
ByLayer
370
18
48
1
60
0
100
AcDbLine
10
54.5
20
-7.7
30
0
11
48.807838
21
-7.7
31
0
39
0
210
0
220
0
230
1
0
LINE
5
82
100
AcDbEntity
8
1
62
256
6
ByLayer
370
18
48
1
60
0
100
AcDbLine
10
25.707555
20
7.7
30
0
11
15
21
7.7
31
0
39
0
210
0
220
0
230
1
0
LINE
5
83
100
AcDbEntity
8
1
62
256
6
ByLayer
370
18
48
1
60
0
100
AcDbLine
10
25.707555
20
-7.7
30
0
11
15
21
-7.7
31
0
39
0
210
0
220
0
230
1
0
LINE
5
84
100
AcDbEntity
8
1
62
256
6
ByLayer
370
18
48
1
60
0
100
AcDbLine
10
15
20
-7.700001
30
0
11
15
21
-6.620981
31
3.93098
39
0
210
0
220
0
230
1
0
LINE
5
85
100
AcDbEntity
8
1
62
256
6
ByLayer
370
18
48
1
60
0
100
AcDbLine
10
15
20
0.928541
30
7.643809
11
15
21
7.700001
31
0
39
0
210
0
220
0
230
1
0
LINE
5
86
100
AcDbEntity
8
1
62
256
6
ByLayer
370
18
48
1
60
0
100
AcDbLine
10
4.9981
20
12.5
30
0
11
4.9981
21
-12.5
31
0
39
0
210
0
220
0
230
1
0
LINE
5
87
100
AcDbEntity
8
1
62
256
6
ByLayer
370
18
48
1
60
0
100
AcDbLine
10
0.2
20
-12.5
30
0
11
0
21
-12.3
31
0
39
0
210
0
220
0
230
1
0
LINE
5
88
100
AcDbEntity
8
1
62
256
6
ByLayer
370
18
48
1
60
0
100
AcDbLine
10
0.2
20
-12.5
30
0
11
0.2
21
12.5
31
0
39
0
210
0
220
0
230
1
0
LINE
5
89
100
AcDbEntity
8
1
62
256
6
ByLayer
370
18
48
1
60
0
100
AcDbLine
10
0
20
-12.3
30
0
11
0
21
12.3
31
0
39
0
210
0
220
0
230
1
0
LINE
5
8A
100
AcDbEntity
8
1
62
256
6
ByLayer
370
18
48
1
60
0
100
AcDbLine
10
0.2
20
12.5
30
0
11
0
21
12.3
31
0
39
0
210
0
220
0
230
1
0
LINE
5
8B
100
AcDbEntity
8
1
62
256
6
ByLayer
370
18
48
1
60
0
100
AcDbLine
10
0.2
20
-12.5
30
0
11
4.9981
21
-12.5
31
0
39
0
210
0
220
0
230
1
0
LINE
5
8C
100
AcDbEntity
8
1
62
256
6
ByLayer
370
18
48
1
60
0
100
AcDbLine
10
0.2
20
12.5
30
0
11
4.9981
21
12.5
31
0
39
0
210
0
220
0
230
1
0
LINE
5
8D
100
AcDbEntity
8
1
62
256
6
ByLayer
370
18
48
1
60
0
100
AcDbLine
10
65.074103
20
-7.7
30
0
11
65.820599
21
-2.3884
31
0
39
0
210
0
220
0
230
1
0
LINE
5
8E
100
AcDbEntity
8
1
62
256
6
ByLayer
370
18
48
1
60
0
100
AcDbLine
10
65.820599
20
-2.3884
30
0
11
65.484932
21
0
31
0
39
0
210
0
220
0
230
1
0
LINE
5
8F
100
AcDbEntity
8
SK1
62
256
6
ByLayer
370
18
48
1
60
0
100
AcDbLine
10
-49
20
-10
30
10
11
-50
21
-9
31
10
39
0
210
0
220
0
230
1
0
LINE
5
90
100
AcDbEntity
8
SK1
62
256
6
ByLayer
370
25
48
1
60
0
100
AcDbLine
10
0
20
9.75
30
0
11
0
21
-9.75
31
0
39
0
210
0
220
0
230
1
0
LINE
5
91
100
AcDbEntity
8
SK1
62
256
6
ByLayer
370
25
48
1
60
0
100
AcDbLine
10
-49
20
10
30
0
11
-49
21
5.932748
31
0
39
0
210
0
220
0
230
1
0
LINE
5
92
100
AcDbEntity
8
SK1
62
256
6
ByLayer
370
25
48
1
60
0
100
AcDbLine
10
-50
20
-9
30
10
11
-50
21
9
31
10
39
0
210
0
220
0
230
1
0
LINE
5
93
100
AcDbEntity
8
SK1
62
256
6
ByLayer
370
25
48
1
60
0
100
AcDbLine
10
-49
20
-10
30
0
11
-50
21
-9
31
10
39
0
210
0
220
0
230
1
0
LINE
5
94
100
AcDbEntity
8
SK1
62
256
6
ByLayer
370
25
48
1
60
0
100
AcDbLine
10
-49
20
10
30
0
11
-50
21
9
31
10
39
0
210
0
220
0
230
1
0
LINE
5
95
100
AcDbEntity
8
SK1
62
256
6
ByLayer
370
25
48
1
60
0
100
AcDbLine
10
-2
20
10
30
0
11
-2
21
-10
31
0
39
0
210
0
220
0
230
1
0
LINE
5
96
100
AcDbEntity
8
SK1
62
256
6
ByLayer
370
25
48
1
60
0
100
AcDbLine
10
0
20
-9.75
30
0
11
-2
21
-9.75
31
0
39
0
210
0
220
0
230
1
0
LINE
5
97
100
AcDbEntity
8
SK1
62
256
6
ByLayer
370
25
48
1
60
0
100
AcDbLine
10
0
20
9.75
30
0
11
-2
21
9.75
31
0
39
0
210
0
220
0
230
1
0
LINE
5
98
100
AcDbEntity
8
SK1
62
256
6
ByLayer
370
18
48
1
60
0
100
AcDbLine
10
-49
20
5.932748
30
8.05
11
-6.5
21
5.932748
31
8.05
39
0
210
0
220
0
230
1
0
LINE
5
99
100
AcDbEntity
8
SK1
62
256
6
ByLayer
370
18
48
1
60
0
100
AcDbLine
10
-49
20
-5.932748
30
8.05
11
-6.5
21
-5.932748
31
8.05
39
0
210
0
220
0
230
1
0
LINE
5
9A
100
AcDbEntity
8
SK1
62
256
6
ByLayer
370
18
48
1
60
0
100
AcDbLine
10
-6.5
20
-5.932748
30
8.05
11
-6.5
21
5.932748
31
8.05
39
0
210
0
220
0
230
1
0
LINE
5
9B
100
AcDbEntity
8
SK1
62
256
6
ByLayer
370
25
48
1
60
0
100
AcDbLine
10
-49
20
-10
30
0
11
-49
21
-5.932748
31
0
39
0
210
0
220
0
230
1
0
LINE
5
9C
100
AcDbEntity
8
SK1
62
256
6
ByLayer
370
18
48
1
60
0
100
AcDbLine
10
-49
20
-5.932748
30
8.05
11
-50
21
-4.254116
31
10
39
0
210
0
220
0
230
1
0
LINE
5
9D
100
AcDbEntity
8
SK1
62
256
6
ByLayer
370
18
48
1
60
0
100
AcDbLine
10
-49
20
5.932748
30
8.05
11
-50
21
4.254116
31
10
39
0
210
0
220
0
230
1
0
LINE
5
9E
100
AcDbEntity
8
SK1
62
256
6
ByLayer
370
18
48
1
60
0
100
AcDbLine
10
-46.6
20
10
30
10
11
-47.649312
21
9.642699
31
10
39
0
210
0
220
0
230
1
0
LINE
5
9F
100
AcDbEntity
8
SK1
62
256
6
ByLayer
370
18
48
1
60
0
100
AcDbLine
10
-49
20
-10
30
10
11
-48.6
21
-10
31
10
39
0
210
0
220
0
230
1
0
LINE
5
A0
100
AcDbEntity
8
SK1
62
256
6
ByLayer
370
18
48
1
60
0
100
AcDbLine
10
-50
20
9
30
10
11
-49
21
10
31
10
39
0
210
0
220
0
230
1
0
LINE
5
A1
100
AcDbEntity
8
SK1
62
256
6
ByLayer
370
18
48
1
60
0
100
AcDbLine
10
-50
20
-9
30
10
11
-49
21
-10
31
10
39
0
210
0
220
0
230
1
0
LINE
5
A2
100
AcDbEntity
8
SK1
62
256
6
ByLayer
370
18
48
1
60
0
100
AcDbLine
10
-49
20
10
30
10
11
-48.6
21
10
31
10
39
0
210
0
220
0
230
1
0
LINE
5
A3
100
AcDbEntity
8
SK1
62
256
6
ByLayer
370
18
48
1
60
0
100
AcDbLine
10
-50
20
-9
30
10
11
-50
21
9
31
10
39
0
210
0
220
0
230
1
0
LINE
5
A4
100
AcDbEntity
8
SK1
62
256
6
ByLayer
370
18
48
1
60
0
100
AcDbLine
10
-46.6
20
-10
30
10
11
-47.649312
21
-9.642699
31
10
39
0
210
0
220
0
230
1
0
LINE
5
A5
100
AcDbEntity
8
SK1
62
256
6
ByLayer
370
18
48
1
60
0
100
AcDbLine
10
-46.6
20
-10
30
10
11
-2
21
-10
31
0
39
0
210
0
220
0
230
1
0
LINE
5
A6
100
AcDbEntity
8
SK1
62
256
6
ByLayer
370
18
48
1
60
0
100
AcDbLine
10
-2
20
10
30
0
11
-46.6
21
10
31
10
39
0
210
0
220
0
230
1
0
LINE
5
A7
100
AcDbEntity
8
SK1
62
256
6
ByLayer
370
18
48
1
60
0
100
AcDbLine
10
-46.6
20
-10
30
10
11
-46.6
21
-5.932748
31
10
39
0
210
0
220
0
230
1
0
LINE
5
A8
100
AcDbEntity
8
SK1
62
256
6
ByLayer
370
18
48
1
60
0
100
AcDbLine
10
-46.6
20
5.932748
30
10
11
-46.6
21
10
31
10
39
0
210
0
220
0
230
1
0
LINE
5
A9
100
AcDbEntity
8
SK1
62
256
6
ByLayer
370
18
48
1
60
0
100
AcDbLine
10
-48.6
20
10
30
10
11
-48.6
21
5.932748
31
10
39
0
210
0
220
0
230
1
0
LINE
5
AA
100
AcDbEntity
8
SK1
62
256
6
ByLayer
370
18
48
1
60
0
100
AcDbLine
10
-48.6
20
-5.932748
30
10
11
-48.6
21
-10
31
10
39
0
210
0
220
0
230
1
0
LINE
5
AB
100
AcDbEntity
8
SK1
62
256
6
ByLayer
370
18
48
1
60
0
100
AcDbLine
10
-49
20
5.932748
30
10
11
-49
21
10
31
10
39
0
210
0
220
0
230
1
0
LINE
5
AC
100
AcDbEntity
8
SK1
62
256
6
ByLayer
370
18
48
1
60
0
100
AcDbLine
10
-49
20
-5.932748
30
10
11
-49
21
-10
31
10
39
0
210
0
220
0
230
1
0
LINE
5
AD
100
AcDbEntity
8
1
62
256
6
ByLayer
370
18
48
1
60
0
100
AcDbLine
10
65.075008
20
2.618798
30
0.8
11
64.44624
21
2.823097
31
0.8
39
0
210
0
220
0
230
1
0
LINE
5
AE
100
AcDbEntity
8
1
62
256
6
ByLayer
370
18
48
1
60
0
100
AcDbLine
10
65.587362
20
2.926652
30
0.8
11
66.006564
21
5.304063
31
0.8
39
0
210
0
220
0
230
1
0
LINE
5
AF
100
AcDbEntity
8
1
62
256
6
ByLayer
370
18
48
1
60
0
100
AcDbLine
10
65.764867
20
7.603652
30
0.8
11
66.006564
21
5.304063
31
0.8
39
0
210
0
220
0
230
1
0
LINE
5
B0
100
AcDbEntity
8
1
62
256
6
ByLayer
370
18
48
1
60
0
100
AcDbLine
10
65.288704
20
7.949606
30
0.8
11
64.627287
21
7.682376
31
0.8
39
0
210
0
220
0
230
1
0
LINE
5
B1
100
AcDbEntity
8
1
62
256
6
ByLayer
370
18
48
1
60
0
100
AcDbLine
10
61.241592
20
7.790401
30
0.8
11
61.87036
21
7.586102
31
0.8
39
0
210
0
220
0
230
1
0
LINE
5
B2
100
AcDbEntity
8
1
62
256
6
ByLayer
370
18
48
1
60
0
100
AcDbLine
10
60.729238
20
7.482547
30
0.8
11
60.310036
21
5.105136
31
0.8
39
0
210
0
220
0
230
1
0
LINE
5
B3
100
AcDbEntity
8
1
62
256
6
ByLayer
370
18
48
1
60
0
100
AcDbLine
10
60.551733
20
2.805547
30
0.8
11
60.310036
21
5.105136
31
0.8
39
0
210
0
220
0
230
1
0
LINE
5
B4
100
AcDbEntity
8
1
62
256
6
ByLayer
370
18
48
1
60
0
100
AcDbLine
10
61.027896
20
2.459593
30
0.8
11
61.689313
21
2.726823
31
0.8
39
0
210
0
220
0
230
1
0
LINE
5
B5
100
AcDbEntity
8
1
62
256
6
ByLayer
370
18
48
1
60
0
100
AcDbLine
10
63.242931
20
2.781077
30
0.8
11
64.44624
21
2.823097
31
0.8
39
0
210
0
220
0
230
1
0
LINE
5
B6
100
AcDbEntity
8
1
62
256
6
ByLayer
370
18
48
1
60
0
100
AcDbLine
10
63.073669
20
7.628122
30
0.8
11
61.87036
21
7.586102
31
0.8
39
0
210
0
220
0
230
1
0
LINE
5
B7
100
AcDbEntity
8
1
62
256
6
ByLayer
370
18
48
1
60
0
100
AcDbLine
10
63.073669
20
7.628122
30
0.8
11
64.627287
21
7.682376
31
0.8
39
0
210
0
220
0
230
1
0
LINE
5
B8
100
AcDbEntity
8
1
62
256
6
ByLayer
370
18
48
1
60
0
100
AcDbLine
10
63.242931
20
2.781077
30
0.8
11
61.689313
21
2.726823
31
0.8
39
0
210
0
220
0
230
1
0
LINE
5
B9
100
AcDbEntity
8
1
62
256
6
ByLayer
370
18
48
0.05
60
0
100
AcDbLine
10
65.162683
20
-4.905734
30
-0.18
11
64.527168
21
-4.723503
31
-0.18
39
0
210
0
220
0
230
1
0
LINE
5
BA
100
AcDbEntity
8
1
62
256
6
ByLayer
370
18
48
1
60
0
100
AcDbLine
10
65.663982
20
-4.580187
30
-0.18
11
65.999958
21
-2.189594
31
-0.18
39
0
210
0
220
0
230
1
0
LINE
5
BB
100
AcDbEntity
8
1
62
256
6
ByLayer
370
18
48
1
60
0
100
AcDbLine
10
65.678154
20
0.100159
30
-0.18
11
65.999958
21
-2.189594
31
-0.18
39
0
210
0
220
0
230
1
0
LINE
5
BC
100
AcDbEntity
8
1
62
256
6
ByLayer
370
18
48
0.05
60
0
100
AcDbLine
10
65.190206
20
0.429284
30
-0.18
11
64.538519
21
0.139134
31
-0.18
39
0
210
0
220
0
230
1
0
LINE
5
BD
100
AcDbEntity
8
1
62
256
6
ByLayer
370
18
48
0.05
60
0
100
AcDbLine
10
61.151117
20
0.128934
30
-0.18
11
61.786632
21
-0.053297
31
-0.18
39
0
210
0
220
0
230
1
0
LINE
5
BE
100
AcDbEntity
8
1
62
256
6
ByLayer
370
18
48
0.05
60
0
100
AcDbLine
10
60.649818
20
-0.196613
30
-0.18
11
60.313842
21
-2.587206
31
-0.18
39
0
210
0
220
0
230
1
0
LINE
5
BF
100
AcDbEntity
8
1
62
256
6
ByLayer
370
18
48
0.05
60
0
100
AcDbLine
10
60.635646
20
-4.876959
30
-0.18
11
60.313842
21
-2.587206
31
-0.18
39
0
210
0
220
0
230
1
0
LINE
5
C0
100
AcDbEntity
8
1
62
256
6
ByLayer
370
18
48
0.05
60
0
100
AcDbLine
10
61.123594
20
-5.206084
30
-0.18
11
61.775281
21
-4.915934
31
-0.18
39
0
210
0
220
0
230
1
0
LINE
5
C1
100
AcDbEntity
8
1
62
256
6
ByLayer
370
18
48
0.05
60
0
100
AcDbLine
10
63.326059
20
-4.807493
30
-0.18
11
64.527168
21
-4.723503
31
-0.18
39
0
210
0
220
0
230
1
0
LINE
5
C2
100
AcDbEntity
8
1
62
256
6
ByLayer
370
18
48
0.05
60
0
100
AcDbLine
10
62.987741
20
0.030693
30
-0.18
11
61.786632
21
-0.053297
31
-0.18
39
0
210
0
220
0
230
1
0
LINE
5
C3
100
AcDbEntity
8
1
62
256
6
ByLayer
370
18
48
0.05
60
0
100
AcDbLine
10
62.987741
20
0.030693
30
-0.18
11
64.538519
21
0.139134
31
-0.18
39
0
210
0
220
0
230
1
0
LINE
5
C4
100
AcDbEntity
8
1
62
256
6
ByLayer
370
18
48
0.05
60
0
100
AcDbLine
10
63.326059
20
-4.807493
30
-0.18
11
61.775281
21
-4.915934
31
-0.18
39
0
210
0
220
0
230
1
0
LINE
5
C5
100
AcDbEntity
8
1
62
256
6
ByLayer
370
18
48
1
60
0
100
AcDbLine
10
65.820599
20
-2.3884
30
0
11
64.898996
21
-1.610145
31
0
39
0
210
0
220
0
230
1
0
LINE
5
C6
100
AcDbEntity
8
1
62
256
6
ByLayer
370
18
48
1
60
0
100
AcDbLine
10
64.898996
20
-1.610145
30
0
11
64.786404
21
0
31
0
39
0
210
0
220
0
230
1
0
LINE
5
C7
100
AcDbEntity
8
1
62
256
6
ByLayer
370
18
48
1
60
0
100
AcDbLine
10
64.786404
20
0
30
0
11
65.484932
21
0
31
0
39
0
210
0
220
0
230
1
0
LINE
5
C8
100
AcDbEntity
8
1
62
256
6
ByLayer
370
18
48
1
60
0
100
AcDbLine
10
50.983403
20
2.319899
30
7.7
11
65.175432
21
2.319899
31
0
39
0
210
0
220
0
230
1
0
LINE
5
C9
100
AcDbEntity
8
1
62
256
6
ByLayer
370
18
48
1
60
0
100
AcDbLine
10
54.5
20
0.998769
30
7.63495
11
55.730564
21
0.52464
31
7.7
39
0
210
0
220
0
230
1
0
LINE
5
CA
100
AcDbEntity
8
1
62
256
6
ByLayer
370
18
48
1
60
0
100
AcDbLine
10
64.858879
20
0.52464
30
0
11
55.730564
21
0.52464
31
7.7
39
0
210
0
220
0
230
1
0
LINE
5
CB
100
AcDbEntity
8
1
62
256
6
ByLayer
370
18
48
1
60
0
100
AcDbLine
10
60.845551
20
7.7
30
0.8
11
54.5
21
7.7
31
0
39
0
210
0
220
0
230
1
0
LINE
5
CC
100
AcDbEntity
8
1
62
256
6
ByLayer
370
18
48
1
60
0
100
AcDbLine
10
64.766371
20
0
30
0
11
65.224887
21
2.600373
31
0.8
39
0
210
0
220
0
230
1
0
LINE
5
CD
100
AcDbEntity
8
1
62
256
6
ByLayer
370
18
48
1
60
0
100
AcDbLine
10
65.074103
20
-7.7
30
0
11
54.5
21
-7.7
31
0
39
0
210
0
220
0
230
1
0
LINE
5
CE
100
AcDbEntity
8
81
62
256
6
ByLayer
370
18
48
1
60
0
100
AcDbLine
10
66
20
0
30
0
11
76
21
0
31
0
39
0
210
0
220
0
230
1
0
LINE
5
CF
100
AcDbEntity
8
80
62
256
6
ByLayer
370
18
48
1
60
0
100
AcDbLine
10
0
20
0
30
0
11
-10
21
0
31
0
39
0
210
0
220
0
230
1
0
LINE
5
D0
100
AcDbEntity
8
2
62
256
6
ByLayer
370
13
48
1
60
0
100
AcDbLine
10
79.3
20
8
30
0
11
67.8
21
8
31
0
39
0
210
0
220
0
230
1
0
LINE
5
D2
100
AcDbEntity
8
2
62
256
6
ByLayer
370
13
48
1
60
0
100
AcDbLine
10
79.3
20
-8
30
0
11
67.8
21
-8
31
0
39
0
210
0
220
0
230
1
0
LINE
5
D3
100
AcDbEntity
8
2
62
256
6
ByLayer
370
18
48
1
60
1
100
AcDbLine
10
15
20
8
30
0
11
15
21
8.1
31
0
39
0
210
0
220
0
230
1
0
MTEXT
5
EC
100
AcDbEntity
8
SK6
62
256
6
ByLayer
370
18
48
1
60
0
100
AcDbMText
10
-47.0145
20
1.282634
30
0
210
0
220
0
230
1
1
\W0.7182;881-D1600L20-03
40
3.5
41
0
44
1.084337
50
0
71
7
72
5
7
iso_b_vert
0
DIMENSION
5
F1
100
AcDbEntity
8
2
62
256
6
ByLayer
370
18
48
1
60
0
100
AcDbDimension
2
_U0
10
81.55
20
-8
30
0
11
81.55
21
0
31
0
70
32
71
1
72
1
41
1
210
0
220
0
230
1
3
Standard
100
AcDbAlignedDimension
13
79.3
23
8
33
0
14
79.3
24
-8
34
0
50
90
100
AcDbRotatedDimension
1001
ACAD
1000
DSTYLE
1002
{
1070
   371
1070
    13
1070
   372
1070
    13
1070
     3
1000

1070
   170
1070
     0
1070
   144
1040
1.0
1070
   277
1070
     2
1070
   278
1070
    46
1070
   146
1040
0.777778
1070
   345
1005
16
1070
   347
1005
16
1070
   346
1005
16
1070
   344
1005
F2
1070
   343
1005
F2
1070
   172
1070
     1
1070
    76
1070
     0
1070
    75
1070
     0
1070
   282
1070
     0
1070
   281
1070
     0
1070
    71
1070
     0
1070
   272
1070
     4
1070
   271
1070
     4
1070
    74
1070
     0
1070
   279
1070
     0
1070
   173
1070
     1
1070
   340
1005
ED
1070
    77
1070
     1
1070
    73
1070
     0
1070
   171
1070
     4
1070
   274
1070
     4
1070
   177
1070
     7
1070
   176
1070
     7
1070
   178
1070
     7
1070
    41
1040
2.999994
1070
   147
1040
2.25
1070
    42
1040
1.499997
1070
    44
1040
2.999994
1070
   140
1040
4.5
1002
}
1001
ACAD_DSTYLE_DIM_LINETYPE
1070
   380
1005
16
1001
ACAD_DSTYLE_DIM_EXT1_LINETYPE
1070
   381
1005
16
1001
ACAD_DSTYLE_DIM_EXT2_LINETYPE
1070
   382
1005
16
0
DIMENSION
5
116
100
AcDbEntity
8
SK2
62
256
6
ByLayer
370
18
48
1
60
0
100
AcDbDimension
2
_U1
10
-61.45
20
10
30
0
11
-61.45
21
0
31
0
70
32
71
1
72
1
41
1
210
0
220
0
230
1
3
Standard
100
AcDbAlignedDimension
13
-49
23
-10
33
10
14
-49
24
10
34
10
50
90
100
AcDbRotatedDimension
1001
ACAD
1000
DSTYLE
1002
{
1070
   371
1070
    13
1070
   372
1070
    13
1070
     3
1000

1070
   170
1070
     0
1070
   144
1040
1.0
1070
   277
1070
     2
1070
   278
1070
    46
1070
   146
1040
0.777778
1070
   345
1005
16
1070
   347
1005
16
1070
   346
1005
16
1070
   344
1005
F2
1070
   343
1005
F2
1070
   172
1070
     1
1070
    76
1070
     0
1070
    75
1070
     0
1070
   282
1070
     0
1070
   281
1070
     0
1070
    71
1070
     0
1070
   272
1070
     4
1070
   271
1070
     4
1070
    74
1070
     0
1070
   279
1070
     0
1070
   173
1070
     1
1070
   340
1005
ED
1070
    77
1070
     1
1070
    73
1070
     0
1070
   171
1070
     4
1070
   274
1070
     4
1070
   177
1070
     7
1070
   176
1070
     7
1070
   178
1070
     7
1070
    41
1040
2.999994
1070
   147
1040
2.25
1070
    42
1040
1.499997
1070
    44
1040
2.999994
1070
   140
1040
4.5
1002
}
1001
ACAD_DSTYLE_DIM_LINETYPE
1070
   380
1005
16
1001
ACAD_DSTYLE_DIM_EXT1_LINETYPE
1070
   381
1005
16
1001
ACAD_DSTYLE_DIM_EXT2_LINETYPE
1070
   382
1005
16
0
DIMENSION
5
133
100
AcDbEntity
8
2
62
256
6
ByLayer
370
18
48
1
60
0
100
AcDbDimension
2
_U2
10
15
20
30.5
30
0
11
40.4
21
30.5
31
0
70
32
71
1
72
1
41
1
210
0
220
0
230
1
3
Standard
100
AcDbAlignedDimension
13
65.663982
23
-4.580187
33
-0.18
14
15
24
8.1
34
0
50
0
100
AcDbRotatedDimension
1001
ACAD
1000
DSTYLE
1002
{
1070
   371
1070
    13
1070
   372
1070
    13
1070
     3
1000

1070
   170
1070
     0
1070
   144
1040
1.0
1070
   277
1070
     2
1070
   278
1070
    46
1070
   146
1040
0.777778
1070
   345
1005
16
1070
   347
1005
16
1070
   346
1005
16
1070
   344
1005
F2
1070
   343
1005
F2
1070
   172
1070
     1
1070
    76
1070
     0
1070
    75
1070
     0
1070
   282
1070
     0
1070
   281
1070
     0
1070
    71
1070
     0
1070
   272
1070
     4
1070
   271
1070
     4
1070
    74
1070
     0
1070
   279
1070
     0
1070
   173
1070
     1
1070
   340
1005
ED
1070
    77
1070
     1
1070
    73
1070
     1
1070
   171
1070
     4
1070
   274
1070
     4
1070
   177
1070
     7
1070
   176
1070
     7
1070
   178
1070
     7
1070
    41
1040
2.999994
1070
   147
1040
2.25
1070
    42
1040
1.499997
1070
    44
1040
2.999994
1070
   140
1040
4.5
1002
}
1001
ACAD_DSTYLE_DIM_LINETYPE
1070
   380
1005
16
1001
ACAD_DSTYLE_DIM_EXT1_LINETYPE
1070
   381
1005
16
1001
ACAD_DSTYLE_DIM_EXT2_LINETYPE
1070
   382
1005
16
0
DIMENSION
5
14F
100
AcDbEntity
8
SK2
62
256
6
ByLayer
370
18
48
1
60
0
100
AcDbDimension
2
_U3
10
-50
20
41.75
30
0
11
-25.1
21
41.75
31
0
70
32
71
1
72
1
41
1
210
0
220
0
230
1
3
Standard
100
AcDbAlignedDimension
13
0
23
0
33
0
14
-50
24
9
34
10
50
0
100
AcDbRotatedDimension
1001
ACAD
1000
DSTYLE
1002
{
1070
   371
1070
    13
1070
   372
1070
    13
1070
     3
1000

1070
   170
1070
     0
1070
   144
1040
1.0
1070
   277
1070
     2
1070
   278
1070
    46
1070
   146
1040
0.777778
1070
   345
1005
16
1070
   347
1005
16
1070
   346
1005
16
1070
   344
1005
F2
1070
   343
1005
F2
1070
   172
1070
     1
1070
    76
1070
     0
1070
    75
1070
     0
1070
   282
1070
     0
1070
   281
1070
     0
1070
    71
1070
     0
1070
   272
1070
     4
1070
   271
1070
     4
1070
    74
1070
     0
1070
   279
1070
     0
1070
   173
1070
     1
1070
   340
1005
ED
1070
    77
1070
     1
1070
    73
1070
     1
1070
   171
1070
     4
1070
   274
1070
     4
1070
   177
1070
     7
1070
   176
1070
     7
1070
   178
1070
     7
1070
    41
1040
2.999994
1070
   147
1040
2.25
1070
    42
1040
1.499997
1070
    44
1040
2.999994
1070
   140
1040
4.5
1002
}
1001
ACAD_DSTYLE_DIM_LINETYPE
1070
   380
1005
16
1001
ACAD_DSTYLE_DIM_EXT1_LINETYPE
1070
   381
1005
16
1001
ACAD_DSTYLE_DIM_EXT2_LINETYPE
1070
   382
1005
16
0
DIMENSION
5
16B
100
AcDbEntity
8
SK2
62
256
6
ByLayer
370
18
48
1
60
0
100
AcDbDimension
2
_U4
10
-50
20
53
30
0
11
7.8
21
53
31
0
70
32
71
1
72
1
41
1
210
0
220
0
230
1
3
Standard
100
AcDbAlignedDimension
13
65.663982
23
-4.580187
33
-0.18
14
-50
24
9
34
10
50
0
100
AcDbRotatedDimension
1001
ACAD
1000
DSTYLE
1002
{
1070
   371
1070
    13
1070
   372
1070
    13
1070
     3
1000

1070
   170
1070
     0
1070
   144
1040
1.0
1070
   277
1070
     2
1070
   278
1070
    46
1070
   146
1040
0.777778
1070
   345
1005
16
1070
   347
1005
16
1070
   346
1005
16
1070
   344
1005
F2
1070
   343
1005
F2
1070
   172
1070
     1
1070
    76
1070
     0
1070
    75
1070
     0
1070
   282
1070
     0
1070
   281
1070
     0
1070
    71
1070
     0
1070
   272
1070
     4
1070
   271
1070
     4
1070
    74
1070
     0
1070
   279
1070
     0
1070
   173
1070
     1
1070
   340
1005
ED
1070
    77
1070
     1
1070
    73
1070
     1
1070
   171
1070
     4
1070
   274
1070
     4
1070
   177
1070
     7
1070
   176
1070
     7
1070
   178
1070
     7
1070
    41
1040
2.999994
1070
   147
1040
2.25
1070
    42
1040
1.499997
1070
    44
1040
2.999994
1070
   140
1040
4.5
1002
}
1001
ACAD_DSTYLE_DIM_LINETYPE
1070
   380
1005
16
1001
ACAD_DSTYLE_DIM_EXT1_LINETYPE
1070
   381
1005
16
1001
ACAD_DSTYLE_DIM_EXT2_LINETYPE
1070
   382
1005
16
0
DIMENSION
5
187
100
AcDbEntity
8
2
62
256
6
ByLayer
370
18
48
1
60
0
100
AcDbDimension
2
_U5
10
0
20
41.75
30
0
11
32.9
21
41.75
31
0
70
32
71
1
72
1
41
1
210
0
220
0
230
1
3
Standard
100
AcDbAlignedDimension
13
65.663982
23
-4.580187
33
-0.18
14
0
24
0
34
0
50
0
100
AcDbRotatedDimension
1001
ACAD
1000
DSTYLE
1002
{
1070
   371
1070
    13
1070
   372
1070
    13
1070
     3
1000

1070
   170
1070
     0
1070
   144
1040
1.0
1070
   277
1070
     2
1070
   278
1070
    46
1070
   146
1040
0.777778
1070
   345
1005
16
1070
   347
1005
16
1070
   346
1005
16
1070
   344
1005
F2
1070
   343
1005
F2
1070
   172
1070
     1
1070
    76
1070
     0
1070
    75
1070
     0
1070
   282
1070
     0
1070
   281
1070
     0
1070
    71
1070
     0
1070
   272
1070
     4
1070
   271
1070
     4
1070
    74
1070
     0
1070
   279
1070
     0
1070
   173
1070
     1
1070
   340
1005
ED
1070
    77
1070
     1
1070
    73
1070
     1
1070
   171
1070
     4
1070
   274
1070
     4
1070
   177
1070
     7
1070
   176
1070
     7
1070
   178
1070
     7
1070
    41
1040
2.999994
1070
   147
1040
2.25
1070
    42
1040
1.499997
1070
    44
1040
2.999994
1070
   140
1040
4.5
1002
}
1001
ACAD_DSTYLE_DIM_LINETYPE
1070
   380
1005
16
1001
ACAD_DSTYLE_DIM_EXT1_LINETYPE
1070
   381
1005
16
1001
ACAD_DSTYLE_DIM_EXT2_LINETYPE
1070
   382
1005
16
0
ENDSEC
0
SECTION
2
OBJECTS
0
DICTIONARY
5
213
330
0
100
AcDbDictionary
280
0
281
1
3
ACAD_GROUP
350
214
3
ACAD_MLINESTYLE
350
215
0
DICTIONARY
5
214
330
0
100
AcDbDictionary
280
0
281
1
0
DICTIONARY
5
215
330
0
100
AcDbDictionary
280
0
281
1
3
Standard
350
18
0
MLINESTYLE
5
18
330
215
100
AcDbMlineStyle
2
Standard
70
0
3

62
256
51
90
52
90
71
2
49
-0.5
62
256
6
ByLayer
49
0.5
62
256
6
ByLayer
0
RASTERVARIABLES
5
201
330

100
AcDbRasterVariables
90
0
70
1
71
1
72
1
0
ENDSEC
0
EOF
