0
SECTION
2
HEADER
9
$ACADVER
1
AC1015
9
$DWGCODEPAGE
3
ANSI_1252
9
$HANDSEED
5
21d
9
$ANGBASE
50
0
9
$ANGDIR
70
0
9
$ATTMODE
70
1
9
$AUNITS
70
0
9
$AUPREC
70
0
9
$CECOLOR
62
256
9
$CELTSCALE
40
1
9
$CELTYPE
6
ByLayer
9
$CELWEIGHT
370
18
9
$CLAYER
8
0
9
$CMLJUST
70
0
9
$CMLSCALE
40
1
9
$CMLSTYLE
2
Standard
9
$DIMSTYLE
2
Standard
9
$TEXTSIZE
40
0.2
9
$TEXTSTYLE
7
Standard
9
$LUNITS
70
2
9
$LUPREC
70
4
9
$EXTNAMES
290
1
9
$INSUNITS
70
4
9
$LTSCALE
40
1
9
$LWDISPLAY
290
1
9
$PDMODE
70
0
9
$PDSIZE
40
0
9
$PLINEGEN
70
0
0
ENDSEC
0
SECTION
2
CLASSES
0
CLASS
1
RASTERVARIABLES
2
AcDbRasterVariables
3
ISM
90
0
280
0
281
0
0
ENDSEC
0
SECTION
2
TABLES
0
TABLE
2
VPORT
5
213
100
AcDbSymbolTable
0
VPORT
5
1
100
AcDbSymbolTableRecord
100
AcDbViewportTableRecord
2
*Active
70
0
10
0
20
0
11
1
21
1
12
-1
22
1
13
0
23
0
14
0.5
24
0.5
15
10
25
10
16
0
26
0
36
1
17
0
27
0
37
0
0
ENDTAB
0
TABLE
2
LTYPE
5
214
100
AcDbSymbolTable
0
LTYPE
5
14
100
AcDbSymbolTableRecord
100
AcDbLinetypeTableRecord
70
0
2
ByBlock
3

72
65
73
0
40
0
0
LTYPE
5
15
100
AcDbSymbolTableRecord
100
AcDbLinetypeTableRecord
70
0
2
ByLayer
3

72
65
73
0
40
0
0
LTYPE
5
16
100
AcDbSymbolTableRecord
100
AcDbLinetypeTableRecord
70
0
2
Continuous
3
Solid line
72
65
73
0
40
0
0
LTYPE
5
6E
100
AcDbSymbolTableRecord
100
AcDbLinetypeTableRecord
70
0
2
CENTER
3
____ _ ____ _ ____ _ ____
72
65
73
4
40
47.5
49
22
74
0
49
-8.5
74
0
49
8.5
74
0
49
-8.5
74
0
0
LTYPE
5
6F
100
AcDbSymbolTableRecord
100
AcDbLinetypeTableRecord
70
0
2
DASHED
3
__ __ __ __ __ __ __ __ __
72
65
73
2
40
25.72
49
12.86
74
0
49
-12.86
74
0
0
ENDTAB
0
TABLE
2
LAYER
5
215
100
AcDbSymbolTable
0
LAYER
5
10
100
AcDbSymbolTableRecord
100
AcDbLayerTableRecord
2
0
70
0
62
7
6
Continuous
290
1
370
-3
390
0
0
LAYER
5
71
100
AcDbSymbolTableRecord
100
AcDbLayerTableRecord
2
1
70
0
62
4
6
Continuous
290
1
370
-3
390
0
0
LAYER
5
79
100
AcDbSymbolTableRecord
100
AcDbLayerTableRecord
2
81
70
0
62
-3
6
Continuous
290
1
370
-3
390
0
0
LAYER
5
7B
100
AcDbSymbolTableRecord
100
AcDbLayerTableRecord
2
80
70
0
62
-6
6
Continuous
290
1
370
-3
390
0
0
LAYER
5
7F
100
AcDbSymbolTableRecord
100
AcDbLayerTableRecord
2
4
70
0
62
-2
6
CENTER
290
1
370
-3
390
0
0
LAYER
5
CE
100
AcDbSymbolTableRecord
100
AcDbLayerTableRecord
2
2
70
0
62
7
6
Continuous
290
1
370
-3
390
0
0
LAYER
5
F8
100
AcDbSymbolTableRecord
100
AcDbLayerTableRecord
2
Defpoints
70
0
62
7
6
Continuous
290
0
370
-3
390
0
0
LAYER
5
1ff
100
AcDbSymbolTableRecord
100
AcDbLayerTableRecord
2
SK1
70
0
62
4
6
Continuous
290
1
370
-3
390
0
0
LAYER
5
200
100
AcDbSymbolTableRecord
100
AcDbLayerTableRecord
2
SK4
70
0
62
2
6
CENTER
290
1
370
-3
390
0
0
LAYER
5
201
100
AcDbSymbolTableRecord
100
AcDbLayerTableRecord
2
SK6
70
0
62
5
6
Continuous
290
1
370
-3
390
0
0
LAYER
5
202
100
AcDbSymbolTableRecord
100
AcDbLayerTableRecord
2
SK2
70
0
62
7
6
Continuous
290
1
370
-3
390
0
0
ENDTAB
0
TABLE
2
STYLE
5
216
100
AcDbSymbolTable
0
STYLE
5
11
100
AcDbSymbolTableRecord
100
AcDbTextStyleTableRecord
2
Standard
3
txt
70
0
71
0
40
0
41
1
42
0
50
0
0
STYLE
5
EA
100
AcDbSymbolTableRecord
100
AcDbTextStyleTableRecord
2
iso_b_vert
3
simplex.shx
70
0
71
0
40
0
41
1
42
0
50
0
0
STYLE
5
EB
100
AcDbSymbolTableRecord
100
AcDbTextStyleTableRecord
2
DWGDirectTextStyle
3
simplex
70
0
71
0
40
0
41
1
42
0
50
0
0
ENDTAB
0
TABLE
2
DIMSTYLE
5
217
100
AcDbSymbolTable
100
AcDbDimStyleTable
0
DIMSTYLE
105
27
100
AcDbSymbolTableRecord
100
AcDbDimStyleTableRecord
2
Standard
70
0
3
<>
41
0.18
42
0.0625
44
0.18
140
0.18
147
0.09
73
0
74
0
77
1
271
2
275
0
278
52
280
0
340
11
0
ENDTAB
0
TABLE
2
VIEW
5
218
100
AcDbSymbolTable
0
ENDTAB
0
TABLE
2
UCS
5
219
100
AcDbSymbolTable
0
ENDTAB
0
TABLE
2
APPID
5
21a
100
AcDbSymbolTable
0
APPID
5
12
100
AcDbSymbolTableRecord
100
AcDbRegAppTableRecord
2
ACAD
70
0
0
APPID
5
ED
100
AcDbSymbolTableRecord
100
AcDbRegAppTableRecord
2
ACAD_DSTYLE_DIMBREAK
70
0
0
APPID
5
1BE
100
AcDbSymbolTableRecord
100
AcDbRegAppTableRecord
2
ACAD_DSTYLE_DIM_LINETYPE
70
0
0
APPID
5
1BF
100
AcDbSymbolTableRecord
100
AcDbRegAppTableRecord
2
ACAD_DSTYLE_DIM_EXT1_LINETYPE
70
0
0
APPID
5
1C0
100
AcDbSymbolTableRecord
100
AcDbRegAppTableRecord
2
ACAD_DSTYLE_DIM_EXT2_LINETYPE
70
0
0
APPID
5
1FB
100
AcDbSymbolTableRecord
100
AcDbRegAppTableRecord
2
ACAD_MLEADERVER
70
0
0
ENDTAB
0
TABLE
2
BLOCK_RECORD
5
21b
100
AcDbSymbolTable
0
BLOCK_RECORD
5
1F
100
AcDbSymbolTableRecord
100
AcDbBlockTableRecord
2
*Model_Space
340
0
70
0
0
BLOCK_RECORD
5
1B
100
AcDbSymbolTableRecord
100
AcDbBlockTableRecord
2
*Paper_Space
340
0
70
0
0
BLOCK_RECORD
5
23
100
AcDbSymbolTableRecord
100
AcDbBlockTableRecord
2
*Paper_Space0
340
0
70
0
0
BLOCK_RECORD
5
EF
100
AcDbSymbolTableRecord
100
AcDbBlockTableRecord
2
_Closed
340
0
70
0
0
BLOCK_RECORD
5
F9
100
AcDbSymbolTableRecord
100
AcDbBlockTableRecord
2
*D2
340
0
70
0
0
BLOCK_RECORD
5
106
100
AcDbSymbolTableRecord
100
AcDbBlockTableRecord
2
_U0
340
0
70
0
0
BLOCK_RECORD
5
116
100
AcDbSymbolTableRecord
100
AcDbBlockTableRecord
2
*D4
340
0
70
0
0
BLOCK_RECORD
5
123
100
AcDbSymbolTableRecord
100
AcDbBlockTableRecord
2
_U1
340
0
70
0
0
BLOCK_RECORD
5
133
100
AcDbSymbolTableRecord
100
AcDbBlockTableRecord
2
*D6
340
0
70
0
0
BLOCK_RECORD
5
13F
100
AcDbSymbolTableRecord
100
AcDbBlockTableRecord
2
_U2
340
0
70
0
0
BLOCK_RECORD
5
14F
100
AcDbSymbolTableRecord
100
AcDbBlockTableRecord
2
*D8
340
0
70
0
0
BLOCK_RECORD
5
15B
100
AcDbSymbolTableRecord
100
AcDbBlockTableRecord
2
_U3
340
0
70
0
0
BLOCK_RECORD
5
16B
100
AcDbSymbolTableRecord
100
AcDbBlockTableRecord
2
*D10
340
0
70
0
0
BLOCK_RECORD
5
177
100
AcDbSymbolTableRecord
100
AcDbBlockTableRecord
2
_U4
340
0
70
0
0
BLOCK_RECORD
5
187
100
AcDbSymbolTableRecord
100
AcDbBlockTableRecord
2
*D12
340
0
70
0
0
BLOCK_RECORD
5
193
100
AcDbSymbolTableRecord
100
AcDbBlockTableRecord
2
_U5
340
0
70
0
0
ENDTAB
0
ENDSEC
0
SECTION
2
BLOCKS
0
BLOCK
5
20
100
AcDbEntity
8
0
100
AcDbBlockBegin
2
*Model_Space
70
0
10
0
20
0
30
0
3
*Model_Space
0
ENDBLK
5
21
100
AcDbEntity
8
0
100
AcDbBlockEnd
0
BLOCK
5
1C
100
AcDbEntity
8
0
100
AcDbBlockBegin
2
*Paper_Space
70
0
10
0
20
0
30
0
3
*Paper_Space
0
ENDBLK
5
1D
100
AcDbEntity
8
0
100
AcDbBlockEnd
0
BLOCK
5
24
100
AcDbEntity
8
0
100
AcDbBlockBegin
2
*Paper_Space0
70
0
10
0
20
0
30
0
3
*Paper_Space0
0
ENDBLK
5
25
100
AcDbEntity
8
0
100
AcDbBlockEnd
0
BLOCK
5
F0
100
AcDbEntity
8
0
100
AcDbBlockBegin
2
_Closed
70
0
10
0
20
0
30
0
3
_Closed
0
LINE
5
F2
100
AcDbEntity
8
0
62
256
6
ByLayer
370
-2
48
1
60
0
100
AcDbLine
10
-1
20
0.166667
30
0
11
0
21
0
31
0
39
0
210
0
220
0
230
1
0
LINE
5
F3
100
AcDbEntity
8
0
62
256
6
ByLayer
370
-2
48
1
60
0
100
AcDbLine
10
0
20
0
30
0
11
-1
21
-0.166667
31
0
39
0
210
0
220
0
230
1
0
LINE
5
F4
100
AcDbEntity
8
0
62
256
6
ByLayer
370
-2
48
1
60
0
100
AcDbLine
10
-1
20
0.166667
30
0
11
-1
21
-0.166667
31
0
39
0
210
0
220
0
230
1
0
LINE
5
F5
100
AcDbEntity
8
0
62
256
6
ByLayer
370
-2
48
1
60
0
100
AcDbLine
10
0
20
0
30
0
11
-1
21
0
31
0
39
0
210
0
220
0
230
1
0
ENDBLK
5
F1
100
AcDbEntity
8
0
100
AcDbBlockEnd
0
BLOCK
5
FA
100
AcDbEntity
8
0
100
AcDbBlockBegin
2
*D2
70
1
10
0
20
0
30
0
3
*D2
0
LINE
5
FC
100
AcDbEntity
8
0
62
256
6
ByLayer
370
-2
48
1
60
0
100
AcDbLine
10
65.799997
20
8
30
0
11
69.549994
21
8
31
0
39
0
210
0
220
0
230
1
0
LINE
5
FD
100
AcDbEntity
8
0
62
256
6
ByLayer
370
-2
48
1
60
0
100
AcDbLine
10
65.799997
20
-8
30
0
11
69.549994
21
-8
31
0
39
0
210
0
220
0
230
1
0
LINE
5
FE
100
AcDbEntity
8
0
62
256
6
ByLayer
370
-2
48
1
60
0
100
AcDbLine
10
66.55
20
10.999994
30
0
11
66.55
21
13.999988
31
0
39
0
210
0
220
0
230
1
0
LINE
5
FF
100
AcDbEntity
8
0
62
256
6
ByLayer
370
-2
48
1
60
0
100
AcDbLine
10
66.55
20
-10.999994
30
0
11
66.55
21
-13.999988
31
0
39
0
210
0
220
0
230
1
0
SOLID
5
100
100
AcDbEntity
8
0
62
256
6
ByLayer
370
-1
48
1
60
0
100
AcDbTrace
10
66.050001
20
10.999994
30
0
11
67.049999
21
10.999994
31
0
12
66.55
22
8
32
0
13
66.55
23
8
33
0
39
0
210
0
220
0
230
1
0
SOLID
5
101
100
AcDbEntity
8
0
62
256
6
ByLayer
370
-1
48
1
60
0
100
AcDbTrace
10
67.049999
20
-10.999994
30
0
11
66.050001
21
-10.999994
31
0
12
66.55
22
-8
32
0
13
66.55
23
-8
33
0
39
0
210
0
220
0
230
1
0
MTEXT
5
102
100
AcDbEntity
8
0
62
256
6
ByLayer
370
18
48
1
60
0
100
AcDbMText
10
57.550013
20
0
30
0
210
0
220
0
230
1
1
\A1;16.0000
40
4.5
41
0
44
1
50
90
71
5
72
5
7
iso_b_vert
0
POINT
5
103
100
AcDbEntity
8
Defpoints
62
0
6
ByLayer
370
-1
48
1
60
0
100
AcDbPoint
10
64.3
20
8
30
0
39
0
210
0
220
0
230
1
50
360
0
POINT
5
104
100
AcDbEntity
8
Defpoints
62
0
6
ByLayer
370
-1
48
1
60
0
100
AcDbPoint
10
64.3
20
-8
30
0
39
0
210
0
220
0
230
1
50
360
0
POINT
5
105
100
AcDbEntity
8
Defpoints
62
0
6
ByLayer
370
-1
48
1
60
0
100
AcDbPoint
10
66.55
20
-8
30
0
39
0
210
0
220
0
230
1
50
360
0
ENDBLK
5
FB
100
AcDbEntity
8
0
100
AcDbBlockEnd
0
BLOCK
5
111
100
AcDbEntity
8
0
100
AcDbBlockBegin
2
_U0
70
0
10
0
20
0
30
0
3
_U0
0
MTEXT
5
107
100
AcDbEntity
8
2
62
256
6
ByLayer
370
18
48
1
60
0
100
AcDbMText
10
65.663328
20
-4.107556
30
0
210
0
220
0
230
1
1
\W0.7849;%%c16
40
4.5
41
0
44
1.084337
50
90
71
7
72
5
7
iso_b_vert
0
LINE
5
108
100
AcDbEntity
8
2
62
256
6
ByLayer
370
13
48
1
60
0
100
AcDbLine
10
65.799997
20
8
30
0
11
69.549994
21
8
31
0
39
0
210
0
220
0
230
1
0
LINE
5
109
100
AcDbEntity
8
2
62
256
6
ByLayer
370
13
48
1
60
0
100
AcDbLine
10
65.799997
20
-8
30
0
11
69.549994
21
-8
31
0
39
0
210
0
220
0
230
1
0
LINE
5
10A
100
AcDbEntity
8
2
62
256
6
ByLayer
370
13
48
1
60
0
100
AcDbLine
10
66.55
20
8
30
0
11
66.55
21
-8
31
0
39
0
210
0
220
0
230
1
0
LINE
5
10B
100
AcDbEntity
8
2
62
256
6
ByLayer
370
13
48
1
60
0
100
AcDbLine
10
66.55
20
8
30
0
11
67.049999
21
5.000008
31
0
39
0
210
0
220
0
230
1
0
LINE
5
10C
100
AcDbEntity
8
2
62
256
6
ByLayer
370
13
48
1
60
0
100
AcDbLine
10
66.55
20
8
30
0
11
66.050001
21
5.000004
31
0
39
0
210
0
220
0
230
1
0
LINE
5
10D
100
AcDbEntity
8
2
62
256
6
ByLayer
370
13
48
1
60
0
100
AcDbLine
10
67.049999
20
5.000008
30
0
11
66.050001
21
5.000004
31
0
39
0
210
0
220
0
230
1
0
LINE
5
10E
100
AcDbEntity
8
2
62
256
6
ByLayer
370
13
48
1
60
0
100
AcDbLine
10
66.55
20
-8
30
0
11
66.050001
21
-5.000008
31
0
39
0
210
0
220
0
230
1
0
LINE
5
10F
100
AcDbEntity
8
2
62
256
6
ByLayer
370
13
48
1
60
0
100
AcDbLine
10
66.55
20
-8
30
0
11
67.049999
21
-5.000004
31
0
39
0
210
0
220
0
230
1
0
LINE
5
110
100
AcDbEntity
8
2
62
256
6
ByLayer
370
13
48
1
60
0
100
AcDbLine
10
66.050001
20
-5.000008
30
0
11
67.049999
21
-5.000004
31
0
39
0
210
0
220
0
230
1
0
ENDBLK
5
112
100
AcDbEntity
8
0
100
AcDbBlockEnd
0
BLOCK
5
117
100
AcDbEntity
8
0
100
AcDbBlockBegin
2
*D4
70
1
10
0
20
0
30
0
3
*D4
0
LINE
5
119
100
AcDbEntity
8
0
62
256
6
ByLayer
370
-2
48
1
60
0
100
AcDbLine
10
-50.499997
20
-10
30
0
11
-64.449994
21
-10
31
0
39
0
210
0
220
0
230
1
0
LINE
5
11A
100
AcDbEntity
8
0
62
256
6
ByLayer
370
-2
48
1
60
0
100
AcDbLine
10
-50.499997
20
10
30
0
11
-64.449994
21
10
31
0
39
0
210
0
220
0
230
1
0
LINE
5
11B
100
AcDbEntity
8
0
62
256
6
ByLayer
370
-2
48
1
60
0
100
AcDbLine
10
-61.45
20
-7.000006
30
0
11
-61.45
21
7.000006
31
0
39
0
210
0
220
0
230
1
0
SOLID
5
11C
100
AcDbEntity
8
0
62
256
6
ByLayer
370
-1
48
1
60
0
100
AcDbTrace
10
-61.949999
20
-7.000006
30
0
11
-60.950001
21
-7.000006
31
0
12
-61.45
22
-10
32
0
13
-61.45
23
-10
33
0
39
0
210
0
220
0
230
1
0
SOLID
5
11D
100
AcDbEntity
8
0
62
256
6
ByLayer
370
-1
48
1
60
0
100
AcDbTrace
10
-60.950001
20
7.000006
30
0
11
-61.949999
21
7.000006
31
0
12
-61.45
22
10
32
0
13
-61.45
23
10
33
0
39
0
210
0
220
0
230
1
0
MTEXT
5
11E
100
AcDbEntity
8
0
62
256
6
ByLayer
370
18
48
1
60
0
100
AcDbMText
10
-70.449986
20
0
30
0
210
0
220
0
230
1
1
\A1;20.0000
40
4.5
41
0
44
1
50
90
71
5
72
5
7
iso_b_vert
0
POINT
5
11F
100
AcDbEntity
8
Defpoints
62
0
6
ByLayer
370
-1
48
1
60
0
100
AcDbPoint
10
-49
20
-10
30
0
39
0
210
0
220
0
230
1
50
360
0
POINT
5
120
100
AcDbEntity
8
Defpoints
62
0
6
ByLayer
370
-1
48
1
60
0
100
AcDbPoint
10
-49
20
10
30
0
39
0
210
0
220
0
230
1
50
360
0
POINT
5
121
100
AcDbEntity
8
Defpoints
62
0
6
ByLayer
370
-1
48
1
60
0
100
AcDbPoint
10
-61.45
20
10
30
0
39
0
210
0
220
0
230
1
50
360
0
ENDBLK
5
118
100
AcDbEntity
8
0
100
AcDbBlockEnd
0
BLOCK
5
12E
100
AcDbEntity
8
0
100
AcDbBlockBegin
2
_U1
70
0
10
0
20
0
30
0
3
_U1
0
MTEXT
5
124
100
AcDbEntity
8
SK2
62
256
6
ByLayer
370
18
48
1
60
0
100
AcDbMText
10
-62.336672
20
-4.669971
30
0
210
0
220
0
230
1
1
\W0.8879;%%c20
40
4.5
41
0
44
1.084337
50
90
71
7
72
5
7
iso_b_vert
0
LINE
5
125
100
AcDbEntity
8
SK2
62
256
6
ByLayer
370
13
48
1
60
0
100
AcDbLine
10
-50.499997
20
-10
30
0
11
-64.449994
21
-10
31
0
39
0
210
0
220
0
230
1
0
LINE
5
126
100
AcDbEntity
8
SK2
62
256
6
ByLayer
370
13
48
1
60
0
100
AcDbLine
10
-50.499997
20
10
30
0
11
-64.449994
21
10
31
0
39
0
210
0
220
0
230
1
0
LINE
5
127
100
AcDbEntity
8
SK2
62
256
6
ByLayer
370
13
48
1
60
0
100
AcDbLine
10
-61.45
20
-10
30
0
11
-61.45
21
10
31
0
39
0
210
0
220
0
230
1
0
LINE
5
128
100
AcDbEntity
8
SK2
62
256
6
ByLayer
370
13
48
1
60
0
100
AcDbLine
10
-61.45
20
-10
30
0
11
-61.949999
21
-7.000008
31
0
39
0
210
0
220
0
230
1
0
LINE
5
129
100
AcDbEntity
8
SK2
62
256
6
ByLayer
370
13
48
1
60
0
100
AcDbLine
10
-61.45
20
-10
30
0
11
-60.950001
21
-7.000004
31
0
39
0
210
0
220
0
230
1
0
LINE
5
12A
100
AcDbEntity
8
SK2
62
256
6
ByLayer
370
13
48
1
60
0
100
AcDbLine
10
-61.949999
20
-7.000008
30
0
11
-60.950001
21
-7.000004
31
0
39
0
210
0
220
0
230
1
0
LINE
5
12B
100
AcDbEntity
8
SK2
62
256
6
ByLayer
370
13
48
1
60
0
100
AcDbLine
10
-61.45
20
10
30
0
11
-60.950001
21
7.000008
31
0
39
0
210
0
220
0
230
1
0
LINE
5
12C
100
AcDbEntity
8
SK2
62
256
6
ByLayer
370
13
48
1
60
0
100
AcDbLine
10
-61.45
20
10
30
0
11
-61.949999
21
7.000004
31
0
39
0
210
0
220
0
230
1
0
LINE
5
12D
100
AcDbEntity
8
SK2
62
256
6
ByLayer
370
13
48
1
60
0
100
AcDbLine
10
-60.950001
20
7.000008
30
0
11
-61.949999
21
7.000004
31
0
39
0
210
0
220
0
230
1
0
ENDBLK
5
12F
100
AcDbEntity
8
0
100
AcDbBlockEnd
0
BLOCK
5
134
100
AcDbEntity
8
0
100
AcDbBlockBegin
2
*D6
70
1
10
0
20
0
30
0
3
*D6
0
LINE
5
136
100
AcDbEntity
8
0
62
256
6
ByLayer
370
-2
48
1
60
0
100
AcDbLine
10
50.663982
20
-3.08019
30
0
11
50.663982
21
33.499994
31
0
39
0
210
0
220
0
230
1
0
LINE
5
137
100
AcDbEntity
8
0
62
256
6
ByLayer
370
-2
48
1
60
0
100
AcDbLine
10
15
20
9.599997
30
0
11
15
21
33.499994
31
0
39
0
210
0
220
0
230
1
0
LINE
5
138
100
AcDbEntity
8
0
62
256
6
ByLayer
370
-2
48
1
60
0
100
AcDbLine
10
47.663988
20
30.5
30
0
11
17.999994
21
30.5
31
0
39
0
210
0
220
0
230
1
0
SOLID
5
139
100
AcDbEntity
8
0
62
256
6
ByLayer
370
-1
48
1
60
0
100
AcDbTrace
10
47.663988
20
30.000001
30
0
11
47.663988
21
30.999999
31
0
12
50.663982
22
30.5
32
0
13
50.663982
23
30.5
33
0
39
0
210
0
220
0
230
1
0
SOLID
5
13A
100
AcDbEntity
8
0
62
256
6
ByLayer
370
-1
48
1
60
0
100
AcDbTrace
10
17.999994
20
30.999999
30
0
11
17.999994
21
30.000001
31
0
12
15
22
30.5
32
0
13
15
23
30.5
33
0
39
0
210
0
220
0
230
1
0
MTEXT
5
13B
100
AcDbEntity
8
0
62
256
6
ByLayer
370
18
48
1
60
0
100
AcDbMText
10
32.9
20
39.499986
30
0
210
0
220
0
230
1
1
\A1;35.6640
40
4.5
41
0
44
1
50
0
71
5
72
5
7
iso_b_vert
0
POINT
5
13C
100
AcDbEntity
8
Defpoints
62
0
6
ByLayer
370
-1
48
1
60
0
100
AcDbPoint
10
50.663982
20
-4.580187
30
0
39
0
210
0
220
0
230
1
50
360
0
POINT
5
13D
100
AcDbEntity
8
Defpoints
62
0
6
ByLayer
370
-1
48
1
60
0
100
AcDbPoint
10
15
20
8.1
30
0
39
0
210
0
220
0
230
1
50
360
0
POINT
5
13E
100
AcDbEntity
8
Defpoints
62
0
6
ByLayer
370
-1
48
1
60
0
100
AcDbPoint
10
15
20
30.5
30
0
39
0
210
0
220
0
230
1
50
360
0
ENDBLK
5
135
100
AcDbEntity
8
0
100
AcDbBlockEnd
0
BLOCK
5
14A
100
AcDbEntity
8
0
100
AcDbBlockBegin
2
_U2
70
0
10
0
20
0
30
0
3
_U2
0
MTEXT
5
140
100
AcDbEntity
8
2
62
256
6
ByLayer
370
18
48
1
60
0
100
AcDbMText
10
27.857816
20
31.827672
30
0
210
0
220
0
230
1
1
\W0.7346;36.0
40
4.5
41
0
44
1.084337
50
0
71
7
72
5
7
iso_b_vert
0
LINE
5
141
100
AcDbEntity
8
2
62
256
6
ByLayer
370
13
48
1
60
0
100
AcDbLine
10
50.663982
20
-3.08019
30
0
11
50.663982
21
33.499994
31
0
39
0
210
0
220
0
230
1
0
LINE
5
142
100
AcDbEntity
8
2
62
256
6
ByLayer
370
13
48
1
60
0
100
AcDbLine
10
15
20
9.599997
30
0
11
15
21
33.499994
31
0
39
0
210
0
220
0
230
1
0
LINE
5
143
100
AcDbEntity
8
2
62
256
6
ByLayer
370
13
48
1
60
0
100
AcDbLine
10
50.663982
20
30.5
30
0
11
15
21
30.5
31
0
39
0
210
0
220
0
230
1
0
LINE
5
144
100
AcDbEntity
8
2
62
256
6
ByLayer
370
13
48
1
60
0
100
AcDbLine
10
50.663982
20
30.5
30
0
11
47.663989
21
30.000001
31
0
39
0
210
0
220
0
230
1
0
LINE
5
145
100
AcDbEntity
8
2
62
256
6
ByLayer
370
13
48
1
60
0
100
AcDbLine
10
50.663982
20
30.5
30
0
11
47.663986
21
30.999999
31
0
39
0
210
0
220
0
230
1
0
LINE
5
146
100
AcDbEntity
8
2
62
256
6
ByLayer
370
13
48
1
60
0
100
AcDbLine
10
47.663989
20
30.000001
30
0
11
47.663986
21
30.999999
31
0
39
0
210
0
220
0
230
1
0
LINE
5
147
100
AcDbEntity
8
2
62
256
6
ByLayer
370
13
48
1
60
0
100
AcDbLine
10
15
20
30.5
30
0
11
17.999992
21
30.999999
31
0
39
0
210
0
220
0
230
1
0
LINE
5
148
100
AcDbEntity
8
2
62
256
6
ByLayer
370
13
48
1
60
0
100
AcDbLine
10
15
20
30.5
30
0
11
17.999996
21
30.000001
31
0
39
0
210
0
220
0
230
1
0
LINE
5
149
100
AcDbEntity
8
2
62
256
6
ByLayer
370
13
48
1
60
0
100
AcDbLine
10
17.999992
20
30.999999
30
0
11
17.999996
21
30.000001
31
0
39
0
210
0
220
0
230
1
0
ENDBLK
5
14B
100
AcDbEntity
8
0
100
AcDbBlockEnd
0
BLOCK
5
150
100
AcDbEntity
8
0
100
AcDbBlockBegin
2
*D8
70
1
10
0
20
0
30
0
3
*D8
0
LINE
5
152
100
AcDbEntity
8
0
62
256
6
ByLayer
370
-2
48
1
60
0
100
AcDbLine
10
0
20
1.499997
30
0
11
0
21
44.749994
31
0
39
0
210
0
220
0
230
1
0
LINE
5
153
100
AcDbEntity
8
0
62
256
6
ByLayer
370
-2
48
1
60
0
100
AcDbLine
10
-50
20
10.499997
30
0
11
-50
21
44.749994
31
0
39
0
210
0
220
0
230
1
0
LINE
5
154
100
AcDbEntity
8
0
62
256
6
ByLayer
370
-2
48
1
60
0
100
AcDbLine
10
-2.999994
20
41.75
30
0
11
-47.000006
21
41.75
31
0
39
0
210
0
220
0
230
1
0
SOLID
5
155
100
AcDbEntity
8
0
62
256
6
ByLayer
370
-1
48
1
60
0
100
AcDbTrace
10
-2.999994
20
41.250001
30
0
11
-2.999994
21
42.249999
31
0
12
0
22
41.75
32
0
13
0
23
41.75
33
0
39
0
210
0
220
0
230
1
0
SOLID
5
156
100
AcDbEntity
8
0
62
256
6
ByLayer
370
-1
48
1
60
0
100
AcDbTrace
10
-47.000006
20
42.249999
30
0
11
-47.000006
21
41.250001
31
0
12
-50
22
41.75
32
0
13
-50
23
41.75
33
0
39
0
210
0
220
0
230
1
0
MTEXT
5
157
100
AcDbEntity
8
0
62
256
6
ByLayer
370
18
48
1
60
0
100
AcDbMText
10
-25.1
20
50.749986
30
0
210
0
220
0
230
1
1
\A1;50.0000
40
4.5
41
0
44
1
50
0
71
5
72
5
7
iso_b_vert
0
POINT
5
158
100
AcDbEntity
8
Defpoints
62
0
6
ByLayer
370
-1
48
1
60
0
100
AcDbPoint
10
0
20
0
30
0
39
0
210
0
220
0
230
1
50
360
0
POINT
5
159
100
AcDbEntity
8
Defpoints
62
0
6
ByLayer
370
-1
48
1
60
0
100
AcDbPoint
10
-50
20
9
30
0
39
0
210
0
220
0
230
1
50
360
0
POINT
5
15A
100
AcDbEntity
8
Defpoints
62
0
6
ByLayer
370
-1
48
1
60
0
100
AcDbPoint
10
-50
20
41.75
30
0
39
0
210
0
220
0
230
1
50
360
0
ENDBLK
5
151
100
AcDbEntity
8
0
100
AcDbBlockEnd
0
BLOCK
5
166
100
AcDbEntity
8
0
100
AcDbBlockBegin
2
_U3
70
0
10
0
20
0
30
0
3
_U3
0
MTEXT
5
15C
100
AcDbEntity
8
SK2
62
256
6
ByLayer
370
18
48
1
60
0
100
AcDbMText
10
-30.142184
20
43.077672
30
0
210
0
220
0
230
1
1
\W0.7346;50.0
40
4.5
41
0
44
1.084337
50
0
71
7
72
5
7
iso_b_vert
0
LINE
5
15D
100
AcDbEntity
8
SK2
62
256
6
ByLayer
370
13
48
1
60
0
100
AcDbLine
10
0
20
1.499997
30
0
11
0
21
44.749994
31
0
39
0
210
0
220
0
230
1
0
LINE
5
15E
100
AcDbEntity
8
SK2
62
256
6
ByLayer
370
13
48
1
60
0
100
AcDbLine
10
-50
20
10.499997
30
0
11
-50
21
44.749994
31
0
39
0
210
0
220
0
230
1
0
LINE
5
15F
100
AcDbEntity
8
SK2
62
256
6
ByLayer
370
13
48
1
60
0
100
AcDbLine
10
0
20
41.75
30
0
11
-50
21
41.75
31
0
39
0
210
0
220
0
230
1
0
LINE
5
160
100
AcDbEntity
8
SK2
62
256
6
ByLayer
370
13
48
1
60
0
100
AcDbLine
10
0
20
41.75
30
0
11
-2.999992
21
41.250001
31
0
39
0
210
0
220
0
230
1
0
LINE
5
161
100
AcDbEntity
8
SK2
62
256
6
ByLayer
370
13
48
1
60
0
100
AcDbLine
10
0
20
41.75
30
0
11
-2.999996
21
42.249999
31
0
39
0
210
0
220
0
230
1
0
LINE
5
162
100
AcDbEntity
8
SK2
62
256
6
ByLayer
370
13
48
1
60
0
100
AcDbLine
10
-2.999992
20
41.250001
30
0
11
-2.999996
21
42.249999
31
0
39
0
210
0
220
0
230
1
0
LINE
5
163
100
AcDbEntity
8
SK2
62
256
6
ByLayer
370
13
48
1
60
0
100
AcDbLine
10
-50
20
41.75
30
0
11
-47.000008
21
42.249999
31
0
39
0
210
0
220
0
230
1
0
LINE
5
164
100
AcDbEntity
8
SK2
62
256
6
ByLayer
370
13
48
1
60
0
100
AcDbLine
10
-50
20
41.75
30
0
11
-47.000004
21
41.250001
31
0
39
0
210
0
220
0
230
1
0
LINE
5
165
100
AcDbEntity
8
SK2
62
256
6
ByLayer
370
13
48
1
60
0
100
AcDbLine
10
-47.000008
20
42.249999
30
0
11
-47.000004
21
41.250001
31
0
39
0
210
0
220
0
230
1
0
ENDBLK
5
167
100
AcDbEntity
8
0
100
AcDbBlockEnd
0
BLOCK
5
16C
100
AcDbEntity
8
0
100
AcDbBlockBegin
2
*D10
70
1
10
0
20
0
30
0
3
*D10
0
LINE
5
16E
100
AcDbEntity
8
0
62
256
6
ByLayer
370
-2
48
1
60
0
100
AcDbLine
10
50.663982
20
-3.08019
30
0
11
50.663982
21
55.999994
31
0
39
0
210
0
220
0
230
1
0
LINE
5
16F
100
AcDbEntity
8
0
62
256
6
ByLayer
370
-2
48
1
60
0
100
AcDbLine
10
-50
20
10.499997
30
0
11
-50
21
55.999994
31
0
39
0
210
0
220
0
230
1
0
LINE
5
170
100
AcDbEntity
8
0
62
256
6
ByLayer
370
-2
48
1
60
0
100
AcDbLine
10
47.663988
20
53
30
0
11
-47.000006
21
53
31
0
39
0
210
0
220
0
230
1
0
SOLID
5
171
100
AcDbEntity
8
0
62
256
6
ByLayer
370
-1
48
1
60
0
100
AcDbTrace
10
47.663988
20
52.500001
30
0
11
47.663988
21
53.499999
31
0
12
50.663982
22
53
32
0
13
50.663982
23
53
33
0
39
0
210
0
220
0
230
1
0
SOLID
5
172
100
AcDbEntity
8
0
62
256
6
ByLayer
370
-1
48
1
60
0
100
AcDbTrace
10
-47.000006
20
53.499999
30
0
11
-47.000006
21
52.500001
31
0
12
-50
22
53
32
0
13
-50
23
53
33
0
39
0
210
0
220
0
230
1
0
MTEXT
5
173
100
AcDbEntity
8
0
62
256
6
ByLayer
370
18
48
1
60
0
100
AcDbMText
10
0.3
20
61.999986
30
0
210
0
220
0
230
1
1
\A1;100.6640
40
4.5
41
0
44
1
50
0
71
5
72
5
7
iso_b_vert
0
POINT
5
174
100
AcDbEntity
8
Defpoints
62
0
6
ByLayer
370
-1
48
1
60
0
100
AcDbPoint
10
50.663982
20
-4.580187
30
0
39
0
210
0
220
0
230
1
50
360
0
POINT
5
175
100
AcDbEntity
8
Defpoints
62
0
6
ByLayer
370
-1
48
1
60
0
100
AcDbPoint
10
-50
20
9
30
0
39
0
210
0
220
0
230
1
50
360
0
POINT
5
176
100
AcDbEntity
8
Defpoints
62
0
6
ByLayer
370
-1
48
1
60
0
100
AcDbPoint
10
-50
20
53
30
0
39
0
210
0
220
0
230
1
50
360
0
ENDBLK
5
16D
100
AcDbEntity
8
0
100
AcDbBlockEnd
0
BLOCK
5
182
100
AcDbEntity
8
0
100
AcDbBlockBegin
2
_U4
70
0
10
0
20
0
30
0
3
_U4
0
MTEXT
5
178
100
AcDbEntity
8
SK2
62
256
6
ByLayer
370
18
48
1
60
0
100
AcDbMText
10
-7.121869
20
54.327672
30
0
210
0
220
0
230
1
1
\W0.6246;(101.0)
40
4.5
41
0
44
1.084337
50
0
71
7
72
5
7
iso_b_vert
0
LINE
5
179
100
AcDbEntity
8
SK2
62
256
6
ByLayer
370
13
48
1
60
0
100
AcDbLine
10
50.663982
20
-3.08019
30
0
11
50.663982
21
55.999994
31
0
39
0
210
0
220
0
230
1
0
LINE
5
17A
100
AcDbEntity
8
SK2
62
256
6
ByLayer
370
13
48
1
60
0
100
AcDbLine
10
-50
20
10.499997
30
0
11
-50
21
55.999994
31
0
39
0
210
0
220
0
230
1
0
LINE
5
17B
100
AcDbEntity
8
SK2
62
256
6
ByLayer
370
13
48
1
60
0
100
AcDbLine
10
50.663982
20
53
30
0
11
-50
21
53
31
0
39
0
210
0
220
0
230
1
0
LINE
5
17C
100
AcDbEntity
8
SK2
62
256
6
ByLayer
370
13
48
1
60
0
100
AcDbLine
10
50.663982
20
53
30
0
11
47.663989
21
52.500001
31
0
39
0
210
0
220
0
230
1
0
LINE
5
17D
100
AcDbEntity
8
SK2
62
256
6
ByLayer
370
13
48
1
60
0
100
AcDbLine
10
50.663982
20
53
30
0
11
47.663986
21
53.499999
31
0
39
0
210
0
220
0
230
1
0
LINE
5
17E
100
AcDbEntity
8
SK2
62
256
6
ByLayer
370
13
48
1
60
0
100
AcDbLine
10
47.663989
20
52.500001
30
0
11
47.663986
21
53.499999
31
0
39
0
210
0
220
0
230
1
0
LINE
5
17F
100
AcDbEntity
8
SK2
62
256
6
ByLayer
370
13
48
1
60
0
100
AcDbLine
10
-50
20
53
30
0
11
-47.000008
21
53.499999
31
0
39
0
210
0
220
0
230
1
0
LINE
5
180
100
AcDbEntity
8
SK2
62
256
6
ByLayer
370
13
48
1
60
0
100
AcDbLine
10
-50
20
53
30
0
11
-47.000004
21
52.500001
31
0
39
0
210
0
220
0
230
1
0
LINE
5
181
100
AcDbEntity
8
SK2
62
256
6
ByLayer
370
13
48
1
60
0
100
AcDbLine
10
-47.000008
20
53.499999
30
0
11
-47.000004
21
52.500001
31
0
39
0
210
0
220
0
230
1
0
ENDBLK
5
183
100
AcDbEntity
8
0
100
AcDbBlockEnd
0
BLOCK
5
188
100
AcDbEntity
8
0
100
AcDbBlockBegin
2
*D12
70
1
10
0
20
0
30
0
3
*D12
0
LINE
5
18A
100
AcDbEntity
8
0
62
256
6
ByLayer
370
-2
48
1
60
0
100
AcDbLine
10
50.663982
20
-3.08019
30
0
11
50.663982
21
44.749994
31
0
39
0
210
0
220
0
230
1
0
LINE
5
18B
100
AcDbEntity
8
0
62
256
6
ByLayer
370
-2
48
1
60
0
100
AcDbLine
10
0
20
1.499997
30
0
11
0
21
44.749994
31
0
39
0
210
0
220
0
230
1
0
LINE
5
18C
100
AcDbEntity
8
0
62
256
6
ByLayer
370
-2
48
1
60
0
100
AcDbLine
10
47.663988
20
41.75
30
0
11
2.999994
21
41.75
31
0
39
0
210
0
220
0
230
1
0
SOLID
5
18D
100
AcDbEntity
8
0
62
256
6
ByLayer
370
-1
48
1
60
0
100
AcDbTrace
10
47.663988
20
41.250001
30
0
11
47.663988
21
42.249999
31
0
12
50.663982
22
41.75
32
0
13
50.663982
23
41.75
33
0
39
0
210
0
220
0
230
1
0
SOLID
5
18E
100
AcDbEntity
8
0
62
256
6
ByLayer
370
-1
48
1
60
0
100
AcDbTrace
10
2.999994
20
42.249999
30
0
11
2.999994
21
41.250001
31
0
12
0
22
41.75
32
0
13
0
23
41.75
33
0
39
0
210
0
220
0
230
1
0
MTEXT
5
18F
100
AcDbEntity
8
0
62
256
6
ByLayer
370
18
48
1
60
0
100
AcDbMText
10
25.4
20
50.749986
30
0
210
0
220
0
230
1
1
\A1;50.6640
40
4.5
41
0
44
1
50
0
71
5
72
5
7
iso_b_vert
0
POINT
5
190
100
AcDbEntity
8
Defpoints
62
0
6
ByLayer
370
-1
48
1
60
0
100
AcDbPoint
10
50.663982
20
-4.580187
30
0
39
0
210
0
220
0
230
1
50
360
0
POINT
5
191
100
AcDbEntity
8
Defpoints
62
0
6
ByLayer
370
-1
48
1
60
0
100
AcDbPoint
10
0
20
0
30
0
39
0
210
0
220
0
230
1
50
360
0
POINT
5
192
100
AcDbEntity
8
Defpoints
62
0
6
ByLayer
370
-1
48
1
60
0
100
AcDbPoint
10
0
20
41.75
30
0
39
0
210
0
220
0
230
1
50
360
0
ENDBLK
5
189
100
AcDbEntity
8
0
100
AcDbBlockEnd
0
BLOCK
5
19E
100
AcDbEntity
8
0
100
AcDbBlockBegin
2
_U5
70
0
10
0
20
0
30
0
3
_U5
0
MTEXT
5
194
100
AcDbEntity
8
2
62
256
6
ByLayer
370
18
48
1
60
0
100
AcDbMText
10
20.92023
20
43.077672
30
0
210
0
220
0
230
1
1
\W0.6563;51.0
40
4.5
41
0
44
1.084337
50
0
71
7
72
5
7
iso_b_vert
0
LINE
5
195
100
AcDbEntity
8
2
62
256
6
ByLayer
370
13
48
1
60
0
100
AcDbLine
10
50.663982
20
-3.08019
30
0
11
50.663982
21
44.749994
31
0
39
0
210
0
220
0
230
1
0
LINE
5
196
100
AcDbEntity
8
2
62
256
6
ByLayer
370
13
48
1
60
0
100
AcDbLine
10
0
20
1.499997
30
0
11
0
21
44.749994
31
0
39
0
210
0
220
0
230
1
0
LINE
5
197
100
AcDbEntity
8
2
62
256
6
ByLayer
370
13
48
1
60
0
100
AcDbLine
10
50.663982
20
41.75
30
0
11
0
21
41.75
31
0
39
0
210
0
220
0
230
1
0
LINE
5
198
100
AcDbEntity
8
2
62
256
6
ByLayer
370
13
48
1
60
0
100
AcDbLine
10
50.663982
20
41.75
30
0
11
47.663989
21
41.250001
31
0
39
0
210
0
220
0
230
1
0
LINE
5
199
100
AcDbEntity
8
2
62
256
6
ByLayer
370
13
48
1
60
0
100
AcDbLine
10
50.663982
20
41.75
30
0
11
47.663986
21
42.249999
31
0
39
0
210
0
220
0
230
1
0
LINE
5
19A
100
AcDbEntity
8
2
62
256
6
ByLayer
370
13
48
1
60
0
100
AcDbLine
10
47.663989
20
41.250001
30
0
11
47.663986
21
42.249999
31
0
39
0
210
0
220
0
230
1
0
LINE
5
19B
100
AcDbEntity
8
2
62
256
6
ByLayer
370
13
48
1
60
0
100
AcDbLine
10
0
20
41.75
30
0
11
2.999992
21
42.249999
31
0
39
0
210
0
220
0
230
1
0
LINE
5
19C
100
AcDbEntity
8
2
62
256
6
ByLayer
370
13
48
1
60
0
100
AcDbLine
10
0
20
41.75
30
0
11
2.999996
21
41.250001
31
0
39
0
210
0
220
0
230
1
0
LINE
5
19D
100
AcDbEntity
8
2
62
256
6
ByLayer
370
13
48
1
60
0
100
AcDbLine
10
2.999992
20
42.249999
30
0
11
2.999996
21
41.250001
31
0
39
0
210
0
220
0
230
1
0
ENDBLK
5
19F
100
AcDbEntity
8
0
100
AcDbBlockEnd
0
ENDSEC
0
SECTION
2
ENTITIES
0
ARC
5
D1
100
AcDbEntity
8
1
62
256
6
ByLayer
370
18
48
1
60
0
100
AcDbCircle
39
0
10
15.889295
20
-12.473554
30
0
40
5
210
0
220
0
230
1
100
AcDbArc
50
90
51
138.964787
0
ARC
5
D2
100
AcDbEntity
8
1
62
256
6
ByLayer
370
18
48
1
60
0
100
AcDbCircle
39
0
10
4.850777
20
-2.866
30
0
40
9.634
210
0
220
0
230
1
100
AcDbArc
50
270
51
318.964787
0
ARC
5
D3
100
AcDbEntity
8
1
62
256
6
ByLayer
370
18
48
1
60
0
100
AcDbCircle
39
0
10
-15.889295
20
12.473554
30
0
40
5
210
0
220
0
230
-1
100
AcDbArc
50
270
51
318.964787
0
ARC
5
D4
100
AcDbEntity
8
1
62
256
6
ByLayer
370
18
48
1
60
0
100
AcDbCircle
39
0
10
-4.850777
20
2.866
30
0
40
9.634
210
0
220
0
230
-1
100
AcDbArc
50
90
51
138.964787
0
ARC
5
D5
100
AcDbEntity
8
SK1
62
256
6
ByLayer
370
18
48
1
60
0
100
AcDbCircle
39
0
10
-47.90718
20
-10.4
30
10
40
0.8
210
0
220
0
230
1
100
AcDbArc
50
71.195807
51
150
0
ARC
5
D6
100
AcDbEntity
8
SK1
62
256
6
ByLayer
370
18
48
1
60
0
100
AcDbCircle
39
0
10
47.90718
20
10.4
30
-10
40
0.8
210
0
220
0
230
-1
100
AcDbArc
50
251.195807
51
330
0
ARC
5
D7
100
AcDbEntity
8
1
62
256
6
ByLayer
370
18
48
1
60
0
100
AcDbCircle
39
0
10
50.197378
20
2.995417
30
0.8
40
0.396
210
0
220
0
230
1
100
AcDbArc
50
252
51
350
0
ARC
5
D8
100
AcDbEntity
8
1
62
256
6
ByLayer
370
18
48
1
60
0
100
AcDbCircle
39
0
10
50.371037
20
7.562259
30
0.8
40
0.396
210
0
220
0
230
1
100
AcDbArc
50
6
51
102
0
ARC
5
D9
100
AcDbEntity
8
1
62
256
6
ByLayer
370
18
48
1
60
0
100
AcDbCircle
39
0
10
46.119222
20
7.413782
30
0.8
40
0.396
210
0
220
0
230
1
100
AcDbArc
50
72
51
170
0
ARC
5
DA
100
AcDbEntity
8
1
62
256
6
ByLayer
370
18
48
1
60
0
100
AcDbCircle
39
0
10
45.945563
20
2.84694
30
0.8
40
0.396
210
0
220
0
230
1
100
AcDbArc
50
186
51
282
0
ARC
5
DD
100
AcDbEntity
8
1
62
256
6
ByLayer
370
18
48
0.05
60
0
100
AcDbCircle
39
0
10
50.271835
20
-4.525074
30
-0.18
40
0.396
210
0
220
0
230
1
100
AcDbArc
50
254
51
352
0
ARC
5
DE
100
AcDbEntity
8
1
62
256
6
ByLayer
370
18
48
1
60
0
100
AcDbCircle
39
0
10
50.286008
20
0.045047
30
-0.18
40
0.396
210
0
220
0
230
1
100
AcDbArc
50
8
51
104
0
ARC
5
DF
100
AcDbEntity
8
1
62
256
6
ByLayer
370
18
48
0.05
60
0
100
AcDbCircle
39
0
10
46.041965
20
-0.251726
30
-0.18
40
0.396
210
0
220
0
230
1
100
AcDbArc
50
74
51
172
0
ARC
5
E0
100
AcDbEntity
8
1
62
256
6
ByLayer
370
18
48
0.05
60
0
100
AcDbCircle
39
0
10
46.027792
20
-4.821847
30
-0.18
40
0.396
210
0
220
0
230
1
100
AcDbArc
50
188
51
284
0
CIRCLE
5
DB
100
AcDbEntity
8
1
62
256
6
ByLayer
370
18
48
1
60
0
100
AcDbCircle
10
48.1583
20
5.204599
30
0.8
40
1.65
39
0
210
0
220
0
230
1
0
CIRCLE
5
DC
100
AcDbEntity
8
1
62
256
6
ByLayer
370
18
48
1
60
0
100
AcDbCircle
10
48.1583
20
5.204599
30
0.8
40
1.1
39
0
210
0
220
0
230
1
0
CIRCLE
5
E1
100
AcDbEntity
8
1
62
256
6
ByLayer
370
18
48
1
60
0
100
AcDbCircle
10
48.1569
20
-2.3884
30
-0.18
40
0.85
39
0
210
0
220
0
230
1
0
POINT
5
70
100
AcDbEntity
8
1
62
256
6
ByLayer
370
13
48
1
60
1
100
AcDbPoint
10
50.8
20
0
30
0
39
0
210
0
220
0
230
1
50
360
0
POINT
5
72
100
AcDbEntity
8
1
62
256
6
ByLayer
370
13
48
1
60
1
100
AcDbPoint
10
12.515401
20
6.302211
30
-2.182122
39
0
210
0
220
0
230
1
50
360
0
POINT
5
73
100
AcDbEntity
8
1
62
256
6
ByLayer
370
13
48
1
60
1
100
AcDbPoint
10
5.4
20
-9.714122
30
7.866755
39
0
210
0
220
0
230
1
50
360
0
POINT
5
74
100
AcDbEntity
8
SK1
62
256
6
ByLayer
370
25
48
1
60
0
100
AcDbPoint
10
0
20
0
30
0
39
0
210
0
220
0
230
1
50
360
0
POINT
5
76
100
AcDbEntity
8
1
62
256
6
ByLayer
370
18
48
1
60
0
100
AcDbPoint
10
48.1583
20
5.204599
30
0.8
39
0
210
0
220
0
230
1
50
360
0
POINT
5
77
100
AcDbEntity
8
1
62
256
6
ByLayer
370
18
48
1
60
0
100
AcDbPoint
10
48.1569
20
-2.3884
30
-0.18
39
0
210
0
220
0
230
1
50
360
0
POINT
5
78
100
AcDbEntity
8
81
62
256
6
ByLayer
370
18
48
1
60
0
100
AcDbPoint
10
51
20
0
30
0
39
0
210
0
220
0
230
1
50
360
0
POINT
5
7A
100
AcDbEntity
8
80
62
256
6
ByLayer
370
18
48
1
60
0
100
AcDbPoint
10
0
20
0
30
0
39
0
210
0
220
0
230
1
50
360
0
SPLINE
5
E2
100
AcDbEntity
8
1
62
256
6
ByLayer
370
18
48
1
60
0
100
AcDbSpline
70
4
71
3
72
29
73
25
40
0
40
0
40
0
40
0
40
0.0005000047853557
40
0.0500000128301669
40
0.100000011404593
40
0.150000009979019
40
0.200000008553445
40
0.250000007127871
40
0.300000005702297
40
0.350000004276722
40
0.400000002851148
40
0.450000001425574
40
0.5
40
0.549999998574426
40
0.599999997148852
40
0.649999995723278
40
0.699999994297704
40
0.749999992872129
40
0.799999991446555
40
0.849999990020981
40
0.899999988595407
40
0.949999987169833
40
0.999499995214644
40
1
40
1
40
1
40
1
41
1
10
39.5
20
7.38652225850639
30
2.17469283453771
41
1
10
39.4970546048795
20
7.38683497019234
30
2.17363068357759
41
1
10
39.2025178183732
20
7.41808280063262
30
2.06741032302646
41
1
10
38.613434824151
20
7.47599639638382
30
1.85361842255526
41
1
10
37.7327630888784
20
7.54878223960405
30
1.53058038205321
41
1
10
36.8491440544132
20
7.60776609648096
30
1.20361326034964
41
1
10
35.9655255463782
20
7.65259448871086
30
0.874406856482192
41
1
10
35.0819068972866
20
7.68318408763715
30
0.543573426669248
41
1
10
34.198288285991
20
7.69947795488181
30
0.211728612185338
41
1
10
33.3146696645682
20
7.70144577907925
30
-0.120510159713532
41
1
10
32.4310510458581
20
7.68908389722929
30
-0.452524703070814
41
1
10
31.5474324264246
20
7.66241531090495
30
-0.783697256020815
41
1
10
30.6638138071719
20
7.62148964093158
30
-1.11341162151277
41
1
10
29.7801951879193
20
7.56638303575934
30
-1.44105431613745
41
1
10
28.8965765684857
20
7.4971980295024
30
-1.76601571112644
41
1
10
28.0129579497756
20
7.41406335155944
30
-2.08769116627795
41
1
10
27.1293393283528
20
7.31713368576523
30
-2.40548215698405
41
1
10
26.2457207170572
20
7.2065893874887
30
-2.71879738024682
41
1
10
25.3621020679656
20
7.08263612973943
30
-3.02705388340224
41
1
10
24.4784835599306
20
6.94550458883117
30
-3.32967804236082
41
1
10
23.5948645254655
20
6.79544976009165
30
-3.6261070261312
41
1
10
22.7141927901929
20
6.63329375287611
30
-3.91482277545673
41
1
10
22.1251097959708
20
6.51664067493452
30
-4.10311250084457
41
1
10
21.8305730094643
20
6.45631211670769
30
-4.19595460856047
41
1
10
21.8276276143438
20
6.45570862255766
30
-4.19688291242855
0
SPLINE
5
E3
100
AcDbEntity
8
1
62
256
6
ByLayer
370
18
48
1
60
0
100
AcDbSpline
70
4
71
3
72
29
73
25
40
0
40
0
40
0
40
0
40
0.000500009196819
40
0.0500000246570312
40
0.100000021917361
40
0.150000019177691
40
0.200000016438021
40
0.250000013698351
40
0.300000010958681
40
0.350000008219011
40
0.400000005479341
40
0.45000000273967
40
0.5
40
0.54999999726033
40
0.59999999452066
40
0.64999999178099
40
0.69999998904132
40
0.749999986301649
40
0.799999983561979
40
0.849999980822309
40
0.899999978082639
40
0.949999975342969
40
0.999499990803181
40
1
40
1
40
1
40
1
41
1
10
39.5
20
1.01021166424019
30
7.63344433355173
41
1
10
39.495916667405
20
1.01173339985047
30
7.63324294661128
41
1
10
39.087590669705
20
1.16389687188844
30
7.61305931414738
41
1
10
38.2709135728958
20
1.46702452754701
30
7.56358800332755
41
1
10
37.0500008724266
20
1.91499536645359
30
7.46280915613432
41
1
10
35.824999766234
20
2.35761945533461
30
7.33500914707473
41
1
10
34.6000000626374
20
2.79181309930564
30
7.18098237951067
41
1
10
33.3749999832164
20
3.21602458146266
30
7.00127947861036
41
1
10
32.150000004497
20
3.62873689647272
30
6.79654301386133
41
1
10
30.9249999987954
20
4.02847441777343
30
6.56750502718984
41
1
10
29.7000000003212
20
4.41380784070925
30
6.3149844622021
41
1
10
28.4749999999197
20
4.78335938235535
30
6.03988422348588
41
1
10
27.25
20
5.13580768397277
30
5.7431879515327
41
1
10
26.0250000000803
20
5.46989254199671
30
5.42595650488367
41
1
10
24.7999999996788
20
5.78441941238195
30
5.08932416674545
41
1
10
23.5750000012046
20
6.07826368180921
30
4.73449459089541
41
1
10
22.349999995503
20
6.35037469030267
30
4.3627364916819
41
1
10
21.1250000167836
20
6.59977948197723
30
3.97537913103329
41
1
10
19.8999999373626
20
6.8255863062751
30
3.57380747829078
41
1
10
18.675000233766
20
7.02698772298889
30
3.15945758395418
41
1
10
17.4499991275734
20
7.20326380093358
30
2.73381022907241
41
1
10
16.2290864271042
20
7.35328181496396
30
2.29984151589302
41
1
10
15.4124093302951
20
7.43618806344706
30
2.00410457166416
41
1
10
15.004083332595
20
7.47318420319542
30
1.85513347753585
41
1
10
15
20
7.47355372923199
30
1.85364361630886
0
SPLINE
5
E4
100
AcDbEntity
8
1
62
256
6
ByLayer
370
18
48
1
60
0
100
AcDbSpline
70
4
71
3
72
29
73
25
40
0
40
0
40
0
40
0
40
0.000500005320941
40
0.0500000142660819
40
0.100000012680962
40
0.150000011095842
40
0.200000009510721
40
0.250000007925601
40
0.300000006340481
40
0.350000004755361
40
0.40000000317024
40
0.45000000158512
40
0.5
40
0.54999999841488
40
0.599999996829759
40
0.649999995244639
40
0.699999993659519
40
0.749999992074399
40
0.799999990489279
40
0.849999988904158
40
0.899999987319038
40
0.949999985733918
40
0.999499994679059
40
1
40
1
40
1
40
1
41
1
10
33.6351597775364
20
-7.7
30
9E-15
41
1
10
33.6320539178984
20
-7.69999999995931
30
0.001167549680106
41
1
10
33.3214711497913
20
-7.69997344964832
30
0.117920710724861
41
1
10
32.7002945672283
20
-7.69460843271608
30
0.351429457910055
41
1
10
31.7716441837102
20
-7.6708008095935
30
0.699802628602128
41
1
10
30.8398857080329
20
-7.6310436390565
30
1.04789411210415
41
1
10
29.9081278495938
20
-7.57549880372103
30
1.39381736346137
41
1
10
28.9763698257663
20
-7.50428121681459
30
1.73685705530163
41
1
10
28.0446118462545
20
-7.41753821908159
30
2.07630338956322
41
1
10
27.1128538548686
20
-7.31544927069356
30
2.41145411932348
41
1
10
26.1810958666632
20
-7.19822558084156
30
2.74161585339113
41
1
10
25.2493378776097
20
-7.06610967053998
30
3.06610553057113
41
1
10
24.3175798887682
20
-6.91937487093235
30
3.38425182219603
41
1
10
23.3858218999267
20
-6.75832475783003
30
3.69539652383869
41
1
10
22.4540639108732
20
-6.5832925234957
30
3.99889591641655
41
1
10
21.5223059226678
20
-6.39464028790997
30
4.29412209769724
41
1
10
20.5905479312819
20
-6.19275834734993
30
4.5804642830586
41
1
10
19.65878995177
20
-5.97806437527972
30
4.85733006255482
41
1
10
18.7270319279425
20
-5.75100252702031
30
5.12414665110896
41
1
10
17.7952740695035
20
-5.5120426373501
30
5.38036198181886
41
1
10
16.8635155938262
20
-5.26167881368491
30
5.6254461903993
41
1
10
15.9348652103081
20
-5.00130084743936
30
5.85811329952869
41
1
10
15.3136886277449
20
-4.8202706409468
30
6.00570456876899
41
1
10
15.003105859638
20
-4.72812594200609
30
6.07740293538899
41
1
10
15
20
-4.72720431777972
30
6.07811972060149
0
SPLINE
5
E5
100
AcDbEntity
8
1
62
256
6
ByLayer
370
18
48
1
60
0
100
AcDbSpline
70
4
71
3
72
29
73
25
40
0
40
0
40
0
40
0
40
0.0005000007143017
40
0.0500000019151976
40
0.100000001702398
40
0.150000001489598
40
0.200000001276798
40
0.250000001063999
40
0.300000000851199
40
0.350000000638399
40
0.4000000004256
40
0.4500000002128
40
0.5
40
0.5499999997872
40
0.599999999574401
40
0.649999999361601
40
0.699999999148801
40
0.749999998936001
40
0.799999998723202
40
0.849999998510402
40
0.899999998297602
40
0.949999998084802
40
0.999499999285698
40
1
40
1
40
1
40
1
41
1
10
21.8276276143438
20
-6.45570862255766
30
-4.19688291242855
41
1
10
21.8264896764241
20
-6.45594177874461
30
-4.19652426806234
41
1
10
21.7126960416303
20
-6.47925436048251
30
-4.16065796311034
41
1
10
21.4851082287272
20
-6.52528184584431
30
-4.08853665744046
41
1
10
21.1448648717929
20
-6.59229549776004
30
-3.97958916762822
41
1
10
20.8034834671324
20
-6.65770221535366
30
-3.86917188687764
41
1
10
20.4621020928308
20
-6.72125967146304
30
-3.75767990987231
41
1
10
20.1207207103946
20
-6.78295022148156
30
-3.64514419056227
41
1
10
19.779339330138
20
-6.84275672767213
30
-3.53159599086871
41
1
10
19.4379579492974
20
-6.90066257874379
30
-3.41706684910202
41
1
10
19.0965765686133
20
-6.95665169049572
30
-3.3015885773372
41
1
10
18.7551951878874
20
-7.01070851134847
30
-3.18519325093389
41
1
10
18.4138138071719
20
-7.0628180263788
30
-3.06791320006684
41
1
10
18.0724324264565
20
-7.11296576156587
30
-2.94978100063045
41
1
10
17.7310510457306
20
-7.16113778779368
30
-2.83082946521225
41
1
10
17.3896696650464
20
-7.20732072471628
30
-2.71109163400689
41
1
10
17.0482882842058
20
-7.25150174450702
30
-2.59060076550475
41
1
10
16.7069069039492
20
-7.29366857529462
30
-2.46939032776237
41
1
10
16.365525521513
20
-7.33380950504722
30
-2.34749398720691
41
1
10
16.0241441472114
20
-7.37191338305095
30
-2.22494560637415
41
1
10
15.6827627425509
20
-7.40796962963
30
-2.10177920804509
41
1
10
15.3425193856166
20
-7.4418548860728
30
-1.97844156385129
41
1
10
15.1149315727135
20
-7.46314946784783
30
-1.89557689751343
41
1
10
15.0011379379197
20
-7.47345075078568
30
-1.854058806661
41
1
10
15
20
-7.473553729232
30
-1.85364361630884
0
SPLINE
5
E6
100
AcDbEntity
8
1
62
256
6
ByLayer
370
18
48
1
60
0
100
AcDbSpline
70
4
71
3
72
9
73
5
40
0
40
0
40
0
40
0
40
0.558032440690059
40
1
40
1
40
1
40
1
41
1
10
15
20
-7.473553729232
30
-1.85364361630884
41
1
10
7.75964958831759
20
-9.80840211154844
30
3.61466591474264
41
1
10
2.02521594850464
20
-11.1467758869467
30
9.42101829991038
41
1
10
9.26556636018705
20
-7.38562701245939
30
8.07202363245302
41
1
10
15
20
-4.72720431777972
30
6.07811972060149
0
SPLINE
5
E7
100
AcDbEntity
8
SK1
62
256
6
ByLayer
370
18
48
1
60
0
100
AcDbSpline
70
4
71
3
72
46
73
42
40
0
40
0
40
0
40
0
40
0.0325548106345456
40
0.0325548106345456
40
0.0651041132568983
40
0.0651041132568983
40
0.103022939875128
40
0.103022939875128
40
0.124032028705738
40
0.124032028705738
40
0.16595709986031
40
0.16595709986031
40
0.214134463056893
40
0.214134463056893
40
0.262301831660977
40
0.262301831660977
40
0.317339472330684
40
0.317339472330684
40
0.372372629392768
40
0.372372629392768
40
0.433930870829802
40
0.433930870829802
40
0.495487683750692
40
0.495487683750692
40
0.588924911572437
40
0.588924911572437
40
0.641008287221678
40
0.641008287221678
40
0.693093787379067
40
0.693093787379067
40
0.770397012893342
40
0.770397012893342
40
0.828163609079897
40
0.828163609079897
40
0.885461655554109
40
0.885461655554109
40
0.942503563676774
40
0.942503563676774
40
0.97125011169653
40
0.97125011169653
40
1
40
1
40
1
40
1
41
1
10
-6.4999999944921
20
5.93274809870277
30
8.04999999983472
41
1
10
-6.32835755734952
20
5.93274809827769
30
8.050000000148
41
1
10
-6.16807240904483
20
5.91457620232092
30
8.06349002962499
41
1
10
-5.84558347182563
20
5.84306731424594
30
8.11545729952559
41
1
10
-5.6942131763071
20
5.79156237671824
30
8.15257861479365
41
1
10
-5.37588555777174
20
5.64425350066918
30
8.25539783721071
41
1
10
-5.22279066122591
20
5.54792096018165
30
8.32093220958579
41
1
10
-5.00427828669093
20
5.37441010754897
30
8.43331432329975
41
1
10
-4.93127590987935
20
5.30866415346244
30
8.47496449370459
41
1
10
-4.72373833083552
20
5.09863917631819
30
8.60412822329611
41
1
10
-4.60658372305557
20
4.94939475422032
30
8.69136020432099
41
1
10
-4.37446628398257
20
4.58895465523982
30
8.88759985479212
41
1
10
-4.27628807325691
20
4.39327363040451
30
8.98623285282119
41
1
10
-4.10372455981936
20
3.97469870710836
30
9.17905132647953
41
1
10
-4.03370633445731
20
3.76095252916039
30
9.26895386049115
41
1
10
-3.90363542785563
20
3.27654225930472
30
9.45200458553017
41
1
10
-3.85091638180435
20
3.01856702107137
30
9.53755345890491
41
1
10
-3.76380327748035
20
2.48508117475522
30
9.69025439492699
41
1
10
-3.73100548408887
20
2.21863614478913
30
9.75489569793933
41
1
10
-3.67506496866308
20
1.62857705175722
30
9.8715915558635
41
1
10
-3.65557229922832
20
1.32361465397999
30
9.91697234950549
41
1
10
-3.62888786218017
20
0.69918888399162
30
9.98045221070489
41
1
10
-3.62221971292861
20
0.387938788768082
30
9.99746115938018
41
1
10
-3.61993240375658
20
-0.407707874154791
30
10.003185426657
41
1
10
-3.6311423337058
20
-0.875192397328286
30
9.97328500262734
41
1
10
-3.67558250680501
20
-1.61941464555185
30
9.87165335444215
41
1
10
-3.69629438392829
20
-1.87631932811171
30
9.82593773271614
41
1
10
-3.75240160009769
20
-2.39266019850418
30
9.71312566233682
41
1
10
-3.78686538548538
20
-2.6441234806158
30
9.64773193651633
41
1
10
-3.89989679508555
20
-3.27473433859042
30
9.45678848098149
41
1
10
-3.98679314491452
20
-3.6316379463807
30
9.32481591712088
41
1
10
-4.20251689992804
20
-4.23406045609152
30
9.06373926079821
41
1
10
-4.31430219347723
20
-4.48039060390434
30
8.94389186901264
41
1
10
-4.59120294807852
20
-4.93635321285415
30
8.70048466245961
41
1
10
-4.75595072910381
20
-5.14648926596649
30
8.57672527895675
41
1
10
-5.15618569741815
20
-5.51132616082467
30
8.34694178135394
41
1
10
-5.38527029245562
20
-5.66129670259563
30
8.24421419927097
41
1
10
-5.78444357983633
20
-5.82232622054866
30
8.13050103037959
41
1
10
-5.92028306664863
20
-5.86269039794998
30
8.10124432903245
41
1
10
-6.20690804880166
20
-5.91860062218603
30
8.06048789504153
41
1
10
-6.34948945621272
20
-5.93274813687162
30
8.04999997170472
41
1
10
-6.50000003372524
20
-5.93274813649508
30
8.04999997198222
0
SPLINE
5
E8
100
AcDbEntity
8
1
62
256
6
ByLayer
370
18
48
1
60
0
100
AcDbSpline
70
4
71
3
72
9
73
5
40
0
40
0
40
0
40
0
40
0.252202504917235
40
1
40
1
40
1
40
1
41
1
10
49.8989958331469
20
-1.61014528591057
30
0
41
1
10
49.834202132862
20
-2.12132998205262
30
0
41
1
10
49.6568052114537
20
-4.14898607209918
30
0
41
1
10
49.7946886050123
20
-6.17971181847874
30
0
41
1
10
50.0741025582655
20
-7.7
30
0
0
LINE
5
7C
100
AcDbEntity
8
SK4
62
256
6
ByLayer
370
13
48
0.05
60
0
100
AcDbLine
10
52.8
20
0
30
0
11
-52.2
21
0
31
0
39
0
210
0
220
0
230
1
0
LINE
5
7E
100
AcDbEntity
8
4
62
256
6
ByLayer
370
13
48
0.05
60
0
100
AcDbLine
10
52.8
20
0
30
0
11
-2.2
21
0
31
0
39
0
210
0
220
0
230
1
0
LINE
5
80
100
AcDbEntity
8
1
62
256
6
ByLayer
370
18
48
1
60
0
100
AcDbLine
10
39.5
20
7.7
30
0
11
33.63516
21
7.7
31
0
39
0
210
0
220
0
230
1
0
LINE
5
81
100
AcDbEntity
8
1
62
256
6
ByLayer
370
18
48
1
60
0
100
AcDbLine
10
39.5
20
-7.7
30
0
11
33.63516
21
-7.7
31
0
39
0
210
0
220
0
230
1
0
LINE
5
82
100
AcDbEntity
8
1
62
256
6
ByLayer
370
18
48
1
60
0
100
AcDbLine
10
15
20
-4.727204
30
6.07812
11
15
21
7.473554
31
1.853644
39
0
210
0
220
0
230
1
0
LINE
5
83
100
AcDbEntity
8
1
62
256
6
ByLayer
370
18
48
1
60
0
100
AcDbLine
10
4.9981
20
12.5
30
0
11
4.9981
21
-12.5
31
0
39
0
210
0
220
0
230
1
0
LINE
5
84
100
AcDbEntity
8
1
62
256
6
ByLayer
370
18
48
1
60
0
100
AcDbLine
10
0.2
20
-12.5
30
0
11
0
21
-12.3
31
0
39
0
210
0
220
0
230
1
0
LINE
5
85
100
AcDbEntity
8
1
62
256
6
ByLayer
370
18
48
1
60
0
100
AcDbLine
10
0.2
20
-12.5
30
0
11
0.2
21
12.5
31
0
39
0
210
0
220
0
230
1
0
LINE
5
86
100
AcDbEntity
8
1
62
256
6
ByLayer
370
18
48
1
60
0
100
AcDbLine
10
0
20
-12.3
30
0
11
0
21
12.3
31
0
39
0
210
0
220
0
230
1
0
LINE
5
87
100
AcDbEntity
8
1
62
256
6
ByLayer
370
18
48
1
60
0
100
AcDbLine
10
0.2
20
12.5
30
0
11
0
21
12.3
31
0
39
0
210
0
220
0
230
1
0
LINE
5
88
100
AcDbEntity
8
1
62
256
6
ByLayer
370
18
48
1
60
0
100
AcDbLine
10
0.2
20
-12.5
30
0
11
4.9981
21
-12.5
31
0
39
0
210
0
220
0
230
1
0
LINE
5
89
100
AcDbEntity
8
1
62
256
6
ByLayer
370
18
48
1
60
0
100
AcDbLine
10
0.2
20
12.5
30
0
11
4.9981
21
12.5
31
0
39
0
210
0
220
0
230
1
0
LINE
5
8A
100
AcDbEntity
8
1
62
256
6
ByLayer
370
18
48
1
60
0
100
AcDbLine
10
50.074103
20
-7.7
30
0
11
50.820599
21
-2.3884
31
0
39
0
210
0
220
0
230
1
0
LINE
5
8B
100
AcDbEntity
8
1
62
256
6
ByLayer
370
18
48
1
60
0
100
AcDbLine
10
50.820599
20
-2.3884
30
0
11
50.484932
21
0
31
0
39
0
210
0
220
0
230
1
0
LINE
5
8C
100
AcDbEntity
8
SK1
62
256
6
ByLayer
370
18
48
1
60
0
100
AcDbLine
10
-49
20
-10
30
10
11
-50
21
-9
31
10
39
0
210
0
220
0
230
1
0
LINE
5
8D
100
AcDbEntity
8
SK1
62
256
6
ByLayer
370
25
48
1
60
0
100
AcDbLine
10
0
20
9.75
30
0
11
0
21
-9.75
31
0
39
0
210
0
220
0
230
1
0
LINE
5
8E
100
AcDbEntity
8
SK1
62
256
6
ByLayer
370
25
48
1
60
0
100
AcDbLine
10
-49
20
10
30
0
11
-49
21
5.932748
31
0
39
0
210
0
220
0
230
1
0
LINE
5
8F
100
AcDbEntity
8
SK1
62
256
6
ByLayer
370
25
48
1
60
0
100
AcDbLine
10
-50
20
-9
30
10
11
-50
21
9
31
10
39
0
210
0
220
0
230
1
0
LINE
5
90
100
AcDbEntity
8
SK1
62
256
6
ByLayer
370
25
48
1
60
0
100
AcDbLine
10
-49
20
-10
30
0
11
-50
21
-9
31
10
39
0
210
0
220
0
230
1
0
LINE
5
91
100
AcDbEntity
8
SK1
62
256
6
ByLayer
370
25
48
1
60
0
100
AcDbLine
10
-49
20
10
30
0
11
-50
21
9
31
10
39
0
210
0
220
0
230
1
0
LINE
5
92
100
AcDbEntity
8
SK1
62
256
6
ByLayer
370
25
48
1
60
0
100
AcDbLine
10
-2
20
10
30
0
11
-2
21
-10
31
0
39
0
210
0
220
0
230
1
0
LINE
5
93
100
AcDbEntity
8
SK1
62
256
6
ByLayer
370
25
48
1
60
0
100
AcDbLine
10
0
20
-9.75
30
0
11
-2
21
-9.75
31
0
39
0
210
0
220
0
230
1
0
LINE
5
94
100
AcDbEntity
8
SK1
62
256
6
ByLayer
370
25
48
1
60
0
100
AcDbLine
10
0
20
9.75
30
0
11
-2
21
9.75
31
0
39
0
210
0
220
0
230
1
0
LINE
5
95
100
AcDbEntity
8
SK1
62
256
6
ByLayer
370
18
48
1
60
0
100
AcDbLine
10
-49
20
5.932748
30
8.05
11
-6.5
21
5.932748
31
8.05
39
0
210
0
220
0
230
1
0
LINE
5
96
100
AcDbEntity
8
SK1
62
256
6
ByLayer
370
18
48
1
60
0
100
AcDbLine
10
-49
20
-5.932748
30
8.05
11
-6.5
21
-5.932748
31
8.05
39
0
210
0
220
0
230
1
0
LINE
5
97
100
AcDbEntity
8
SK1
62
256
6
ByLayer
370
18
48
1
60
0
100
AcDbLine
10
-6.5
20
-5.932748
30
8.05
11
-6.5
21
5.932748
31
8.05
39
0
210
0
220
0
230
1
0
LINE
5
98
100
AcDbEntity
8
SK1
62
256
6
ByLayer
370
25
48
1
60
0
100
AcDbLine
10
-49
20
-10
30
0
11
-49
21
-5.932748
31
0
39
0
210
0
220
0
230
1
0
LINE
5
99
100
AcDbEntity
8
SK1
62
256
6
ByLayer
370
18
48
1
60
0
100
AcDbLine
10
-49
20
-5.932748
30
8.05
11
-50
21
-4.254116
31
10
39
0
210
0
220
0
230
1
0
LINE
5
9A
100
AcDbEntity
8
SK1
62
256
6
ByLayer
370
18
48
1
60
0
100
AcDbLine
10
-49
20
5.932748
30
8.05
11
-50
21
4.254116
31
10
39
0
210
0
220
0
230
1
0
LINE
5
9B
100
AcDbEntity
8
SK1
62
256
6
ByLayer
370
18
48
1
60
0
100
AcDbLine
10
-46.6
20
10
30
10
11
-47.649312
21
9.642699
31
10
39
0
210
0
220
0
230
1
0
LINE
5
9C
100
AcDbEntity
8
SK1
62
256
6
ByLayer
370
18
48
1
60
0
100
AcDbLine
10
-49
20
-10
30
10
11
-48.6
21
-10
31
10
39
0
210
0
220
0
230
1
0
LINE
5
9D
100
AcDbEntity
8
SK1
62
256
6
ByLayer
370
18
48
1
60
0
100
AcDbLine
10
-50
20
9
30
10
11
-49
21
10
31
10
39
0
210
0
220
0
230
1
0
LINE
5
9E
100
AcDbEntity
8
SK1
62
256
6
ByLayer
370
18
48
1
60
0
100
AcDbLine
10
-50
20
-9
30
10
11
-49
21
-10
31
10
39
0
210
0
220
0
230
1
0
LINE
5
9F
100
AcDbEntity
8
SK1
62
256
6
ByLayer
370
18
48
1
60
0
100
AcDbLine
10
-49
20
10
30
10
11
-48.6
21
10
31
10
39
0
210
0
220
0
230
1
0
LINE
5
A0
100
AcDbEntity
8
SK1
62
256
6
ByLayer
370
18
48
1
60
0
100
AcDbLine
10
-50
20
-9
30
10
11
-50
21
9
31
10
39
0
210
0
220
0
230
1
0
LINE
5
A1
100
AcDbEntity
8
SK1
62
256
6
ByLayer
370
18
48
1
60
0
100
AcDbLine
10
-46.6
20
-10
30
10
11
-47.649312
21
-9.642699
31
10
39
0
210
0
220
0
230
1
0
LINE
5
A2
100
AcDbEntity
8
SK1
62
256
6
ByLayer
370
18
48
1
60
0
100
AcDbLine
10
-46.6
20
-10
30
10
11
-2
21
-10
31
0
39
0
210
0
220
0
230
1
0
LINE
5
A3
100
AcDbEntity
8
SK1
62
256
6
ByLayer
370
18
48
1
60
0
100
AcDbLine
10
-2
20
10
30
0
11
-46.6
21
10
31
10
39
0
210
0
220
0
230
1
0
LINE
5
A4
100
AcDbEntity
8
SK1
62
256
6
ByLayer
370
18
48
1
60
0
100
AcDbLine
10
-46.6
20
-10
30
10
11
-46.6
21
-5.932748
31
10
39
0
210
0
220
0
230
1
0
LINE
5
A5
100
AcDbEntity
8
SK1
62
256
6
ByLayer
370
18
48
1
60
0
100
AcDbLine
10
-46.6
20
5.932748
30
10
11
-46.6
21
10
31
10
39
0
210
0
220
0
230
1
0
LINE
5
A6
100
AcDbEntity
8
SK1
62
256
6
ByLayer
370
18
48
1
60
0
100
AcDbLine
10
-48.6
20
10
30
10
11
-48.6
21
5.932748
31
10
39
0
210
0
220
0
230
1
0
LINE
5
A7
100
AcDbEntity
8
SK1
62
256
6
ByLayer
370
18
48
1
60
0
100
AcDbLine
10
-48.6
20
-5.932748
30
10
11
-48.6
21
-10
31
10
39
0
210
0
220
0
230
1
0
LINE
5
A8
100
AcDbEntity
8
SK1
62
256
6
ByLayer
370
18
48
1
60
0
100
AcDbLine
10
-49
20
5.932748
30
10
11
-49
21
10
31
10
39
0
210
0
220
0
230
1
0
LINE
5
A9
100
AcDbEntity
8
SK1
62
256
6
ByLayer
370
18
48
1
60
0
100
AcDbLine
10
-49
20
-5.932748
30
10
11
-49
21
-10
31
10
39
0
210
0
220
0
230
1
0
LINE
5
AA
100
AcDbEntity
8
1
62
256
6
ByLayer
370
18
48
1
60
0
100
AcDbLine
10
50.075008
20
2.618798
30
0.8
11
49.44624
21
2.823097
31
0.8
39
0
210
0
220
0
230
1
0
LINE
5
AB
100
AcDbEntity
8
1
62
256
6
ByLayer
370
18
48
1
60
0
100
AcDbLine
10
50.587362
20
2.926652
30
0.8
11
51.006564
21
5.304063
31
0.8
39
0
210
0
220
0
230
1
0
LINE
5
AC
100
AcDbEntity
8
1
62
256
6
ByLayer
370
18
48
1
60
0
100
AcDbLine
10
50.764867
20
7.603652
30
0.8
11
51.006564
21
5.304063
31
0.8
39
0
210
0
220
0
230
1
0
LINE
5
AD
100
AcDbEntity
8
1
62
256
6
ByLayer
370
18
48
1
60
0
100
AcDbLine
10
50.288704
20
7.949606
30
0.8
11
49.627287
21
7.682376
31
0.8
39
0
210
0
220
0
230
1
0
LINE
5
AE
100
AcDbEntity
8
1
62
256
6
ByLayer
370
18
48
1
60
0
100
AcDbLine
10
46.241592
20
7.790401
30
0.8
11
46.87036
21
7.586102
31
0.8
39
0
210
0
220
0
230
1
0
LINE
5
AF
100
AcDbEntity
8
1
62
256
6
ByLayer
370
18
48
1
60
0
100
AcDbLine
10
45.729238
20
7.482547
30
0.8
11
45.310036
21
5.105136
31
0.8
39
0
210
0
220
0
230
1
0
LINE
5
B0
100
AcDbEntity
8
1
62
256
6
ByLayer
370
18
48
1
60
0
100
AcDbLine
10
45.551733
20
2.805547
30
0.8
11
45.310036
21
5.105136
31
0.8
39
0
210
0
220
0
230
1
0
LINE
5
B1
100
AcDbEntity
8
1
62
256
6
ByLayer
370
18
48
1
60
0
100
AcDbLine
10
46.027896
20
2.459593
30
0.8
11
46.689313
21
2.726823
31
0.8
39
0
210
0
220
0
230
1
0
LINE
5
B2
100
AcDbEntity
8
1
62
256
6
ByLayer
370
18
48
1
60
0
100
AcDbLine
10
48.242931
20
2.781077
30
0.8
11
49.44624
21
2.823097
31
0.8
39
0
210
0
220
0
230
1
0
LINE
5
B3
100
AcDbEntity
8
1
62
256
6
ByLayer
370
18
48
1
60
0
100
AcDbLine
10
48.073669
20
7.628122
30
0.8
11
46.87036
21
7.586102
31
0.8
39
0
210
0
220
0
230
1
0
LINE
5
B4
100
AcDbEntity
8
1
62
256
6
ByLayer
370
18
48
1
60
0
100
AcDbLine
10
48.073669
20
7.628122
30
0.8
11
49.627287
21
7.682376
31
0.8
39
0
210
0
220
0
230
1
0
LINE
5
B5
100
AcDbEntity
8
1
62
256
6
ByLayer
370
18
48
1
60
0
100
AcDbLine
10
48.242931
20
2.781077
30
0.8
11
46.689313
21
2.726823
31
0.8
39
0
210
0
220
0
230
1
0
LINE
5
B6
100
AcDbEntity
8
1
62
256
6
ByLayer
370
18
48
0.05
60
0
100
AcDbLine
10
50.162683
20
-4.905734
30
-0.18
11
49.527168
21
-4.723503
31
-0.18
39
0
210
0
220
0
230
1
0
LINE
5
B7
100
AcDbEntity
8
1
62
256
6
ByLayer
370
18
48
1
60
0
100
AcDbLine
10
50.663982
20
-4.580187
30
-0.18
11
50.999958
21
-2.189594
31
-0.18
39
0
210
0
220
0
230
1
0
LINE
5
B8
100
AcDbEntity
8
1
62
256
6
ByLayer
370
18
48
1
60
0
100
AcDbLine
10
50.678154
20
0.100159
30
-0.18
11
50.999958
21
-2.189594
31
-0.18
39
0
210
0
220
0
230
1
0
LINE
5
B9
100
AcDbEntity
8
1
62
256
6
ByLayer
370
18
48
0.05
60
0
100
AcDbLine
10
50.190206
20
0.429284
30
-0.18
11
49.538519
21
0.139134
31
-0.18
39
0
210
0
220
0
230
1
0
LINE
5
BA
100
AcDbEntity
8
1
62
256
6
ByLayer
370
18
48
0.05
60
0
100
AcDbLine
10
46.151117
20
0.128934
30
-0.18
11
46.786632
21
-0.053297
31
-0.18
39
0
210
0
220
0
230
1
0
LINE
5
BB
100
AcDbEntity
8
1
62
256
6
ByLayer
370
18
48
0.05
60
0
100
AcDbLine
10
45.649818
20
-0.196613
30
-0.18
11
45.313842
21
-2.587206
31
-0.18
39
0
210
0
220
0
230
1
0
LINE
5
BC
100
AcDbEntity
8
1
62
256
6
ByLayer
370
18
48
0.05
60
0
100
AcDbLine
10
45.635646
20
-4.876959
30
-0.18
11
45.313842
21
-2.587206
31
-0.18
39
0
210
0
220
0
230
1
0
LINE
5
BD
100
AcDbEntity
8
1
62
256
6
ByLayer
370
18
48
0.05
60
0
100
AcDbLine
10
46.123594
20
-5.206084
30
-0.18
11
46.775281
21
-4.915934
31
-0.18
39
0
210
0
220
0
230
1
0
LINE
5
BE
100
AcDbEntity
8
1
62
256
6
ByLayer
370
18
48
0.05
60
0
100
AcDbLine
10
48.326059
20
-4.807493
30
-0.18
11
49.527168
21
-4.723503
31
-0.18
39
0
210
0
220
0
230
1
0
LINE
5
BF
100
AcDbEntity
8
1
62
256
6
ByLayer
370
18
48
0.05
60
0
100
AcDbLine
10
47.987741
20
0.030693
30
-0.18
11
46.786632
21
-0.053297
31
-0.18
39
0
210
0
220
0
230
1
0
LINE
5
C0
100
AcDbEntity
8
1
62
256
6
ByLayer
370
18
48
0.05
60
0
100
AcDbLine
10
47.987741
20
0.030693
30
-0.18
11
49.538519
21
0.139134
31
-0.18
39
0
210
0
220
0
230
1
0
LINE
5
C1
100
AcDbEntity
8
1
62
256
6
ByLayer
370
18
48
0.05
60
0
100
AcDbLine
10
48.326059
20
-4.807493
30
-0.18
11
46.775281
21
-4.915934
31
-0.18
39
0
210
0
220
0
230
1
0
LINE
5
C2
100
AcDbEntity
8
1
62
256
6
ByLayer
370
18
48
1
60
0
100
AcDbLine
10
50.820599
20
-2.3884
30
0
11
49.898996
21
-1.610145
31
0
39
0
210
0
220
0
230
1
0
LINE
5
C3
100
AcDbEntity
8
1
62
256
6
ByLayer
370
18
48
1
60
0
100
AcDbLine
10
49.898996
20
-1.610145
30
0
11
49.786404
21
0
31
0
39
0
210
0
220
0
230
1
0
LINE
5
C4
100
AcDbEntity
8
1
62
256
6
ByLayer
370
18
48
1
60
0
100
AcDbLine
10
49.786404
20
0
30
0
11
50.484932
21
0
31
0
39
0
210
0
220
0
230
1
0
LINE
5
C5
100
AcDbEntity
8
1
62
256
6
ByLayer
370
18
48
1
60
0
100
AcDbLine
10
35.926391
20
2.319899
30
7.7
11
50.175432
21
2.319899
31
0
39
0
210
0
220
0
230
1
0
LINE
5
C6
100
AcDbEntity
8
1
62
256
6
ByLayer
370
18
48
1
60
0
100
AcDbLine
10
39.5
20
1.010212
30
7.633444
11
40.791696
21
0.52464
31
7.7
39
0
210
0
220
0
230
1
0
LINE
5
C7
100
AcDbEntity
8
1
62
256
6
ByLayer
370
18
48
1
60
0
100
AcDbLine
10
49.858879
20
0.52464
30
0
11
40.791696
21
0.52464
31
7.7
39
0
210
0
220
0
230
1
0
LINE
5
C8
100
AcDbEntity
8
1
62
256
6
ByLayer
370
18
48
1
60
0
100
AcDbLine
10
45.845551
20
7.7
30
0.8
11
39.5
21
7.7
31
0
39
0
210
0
220
0
230
1
0
LINE
5
C9
100
AcDbEntity
8
1
62
256
6
ByLayer
370
18
48
1
60
0
100
AcDbLine
10
49.766371
20
0
30
0
11
50.224887
21
2.600373
31
0.8
39
0
210
0
220
0
230
1
0
LINE
5
CA
100
AcDbEntity
8
1
62
256
6
ByLayer
370
18
48
1
60
0
100
AcDbLine
10
50.074103
20
-7.7
30
0
11
39.5
21
-7.7
31
0
39
0
210
0
220
0
230
1
0
LINE
5
CB
100
AcDbEntity
8
81
62
256
6
ByLayer
370
18
48
1
60
0
100
AcDbLine
10
51
20
0
30
0
11
61
21
0
31
0
39
0
210
0
220
0
230
1
0
LINE
5
CC
100
AcDbEntity
8
80
62
256
6
ByLayer
370
18
48
1
60
0
100
AcDbLine
10
0
20
0
30
0
11
-10
21
0
31
0
39
0
210
0
220
0
230
1
0
LINE
5
CD
100
AcDbEntity
8
2
62
256
6
ByLayer
370
13
48
1
60
0
100
AcDbLine
10
64.3
20
8
30
0
11
52.8
21
8
31
0
39
0
210
0
220
0
230
1
0
LINE
5
CF
100
AcDbEntity
8
2
62
256
6
ByLayer
370
13
48
1
60
0
100
AcDbLine
10
64.3
20
-8
30
0
11
52.8
21
-8
31
0
39
0
210
0
220
0
230
1
0
LINE
5
D0
100
AcDbEntity
8
2
62
256
6
ByLayer
370
18
48
1
60
1
100
AcDbLine
10
15
20
8
30
0
11
15
21
8.1
31
0
39
0
210
0
220
0
230
1
0
MTEXT
5
E9
100
AcDbEntity
8
SK6
62
256
6
ByLayer
370
18
48
1
60
0
100
AcDbMText
10
-47.0145
20
1.282634
30
0
210
0
220
0
230
1
1
\W0.7182;881-D1600L20-02
40
3.5
41
0
44
1.084337
50
0
71
7
72
5
7
iso_b_vert
0
DIMENSION
5
EE
100
AcDbEntity
8
2
62
256
6
ByLayer
370
18
48
1
60
0
100
AcDbDimension
2
_U0
10
66.55
20
-8
30
0
11
66.55
21
0
31
0
70
32
71
1
72
1
41
1
210
0
220
0
230
1
3
Standard
100
AcDbAlignedDimension
13
64.3
23
8
33
0
14
64.3
24
-8
34
0
50
90
100
AcDbRotatedDimension
1001
ACAD
1000
DSTYLE
1002
{
1070
   371
1070
    13
1070
   372
1070
    13
1070
     3
1000

1070
   170
1070
     0
1070
   144
1040
1.0
1070
   277
1070
     2
1070
   278
1070
    46
1070
   146
1040
0.777778
1070
   345
1005
16
1070
   347
1005
16
1070
   346
1005
16
1070
   344
1005
EF
1070
   343
1005
EF
1070
   172
1070
     1
1070
    76
1070
     0
1070
    75
1070
     0
1070
   282
1070
     0
1070
   281
1070
     0
1070
    71
1070
     0
1070
   272
1070
     4
1070
   271
1070
     4
1070
    74
1070
     0
1070
   279
1070
     0
1070
   173
1070
     1
1070
   340
1005
EA
1070
    77
1070
     1
1070
    73
1070
     0
1070
   171
1070
     4
1070
   274
1070
     4
1070
   177
1070
     7
1070
   176
1070
     7
1070
   178
1070
     7
1070
    41
1040
2.999994
1070
   147
1040
2.25
1070
    42
1040
1.499997
1070
    44
1040
2.999994
1070
   140
1040
4.5
1002
}
1001
ACAD_DSTYLE_DIM_LINETYPE
1070
   380
1005
16
1001
ACAD_DSTYLE_DIM_EXT1_LINETYPE
1070
   381
1005
16
1001
ACAD_DSTYLE_DIM_EXT2_LINETYPE
1070
   382
1005
16
0
DIMENSION
5
113
100
AcDbEntity
8
SK2
62
256
6
ByLayer
370
18
48
1
60
0
100
AcDbDimension
2
_U1
10
-61.45
20
10
30
0
11
-61.45
21
0
31
0
70
32
71
1
72
1
41
1
210
0
220
0
230
1
3
Standard
100
AcDbAlignedDimension
13
-49
23
-10
33
10
14
-49
24
10
34
10
50
90
100
AcDbRotatedDimension
1001
ACAD
1000
DSTYLE
1002
{
1070
   371
1070
    13
1070
   372
1070
    13
1070
     3
1000

1070
   170
1070
     0
1070
   144
1040
1.0
1070
   277
1070
     2
1070
   278
1070
    46
1070
   146
1040
0.777778
1070
   345
1005
16
1070
   347
1005
16
1070
   346
1005
16
1070
   344
1005
EF
1070
   343
1005
EF
1070
   172
1070
     1
1070
    76
1070
     0
1070
    75
1070
     0
1070
   282
1070
     0
1070
   281
1070
     0
1070
    71
1070
     0
1070
   272
1070
     4
1070
   271
1070
     4
1070
    74
1070
     0
1070
   279
1070
     0
1070
   173
1070
     1
1070
   340
1005
EA
1070
    77
1070
     1
1070
    73
1070
     0
1070
   171
1070
     4
1070
   274
1070
     4
1070
   177
1070
     7
1070
   176
1070
     7
1070
   178
1070
     7
1070
    41
1040
2.999994
1070
   147
1040
2.25
1070
    42
1040
1.499997
1070
    44
1040
2.999994
1070
   140
1040
4.5
1002
}
1001
ACAD_DSTYLE_DIM_LINETYPE
1070
   380
1005
16
1001
ACAD_DSTYLE_DIM_EXT1_LINETYPE
1070
   381
1005
16
1001
ACAD_DSTYLE_DIM_EXT2_LINETYPE
1070
   382
1005
16
0
DIMENSION
5
130
100
AcDbEntity
8
2
62
256
6
ByLayer
370
18
48
1
60
0
100
AcDbDimension
2
_U2
10
15
20
30.5
30
0
11
32.9
21
30.5
31
0
70
32
71
1
72
1
41
1
210
0
220
0
230
1
3
Standard
100
AcDbAlignedDimension
13
50.663982
23
-4.580187
33
-0.18
14
15
24
8.1
34
0
50
0
100
AcDbRotatedDimension
1001
ACAD
1000
DSTYLE
1002
{
1070
   371
1070
    13
1070
   372
1070
    13
1070
     3
1000

1070
   170
1070
     0
1070
   144
1040
1.0
1070
   277
1070
     2
1070
   278
1070
    46
1070
   146
1040
0.777778
1070
   345
1005
16
1070
   347
1005
16
1070
   346
1005
16
1070
   344
1005
EF
1070
   343
1005
EF
1070
   172
1070
     1
1070
    76
1070
     0
1070
    75
1070
     0
1070
   282
1070
     0
1070
   281
1070
     0
1070
    71
1070
     0
1070
   272
1070
     4
1070
   271
1070
     4
1070
    74
1070
     0
1070
   279
1070
     0
1070
   173
1070
     1
1070
   340
1005
EA
1070
    77
1070
     1
1070
    73
1070
     1
1070
   171
1070
     4
1070
   274
1070
     4
1070
   177
1070
     7
1070
   176
1070
     7
1070
   178
1070
     7
1070
    41
1040
2.999994
1070
   147
1040
2.25
1070
    42
1040
1.499997
1070
    44
1040
2.999994
1070
   140
1040
4.5
1002
}
1001
ACAD_DSTYLE_DIM_LINETYPE
1070
   380
1005
16
1001
ACAD_DSTYLE_DIM_EXT1_LINETYPE
1070
   381
1005
16
1001
ACAD_DSTYLE_DIM_EXT2_LINETYPE
1070
   382
1005
16
0
DIMENSION
5
14C
100
AcDbEntity
8
SK2
62
256
6
ByLayer
370
18
48
1
60
0
100
AcDbDimension
2
_U3
10
-50
20
41.75
30
0
11
-25.1
21
41.75
31
0
70
32
71
1
72
1
41
1
210
0
220
0
230
1
3
Standard
100
AcDbAlignedDimension
13
0
23
0
33
0
14
-50
24
9
34
10
50
0
100
AcDbRotatedDimension
1001
ACAD
1000
DSTYLE
1002
{
1070
   371
1070
    13
1070
   372
1070
    13
1070
     3
1000

1070
   170
1070
     0
1070
   144
1040
1.0
1070
   277
1070
     2
1070
   278
1070
    46
1070
   146
1040
0.777778
1070
   345
1005
16
1070
   347
1005
16
1070
   346
1005
16
1070
   344
1005
EF
1070
   343
1005
EF
1070
   172
1070
     1
1070
    76
1070
     0
1070
    75
1070
     0
1070
   282
1070
     0
1070
   281
1070
     0
1070
    71
1070
     0
1070
   272
1070
     4
1070
   271
1070
     4
1070
    74
1070
     0
1070
   279
1070
     0
1070
   173
1070
     1
1070
   340
1005
EA
1070
    77
1070
     1
1070
    73
1070
     1
1070
   171
1070
     4
1070
   274
1070
     4
1070
   177
1070
     7
1070
   176
1070
     7
1070
   178
1070
     7
1070
    41
1040
2.999994
1070
   147
1040
2.25
1070
    42
1040
1.499997
1070
    44
1040
2.999994
1070
   140
1040
4.5
1002
}
1001
ACAD_DSTYLE_DIM_LINETYPE
1070
   380
1005
16
1001
ACAD_DSTYLE_DIM_EXT1_LINETYPE
1070
   381
1005
16
1001
ACAD_DSTYLE_DIM_EXT2_LINETYPE
1070
   382
1005
16
0
DIMENSION
5
168
100
AcDbEntity
8
SK2
62
256
6
ByLayer
370
18
48
1
60
0
100
AcDbDimension
2
_U4
10
-50
20
53
30
0
11
0.3
21
53
31
0
70
32
71
1
72
1
41
1
210
0
220
0
230
1
3
Standard
100
AcDbAlignedDimension
13
50.663982
23
-4.580187
33
-0.18
14
-50
24
9
34
10
50
0
100
AcDbRotatedDimension
1001
ACAD
1000
DSTYLE
1002
{
1070
   371
1070
    13
1070
   372
1070
    13
1070
     3
1000

1070
   170
1070
     0
1070
   144
1040
1.0
1070
   277
1070
     2
1070
   278
1070
    46
1070
   146
1040
0.777778
1070
   345
1005
16
1070
   347
1005
16
1070
   346
1005
16
1070
   344
1005
EF
1070
   343
1005
EF
1070
   172
1070
     1
1070
    76
1070
     0
1070
    75
1070
     0
1070
   282
1070
     0
1070
   281
1070
     0
1070
    71
1070
     0
1070
   272
1070
     4
1070
   271
1070
     4
1070
    74
1070
     0
1070
   279
1070
     0
1070
   173
1070
     1
1070
   340
1005
EA
1070
    77
1070
     1
1070
    73
1070
     1
1070
   171
1070
     4
1070
   274
1070
     4
1070
   177
1070
     7
1070
   176
1070
     7
1070
   178
1070
     7
1070
    41
1040
2.999994
1070
   147
1040
2.25
1070
    42
1040
1.499997
1070
    44
1040
2.999994
1070
   140
1040
4.5
1002
}
1001
ACAD_DSTYLE_DIM_LINETYPE
1070
   380
1005
16
1001
ACAD_DSTYLE_DIM_EXT1_LINETYPE
1070
   381
1005
16
1001
ACAD_DSTYLE_DIM_EXT2_LINETYPE
1070
   382
1005
16
0
DIMENSION
5
184
100
AcDbEntity
8
2
62
256
6
ByLayer
370
18
48
1
60
0
100
AcDbDimension
2
_U5
10
0
20
41.75
30
0
11
25.4
21
41.75
31
0
70
32
71
1
72
1
41
1
210
0
220
0
230
1
3
Standard
100
AcDbAlignedDimension
13
50.663982
23
-4.580187
33
-0.18
14
0
24
0
34
0
50
0
100
AcDbRotatedDimension
1001
ACAD
1000
DSTYLE
1002
{
1070
   371
1070
    13
1070
   372
1070
    13
1070
     3
1000

1070
   170
1070
     0
1070
   144
1040
1.0
1070
   277
1070
     2
1070
   278
1070
    46
1070
   146
1040
0.777778
1070
   345
1005
16
1070
   347
1005
16
1070
   346
1005
16
1070
   344
1005
EF
1070
   343
1005
EF
1070
   172
1070
     1
1070
    76
1070
     0
1070
    75
1070
     0
1070
   282
1070
     0
1070
   281
1070
     0
1070
    71
1070
     0
1070
   272
1070
     4
1070
   271
1070
     4
1070
    74
1070
     0
1070
   279
1070
     0
1070
   173
1070
     1
1070
   340
1005
EA
1070
    77
1070
     1
1070
    73
1070
     1
1070
   171
1070
     4
1070
   274
1070
     4
1070
   177
1070
     7
1070
   176
1070
     7
1070
   178
1070
     7
1070
    41
1040
2.999994
1070
   147
1040
2.25
1070
    42
1040
1.499997
1070
    44
1040
2.999994
1070
   140
1040
4.5
1002
}
1001
ACAD_DSTYLE_DIM_LINETYPE
1070
   380
1005
16
1001
ACAD_DSTYLE_DIM_EXT1_LINETYPE
1070
   381
1005
16
1001
ACAD_DSTYLE_DIM_EXT2_LINETYPE
1070
   382
1005
16
0
ENDSEC
0
SECTION
2
OBJECTS
0
DICTIONARY
5
210
330
0
100
AcDbDictionary
280
0
281
1
3
ACAD_GROUP
350
211
3
ACAD_MLINESTYLE
350
212
0
DICTIONARY
5
211
330
0
100
AcDbDictionary
280
0
281
1
0
DICTIONARY
5
212
330
0
100
AcDbDictionary
280
0
281
1
3
Standard
350
18
0
MLINESTYLE
5
18
330
212
100
AcDbMlineStyle
2
Standard
70
0
3

62
256
51
90
52
90
71
2
49
-0.5
62
256
6
ByLayer
49
0.5
62
256
6
ByLayer
0
RASTERVARIABLES
5
1fe
330

100
AcDbRasterVariables
90
0
70
1
71
1
72
1
0
ENDSEC
0
EOF
