0
SECTION
2
HEADER
9
$ACADVER
1
AC1015
9
$DWGCODEPAGE
3
ANSI_1252
9
$HANDSEED
5
184
9
$ANGBASE
50
0
9
$ANGDIR
70
0
9
$ATTMODE
70
1
9
$AUNITS
70
0
9
$AUPREC
70
0
9
$CECOLOR
62
256
9
$CELTSCALE
40
1
9
$CELTYPE
6
ByLayer
9
$CELWEIGHT
370
-1
9
$CLAYER
8
0
9
$CMLJUST
70
0
9
$CMLSCALE
40
1
9
$CMLSTYLE
2
Standard
9
$DIMSTYLE
2
Standard
9
$TEXTSIZE
40
0.2
9
$TEXTSTYLE
7
Standard
9
$LUNITS
70
2
9
$LUPREC
70
4
9
$EXTNAMES
290
1
9
$INSUNITS
70
4
9
$LTSCALE
40
1
9
$LWDISPLAY
290
0
9
$PDMODE
70
0
9
$PDSIZE
40
0
9
$PLINEGEN
70
0
0
ENDSEC
0
SECTION
2
CLASSES
0
CLASS
1
RASTERVARIABLES
2
AcDbRasterVariables
3
ISM
90
0
280
0
281
0
0
ENDSEC
0
SECTION
2
TABLES
0
TABLE
2
VPORT
5
17a
100
AcDbSymbolTable
0
VPORT
5
1
100
AcDbSymbolTableRecord
100
AcDbViewportTableRecord
2
*Active
70
0
10
0
20
0
11
1
21
1
12
-1
22
1
13
0
23
0
14
0.5
24
0.5
15
10
25
10
16
0
26
0
36
1
17
0
27
0
37
0
0
ENDTAB
0
TABLE
2
LTYPE
5
17b
100
AcDbSymbolTable
0
LTYPE
5
14
100
AcDbSymbolTableRecord
100
AcDbLinetypeTableRecord
70
0
2
ByBlock
3

72
65
73
0
40
0
0
LTYPE
5
15
100
AcDbSymbolTableRecord
100
AcDbLinetypeTableRecord
70
0
2
ByLayer
3

72
65
73
0
40
0
0
LTYPE
5
16
100
AcDbSymbolTableRecord
100
AcDbLinetypeTableRecord
70
0
2
CONTINUOUS
3
Solid line
72
65
73
0
40
0
0
LTYPE
5
3C
100
AcDbSymbolTableRecord
100
AcDbLinetypeTableRecord
70
0
2
DASHED
3
__ __ __ __ __ __ __ __ __
72
65
73
2
40
25.72
49
12.86
74
0
49
-12.86
74
0
0
LTYPE
5
3D
100
AcDbSymbolTableRecord
100
AcDbLinetypeTableRecord
70
0
2
HIDDEN
3
_ _ _ _ _ _ _ _ _ _ _ _ _ _ _
72
65
73
2
40
0.5
49
0.25
74
0
49
-0.25
74
0
0
LTYPE
5
3E
100
AcDbSymbolTableRecord
100
AcDbLinetypeTableRecord
70
0
2
PHANTOM
3
____ _ _ ____ _ _ _____ _ _ ____
72
65
73
6
40
50.5
49
18
74
0
49
-6.5
74
0
49
6.5
74
0
49
-6.5
74
0
49
6.5
74
0
49
-6.5
74
0
0
LTYPE
5
3F
100
AcDbSymbolTableRecord
100
AcDbLinetypeTableRecord
70
0
2
CENTER
3
____ _ ____ _ ____ _ ____
72
65
73
4
40
47.5
49
22
74
0
49
-8.5
74
0
49
8.5
74
0
49
-8.5
74
0
0
LTYPE
5
40
100
AcDbSymbolTableRecord
100
AcDbLinetypeTableRecord
70
0
2
DOT
3
.........................
72
65
73
2
40
10
49
0
74
0
49
-10
74
0
0
LTYPE
5
41
100
AcDbSymbolTableRecord
100
AcDbLinetypeTableRecord
70
0
2
DASHDOT
3
_._._._._._._._._._._._._._._._.
72
65
73
4
40
70
49
31
74
0
49
-13
74
0
49
13
74
0
49
-13
74
0
0
ENDTAB
0
TABLE
2
LAYER
5
17c
100
AcDbSymbolTable
0
LAYER
5
10
100
AcDbSymbolTableRecord
100
AcDbLayerTableRecord
2
0
70
0
62
7
6
CONTINUOUS
290
1
370
-3
390
0
0
LAYER
5
43
100
AcDbSymbolTableRecord
100
AcDbLayerTableRecord
2
1
70
0
62
4
6
CONTINUOUS
290
1
370
-3
390
0
0
LAYER
5
4A
100
AcDbSymbolTableRecord
100
AcDbLayerTableRecord
2
81
70
0
62
-3
6
CONTINUOUS
290
1
370
-3
390
0
0
LAYER
5
4C
100
AcDbSymbolTableRecord
100
AcDbLayerTableRecord
2
80
70
0
62
-6
6
CONTINUOUS
290
1
370
-3
390
0
0
LAYER
5
50
100
AcDbSymbolTableRecord
100
AcDbLayerTableRecord
2
4
70
0
62
-2
6
CENTER
290
1
370
-3
390
0
0
LAYER
5
A0
100
AcDbSymbolTableRecord
100
AcDbLayerTableRecord
2
2
70
0
62
7
6
CONTINUOUS
290
1
370
-3
390
0
0
LAYER
5
166
100
AcDbSymbolTableRecord
100
AcDbLayerTableRecord
2
SK4
70
0
62
2
6
CENTER
290
1
370
-3
390
0
0
LAYER
5
167
100
AcDbSymbolTableRecord
100
AcDbLayerTableRecord
2
SK1
70
0
62
4
6
CONTINUOUS
290
1
370
-3
390
0
0
LAYER
5
168
100
AcDbSymbolTableRecord
100
AcDbLayerTableRecord
2
SK6
70
0
62
5
6
CONTINUOUS
290
1
370
-3
390
0
0
LAYER
5
169
100
AcDbSymbolTableRecord
100
AcDbLayerTableRecord
2
SK2
70
0
62
7
6
CONTINUOUS
290
1
370
-3
390
0
0
ENDTAB
0
TABLE
2
STYLE
5
17d
100
AcDbSymbolTable
0
STYLE
5
11
100
AcDbSymbolTableRecord
100
AcDbTextStyleTableRecord
2
Standard
3
txt
70
0
71
0
40
0
41
1
42
0
50
0
0
STYLE
5
CA
100
AcDbSymbolTableRecord
100
AcDbTextStyleTableRecord
2
DEFAULT
3
simplex.shx
70
0
71
0
40
0
41
1
42
0
50
0
0
STYLE
5
CB
100
AcDbSymbolTableRecord
100
AcDbTextStyleTableRecord
2
DWGDirectTextStyle
3
SIMPLEX
70
0
71
0
40
0
41
1
42
0
50
0
0
ENDTAB
0
TABLE
2
DIMSTYLE
5
17e
100
AcDbSymbolTable
100
AcDbDimStyleTable
0
DIMSTYLE
105
27
100
AcDbSymbolTableRecord
100
AcDbDimStyleTableRecord
2
Standard
70
0
3
<>
41
0.18
42
0.0625
44
0.18
140
0.18
147
0.09
73
0
74
0
77
1
271
2
275
0
278
52
280
0
340
11
0
ENDTAB
0
TABLE
2
VIEW
5
17f
100
AcDbSymbolTable
0
ENDTAB
0
TABLE
2
UCS
5
180
100
AcDbSymbolTable
0
ENDTAB
0
TABLE
2
APPID
5
181
100
AcDbSymbolTable
0
APPID
5
12
100
AcDbSymbolTableRecord
100
AcDbRegAppTableRecord
2
ACAD
70
0
0
ENDTAB
0
TABLE
2
BLOCK_RECORD
5
182
100
AcDbSymbolTable
0
BLOCK_RECORD
5
1F
100
AcDbSymbolTableRecord
100
AcDbBlockTableRecord
2
*Model_Space
340
0
70
0
0
BLOCK_RECORD
5
1B
100
AcDbSymbolTableRecord
100
AcDbBlockTableRecord
2
*Paper_Space
340
0
70
0
0
BLOCK_RECORD
5
23
100
AcDbSymbolTableRecord
100
AcDbBlockTableRecord
2
*Paper_Space0
340
0
70
0
0
BLOCK_RECORD
5
CD
100
AcDbSymbolTableRecord
100
AcDbBlockTableRecord
2
DimnDraft3D1
340
0
70
0
0
BLOCK_RECORD
5
DB
100
AcDbSymbolTableRecord
100
AcDbBlockTableRecord
2
_CLOSED
340
0
70
0
0
BLOCK_RECORD
5
E2
100
AcDbSymbolTableRecord
100
AcDbBlockTableRecord
2
DimnDraft3D2
340
0
70
0
0
BLOCK_RECORD
5
F1
100
AcDbSymbolTableRecord
100
AcDbBlockTableRecord
2
DimnDraft3D3
340
0
70
0
0
BLOCK_RECORD
5
FF
100
AcDbSymbolTableRecord
100
AcDbBlockTableRecord
2
DimnDraft3D4
340
0
70
0
0
BLOCK_RECORD
5
10D
100
AcDbSymbolTableRecord
100
AcDbBlockTableRecord
2
DimnDraft3D5
340
0
70
0
0
BLOCK_RECORD
5
11B
100
AcDbSymbolTableRecord
100
AcDbBlockTableRecord
2
DimnDraft3D6
340
0
70
0
0
ENDTAB
0
ENDSEC
0
SECTION
2
BLOCKS
0
BLOCK
5
20
100
AcDbEntity
8
0
100
AcDbBlockBegin
2
*Model_Space
70
0
10
0
20
0
30
0
3
*Model_Space
0
ENDBLK
5
21
100
AcDbEntity
8
0
100
AcDbBlockEnd
0
BLOCK
5
1C
100
AcDbEntity
8
0
100
AcDbBlockBegin
2
*Paper_Space
70
0
10
0
20
0
30
0
3
*Paper_Space
0
ENDBLK
5
1D
100
AcDbEntity
8
0
100
AcDbBlockEnd
0
BLOCK
5
24
100
AcDbEntity
8
0
100
AcDbBlockBegin
2
*Paper_Space0
70
0
10
0
20
0
30
0
3
*Paper_Space0
0
ENDBLK
5
25
100
AcDbEntity
8
0
100
AcDbBlockEnd
0
BLOCK
5
D8
100
AcDbEntity
8
0
100
AcDbBlockBegin
2
DimnDraft3D1
70
0
10
0
20
0
30
0
3
DimnDraft3D1
0
MTEXT
5
CE
100
AcDbEntity
8
2
62
256
6
ByLayer
370
-1
48
1
60
0
100
AcDbMText
10
105.425
20
-3.096711
30
0
210
0
220
0
230
1
1
\W01.000;\fsimplex.shx,bigfont.shx;%%c16 
40
4.5
41
0
44
1.084337
50
90
71
7
72
5
7
DEFAULT
0
LINE
5
CF
100
AcDbEntity
8
2
62
256
6
ByLayer
370
-1
48
1
60
0
100
AcDbLine
10
105.799997
20
8
30
0
11
109.549994
21
8
31
0
39
0
210
0
220
0
230
1
0
LINE
5
D0
100
AcDbEntity
8
2
62
256
6
ByLayer
370
-1
48
1
60
0
100
AcDbLine
10
105.799997
20
-8
30
0
11
109.549994
21
-8
31
0
39
0
210
0
220
0
230
1
0
LINE
5
D1
100
AcDbEntity
8
2
62
256
6
ByLayer
370
-1
48
1
60
0
100
AcDbLine
10
106.55
20
8
30
0
11
106.55
21
-8
31
0
39
0
210
0
220
0
230
1
0
LINE
5
D2
100
AcDbEntity
8
2
62
256
6
ByLayer
370
-1
48
1
60
0
100
AcDbLine
10
106.55
20
8
30
0
11
107.049999
21
5.000008
31
0
39
0
210
0
220
0
230
1
0
LINE
5
D3
100
AcDbEntity
8
2
62
256
6
ByLayer
370
-1
48
1
60
0
100
AcDbLine
10
106.55
20
8
30
0
11
106.050001
21
5.000004
31
0
39
0
210
0
220
0
230
1
0
LINE
5
D4
100
AcDbEntity
8
2
62
256
6
ByLayer
370
-1
48
1
60
0
100
AcDbLine
10
107.049999
20
5.000008
30
0
11
106.050001
21
5.000004
31
0
39
0
210
0
220
0
230
1
0
LINE
5
D5
100
AcDbEntity
8
2
62
256
6
ByLayer
370
-1
48
1
60
0
100
AcDbLine
10
106.55
20
-8
30
0
11
106.050001
21
-5.000008
31
0
39
0
210
0
220
0
230
1
0
LINE
5
D6
100
AcDbEntity
8
2
62
256
6
ByLayer
370
-1
48
1
60
0
100
AcDbLine
10
106.55
20
-8
30
0
11
107.049999
21
-5.000004
31
0
39
0
210
0
220
0
230
1
0
LINE
5
D7
100
AcDbEntity
8
2
62
256
6
ByLayer
370
-1
48
1
60
0
100
AcDbLine
10
106.050001
20
-5.000008
30
0
11
107.049999
21
-5.000004
31
0
39
0
210
0
220
0
230
1
0
ENDBLK
5
D9
100
AcDbEntity
8
0
100
AcDbBlockEnd
0
BLOCK
5
DC
100
AcDbEntity
8
0
100
AcDbBlockBegin
2
_CLOSED
70
0
10
0
20
0
30
0
3
_CLOSED
0
LINE
5
DE
100
AcDbEntity
8
0
62
256
6
ByLayer
370
-2
48
1
60
0
100
AcDbLine
10
-1
20
0.166667
30
0
11
0
21
0
31
0
39
0
210
0
220
0
230
1
0
LINE
5
DF
100
AcDbEntity
8
0
62
256
6
ByLayer
370
-2
48
1
60
0
100
AcDbLine
10
0
20
0
30
0
11
-1
21
-0.166667
31
0
39
0
210
0
220
0
230
1
0
LINE
5
E0
100
AcDbEntity
8
0
62
256
6
ByLayer
370
-2
48
1
60
0
100
AcDbLine
10
-1
20
0.166667
30
0
11
-1
21
-0.166667
31
0
39
0
210
0
220
0
230
1
0
LINE
5
E1
100
AcDbEntity
8
0
62
256
6
ByLayer
370
-2
48
1
60
0
100
AcDbLine
10
0
20
0
30
0
11
-1
21
0
31
0
39
0
210
0
220
0
230
1
0
ENDBLK
5
DD
100
AcDbEntity
8
0
100
AcDbBlockEnd
0
BLOCK
5
EE
100
AcDbEntity
8
0
100
AcDbBlockBegin
2
DimnDraft3D2
70
0
10
0
20
0
30
0
3
DimnDraft3D2
0
MTEXT
5
E3
100
AcDbEntity
8
SK2
62
256
6
ByLayer
370
-1
48
1
60
0
100
AcDbMText
10
-47.825
20
-3.896053
30
0
210
0
220
0
230
1
1
\W01.000;\fsimplex.shx,bigfont.shx;%%c40 
40
4.5
41
0
44
1.084337
50
90
71
7
72
5
7
DEFAULT
0
LINE
5
E5
100
AcDbEntity
8
SK2
62
256
6
ByLayer
370
-1
48
1
60
0
100
AcDbLine
10
-1.499997
20
-20
30
0
11
-49.699994
21
-20
31
0
39
0
210
0
220
0
230
1
0
LINE
5
E6
100
AcDbEntity
8
SK2
62
256
6
ByLayer
370
-1
48
1
60
0
100
AcDbLine
10
-1.499997
20
20
30
0
11
-49.699994
21
20
31
0
39
0
210
0
220
0
230
1
0
LINE
5
E7
100
AcDbEntity
8
SK2
62
256
6
ByLayer
370
-1
48
1
60
0
100
AcDbLine
10
-46.7
20
-20
30
0
11
-46.7
21
20
31
0
39
0
210
0
220
0
230
1
0
LINE
5
E8
100
AcDbEntity
8
SK2
62
256
6
ByLayer
370
-1
48
1
60
0
100
AcDbLine
10
-46.7
20
-20
30
0
11
-47.199999
21
-17.000008
31
0
39
0
210
0
220
0
230
1
0
LINE
5
E9
100
AcDbEntity
8
SK2
62
256
6
ByLayer
370
-1
48
1
60
0
100
AcDbLine
10
-46.7
20
-20
30
0
11
-46.200001
21
-17.000004
31
0
39
0
210
0
220
0
230
1
0
LINE
5
EA
100
AcDbEntity
8
SK2
62
256
6
ByLayer
370
-1
48
1
60
0
100
AcDbLine
10
-47.199999
20
-17.000008
30
0
11
-46.200001
21
-17.000004
31
0
39
0
210
0
220
0
230
1
0
LINE
5
EB
100
AcDbEntity
8
SK2
62
256
6
ByLayer
370
-1
48
1
60
0
100
AcDbLine
10
-46.7
20
20
30
0
11
-46.200001
21
17.000008
31
0
39
0
210
0
220
0
230
1
0
LINE
5
EC
100
AcDbEntity
8
SK2
62
256
6
ByLayer
370
-1
48
1
60
0
100
AcDbLine
10
-46.7
20
20
30
0
11
-47.199999
21
17.000004
31
0
39
0
210
0
220
0
230
1
0
LINE
5
ED
100
AcDbEntity
8
SK2
62
256
6
ByLayer
370
-1
48
1
60
0
100
AcDbLine
10
-46.200001
20
17.000008
30
0
11
-47.199999
21
17.000004
31
0
39
0
210
0
220
0
230
1
0
ENDBLK
5
EF
100
AcDbEntity
8
0
100
AcDbBlockEnd
0
BLOCK
5
FC
100
AcDbEntity
8
0
100
AcDbBlockBegin
2
DimnDraft3D3
70
0
10
0
20
0
30
0
3
DimnDraft3D3
0
MTEXT
5
F2
100
AcDbEntity
8
2
62
256
6
ByLayer
370
-1
48
1
60
0
100
AcDbMText
10
61.924342
20
31.625
30
0
210
0
220
0
230
1
1
\W01.000;\fsimplex.shx,bigfont.shx;51.0 
40
4.5
41
0
44
1.084337
50
0
71
7
72
5
7
DEFAULT
0
LINE
5
F3
100
AcDbEntity
8
2
62
256
6
ByLayer
370
-1
48
1
60
0
100
AcDbLine
10
90.663982
20
-3.08019
30
0
11
90.663982
21
33.499994
31
0
39
0
210
0
220
0
230
1
0
LINE
5
F4
100
AcDbEntity
8
2
62
256
6
ByLayer
370
-1
48
1
60
0
100
AcDbLine
10
40
20
9.599997
30
0
11
40
21
33.499994
31
0
39
0
210
0
220
0
230
1
0
LINE
5
F5
100
AcDbEntity
8
2
62
256
6
ByLayer
370
-1
48
1
60
0
100
AcDbLine
10
90.663982
20
30.5
30
0
11
40
21
30.5
31
0
39
0
210
0
220
0
230
1
0
LINE
5
F6
100
AcDbEntity
8
2
62
256
6
ByLayer
370
-1
48
1
60
0
100
AcDbLine
10
90.663982
20
30.5
30
0
11
87.663989
21
30.000001
31
0
39
0
210
0
220
0
230
1
0
LINE
5
F7
100
AcDbEntity
8
2
62
256
6
ByLayer
370
-1
48
1
60
0
100
AcDbLine
10
90.663982
20
30.5
30
0
11
87.663986
21
30.999999
31
0
39
0
210
0
220
0
230
1
0
LINE
5
F8
100
AcDbEntity
8
2
62
256
6
ByLayer
370
-1
48
1
60
0
100
AcDbLine
10
87.663989
20
30.000001
30
0
11
87.663986
21
30.999999
31
0
39
0
210
0
220
0
230
1
0
LINE
5
F9
100
AcDbEntity
8
2
62
256
6
ByLayer
370
-1
48
1
60
0
100
AcDbLine
10
40
20
30.5
30
0
11
42.999992
21
30.999999
31
0
39
0
210
0
220
0
230
1
0
LINE
5
FA
100
AcDbEntity
8
2
62
256
6
ByLayer
370
-1
48
1
60
0
100
AcDbLine
10
40
20
30.5
30
0
11
42.999996
21
30.000001
31
0
39
0
210
0
220
0
230
1
0
LINE
5
FB
100
AcDbEntity
8
2
62
256
6
ByLayer
370
-1
48
1
60
0
100
AcDbLine
10
42.999992
20
30.999999
30
0
11
42.999996
21
30.000001
31
0
39
0
210
0
220
0
230
1
0
ENDBLK
5
FD
100
AcDbEntity
8
0
100
AcDbBlockEnd
0
BLOCK
5
10A
100
AcDbEntity
8
0
100
AcDbBlockBegin
2
DimnDraft3D4
70
0
10
0
20
0
30
0
3
DimnDraft3D4
0
MTEXT
5
100
100
AcDbEntity
8
SK2
62
256
6
ByLayer
370
-1
48
1
60
0
100
AcDbMText
10
-20.375
20
42.875
30
0
210
0
220
0
230
1
1
\W01.000;\fsimplex.shx,bigfont.shx;24.0 
40
4.5
41
0
44
1.084337
50
0
71
7
72
5
7
DEFAULT
0
LINE
5
101
100
AcDbEntity
8
SK2
62
256
6
ByLayer
370
-1
48
1
60
0
100
AcDbLine
10
0
20
1.499997
30
0
11
0
21
44.749994
31
0
39
0
210
0
220
0
230
1
0
LINE
5
102
100
AcDbEntity
8
SK2
62
256
6
ByLayer
370
-1
48
1
60
0
100
AcDbLine
10
-24
20
14.673772
30
0
11
-24
21
44.749994
31
0
39
0
210
0
220
0
230
1
0
LINE
5
103
100
AcDbEntity
8
SK2
62
256
6
ByLayer
370
-1
48
1
60
0
100
AcDbLine
10
0
20
41.75
30
0
11
-24
21
41.75
31
0
39
0
210
0
220
0
230
1
0
LINE
5
104
100
AcDbEntity
8
SK2
62
256
6
ByLayer
370
-1
48
1
60
0
100
AcDbLine
10
0
20
41.75
30
0
11
-2.999992
21
41.250001
31
0
39
0
210
0
220
0
230
1
0
LINE
5
105
100
AcDbEntity
8
SK2
62
256
6
ByLayer
370
-1
48
1
60
0
100
AcDbLine
10
0
20
41.75
30
0
11
-2.999996
21
42.249999
31
0
39
0
210
0
220
0
230
1
0
LINE
5
106
100
AcDbEntity
8
SK2
62
256
6
ByLayer
370
-1
48
1
60
0
100
AcDbLine
10
-2.999992
20
41.250001
30
0
11
-2.999996
21
42.249999
31
0
39
0
210
0
220
0
230
1
0
LINE
5
107
100
AcDbEntity
8
SK2
62
256
6
ByLayer
370
-1
48
1
60
0
100
AcDbLine
10
-24
20
41.75
30
0
11
-21.000008
21
42.249999
31
0
39
0
210
0
220
0
230
1
0
LINE
5
108
100
AcDbEntity
8
SK2
62
256
6
ByLayer
370
-1
48
1
60
0
100
AcDbLine
10
-24
20
41.75
30
0
11
-21.000004
21
41.250001
31
0
39
0
210
0
220
0
230
1
0
LINE
5
109
100
AcDbEntity
8
SK2
62
256
6
ByLayer
370
-1
48
1
60
0
100
AcDbLine
10
-21.000008
20
42.249999
30
0
11
-21.000004
21
41.250001
31
0
39
0
210
0
220
0
230
1
0
ENDBLK
5
10B
100
AcDbEntity
8
0
100
AcDbBlockEnd
0
BLOCK
5
118
100
AcDbEntity
8
0
100
AcDbBlockBegin
2
DimnDraft3D5
70
0
10
0
20
0
30
0
3
DimnDraft3D5
0
MTEXT
5
10E
100
AcDbEntity
8
SK2
62
256
6
ByLayer
370
-1
48
1
60
0
100
AcDbMText
10
26.970395
20
54.125
30
0
210
0
220
0
230
1
1
\W01.000;\fsimplex.shx,bigfont.shx;(115.0) 
40
4.5
41
0
44
1.084337
50
0
71
7
72
5
7
DEFAULT
0
LINE
5
10F
100
AcDbEntity
8
SK2
62
256
6
ByLayer
370
-1
48
1
60
0
100
AcDbLine
10
90.663982
20
-3.08019
30
0
11
90.663982
21
55.999994
31
0
39
0
210
0
220
0
230
1
0
LINE
5
110
100
AcDbEntity
8
SK2
62
256
6
ByLayer
370
-1
48
1
60
0
100
AcDbLine
10
-24
20
14.673772
30
0
11
-24
21
55.999994
31
0
39
0
210
0
220
0
230
1
0
LINE
5
111
100
AcDbEntity
8
SK2
62
256
6
ByLayer
370
-1
48
1
60
0
100
AcDbLine
10
90.663982
20
53
30
0
11
-24
21
53
31
0
39
0
210
0
220
0
230
1
0
LINE
5
112
100
AcDbEntity
8
SK2
62
256
6
ByLayer
370
-1
48
1
60
0
100
AcDbLine
10
90.663982
20
53
30
0
11
87.663989
21
52.500001
31
0
39
0
210
0
220
0
230
1
0
LINE
5
113
100
AcDbEntity
8
SK2
62
256
6
ByLayer
370
-1
48
1
60
0
100
AcDbLine
10
90.663982
20
53
30
0
11
87.663986
21
53.499999
31
0
39
0
210
0
220
0
230
1
0
LINE
5
114
100
AcDbEntity
8
SK2
62
256
6
ByLayer
370
-1
48
1
60
0
100
AcDbLine
10
87.663989
20
52.500001
30
0
11
87.663986
21
53.499999
31
0
39
0
210
0
220
0
230
1
0
LINE
5
115
100
AcDbEntity
8
SK2
62
256
6
ByLayer
370
-1
48
1
60
0
100
AcDbLine
10
-24
20
53
30
0
11
-21.000008
21
53.499999
31
0
39
0
210
0
220
0
230
1
0
LINE
5
116
100
AcDbEntity
8
SK2
62
256
6
ByLayer
370
-1
48
1
60
0
100
AcDbLine
10
-24
20
53
30
0
11
-21.000004
21
52.500001
31
0
39
0
210
0
220
0
230
1
0
LINE
5
117
100
AcDbEntity
8
SK2
62
256
6
ByLayer
370
-1
48
1
60
0
100
AcDbLine
10
-21.000008
20
53.499999
30
0
11
-21.000004
21
52.500001
31
0
39
0
210
0
220
0
230
1
0
ENDBLK
5
119
100
AcDbEntity
8
0
100
AcDbBlockEnd
0
BLOCK
5
126
100
AcDbEntity
8
0
100
AcDbBlockBegin
2
DimnDraft3D6
70
0
10
0
20
0
30
0
3
DimnDraft3D6
0
MTEXT
5
11C
100
AcDbEntity
8
2
62
256
6
ByLayer
370
-1
48
1
60
0
100
AcDbMText
10
41.924342
20
42.875
30
0
210
0
220
0
230
1
1
\W01.000;\fsimplex.shx,bigfont.shx;91.0 
40
4.5
41
0
44
1.084337
50
0
71
7
72
5
7
DEFAULT
0
LINE
5
11D
100
AcDbEntity
8
2
62
256
6
ByLayer
370
-1
48
1
60
0
100
AcDbLine
10
90.663982
20
-3.08019
30
0
11
90.663982
21
44.749994
31
0
39
0
210
0
220
0
230
1
0
LINE
5
11E
100
AcDbEntity
8
2
62
256
6
ByLayer
370
-1
48
1
60
0
100
AcDbLine
10
0
20
14.099997
30
0
11
0
21
44.749994
31
0
39
0
210
0
220
0
230
1
0
LINE
5
11F
100
AcDbEntity
8
2
62
256
6
ByLayer
370
-1
48
1
60
0
100
AcDbLine
10
90.663982
20
41.75
30
0
11
0
21
41.75
31
0
39
0
210
0
220
0
230
1
0
LINE
5
120
100
AcDbEntity
8
2
62
256
6
ByLayer
370
-1
48
1
60
0
100
AcDbLine
10
90.663982
20
41.75
30
0
11
87.663989
21
41.250001
31
0
39
0
210
0
220
0
230
1
0
LINE
5
121
100
AcDbEntity
8
2
62
256
6
ByLayer
370
-1
48
1
60
0
100
AcDbLine
10
90.663982
20
41.75
30
0
11
87.663986
21
42.249999
31
0
39
0
210
0
220
0
230
1
0
LINE
5
122
100
AcDbEntity
8
2
62
256
6
ByLayer
370
-1
48
1
60
0
100
AcDbLine
10
87.663989
20
41.250001
30
0
11
87.663986
21
42.249999
31
0
39
0
210
0
220
0
230
1
0
LINE
5
123
100
AcDbEntity
8
2
62
256
6
ByLayer
370
-1
48
1
60
0
100
AcDbLine
10
0
20
41.75
30
0
11
2.999992
21
42.249999
31
0
39
0
210
0
220
0
230
1
0
LINE
5
124
100
AcDbEntity
8
2
62
256
6
ByLayer
370
-1
48
1
60
0
100
AcDbLine
10
0
20
41.75
30
0
11
2.999996
21
41.250001
31
0
39
0
210
0
220
0
230
1
0
LINE
5
125
100
AcDbEntity
8
2
62
256
6
ByLayer
370
-1
48
1
60
0
100
AcDbLine
10
2.999992
20
42.249999
30
0
11
2.999996
21
41.250001
31
0
39
0
210
0
220
0
230
1
0
ENDBLK
5
127
100
AcDbEntity
8
0
100
AcDbBlockEnd
0
ENDSEC
0
SECTION
2
ENTITIES
0
ARC
5
A4
100
AcDbEntity
8
1
62
256
6
ByLayer
370
-1
48
1
60
0
100
AcDbCircle
39
0
10
40.835385
20
-12.700001
30
0
40
5
210
0
220
0
230
1
100
AcDbArc
50
90
51
125.097193
0
ARC
5
A5
100
AcDbEntity
8
1
62
256
6
ByLayer
370
-1
48
1
60
0
100
AcDbCircle
39
0
10
30.399998
20
2.1496
30
0
40
13.1496
210
0
220
0
230
1
100
AcDbArc
50
270
51
305.097193
0
ARC
5
A6
100
AcDbEntity
8
1
62
256
6
ByLayer
370
-1
48
1
60
0
100
AcDbCircle
39
0
10
-40.835385
20
12.700001
30
0
40
5
210
0
220
0
230
-1
100
AcDbArc
50
270
51
305.097193
0
ARC
5
A7
100
AcDbEntity
8
1
62
256
6
ByLayer
370
-1
48
1
60
0
100
AcDbCircle
39
0
10
-30.399998
20
-2.1496
30
0
40
13.1496
210
0
220
0
230
-1
100
AcDbArc
50
90
51
125.097193
0
ARC
5
A8
100
AcDbEntity
8
1
62
256
6
ByLayer
370
-1
48
1
60
0
100
AcDbCircle
39
0
10
90.197378
20
2.995417
30
0.8
40
0.396
210
0
220
0
230
1
100
AcDbArc
50
252
51
350
0
ARC
5
A9
100
AcDbEntity
8
1
62
256
6
ByLayer
370
-1
48
1
60
0
100
AcDbCircle
39
0
10
90.371037
20
7.562259
30
0.8
40
0.396
210
0
220
0
230
1
100
AcDbArc
50
6
51
102
0
ARC
5
AA
100
AcDbEntity
8
1
62
256
6
ByLayer
370
-1
48
1
60
0
100
AcDbCircle
39
0
10
86.119222
20
7.413782
30
0.8
40
0.396
210
0
220
0
230
1
100
AcDbArc
50
72
51
170
0
ARC
5
AB
100
AcDbEntity
8
1
62
256
6
ByLayer
370
-1
48
1
60
0
100
AcDbCircle
39
0
10
85.945563
20
2.84694
30
0.8
40
0.396
210
0
220
0
230
1
100
AcDbArc
50
186
51
282
0
ARC
5
AE
100
AcDbEntity
8
1
62
256
6
ByLayer
370
-1
48
1
60
0
100
AcDbCircle
39
0
10
90.271835
20
-4.525074
30
-0.18
40
0.396
210
0
220
0
230
1
100
AcDbArc
50
254
51
352
0
ARC
5
AF
100
AcDbEntity
8
1
62
256
6
ByLayer
370
-1
48
1
60
0
100
AcDbCircle
39
0
10
90.286008
20
0.045047
30
-0.18
40
0.396
210
0
220
0
230
1
100
AcDbArc
50
8
51
104
0
ARC
5
B0
100
AcDbEntity
8
1
62
256
6
ByLayer
370
-1
48
1
60
0
100
AcDbCircle
39
0
10
86.041965
20
-0.251726
30
-0.18
40
0.396
210
0
220
0
230
1
100
AcDbArc
50
74
51
172
0
ARC
5
B1
100
AcDbEntity
8
1
62
256
6
ByLayer
370
-1
48
1
60
0
100
AcDbCircle
39
0
10
86.027792
20
-4.821847
30
-0.18
40
0.396
210
0
220
0
230
1
100
AcDbArc
50
188
51
284
0
CIRCLE
5
AC
100
AcDbEntity
8
1
62
256
6
ByLayer
370
-1
48
1
60
0
100
AcDbCircle
10
88.1583
20
5.204599
30
0.8
40
1.65
39
0
210
0
220
0
230
1
0
CIRCLE
5
AD
100
AcDbEntity
8
1
62
256
6
ByLayer
370
-1
48
1
60
0
100
AcDbCircle
10
88.1583
20
5.204599
30
0.8
40
1.1
39
0
210
0
220
0
230
1
0
CIRCLE
5
B2
100
AcDbEntity
8
1
62
256
6
ByLayer
370
-1
48
1
60
0
100
AcDbCircle
10
88.1569
20
-2.3884
30
-0.18
40
0.85
39
0
210
0
220
0
230
1
0
POINT
5
42
100
AcDbEntity
8
1
62
256
6
ByLayer
370
-1
48
1
60
1
100
AcDbPoint
10
90.8
20
0
30
0
39
0
210
0
220
0
230
1
50
360
0
POINT
5
44
100
AcDbEntity
8
1
62
256
6
ByLayer
370
-1
48
1
60
1
100
AcDbPoint
10
37.515401
20
-2.943259
30
5.984709
39
0
210
0
220
0
230
1
50
360
0
POINT
5
45
100
AcDbEntity
8
1
62
256
6
ByLayer
370
-1
48
1
60
1
100
AcDbPoint
10
30.4
20
-1.260629
30
12.43627
39
0
210
0
220
0
230
1
50
360
0
POINT
5
46
100
AcDbEntity
8
1
62
256
6
ByLayer
370
-1
48
1
60
0
100
AcDbPoint
10
0
20
0
30
0
39
0
210
0
220
0
230
1
50
360
0
POINT
5
47
100
AcDbEntity
8
1
62
256
6
ByLayer
370
-1
48
1
60
0
100
AcDbPoint
10
88.1583
20
5.204599
30
0.8
39
0
210
0
220
0
230
1
50
360
0
POINT
5
48
100
AcDbEntity
8
1
62
256
6
ByLayer
370
-1
48
1
60
0
100
AcDbPoint
10
88.1569
20
-2.3884
30
-0.18
39
0
210
0
220
0
230
1
50
360
0
POINT
5
49
100
AcDbEntity
8
81
62
256
6
ByLayer
370
-1
48
1
60
0
100
AcDbPoint
10
91
20
0
30
0
39
0
210
0
220
0
230
1
50
360
0
POINT
5
4B
100
AcDbEntity
8
80
62
256
6
ByLayer
370
-1
48
1
60
0
100
AcDbPoint
10
0
20
0
30
0
39
0
210
0
220
0
230
1
50
360
0
SPLINE
5
B3
100
AcDbEntity
8
1
62
256
6
ByLayer
370
-1
48
1
60
0
100
AcDbSpline
70
4
71
3
72
29
73
25
40
0
40
0
40
0
40
0
40
0.0005000049958128
40
0.0500000133944321
40
0.100000011906162
40
0.150000010417892
40
0.200000008929621
40
0.250000007441351
40
0.300000005953081
40
0.350000004464811
40
0.40000000297654
40
0.45000000148827
40
0.5
40
0.54999999851173
40
0.599999997023459
40
0.649999995535189
40
0.699999994046919
40
0.749999992558649
40
0.799999991070379
40
0.849999989582108
40
0.899999988093838
40
0.949999986605568
40
0.999499995004187
40
1
40
1
40
1
40
1
41
1
10
79.5
20
7.38977342572472
30
2.1636193557215
41
1
10
79.4971262830384
20
7.3900845450897
30
2.16255673726166
41
1
10
79.2097573630416
20
7.42117312289786
30
2.05628970496533
41
1
10
78.6350099268579
20
7.47876623717596
30
1.84241118072463
41
1
10
77.7757699871992
20
7.55106781713176
30
1.51926443409344
41
1
10
76.9136543911425
20
7.60956154620865
30
1.19220926712621
41
1
10
76.0515393312933
20
7.65389646781357
30
0.862936045294415
41
1
10
75.1894241277677
20
7.68399017415343
30
0.532057138435342
41
1
10
74.32730896274
20
7.69978664881354
30
0.200188275309117
41
1
10
73.4651937873971
20
7.70125650609541
30
-0.132053072850767
41
1
10
72.6030786148172
20
7.68839700948998
30
-0.464048715088291
41
1
10
71.7409634415005
20
7.66123208647175
30
-0.795180924761288
41
1
10
70.878848268368
20
7.61981228137175
30
-1.12483357986921
41
1
10
70.0167330952355
20
7.56421466205498
30
-1.45239331182742
41
1
10
69.1546179219188
20
7.4945426762391
30
-1.77725064623436
41
1
10
68.2925027493389
20
7.41092595943091
30
-2.09880113649657
41
1
10
67.430387573996
20
7.31352009233841
30
-2.4164464905685
41
1
10
66.5682724089683
20
7.20250631649838
30
-2.7295956762582
41
1
10
65.7061572054428
20
7.07809117799458
30
-3.03766605048559
41
1
10
64.8440421455935
20
6.94050621425615
30
-3.34008433307166
41
1
10
63.9819265495368
20
6.79000725786719
30
-3.63628808508555
41
1
10
63.1226866098781
20
6.62741871458285
30
-3.9247604475661
41
1
10
62.5479391736942
20
6.51048352064152
30
-4.11287517416013
41
1
10
62.2605702536976
20
6.45001590181962
30
-4.20562671806753
41
1
10
62.257696536736
20
6.44941101699329
30
-4.20655411636241
0
SPLINE
5
B4
100
AcDbEntity
8
1
62
256
6
ByLayer
370
-1
48
1
60
0
100
AcDbSpline
70
4
71
3
72
29
73
25
40
0
40
0
40
0
40
0
40
0.0005000139295227
40
0.0500000373444014
40
0.100000033195023
40
0.150000029045645
40
0.200000024896268
40
0.250000020746889
40
0.300000016597512
40
0.350000012448134
40
0.400000008298756
40
0.450000004149378
40
0.5
40
0.549999995850622
40
0.599999991701244
40
0.649999987551866
40
0.699999983402488
40
0.74999997925311
40
0.799999975103732
40
0.849999970954354
40
0.899999966804976
40
0.949999962655599
40
0.999499986070477
40
1
40
1
40
1
40
1
41
1
10
79.5
20
0.998769402694958
30
7.63494988066329
41
1
10
79.4952012604836
20
1.00060272155247
30
7.63471005397584
41
1
10
79.0153402344658
20
1.18391865400073
30
7.61066236654915
41
1
10
78.0555735032063
20
1.54883240481878
30
7.5493537180381
41
1
10
76.6207570544893
20
2.08640545093189
30
7.41886481378916
41
1
10
75.1811328363282
20
2.61495836395286
30
7.24945774630736
41
1
10
73.7415111147182
20
3.12994654588334
30
7.04244834412873
41
1
10
72.3018887241594
20
3.62870018431889
30
6.79891015637716
41
1
10
70.8622665128446
20
4.10863189998711
30
6.52010645305362
41
1
10
69.4226442535027
20
4.56725241722551
30
6.20748335767064
41
1
10
67.9830220070252
20
5.00218287284126
30
5.86266243066211
41
1
10
66.5433997571172
20
5.41116731666298
30
5.48743223585954
41
1
10
65.1037775080668
20
5.79208436973202
30
5.08373906931902
41
1
10
63.6641552590164
20
6.14295823935969
30
4.65367686260606
41
1
10
62.2245330091084
20
6.46196896434173
30
4.19947632129621
41
1
10
60.7849107626309
20
6.74746185578911
30
3.72349335746435
41
1
10
59.345288503289
20
6.99795607977886
30
3.22819685803534
41
1
10
57.9056662919742
20
7.21215233801603
30
2.71615592251519
41
1
10
56.4660439014155
20
7.38893960866001
30
2.19002637412974
41
1
10
55.0264221798055
20
7.52740090367276
30
1.65253759294282
41
1
10
53.5867979616443
20
7.6268180455459
30
1.10647608699544
41
1
10
52.1519815129274
20
7.68647580317603
30
0.556518737745553
41
1
10
51.1922147816676
20
7.69993343560379
30
0.186735438977495
41
1
10
50.7123537556501
20
7.69999999974565
30
0.0018489388506251
41
1
10
50.7075550161336
20
7.7
30
9E-15
0
SPLINE
5
B5
100
AcDbEntity
8
1
62
256
6
ByLayer
370
-1
48
1
60
0
100
AcDbSpline
70
4
71
3
72
29
73
25
40
0
40
0
40
0
40
0
40
0.0005000192040319
40
0.0500000514830934
40
0.10000004576275
40
0.150000040042406
40
0.200000034322062
40
0.250000028601718
40
0.300000022881375
40
0.350000017161031
40
0.400000011440687
40
0.450000005720344
40
0.5
40
0.549999994279656
40
0.599999988559313
40
0.649999982838969
40
0.699999977118625
40
0.749999971398281
40
0.799999965677938
40
0.849999959957594
40
0.89999995423725
40
0.949999948516907
40
0.999499980795968
40
1
40
1
40
1
40
1
41
1
10
73.8078380573384
20
-7.7
30
9E-15
41
1
10
73.8022034197897
20
-7.69999999951654
30
0.0021710147725942
41
1
10
73.238760588805
20
-7.69990824170966
30
0.219260537594036
41
1
10
72.1118026004452
20
-7.68135096964239
30
0.65345619661108
41
1
10
70.4270567653912
20
-7.59913978528369
30
1.29793543986638
41
1
10
68.7366616751705
20
-7.4623182958979
30
1.93529619912629
41
1
10
67.0462706263525
20
-7.27213982398315
30
2.55881742086566
41
1
10
65.3558784946439
20
-7.02996415787282
30
3.16404309147096
41
1
10
63.6654866530945
20
-6.7375229062987
30
3.74664512024052
41
1
10
61.9750947337992
20
-6.39690707835402
30
4.30245795521874
41
1
10
60.2847028353286
20
-6.01055214274323
30
4.82750738453953
41
1
10
58.5943109313047
20
-5.58122061096238
30
5.31803921623707
41
1
10
56.9039190286692
20
-5.11198228546188
30
5.77054605083803
41
1
10
55.2135271260337
20
-4.60619231013467
30
6.18179237889165
41
1
10
53.5231352220098
20
-4.06746717910001
30
6.54883771026303
41
1
10
51.8327433235392
20
-3.49965888310267
30
6.86905760111541
41
1
10
50.1423514042439
20
-2.90682734824729
30
7.14016241673839
41
1
10
48.4519595626945
20
-2.29321147691152
30
7.36021371074393
41
1
10
46.7615674309859
20
-1.66319857693811
30
7.5276380562935
41
1
10
45.0711763821679
20
-1.0212939687696
30
7.64123840466976
41
1
10
43.3807812919472
20
-0.372085124496344
30
7.70020224036169
41
1
10
41.6960354568932
20
0.277604811866536
30
7.70409587739822
41
1
10
40.5690774685334
20
0.710869713198359
30
7.67015817079099
41
1
10
40.0056346375487
20
0.926386074243257
30
7.64407048288463
41
1
10
40
20
0.928541245933463
30
7.64380868118769
0
SPLINE
5
B6
100
AcDbEntity
8
1
62
256
6
ByLayer
370
-1
48
1
60
0
100
AcDbSpline
70
4
71
3
72
29
73
25
40
0
40
0
40
0
40
0
40
0.0005000083245821
40
0.0500000223187481
40
0.100000019838887
40
0.150000017359026
40
0.200000014879165
40
0.250000012399305
40
0.300000009919444
40
0.350000007439583
40
0.400000004959722
40
0.450000002479861
40
0.5
40
0.549999997520139
40
0.599999995040278
40
0.649999992560417
40
0.699999990080556
40
0.749999987600695
40
0.799999985120835
40
0.849999982640974
40
0.899999980161113
40
0.949999977681252
40
0.999499991675418
40
1
40
1
40
1
40
1
41
1
10
62.257696536736
20
-6.44941101699329
30
-4.20655411636241
41
1
10
62.2539869212537
20
-6.45019185055012
30
-4.20535695661979
41
1
10
61.8830313445284
20
-6.52824002627564
30
-4.08562211004947
41
1
10
61.1410995497505
20
-6.67767076207908
30
-3.84179914452528
41
1
10
60.0319276004738
20
-6.88053795290017
30
-3.46547468735734
41
1
10
58.9190418639958
20
-7.06275359040538
30
-3.07714636939509
41
1
10
57.8061572808966
20
-7.22307298609511
30
-2.67927871029982
41
1
10
56.6932723887506
20
-7.36099947115582
30
-2.27310462961843
41
1
10
55.5803875794132
20
-7.47610535084822
30
-1.85988349657574
41
1
10
54.4675027478879
20
-7.56803379908758
30
-1.44089634062934
41
1
10
53.3546179223058
20
-7.63649981230902
30
-1.01744211719207
41
1
10
52.2417330951388
20
-7.68129113386649
30
-0.590833617063614
41
1
10
51.128848268368
20
-7.70226890111765
30
-0.162393413518092
41
1
10
50.0159634415972
20
-7.69936807890998
30
0.266550242412953
41
1
10
48.9030786144303
20
-7.67259766022106
30
0.694667538900644
41
1
10
47.7901937888481
20
-7.6220406392221
30
1.12063122507708
41
1
10
46.6773089573228
20
-7.54785375118659
30
1.54312073037555
41
1
10
45.5644241479855
20
-7.45026699680639
30
1.96082624111534
41
1
10
44.4515392558394
20
-7.32958289102744
30
2.37245282639734
41
1
10
43.3386546727402
20
-7.18617566742793
30
2.77672420926749
41
1
10
42.2257689362623
20
-7.02048958719175
30
3.1723876317604
41
1
10
41.1165969869855
20
-6.83366435580598
30
3.5569283020308
41
1
10
40.3746651922074
20
-6.69464329432226
30
3.80683293941021
41
1
10
40.0037096154823
20
-6.62171117457438
30
3.92975103053748
41
1
10
40
20
-6.62098149393548
30
3.93098003772136
0
SPLINE
5
B7
100
AcDbEntity
8
1
62
256
6
ByLayer
370
-1
48
1
60
0
100
AcDbSpline
70
4
71
3
72
9
73
5
40
0
40
0
40
0
40
0
40
0.559352875950438
40
1
40
1
40
1
40
1
41
1
10
40
20
-6.62098149393548
30
3.93098003772136
41
1
10
32.73795328427
20
-4.35288511423902
30
9.48617073729312
41
1
10
27.0170566238879
20
-1.15850792797637
30
14.5547004729012
41
1
10
34.2791033396179
20
0.497519024483121
30
10.9293797810296
41
1
10
40
20
0.928541245933463
30
7.64380868118769
0
SPLINE
5
B8
100
AcDbEntity
8
1
62
256
6
ByLayer
370
-1
48
1
60
0
100
AcDbSpline
70
4
71
3
72
16
73
12
40
0
40
0
40
0
40
0
40
0.0463470189311361
40
0.0463470189311361
40
0.292714190516279
40
0.292714190516279
40
0.624961574752601
40
0.624961574752601
40
0.880903213804346
40
0.880903213804346
40
1
40
1
40
1
40
1
41
1
10
9.33660254037845
20
6.1698063921468
30
19.0245496420658
41
1
10
9.41120970705357
20
6.4402689496347
30
18.9368365740867
41
1
10
9.48289389445297
20
6.70966326688875
30
18.8430756135634
41
1
10
9.91644779893528
20
8.4014429398824
30
18.2132817825428
41
1
10
10.1968857470654
20
9.79592967066934
30
17.5057124532486
41
1
10
10.6104994244177
20
12.8306959686099
30
15.4840886154574
41
1
10
10.6603659269754
20
14.4297824024
30
14.0071576081823
41
1
10
10.4040057931725
20
16.7286941568393
30
11.0802943355344
41
1
10
10.1767842109767
20
17.5747161700864
30
9.67771638760926
41
1
10
9.70100248234614
20
18.5335352447912
30
7.5534748488203
41
1
10
9.52830884327845
20
18.7991995076926
30
6.86473914991821
41
1
10
9.33659112649157
20
19.0245904583064
30
6.16973761852513
0
SPLINE
5
B9
100
AcDbEntity
8
1
62
256
6
ByLayer
370
-1
48
1
60
0
100
AcDbSpline
70
4
71
3
72
16
73
12
40
0
40
0
40
0
40
0
40
0.0463492595373783
40
0.0463492595373783
40
0.29272440709006
40
0.29272440709006
40
0.624973152517318
40
0.624973152517318
40
0.880915511168991
40
0.880915511168991
40
1
40
1
40
1
40
1
41
1
10
6.66339745962155
20
6.16980639336087
30
19.024549641672
41
1
10
6.73800822761631
20
5.89933078050227
30
19.1122669436263
41
1
10
6.51709918401399
20
6.70968927922732
30
18.8430665597784
41
1
10
6.08353203432038
20
8.40152698944123
30
18.2132471355468
41
1
10
5.80308950801756
20
9.79605700675114
30
17.5056457299704
41
1
10
5.38948896335545
20
12.830854303
30
15.4839587254809
41
1
10
5.33963545766467
20
14.429932300597
30
14.0070043182712
41
1
10
5.59601990931222
20
16.7288187252401
30
11.0801068091082
41
1
10
5.8232523467298
20
17.5748263953976
30
9.67751661405653
41
1
10
6.29903323852959
20
18.5335902214347
30
7.55333237374364
41
1
10
6.4717109672261
20
18.7992227994875
30
6.86466733249556
41
1
10
6.66340887413668
20
19.024590460553
30
6.16973761473966
0
SPLINE
5
BA
100
AcDbEntity
8
1
62
256
6
ByLayer
370
-1
48
1
60
0
100
AcDbSpline
70
4
71
3
72
12
73
8
40
0
40
0
40
0
40
0
40
0.48557129858128
40
0.48557129858128
40
0.936402085205193
40
0.936402085205193
40
1
40
1
40
1
40
1
41
1
10
9.33660254037845
20
6.16980639330488
30
19.0245496416902
41
1
10
9.35456651699916
20
6.23492859639202
30
19.0034300150751
41
1
10
9.29375666287366
20
6.03987724384563
30
19.0662952264127
41
1
10
9.22189536050024
20
5.92914516396304
30
19.101007006467
41
1
10
9.16894029016483
20
5.87474700467883
30
19.1177302439758
41
1
10
9.09537819879925
20
5.86084605005278
30
19.1219922204584
41
1
10
9.0860652092108
20
5.85996421168224
30
19.1222597889947
41
1
10
9.07679491924311
20
5.85996421168224
30
19.1222597889947
0
SPLINE
5
BB
100
AcDbEntity
8
1
62
256
6
ByLayer
370
-1
48
1
60
0
100
AcDbSpline
70
4
71
3
72
12
73
8
40
0
40
0
40
0
40
0
40
0.485571298590738
40
0.485571298590738
40
0.936402085205416
40
0.936402085205416
40
1
40
1
40
1
40
1
41
1
10
9.33660254037845
20
19.024549641672
30
6.1698063933609
41
1
10
9.31863856375527
20
19.0456692682904
30
6.10468419026449
41
1
10
9.29375666288881
20
19.0662952264032
30
6.03987724387556
41
1
10
9.22189536051243
20
19.1010070064631
30
5.92914516397584
41
1
10
9.16894029017443
20
19.1177302439747
30
5.87474700468218
41
1
10
9.09537819880148
20
19.1219922204584
30
5.86084605005308
41
1
10
9.08606520921191
20
19.1222597889947
30
5.85996421168232
41
1
10
9.07679491924311
20
19.1222597889947
30
5.85996421168232
0
SPLINE
5
BC
100
AcDbEntity
8
1
62
256
6
ByLayer
370
-1
48
1
60
0
100
AcDbSpline
70
4
71
3
72
9
73
5
40
0
40
0
40
0
40
0
40
0.505050505050505
40
1
40
1
40
1
40
1
41
1
10
9.07679491924311
20
5.85996421168224
30
19.1222597889947
41
1
10
8.71423770737674
20
5.85996421168224
30
19.1222597889947
41
1
10
7.99637442788135
20
5.85996421157611
30
19.1222597890272
41
1
10
7.27851114838593
20
5.85996421168224
30
19.1222597889947
41
1
10
6.92320508075689
20
5.85996421168224
30
19.1222597889947
0
SPLINE
5
BD
100
AcDbEntity
8
1
62
256
6
ByLayer
370
-1
48
1
60
0
100
AcDbSpline
70
4
71
3
72
9
73
5
40
0
40
0
40
0
40
0
40
0.494949494949495
40
1
40
1
40
1
40
1
41
1
10
6.92320508075689
20
19.1222597889947
30
5.85996421168232
41
1
10
7.27851114838593
20
19.1222597889947
30
5.85996421168232
41
1
10
7.99637442788135
20
19.1222597901563
30
5.85996420789166
41
1
10
8.71423770737674
20
19.1222597889947
30
5.85996421168232
41
1
10
9.07679491924311
20
19.1222597889947
30
5.85996421168232
0
SPLINE
5
BE
100
AcDbEntity
8
1
62
256
6
ByLayer
370
-1
48
1
60
0
100
AcDbSpline
70
4
71
3
72
12
73
8
40
0
40
0
40
0
40
0
40
0.485571298590726
40
0.485571298590726
40
0.936402085205378
40
0.936402085205378
40
1
40
1
40
1
40
1
41
1
10
6.66339745962155
20
6.16980639336087
30
19.024549641672
41
1
10
6.68136143624474
20
6.10468419026446
30
19.0456692682904
41
1
10
6.70624333711118
20
6.03987724387551
30
19.0662952264033
41
1
10
6.77810463948755
20
5.92914516397578
30
19.1010070064631
41
1
10
6.83105970982554
20
5.87474700468211
30
19.1177302439747
41
1
10
6.9046218011985
20
5.860846050053
30
19.1219922204584
41
1
10
6.91393479078808
20
5.85996421168224
30
19.1222597889947
41
1
10
6.92320508075689
20
5.85996421168224
30
19.1222597889947
0
SPLINE
5
BF
100
AcDbEntity
8
1
62
256
6
ByLayer
370
-1
48
1
60
0
100
AcDbSpline
70
4
71
3
72
12
73
8
40
0
40
0
40
0
40
0
40
0.485571298585116
40
0.485571298585116
40
0.936402085205247
40
0.936402085205247
40
1
40
1
40
1
40
1
41
1
10
6.66339745962155
20
19.0245496416828
30
6.16980639332778
41
1
10
6.64543348299983
20
19.0034300150663
30
6.2349285964187
41
1
10
6.70624333712016
20
19.0662952264088
30
6.03987724385789
41
1
10
6.77810463949479
20
19.1010070064654
30
5.92914516396832
41
1
10
6.83105970983124
20
19.1177302439753
30
5.87474700468025
41
1
10
6.90462180119982
20
19.1219922204584
30
5.86084605005295
41
1
10
6.91393479078874
20
19.1222597889947
30
5.85996421168232
41
1
10
6.92320508075689
20
19.1222597889947
30
5.85996421168232
0
SPLINE
5
C0
100
AcDbEntity
8
1
62
256
6
ByLayer
370
-1
48
1
60
0
100
AcDbSpline
70
4
71
3
72
16
73
12
40
0
40
0
40
0
40
0
40
0.0463470189311361
40
0.0463470189311361
40
0.292714190516279
40
0.292714190516279
40
0.624961574752601
40
0.624961574752601
40
0.880903213804346
40
0.880903213804346
40
1
40
1
40
1
40
1
41
1
10
9.33660254037845
20
-6.1698063921468
30
19.0245496420658
41
1
10
9.41120970705357
20
-6.44026894963469
30
18.9368365740867
41
1
10
9.48289389445297
20
-6.70966326688875
30
18.8430756135634
41
1
10
9.91644779893527
20
-8.4014429398824
30
18.2132817825428
41
1
10
10.1968857470654
20
-9.79592967066934
30
17.5057124532486
41
1
10
10.6104994244177
20
-12.8306959686099
30
15.4840886154574
41
1
10
10.6603659269754
20
-14.4297824024
30
14.0071576081823
41
1
10
10.4040057931725
20
-16.7286941568393
30
11.0802943355344
41
1
10
10.1767842109767
20
-17.5747161700864
30
9.67771638760926
41
1
10
9.70100248234614
20
-18.5335352447912
30
7.5534748488203
41
1
10
9.52830884327845
20
-18.7991995076926
30
6.86473914991821
41
1
10
9.33659112649157
20
-19.0245904583064
30
6.16973761852513
0
SPLINE
5
C1
100
AcDbEntity
8
1
62
256
6
ByLayer
370
-1
48
1
60
0
100
AcDbSpline
70
4
71
3
72
16
73
12
40
0
40
0
40
0
40
0
40
0.0463492595373783
40
0.0463492595373783
40
0.29272440709006
40
0.29272440709006
40
0.624973152517318
40
0.624973152517318
40
0.880915511168991
40
0.880915511168991
40
1
40
1
40
1
40
1
41
1
10
6.66339745962156
20
-6.16980639336086
30
19.024549641672
41
1
10
6.73800822761631
20
-5.89933078050227
30
19.1122669436263
41
1
10
6.51709918401399
20
-6.70968927922732
30
18.8430665597784
41
1
10
6.08353203432037
20
-8.40152698944124
30
18.2132471355468
41
1
10
5.80308950801756
20
-9.79605700675114
30
17.5056457299704
41
1
10
5.38948896335545
20
-12.830854303
30
15.4839587254809
41
1
10
5.33963545766466
20
-14.429932300597
30
14.0070043182712
41
1
10
5.59601990931222
20
-16.7288187252401
30
11.0801068091082
41
1
10
5.8232523467298
20
-17.5748263953976
30
9.67751661405653
41
1
10
6.29903323852959
20
-18.5335902214347
30
7.55333237374364
41
1
10
6.4717109672261
20
-18.7992227994875
30
6.86466733249556
41
1
10
6.66340887413668
20
-19.024590460553
30
6.16973761473966
0
SPLINE
5
C2
100
AcDbEntity
8
1
62
256
6
ByLayer
370
-1
48
1
60
0
100
AcDbSpline
70
4
71
3
72
12
73
8
40
0
40
0
40
0
40
0
40
0.48557129858128
40
0.48557129858128
40
0.936402085205193
40
0.936402085205193
40
1
40
1
40
1
40
1
41
1
10
9.33660254037845
20
-6.16980639330488
30
19.0245496416902
41
1
10
9.35456651699916
20
-6.23492859639202
30
19.0034300150751
41
1
10
9.29375666287366
20
-6.03987724384563
30
19.0662952264127
41
1
10
9.22189536050024
20
-5.92914516396304
30
19.101007006467
41
1
10
9.16894029016483
20
-5.87474700467883
30
19.1177302439758
41
1
10
9.09537819879925
20
-5.86084605005278
30
19.1219922204584
41
1
10
9.0860652092108
20
-5.85996421168224
30
19.1222597889947
41
1
10
9.07679491924311
20
-5.85996421168224
30
19.1222597889947
0
SPLINE
5
C3
100
AcDbEntity
8
1
62
256
6
ByLayer
370
-1
48
1
60
0
100
AcDbSpline
70
4
71
3
72
12
73
8
40
0
40
0
40
0
40
0
40
0.485571298590738
40
0.485571298590738
40
0.936402085205416
40
0.936402085205416
40
1
40
1
40
1
40
1
41
1
10
9.33660254037845
20
-19.024549641672
30
6.1698063933609
41
1
10
9.31863856375527
20
-19.0456692682904
30
6.10468419026449
41
1
10
9.29375666288881
20
-19.0662952264032
30
6.03987724387556
41
1
10
9.22189536051243
20
-19.1010070064631
30
5.92914516397584
41
1
10
9.16894029017443
20
-19.1177302439747
30
5.87474700468218
41
1
10
9.09537819880148
20
-19.1219922204584
30
5.86084605005308
41
1
10
9.08606520921191
20
-19.1222597889947
30
5.85996421168232
41
1
10
9.07679491924311
20
-19.1222597889947
30
5.85996421168232
0
SPLINE
5
C4
100
AcDbEntity
8
1
62
256
6
ByLayer
370
-1
48
1
60
0
100
AcDbSpline
70
4
71
3
72
9
73
5
40
0
40
0
40
0
40
0
40
0.505050505050505
40
1
40
1
40
1
40
1
41
1
10
9.07679491924311
20
-5.85996421168224
30
19.1222597889947
41
1
10
8.71423770737674
20
-5.85996421168224
30
19.1222597889947
41
1
10
7.99637442788135
20
-5.8599642115761
30
19.1222597890272
41
1
10
7.27851114838593
20
-5.85996421168224
30
19.1222597889947
41
1
10
6.92320508075689
20
-5.85996421168224
30
19.1222597889947
0
SPLINE
5
C5
100
AcDbEntity
8
1
62
256
6
ByLayer
370
-1
48
1
60
0
100
AcDbSpline
70
4
71
3
72
9
73
5
40
0
40
0
40
0
40
0
40
0.494949494949495
40
1
40
1
40
1
40
1
41
1
10
6.92320508075689
20
-19.1222597889947
30
5.85996421168232
41
1
10
7.27851114838593
20
-19.1222597889947
30
5.85996421168232
41
1
10
7.99637442788135
20
-19.1222597901563
30
5.85996420789166
41
1
10
8.71423770737674
20
-19.1222597889947
30
5.85996421168232
41
1
10
9.07679491924311
20
-19.1222597889947
30
5.85996421168232
0
SPLINE
5
C6
100
AcDbEntity
8
1
62
256
6
ByLayer
370
-1
48
1
60
0
100
AcDbSpline
70
4
71
3
72
12
73
8
40
0
40
0
40
0
40
0
40
0.485571298590726
40
0.485571298590726
40
0.936402085205378
40
0.936402085205378
40
1
40
1
40
1
40
1
41
1
10
6.66339745962156
20
-6.16980639336086
30
19.024549641672
41
1
10
6.68136143624474
20
-6.10468419026446
30
19.0456692682904
41
1
10
6.70624333711118
20
-6.03987724387551
30
19.0662952264033
41
1
10
6.77810463948755
20
-5.92914516397578
30
19.1010070064631
41
1
10
6.83105970982554
20
-5.87474700468211
30
19.1177302439747
41
1
10
6.9046218011985
20
-5.860846050053
30
19.1219922204584
41
1
10
6.91393479078808
20
-5.85996421168224
30
19.1222597889947
41
1
10
6.92320508075689
20
-5.85996421168224
30
19.1222597889947
0
SPLINE
5
C7
100
AcDbEntity
8
1
62
256
6
ByLayer
370
-1
48
1
60
0
100
AcDbSpline
70
4
71
3
72
12
73
8
40
0
40
0
40
0
40
0
40
0.485571298585116
40
0.485571298585116
40
0.936402085205247
40
0.936402085205247
40
1
40
1
40
1
40
1
41
1
10
6.66339745962155
20
-19.0245496416828
30
6.16980639332778
41
1
10
6.64543348299983
20
-19.0034300150663
30
6.2349285964187
41
1
10
6.70624333712016
20
-19.0662952264088
30
6.03987724385789
41
1
10
6.77810463949479
20
-19.1010070064654
30
5.92914516396832
41
1
10
6.83105970983124
20
-19.1177302439753
30
5.87474700468025
41
1
10
6.90462180119982
20
-19.1219922204584
30
5.86084605005295
41
1
10
6.91393479078874
20
-19.1222597889947
30
5.85996421168232
41
1
10
6.92320508075689
20
-19.1222597889947
30
5.85996421168232
0
SPLINE
5
C8
100
AcDbEntity
8
1
62
256
6
ByLayer
370
-1
48
1
60
0
100
AcDbSpline
70
4
71
3
72
9
73
5
40
0
40
0
40
0
40
0
40
0.252202504917235
40
1
40
1
40
1
40
1
41
1
10
89.8989958331469
20
-1.61014528591057
30
0
41
1
10
89.834202132862
20
-2.12132998205262
30
0
41
1
10
89.6568052114537
20
-4.14898607209918
30
0
41
1
10
89.7946886050123
20
-6.17971181847874
30
0
41
1
10
90.0741025582655
20
-7.7
30
0
0
LINE
5
4D
100
AcDbEntity
8
SK4
62
256
6
ByLayer
370
-1
48
0.05
60
0
100
AcDbLine
10
92.8
20
0
30
0
11
-26.2
21
0
31
0
39
0
210
0
220
0
230
1
0
LINE
5
4F
100
AcDbEntity
8
4
62
256
6
ByLayer
370
-1
48
0.05
60
0
100
AcDbLine
10
92.8
20
0
30
0
11
-2.2
21
0
31
0
39
0
210
0
220
0
230
1
0
LINE
5
51
100
AcDbEntity
8
1
62
256
6
ByLayer
370
-1
48
1
60
0
100
AcDbLine
10
79.5
20
7.7
30
0
11
73.807838
21
7.7
31
0
39
0
210
0
220
0
230
1
0
LINE
5
52
100
AcDbEntity
8
1
62
256
6
ByLayer
370
-1
48
1
60
0
100
AcDbLine
10
79.5
20
-7.7
30
0
11
73.807838
21
-7.7
31
0
39
0
210
0
220
0
230
1
0
LINE
5
53
100
AcDbEntity
8
1
62
256
6
ByLayer
370
-1
48
1
60
0
100
AcDbLine
10
50.707555
20
7.7
30
0
11
40
21
7.7
31
0
39
0
210
0
220
0
230
1
0
LINE
5
54
100
AcDbEntity
8
1
62
256
6
ByLayer
370
-1
48
1
60
0
100
AcDbLine
10
50.707555
20
-7.7
30
0
11
40
21
-7.7
31
0
39
0
210
0
220
0
230
1
0
LINE
5
55
100
AcDbEntity
8
1
62
256
6
ByLayer
370
-1
48
1
60
0
100
AcDbLine
10
40
20
-7.700001
30
0
11
40
21
-6.620981
31
3.93098
39
0
210
0
220
0
230
1
0
LINE
5
56
100
AcDbEntity
8
1
62
256
6
ByLayer
370
-1
48
1
60
0
100
AcDbLine
10
40
20
0.928541
30
7.643809
11
40
21
7.700001
31
0
39
0
210
0
220
0
230
1
0
LINE
5
57
100
AcDbEntity
8
1
62
256
6
ByLayer
370
-1
48
1
60
0
100
AcDbLine
10
30.4
20
11
30
0
11
30.4
21
-11
31
0
39
0
210
0
220
0
230
1
0
LINE
5
58
100
AcDbEntity
8
1
62
256
6
ByLayer
370
-1
48
1
60
0
100
AcDbLine
10
29.9981
20
12.5
30
0
11
29.9981
21
-12.5
31
0
39
0
210
0
220
0
230
1
0
LINE
5
59
100
AcDbEntity
8
1
62
256
6
ByLayer
370
-1
48
1
60
0
100
AcDbLine
10
25.2
20
-12.5
30
0
11
25
21
-12.3
31
0
39
0
210
0
220
0
230
1
0
LINE
5
5A
100
AcDbEntity
8
1
62
256
6
ByLayer
370
-1
48
1
60
0
100
AcDbLine
10
25.2
20
-12.5
30
0
11
25.2
21
12.5
31
0
39
0
210
0
220
0
230
1
0
LINE
5
5B
100
AcDbEntity
8
1
62
256
6
ByLayer
370
-1
48
1
60
0
100
AcDbLine
10
25
20
-12.3
30
0
11
25
21
12.3
31
0
39
0
210
0
220
0
230
1
0
LINE
5
5C
100
AcDbEntity
8
1
62
256
6
ByLayer
370
-1
48
1
60
0
100
AcDbLine
10
25.2
20
12.5
30
0
11
25
21
12.3
31
0
39
0
210
0
220
0
230
1
0
LINE
5
5D
100
AcDbEntity
8
1
62
256
6
ByLayer
370
-1
48
1
60
0
100
AcDbLine
10
25.2
20
-12.5
30
0
11
29.9981
21
-12.5
31
0
39
0
210
0
220
0
230
1
0
LINE
5
5E
100
AcDbEntity
8
1
62
256
6
ByLayer
370
-1
48
1
60
0
100
AcDbLine
10
25.2
20
12.5
30
0
11
29.9981
21
12.5
31
0
39
0
210
0
220
0
230
1
0
LINE
5
5F
100
AcDbEntity
8
1
62
256
6
ByLayer
370
-1
48
1
60
0
100
AcDbLine
10
29.9981
20
-12.5
30
0
11
30.4
21
-11
31
0
39
0
210
0
220
0
230
1
0
LINE
5
60
100
AcDbEntity
8
1
62
256
6
ByLayer
370
-1
48
1
60
0
100
AcDbLine
10
29.9981
20
12.5
30
0
11
30.4
21
11
31
0
39
0
210
0
220
0
230
1
0
LINE
5
61
100
AcDbEntity
8
1
62
256
6
ByLayer
370
-1
48
1
60
0
100
AcDbLine
10
90.074103
20
-7.7
30
0
11
90.820599
21
-2.3884
31
0
39
0
210
0
220
0
230
1
0
LINE
5
62
100
AcDbEntity
8
1
62
256
6
ByLayer
370
-1
48
1
60
0
100
AcDbLine
10
90.820599
20
-2.3884
30
0
11
90.484932
21
0
31
0
39
0
210
0
220
0
230
1
0
LINE
5
63
100
AcDbEntity
8
1
62
256
6
ByLayer
370
-1
48
1
60
0
100
AcDbLine
10
20.958548
20
-20
30
0
11
0
21
-20
31
0
39
0
210
0
220
0
230
1
0
LINE
5
64
100
AcDbEntity
8
1
62
256
6
ByLayer
370
-1
48
1
60
0
100
AcDbLine
10
0
20
-20
30
0
11
0
21
20
31
0
39
0
210
0
220
0
230
1
0
LINE
5
65
100
AcDbEntity
8
SK1
62
256
6
ByLayer
370
-1
48
1
60
0
100
AcDbLine
10
-24
20
-13.173775
30
0
11
-24
21
13.173775
31
0
39
0
210
0
220
0
230
1
0
LINE
5
67
100
AcDbEntity
8
SK1
62
256
6
ByLayer
370
-1
48
1
60
0
100
AcDbLine
10
-1.6
20
-14.0625
30
0
11
-1.6
21
14.0625
31
0
39
0
210
0
220
0
230
1
0
LINE
5
68
100
AcDbEntity
8
SK1
62
256
6
ByLayer
370
-1
48
1
60
0
100
AcDbLine
10
0
20
-13.912453
30
0
11
-1.6
21
-13.87245
31
0
39
0
210
0
220
0
230
1
0
LINE
5
69
100
AcDbEntity
8
SK1
62
256
6
ByLayer
370
-1
48
1
60
0
100
AcDbLine
10
-1.6
20
13.87245
30
0
11
0.003749
21
13.912547
31
0
39
0
210
0
220
0
230
1
0
LINE
5
6A
100
AcDbEntity
8
1
62
256
6
ByLayer
370
-1
48
1
60
0
100
AcDbLine
10
6.663397
20
6.169806
30
19.02455
11
6.663409
21
19.02459
31
6.169738
39
0
210
0
220
0
230
1
0
LINE
5
6B
100
AcDbEntity
8
1
62
256
6
ByLayer
370
-1
48
1
60
0
100
AcDbLine
10
6.923205
20
5.859964
30
19.12226
11
6.923205
21
19.12226
31
5.859964
39
0
210
0
220
0
230
1
0
LINE
5
6C
100
AcDbEntity
8
1
62
256
6
ByLayer
370
-1
48
1
60
0
100
AcDbLine
10
9.076795
20
5.859964
30
19.12226
11
9.076795
21
19.12226
31
5.859964
39
0
210
0
220
0
230
1
0
LINE
5
6D
100
AcDbEntity
8
1
62
256
6
ByLayer
370
-1
48
1
60
0
100
AcDbLine
10
9.336603
20
6.169806
30
19.02455
11
9.336591
21
19.02459
31
6.169738
39
0
210
0
220
0
230
1
0
LINE
5
6E
100
AcDbEntity
8
1
62
256
6
ByLayer
370
-1
48
1
60
0
100
AcDbLine
10
6.663397
20
-6.169806
30
19.02455
11
6.663409
21
-19.02459
31
6.169738
39
0
210
0
220
0
230
1
0
LINE
5
6F
100
AcDbEntity
8
1
62
256
6
ByLayer
370
-1
48
1
60
0
100
AcDbLine
10
6.923205
20
-5.859964
30
19.12226
11
6.923205
21
-19.12226
31
5.859964
39
0
210
0
220
0
230
1
0
LINE
5
70
100
AcDbEntity
8
1
62
256
6
ByLayer
370
-1
48
1
60
0
100
AcDbLine
10
9.076795
20
-5.859964
30
19.12226
11
9.076795
21
-19.12226
31
5.859964
39
0
210
0
220
0
230
1
0
LINE
5
71
100
AcDbEntity
8
1
62
256
6
ByLayer
370
-1
48
1
60
0
100
AcDbLine
10
9.336603
20
-6.169806
30
19.02455
11
9.336591
21
-19.02459
31
6.169738
39
0
210
0
220
0
230
1
0
LINE
5
72
100
AcDbEntity
8
SK1
62
256
6
ByLayer
370
-1
48
1
60
0
100
AcDbLine
10
-23.5
20
-13.46245
30
0
11
-23.5
21
13.46245
31
0
39
0
210
0
220
0
230
1
0
LINE
5
73
100
AcDbEntity
8
1
62
256
6
ByLayer
370
-1
48
1
60
0
100
AcDbLine
10
20.958548
20
20
30
0
11
0
21
20
31
0
39
0
210
0
220
0
230
1
0
LINE
5
74
100
AcDbEntity
8
SK1
62
256
6
ByLayer
370
-1
48
1
60
0
100
AcDbLine
10
-1.6
20
-14.0625
30
0
11
-23.5
21
-13.46245
31
0
39
0
210
0
220
0
230
1
0
LINE
5
75
100
AcDbEntity
8
SK1
62
256
6
ByLayer
370
-1
48
1
60
0
100
AcDbLine
10
-1.6
20
14.0625
30
0
11
-23.5
21
13.46245
31
0
39
0
210
0
220
0
230
1
0
LINE
5
76
100
AcDbEntity
8
SK1
62
256
6
ByLayer
370
-1
48
1
60
0
100
AcDbLine
10
-24
20
-13.173775
30
0
11
-23.5
21
-13.46245
31
0
39
0
210
0
220
0
230
1
0
LINE
5
77
100
AcDbEntity
8
SK1
62
256
6
ByLayer
370
-1
48
1
60
0
100
AcDbLine
10
-24
20
13.173775
30
0
11
-23.5
21
13.46245
31
0
39
0
210
0
220
0
230
1
0
LINE
5
78
100
AcDbEntity
8
1
62
256
6
ByLayer
370
-1
48
1
60
0
100
AcDbLine
10
25
20
-13
30
0
11
25
21
13
31
0
39
0
210
0
220
0
230
1
0
LINE
5
79
100
AcDbEntity
8
1
62
256
6
ByLayer
370
-1
48
1
60
0
100
AcDbLine
10
20.958548
20
20
30
0
11
25
21
13
31
0
39
0
210
0
220
0
230
1
0
LINE
5
7A
100
AcDbEntity
8
1
62
256
6
ByLayer
370
-1
48
1
60
0
100
AcDbLine
10
20.958548
20
-20
30
0
11
25
21
-13
31
0
39
0
210
0
220
0
230
1
0
LINE
5
7B
100
AcDbEntity
8
1
62
256
6
ByLayer
370
-1
48
1
60
0
100
AcDbLine
10
20.958548
20
-20
30
0
11
20.958548
21
20
31
0
39
0
210
0
220
0
230
1
0
LINE
5
7C
100
AcDbEntity
8
1
62
256
6
ByLayer
370
-1
48
1
60
0
100
AcDbLine
10
90.075008
20
2.618798
30
0.8
11
89.44624
21
2.823097
31
0.8
39
0
210
0
220
0
230
1
0
LINE
5
7D
100
AcDbEntity
8
1
62
256
6
ByLayer
370
-1
48
1
60
0
100
AcDbLine
10
90.587362
20
2.926652
30
0.8
11
91.006564
21
5.304063
31
0.8
39
0
210
0
220
0
230
1
0
LINE
5
7E
100
AcDbEntity
8
1
62
256
6
ByLayer
370
-1
48
1
60
0
100
AcDbLine
10
90.764867
20
7.603652
30
0.8
11
91.006564
21
5.304063
31
0.8
39
0
210
0
220
0
230
1
0
LINE
5
7F
100
AcDbEntity
8
1
62
256
6
ByLayer
370
-1
48
1
60
0
100
AcDbLine
10
90.288704
20
7.949606
30
0.8
11
89.627287
21
7.682376
31
0.8
39
0
210
0
220
0
230
1
0
LINE
5
80
100
AcDbEntity
8
1
62
256
6
ByLayer
370
-1
48
1
60
0
100
AcDbLine
10
86.241592
20
7.790401
30
0.8
11
86.87036
21
7.586102
31
0.8
39
0
210
0
220
0
230
1
0
LINE
5
81
100
AcDbEntity
8
1
62
256
6
ByLayer
370
-1
48
1
60
0
100
AcDbLine
10
85.729238
20
7.482547
30
0.8
11
85.310036
21
5.105136
31
0.8
39
0
210
0
220
0
230
1
0
LINE
5
82
100
AcDbEntity
8
1
62
256
6
ByLayer
370
-1
48
1
60
0
100
AcDbLine
10
85.551733
20
2.805547
30
0.8
11
85.310036
21
5.105136
31
0.8
39
0
210
0
220
0
230
1
0
LINE
5
83
100
AcDbEntity
8
1
62
256
6
ByLayer
370
-1
48
1
60
0
100
AcDbLine
10
86.027896
20
2.459593
30
0.8
11
86.689313
21
2.726823
31
0.8
39
0
210
0
220
0
230
1
0
LINE
5
84
100
AcDbEntity
8
1
62
256
6
ByLayer
370
-1
48
1
60
0
100
AcDbLine
10
88.242931
20
2.781077
30
0.8
11
89.44624
21
2.823097
31
0.8
39
0
210
0
220
0
230
1
0
LINE
5
85
100
AcDbEntity
8
1
62
256
6
ByLayer
370
-1
48
1
60
0
100
AcDbLine
10
88.073669
20
7.628122
30
0.8
11
86.87036
21
7.586102
31
0.8
39
0
210
0
220
0
230
1
0
LINE
5
86
100
AcDbEntity
8
1
62
256
6
ByLayer
370
-1
48
1
60
0
100
AcDbLine
10
88.073669
20
7.628122
30
0.8
11
89.627287
21
7.682376
31
0.8
39
0
210
0
220
0
230
1
0
LINE
5
87
100
AcDbEntity
8
1
62
256
6
ByLayer
370
-1
48
1
60
0
100
AcDbLine
10
88.242931
20
2.781077
30
0.8
11
86.689313
21
2.726823
31
0.8
39
0
210
0
220
0
230
1
0
LINE
5
88
100
AcDbEntity
8
1
62
256
6
ByLayer
370
-1
48
1
60
0
100
AcDbLine
10
90.162683
20
-4.905734
30
-0.18
11
89.527168
21
-4.723503
31
-0.18
39
0
210
0
220
0
230
1
0
LINE
5
89
100
AcDbEntity
8
1
62
256
6
ByLayer
370
-1
48
1
60
0
100
AcDbLine
10
90.663982
20
-4.580187
30
-0.18
11
90.999958
21
-2.189594
31
-0.18
39
0
210
0
220
0
230
1
0
LINE
5
8A
100
AcDbEntity
8
1
62
256
6
ByLayer
370
-1
48
1
60
0
100
AcDbLine
10
90.678154
20
0.100159
30
-0.18
11
90.999958
21
-2.189594
31
-0.18
39
0
210
0
220
0
230
1
0
LINE
5
8B
100
AcDbEntity
8
1
62
256
6
ByLayer
370
-1
48
1
60
0
100
AcDbLine
10
90.190206
20
0.429284
30
-0.18
11
89.538519
21
0.139134
31
-0.18
39
0
210
0
220
0
230
1
0
LINE
5
8C
100
AcDbEntity
8
1
62
256
6
ByLayer
370
-1
48
1
60
0
100
AcDbLine
10
86.151117
20
0.128934
30
-0.18
11
86.786632
21
-0.053297
31
-0.18
39
0
210
0
220
0
230
1
0
LINE
5
8D
100
AcDbEntity
8
1
62
256
6
ByLayer
370
-1
48
1
60
0
100
AcDbLine
10
85.649818
20
-0.196613
30
-0.18
11
85.313842
21
-2.587206
31
-0.18
39
0
210
0
220
0
230
1
0
LINE
5
8E
100
AcDbEntity
8
1
62
256
6
ByLayer
370
-1
48
1
60
0
100
AcDbLine
10
85.635646
20
-4.876959
30
-0.18
11
85.313842
21
-2.587206
31
-0.18
39
0
210
0
220
0
230
1
0
LINE
5
8F
100
AcDbEntity
8
1
62
256
6
ByLayer
370
-1
48
1
60
0
100
AcDbLine
10
86.123594
20
-5.206084
30
-0.18
11
86.775281
21
-4.915934
31
-0.18
39
0
210
0
220
0
230
1
0
LINE
5
90
100
AcDbEntity
8
1
62
256
6
ByLayer
370
-1
48
1
60
0
100
AcDbLine
10
88.326059
20
-4.807493
30
-0.18
11
89.527168
21
-4.723503
31
-0.18
39
0
210
0
220
0
230
1
0
LINE
5
91
100
AcDbEntity
8
1
62
256
6
ByLayer
370
-1
48
1
60
0
100
AcDbLine
10
87.987741
20
0.030693
30
-0.18
11
86.786632
21
-0.053297
31
-0.18
39
0
210
0
220
0
230
1
0
LINE
5
92
100
AcDbEntity
8
1
62
256
6
ByLayer
370
-1
48
1
60
0
100
AcDbLine
10
87.987741
20
0.030693
30
-0.18
11
89.538519
21
0.139134
31
-0.18
39
0
210
0
220
0
230
1
0
LINE
5
93
100
AcDbEntity
8
1
62
256
6
ByLayer
370
-1
48
1
60
0
100
AcDbLine
10
88.326059
20
-4.807493
30
-0.18
11
86.775281
21
-4.915934
31
-0.18
39
0
210
0
220
0
230
1
0
LINE
5
94
100
AcDbEntity
8
1
62
256
6
ByLayer
370
-1
48
1
60
0
100
AcDbLine
10
90.820599
20
-2.3884
30
0
11
89.898996
21
-1.610145
31
0
39
0
210
0
220
0
230
1
0
LINE
5
95
100
AcDbEntity
8
1
62
256
6
ByLayer
370
-1
48
1
60
0
100
AcDbLine
10
89.898996
20
-1.610145
30
0
11
89.786404
21
0
31
0
39
0
210
0
220
0
230
1
0
LINE
5
96
100
AcDbEntity
8
1
62
256
6
ByLayer
370
-1
48
1
60
0
100
AcDbLine
10
89.786404
20
0
30
0
11
90.484932
21
0
31
0
39
0
210
0
220
0
230
1
0
LINE
5
97
100
AcDbEntity
8
1
62
256
6
ByLayer
370
-1
48
1
60
0
100
AcDbLine
10
75.983403
20
2.319899
30
7.7
11
90.175432
21
2.319899
31
0
39
0
210
0
220
0
230
1
0
LINE
5
98
100
AcDbEntity
8
1
62
256
6
ByLayer
370
-1
48
1
60
0
100
AcDbLine
10
79.5
20
0.998769
30
7.63495
11
80.730564
21
0.52464
31
7.7
39
0
210
0
220
0
230
1
0
LINE
5
99
100
AcDbEntity
8
1
62
256
6
ByLayer
370
-1
48
1
60
0
100
AcDbLine
10
89.858879
20
0.52464
30
0
11
80.730564
21
0.52464
31
7.7
39
0
210
0
220
0
230
1
0
LINE
5
9A
100
AcDbEntity
8
1
62
256
6
ByLayer
370
-1
48
1
60
0
100
AcDbLine
10
85.845551
20
7.7
30
0.8
11
79.5
21
7.7
31
0
39
0
210
0
220
0
230
1
0
LINE
5
9B
100
AcDbEntity
8
1
62
256
6
ByLayer
370
-1
48
1
60
0
100
AcDbLine
10
89.766371
20
0
30
0
11
90.224887
21
2.600373
31
0.8
39
0
210
0
220
0
230
1
0
LINE
5
9C
100
AcDbEntity
8
1
62
256
6
ByLayer
370
-1
48
1
60
0
100
AcDbLine
10
90.074103
20
-7.7
30
0
11
79.5
21
-7.7
31
0
39
0
210
0
220
0
230
1
0
LINE
5
9D
100
AcDbEntity
8
81
62
256
6
ByLayer
370
-1
48
1
60
0
100
AcDbLine
10
91
20
0
30
0
11
101
21
0
31
0
39
0
210
0
220
0
230
1
0
LINE
5
9E
100
AcDbEntity
8
80
62
256
6
ByLayer
370
-1
48
1
60
0
100
AcDbLine
10
0
20
0
30
0
11
-10
21
0
31
0
39
0
210
0
220
0
230
1
0
LINE
5
9F
100
AcDbEntity
8
2
62
256
6
ByLayer
370
-1
48
1
60
0
100
AcDbLine
10
104.3
20
8
30
0
11
92.8
21
8
31
0
39
0
210
0
220
0
230
1
0
LINE
5
A1
100
AcDbEntity
8
2
62
256
6
ByLayer
370
-1
48
1
60
0
100
AcDbLine
10
104.3
20
-8
30
0
11
92.8
21
-8
31
0
39
0
210
0
220
0
230
1
0
LINE
5
A2
100
AcDbEntity
8
2
62
256
6
ByLayer
370
-1
48
1
60
1
100
AcDbLine
10
40
20
8
30
0
11
40
21
8.1
31
0
39
0
210
0
220
0
230
1
0
LINE
5
A3
100
AcDbEntity
8
2
62
256
6
ByLayer
370
-1
48
1
60
1
100
AcDbLine
10
0
20
12.5
30
0
11
0
21
12.6
31
0
39
0
210
0
220
0
230
1
0
MTEXT
5
C9
100
AcDbEntity
8
SK6
62
256
6
ByLayer
370
-1
48
1
60
0
100
AcDbMText
10
3.675
20
21.125
30
0
210
0
220
0
230
1
1
\W00.699;\fsimplex.shx,bigfont.shx;881-D1600C4-03 
40
3.5
41
0
44
1.084337
50
0
71
7
72
5
7
DEFAULT
0
DIMENSION
5
DA
100
AcDbEntity
8
2
62
256
6
ByLayer
370
-3
48
1
60
0
100
AcDbDimension
2
DimnDraft3D1
10
106.55
20
-8
30
0
11
106.55
21
0
31
0
70
32
71
5
72
1
41
1
210
0
220
0
230
1
3
Standard
100
AcDbAlignedDimension
13
105.799997
23
8
33
0
14
105.799997
24
-8
34
0
50
90
100
AcDbRotatedDimension
1001
ACAD
1000
DSTYLE
1002
{
1070
    74
1070
     0
1070
   279
1070
     0
1070
   173
1070
     1
1070
   340
1005
CA
1070
    77
1070
     1
1070
    73
1070
     0
1070
   171
1070
     4
1070
   274
1070
     4
1070
   177
1070
     7
1070
   176
1070
     7
1070
   178
1070
     7
1070
    41
1041
2.999994
1070
   147
1041
2.25
1070
    42
1041
1.499997
1070
    44
1041
2.999994
1070
   140
1041
4.5
1070
   343
1005
DB
1070
   344
1005
DB
1002
}
0
DIMENSION
5
F0
100
AcDbEntity
8
SK2
62
256
6
ByLayer
370
-3
48
1
60
0
100
AcDbDimension
2
DimnDraft3D2
10
-46.7
20
20
30
0
11
-46.7
21
0
31
0
70
32
71
5
72
1
41
1
210
0
220
0
230
1
3
Standard
100
AcDbAlignedDimension
13
-1.499997
23
-20
33
0
14
-1.499997
24
20
34
0
50
90
100
AcDbRotatedDimension
1001
ACAD
1000
DSTYLE
1002
{
1070
    74
1070
     0
1070
   279
1070
     0
1070
   173
1070
     1
1070
   340
1005
CA
1070
    77
1070
     1
1070
    73
1070
     0
1070
   171
1070
     4
1070
   274
1070
     4
1070
   177
1070
     7
1070
   176
1070
     7
1070
   178
1070
     7
1070
    41
1041
2.999994
1070
   147
1041
2.25
1070
    42
1041
1.499997
1070
    44
1041
2.999994
1070
   140
1041
4.5
1070
   343
1005
DB
1070
   344
1005
DB
1002
}
0
DIMENSION
5
FE
100
AcDbEntity
8
2
62
256
6
ByLayer
370
-3
48
1
60
0
100
AcDbDimension
2
DimnDraft3D3
10
40
20
30.5
30
0
11
65.4
21
30.5
31
0
70
32
71
5
72
1
41
1
210
0
220
0
230
1
3
Standard
100
AcDbAlignedDimension
13
90.663982
23
-3.08019
33
0
14
40
24
9.599997
34
0
50
0
100
AcDbRotatedDimension
1001
ACAD
1000
DSTYLE
1002
{
1070
   279
1070
     0
1070
   173
1070
     1
1070
   340
1005
CA
1070
    77
1070
     1
1070
    73
1070
     0
1070
   171
1070
     4
1070
   274
1070
     4
1070
   177
1070
     7
1070
   176
1070
     7
1070
   178
1070
     7
1070
    41
1041
2.999994
1070
   147
1041
2.25
1070
    42
1041
1.499997
1070
    44
1041
2.999994
1070
   140
1041
4.5
1070
   343
1005
DB
1070
   344
1005
DB
1002
}
0
DIMENSION
5
10C
100
AcDbEntity
8
SK2
62
256
6
ByLayer
370
-3
48
1
60
0
100
AcDbDimension
2
DimnDraft3D4
10
-24
20
41.75
30
0
11
-10.7
21
41.75
31
0
70
32
71
5
72
1
41
1
210
0
220
0
230
1
3
Standard
100
AcDbAlignedDimension
13
0
23
1.499997
33
0
14
-24
24
14.673772
34
0
50
0
100
AcDbRotatedDimension
1001
ACAD
1000
DSTYLE
1002
{
1070
   279
1070
     0
1070
   173
1070
     1
1070
   340
1005
CA
1070
    77
1070
     1
1070
    73
1070
     0
1070
   171
1070
     4
1070
   274
1070
     4
1070
   177
1070
     7
1070
   176
1070
     7
1070
   178
1070
     7
1070
    41
1041
2.999994
1070
   147
1041
2.25
1070
    42
1041
1.499997
1070
    44
1041
2.999994
1070
   140
1041
4.5
1070
   343
1005
DB
1070
   344
1005
DB
1002
}
0
DIMENSION
5
11A
100
AcDbEntity
8
SK2
62
256
6
ByLayer
370
-3
48
1
60
0
100
AcDbDimension
2
DimnDraft3D5
10
-24
20
53
30
0
11
33.3
21
53
31
0
70
32
71
5
72
1
41
1
210
0
220
0
230
1
3
Standard
100
AcDbAlignedDimension
13
90.663982
23
-3.08019
33
0
14
-24
24
14.673772
34
0
50
0
100
AcDbRotatedDimension
1001
ACAD
1000
DSTYLE
1002
{
1070
   279
1070
     0
1070
   173
1070
     1
1070
   340
1005
CA
1070
    77
1070
     1
1070
    73
1070
     0
1070
   171
1070
     4
1070
   274
1070
     4
1070
   177
1070
     7
1070
   176
1070
     7
1070
   178
1070
     7
1070
    41
1041
2.999994
1070
   147
1041
2.25
1070
    42
1041
1.499997
1070
    44
1041
2.999994
1070
   140
1041
4.5
1070
   343
1005
DB
1070
   344
1005
DB
1002
}
0
DIMENSION
5
128
100
AcDbEntity
8
2
62
256
6
ByLayer
370
-3
48
1
60
0
100
AcDbDimension
2
DimnDraft3D6
10
0
20
41.75
30
0
11
45.4
21
41.75
31
0
70
32
71
5
72
1
41
1
210
0
220
0
230
1
3
Standard
100
AcDbAlignedDimension
13
90.663982
23
-3.08019
33
0
14
0
24
14.099997
34
0
50
0
100
AcDbRotatedDimension
1001
ACAD
1000
DSTYLE
1002
{
1070
   279
1070
     0
1070
   173
1070
     1
1070
   340
1005
CA
1070
    77
1070
     1
1070
    73
1070
     0
1070
   171
1070
     4
1070
   274
1070
     4
1070
   177
1070
     7
1070
   176
1070
     7
1070
   178
1070
     7
1070
    41
1041
2.999994
1070
   147
1041
2.25
1070
    42
1041
1.499997
1070
    44
1041
2.999994
1070
   140
1041
4.5
1070
   343
1005
DB
1070
   344
1005
DB
1002
}
0
ENDSEC
0
SECTION
2
OBJECTS
0
DICTIONARY
5
177
330
0
100
AcDbDictionary
280
0
281
1
3
ACAD_GROUP
350
178
3
ACAD_MLINESTYLE
350
179
0
DICTIONARY
5
178
330
0
100
AcDbDictionary
280
0
281
1
0
DICTIONARY
5
179
330
0
100
AcDbDictionary
280
0
281
1
3
Standard
350
18
0
MLINESTYLE
5
18
330
179
100
AcDbMlineStyle
2
Standard
70
0
3

62
256
51
90
52
90
71
2
49
-0.5
62
256
6
ByLayer
49
0.5
62
256
6
ByLayer
0
RASTERVARIABLES
5
165
330

100
AcDbRasterVariables
90
0
70
1
71
1
72
1
0
ENDSEC
0
EOF
