0
SECTION
2
HEADER
9
$ACADVER
1
AC1015
9
$DWGCODEPAGE
3
ANSI_1252
9
$HANDSEED
5
184
9
$ANGBASE
50
0
9
$ANGDIR
70
0
9
$ATTMODE
70
1
9
$AUNITS
70
0
9
$AUPREC
70
0
9
$CECOLOR
62
256
9
$CELTSCALE
40
1
9
$CELTYPE
6
ByLayer
9
$CELWEIGHT
370
-1
9
$CLAYER
8
0
9
$CMLJUST
70
0
9
$CMLSCALE
40
1
9
$CMLSTYLE
2
Standard
9
$DIMSTYLE
2
Standard
9
$TEXTSIZE
40
0.2
9
$TEXTSTYLE
7
Standard
9
$LUNITS
70
2
9
$LUPREC
70
4
9
$EXTNAMES
290
1
9
$INSUNITS
70
4
9
$LTSCALE
40
1
9
$LWDISPLAY
290
0
9
$PDMODE
70
0
9
$PDSIZE
40
0
9
$PLINEGEN
70
0
0
ENDSEC
0
SECTION
2
CLASSES
0
CLASS
1
RASTERVARIABLES
2
AcDbRasterVariables
3
ISM
90
0
280
0
281
0
0
ENDSEC
0
SECTION
2
TABLES
0
TABLE
2
VPORT
5
17a
100
AcDbSymbolTable
0
VPORT
5
1
100
AcDbSymbolTableRecord
100
AcDbViewportTableRecord
2
*Active
70
0
10
0
20
0
11
1
21
1
12
-1
22
1
13
0
23
0
14
0.5
24
0.5
15
10
25
10
16
0
26
0
36
1
17
0
27
0
37
0
0
ENDTAB
0
TABLE
2
LTYPE
5
17b
100
AcDbSymbolTable
0
LTYPE
5
14
100
AcDbSymbolTableRecord
100
AcDbLinetypeTableRecord
70
0
2
ByBlock
3

72
65
73
0
40
0
0
LTYPE
5
15
100
AcDbSymbolTableRecord
100
AcDbLinetypeTableRecord
70
0
2
ByLayer
3

72
65
73
0
40
0
0
LTYPE
5
16
100
AcDbSymbolTableRecord
100
AcDbLinetypeTableRecord
70
0
2
CONTINUOUS
3
Solid line
72
65
73
0
40
0
0
LTYPE
5
3C
100
AcDbSymbolTableRecord
100
AcDbLinetypeTableRecord
70
0
2
DASHED
3
__ __ __ __ __ __ __ __ __
72
65
73
2
40
25.72
49
12.86
74
0
49
-12.86
74
0
0
LTYPE
5
3D
100
AcDbSymbolTableRecord
100
AcDbLinetypeTableRecord
70
0
2
HIDDEN
3
_ _ _ _ _ _ _ _ _ _ _ _ _ _ _
72
65
73
2
40
0.5
49
0.25
74
0
49
-0.25
74
0
0
LTYPE
5
3E
100
AcDbSymbolTableRecord
100
AcDbLinetypeTableRecord
70
0
2
PHANTOM
3
____ _ _ ____ _ _ _____ _ _ ____
72
65
73
6
40
50.5
49
18
74
0
49
-6.5
74
0
49
6.5
74
0
49
-6.5
74
0
49
6.5
74
0
49
-6.5
74
0
0
LTYPE
5
3F
100
AcDbSymbolTableRecord
100
AcDbLinetypeTableRecord
70
0
2
CENTER
3
____ _ ____ _ ____ _ ____
72
65
73
4
40
47.5
49
22
74
0
49
-8.5
74
0
49
8.5
74
0
49
-8.5
74
0
0
LTYPE
5
40
100
AcDbSymbolTableRecord
100
AcDbLinetypeTableRecord
70
0
2
DOT
3
.........................
72
65
73
2
40
10
49
0
74
0
49
-10
74
0
0
LTYPE
5
41
100
AcDbSymbolTableRecord
100
AcDbLinetypeTableRecord
70
0
2
DASHDOT
3
_._._._._._._._._._._._._._._._.
72
65
73
4
40
70
49
31
74
0
49
-13
74
0
49
13
74
0
49
-13
74
0
0
ENDTAB
0
TABLE
2
LAYER
5
17c
100
AcDbSymbolTable
0
LAYER
5
10
100
AcDbSymbolTableRecord
100
AcDbLayerTableRecord
2
0
70
0
62
7
6
CONTINUOUS
290
1
370
-3
390
0
0
LAYER
5
43
100
AcDbSymbolTableRecord
100
AcDbLayerTableRecord
2
1
70
0
62
4
6
CONTINUOUS
290
1
370
-3
390
0
0
LAYER
5
4A
100
AcDbSymbolTableRecord
100
AcDbLayerTableRecord
2
81
70
0
62
-3
6
CONTINUOUS
290
1
370
-3
390
0
0
LAYER
5
4C
100
AcDbSymbolTableRecord
100
AcDbLayerTableRecord
2
80
70
0
62
-6
6
CONTINUOUS
290
1
370
-3
390
0
0
LAYER
5
50
100
AcDbSymbolTableRecord
100
AcDbLayerTableRecord
2
4
70
0
62
-2
6
CENTER
290
1
370
-3
390
0
0
LAYER
5
A0
100
AcDbSymbolTableRecord
100
AcDbLayerTableRecord
2
2
70
0
62
7
6
CONTINUOUS
290
1
370
-3
390
0
0
LAYER
5
166
100
AcDbSymbolTableRecord
100
AcDbLayerTableRecord
2
SK4
70
0
62
2
6
CENTER
290
1
370
-3
390
0
0
LAYER
5
167
100
AcDbSymbolTableRecord
100
AcDbLayerTableRecord
2
SK1
70
0
62
4
6
CONTINUOUS
290
1
370
-3
390
0
0
LAYER
5
168
100
AcDbSymbolTableRecord
100
AcDbLayerTableRecord
2
SK6
70
0
62
5
6
CONTINUOUS
290
1
370
-3
390
0
0
LAYER
5
169
100
AcDbSymbolTableRecord
100
AcDbLayerTableRecord
2
SK2
70
0
62
7
6
CONTINUOUS
290
1
370
-3
390
0
0
ENDTAB
0
TABLE
2
STYLE
5
17d
100
AcDbSymbolTable
0
STYLE
5
11
100
AcDbSymbolTableRecord
100
AcDbTextStyleTableRecord
2
Standard
3
txt
70
0
71
0
40
0
41
1
42
0
50
0
0
STYLE
5
CA
100
AcDbSymbolTableRecord
100
AcDbTextStyleTableRecord
2
DEFAULT
3
simplex.shx
70
0
71
0
40
0
41
1
42
0
50
0
0
STYLE
5
CB
100
AcDbSymbolTableRecord
100
AcDbTextStyleTableRecord
2
DWGDirectTextStyle
3
SIMPLEX
70
0
71
0
40
0
41
1
42
0
50
0
0
ENDTAB
0
TABLE
2
DIMSTYLE
5
17e
100
AcDbSymbolTable
100
AcDbDimStyleTable
0
DIMSTYLE
105
27
100
AcDbSymbolTableRecord
100
AcDbDimStyleTableRecord
2
Standard
70
0
3
<>
41
0.18
42
0.0625
44
0.18
140
0.18
147
0.09
73
0
74
0
77
1
271
2
275
0
278
52
280
0
340
11
0
ENDTAB
0
TABLE
2
VIEW
5
17f
100
AcDbSymbolTable
0
ENDTAB
0
TABLE
2
UCS
5
180
100
AcDbSymbolTable
0
ENDTAB
0
TABLE
2
APPID
5
181
100
AcDbSymbolTable
0
APPID
5
12
100
AcDbSymbolTableRecord
100
AcDbRegAppTableRecord
2
ACAD
70
0
0
ENDTAB
0
TABLE
2
BLOCK_RECORD
5
182
100
AcDbSymbolTable
0
BLOCK_RECORD
5
1F
100
AcDbSymbolTableRecord
100
AcDbBlockTableRecord
2
*Model_Space
340
0
70
0
0
BLOCK_RECORD
5
1B
100
AcDbSymbolTableRecord
100
AcDbBlockTableRecord
2
*Paper_Space
340
0
70
0
0
BLOCK_RECORD
5
23
100
AcDbSymbolTableRecord
100
AcDbBlockTableRecord
2
*Paper_Space0
340
0
70
0
0
BLOCK_RECORD
5
CD
100
AcDbSymbolTableRecord
100
AcDbBlockTableRecord
2
DimnDraft3D1
340
0
70
0
0
BLOCK_RECORD
5
DB
100
AcDbSymbolTableRecord
100
AcDbBlockTableRecord
2
_CLOSED
340
0
70
0
0
BLOCK_RECORD
5
E2
100
AcDbSymbolTableRecord
100
AcDbBlockTableRecord
2
DimnDraft3D2
340
0
70
0
0
BLOCK_RECORD
5
F1
100
AcDbSymbolTableRecord
100
AcDbBlockTableRecord
2
DimnDraft3D3
340
0
70
0
0
BLOCK_RECORD
5
FF
100
AcDbSymbolTableRecord
100
AcDbBlockTableRecord
2
DimnDraft3D4
340
0
70
0
0
BLOCK_RECORD
5
10D
100
AcDbSymbolTableRecord
100
AcDbBlockTableRecord
2
DimnDraft3D5
340
0
70
0
0
BLOCK_RECORD
5
11B
100
AcDbSymbolTableRecord
100
AcDbBlockTableRecord
2
DimnDraft3D6
340
0
70
0
0
ENDTAB
0
ENDSEC
0
SECTION
2
BLOCKS
0
BLOCK
5
20
100
AcDbEntity
8
0
100
AcDbBlockBegin
2
*Model_Space
70
0
10
0
20
0
30
0
3
*Model_Space
0
ENDBLK
5
21
100
AcDbEntity
8
0
100
AcDbBlockEnd
0
BLOCK
5
1C
100
AcDbEntity
8
0
100
AcDbBlockBegin
2
*Paper_Space
70
0
10
0
20
0
30
0
3
*Paper_Space
0
ENDBLK
5
1D
100
AcDbEntity
8
0
100
AcDbBlockEnd
0
BLOCK
5
24
100
AcDbEntity
8
0
100
AcDbBlockBegin
2
*Paper_Space0
70
0
10
0
20
0
30
0
3
*Paper_Space0
0
ENDBLK
5
25
100
AcDbEntity
8
0
100
AcDbBlockEnd
0
BLOCK
5
D8
100
AcDbEntity
8
0
100
AcDbBlockBegin
2
DimnDraft3D1
70
0
10
0
20
0
30
0
3
DimnDraft3D1
0
MTEXT
5
CE
100
AcDbEntity
8
2
62
256
6
ByLayer
370
-1
48
1
60
0
100
AcDbMText
10
111.425
20
-3.333553
30
0
210
0
220
0
230
1
1
\W01.000;\fsimplex.shx,bigfont.shx;%%c14\P
40
4.5
41
0
44
1.084337
50
90
71
7
72
5
7
DEFAULT
0
LINE
5
CF
100
AcDbEntity
8
2
62
256
6
ByLayer
370
-1
48
1
60
0
100
AcDbLine
10
111.799997
20
7
30
0
11
115.549994
21
7
31
0
39
0
210
0
220
0
230
1
0
LINE
5
D0
100
AcDbEntity
8
2
62
256
6
ByLayer
370
-1
48
1
60
0
100
AcDbLine
10
111.799997
20
-7
30
0
11
115.549994
21
-7
31
0
39
0
210
0
220
0
230
1
0
LINE
5
D1
100
AcDbEntity
8
2
62
256
6
ByLayer
370
-1
48
1
60
0
100
AcDbLine
10
112.55
20
7
30
0
11
112.55
21
-7
31
0
39
0
210
0
220
0
230
1
0
LINE
5
D2
100
AcDbEntity
8
2
62
256
6
ByLayer
370
-1
48
1
60
0
100
AcDbLine
10
112.55
20
7
30
0
11
113.049999
21
4.000008
31
0
39
0
210
0
220
0
230
1
0
LINE
5
D3
100
AcDbEntity
8
2
62
256
6
ByLayer
370
-1
48
1
60
0
100
AcDbLine
10
112.55
20
7
30
0
11
112.050001
21
4.000004
31
0
39
0
210
0
220
0
230
1
0
LINE
5
D4
100
AcDbEntity
8
2
62
256
6
ByLayer
370
-1
48
1
60
0
100
AcDbLine
10
113.049999
20
4.000008
30
0
11
112.050001
21
4.000004
31
0
39
0
210
0
220
0
230
1
0
LINE
5
D5
100
AcDbEntity
8
2
62
256
6
ByLayer
370
-1
48
1
60
0
100
AcDbLine
10
112.55
20
-7
30
0
11
112.050001
21
-4.000008
31
0
39
0
210
0
220
0
230
1
0
LINE
5
D6
100
AcDbEntity
8
2
62
256
6
ByLayer
370
-1
48
1
60
0
100
AcDbLine
10
112.55
20
-7
30
0
11
113.049999
21
-4.000004
31
0
39
0
210
0
220
0
230
1
0
LINE
5
D7
100
AcDbEntity
8
2
62
256
6
ByLayer
370
-1
48
1
60
0
100
AcDbLine
10
112.050001
20
-4.000008
30
0
11
113.049999
21
-4.000004
31
0
39
0
210
0
220
0
230
1
0
ENDBLK
5
D9
100
AcDbEntity
8
0
100
AcDbBlockEnd
0
BLOCK
5
DC
100
AcDbEntity
8
0
100
AcDbBlockBegin
2
_CLOSED
70
0
10
0
20
0
30
0
3
_CLOSED
0
LINE
5
DE
100
AcDbEntity
8
0
62
256
6
ByLayer
370
-2
48
1
60
0
100
AcDbLine
10
-1
20
0.166667
30
0
11
0
21
0
31
0
39
0
210
0
220
0
230
1
0
LINE
5
DF
100
AcDbEntity
8
0
62
256
6
ByLayer
370
-2
48
1
60
0
100
AcDbLine
10
0
20
0
30
0
11
-1
21
-0.166667
31
0
39
0
210
0
220
0
230
1
0
LINE
5
E0
100
AcDbEntity
8
0
62
256
6
ByLayer
370
-2
48
1
60
0
100
AcDbLine
10
-1
20
0.166667
30
0
11
-1
21
-0.166667
31
0
39
0
210
0
220
0
230
1
0
LINE
5
E1
100
AcDbEntity
8
0
62
256
6
ByLayer
370
-2
48
1
60
0
100
AcDbLine
10
0
20
0
30
0
11
-1
21
0
31
0
39
0
210
0
220
0
230
1
0
ENDBLK
5
DD
100
AcDbEntity
8
0
100
AcDbBlockEnd
0
BLOCK
5
EE
100
AcDbEntity
8
0
100
AcDbBlockBegin
2
DimnDraft3D2
70
0
10
0
20
0
30
0
3
DimnDraft3D2
0
MTEXT
5
E3
100
AcDbEntity
8
SK2
62
256
6
ByLayer
370
-1
48
1
60
0
100
AcDbMText
10
-47.825
20
-3.896053
30
0
210
0
220
0
230
1
1
\W01.000;\fsimplex.shx,bigfont.shx;%%c40\P
40
4.5
41
0
44
1.084337
50
90
71
7
72
5
7
DEFAULT
0
LINE
5
E5
100
AcDbEntity
8
SK2
62
256
6
ByLayer
370
-1
48
1
60
0
100
AcDbLine
10
-1.499997
20
-20
30
0
11
-49.699994
21
-20
31
0
39
0
210
0
220
0
230
1
0
LINE
5
E6
100
AcDbEntity
8
SK2
62
256
6
ByLayer
370
-1
48
1
60
0
100
AcDbLine
10
-1.499997
20
20
30
0
11
-49.699994
21
20
31
0
39
0
210
0
220
0
230
1
0
LINE
5
E7
100
AcDbEntity
8
SK2
62
256
6
ByLayer
370
-1
48
1
60
0
100
AcDbLine
10
-46.7
20
-20
30
0
11
-46.7
21
20
31
0
39
0
210
0
220
0
230
1
0
LINE
5
E8
100
AcDbEntity
8
SK2
62
256
6
ByLayer
370
-1
48
1
60
0
100
AcDbLine
10
-46.7
20
-20
30
0
11
-47.199999
21
-17.000008
31
0
39
0
210
0
220
0
230
1
0
LINE
5
E9
100
AcDbEntity
8
SK2
62
256
6
ByLayer
370
-1
48
1
60
0
100
AcDbLine
10
-46.7
20
-20
30
0
11
-46.200001
21
-17.000004
31
0
39
0
210
0
220
0
230
1
0
LINE
5
EA
100
AcDbEntity
8
SK2
62
256
6
ByLayer
370
-1
48
1
60
0
100
AcDbLine
10
-47.199999
20
-17.000008
30
0
11
-46.200001
21
-17.000004
31
0
39
0
210
0
220
0
230
1
0
LINE
5
EB
100
AcDbEntity
8
SK2
62
256
6
ByLayer
370
-1
48
1
60
0
100
AcDbLine
10
-46.7
20
20
30
0
11
-46.200001
21
17.000008
31
0
39
0
210
0
220
0
230
1
0
LINE
5
EC
100
AcDbEntity
8
SK2
62
256
6
ByLayer
370
-1
48
1
60
0
100
AcDbLine
10
-46.7
20
20
30
0
11
-47.199999
21
17.000004
31
0
39
0
210
0
220
0
230
1
0
LINE
5
ED
100
AcDbEntity
8
SK2
62
256
6
ByLayer
370
-1
48
1
60
0
100
AcDbLine
10
-46.200001
20
17.000008
30
0
11
-47.199999
21
17.000004
31
0
39
0
210
0
220
0
230
1
0
ENDBLK
5
EF
100
AcDbEntity
8
0
100
AcDbBlockEnd
0
BLOCK
5
FC
100
AcDbEntity
8
0
100
AcDbBlockBegin
2
DimnDraft3D3
70
0
10
0
20
0
30
0
3
DimnDraft3D3
0
MTEXT
5
F2
100
AcDbEntity
8
2
62
256
6
ByLayer
370
-1
48
1
60
0
100
AcDbMText
10
63.361842
20
31.625
30
0
210
0
220
0
230
1
1
\W01.000;\fsimplex.shx,bigfont.shx;59.0\P
40
4.5
41
0
44
1.084337
50
0
71
7
72
5
7
DEFAULT
0
LINE
5
F3
100
AcDbEntity
8
2
62
256
6
ByLayer
370
-1
48
1
60
0
100
AcDbLine
10
96.663982
20
-3.08019
30
0
11
96.663982
21
33.499994
31
0
39
0
210
0
220
0
230
1
0
LINE
5
F4
100
AcDbEntity
8
2
62
256
6
ByLayer
370
-1
48
1
60
0
100
AcDbLine
10
38
20
8.599997
30
0
11
38
21
33.499994
31
0
39
0
210
0
220
0
230
1
0
LINE
5
F5
100
AcDbEntity
8
2
62
256
6
ByLayer
370
-1
48
1
60
0
100
AcDbLine
10
96.663982
20
30.5
30
0
11
38
21
30.5
31
0
39
0
210
0
220
0
230
1
0
LINE
5
F6
100
AcDbEntity
8
2
62
256
6
ByLayer
370
-1
48
1
60
0
100
AcDbLine
10
96.663982
20
30.5
30
0
11
93.663989
21
30.000001
31
0
39
0
210
0
220
0
230
1
0
LINE
5
F7
100
AcDbEntity
8
2
62
256
6
ByLayer
370
-1
48
1
60
0
100
AcDbLine
10
96.663982
20
30.5
30
0
11
93.663986
21
30.999999
31
0
39
0
210
0
220
0
230
1
0
LINE
5
F8
100
AcDbEntity
8
2
62
256
6
ByLayer
370
-1
48
1
60
0
100
AcDbLine
10
93.663989
20
30.000001
30
0
11
93.663986
21
30.999999
31
0
39
0
210
0
220
0
230
1
0
LINE
5
F9
100
AcDbEntity
8
2
62
256
6
ByLayer
370
-1
48
1
60
0
100
AcDbLine
10
38
20
30.5
30
0
11
40.999992
21
30.999999
31
0
39
0
210
0
220
0
230
1
0
LINE
5
FA
100
AcDbEntity
8
2
62
256
6
ByLayer
370
-1
48
1
60
0
100
AcDbLine
10
38
20
30.5
30
0
11
40.999996
21
30.000001
31
0
39
0
210
0
220
0
230
1
0
LINE
5
FB
100
AcDbEntity
8
2
62
256
6
ByLayer
370
-1
48
1
60
0
100
AcDbLine
10
40.999992
20
30.999999
30
0
11
40.999996
21
30.000001
31
0
39
0
210
0
220
0
230
1
0
ENDBLK
5
FD
100
AcDbEntity
8
0
100
AcDbBlockEnd
0
BLOCK
5
10A
100
AcDbEntity
8
0
100
AcDbBlockBegin
2
DimnDraft3D4
70
0
10
0
20
0
30
0
3
DimnDraft3D4
0
MTEXT
5
100
100
AcDbEntity
8
SK2
62
256
6
ByLayer
370
-1
48
1
60
0
100
AcDbMText
10
-20.375
20
42.875
30
0
210
0
220
0
230
1
1
\W01.000;\fsimplex.shx,bigfont.shx;24.0\P
40
4.5
41
0
44
1.084337
50
0
71
7
72
5
7
DEFAULT
0
LINE
5
101
100
AcDbEntity
8
SK2
62
256
6
ByLayer
370
-1
48
1
60
0
100
AcDbLine
10
0
20
1.499997
30
0
11
0
21
44.749994
31
0
39
0
210
0
220
0
230
1
0
LINE
5
102
100
AcDbEntity
8
SK2
62
256
6
ByLayer
370
-1
48
1
60
0
100
AcDbLine
10
-24
20
14.673772
30
0
11
-24
21
44.749994
31
0
39
0
210
0
220
0
230
1
0
LINE
5
103
100
AcDbEntity
8
SK2
62
256
6
ByLayer
370
-1
48
1
60
0
100
AcDbLine
10
0
20
41.75
30
0
11
-24
21
41.75
31
0
39
0
210
0
220
0
230
1
0
LINE
5
104
100
AcDbEntity
8
SK2
62
256
6
ByLayer
370
-1
48
1
60
0
100
AcDbLine
10
0
20
41.75
30
0
11
-2.999992
21
41.250001
31
0
39
0
210
0
220
0
230
1
0
LINE
5
105
100
AcDbEntity
8
SK2
62
256
6
ByLayer
370
-1
48
1
60
0
100
AcDbLine
10
0
20
41.75
30
0
11
-2.999996
21
42.249999
31
0
39
0
210
0
220
0
230
1
0
LINE
5
106
100
AcDbEntity
8
SK2
62
256
6
ByLayer
370
-1
48
1
60
0
100
AcDbLine
10
-2.999992
20
41.250001
30
0
11
-2.999996
21
42.249999
31
0
39
0
210
0
220
0
230
1
0
LINE
5
107
100
AcDbEntity
8
SK2
62
256
6
ByLayer
370
-1
48
1
60
0
100
AcDbLine
10
-24
20
41.75
30
0
11
-21.000008
21
42.249999
31
0
39
0
210
0
220
0
230
1
0
LINE
5
108
100
AcDbEntity
8
SK2
62
256
6
ByLayer
370
-1
48
1
60
0
100
AcDbLine
10
-24
20
41.75
30
0
11
-21.000004
21
41.250001
31
0
39
0
210
0
220
0
230
1
0
LINE
5
109
100
AcDbEntity
8
SK2
62
256
6
ByLayer
370
-1
48
1
60
0
100
AcDbLine
10
-21.000008
20
42.249999
30
0
11
-21.000004
21
41.250001
31
0
39
0
210
0
220
0
230
1
0
ENDBLK
5
10B
100
AcDbEntity
8
0
100
AcDbBlockEnd
0
BLOCK
5
118
100
AcDbEntity
8
0
100
AcDbBlockBegin
2
DimnDraft3D5
70
0
10
0
20
0
30
0
3
DimnDraft3D5
0
MTEXT
5
10E
100
AcDbEntity
8
SK2
62
256
6
ByLayer
370
-1
48
1
60
0
100
AcDbMText
10
29.970395
20
54.125
30
0
210
0
220
0
230
1
1
\W01.000;\fsimplex.shx,bigfont.shx;(121.0)\P
40
4.5
41
0
44
1.084337
50
0
71
7
72
5
7
DEFAULT
0
LINE
5
10F
100
AcDbEntity
8
SK2
62
256
6
ByLayer
370
-1
48
1
60
0
100
AcDbLine
10
96.663982
20
-3.08019
30
0
11
96.663982
21
55.999994
31
0
39
0
210
0
220
0
230
1
0
LINE
5
110
100
AcDbEntity
8
SK2
62
256
6
ByLayer
370
-1
48
1
60
0
100
AcDbLine
10
-24
20
14.673772
30
0
11
-24
21
55.999994
31
0
39
0
210
0
220
0
230
1
0
LINE
5
111
100
AcDbEntity
8
SK2
62
256
6
ByLayer
370
-1
48
1
60
0
100
AcDbLine
10
96.663982
20
53
30
0
11
-24
21
53
31
0
39
0
210
0
220
0
230
1
0
LINE
5
112
100
AcDbEntity
8
SK2
62
256
6
ByLayer
370
-1
48
1
60
0
100
AcDbLine
10
96.663982
20
53
30
0
11
93.663989
21
52.500001
31
0
39
0
210
0
220
0
230
1
0
LINE
5
113
100
AcDbEntity
8
SK2
62
256
6
ByLayer
370
-1
48
1
60
0
100
AcDbLine
10
96.663982
20
53
30
0
11
93.663986
21
53.499999
31
0
39
0
210
0
220
0
230
1
0
LINE
5
114
100
AcDbEntity
8
SK2
62
256
6
ByLayer
370
-1
48
1
60
0
100
AcDbLine
10
93.663989
20
52.500001
30
0
11
93.663986
21
53.499999
31
0
39
0
210
0
220
0
230
1
0
LINE
5
115
100
AcDbEntity
8
SK2
62
256
6
ByLayer
370
-1
48
1
60
0
100
AcDbLine
10
-24
20
53
30
0
11
-21.000008
21
53.499999
31
0
39
0
210
0
220
0
230
1
0
LINE
5
116
100
AcDbEntity
8
SK2
62
256
6
ByLayer
370
-1
48
1
60
0
100
AcDbLine
10
-24
20
53
30
0
11
-21.000004
21
52.500001
31
0
39
0
210
0
220
0
230
1
0
LINE
5
117
100
AcDbEntity
8
SK2
62
256
6
ByLayer
370
-1
48
1
60
0
100
AcDbLine
10
-21.000008
20
53.499999
30
0
11
-21.000004
21
52.500001
31
0
39
0
210
0
220
0
230
1
0
ENDBLK
5
119
100
AcDbEntity
8
0
100
AcDbBlockEnd
0
BLOCK
5
126
100
AcDbEntity
8
0
100
AcDbBlockBegin
2
DimnDraft3D6
70
0
10
0
20
0
30
0
3
DimnDraft3D6
0
MTEXT
5
11C
100
AcDbEntity
8
2
62
256
6
ByLayer
370
-1
48
1
60
0
100
AcDbMText
10
44.361842
20
42.875
30
0
210
0
220
0
230
1
1
\W01.000;\fsimplex.shx,bigfont.shx;97.0\P
40
4.5
41
0
44
1.084337
50
0
71
7
72
5
7
DEFAULT
0
LINE
5
11D
100
AcDbEntity
8
2
62
256
6
ByLayer
370
-1
48
1
60
0
100
AcDbLine
10
96.663982
20
-3.08019
30
0
11
96.663982
21
44.749994
31
0
39
0
210
0
220
0
230
1
0
LINE
5
11E
100
AcDbEntity
8
2
62
256
6
ByLayer
370
-1
48
1
60
0
100
AcDbLine
10
0
20
14.099997
30
0
11
0
21
44.749994
31
0
39
0
210
0
220
0
230
1
0
LINE
5
11F
100
AcDbEntity
8
2
62
256
6
ByLayer
370
-1
48
1
60
0
100
AcDbLine
10
96.663982
20
41.75
30
0
11
0
21
41.75
31
0
39
0
210
0
220
0
230
1
0
LINE
5
120
100
AcDbEntity
8
2
62
256
6
ByLayer
370
-1
48
1
60
0
100
AcDbLine
10
96.663982
20
41.75
30
0
11
93.663989
21
41.250001
31
0
39
0
210
0
220
0
230
1
0
LINE
5
121
100
AcDbEntity
8
2
62
256
6
ByLayer
370
-1
48
1
60
0
100
AcDbLine
10
96.663982
20
41.75
30
0
11
93.663986
21
42.249999
31
0
39
0
210
0
220
0
230
1
0
LINE
5
122
100
AcDbEntity
8
2
62
256
6
ByLayer
370
-1
48
1
60
0
100
AcDbLine
10
93.663989
20
41.250001
30
0
11
93.663986
21
42.249999
31
0
39
0
210
0
220
0
230
1
0
LINE
5
123
100
AcDbEntity
8
2
62
256
6
ByLayer
370
-1
48
1
60
0
100
AcDbLine
10
0
20
41.75
30
0
11
2.999992
21
42.249999
31
0
39
0
210
0
220
0
230
1
0
LINE
5
124
100
AcDbEntity
8
2
62
256
6
ByLayer
370
-1
48
1
60
0
100
AcDbLine
10
0
20
41.75
30
0
11
2.999996
21
41.250001
31
0
39
0
210
0
220
0
230
1
0
LINE
5
125
100
AcDbEntity
8
2
62
256
6
ByLayer
370
-1
48
1
60
0
100
AcDbLine
10
2.999992
20
42.249999
30
0
11
2.999996
21
41.250001
31
0
39
0
210
0
220
0
230
1
0
ENDBLK
5
127
100
AcDbEntity
8
0
100
AcDbBlockEnd
0
ENDSEC
0
SECTION
2
ENTITIES
0
ARC
5
A4
100
AcDbEntity
8
1
62
256
6
ByLayer
370
-1
48
1
60
0
100
AcDbCircle
39
0
10
39.053138
20
-10.700004
30
0
40
4
210
0
220
0
230
1
100
AcDbArc
50
90
51
142.848262
0
ARC
5
A5
100
AcDbEntity
8
1
62
256
6
ByLayer
370
-1
48
1
60
0
100
AcDbCircle
39
0
10
30.400006
20
-4.1434
30
0
40
6.8566
210
0
220
0
230
1
100
AcDbArc
50
270
51
322.848262
0
ARC
5
A6
100
AcDbEntity
8
1
62
256
6
ByLayer
370
-1
48
1
60
0
100
AcDbCircle
39
0
10
-39.053138
20
10.700004
30
0
40
4
210
0
220
0
230
-1
100
AcDbArc
50
270
51
322.848262
0
ARC
5
A7
100
AcDbEntity
8
1
62
256
6
ByLayer
370
-1
48
1
60
0
100
AcDbCircle
39
0
10
-30.400006
20
4.1434
30
0
40
6.8566
210
0
220
0
230
-1
100
AcDbArc
50
90
51
142.848262
0
ARC
5
A8
100
AcDbEntity
8
1
62
256
6
ByLayer
370
-1
48
1
60
0
100
AcDbCircle
39
0
10
96.197378
20
1.989652
30
0.8
40
0.396
210
0
220
0
230
1
100
AcDbArc
50
252
51
350
0
ARC
5
A9
100
AcDbEntity
8
1
62
256
6
ByLayer
370
-1
48
1
60
0
100
AcDbCircle
39
0
10
96.371037
20
6.556495
30
0.8
40
0.396
210
0
220
0
230
1
100
AcDbArc
50
6
51
102
0
ARC
5
AA
100
AcDbEntity
8
1
62
256
6
ByLayer
370
-1
48
1
60
0
100
AcDbCircle
39
0
10
92.119222
20
6.408018
30
0.8
40
0.396
210
0
220
0
230
1
100
AcDbArc
50
72
51
170
0
ARC
5
AB
100
AcDbEntity
8
1
62
256
6
ByLayer
370
-1
48
1
60
0
100
AcDbCircle
39
0
10
91.945563
20
1.841176
30
0.8
40
0.396
210
0
220
0
230
1
100
AcDbArc
50
186
51
282
0
ARC
5
AE
100
AcDbEntity
8
1
62
256
6
ByLayer
370
-1
48
1
60
0
100
AcDbCircle
39
0
10
96.271835
20
-4.525074
30
-0.18
40
0.396
210
0
220
0
230
1
100
AcDbArc
50
254
51
352
0
ARC
5
AF
100
AcDbEntity
8
1
62
256
6
ByLayer
370
-1
48
1
60
0
100
AcDbCircle
39
0
10
96.286008
20
0.045047
30
-0.18
40
0.396
210
0
220
0
230
1
100
AcDbArc
50
8
51
104
0
ARC
5
B0
100
AcDbEntity
8
1
62
256
6
ByLayer
370
-1
48
1
60
0
100
AcDbCircle
39
0
10
92.041965
20
-0.251726
30
-0.18
40
0.396
210
0
220
0
230
1
100
AcDbArc
50
74
51
172
0
ARC
5
B1
100
AcDbEntity
8
1
62
256
6
ByLayer
370
-1
48
1
60
0
100
AcDbCircle
39
0
10
92.027792
20
-4.821847
30
-0.18
40
0.396
210
0
220
0
230
1
100
AcDbArc
50
188
51
284
0
CIRCLE
5
AC
100
AcDbEntity
8
1
62
256
6
ByLayer
370
-1
48
1
60
0
100
AcDbCircle
10
94.1583
20
4.198835
30
0.8
40
1.65
39
0
210
0
220
0
230
1
0
CIRCLE
5
AD
100
AcDbEntity
8
1
62
256
6
ByLayer
370
-1
48
1
60
0
100
AcDbCircle
10
94.1583
20
4.198835
30
0.8
40
1.1
39
0
210
0
220
0
230
1
0
CIRCLE
5
B2
100
AcDbEntity
8
1
62
256
6
ByLayer
370
-1
48
1
60
0
100
AcDbCircle
10
94.1569
20
-2.3884
30
-0.18
40
0.85
39
0
210
0
220
0
230
1
0
POINT
5
42
100
AcDbEntity
8
1
62
256
6
ByLayer
370
-1
48
1
60
1
100
AcDbPoint
10
96.8
20
0
30
0
39
0
210
0
220
0
230
1
50
360
0
POINT
5
44
100
AcDbEntity
8
1
62
256
6
ByLayer
370
-1
48
1
60
1
100
AcDbPoint
10
37.873385
20
-1.917956
30
5.349127
39
0
210
0
220
0
230
1
50
360
0
POINT
5
45
100
AcDbEntity
8
1
62
256
6
ByLayer
370
-1
48
1
60
1
100
AcDbPoint
10
30.4
20
-0.194468
30
12.498487
39
0
210
0
220
0
230
1
50
360
0
POINT
5
46
100
AcDbEntity
8
1
62
256
6
ByLayer
370
-1
48
1
60
0
100
AcDbPoint
10
0
20
0
30
0
39
0
210
0
220
0
230
1
50
360
0
POINT
5
47
100
AcDbEntity
8
1
62
256
6
ByLayer
370
-1
48
1
60
0
100
AcDbPoint
10
94.1583
20
4.198835
30
0.8
39
0
210
0
220
0
230
1
50
360
0
POINT
5
48
100
AcDbEntity
8
1
62
256
6
ByLayer
370
-1
48
1
60
0
100
AcDbPoint
10
94.1569
20
-2.3884
30
-0.18
39
0
210
0
220
0
230
1
50
360
0
POINT
5
49
100
AcDbEntity
8
81
62
256
6
ByLayer
370
-1
48
1
60
0
100
AcDbPoint
10
97
20
0
30
0
39
0
210
0
220
0
230
1
50
360
0
POINT
5
4B
100
AcDbEntity
8
80
62
256
6
ByLayer
370
-1
48
1
60
0
100
AcDbPoint
10
0
20
0
30
0
39
0
210
0
220
0
230
1
50
360
0
SPLINE
5
B3
100
AcDbEntity
8
1
62
256
6
ByLayer
370
-1
48
1
60
0
100
AcDbSpline
70
4
71
3
72
29
73
25
40
0
40
0
40
0
40
0
40
0.0005000030883395
40
0.0500000082802346
40
0.100000007360209
40
0.150000006440182
40
0.200000005520156
40
0.25000000460013
40
0.300000003680104
40
0.350000002760078
40
0.400000001840052
40
0.450000000920026
40
0.5
40
0.549999999079974
40
0.599999998159948
40
0.649999997239922
40
0.699999996319896
40
0.74999999539987
40
0.799999994479844
40
0.849999993559818
40
0.899999992639792
40
0.949999991719766
40
0.99949999691166
40
1
40
1
40
1
40
1
41
1
10
85.5
20
6.56092988089228
30
1.35801292262438
41
1
10
85.4967308172789
20
6.56112515743751
30
1.35706948836063
41
1
10
85.16981449753
20
6.58063226127187
30
1.26272285485308
41
1
10
84.5159751094179
20
6.61557616573266
30
1.07318637427546
41
1
10
83.538490482771
20
6.65561026008284
30
0.78784927352469
41
1
10
82.5577353094749
20
6.68339457759308
30
0.500091452747134
41
1
10
81.576980513272
20
6.69874340044977
30
0.211403273894905
41
1
10
80.5962256160273
20
6.7016282044722
30
-0.0776782896678478
41
1
10
79.6154707458566
20
6.69204361276733
30
-0.366615311121813
41
1
10
78.6347158684316
20
6.67000746140513
30
-0.654870191941712
41
1
10
77.6539609929497
20
6.63556075131468
30
-0.941906586925288
41
1
10
76.6732061169497
20
6.58876757599391
30
-1.22719042230763
41
1
10
75.6924512410792
20
6.52971500117835
30
-1.51019088408923
41
1
10
74.7116963652087
20
6.45851290314634
30
-1.79038140712094
41
1
10
73.7309414892087
20
6.37529376413651
30
-2.06724065455458
41
1
10
72.7501866137268
20
6.28021242610451
30
-2.34025348765821
41
1
10
71.7694317363018
20
6.17344580171716
30
-2.60891192545661
41
1
10
70.7886768661311
20
6.05519254851565
30
-2.87271608553014
41
1
10
69.8079219688864
20
5.92567268683796
30
-3.13117513048142
41
1
10
68.8271671726835
20
5.78512723688237
30
-3.38380812015
41
1
10
67.8464119993874
20
5.63381759691938
30
-3.63014513436513
41
1
10
66.8689273727405
20
5.47256500353797
30
-3.86892869934201
41
1
10
66.2150879846284
20
5.35794919522417
30
-4.023875046228
41
1
10
65.8881716648796
20
5.29899792290695
30
-4.10007584574074
41
1
10
65.8849024821584
20
5.29840823962753
30
-4.10083773468875
0
SPLINE
5
B4
100
AcDbEntity
8
1
62
256
6
ByLayer
370
-1
48
1
60
0
100
AcDbSpline
70
4
71
3
72
29
73
25
40
0
40
0
40
0
40
0
40
0.0005000096027404
40
0.0500000257440923
40
0.100000022883638
40
0.150000020023183
40
0.200000017162728
40
0.250000014302273
40
0.300000011441819
40
0.350000008581364
40
0.400000005720909
40
0.450000002860455
40
0.5
40
0.549999997139545
40
0.599999994279091
40
0.649999991418636
40
0.699999988558181
40
0.749999985697727
40
0.799999982837272
40
0.849999979976817
40
0.899999977116362
40
0.949999974255908
40
0.999499990397259
40
1
40
1
40
1
40
1
41
1
10
85.5
20
0.330540413597936
30
6.69184152793374
41
1
10
85.4942350129428
20
0.332237304309486
30
6.69175771051213
41
1
10
84.9177470121983
20
0.501917578399048
30
6.6833117642215
41
1
10
83.7647340074638
20
0.840644020531232
30
6.65350514143081
41
1
10
82.0410083987284
20
1.34221705108065
30
6.57077836682083
41
1
10
80.3115103243497
20
1.83770675350383
30
6.44976821931052
41
1
10
78.5820143176126
20
2.32256607760926
30
6.29145154288322
41
1
10
76.8525177568528
20
2.7939914813109
30
6.09674400631438
41
1
10
75.1230213445426
20
3.24925589883902
30
5.86677184847131
41
1
10
73.3935248924564
20
3.68572607136154
30
5.60286526372793
41
1
10
71.6640284510245
20
4.10087736106661
30
5.30655073474209
41
1
10
69.9345320067515
20
4.49230846587866
30
4.97954219583032
41
1
10
68.2050355631888
20
4.85775527905719
30
4.6237311211612
41
1
10
66.475539119626
20
5.19510399320548
30
4.24117558377866
41
1
10
64.746042675353
20
5.50240332475757
30
3.83408835091176
41
1
10
63.0165462339211
20
5.77787580108485
30
3.40482408706255
41
1
10
61.287049781835
20
6.01992804167174
30
2.9558657261875
41
1
10
59.5575533695248
20
6.2271599740981
30
2.48981013998232
41
1
10
57.8280568087649
20
6.39837293396272
30
2.00935300513431
41
1
10
56.0985608020279
20
6.53257659192601
30
1.51727362902083
41
1
10
54.3690627276492
20
6.62899470524517
30
1.01641731386462
41
1
10
52.6453371189139
20
6.6868759453705
30
0.511373764996374
41
1
10
51.4923241141799
20
6.69993541073162
30
0.171589292534434
41
1
10
50.9158361134348
20
6.6999999997097
30
0.0016989595189774
41
1
10
50.9100711263776
20
6.7
30
4.9E-15
0
SPLINE
5
B5
100
AcDbEntity
8
1
62
256
6
ByLayer
370
-1
48
1
60
0
100
AcDbSpline
70
4
71
3
72
29
73
25
40
0
40
0
40
0
40
0
40
0.0005000147420108
40
0.0500000395194905
40
0.100000035128436
40
0.150000030737381
40
0.200000026346327
40
0.250000021955272
40
0.300000017564218
40
0.350000013173163
40
0.400000008782109
40
0.450000004391054
40
0.5
40
0.549999995608946
40
0.599999991217891
40
0.649999986826837
40
0.699999982435782
40
0.749999978044728
40
0.799999973653673
40
0.849999969262619
40
0.899999964871564
40
0.949999960480509
40
0.999499985257989
40
1
40
1
40
1
40
1
41
1
10
80.8597338379392
20
-6.7
30
7.8E-15
41
1
10
80.8525905510367
20
-6.69999999931576
30
0.0021051596090953
41
1
10
80.1382822238483
20
-6.69990086080389
30
0.212610432719941
41
1
10
78.7095951815909
20
-6.67984543391834
30
0.633628109540355
41
1
10
76.5737629005632
20
-6.59104800095453
30
1.25746900408272
41
1
10
74.4307731067327
20
-6.44343634172024
30
1.87223744546338
41
1
10
72.2877872459963
20
-6.2386180851382
30
2.4703821926146
41
1
10
70.1448003313906
20
-5.97841163064824
30
3.04659458596097
41
1
10
68.0018136991679
20
-5.66512717284817
30
3.59575835920324
41
1
10
65.8588269912827
20
-5.30154613604769
30
4.11299801509252
41
1
10
63.7158403036643
20
-4.89089649471175
30
4.59372132043031
41
1
10
61.5728536106414
20
-4.43682411068213
30
5.03366028915502
41
1
10
59.4298669189696
20
-3.94336036518049
30
5.42890901789643
41
1
10
57.2868802272978
20
-3.41488636707914
30
5.77595837897777
41
1
10
55.1438935342749
20
-2.85609405522541
30
6.07172717103344
41
1
10
53.0009068466565
20
-2.27194454598138
30
6.31358947705524
41
1
10
50.8579201387714
20
-1.66762407249581
30
6.49939797328608
41
1
10
48.7149335065486
20
-1.04849799421458
30
6.62750301039576
41
1
10
46.571946591943
20
-0.420062958940557
30
6.69676719771017
41
1
10
44.4289607312066
20
0.21210114113997
30
6.70657573191592
41
1
10
42.285970937376
20
0.842383533705091
30
6.65684099474052
41
1
10
40.1501386563483
20
1.46310596603174
30
6.54836930345271
41
1
10
38.7214516140905
20
1.86968897942861
30
6.43724613953083
41
1
10
38.0071432869026
20
2.06990678195352
30
6.37224374428277
41
1
10
38
20
2.07190875525357
30
6.37159274513866
0
SPLINE
5
B6
100
AcDbEntity
8
1
62
256
6
ByLayer
370
-1
48
1
60
0
100
AcDbSpline
70
4
71
3
72
29
73
25
40
0
40
0
40
0
40
0
40
0.0005000062410693
40
0.0500000167324513
40
0.10000001487329
40
0.150000013014129
40
0.200000011154967
40
0.250000009295806
40
0.300000007436645
40
0.350000005577484
40
0.400000003718322
40
0.450000001859161
40
0.5
40
0.549999998140839
40
0.599999996281677
40
0.649999994422516
40
0.699999992563355
40
0.749999990704194
40
0.799999988845032
40
0.849999986985871
40
0.89999998512671
40
0.949999983267549
40
0.999499993758931
40
1
40
1
40
1
40
1
41
1
10
65.8849024821584
20
-5.29840823962753
30
-4.10083773468875
41
1
10
65.8802549989816
20
-5.29924653831677
30
-4.09975462684804
41
1
10
65.4155122901236
20
-5.38304141455667
30
-3.99142048216722
41
1
10
64.4860074847547
20
-5.54398814414118
30
-3.76960810940768
41
1
10
63.0964129077818
20
-5.76393247092641
30
-3.42394402909187
41
1
10
61.70216692928
20
-5.96294260851319
30
-3.06424969869924
41
1
10
60.3079220341062
20
-6.1395336093172
30
-2.69303501997311
41
1
10
58.9136768486556
20
-6.29304185092078
30
-2.31169524284146
41
1
10
57.5194317409843
20
-6.42289010554736
30
-1.9216642007626
41
1
10
56.1251866124726
20
-6.52859020436437
30
-1.52440826546559
41
1
10
54.7309414895432
20
-6.60974474045927
30
-1.12142100919161
41
1
10
53.3366963651251
20
-6.66604859844929
30
-0.714217542321619
41
1
10
51.9424512410792
20
-6.69729009210781
30
-0.304328829583161
41
1
10
50.5482061170333
20
-6.70335176283163
30
0.106704069227185
41
1
10
49.1539609926153
20
-6.68421082040788
30
0.517335792525118
41
1
10
47.7597158696858
20
-6.63993922947889
30
0.926022486319555
41
1
10
46.3654707411741
20
-6.57070343669713
30
1.33122761217127
41
1
10
44.9712256335028
20
-6.47676375327254
30
1.73142771073795
41
1
10
43.5769804480522
20
-6.35847334520937
30
2.12511817953709
41
1
10
42.1827355528784
20
-6.21627702145064
30
2.51081874315634
41
1
10
40.7884895743766
20
-6.05070912882361
30
2.88707971523551
41
1
10
39.3988949974037
20
-5.86302086235113
30
3.25126686209016
41
1
10
38.4693901920343
20
-5.7228544567148
30
3.48676199410813
41
1
10
38.0046474831768
20
-5.64923016247966
30
3.60224935915801
41
1
10
38
20
-5.64849354986592
30
3.60340403190137
0
SPLINE
5
B7
100
AcDbEntity
8
1
62
256
6
ByLayer
370
-1
48
1
60
0
100
AcDbSpline
70
4
71
3
72
9
73
5
40
0
40
0
40
0
40
0
40
0.562946186191777
40
1
40
1
40
1
40
1
41
1
10
38
20
-5.64849354986592
30
3.60340403190137
41
1
10
32.203612339498
20
-3.35482874075815
30
9.71845640227926
41
1
10
27.7034782317055
20
-0.125375435452053
30
14.9854389180669
41
1
10
33.4998658922075
20
1.60315086832441
30
10.3125632116934
41
1
10
38
20
2.07190875525357
30
6.37159274513866
0
SPLINE
5
B8
100
AcDbEntity
8
1
62
256
6
ByLayer
370
-1
48
1
60
0
100
AcDbSpline
70
4
71
3
72
16
73
12
40
0
40
0
40
0
40
0
40
0.0463470189311361
40
0.0463470189311361
40
0.292714190516279
40
0.292714190516279
40
0.624961574752601
40
0.624961574752601
40
0.880903213804346
40
0.880903213804346
40
1
40
1
40
1
40
1
41
1
10
9.33660254037845
20
6.1698063921468
30
19.0245496420658
41
1
10
9.41120970705357
20
6.4402689496347
30
18.9368365740867
41
1
10
9.48289389445297
20
6.70966326688875
30
18.8430756135634
41
1
10
9.91644779893528
20
8.4014429398824
30
18.2132817825428
41
1
10
10.1968857470654
20
9.79592967066934
30
17.5057124532486
41
1
10
10.6104994244177
20
12.8306959686099
30
15.4840886154574
41
1
10
10.6603659269754
20
14.4297824024
30
14.0071576081823
41
1
10
10.4040057931725
20
16.7286941568393
30
11.0802943355344
41
1
10
10.1767842109767
20
17.5747161700864
30
9.67771638760926
41
1
10
9.70100248234614
20
18.5335352447912
30
7.5534748488203
41
1
10
9.52830884327845
20
18.7991995076926
30
6.86473914991821
41
1
10
9.33659112649157
20
19.0245904583064
30
6.16973761852513
0
SPLINE
5
B9
100
AcDbEntity
8
1
62
256
6
ByLayer
370
-1
48
1
60
0
100
AcDbSpline
70
4
71
3
72
16
73
12
40
0
40
0
40
0
40
0
40
0.0463492595373783
40
0.0463492595373783
40
0.29272440709006
40
0.29272440709006
40
0.624973152517318
40
0.624973152517318
40
0.880915511168991
40
0.880915511168991
40
1
40
1
40
1
40
1
41
1
10
6.66339745962155
20
6.16980639336087
30
19.024549641672
41
1
10
6.73800822761631
20
5.89933078050227
30
19.1122669436263
41
1
10
6.51709918401399
20
6.70968927922732
30
18.8430665597784
41
1
10
6.08353203432038
20
8.40152698944123
30
18.2132471355468
41
1
10
5.80308950801756
20
9.79605700675114
30
17.5056457299704
41
1
10
5.38948896335545
20
12.830854303
30
15.4839587254809
41
1
10
5.33963545766467
20
14.429932300597
30
14.0070043182712
41
1
10
5.59601990931222
20
16.7288187252401
30
11.0801068091082
41
1
10
5.8232523467298
20
17.5748263953976
30
9.67751661405653
41
1
10
6.29903323852959
20
18.5335902214347
30
7.55333237374364
41
1
10
6.4717109672261
20
18.7992227994875
30
6.86466733249556
41
1
10
6.66340887413668
20
19.024590460553
30
6.16973761473966
0
SPLINE
5
BA
100
AcDbEntity
8
1
62
256
6
ByLayer
370
-1
48
1
60
0
100
AcDbSpline
70
4
71
3
72
12
73
8
40
0
40
0
40
0
40
0
40
0.48557129858128
40
0.48557129858128
40
0.936402085205193
40
0.936402085205193
40
1
40
1
40
1
40
1
41
1
10
9.33660254037845
20
6.16980639330488
30
19.0245496416902
41
1
10
9.35456651699916
20
6.23492859639202
30
19.0034300150751
41
1
10
9.29375666287366
20
6.03987724384563
30
19.0662952264127
41
1
10
9.22189536050024
20
5.92914516396304
30
19.101007006467
41
1
10
9.16894029016483
20
5.87474700467883
30
19.1177302439758
41
1
10
9.09537819879925
20
5.86084605005278
30
19.1219922204584
41
1
10
9.0860652092108
20
5.85996421168224
30
19.1222597889947
41
1
10
9.07679491924311
20
5.85996421168224
30
19.1222597889947
0
SPLINE
5
BB
100
AcDbEntity
8
1
62
256
6
ByLayer
370
-1
48
1
60
0
100
AcDbSpline
70
4
71
3
72
12
73
8
40
0
40
0
40
0
40
0
40
0.485571298590738
40
0.485571298590738
40
0.936402085205416
40
0.936402085205416
40
1
40
1
40
1
40
1
41
1
10
9.33660254037845
20
19.024549641672
30
6.1698063933609
41
1
10
9.31863856375527
20
19.0456692682904
30
6.10468419026449
41
1
10
9.29375666288881
20
19.0662952264032
30
6.03987724387556
41
1
10
9.22189536051243
20
19.1010070064631
30
5.92914516397584
41
1
10
9.16894029017443
20
19.1177302439747
30
5.87474700468218
41
1
10
9.09537819880148
20
19.1219922204584
30
5.86084605005308
41
1
10
9.08606520921191
20
19.1222597889947
30
5.85996421168232
41
1
10
9.07679491924311
20
19.1222597889947
30
5.85996421168232
0
SPLINE
5
BC
100
AcDbEntity
8
1
62
256
6
ByLayer
370
-1
48
1
60
0
100
AcDbSpline
70
4
71
3
72
9
73
5
40
0
40
0
40
0
40
0
40
0.505050505050505
40
1
40
1
40
1
40
1
41
1
10
9.07679491924311
20
5.85996421168224
30
19.1222597889947
41
1
10
8.71423770737674
20
5.85996421168224
30
19.1222597889947
41
1
10
7.99637442788135
20
5.85996421157611
30
19.1222597890272
41
1
10
7.27851114838593
20
5.85996421168224
30
19.1222597889947
41
1
10
6.92320508075689
20
5.85996421168224
30
19.1222597889947
0
SPLINE
5
BD
100
AcDbEntity
8
1
62
256
6
ByLayer
370
-1
48
1
60
0
100
AcDbSpline
70
4
71
3
72
9
73
5
40
0
40
0
40
0
40
0
40
0.494949494949495
40
1
40
1
40
1
40
1
41
1
10
6.92320508075689
20
19.1222597889947
30
5.85996421168232
41
1
10
7.27851114838593
20
19.1222597889947
30
5.85996421168232
41
1
10
7.99637442788135
20
19.1222597901563
30
5.85996420789166
41
1
10
8.71423770737674
20
19.1222597889947
30
5.85996421168232
41
1
10
9.07679491924311
20
19.1222597889947
30
5.85996421168232
0
SPLINE
5
BE
100
AcDbEntity
8
1
62
256
6
ByLayer
370
-1
48
1
60
0
100
AcDbSpline
70
4
71
3
72
12
73
8
40
0
40
0
40
0
40
0
40
0.485571298590726
40
0.485571298590726
40
0.936402085205378
40
0.936402085205378
40
1
40
1
40
1
40
1
41
1
10
6.66339745962155
20
6.16980639336087
30
19.024549641672
41
1
10
6.68136143624474
20
6.10468419026446
30
19.0456692682904
41
1
10
6.70624333711118
20
6.03987724387551
30
19.0662952264033
41
1
10
6.77810463948755
20
5.92914516397578
30
19.1010070064631
41
1
10
6.83105970982554
20
5.87474700468211
30
19.1177302439747
41
1
10
6.9046218011985
20
5.860846050053
30
19.1219922204584
41
1
10
6.91393479078808
20
5.85996421168224
30
19.1222597889947
41
1
10
6.92320508075689
20
5.85996421168224
30
19.1222597889947
0
SPLINE
5
BF
100
AcDbEntity
8
1
62
256
6
ByLayer
370
-1
48
1
60
0
100
AcDbSpline
70
4
71
3
72
12
73
8
40
0
40
0
40
0
40
0
40
0.485571298585116
40
0.485571298585116
40
0.936402085205247
40
0.936402085205247
40
1
40
1
40
1
40
1
41
1
10
6.66339745962155
20
19.0245496416828
30
6.16980639332778
41
1
10
6.64543348299983
20
19.0034300150663
30
6.2349285964187
41
1
10
6.70624333712016
20
19.0662952264088
30
6.03987724385789
41
1
10
6.77810463949479
20
19.1010070064654
30
5.92914516396832
41
1
10
6.83105970983124
20
19.1177302439753
30
5.87474700468025
41
1
10
6.90462180119982
20
19.1219922204584
30
5.86084605005295
41
1
10
6.91393479078874
20
19.1222597889947
30
5.85996421168232
41
1
10
6.92320508075689
20
19.1222597889947
30
5.85996421168232
0
SPLINE
5
C0
100
AcDbEntity
8
1
62
256
6
ByLayer
370
-1
48
1
60
0
100
AcDbSpline
70
4
71
3
72
16
73
12
40
0
40
0
40
0
40
0
40
0.0463470189311361
40
0.0463470189311361
40
0.292714190516279
40
0.292714190516279
40
0.624961574752601
40
0.624961574752601
40
0.880903213804346
40
0.880903213804346
40
1
40
1
40
1
40
1
41
1
10
9.33660254037845
20
-6.1698063921468
30
19.0245496420658
41
1
10
9.41120970705357
20
-6.44026894963469
30
18.9368365740867
41
1
10
9.48289389445297
20
-6.70966326688875
30
18.8430756135634
41
1
10
9.91644779893527
20
-8.4014429398824
30
18.2132817825428
41
1
10
10.1968857470654
20
-9.79592967066934
30
17.5057124532486
41
1
10
10.6104994244177
20
-12.8306959686099
30
15.4840886154574
41
1
10
10.6603659269754
20
-14.4297824024
30
14.0071576081823
41
1
10
10.4040057931725
20
-16.7286941568393
30
11.0802943355344
41
1
10
10.1767842109767
20
-17.5747161700864
30
9.67771638760926
41
1
10
9.70100248234614
20
-18.5335352447912
30
7.5534748488203
41
1
10
9.52830884327845
20
-18.7991995076926
30
6.86473914991821
41
1
10
9.33659112649157
20
-19.0245904583064
30
6.16973761852513
0
SPLINE
5
C1
100
AcDbEntity
8
1
62
256
6
ByLayer
370
-1
48
1
60
0
100
AcDbSpline
70
4
71
3
72
16
73
12
40
0
40
0
40
0
40
0
40
0.0463492595373783
40
0.0463492595373783
40
0.29272440709006
40
0.29272440709006
40
0.624973152517318
40
0.624973152517318
40
0.880915511168991
40
0.880915511168991
40
1
40
1
40
1
40
1
41
1
10
6.66339745962156
20
-6.16980639336086
30
19.024549641672
41
1
10
6.73800822761631
20
-5.89933078050227
30
19.1122669436263
41
1
10
6.51709918401399
20
-6.70968927922732
30
18.8430665597784
41
1
10
6.08353203432037
20
-8.40152698944124
30
18.2132471355468
41
1
10
5.80308950801756
20
-9.79605700675114
30
17.5056457299704
41
1
10
5.38948896335545
20
-12.830854303
30
15.4839587254809
41
1
10
5.33963545766466
20
-14.429932300597
30
14.0070043182712
41
1
10
5.59601990931222
20
-16.7288187252401
30
11.0801068091082
41
1
10
5.8232523467298
20
-17.5748263953976
30
9.67751661405653
41
1
10
6.29903323852959
20
-18.5335902214347
30
7.55333237374364
41
1
10
6.4717109672261
20
-18.7992227994875
30
6.86466733249556
41
1
10
6.66340887413668
20
-19.024590460553
30
6.16973761473966
0
SPLINE
5
C2
100
AcDbEntity
8
1
62
256
6
ByLayer
370
-1
48
1
60
0
100
AcDbSpline
70
4
71
3
72
12
73
8
40
0
40
0
40
0
40
0
40
0.48557129858128
40
0.48557129858128
40
0.936402085205193
40
0.936402085205193
40
1
40
1
40
1
40
1
41
1
10
9.33660254037845
20
-6.16980639330488
30
19.0245496416902
41
1
10
9.35456651699916
20
-6.23492859639202
30
19.0034300150751
41
1
10
9.29375666287366
20
-6.03987724384563
30
19.0662952264127
41
1
10
9.22189536050024
20
-5.92914516396304
30
19.101007006467
41
1
10
9.16894029016483
20
-5.87474700467883
30
19.1177302439758
41
1
10
9.09537819879925
20
-5.86084605005278
30
19.1219922204584
41
1
10
9.0860652092108
20
-5.85996421168224
30
19.1222597889947
41
1
10
9.07679491924311
20
-5.85996421168224
30
19.1222597889947
0
SPLINE
5
C3
100
AcDbEntity
8
1
62
256
6
ByLayer
370
-1
48
1
60
0
100
AcDbSpline
70
4
71
3
72
12
73
8
40
0
40
0
40
0
40
0
40
0.485571298590738
40
0.485571298590738
40
0.936402085205416
40
0.936402085205416
40
1
40
1
40
1
40
1
41
1
10
9.33660254037845
20
-19.024549641672
30
6.1698063933609
41
1
10
9.31863856375527
20
-19.0456692682904
30
6.10468419026449
41
1
10
9.29375666288881
20
-19.0662952264032
30
6.03987724387556
41
1
10
9.22189536051243
20
-19.1010070064631
30
5.92914516397584
41
1
10
9.16894029017443
20
-19.1177302439747
30
5.87474700468218
41
1
10
9.09537819880148
20
-19.1219922204584
30
5.86084605005308
41
1
10
9.08606520921191
20
-19.1222597889947
30
5.85996421168232
41
1
10
9.07679491924311
20
-19.1222597889947
30
5.85996421168232
0
SPLINE
5
C4
100
AcDbEntity
8
1
62
256
6
ByLayer
370
-1
48
1
60
0
100
AcDbSpline
70
4
71
3
72
9
73
5
40
0
40
0
40
0
40
0
40
0.505050505050505
40
1
40
1
40
1
40
1
41
1
10
9.07679491924311
20
-5.85996421168224
30
19.1222597889947
41
1
10
8.71423770737674
20
-5.85996421168224
30
19.1222597889947
41
1
10
7.99637442788135
20
-5.8599642115761
30
19.1222597890272
41
1
10
7.27851114838593
20
-5.85996421168224
30
19.1222597889947
41
1
10
6.92320508075689
20
-5.85996421168224
30
19.1222597889947
0
SPLINE
5
C5
100
AcDbEntity
8
1
62
256
6
ByLayer
370
-1
48
1
60
0
100
AcDbSpline
70
4
71
3
72
9
73
5
40
0
40
0
40
0
40
0
40
0.494949494949495
40
1
40
1
40
1
40
1
41
1
10
6.92320508075689
20
-19.1222597889947
30
5.85996421168232
41
1
10
7.27851114838593
20
-19.1222597889947
30
5.85996421168232
41
1
10
7.99637442788135
20
-19.1222597901563
30
5.85996420789166
41
1
10
8.71423770737674
20
-19.1222597889947
30
5.85996421168232
41
1
10
9.07679491924311
20
-19.1222597889947
30
5.85996421168232
0
SPLINE
5
C6
100
AcDbEntity
8
1
62
256
6
ByLayer
370
-1
48
1
60
0
100
AcDbSpline
70
4
71
3
72
12
73
8
40
0
40
0
40
0
40
0
40
0.485571298590726
40
0.485571298590726
40
0.936402085205378
40
0.936402085205378
40
1
40
1
40
1
40
1
41
1
10
6.66339745962156
20
-6.16980639336086
30
19.024549641672
41
1
10
6.68136143624474
20
-6.10468419026446
30
19.0456692682904
41
1
10
6.70624333711118
20
-6.03987724387551
30
19.0662952264033
41
1
10
6.77810463948755
20
-5.92914516397578
30
19.1010070064631
41
1
10
6.83105970982554
20
-5.87474700468211
30
19.1177302439747
41
1
10
6.9046218011985
20
-5.860846050053
30
19.1219922204584
41
1
10
6.91393479078808
20
-5.85996421168224
30
19.1222597889947
41
1
10
6.92320508075689
20
-5.85996421168224
30
19.1222597889947
0
SPLINE
5
C7
100
AcDbEntity
8
1
62
256
6
ByLayer
370
-1
48
1
60
0
100
AcDbSpline
70
4
71
3
72
12
73
8
40
0
40
0
40
0
40
0
40
0.485571298585116
40
0.485571298585116
40
0.936402085205247
40
0.936402085205247
40
1
40
1
40
1
40
1
41
1
10
6.66339745962155
20
-19.0245496416828
30
6.16980639332778
41
1
10
6.64543348299983
20
-19.0034300150663
30
6.2349285964187
41
1
10
6.70624333712016
20
-19.0662952264088
30
6.03987724385789
41
1
10
6.77810463949479
20
-19.1010070064654
30
5.92914516396832
41
1
10
6.83105970983124
20
-19.1177302439753
30
5.87474700468025
41
1
10
6.90462180119982
20
-19.1219922204584
30
5.86084605005295
41
1
10
6.91393479078874
20
-19.1222597889947
30
5.85996421168232
41
1
10
6.92320508075689
20
-19.1222597889947
30
5.85996421168232
0
SPLINE
5
C8
100
AcDbEntity
8
1
62
256
6
ByLayer
370
-1
48
1
60
0
100
AcDbSpline
70
4
71
3
72
9
73
5
40
0
40
0
40
0
40
0
40
0.268182368913651
40
1
40
1
40
1
40
1
41
1
10
96.0295119280142
20
-1.7209850684215
30
0
41
1
10
95.9702514079049
20
-2.16590523364054
30
0
41
1
10
95.8250906158228
20
-3.82510067944897
30
0
41
1
10
95.9626112891939
20
-5.48494683115849
30
0
41
1
10
96.2146433929679
20
-6.7
30
0
0
LINE
5
4D
100
AcDbEntity
8
SK4
62
256
6
ByLayer
370
-1
48
0.05
60
0
100
AcDbLine
10
98.8
20
0
30
0
11
-26.2
21
0
31
0
39
0
210
0
220
0
230
1
0
LINE
5
4F
100
AcDbEntity
8
4
62
256
6
ByLayer
370
-1
48
0.05
60
0
100
AcDbLine
10
98.8
20
0
30
0
11
-2.2
21
0
31
0
39
0
210
0
220
0
230
1
0
LINE
5
51
100
AcDbEntity
8
1
62
256
6
ByLayer
370
-1
48
1
60
0
100
AcDbLine
10
85.5
20
6.7
30
0
11
80.859734
21
6.7
31
0
39
0
210
0
220
0
230
1
0
LINE
5
52
100
AcDbEntity
8
1
62
256
6
ByLayer
370
-1
48
1
60
0
100
AcDbLine
10
85.5
20
-6.7
30
0
11
80.859734
21
-6.7
31
0
39
0
210
0
220
0
230
1
0
LINE
5
53
100
AcDbEntity
8
1
62
256
6
ByLayer
370
-1
48
1
60
0
100
AcDbLine
10
50.910071
20
6.7
30
0
11
38
21
6.7
31
0
39
0
210
0
220
0
230
1
0
LINE
5
54
100
AcDbEntity
8
1
62
256
6
ByLayer
370
-1
48
1
60
0
100
AcDbLine
10
50.910071
20
-6.7
30
0
11
38
21
-6.7
31
0
39
0
210
0
220
0
230
1
0
LINE
5
55
100
AcDbEntity
8
1
62
256
6
ByLayer
370
-1
48
1
60
0
100
AcDbLine
10
38
20
-6.700004
30
0
11
38
21
-5.648494
31
3.603404
39
0
210
0
220
0
230
1
0
LINE
5
56
100
AcDbEntity
8
1
62
256
6
ByLayer
370
-1
48
1
60
0
100
AcDbLine
10
38
20
2.071909
30
6.371593
11
38
21
6.700004
31
0
39
0
210
0
220
0
230
1
0
LINE
5
57
100
AcDbEntity
8
1
62
256
6
ByLayer
370
-1
48
1
60
0
100
AcDbLine
10
30.4
20
11
30
0
11
30.4
21
-11
31
0
39
0
210
0
220
0
230
1
0
LINE
5
58
100
AcDbEntity
8
1
62
256
6
ByLayer
370
-1
48
1
60
0
100
AcDbLine
10
29.9981
20
12.5
30
0
11
29.9981
21
-12.5
31
0
39
0
210
0
220
0
230
1
0
LINE
5
59
100
AcDbEntity
8
1
62
256
6
ByLayer
370
-1
48
1
60
0
100
AcDbLine
10
25.2
20
-12.5
30
0
11
25
21
-12.3
31
0
39
0
210
0
220
0
230
1
0
LINE
5
5A
100
AcDbEntity
8
1
62
256
6
ByLayer
370
-1
48
1
60
0
100
AcDbLine
10
25.2
20
-12.5
30
0
11
25.2
21
12.5
31
0
39
0
210
0
220
0
230
1
0
LINE
5
5B
100
AcDbEntity
8
1
62
256
6
ByLayer
370
-1
48
1
60
0
100
AcDbLine
10
25
20
-12.3
30
0
11
25
21
12.3
31
0
39
0
210
0
220
0
230
1
0
LINE
5
5C
100
AcDbEntity
8
1
62
256
6
ByLayer
370
-1
48
1
60
0
100
AcDbLine
10
25.2
20
12.5
30
0
11
25
21
12.3
31
0
39
0
210
0
220
0
230
1
0
LINE
5
5D
100
AcDbEntity
8
1
62
256
6
ByLayer
370
-1
48
1
60
0
100
AcDbLine
10
25.2
20
-12.5
30
0
11
29.9981
21
-12.5
31
0
39
0
210
0
220
0
230
1
0
LINE
5
5E
100
AcDbEntity
8
1
62
256
6
ByLayer
370
-1
48
1
60
0
100
AcDbLine
10
25.2
20
12.5
30
0
11
29.9981
21
12.5
31
0
39
0
210
0
220
0
230
1
0
LINE
5
5F
100
AcDbEntity
8
1
62
256
6
ByLayer
370
-1
48
1
60
0
100
AcDbLine
10
29.9981
20
-12.5
30
0
11
30.4
21
-11
31
0
39
0
210
0
220
0
230
1
0
LINE
5
60
100
AcDbEntity
8
1
62
256
6
ByLayer
370
-1
48
1
60
0
100
AcDbLine
10
29.9981
20
12.5
30
0
11
30.4
21
11
31
0
39
0
210
0
220
0
230
1
0
LINE
5
61
100
AcDbEntity
8
1
62
256
6
ByLayer
370
-1
48
1
60
0
100
AcDbLine
10
96.214643
20
-6.7
30
0
11
96.820599
21
-2.3884
31
0
39
0
210
0
220
0
230
1
0
LINE
5
62
100
AcDbEntity
8
1
62
256
6
ByLayer
370
-1
48
1
60
0
100
AcDbLine
10
96.820599
20
-2.3884
30
0
11
96.484932
21
0
31
0
39
0
210
0
220
0
230
1
0
LINE
5
63
100
AcDbEntity
8
1
62
256
6
ByLayer
370
-1
48
1
60
0
100
AcDbLine
10
20.958548
20
-20
30
0
11
0
21
-20
31
0
39
0
210
0
220
0
230
1
0
LINE
5
64
100
AcDbEntity
8
1
62
256
6
ByLayer
370
-1
48
1
60
0
100
AcDbLine
10
0
20
-20
30
0
11
0
21
20
31
0
39
0
210
0
220
0
230
1
0
LINE
5
65
100
AcDbEntity
8
SK1
62
256
6
ByLayer
370
-1
48
1
60
0
100
AcDbLine
10
-24
20
-13.173775
30
0
11
-24
21
13.173775
31
0
39
0
210
0
220
0
230
1
0
LINE
5
67
100
AcDbEntity
8
SK1
62
256
6
ByLayer
370
-1
48
1
60
0
100
AcDbLine
10
-1.6
20
-14.0625
30
0
11
-1.6
21
14.0625
31
0
39
0
210
0
220
0
230
1
0
LINE
5
68
100
AcDbEntity
8
SK1
62
256
6
ByLayer
370
-1
48
1
60
0
100
AcDbLine
10
0
20
-13.912453
30
0
11
-1.6
21
-13.87245
31
0
39
0
210
0
220
0
230
1
0
LINE
5
69
100
AcDbEntity
8
SK1
62
256
6
ByLayer
370
-1
48
1
60
0
100
AcDbLine
10
-1.6
20
13.87245
30
0
11
0.003749
21
13.912547
31
0
39
0
210
0
220
0
230
1
0
LINE
5
6A
100
AcDbEntity
8
1
62
256
6
ByLayer
370
-1
48
1
60
0
100
AcDbLine
10
6.663397
20
6.169806
30
19.02455
11
6.663409
21
19.02459
31
6.169738
39
0
210
0
220
0
230
1
0
LINE
5
6B
100
AcDbEntity
8
1
62
256
6
ByLayer
370
-1
48
1
60
0
100
AcDbLine
10
6.923205
20
5.859964
30
19.12226
11
6.923205
21
19.12226
31
5.859964
39
0
210
0
220
0
230
1
0
LINE
5
6C
100
AcDbEntity
8
1
62
256
6
ByLayer
370
-1
48
1
60
0
100
AcDbLine
10
9.076795
20
5.859964
30
19.12226
11
9.076795
21
19.12226
31
5.859964
39
0
210
0
220
0
230
1
0
LINE
5
6D
100
AcDbEntity
8
1
62
256
6
ByLayer
370
-1
48
1
60
0
100
AcDbLine
10
9.336603
20
6.169806
30
19.02455
11
9.336591
21
19.02459
31
6.169738
39
0
210
0
220
0
230
1
0
LINE
5
6E
100
AcDbEntity
8
1
62
256
6
ByLayer
370
-1
48
1
60
0
100
AcDbLine
10
6.663397
20
-6.169806
30
19.02455
11
6.663409
21
-19.02459
31
6.169738
39
0
210
0
220
0
230
1
0
LINE
5
6F
100
AcDbEntity
8
1
62
256
6
ByLayer
370
-1
48
1
60
0
100
AcDbLine
10
6.923205
20
-5.859964
30
19.12226
11
6.923205
21
-19.12226
31
5.859964
39
0
210
0
220
0
230
1
0
LINE
5
70
100
AcDbEntity
8
1
62
256
6
ByLayer
370
-1
48
1
60
0
100
AcDbLine
10
9.076795
20
-5.859964
30
19.12226
11
9.076795
21
-19.12226
31
5.859964
39
0
210
0
220
0
230
1
0
LINE
5
71
100
AcDbEntity
8
1
62
256
6
ByLayer
370
-1
48
1
60
0
100
AcDbLine
10
9.336603
20
-6.169806
30
19.02455
11
9.336591
21
-19.02459
31
6.169738
39
0
210
0
220
0
230
1
0
LINE
5
72
100
AcDbEntity
8
SK1
62
256
6
ByLayer
370
-1
48
1
60
0
100
AcDbLine
10
-23.5
20
-13.46245
30
0
11
-23.5
21
13.46245
31
0
39
0
210
0
220
0
230
1
0
LINE
5
73
100
AcDbEntity
8
1
62
256
6
ByLayer
370
-1
48
1
60
0
100
AcDbLine
10
20.958548
20
20
30
0
11
0
21
20
31
0
39
0
210
0
220
0
230
1
0
LINE
5
74
100
AcDbEntity
8
SK1
62
256
6
ByLayer
370
-1
48
1
60
0
100
AcDbLine
10
-1.6
20
-14.0625
30
0
11
-23.5
21
-13.46245
31
0
39
0
210
0
220
0
230
1
0
LINE
5
75
100
AcDbEntity
8
SK1
62
256
6
ByLayer
370
-1
48
1
60
0
100
AcDbLine
10
-1.6
20
14.0625
30
0
11
-23.5
21
13.46245
31
0
39
0
210
0
220
0
230
1
0
LINE
5
76
100
AcDbEntity
8
SK1
62
256
6
ByLayer
370
-1
48
1
60
0
100
AcDbLine
10
-24
20
-13.173775
30
0
11
-23.5
21
-13.46245
31
0
39
0
210
0
220
0
230
1
0
LINE
5
77
100
AcDbEntity
8
SK1
62
256
6
ByLayer
370
-1
48
1
60
0
100
AcDbLine
10
-24
20
13.173775
30
0
11
-23.5
21
13.46245
31
0
39
0
210
0
220
0
230
1
0
LINE
5
78
100
AcDbEntity
8
1
62
256
6
ByLayer
370
-1
48
1
60
0
100
AcDbLine
10
25
20
-13
30
0
11
25
21
13
31
0
39
0
210
0
220
0
230
1
0
LINE
5
79
100
AcDbEntity
8
1
62
256
6
ByLayer
370
-1
48
1
60
0
100
AcDbLine
10
20.958548
20
20
30
0
11
25
21
13
31
0
39
0
210
0
220
0
230
1
0
LINE
5
7A
100
AcDbEntity
8
1
62
256
6
ByLayer
370
-1
48
1
60
0
100
AcDbLine
10
20.958548
20
-20
30
0
11
25
21
-13
31
0
39
0
210
0
220
0
230
1
0
LINE
5
7B
100
AcDbEntity
8
1
62
256
6
ByLayer
370
-1
48
1
60
0
100
AcDbLine
10
20.958548
20
-20
30
0
11
20.958548
21
20
31
0
39
0
210
0
220
0
230
1
0
LINE
5
7C
100
AcDbEntity
8
1
62
256
6
ByLayer
370
-1
48
1
60
0
100
AcDbLine
10
96.075008
20
1.613034
30
0.8
11
95.44624
21
1.817333
31
0.8
39
0
210
0
220
0
230
1
0
LINE
5
7D
100
AcDbEntity
8
1
62
256
6
ByLayer
370
-1
48
1
60
0
100
AcDbLine
10
96.587362
20
1.920888
30
0.8
11
97.006564
21
4.298299
31
0.8
39
0
210
0
220
0
230
1
0
LINE
5
7E
100
AcDbEntity
8
1
62
256
6
ByLayer
370
-1
48
1
60
0
100
AcDbLine
10
96.764867
20
6.597888
30
0.8
11
97.006564
21
4.298299
31
0.8
39
0
210
0
220
0
230
1
0
LINE
5
7F
100
AcDbEntity
8
1
62
256
6
ByLayer
370
-1
48
1
60
0
100
AcDbLine
10
96.288704
20
6.943842
30
0.8
11
95.627287
21
6.676612
31
0.8
39
0
210
0
220
0
230
1
0
LINE
5
80
100
AcDbEntity
8
1
62
256
6
ByLayer
370
-1
48
1
60
0
100
AcDbLine
10
92.241592
20
6.784637
30
0.8
11
92.87036
21
6.580338
31
0.8
39
0
210
0
220
0
230
1
0
LINE
5
81
100
AcDbEntity
8
1
62
256
6
ByLayer
370
-1
48
1
60
0
100
AcDbLine
10
91.729238
20
6.476783
30
0.8
11
91.310036
21
4.099372
31
0.8
39
0
210
0
220
0
230
1
0
LINE
5
82
100
AcDbEntity
8
1
62
256
6
ByLayer
370
-1
48
1
60
0
100
AcDbLine
10
91.551733
20
1.799783
30
0.8
11
91.310036
21
4.099372
31
0.8
39
0
210
0
220
0
230
1
0
LINE
5
83
100
AcDbEntity
8
1
62
256
6
ByLayer
370
-1
48
1
60
0
100
AcDbLine
10
92.027896
20
1.453829
30
0.8
11
92.689313
21
1.721059
31
0.8
39
0
210
0
220
0
230
1
0
LINE
5
84
100
AcDbEntity
8
1
62
256
6
ByLayer
370
-1
48
1
60
0
100
AcDbLine
10
94.242931
20
1.775313
30
0.8
11
95.44624
21
1.817333
31
0.8
39
0
210
0
220
0
230
1
0
LINE
5
85
100
AcDbEntity
8
1
62
256
6
ByLayer
370
-1
48
1
60
0
100
AcDbLine
10
94.073669
20
6.622358
30
0.8
11
92.87036
21
6.580338
31
0.8
39
0
210
0
220
0
230
1
0
LINE
5
86
100
AcDbEntity
8
1
62
256
6
ByLayer
370
-1
48
1
60
0
100
AcDbLine
10
94.073669
20
6.622358
30
0.8
11
95.627287
21
6.676612
31
0.8
39
0
210
0
220
0
230
1
0
LINE
5
87
100
AcDbEntity
8
1
62
256
6
ByLayer
370
-1
48
1
60
0
100
AcDbLine
10
94.242931
20
1.775313
30
0.8
11
92.689313
21
1.721059
31
0.8
39
0
210
0
220
0
230
1
0
LINE
5
88
100
AcDbEntity
8
1
62
256
6
ByLayer
370
-1
48
1
60
0
100
AcDbLine
10
96.162683
20
-4.905734
30
-0.18
11
95.527168
21
-4.723503
31
-0.18
39
0
210
0
220
0
230
1
0
LINE
5
89
100
AcDbEntity
8
1
62
256
6
ByLayer
370
-1
48
1
60
0
100
AcDbLine
10
96.663982
20
-4.580187
30
-0.18
11
96.999958
21
-2.189594
31
-0.18
39
0
210
0
220
0
230
1
0
LINE
5
8A
100
AcDbEntity
8
1
62
256
6
ByLayer
370
-1
48
1
60
0
100
AcDbLine
10
96.678154
20
0.100159
30
-0.18
11
96.999958
21
-2.189594
31
-0.18
39
0
210
0
220
0
230
1
0
LINE
5
8B
100
AcDbEntity
8
1
62
256
6
ByLayer
370
-1
48
1
60
0
100
AcDbLine
10
96.190206
20
0.429284
30
-0.18
11
95.538519
21
0.139134
31
-0.18
39
0
210
0
220
0
230
1
0
LINE
5
8C
100
AcDbEntity
8
1
62
256
6
ByLayer
370
-1
48
1
60
0
100
AcDbLine
10
92.151117
20
0.128934
30
-0.18
11
92.786632
21
-0.053297
31
-0.18
39
0
210
0
220
0
230
1
0
LINE
5
8D
100
AcDbEntity
8
1
62
256
6
ByLayer
370
-1
48
1
60
0
100
AcDbLine
10
91.649818
20
-0.196613
30
-0.18
11
91.313842
21
-2.587206
31
-0.18
39
0
210
0
220
0
230
1
0
LINE
5
8E
100
AcDbEntity
8
1
62
256
6
ByLayer
370
-1
48
1
60
0
100
AcDbLine
10
91.635646
20
-4.876959
30
-0.18
11
91.313842
21
-2.587206
31
-0.18
39
0
210
0
220
0
230
1
0
LINE
5
8F
100
AcDbEntity
8
1
62
256
6
ByLayer
370
-1
48
1
60
0
100
AcDbLine
10
92.123594
20
-5.206084
30
-0.18
11
92.775281
21
-4.915934
31
-0.18
39
0
210
0
220
0
230
1
0
LINE
5
90
100
AcDbEntity
8
1
62
256
6
ByLayer
370
-1
48
1
60
0
100
AcDbLine
10
94.326059
20
-4.807493
30
-0.18
11
95.527168
21
-4.723503
31
-0.18
39
0
210
0
220
0
230
1
0
LINE
5
91
100
AcDbEntity
8
1
62
256
6
ByLayer
370
-1
48
1
60
0
100
AcDbLine
10
93.987741
20
0.030693
30
-0.18
11
92.786632
21
-0.053297
31
-0.18
39
0
210
0
220
0
230
1
0
LINE
5
92
100
AcDbEntity
8
1
62
256
6
ByLayer
370
-1
48
1
60
0
100
AcDbLine
10
93.987741
20
0.030693
30
-0.18
11
95.538519
21
0.139134
31
-0.18
39
0
210
0
220
0
230
1
0
LINE
5
93
100
AcDbEntity
8
1
62
256
6
ByLayer
370
-1
48
1
60
0
100
AcDbLine
10
94.326059
20
-4.807493
30
-0.18
11
92.775281
21
-4.915934
31
-0.18
39
0
210
0
220
0
230
1
0
LINE
5
94
100
AcDbEntity
8
1
62
256
6
ByLayer
370
-1
48
1
60
0
100
AcDbLine
10
96.820599
20
-2.3884
30
0
11
96.029512
21
-1.720985
31
0
39
0
210
0
220
0
230
1
0
LINE
5
95
100
AcDbEntity
8
1
62
256
6
ByLayer
370
-1
48
1
60
0
100
AcDbLine
10
96.029512
20
-1.720985
30
0
11
95.909169
21
0
31
0
39
0
210
0
220
0
230
1
0
LINE
5
96
100
AcDbEntity
8
1
62
256
6
ByLayer
370
-1
48
1
60
0
100
AcDbLine
10
95.909169
20
0
30
0
11
96.484932
21
0
31
0
39
0
210
0
220
0
230
1
0
LINE
5
97
100
AcDbEntity
8
1
62
256
6
ByLayer
370
-1
48
1
60
0
100
AcDbLine
10
82.133745
20
1.314135
30
6.7
11
96.175432
21
1.314135
31
0
39
0
210
0
220
0
230
1
0
LINE
5
98
100
AcDbEntity
8
1
62
256
6
ByLayer
370
-1
48
1
60
0
100
AcDbLine
10
85.5
20
0.33054
30
6.691842
11
87.344973
21
-0.213175
31
6.7
39
0
210
0
220
0
230
1
0
LINE
5
99
100
AcDbEntity
8
1
62
256
6
ByLayer
370
-1
48
1
60
0
100
AcDbLine
10
95.924076
20
-0.213175
30
0
11
87.344973
21
-0.213175
31
6.7
39
0
210
0
220
0
230
1
0
LINE
5
9A
100
AcDbEntity
8
1
62
256
6
ByLayer
370
-1
48
1
60
0
100
AcDbLine
10
91.85171
20
6.7
30
0.8
11
85.5
21
6.7
31
0
39
0
210
0
220
0
230
1
0
LINE
5
9B
100
AcDbEntity
8
1
62
256
6
ByLayer
370
-1
48
1
60
0
100
AcDbLine
10
95.943714
20
0
30
0
11
96.224887
21
1.594609
31
0.8
39
0
210
0
220
0
230
1
0
LINE
5
9C
100
AcDbEntity
8
1
62
256
6
ByLayer
370
-1
48
1
60
0
100
AcDbLine
10
96.214643
20
-6.7
30
0
11
85.5
21
-6.7
31
0
39
0
210
0
220
0
230
1
0
LINE
5
9D
100
AcDbEntity
8
81
62
256
6
ByLayer
370
-1
48
1
60
0
100
AcDbLine
10
97
20
0
30
0
11
107
21
0
31
0
39
0
210
0
220
0
230
1
0
LINE
5
9E
100
AcDbEntity
8
80
62
256
6
ByLayer
370
-1
48
1
60
0
100
AcDbLine
10
0
20
0
30
0
11
-10
21
0
31
0
39
0
210
0
220
0
230
1
0
LINE
5
9F
100
AcDbEntity
8
2
62
256
6
ByLayer
370
-1
48
1
60
0
100
AcDbLine
10
110.3
20
7
30
0
11
98.8
21
7
31
0
39
0
210
0
220
0
230
1
0
LINE
5
A1
100
AcDbEntity
8
2
62
256
6
ByLayer
370
-1
48
1
60
0
100
AcDbLine
10
110.3
20
-7
30
0
11
98.8
21
-7
31
0
39
0
210
0
220
0
230
1
0
LINE
5
A2
100
AcDbEntity
8
2
62
256
6
ByLayer
370
-1
48
1
60
1
100
AcDbLine
10
38
20
7
30
0
11
38
21
7.1
31
0
39
0
210
0
220
0
230
1
0
LINE
5
A3
100
AcDbEntity
8
2
62
256
6
ByLayer
370
-1
48
1
60
1
100
AcDbLine
10
0
20
12.5
30
0
11
0
21
12.6
31
0
39
0
210
0
220
0
230
1
0
MTEXT
5
C9
100
AcDbEntity
8
SK6
62
256
6
ByLayer
370
-1
48
1
60
0
100
AcDbMText
10
3.675
20
21.125
30
0
210
0
220
0
230
1
1
\W00.711;\fsimplex.shx,bigfont.shx;881-D1400C4-04\P
40
3.5
41
0
44
1.084337
50
0
71
7
72
5
7
DEFAULT
0
DIMENSION
5
DA
100
AcDbEntity
8
2
62
256
6
ByLayer
370
-3
48
1
60
0
100
AcDbDimension
2
DimnDraft3D1
10
112.55
20
-7
30
0
11
112.55
21
0
31
0
70
32
71
5
72
1
41
1
210
0
220
0
230
1
3
Standard
100
AcDbAlignedDimension
13
111.799997
23
7
33
0
14
111.799997
24
-7
34
0
50
90
100
AcDbRotatedDimension
1001
ACAD
1000
DSTYLE
1002
{
1070
    74
1070
     0
1070
   279
1070
     0
1070
   173
1070
     1
1070
   340
1005
CA
1070
    77
1070
     1
1070
    73
1070
     0
1070
   171
1070
     4
1070
   274
1070
     4
1070
   177
1070
     7
1070
   176
1070
     7
1070
   178
1070
     7
1070
    41
1041
2.999994
1070
   147
1041
2.25
1070
    42
1041
1.499997
1070
    44
1041
2.999994
1070
   140
1041
4.5
1070
   343
1005
DB
1070
   344
1005
DB
1002
}
0
DIMENSION
5
F0
100
AcDbEntity
8
SK2
62
256
6
ByLayer
370
-3
48
1
60
0
100
AcDbDimension
2
DimnDraft3D2
10
-46.7
20
20
30
0
11
-46.7
21
0
31
0
70
32
71
5
72
1
41
1
210
0
220
0
230
1
3
Standard
100
AcDbAlignedDimension
13
-1.499997
23
-20
33
0
14
-1.499997
24
20
34
0
50
90
100
AcDbRotatedDimension
1001
ACAD
1000
DSTYLE
1002
{
1070
    74
1070
     0
1070
   279
1070
     0
1070
   173
1070
     1
1070
   340
1005
CA
1070
    77
1070
     1
1070
    73
1070
     0
1070
   171
1070
     4
1070
   274
1070
     4
1070
   177
1070
     7
1070
   176
1070
     7
1070
   178
1070
     7
1070
    41
1041
2.999994
1070
   147
1041
2.25
1070
    42
1041
1.499997
1070
    44
1041
2.999994
1070
   140
1041
4.5
1070
   343
1005
DB
1070
   344
1005
DB
1002
}
0
DIMENSION
5
FE
100
AcDbEntity
8
2
62
256
6
ByLayer
370
-3
48
1
60
0
100
AcDbDimension
2
DimnDraft3D3
10
38
20
30.5
30
0
11
67.4
21
30.5
31
0
70
32
71
5
72
1
41
1
210
0
220
0
230
1
3
Standard
100
AcDbAlignedDimension
13
96.663982
23
-3.08019
33
0
14
38
24
8.599997
34
0
50
0
100
AcDbRotatedDimension
1001
ACAD
1000
DSTYLE
1002
{
1070
   279
1070
     0
1070
   173
1070
     1
1070
   340
1005
CA
1070
    77
1070
     1
1070
    73
1070
     0
1070
   171
1070
     4
1070
   274
1070
     4
1070
   177
1070
     7
1070
   176
1070
     7
1070
   178
1070
     7
1070
    41
1041
2.999994
1070
   147
1041
2.25
1070
    42
1041
1.499997
1070
    44
1041
2.999994
1070
   140
1041
4.5
1070
   343
1005
DB
1070
   344
1005
DB
1002
}
0
DIMENSION
5
10C
100
AcDbEntity
8
SK2
62
256
6
ByLayer
370
-3
48
1
60
0
100
AcDbDimension
2
DimnDraft3D4
10
-24
20
41.75
30
0
11
-10.7
21
41.75
31
0
70
32
71
5
72
1
41
1
210
0
220
0
230
1
3
Standard
100
AcDbAlignedDimension
13
0
23
1.499997
33
0
14
-24
24
14.673772
34
0
50
0
100
AcDbRotatedDimension
1001
ACAD
1000
DSTYLE
1002
{
1070
   279
1070
     0
1070
   173
1070
     1
1070
   340
1005
CA
1070
    77
1070
     1
1070
    73
1070
     0
1070
   171
1070
     4
1070
   274
1070
     4
1070
   177
1070
     7
1070
   176
1070
     7
1070
   178
1070
     7
1070
    41
1041
2.999994
1070
   147
1041
2.25
1070
    42
1041
1.499997
1070
    44
1041
2.999994
1070
   140
1041
4.5
1070
   343
1005
DB
1070
   344
1005
DB
1002
}
0
DIMENSION
5
11A
100
AcDbEntity
8
SK2
62
256
6
ByLayer
370
-3
48
1
60
0
100
AcDbDimension
2
DimnDraft3D5
10
-24
20
53
30
0
11
36.3
21
53
31
0
70
32
71
5
72
1
41
1
210
0
220
0
230
1
3
Standard
100
AcDbAlignedDimension
13
96.663982
23
-3.08019
33
0
14
-24
24
14.673772
34
0
50
0
100
AcDbRotatedDimension
1001
ACAD
1000
DSTYLE
1002
{
1070
   279
1070
     0
1070
   173
1070
     1
1070
   340
1005
CA
1070
    77
1070
     1
1070
    73
1070
     0
1070
   171
1070
     4
1070
   274
1070
     4
1070
   177
1070
     7
1070
   176
1070
     7
1070
   178
1070
     7
1070
    41
1041
2.999994
1070
   147
1041
2.25
1070
    42
1041
1.499997
1070
    44
1041
2.999994
1070
   140
1041
4.5
1070
   343
1005
DB
1070
   344
1005
DB
1002
}
0
DIMENSION
5
128
100
AcDbEntity
8
2
62
256
6
ByLayer
370
-3
48
1
60
0
100
AcDbDimension
2
DimnDraft3D6
10
0
20
41.75
30
0
11
48.4
21
41.75
31
0
70
32
71
5
72
1
41
1
210
0
220
0
230
1
3
Standard
100
AcDbAlignedDimension
13
96.663982
23
-3.08019
33
0
14
0
24
14.099997
34
0
50
0
100
AcDbRotatedDimension
1001
ACAD
1000
DSTYLE
1002
{
1070
   279
1070
     0
1070
   173
1070
     1
1070
   340
1005
CA
1070
    77
1070
     1
1070
    73
1070
     0
1070
   171
1070
     4
1070
   274
1070
     4
1070
   177
1070
     7
1070
   176
1070
     7
1070
   178
1070
     7
1070
    41
1041
2.999994
1070
   147
1041
2.25
1070
    42
1041
1.499997
1070
    44
1041
2.999994
1070
   140
1041
4.5
1070
   343
1005
DB
1070
   344
1005
DB
1002
}
0
ENDSEC
0
SECTION
2
OBJECTS
0
DICTIONARY
5
177
330
0
100
AcDbDictionary
280
0
281
1
3
ACAD_GROUP
350
178
3
ACAD_MLINESTYLE
350
179
0
DICTIONARY
5
178
330
0
100
AcDbDictionary
280
0
281
1
0
DICTIONARY
5
179
330
0
100
AcDbDictionary
280
0
281
1
3
Standard
350
18
0
MLINESTYLE
5
18
330
179
100
AcDbMlineStyle
2
Standard
70
0
3

62
256
51
90
52
90
71
2
49
-0.5
62
256
6
ByLayer
49
0.5
62
256
6
ByLayer
0
RASTERVARIABLES
5
165
330

100
AcDbRasterVariables
90
0
70
1
71
1
72
1
0
ENDSEC
0
EOF
