0
SECTION
2
HEADER
9
$ACADVER
1
AC1015
9
$DWGCODEPAGE
3
ANSI_1252
9
$HANDSEED
5
2c9
9
$ANGBASE
50
0
9
$ANGDIR
70
0
9
$ATTMODE
70
1
9
$AUNITS
70
0
9
$AUPREC
70
0
9
$CECOLOR
62
256
9
$CELTSCALE
40
1
9
$CELTYPE
6
ByLayer
9
$CELWEIGHT
370
-1
9
$CLAYER
8
0
9
$CMLJUST
70
0
9
$CMLSCALE
40
1
9
$CMLSTYLE
2
Standard
9
$DIMSTYLE
2
Standard
9
$TEXTSIZE
40
0.2
9
$TEXTSTYLE
7
Standard
9
$LUNITS
70
2
9
$LUPREC
70
4
9
$EXTNAMES
290
1
9
$INSUNITS
70
4
9
$LTSCALE
40
1
9
$LWDISPLAY
290
0
9
$PDMODE
70
0
9
$PDSIZE
40
0
9
$PLINEGEN
70
0
0
ENDSEC
0
SECTION
2
CLASSES
0
CLASS
1
RASTERVARIABLES
2
AcDbRasterVariables
3
ISM
90
0
280
0
281
0
0
ENDSEC
0
SECTION
2
TABLES
0
TABLE
2
VPORT
5
2bf
100
AcDbSymbolTable
0
VPORT
5
1
100
AcDbSymbolTableRecord
100
AcDbViewportTableRecord
2
*Active
70
0
10
0
20
0
11
1
21
1
12
-1
22
1
13
0
23
0
14
0.5
24
0.5
15
10
25
10
16
0
26
0
36
1
17
0
27
0
37
0
0
ENDTAB
0
TABLE
2
LTYPE
5
2c0
100
AcDbSymbolTable
0
LTYPE
5
14
100
AcDbSymbolTableRecord
100
AcDbLinetypeTableRecord
70
0
2
ByBlock
3

72
65
73
0
40
0
0
LTYPE
5
15
100
AcDbSymbolTableRecord
100
AcDbLinetypeTableRecord
70
0
2
ByLayer
3

72
65
73
0
40
0
0
LTYPE
5
16
100
AcDbSymbolTableRecord
100
AcDbLinetypeTableRecord
70
0
2
CONTINUOUS
3
Solid line
72
65
73
0
40
0
0
LTYPE
5
3B
100
AcDbSymbolTableRecord
100
AcDbLinetypeTableRecord
70
0
2
DASHED
3
__ __ __ __ __ __ __ __ __
72
65
73
2
40
25.72
49
12.86
74
0
49
-12.86
74
0
0
LTYPE
5
3C
100
AcDbSymbolTableRecord
100
AcDbLinetypeTableRecord
70
0
2
HIDDEN
3
_ _ _ _ _ _ _ _ _ _ _ _ _ _ _
72
65
73
2
40
0.5
49
0.25
74
0
49
-0.25
74
0
0
LTYPE
5
3D
100
AcDbSymbolTableRecord
100
AcDbLinetypeTableRecord
70
0
2
PHANTOM
3
____ _ _ ____ _ _ _____ _ _ ____
72
65
73
6
40
50.5
49
18
74
0
49
-6.5
74
0
49
6.5
74
0
49
-6.5
74
0
49
6.5
74
0
49
-6.5
74
0
0
LTYPE
5
3E
100
AcDbSymbolTableRecord
100
AcDbLinetypeTableRecord
70
0
2
CENTER
3
____ _ ____ _ ____ _ ____
72
65
73
4
40
47.5
49
22
74
0
49
-8.5
74
0
49
8.5
74
0
49
-8.5
74
0
0
LTYPE
5
3F
100
AcDbSymbolTableRecord
100
AcDbLinetypeTableRecord
70
0
2
DOT
3
.........................
72
65
73
2
40
10
49
0
74
0
49
-10
74
0
0
LTYPE
5
40
100
AcDbSymbolTableRecord
100
AcDbLinetypeTableRecord
70
0
2
DASHDOT
3
_._._._._._._._._._._._._._._._.
72
65
73
4
40
70
49
31
74
0
49
-13
74
0
49
13
74
0
49
-13
74
0
0
ENDTAB
0
TABLE
2
LAYER
5
2c1
100
AcDbSymbolTable
0
LAYER
5
10
100
AcDbSymbolTableRecord
100
AcDbLayerTableRecord
2
0
70
0
62
7
6
CONTINUOUS
290
1
370
-3
390
0
0
LAYER
5
42
100
AcDbSymbolTableRecord
100
AcDbLayerTableRecord
2
81
70
0
62
-3
6
CONTINUOUS
290
1
370
-3
390
0
0
LAYER
5
44
100
AcDbSymbolTableRecord
100
AcDbLayerTableRecord
2
80
70
0
62
-6
6
CONTINUOUS
290
1
370
-3
390
0
0
LAYER
5
48
100
AcDbSymbolTableRecord
100
AcDbLayerTableRecord
2
1
70
0
62
4
6
CONTINUOUS
290
1
370
-3
390
0
0
LAYER
5
61
100
AcDbSymbolTableRecord
100
AcDbLayerTableRecord
2
4
70
0
62
-2
6
CENTER
290
1
370
-3
390
0
0
LAYER
5
258
100
AcDbSymbolTableRecord
100
AcDbLayerTableRecord
2
2
70
0
62
7
6
CONTINUOUS
290
1
370
-3
390
0
0
LAYER
5
2ab
100
AcDbSymbolTableRecord
100
AcDbLayerTableRecord
2
SK1
70
0
62
4
6
CONTINUOUS
290
1
370
-3
390
0
0
LAYER
5
2ac
100
AcDbSymbolTableRecord
100
AcDbLayerTableRecord
2
SK4
70
0
62
2
6
CENTER
290
1
370
-3
390
0
0
LAYER
5
2ad
100
AcDbSymbolTableRecord
100
AcDbLayerTableRecord
2
SK6
70
0
62
5
6
CONTINUOUS
290
1
370
-3
390
0
0
LAYER
5
2ae
100
AcDbSymbolTableRecord
100
AcDbLayerTableRecord
2
SK2
70
0
62
7
6
CONTINUOUS
290
1
370
-3
390
0
0
ENDTAB
0
TABLE
2
STYLE
5
2c2
100
AcDbSymbolTable
0
STYLE
5
11
100
AcDbSymbolTableRecord
100
AcDbTextStyleTableRecord
2
Standard
3
txt
70
0
71
0
40
0
41
1
42
0
50
0
0
STYLE
5
21C
100
AcDbSymbolTableRecord
100
AcDbTextStyleTableRecord
2
DEFAULT
3
simplex.shx
70
0
71
0
40
0
41
1
42
0
50
0
0
STYLE
5
23F
100
AcDbSymbolTableRecord
100
AcDbTextStyleTableRecord
2
DWGDirectTextStyle
3
SIMPLEX
70
0
71
0
40
0
41
1
42
0
50
0
0
ENDTAB
0
TABLE
2
DIMSTYLE
5
2c3
100
AcDbSymbolTable
100
AcDbDimStyleTable
0
DIMSTYLE
105
27
100
AcDbSymbolTableRecord
100
AcDbDimStyleTableRecord
2
Standard
70
0
3
<>
41
0.18
42
0.0625
44
0.18
140
0.18
147
0.09
73
0
74
0
77
1
271
2
275
0
278
52
280
0
340
11
0
ENDTAB
0
TABLE
2
VIEW
5
2c4
100
AcDbSymbolTable
0
ENDTAB
0
TABLE
2
UCS
5
2c5
100
AcDbSymbolTable
0
ENDTAB
0
TABLE
2
APPID
5
2c6
100
AcDbSymbolTable
0
APPID
5
12
100
AcDbSymbolTableRecord
100
AcDbRegAppTableRecord
2
ACAD
70
0
0
ENDTAB
0
TABLE
2
BLOCK_RECORD
5
2c7
100
AcDbSymbolTable
0
BLOCK_RECORD
5
1F
100
AcDbSymbolTableRecord
100
AcDbBlockTableRecord
2
*Model_Space
340
0
70
0
0
BLOCK_RECORD
5
1B
100
AcDbSymbolTableRecord
100
AcDbBlockTableRecord
2
*Paper_Space
340
0
70
0
0
BLOCK_RECORD
5
23
100
AcDbSymbolTableRecord
100
AcDbBlockTableRecord
2
*Paper_Space0
340
0
70
0
0
BLOCK_RECORD
5
241
100
AcDbSymbolTableRecord
100
AcDbBlockTableRecord
2
DimnDraft3D1
340
0
70
0
0
BLOCK_RECORD
5
24C
100
AcDbSymbolTableRecord
100
AcDbBlockTableRecord
2
DimnDraft3D2
340
0
70
0
0
BLOCK_RECORD
5
256
100
AcDbSymbolTableRecord
100
AcDbBlockTableRecord
2
DimnDraft3D3
340
0
70
0
0
BLOCK_RECORD
5
261
100
AcDbSymbolTableRecord
100
AcDbBlockTableRecord
2
DimnDraft3D4
340
0
70
0
0
BLOCK_RECORD
5
26B
100
AcDbSymbolTableRecord
100
AcDbBlockTableRecord
2
DimnDraft3D5
340
0
70
0
0
BLOCK_RECORD
5
276
100
AcDbSymbolTableRecord
100
AcDbBlockTableRecord
2
DimnDraft3D6
340
0
70
0
0
BLOCK_RECORD
5
281
100
AcDbSymbolTableRecord
100
AcDbBlockTableRecord
2
DimnDraft3D7
340
0
70
0
0
ENDTAB
0
ENDSEC
0
SECTION
2
BLOCKS
0
BLOCK
5
20
100
AcDbEntity
8
0
100
AcDbBlockBegin
2
*Model_Space
70
0
10
0
20
0
30
0
3
*Model_Space
0
ENDBLK
5
21
100
AcDbEntity
8
0
100
AcDbBlockEnd
0
BLOCK
5
1C
100
AcDbEntity
8
0
100
AcDbBlockBegin
2
*Paper_Space
70
0
10
0
20
0
30
0
3
*Paper_Space
0
ENDBLK
5
1D
100
AcDbEntity
8
0
100
AcDbBlockEnd
0
BLOCK
5
24
100
AcDbEntity
8
0
100
AcDbBlockBegin
2
*Paper_Space0
70
0
10
0
20
0
30
0
3
*Paper_Space0
0
ENDBLK
5
25
100
AcDbEntity
8
0
100
AcDbBlockEnd
0
BLOCK
5
249
100
AcDbEntity
8
0
100
AcDbBlockBegin
2
DimnDraft3D1
70
0
10
0
20
0
30
0
3
DimnDraft3D1
0
MTEXT
5
242
100
AcDbEntity
8
SK2
62
256
6
ByLayer
370
-1
48
1
60
0
100
AcDbMText
10
12.969079
20
-51.7758
30
0
210
0
220
0
230
1
1
\W01.000;\fsimplex.shx,bigfont.shx;(151) 
40
4.5
41
0
44
1.084337
50
0
71
7
72
5
7
DEFAULT
0
LINE
5
244
100
AcDbEntity
8
SK2
62
256
6
ByLayer
370
-1
48
1
60
0
100
AcDbLine
10
-56
20
-14.0875
30
0
11
-56
21
-58.04455
31
0
39
0
210
0
220
0
230
1
0
LINE
5
245
100
AcDbEntity
8
SK2
62
256
6
ByLayer
370
-1
48
1
60
0
100
AcDbLine
10
95
20
-13.5875
30
0
11
95
21
-58.04455
31
0
39
0
210
0
220
0
230
1
0
LINE
5
246
100
AcDbEntity
8
SK2
62
256
6
ByLayer
370
-1
48
1
60
0
100
AcDbLine
10
-56
20
-54.86955
30
0
11
95
21
-54.86955
31
0
39
0
210
0
220
0
230
1
0
SOLID
5
247
100
AcDbEntity
8
SK2
62
256
6
ByLayer
370
-1
48
1
60
0
100
AcDbTrace
10
-56
20
-54.86955
30
0
11
-51.825003
21
-53.943975
31
0
12
-51.824997
22
-55.795125
32
0
13
-56
23
-54.86955
33
0
39
0
210
0
220
0
230
1
0
SOLID
5
248
100
AcDbEntity
8
SK2
62
256
6
ByLayer
370
-1
48
1
60
0
100
AcDbTrace
10
95
20
-54.86955
30
0
11
90.825003
21
-55.795125
31
0
12
90.824997
22
-53.943975
32
0
13
95
23
-54.86955
33
0
39
0
210
0
220
0
230
1
0
ENDBLK
5
24A
100
AcDbEntity
8
0
100
AcDbBlockEnd
0
BLOCK
5
253
100
AcDbEntity
8
0
100
AcDbBlockBegin
2
DimnDraft3D2
70
0
10
0
20
0
30
0
3
DimnDraft3D2
0
MTEXT
5
24D
100
AcDbEntity
8
SK2
62
256
6
ByLayer
370
-1
48
1
60
0
100
AcDbMText
10
-29.503947
20
-41.7758
30
0
210
0
220
0
230
1
1
\W01.000;\fsimplex.shx,bigfont.shx;56 
40
4.5
41
0
44
1.084337
50
0
71
7
72
5
7
DEFAULT
0
LINE
5
24E
100
AcDbEntity
8
SK2
62
256
6
ByLayer
370
-1
48
1
60
0
100
AcDbLine
10
-56
20
-14.0875
30
0
11
-56
21
-46.0758
31
0
39
0
210
0
220
0
230
1
0
LINE
5
24F
100
AcDbEntity
8
SK2
62
256
6
ByLayer
370
-1
48
1
60
0
100
AcDbLine
10
0
20
-17.5875
30
0
11
0
21
-46.0758
31
0
39
0
210
0
220
0
230
1
0
LINE
5
250
100
AcDbEntity
8
SK2
62
256
6
ByLayer
370
-1
48
1
60
0
100
AcDbLine
10
-56
20
-42.9008
30
0
11
0
21
-42.9008
31
0
39
0
210
0
220
0
230
1
0
SOLID
5
251
100
AcDbEntity
8
SK2
62
256
6
ByLayer
370
-1
48
1
60
0
100
AcDbTrace
10
-56
20
-42.9008
30
0
11
-51.825003
21
-41.975225
31
0
12
-51.824997
22
-43.826375
32
0
13
-56
23
-42.9008
33
0
39
0
210
0
220
0
230
1
0
SOLID
5
252
100
AcDbEntity
8
SK2
62
256
6
ByLayer
370
-1
48
1
60
0
100
AcDbTrace
10
0
20
-42.9008
30
0
11
-4.174997
21
-43.826375
31
0
12
-4.175003
22
-41.975225
32
0
13
0
23
-42.9008
33
0
39
0
210
0
220
0
230
1
0
ENDBLK
5
254
100
AcDbEntity
8
0
100
AcDbBlockEnd
0
BLOCK
5
25E
100
AcDbEntity
8
0
100
AcDbBlockBegin
2
DimnDraft3D3
70
0
10
0
20
0
30
0
3
DimnDraft3D3
0
MTEXT
5
257
100
AcDbEntity
8
2
62
256
6
ByLayer
370
-1
48
1
60
0
100
AcDbMText
10
45.996053
20
-41.7758
30
0
210
0
220
0
230
1
1
\W01.000;\fsimplex.shx,bigfont.shx;95 
40
4.5
41
0
44
1.084337
50
0
71
7
72
5
7
DEFAULT
0
LINE
5
259
100
AcDbEntity
8
2
62
256
6
ByLayer
370
-1
48
1
60
0
100
AcDbLine
10
0
20
-17.5875
30
0
11
0
21
-46.0758
31
0
39
0
210
0
220
0
230
1
0
LINE
5
25A
100
AcDbEntity
8
2
62
256
6
ByLayer
370
-1
48
1
60
0
100
AcDbLine
10
95
20
-13.5875
30
0
11
95
21
-46.0758
31
0
39
0
210
0
220
0
230
1
0
LINE
5
25B
100
AcDbEntity
8
2
62
256
6
ByLayer
370
-1
48
1
60
0
100
AcDbLine
10
0
20
-42.9008
30
0
11
95
21
-42.9008
31
0
39
0
210
0
220
0
230
1
0
SOLID
5
25C
100
AcDbEntity
8
2
62
256
6
ByLayer
370
-1
48
1
60
0
100
AcDbTrace
10
0
20
-42.9008
30
0
11
4.174997
21
-41.975225
31
0
12
4.175003
22
-43.826375
32
0
13
0
23
-42.9008
33
0
39
0
210
0
220
0
230
1
0
SOLID
5
25D
100
AcDbEntity
8
2
62
256
6
ByLayer
370
-1
48
1
60
0
100
AcDbTrace
10
95
20
-42.9008
30
0
11
90.825003
21
-43.826375
31
0
12
90.824997
22
-41.975225
32
0
13
95
23
-42.9008
33
0
39
0
210
0
220
0
230
1
0
ENDBLK
5
25F
100
AcDbEntity
8
0
100
AcDbBlockEnd
0
BLOCK
5
268
100
AcDbEntity
8
0
100
AcDbBlockBegin
2
DimnDraft3D4
70
0
10
0
20
0
30
0
3
DimnDraft3D4
0
MTEXT
5
262
100
AcDbEntity
8
SK2
62
256
6
ByLayer
370
-1
48
1
60
0
100
AcDbMText
10
55.496053
20
-31.7758
30
0
210
0
220
0
230
1
1
\W01.000;\fsimplex.shx,bigfont.shx;76 
40
4.5
41
0
44
1.084337
50
0
71
7
72
5
7
DEFAULT
0
LINE
5
263
100
AcDbEntity
8
SK2
62
256
6
ByLayer
370
-1
48
1
60
0
100
AcDbLine
10
19
20
-11.5875
30
0
11
19
21
-36.0758
31
0
39
0
210
0
220
0
230
1
0
LINE
5
264
100
AcDbEntity
8
SK2
62
256
6
ByLayer
370
-1
48
1
60
0
100
AcDbLine
10
95
20
-13.5875
30
0
11
95
21
-36.0758
31
0
39
0
210
0
220
0
230
1
0
LINE
5
265
100
AcDbEntity
8
SK2
62
256
6
ByLayer
370
-1
48
1
60
0
100
AcDbLine
10
19
20
-32.9008
30
0
11
95
21
-32.9008
31
0
39
0
210
0
220
0
230
1
0
SOLID
5
266
100
AcDbEntity
8
SK2
62
256
6
ByLayer
370
-1
48
1
60
0
100
AcDbTrace
10
19
20
-32.9008
30
0
11
23.174997
21
-31.975225
31
0
12
23.175003
22
-33.826375
32
0
13
19
23
-32.9008
33
0
39
0
210
0
220
0
230
1
0
SOLID
5
267
100
AcDbEntity
8
SK2
62
256
6
ByLayer
370
-1
48
1
60
0
100
AcDbTrace
10
95
20
-32.9008
30
0
11
90.825003
21
-33.826375
31
0
12
90.824997
22
-31.975225
32
0
13
95
23
-32.9008
33
0
39
0
210
0
220
0
230
1
0
ENDBLK
5
269
100
AcDbEntity
8
0
100
AcDbBlockEnd
0
BLOCK
5
273
100
AcDbEntity
8
0
100
AcDbBlockBegin
2
DimnDraft3D5
70
0
10
0
20
0
30
0
3
DimnDraft3D5
0
MTEXT
5
26C
100
AcDbEntity
8
SK2
62
256
6
ByLayer
370
-1
48
1
60
0
100
AcDbMText
10
-66.975
20
5.246053
30
0
210
0
220
0
230
1
1
\W01.000;\fsimplex.shx,bigfont.shx;25 
40
4.5
41
0
44
1.084337
50
90
71
7
72
5
7
DEFAULT
0
MTEXT
5
26D
100
AcDbEntity
8
SK2
62
256
6
ByLayer
370
-1
48
1
60
0
100
AcDbMText
10
-66.975
20
-8.253947
30
0
210
0
220
0
230
1
1
\W01.000;\fsimplex.shx,bigfont.shx;%%c 
40
4.5
41
0
44
1.084337
50
90
71
7
72
5
7
DEFAULT
0
LINE
5
26E
100
AcDbEntity
8
SK2
62
256
6
ByLayer
370
-1
48
1
60
0
100
AcDbLine
10
-57.5875
20
12.5
30
0
11
-67.9
21
12.5
31
0
39
0
210
0
220
0
230
1
0
LINE
5
26F
100
AcDbEntity
8
SK2
62
256
6
ByLayer
370
-1
48
1
60
0
100
AcDbLine
10
-57.5875
20
-12.5
30
0
11
-67.9
21
-12.5
31
0
39
0
210
0
220
0
230
1
0
LINE
5
270
100
AcDbEntity
8
SK2
62
256
6
ByLayer
370
-1
48
1
60
0
100
AcDbLine
10
-64.725
20
23.75
30
0
11
-64.725
21
-23.75
31
0
39
0
210
0
220
0
230
1
0
SOLID
5
271
100
AcDbEntity
8
SK2
62
256
6
ByLayer
370
-1
48
1
60
0
100
AcDbTrace
10
-64.725
20
12.5
30
0
11
-65.650575
21
16.674997
31
0
12
-63.799425
22
16.675003
32
0
13
-64.725
23
12.5
33
0
39
0
210
0
220
0
230
1
0
SOLID
5
272
100
AcDbEntity
8
SK2
62
256
6
ByLayer
370
-1
48
1
60
0
100
AcDbTrace
10
-64.725
20
-12.5
30
0
11
-63.799425
21
-16.674997
31
0
12
-65.650575
22
-16.675003
32
0
13
-64.725
23
-12.5
33
0
39
0
210
0
220
0
230
1
0
ENDBLK
5
274
100
AcDbEntity
8
0
100
AcDbBlockEnd
0
BLOCK
5
27E
100
AcDbEntity
8
0
100
AcDbBlockBegin
2
DimnDraft3D6
70
0
10
0
20
0
30
0
3
DimnDraft3D6
0
MTEXT
5
277
100
AcDbEntity
8
SK2
62
256
6
ByLayer
370
-1
48
1
60
0
100
AcDbMText
10
-76.975
20
5.246053
30
0
210
0
220
0
230
1
1
\W01.000;\fsimplex.shx,bigfont.shx;32 
40
4.5
41
0
44
1.084337
50
90
71
7
72
5
7
DEFAULT
0
MTEXT
5
278
100
AcDbEntity
8
SK2
62
256
6
ByLayer
370
-1
48
1
60
0
100
AcDbMText
10
-76.975
20
-8.253947
30
0
210
0
220
0
230
1
1
\W01.000;\fsimplex.shx,bigfont.shx;%%c 
40
4.5
41
0
44
1.084337
50
90
71
7
72
5
7
DEFAULT
0
LINE
5
279
100
AcDbEntity
8
SK2
62
256
6
ByLayer
370
-1
48
1
60
0
100
AcDbLine
10
-1.5875
20
-16
30
0
11
-77.9
21
-16
31
0
39
0
210
0
220
0
230
1
0
LINE
5
27A
100
AcDbEntity
8
SK2
62
256
6
ByLayer
370
-1
48
1
60
0
100
AcDbLine
10
-1.5875
20
16
30
0
11
-77.9
21
16
31
0
39
0
210
0
220
0
230
1
0
LINE
5
27B
100
AcDbEntity
8
SK2
62
256
6
ByLayer
370
-1
48
1
60
0
100
AcDbLine
10
-74.725
20
-16
30
0
11
-74.725
21
16
31
0
39
0
210
0
220
0
230
1
0
SOLID
5
27C
100
AcDbEntity
8
SK2
62
256
6
ByLayer
370
-1
48
1
60
0
100
AcDbTrace
10
-74.725
20
-16
30
0
11
-75.650575
21
-11.825003
31
0
12
-73.799425
22
-11.824997
32
0
13
-74.725
23
-16
33
0
39
0
210
0
220
0
230
1
0
SOLID
5
27D
100
AcDbEntity
8
SK2
62
256
6
ByLayer
370
-1
48
1
60
0
100
AcDbTrace
10
-74.725
20
16
30
0
11
-73.799425
21
11.825003
31
0
12
-75.650575
22
11.824997
32
0
13
-74.725
23
16
33
0
39
0
210
0
220
0
230
1
0
ENDBLK
5
27F
100
AcDbEntity
8
0
100
AcDbBlockEnd
0
BLOCK
5
289
100
AcDbEntity
8
0
100
AcDbBlockBegin
2
DimnDraft3D7
70
0
10
0
20
0
30
0
3
DimnDraft3D7
0
MTEXT
5
282
100
AcDbEntity
8
2
62
256
6
ByLayer
370
-1
48
1
60
0
100
AcDbMText
10
119.725
20
5.009211
30
0
210
0
220
0
230
1
1
\W01.000;\fsimplex.shx,bigfont.shx;24 
40
4.5
41
0
44
1.084337
50
90
71
7
72
5
7
DEFAULT
0
MTEXT
5
283
100
AcDbEntity
8
2
62
256
6
ByLayer
370
-1
48
1
60
0
100
AcDbMText
10
119.725
20
-8.490789
30
0
210
0
220
0
230
1
1
\W01.000;\fsimplex.shx,bigfont.shx;%%c 
40
4.5
41
0
44
1.084337
50
90
71
7
72
5
7
DEFAULT
0
LINE
5
284
100
AcDbEntity
8
2
62
256
6
ByLayer
370
-1
48
1
60
0
100
AcDbLine
10
96.5875
20
12
30
0
11
125.15
21
12
31
0
39
0
210
0
220
0
230
1
0
LINE
5
285
100
AcDbEntity
8
2
62
256
6
ByLayer
370
-1
48
1
60
0
100
AcDbLine
10
96.5875
20
-12
30
0
11
125.15
21
-12
31
0
39
0
210
0
220
0
230
1
0
LINE
5
286
100
AcDbEntity
8
2
62
256
6
ByLayer
370
-1
48
1
60
0
100
AcDbLine
10
121.975
20
23.25
30
0
11
121.975
21
-23.25
31
0
39
0
210
0
220
0
230
1
0
SOLID
5
287
100
AcDbEntity
8
2
62
256
6
ByLayer
370
-1
48
1
60
0
100
AcDbTrace
10
121.975
20
12
30
0
11
121.049425
21
16.174997
31
0
12
122.900575
22
16.175003
32
0
13
121.975
23
12
33
0
39
0
210
0
220
0
230
1
0
SOLID
5
288
100
AcDbEntity
8
2
62
256
6
ByLayer
370
-1
48
1
60
0
100
AcDbTrace
10
121.975
20
-12
30
0
11
122.900575
21
-16.174997
31
0
12
121.049425
22
-16.175003
32
0
13
121.975
23
-12
33
0
39
0
210
0
220
0
230
1
0
ENDBLK
5
28A
100
AcDbEntity
8
0
100
AcDbBlockEnd
0
ENDSEC
0
SECTION
2
ENTITIES
0
ARC
5
FE
100
AcDbEntity
8
SK1
62
256
6
ByLayer
370
-1
48
1
60
0
100
AcDbCircle
39
0
10
1.382165
20
12.65
30
0
40
0.4
210
0
220
0
230
-1
100
AcDbArc
50
270
51
295
0
ARC
5
FF
100
AcDbEntity
8
SK1
62
256
6
ByLayer
370
-1
48
1
60
0
100
AcDbCircle
39
0
10
1.382165
20
-12.65
30
0
40
0.4
210
0
220
0
230
-1
100
AcDbArc
50
65
51
90
0
ARC
5
100
100
AcDbEntity
8
SK1
62
256
6
ByLayer
370
-1
48
1
60
0
100
AcDbCircle
39
0
10
0.15
20
12.65
30
0
40
0.4
210
0
220
0
230
-1
100
AcDbArc
50
247.975687
51
270
0
ARC
5
101
100
AcDbEntity
8
SK1
62
256
6
ByLayer
370
-1
48
1
60
0
100
AcDbCircle
39
0
10
0.15
20
-12.65
30
0
40
0.4
210
0
220
0
230
-1
100
AcDbArc
50
90
51
112.024313
0
ARC
5
102
100
AcDbEntity
8
SK1
62
256
6
ByLayer
370
-1
48
1
60
0
100
AcDbCircle
39
0
10
53.894506
20
12.89675
30
0
40
0.8
210
0
220
0
230
-1
100
AcDbArc
50
250.982048
51
321
0
ARC
5
103
100
AcDbEntity
8
SK1
62
256
6
ByLayer
370
-1
48
1
60
0
100
AcDbCircle
39
0
10
53.894506
20
-12.89675
30
0
40
0.8
210
0
220
0
230
-1
100
AcDbArc
50
39
51
109.017952
0
ELLIPSE
5
104
100
AcDbEntity
8
1
62
256
6
ByLayer
370
-1
48
1
60
0
100
AcDbEllipse
10
93.844453
20
0.923275
30
0
11
-0.0534415406922386
21
0.602164302325398
31
0
210
0
220
0
230
-1
40
0.116666
41
-1.49528277602258
42
0.0755135507683683
0
ELLIPSE
5
105
100
AcDbEntity
8
1
62
256
6
ByLayer
370
-1
48
1
60
0
100
AcDbEllipse
10
83.850287
20
8.789234
30
0
11
6.09155738004463E-15
21
5.2
31
0
210
0
220
0
230
1
40
0.996195
41
2.7401669256311
42
-3.10668606854991
0
ELLIPSE
5
106
100
AcDbEntity
8
1
62
256
6
ByLayer
370
-1
48
1
60
0
100
AcDbEllipse
10
93.791377
20
-7.051636
30
0
11
-0.0909409537196103
21
1.52639393173612
31
0
210
0
220
0
230
-1
40
0.116222
41
-0.300255869647637
42
0.420731678879596
0
ELLIPSE
5
107
100
AcDbEntity
8
1
62
256
6
ByLayer
370
-1
48
1
60
0
100
AcDbEllipse
10
86.995463
20
6.563878
30
0
11
-1.76858446507625E-15
21
-1.65
31
0
210
0
220
0
230
1
40
0.996195
41
-2.30619067076369
42
-1.53879862384166
0
ELLIPSE
5
108
100
AcDbEntity
8
1
62
256
6
ByLayer
370
-1
48
1
60
0
100
AcDbEllipse
10
86.026483
20
4.131515
30
0
11
-0.599695201525335
21
-0.0191223760942029
31
0
210
0
220
0
230
1
40
0.002788
41
0.0872220186670827
42
1.35797147229628
0
ELLIPSE
5
109
100
AcDbEntity
8
1
62
256
6
ByLayer
370
-1
48
1
60
0
100
AcDbEllipse
10
69.831748
20
8.059907
30
0
11
-11.9678667186732
21
6.43936528257327
31
0
210
0
220
0
230
-1
40
0.111439
41
-2.79427001245402
42
-1.45398530442154
0
ELLIPSE
5
10A
100
AcDbEntity
8
1
62
256
6
ByLayer
370
-1
48
1
60
0
100
AcDbEllipse
10
85.949994
20
6.530286
30
0
11
-0.599695201525335
21
-0.0191223760942029
31
0
210
0
220
0
230
1
40
0.002788
41
0.0872220186670827
42
1.34609330751792
0
ELLIPSE
5
10B
100
AcDbEntity
8
1
62
256
6
ByLayer
370
-1
48
1
60
0
100
AcDbEllipse
10
90.684315
20
7.234192
30
0
11
1.75718001347441E-15
21
1.5
31
0
210
0
220
0
230
1
40
0.996195
41
0.0817794639907316
42
1.57079621539443
0
ELLIPSE
5
10C
100
AcDbEntity
8
1
62
256
6
ByLayer
370
-1
48
1
60
0
100
AcDbEllipse
10
90.684315
20
7.234192
30
0
11
1.75718001347441E-15
21
1.5
31
0
210
0
220
0
230
1
40
0.996195
41
1.57079621539443
42
2.56854670135029
0
ELLIPSE
5
10D
100
AcDbEntity
8
1
62
256
6
ByLayer
370
-1
48
1
60
0
100
AcDbEllipse
10
81.414975
20
0.857167
30
0
11
-6.12701373021116
21
0.412159053549689
31
0
210
0
220
0
230
-1
40
0.100842
41
1.55508148656232
42
1.82173771439958
0
ELLIPSE
5
10E
100
AcDbEntity
8
1
62
256
6
ByLayer
370
-1
48
1
60
0
100
AcDbEllipse
10
148.927921
20
0.466232
30
0
11
-71.0345530350955
21
1.59757015190883
31
0
210
0
220
0
230
-1
40
0.02026
41
0.414273819942723
42
0.42754462393294
0
ELLIPSE
5
10F
100
AcDbEntity
8
1
62
256
6
ByLayer
370
-1
48
1
60
0
100
AcDbEllipse
10
81.756492
20
4.002609
30
0
11
-0.31359574849725
21
-0.735973984950861
31
0
210
0
220
0
230
1
40
0.080227
41
0.0341712377316007
42
1.60496756452651
0
ELLIPSE
5
110
100
AcDbEntity
8
1
62
256
6
ByLayer
370
-1
48
1
60
0
100
AcDbEllipse
10
84.503702
20
3E-06
30
0
11
-132.017089623618
21
-1.49588523388559E-13
31
0
210
0
220
0
230
-1
40
0.087489
41
1.55820621980445
42
1.57789748929355
0
ELLIPSE
5
111
100
AcDbEntity
8
1
62
256
6
ByLayer
370
-1
48
1
60
0
100
AcDbEllipse
10
83.524011
20
0
30
0
11
-49.3964436357308
21
0.745715530602719
31
0
210
0
220
0
230
-1
40
0.233335
41
-1.59805824395515
42
-1.50815813942052
0
ELLIPSE
5
112
100
AcDbEntity
8
1
62
256
6
ByLayer
370
-1
48
1
60
0
100
AcDbEllipse
10
93.845285
20
3.509977
30
0
11
-0.0528691087702802
21
0.603777645235558
31
0
210
0
220
0
230
-1
40
0.115658
41
2.20737347639282
42
-3.12979553962327
0
ELLIPSE
5
113
100
AcDbEntity
8
1
62
256
6
ByLayer
370
-1
48
1
60
0
100
AcDbEllipse
10
83.34934
20
0
30
0
11
-40.326627593672
21
-4.5694089243871E-14
31
0
210
0
220
0
230
-1
40
0.286411
41
1.39041048316651
42
1.55820622118508
0
ELLIPSE
5
114
100
AcDbEntity
8
1
62
256
6
ByLayer
370
-1
48
1
60
0
100
AcDbEllipse
10
30.127227
20
0
30
0
11
-205.412553848104
21
-11.1695501744653
31
0
210
0
220
0
230
-1
40
0.014313
41
-1.87994647671686
42
-1.83133855383562
0
ELLIPSE
5
115
100
AcDbEntity
8
1
62
256
6
ByLayer
370
-1
48
1
60
0
100
AcDbEllipse
10
81.977331
20
2.794811
30
0
11
-6.30750098462831
21
-0.198419361972226
31
0
210
0
220
0
230
-1
40
0.010631
41
-1.89668367328663
42
-1.88751203669733
0
ELLIPSE
5
116
100
AcDbEntity
8
1
62
256
6
ByLayer
370
-1
48
1
60
0
100
AcDbEllipse
10
87.127419
20
4.165107
30
0
11
-1.43971234163556
21
-1.28202564687841
31
0
210
0
220
0
230
-1
40
0.721468
41
-1.21041155897024
42
-0.0275737404712003
0
ELLIPSE
5
117
100
AcDbEntity
8
1
62
256
6
ByLayer
370
-1
48
1
60
0
100
AcDbEllipse
10
83.751483
20
6.730424
30
0
11
-0.516620320053059
21
-5.37523054807031
31
0
210
0
220
0
230
1
40
0.274173
41
0.0263449943257875
42
0.696639152705449
0
ELLIPSE
5
118
100
AcDbEntity
8
1
62
256
6
ByLayer
370
-1
48
1
60
0
100
AcDbEllipse
10
94.190525
20
0
30
0
11
-0.700834251595216
21
11.5496984289134
31
0
210
0
220
0
230
-1
40
0.119092
41
-2.05388189266563
42
-1.51179820824599
0
ELLIPSE
5
119
100
AcDbEntity
8
1
62
256
6
ByLayer
370
-1
48
1
60
0
100
AcDbEllipse
10
83.961349
20
3.592402
30
0
11
0.0280261150489094
21
-0.799508934831416
31
0
210
0
220
0
230
1
40
0.087103
41
0.0630727813209352
42
1.56774302595898
0
ELLIPSE
5
11A
100
AcDbEntity
8
1
62
256
6
ByLayer
370
-1
48
1
60
0
100
AcDbEllipse
10
89.705349
20
0
30
0
11
-27.5803681281381
21
11.1861290451488
31
0
210
0
220
0
230
-1
40
0.104287
41
-1.27459900627508
42
-0.38655729957519
0
ELLIPSE
5
11B
100
AcDbEntity
8
1
62
256
6
ByLayer
370
-1
48
1
60
0
100
AcDbEllipse
10
90.285542
20
-2.083475
30
0
11
-1.5
21
1.51595858262354E-15
31
0
210
0
220
0
230
1
40
0.998135
41
-3.14159250110337
42
-2.9661265583651E-16
0
ELLIPSE
5
11C
100
AcDbEntity
8
1
62
256
6
ByLayer
370
-1
48
1
60
0
100
AcDbEllipse
10
90.285542
20
-2.083475
30
0
11
-1.5
21
1.51595858262354E-15
31
0
210
0
220
0
230
1
40
0.998135
41
0
42
0.831933286063341
0
ELLIPSE
5
11D
100
AcDbEntity
8
1
62
256
6
ByLayer
370
-1
48
1
60
0
100
AcDbEllipse
10
90.285542
20
-2.083475
30
0
11
-1.5
21
1.51595858262354E-15
31
0
210
0
220
0
230
1
40
0.998135
41
2.51219414526335
42
-3.14159250110337
0
ELLIPSE
5
11E
100
AcDbEntity
8
1
62
256
6
ByLayer
370
-1
48
1
60
0
100
AcDbEllipse
10
85.785691
20
-3E-06
30
0
11
-0.339953239991191
21
11.5499648429881
31
0
210
0
220
0
230
-1
40
0.087414
41
-0.00452830116436487
42
0.0224398876268867
0
ELLIPSE
5
11F
100
AcDbEntity
8
1
62
256
6
ByLayer
370
-1
48
1
60
0
100
AcDbEllipse
10
86.827916
20
4.165107
30
0
11
1.93289801482185E-15
21
1.65
31
0
210
0
220
0
230
1
40
0.996195
41
1.60279402974813
42
1.89731825499789
0
ELLIPSE
5
120
100
AcDbEntity
8
1
62
256
6
ByLayer
370
-1
48
1
60
0
100
AcDbEllipse
10
94.190629
20
-5.96356
30
0
11
-0.0581290992933993
21
-0.658564973950515
31
0
210
0
220
0
230
-1
40
0.115224
41
0.00370845515663162
42
1.57450478194698
0
ELLIPSE
5
121
100
AcDbEntity
8
1
62
256
6
ByLayer
370
-1
48
1
60
0
100
AcDbEllipse
10
11
20
3.789203
30
0
11
-5.5
21
5.558514802953E-15
31
0
210
0
220
0
230
1
40
0.618508
41
-1.79726494965567
42
-0.529845571173244
0
ELLIPSE
5
122
100
AcDbEntity
8
1
62
256
6
ByLayer
370
-1
48
1
60
0
100
AcDbEllipse
10
90.285542
20
-2.339879
30
0
11
-1.5
21
1.51595858262354E-15
31
0
210
0
220
0
230
1
40
0.998135
41
-3.05588636642759
42
-0.0858049843653129
0
ELLIPSE
5
123
100
AcDbEntity
8
1
62
256
6
ByLayer
370
-1
48
1
60
0
100
AcDbEllipse
10
86.751427
20
6.563878
30
0
11
1.93289801482185E-15
21
1.65
31
0
210
0
220
0
230
1
40
0.996195
41
0.817034606722765
42
1.60279402974813
0
ELLIPSE
5
124
100
AcDbEntity
8
1
62
256
6
ByLayer
370
-1
48
1
60
0
100
AcDbEllipse
10
69.811955
20
8.07017
30
0
11
-0.516620320053059
21
-5.37523054807031
31
0
210
0
220
0
230
1
40
0.274173
41
1.15286126514434
42
1.57174274884848
0
ELLIPSE
5
125
100
AcDbEntity
8
1
62
256
6
ByLayer
370
-1
48
1
60
0
100
AcDbEllipse
10
93.59538
20
-7.024566
30
0
11
-0.121175526922264
21
-1.49746502372294
31
0
210
0
220
0
230
-1
40
0.125605
41
-2.73691947235539
42
2.82527828629701
0
ELLIPSE
5
126
100
AcDbEntity
8
1
62
256
6
ByLayer
370
-1
48
1
60
0
100
AcDbEllipse
10
83.760328
20
6.83
30
0
11
-5.89528155025415E-15
21
-5.5
31
0
210
0
220
0
230
1
40
0.961347
41
-0.0921346806998126
42
-0.0261012096037627
0
ELLIPSE
5
127
100
AcDbEntity
8
1
62
256
6
ByLayer
370
-1
48
1
60
0
100
AcDbEllipse
10
70.021424
20
8.050037
30
0
11
-16.0765448015348
21
6.96695914346436
31
0
210
0
220
0
230
-1
40
0.010882
41
2.26859933411684
42
2.35246847742854
0
ELLIPSE
5
128
100
AcDbEntity
8
1
62
256
6
ByLayer
370
-1
48
1
60
0
100
AcDbEllipse
10
86.160287
20
8.31032
30
0
11
-0.581773174073429
21
-0.616643799600303
31
0
210
0
220
0
230
-1
40
0.044907
41
-0.789013564085516
42
-0.141858732217088
0
ELLIPSE
5
129
100
AcDbEntity
8
1
62
256
6
ByLayer
370
-1
48
1
60
0
100
AcDbEllipse
10
90.440279
20
7.234192
30
0
11
1.75718001347441E-15
21
1.5
31
0
210
0
220
0
230
1
40
0.996195
41
-1.91156087121061
42
0
0
ELLIPSE
5
12A
100
AcDbEntity
8
1
62
256
6
ByLayer
370
-1
48
1
60
0
100
AcDbEllipse
10
90.440279
20
7.234192
30
0
11
1.75718001347441E-15
21
1.5
31
0
210
0
220
0
230
1
40
0.996195
41
0
42
1.57079658615061
0
ELLIPSE
5
12B
100
AcDbEntity
8
1
62
256
6
ByLayer
370
-1
48
1
60
0
100
AcDbEllipse
10
90.440279
20
7.234192
30
0
11
1.75718001347441E-15
21
1.5
31
0
210
0
220
0
230
1
40
0.996195
41
1.57079621539443
42
1.85569969050121
0
ELLIPSE
5
12C
100
AcDbEntity
8
1
62
256
6
ByLayer
370
-1
48
1
60
0
100
AcDbEllipse
10
90.285542
20
-2.083475
30
0
11
1.6
21
0
31
0
210
0
220
0
230
1
40
0.998135
41
0.0620463013971249
42
3.14159238863093
0
ELLIPSE
5
12D
100
AcDbEntity
8
1
62
256
6
ByLayer
370
-1
48
1
60
0
100
AcDbEllipse
10
83.780562
20
8.789234
30
0
11
-6.43121623664089E-15
21
-6
31
0
210
0
220
0
230
1
40
0.996195
41
-0.401425727958695
42
-6.79213922673455E-06
0
ELLIPSE
5
12E
100
AcDbEntity
8
1
62
256
6
ByLayer
370
-1
48
1
60
0
100
AcDbEllipse
10
54.603919
20
9.531834
30
0
11
-28.2331464491107
21
2.66821600732239
31
0
210
0
220
0
230
-1
40
0.19041
41
3.1235996412468
42
-2.6996011294482
0
ELLIPSE
5
12F
100
AcDbEntity
8
1
62
256
6
ByLayer
370
-1
48
1
60
0
100
AcDbEllipse
10
90.440279
20
7.234192
30
0
11
2.05004334905348E-15
21
1.75
31
0
210
0
220
0
230
1
40
0.996195
41
0.0349503812769673
42
0.696942829586612
0
ELLIPSE
5
130
100
AcDbEntity
8
1
62
256
6
ByLayer
370
-1
48
1
60
0
100
AcDbEllipse
10
90.440279
20
7.234192
30
0
11
2.05004334905348E-15
21
1.75
31
0
210
0
220
0
230
1
40
0.996195
41
1.57079612015634
42
-1.57079639567441
0
ELLIPSE
5
131
100
AcDbEntity
8
1
62
256
6
ByLayer
370
-1
48
1
60
0
100
AcDbEllipse
10
89.103509
20
3.172398
30
0
11
-4.40084028567925
21
0.244385494073313
31
0
210
0
220
0
230
-1
40
0.000527
41
-3.13351935257991
42
-3.13209597987371
0
ELLIPSE
5
132
100
AcDbEntity
8
1
62
256
6
ByLayer
370
-1
48
1
60
0
100
AcDbEllipse
10
87.071952
20
4.165107
30
0
11
-1.76858446507625E-15
21
-1.65
31
0
210
0
220
0
230
1
40
0.996195
41
-1.53879862384166
42
-0.14591971909318
0
ELLIPSE
5
133
100
AcDbEntity
8
1
62
256
6
ByLayer
370
-1
48
1
60
0
100
AcDbEllipse
10
95.03441
20
0
30
0
11
-0.949796302659881
21
-11.5493762060098
31
0
210
0
220
0
230
-1
40
0.126383
41
0.0221180718684009
42
1.07009126123007
0
ELLIPSE
5
134
100
AcDbEntity
8
1
62
256
6
ByLayer
370
-1
48
1
60
0
100
AcDbEllipse
10
90.309546
20
7.234192
30
0
11
2.05004334905348E-15
21
1.75
31
0
210
0
220
0
230
1
40
0.996195
41
-1.42274887684816
42
0
0
ELLIPSE
5
135
100
AcDbEntity
8
1
62
256
6
ByLayer
370
-1
48
1
60
0
100
AcDbEllipse
10
90.309546
20
7.234192
30
0
11
2.05004334905348E-15
21
1.75
31
0
210
0
220
0
230
1
40
0.996195
41
0
42
0.324565673105946
0
ELLIPSE
5
136
100
AcDbEntity
8
1
62
256
6
ByLayer
370
-1
48
1
60
0
100
AcDbEllipse
10
90.309546
20
7.234192
30
0
11
2.05004334905348E-15
21
1.75
31
0
210
0
220
0
230
1
40
0.996195
41
1.57079612015634
42
-1.57079639567441
0
ELLIPSE
5
137
100
AcDbEntity
8
1
62
256
6
ByLayer
370
-1
48
1
60
0
100
AcDbEllipse
10
89.091765
20
6.83
30
0
11
-7.57459907064212
21
-4.7264589206147
31
0
210
0
220
0
230
-1
40
0.371317
41
-0.837854723331004
42
-0.553944226828853
0
ELLIPSE
5
138
100
AcDbEntity
8
1
62
256
6
ByLayer
370
-1
48
1
60
0
100
AcDbEllipse
10
94.484777
20
3.604073
30
0
11
2.69746310087587E-16
21
0.230266371133678
31
0
210
0
220
0
230
1
40
0.996195
41
-1.79768912955412
42
-1.5707963267949
0
ELLIPSE
5
139
100
AcDbEntity
8
1
62
256
6
ByLayer
370
-1
48
1
60
0
100
AcDbEllipse
10
93.674833
20
13.134174
30
0
11
1.16328437305554E-14
21
9.93026637113359
31
0
210
0
220
0
230
1
40
0.996195
41
-3.0877854465449
42
-3.07177948351001
0
ELLIPSE
5
13A
100
AcDbEntity
8
1
62
256
6
ByLayer
370
-1
48
1
60
0
100
AcDbEllipse
10
95.871879
20
3.99141
30
0
11
-1.07186937277347E-14
21
-9.99999999999992
31
0
210
0
220
0
230
1
40
0.996195
41
-1.51698911975
42
-1.50098315671512
0
ELLIPSE
5
13B
100
AcDbEntity
8
1
62
256
6
ByLayer
370
-1
48
1
60
0
100
AcDbEllipse
10
89.802024
20
3.6841
30
0
11
5.77557701897398E-15
21
4.93026637113359
31
0
210
0
220
0
230
1
40
0.996195
41
-1.55479036376001
42
-1.54499037067319
0
ELLIPSE
5
13C
100
AcDbEntity
8
1
62
256
6
ByLayer
370
-1
48
1
60
0
100
AcDbEllipse
10
85.953962
20
11.316606
30
0
11
-3.21560811832042E-16
21
-0.299999999999998
31
0
210
0
220
0
230
1
40
0.996195
41
-1.79768912955417
42
-1.5707963267949
0
ELLIPSE
5
13D
100
AcDbEntity
8
1
62
256
6
ByLayer
370
-1
48
1
60
0
100
AcDbEllipse
10
93.981506
20
7.041666
30
0
11
-5.35934686386741E-15
21
-5
31
0
210
0
220
0
230
1
40
0.996195
41
-3.12558669055491
42
-3.11578669746809
0
ELLIPSE
5
13E
100
AcDbEntity
8
1
62
256
6
ByLayer
370
-1
48
1
60
0
100
AcDbEllipse
10
94.060696
20
11.742307
30
0
11
2.69746310087587E-16
21
0.230266371133678
31
0
210
0
220
0
230
1
40
0.996195
41
-0.226892802759241
42
0
0
ELLIPSE
5
13F
100
AcDbEntity
8
1
62
256
6
ByLayer
370
-1
48
1
60
0
100
AcDbEllipse
10
94.061227
20
11.742307
30
0
11
-3.21560811832042E-16
21
-0.299999999999998
31
0
210
0
220
0
230
1
40
0.996195
41
2.91469985083052
42
-3.14159265358975
0
ELLIPSE
5
140
100
AcDbEntity
8
1
62
256
6
ByLayer
370
-1
48
1
60
0
100
AcDbEllipse
10
94.349428
20
3.457803
30
0
11
-3.21560811832042E-16
21
-0.299999999999998
31
0
210
0
220
0
230
1
40
0.996195
41
0.0698131700797583
42
0.296705972839003
0
ELLIPSE
5
141
100
AcDbEntity
8
1
62
256
6
ByLayer
370
-1
48
1
60
0
100
AcDbEllipse
10
86.422862
20
3.373246
30
0
11
-5.35934686386744E-16
21
-0.500000000000003
31
0
210
0
220
0
230
1
40
0.996195
41
-1.27409035395586
42
-0.22689280275929
0
ELLIPSE
5
142
100
AcDbEntity
8
1
62
256
6
ByLayer
370
-1
48
1
60
0
100
AcDbEllipse
10
86.148095
20
11.271616
30
0
11
-5.35934686386744E-16
21
-0.500000000000003
31
0
210
0
220
0
230
1
40
0.996195
41
-2.84488668075072
42
-1.79768912955414
0
ELLIPSE
5
143
100
AcDbEntity
8
1
62
256
6
ByLayer
370
-1
48
1
60
0
100
AcDbEllipse
10
84.82324
20
3.555084
30
0
11
-1.07186937277348E-14
21
-10
31
0
210
0
220
0
230
1
40
0.996195
41
1.5966022829166
42
1.60570291183478
0
ELLIPSE
5
144
100
AcDbEntity
8
1
62
256
6
ByLayer
370
-1
48
1
60
0
100
AcDbEllipse
10
84.56686
20
10.929269
30
0
11
1.16328437305554E-14
21
9.93026637113359
31
0
210
0
220
0
230
1
40
0.996195
41
-1.51698911975
42
-1.50098315671512
0
ELLIPSE
5
145
100
AcDbEntity
8
1
62
256
6
ByLayer
370
-1
48
1
60
0
100
AcDbEllipse
10
90.256001
20
7.46034
30
0
11
-2.46191653535247E-15
21
-2.29684381127732
31
0
210
0
220
0
230
1
40
0.996195
41
0
42
6.28318530717959
0
ELLIPSE
5
146
100
AcDbEntity
8
1
62
256
6
ByLayer
370
-1
48
1
60
0
100
AcDbEllipse
10
94.291176
20
3.649064
30
0
11
-5.35934686386744E-16
21
-0.500000000000003
31
0
210
0
220
0
230
1
40
0.996195
41
0.296705972839046
42
1.34390352403562
0
ELLIPSE
5
147
100
AcDbEntity
8
1
62
256
6
ByLayer
370
-1
48
1
60
0
100
AcDbEllipse
10
95.874265
20
3.942469
30
0
11
-1.07186937277348E-14
21
-9.99999999999999
31
0
210
0
220
0
230
1
40
0.996195
41
-1.53588974175501
42
-1.52678911283683
0
ELLIPSE
5
148
100
AcDbEntity
8
1
62
256
6
ByLayer
370
-1
48
1
60
0
100
AcDbEllipse
10
86.457234
20
7.879013
30
0
11
5.77557701897398E-15
21
4.93026637113359
31
0
210
0
220
0
230
1
40
0.996195
41
-3.12558669055491
42
-3.11578669746809
0
ELLIPSE
5
149
100
AcDbEntity
8
1
62
256
6
ByLayer
370
-1
48
1
60
0
100
AcDbEllipse
10
86.715151
20
1.78411
30
0
11
-1.07186937277348E-14
21
-9.99999999999999
31
0
210
0
220
0
230
1
40
0.996195
41
-3.10668606854991
42
-3.09758543963172
0
ELLIPSE
5
14A
100
AcDbEntity
8
1
62
256
6
ByLayer
370
-1
48
1
60
0
100
AcDbEllipse
10
85.953431
20
11.316606
30
0
11
2.69746310087587E-16
21
0.230266371133678
31
0
210
0
220
0
230
1
40
0.996195
41
1.34390352403561
42
1.5707963267949
0
ELLIPSE
5
14B
100
AcDbEntity
8
1
62
256
6
ByLayer
370
-1
48
1
60
0
100
AcDbEllipse
10
84.565005
20
10.978211
30
0
11
-1.07186937277348E-14
21
-9.99999999999999
31
0
210
0
220
0
230
1
40
0.996195
41
1.60570291183478
42
1.61480354075297
0
ELLIPSE
5
14C
100
AcDbEntity
8
1
62
256
6
ByLayer
370
-1
48
1
60
0
100
AcDbEllipse
10
84.567392
20
10.929269
30
0
11
-1.07186937277347E-14
21
-9.99999999999992
31
0
210
0
220
0
230
1
40
0.996195
41
1.62460353383979
42
1.64060949687468
0
ELLIPSE
5
14D
100
AcDbEntity
8
1
62
256
6
ByLayer
370
-1
48
1
60
0
100
AcDbEllipse
10
95.616031
20
11.365595
30
0
11
-1.07186937277348E-14
21
-10
31
0
210
0
220
0
230
1
40
0.996195
41
-1.54499037067319
42
-1.53588974175501
0
ELLIPSE
5
14E
100
AcDbEntity
8
1
62
256
6
ByLayer
370
-1
48
1
60
0
100
AcDbEllipse
10
90.898114
20
3.722504
30
0
11
-5.35934686386741E-15
21
-5
31
0
210
0
220
0
230
1
40
0.996195
41
-1.52678911283683
42
-1.51698911975001
0
ELLIPSE
5
14F
100
AcDbEntity
8
1
62
256
6
ByLayer
370
-1
48
1
60
0
100
AcDbEllipse
10
89.541157
20
11.198176
30
0
11
-5.35934686386741E-15
21
-5
31
0
210
0
220
0
230
1
40
0.996195
41
1.61480354075297
42
1.62460353383979
0
ELLIPSE
5
150
100
AcDbEntity
8
1
62
256
6
ByLayer
370
-1
48
1
60
0
100
AcDbEllipse
10
86.232329
20
3.314772
30
0
11
-3.21560811832042E-16
21
-0.299999999999998
31
0
210
0
220
0
230
1
40
0.996195
41
-1.50098315671512
42
-1.27409035395589
0
ELLIPSE
5
151
100
AcDbEntity
8
1
62
256
6
ByLayer
370
-1
48
1
60
0
100
AcDbEllipse
10
86.763906
20
1.786505
30
0
11
-1.07186937277347E-14
21
-9.99999999999992
31
0
210
0
220
0
230
1
40
0.996195
41
-3.0877854465449
42
-3.07177948351001
0
ELLIPSE
5
152
100
AcDbEntity
8
1
62
256
6
ByLayer
370
-1
48
1
60
0
100
AcDbEllipse
10
94.061227
20
2.042307
30
0
11
-1.07186937277347E-14
21
-9.99999999999992
31
0
210
0
220
0
230
1
40
0.996195
41
3.14159265358979
42
-3.12558669055491
0
ELLIPSE
5
153
100
AcDbEntity
8
1
62
256
6
ByLayer
370
-1
48
1
60
0
100
AcDbEllipse
10
90.231117
20
7.46034
30
0
11
-2.58509861521156E-15
21
-2.41176647162011
31
0
210
0
220
0
230
1
40
0.996195
41
2.21551017276079
42
-3.69675446301887E-16
0
ELLIPSE
5
154
100
AcDbEntity
8
1
62
256
6
ByLayer
370
-1
48
1
60
0
100
AcDbEllipse
10
90.231117
20
7.46034
30
0
11
-2.58509861521156E-15
21
-2.41176647162011
31
0
210
0
220
0
230
1
40
0.996195
41
0
42
0.926082778547564
0
ELLIPSE
5
155
100
AcDbEntity
8
1
62
256
6
ByLayer
370
-1
48
1
60
0
100
AcDbEllipse
10
93.72412
20
13.136569
30
0
11
-1.07186937277348E-14
21
-9.99999999999999
31
0
210
0
220
0
230
1
40
0.996195
41
0.0349065850398881
42
0.0440072139580711
0
ELLIPSE
5
156
100
AcDbEntity
8
1
62
256
6
ByLayer
370
-1
48
1
60
0
100
AcDbEllipse
10
86.378043
20
3.178372
30
0
11
-3.21560811832042E-16
21
-0.299999999999998
31
0
210
0
220
0
230
1
40
0.996195
41
-0.226892802759265
42
4.75504451611787E-14
0
ELLIPSE
5
157
100
AcDbEntity
8
1
62
256
6
ByLayer
370
-1
48
1
60
0
100
AcDbEllipse
10
84.82222
20
3.604073
30
0
11
-1.07186937277347E-14
21
-9.99999999999992
31
0
210
0
220
0
230
1
40
0.996195
41
1.57079632679489
42
1.58680228982978
0
ELLIPSE
5
158
100
AcDbEntity
8
1
62
256
6
ByLayer
370
-1
48
1
60
0
100
AcDbEllipse
10
86.329241
20
12.877348
30
0
11
-1.07186937277348E-14
21
-10
31
0
210
0
220
0
230
1
40
0.996195
41
0.025805956121705
42
0.0349065850398883
0
ELLIPSE
5
159
100
AcDbEntity
8
1
62
256
6
ByLayer
370
-1
48
1
60
0
100
AcDbEllipse
10
86.495491
20
6.779269
30
0
11
5.77557701897398E-15
21
4.93026637113359
31
0
210
0
220
0
230
1
40
0.996195
41
0.0440072139580683
42
0.0538072070448941
0
ELLIPSE
5
15A
100
AcDbEntity
8
1
62
256
6
ByLayer
370
-1
48
1
60
0
100
AcDbEllipse
10
93.942716
20
8.14141
30
0
11
5.77557701897398E-15
21
4.93026637113359
31
0
210
0
220
0
230
1
40
0.996195
41
-3.09758543963173
42
-3.0877854465449
0
ELLIPSE
5
15B
100
AcDbEntity
8
1
62
256
6
ByLayer
370
-1
48
1
60
0
100
AcDbEllipse
10
93.980974
20
7.041666
30
0
11
5.77557701897398E-15
21
4.93026637113359
31
0
210
0
220
0
230
1
40
0.996195
41
0.0160059630348831
42
0.0258059561217069
0
ELLIPSE
5
15C
100
AcDbEntity
8
1
62
256
6
ByLayer
370
-1
48
1
60
0
100
AcDbEllipse
10
90.463672
20
7.46034
30
0
11
1.87432534770601E-15
21
1.59999999999997
31
0
210
0
220
0
230
1
40
0.996195
41
0
42
1.57079662781731
0
ELLIPSE
5
15D
100
AcDbEntity
8
1
62
256
6
ByLayer
370
-1
48
1
60
0
100
AcDbEllipse
10
90.463672
20
7.46034
30
0
11
1.87432534770601E-15
21
1.59999999999997
31
0
210
0
220
0
230
1
40
0.996195
41
1.57079604872767
42
-3.14159263054693
0
ELLIPSE
5
15E
100
AcDbEntity
8
1
62
256
6
ByLayer
370
-1
48
1
60
0
100
AcDbEllipse
10
86.714619
20
1.78411
30
0
11
1.16328437305553E-14
21
9.93026637113358
31
0
210
0
220
0
230
1
40
0.996195
41
0.0349065850398897
42
0.0440072139580719
0
ELLIPSE
5
15F
100
AcDbEntity
8
1
62
256
6
ByLayer
370
-1
48
1
60
0
100
AcDbEllipse
10
94.348896
20
3.457803
30
0
11
2.69746310087587E-16
21
0.230266371133678
31
0
210
0
220
0
230
1
40
0.996195
41
-3.07177948351014
42
-2.84488668075091
0
ELLIPSE
5
160
100
AcDbEntity
8
1
62
256
6
ByLayer
370
-1
48
1
60
0
100
AcDbEllipse
10
95.616519
20
11.316606
30
0
11
1.16328437305554E-14
21
9.93026637113359
31
0
210
0
220
0
230
1
40
0.996195
41
1.57079632679489
42
1.58680228982978
0
ELLIPSE
5
161
100
AcDbEntity
8
1
62
256
6
ByLayer
370
-1
48
1
60
0
100
AcDbEllipse
10
89.540625
20
11.198176
30
0
11
5.77557701897398E-15
21
4.93026637113359
31
0
210
0
220
0
230
1
40
0.996195
41
-1.52678911283683
42
-1.51698911975
0
ELLIPSE
5
162
100
AcDbEntity
8
1
62
256
6
ByLayer
370
-1
48
1
60
0
100
AcDbEllipse
10
86.378043
20
12.878372
30
0
11
-1.07186937277347E-14
21
-9.99999999999992
31
0
210
0
220
0
230
1
40
0.996195
41
0
42
0.0160059630348861
0
ELLIPSE
5
163
100
AcDbEntity
8
1
62
256
6
ByLayer
370
-1
48
1
60
0
100
AcDbEllipse
10
94.20641
20
11.605907
30
0
11
2.69746310087587E-16
21
0.230266371133678
31
0
210
0
220
0
230
1
40
0.996195
41
-1.50098315671514
42
-1.27409035395591
0
ELLIPSE
5
164
100
AcDbEntity
8
1
62
256
6
ByLayer
370
-1
48
1
60
0
100
AcDbEllipse
10
94.290644
20
3.649064
30
0
11
5.04036978550844E-16
21
0.43026637113368
31
0
210
0
220
0
230
1
40
0.996195
41
-2.84488668075071
42
-1.79768912955414
0
ELLIPSE
5
165
100
AcDbEntity
8
1
62
256
6
ByLayer
370
-1
48
1
60
0
100
AcDbEllipse
10
84.822709
20
3.555084
30
0
11
1.16328437305554E-14
21
9.93026637113359
31
0
210
0
220
0
230
1
40
0.996195
41
-1.54499037067319
42
-1.53588974175501
0
ELLIPSE
5
166
100
AcDbEntity
8
1
62
256
6
ByLayer
370
-1
48
1
60
0
100
AcDbEllipse
10
86.147563
20
11.271616
30
0
11
5.04036978550844E-16
21
0.43026637113368
31
0
210
0
220
0
230
1
40
0.996195
41
0.296705972839057
42
1.34390352403562
0
ELLIPSE
5
167
100
AcDbEntity
8
1
62
256
6
ByLayer
370
-1
48
1
60
0
100
AcDbEllipse
10
84.564474
20
10.978211
30
0
11
1.16328437305553E-14
21
9.93026637113358
31
0
210
0
220
0
230
1
40
0.996195
41
-1.53588974175501
42
-1.52678911283683
0
ELLIPSE
5
168
100
AcDbEntity
8
1
62
256
6
ByLayer
370
-1
48
1
60
0
100
AcDbEllipse
10
86.089311
20
11.462877
30
0
11
2.69746310087587E-16
21
0.230266371133678
31
0
210
0
220
0
230
1
40
0.996195
41
0.069813170079711
42
0.296705972838969
0
ELLIPSE
5
169
100
AcDbEntity
8
1
62
256
6
ByLayer
370
-1
48
1
60
0
100
AcDbEllipse
10
95.873734
20
3.942469
30
0
11
1.16328437305553E-14
21
9.93026637113358
31
0
210
0
220
0
230
1
40
0.996195
41
1.60570291183479
42
1.61480354075297
0
ELLIPSE
5
16A
100
AcDbEntity
8
1
62
256
6
ByLayer
370
-1
48
1
60
0
100
AcDbEllipse
10
86.457765
20
7.879013
30
0
11
-5.35934686386741E-15
21
-5
31
0
210
0
220
0
230
1
40
0.996195
41
0.0160059630348845
42
0.0258059561217066
0
ELLIPSE
5
16B
100
AcDbEntity
8
1
62
256
6
ByLayer
370
-1
48
1
60
0
100
AcDbEllipse
10
86.089843
20
11.462877
30
0
11
-3.21560811832042E-16
21
-0.299999999999998
31
0
210
0
220
0
230
1
40
0.996195
41
-3.07177948350999
42
-2.84488668075079
0
ELLIPSE
5
16C
100
AcDbEntity
8
1
62
256
6
ByLayer
370
-1
48
1
60
0
100
AcDbEllipse
10
95.871347
20
3.99141
30
0
11
1.16328437305554E-14
21
9.93026637113359
31
0
210
0
220
0
230
1
40
0.996195
41
1.62460353383979
42
1.64060949687468
0
ELLIPSE
5
16D
100
AcDbEntity
8
1
62
256
6
ByLayer
370
-1
48
1
60
0
100
AcDbEllipse
10
86.496023
20
6.779269
30
0
11
-5.35934686386741E-15
21
-5
31
0
210
0
220
0
230
1
40
0.996195
41
-3.09758543963172
42
-3.0877854465449
0
ELLIPSE
5
16E
100
AcDbEntity
8
1
62
256
6
ByLayer
370
-1
48
1
60
0
100
AcDbEllipse
10
90.897583
20
3.722504
30
0
11
5.77557701897398E-15
21
4.93026637113359
31
0
210
0
220
0
230
1
40
0.996195
41
1.61480354075297
42
1.62460353383979
0
ELLIPSE
5
16F
100
AcDbEntity
8
1
62
256
6
ByLayer
370
-1
48
1
60
0
100
AcDbEllipse
10
86.377512
20
12.878372
30
0
11
1.16328437305554E-14
21
9.93026637113359
31
0
210
0
220
0
230
1
40
0.996195
41
3.14159265358979
42
-3.12558669055491
0
ELLIPSE
5
170
100
AcDbEntity
8
1
62
256
6
ByLayer
370
-1
48
1
60
0
100
AcDbEllipse
10
93.723588
20
13.136569
30
0
11
1.16328437305553E-14
21
9.93026637113358
31
0
210
0
220
0
230
1
40
0.996195
41
-3.1066860685499
42
-3.09758543963172
0
ELLIPSE
5
171
100
AcDbEntity
8
1
62
256
6
ByLayer
370
-1
48
1
60
0
100
AcDbEllipse
10
84.821688
20
3.604073
30
0
11
1.16328437305554E-14
21
9.93026637113359
31
0
210
0
220
0
230
1
40
0.996195
41
-1.5707963267949
42
-1.55479036376001
0
ELLIPSE
5
172
100
AcDbEntity
8
1
62
256
6
ByLayer
370
-1
48
1
60
0
100
AcDbEllipse
10
93.675365
20
13.134174
30
0
11
-1.07186937277347E-14
21
-9.99999999999992
31
0
210
0
220
0
230
1
40
0.996195
41
0.0538072070448935
42
0.0698131700797815
0
ELLIPSE
5
173
100
AcDbEntity
8
1
62
256
6
ByLayer
370
-1
48
1
60
0
100
AcDbEllipse
10
86.231798
20
3.314772
30
0
11
2.69746310087587E-16
21
0.230266371133678
31
0
210
0
220
0
230
1
40
0.996195
41
1.64060949687465
42
1.86750229963388
0
ELLIPSE
5
174
100
AcDbEntity
8
1
62
256
6
ByLayer
370
-1
48
1
60
0
100
AcDbEllipse
10
86.422331
20
3.373246
30
0
11
5.04036978550844E-16
21
0.43026637113368
31
0
210
0
220
0
230
1
40
0.996195
41
1.86750229963396
42
2.91469985083054
0
ELLIPSE
5
175
100
AcDbEntity
8
1
62
256
6
ByLayer
370
-1
48
1
60
0
100
AcDbEllipse
10
90.636184
20
11.23658
30
0
11
5.77557701897398E-15
21
4.93026637113359
31
0
210
0
220
0
230
1
40
0.996195
41
1.58680228982978
42
1.5966022829166
0
ELLIPSE
5
176
100
AcDbEntity
8
1
62
256
6
ByLayer
370
-1
48
1
60
0
100
AcDbEllipse
10
86.763374
20
1.786505
30
0
11
1.16328437305554E-14
21
9.93026637113359
31
0
210
0
220
0
230
1
40
0.996195
41
0.0538072070448921
42
0.0698131700797808
0
ELLIPSE
5
177
100
AcDbEntity
8
1
62
256
6
ByLayer
370
-1
48
1
60
0
100
AcDbEllipse
10
86.328709
20
12.877348
30
0
11
1.16328437305554E-14
21
9.93026637113359
31
0
210
0
220
0
230
1
40
0.996195
41
-3.11578669746809
42
-3.1066860685499
0
ELLIPSE
5
178
100
AcDbEntity
8
1
62
256
6
ByLayer
370
-1
48
1
60
0
100
AcDbEllipse
10
90.636715
20
11.23658
30
0
11
-5.35934686386741E-15
21
-5
31
0
210
0
220
0
230
1
40
0.996195
41
-1.55479036376001
42
-1.54499037067319
0
ELLIPSE
5
179
100
AcDbEntity
8
1
62
256
6
ByLayer
370
-1
48
1
60
0
100
AcDbEllipse
10
94.016408
20
11.547433
30
0
11
-5.35934686386744E-16
21
-0.500000000000003
31
0
210
0
220
0
230
1
40
0.996195
41
1.86750229963393
42
2.91469985083051
0
ELLIPSE
5
17A
100
AcDbEntity
8
1
62
256
6
ByLayer
370
-1
48
1
60
0
100
AcDbEllipse
10
93.943248
20
8.14141
30
0
11
-5.35934686386741E-15
21
-5
31
0
210
0
220
0
230
1
40
0.996195
41
0.0440072139580725
42
0.0538072070448927
0
ELLIPSE
5
17B
100
AcDbEntity
8
1
62
256
6
ByLayer
370
-1
48
1
60
0
100
AcDbEllipse
10
90.197846
20
7.46034
30
0
11
2.85654182022187E-15
21
2.43845974656893
31
0
210
0
220
0
230
1
40
0.996195
41
0
42
6.28318530717959
0
ELLIPSE
5
17C
100
AcDbEntity
8
1
62
256
6
ByLayer
370
-1
48
1
60
0
100
AcDbEllipse
10
89.802555
20
3.6841
30
0
11
-5.35934686386741E-15
21
-5
31
0
210
0
220
0
230
1
40
0.996195
41
1.58680228982978
42
1.5966022829166
0
ELLIPSE
5
17D
100
AcDbEntity
8
1
62
256
6
ByLayer
370
-1
48
1
60
0
100
AcDbEllipse
10
94.11003
20
2.043331
30
0
11
-1.07186937277348E-14
21
-10
31
0
210
0
220
0
230
1
40
0.996195
41
-3.11578669746809
42
-3.10668606854991
0
ELLIPSE
5
17E
100
AcDbEntity
8
1
62
256
6
ByLayer
370
-1
48
1
60
0
100
AcDbEllipse
10
94.485308
20
3.604073
30
0
11
-3.21560811832042E-16
21
-0.299999999999998
31
0
210
0
220
0
230
1
40
0.996195
41
1.34390352403562
42
1.5707963267949
0
ELLIPSE
5
17F
100
AcDbEntity
8
1
62
256
6
ByLayer
370
-1
48
1
60
0
100
AcDbEllipse
10
90.423546
20
7.46034
30
0
11
-1.7149909964375E-15
21
-1.59999999999993
31
0
210
0
220
0
230
1
40
0.996195
41
-3.12568836512776
42
0
0
ELLIPSE
5
180
100
AcDbEntity
8
1
62
256
6
ByLayer
370
-1
48
1
60
0
100
AcDbEllipse
10
90.423546
20
7.46034
30
0
11
-1.7149909964375E-15
21
-1.59999999999993
31
0
210
0
220
0
230
1
40
0.996195
41
0
42
0.0349504427429441
0
ELLIPSE
5
181
100
AcDbEntity
8
1
62
256
6
ByLayer
370
-1
48
1
60
0
100
AcDbEllipse
10
95.617051
20
11.316606
30
0
11
-1.07186937277347E-14
21
-9.99999999999992
31
0
210
0
220
0
230
1
40
0.996195
41
-1.5707963267949
42
-1.55479036376001
0
ELLIPSE
5
182
100
AcDbEntity
8
1
62
256
6
ByLayer
370
-1
48
1
60
0
100
AcDbEllipse
10
95.615499
20
11.365595
30
0
11
1.16328437305554E-14
21
9.93026637113359
31
0
210
0
220
0
230
1
40
0.996195
41
1.5966022829166
42
1.60570291183479
0
ELLIPSE
5
183
100
AcDbEntity
8
1
62
256
6
ByLayer
370
-1
48
1
60
0
100
AcDbEllipse
10
94.015877
20
11.547433
30
0
11
5.04036978550844E-16
21
0.43026637113368
31
0
210
0
220
0
230
1
40
0.996195
41
-1.27409035395583
42
-0.226892802759253
0
ELLIPSE
5
184
100
AcDbEntity
8
1
62
256
6
ByLayer
370
-1
48
1
60
0
100
AcDbEllipse
10
94.109498
20
2.043331
30
0
11
1.16328437305554E-14
21
9.93026637113359
31
0
210
0
220
0
230
1
40
0.996195
41
0.0258059561217066
42
0.0349065850398883
0
ELLIPSE
5
185
100
AcDbEntity
8
1
62
256
6
ByLayer
370
-1
48
1
60
0
100
AcDbEllipse
10
86.377512
20
3.178372
30
0
11
2.69746310087587E-16
21
0.230266371133678
31
0
210
0
220
0
230
1
40
0.996195
41
2.91469985083055
42
3.14159265358979
0
ELLIPSE
5
186
100
AcDbEntity
8
1
62
256
6
ByLayer
370
-1
48
1
60
0
100
AcDbEllipse
10
94.206942
20
11.605907
30
0
11
-3.21560811832042E-16
21
-0.299999999999998
31
0
210
0
220
0
230
1
40
0.996195
41
1.64060949687468
42
1.86750229963391
0
ELLIPSE
5
187
100
AcDbEntity
8
1
62
256
6
ByLayer
370
-1
48
1
60
0
100
AcDbEllipse
10
94.060696
20
2.042307
30
0
11
1.16328437305554E-14
21
9.93026637113359
31
0
210
0
220
0
230
1
40
0.996195
41
0
42
0.0160059630348839
0
ELLIPSE
5
188
100
AcDbEntity
8
1
62
256
6
ByLayer
370
-1
48
1
60
0
100
AcDbEllipse
10
93.381185
20
-0.378438
30
0
11
-0.485063016993195
21
4.90223629149403E-16
31
0
210
0
220
0
230
1
40
0.998135
41
-3.08923278015312
42
-2.77261465029999
0
ELLIPSE
5
189
100
AcDbEntity
8
1
62
256
6
ByLayer
370
-1
48
1
60
0
100
AcDbEllipse
10
96.655121
20
-2.127287
30
0
11
2.24556912180584
21
0
31
0
210
0
220
0
230
1
40
0.998135
41
-3.08923277573889
42
-2.67245197324542
0
ELLIPSE
5
18A
100
AcDbEntity
8
1
62
256
6
ByLayer
370
-1
48
1
60
0
100
AcDbEllipse
10
94.052642
20
-0.362945
30
0
11
0.499999999999999
21
0
31
0
210
0
220
0
230
1
40
0.998135
41
0.0523598775598524
42
0.349065850398874
0
ELLIPSE
5
18B
100
AcDbEntity
8
1
62
256
6
ByLayer
370
-1
48
1
60
0
100
AcDbEllipse
10
94.000305
20
-3.6439
30
0
11
0.999999999999942
21
0
31
0
210
0
220
0
230
1
40
0.998135
41
-0.0349065850397866
42
0.484433451429334
0
ELLIPSE
5
18C
100
AcDbEntity
8
1
62
256
6
ByLayer
370
-1
48
1
60
0
100
AcDbEllipse
10
93.865583
20
-0.34089
30
0
11
-0.199724883720219
21
-0.0104866974279341
31
0
210
0
220
0
230
1
40
0.060965
41
1.44670832171472
42
1.56759533351589
0
ELLIPSE
5
18D
100
AcDbEntity
8
1
62
256
6
ByLayer
370
-1
48
1
60
0
100
AcDbEllipse
10
96.655121
20
-2.066239
30
0
11
-2.86877420256273
21
2.89929524932266E-15
31
0
210
0
220
0
230
1
40
0.998135
41
0.375821002308128
42
0.469140680150901
0
ELLIPSE
5
18E
100
AcDbEntity
8
1
62
256
6
ByLayer
370
-1
48
1
60
0
100
AcDbEllipse
10
96.655121
20
-2.249384
30
0
11
2.00000000000003
21
0
31
0
210
0
220
0
230
1
40
0.998135
41
-3.08923277570319
42
-2.65715920216041
0
ELLIPSE
5
18F
100
AcDbEntity
8
1
62
256
6
ByLayer
370
-1
48
1
60
0
100
AcDbEllipse
10
94.302901
20
-3.512376
30
0
11
-0.199877710054841
21
0.00699292665720253
31
0
210
0
220
0
230
1
40
0.061011
41
0.525733317016736
42
1.57293086821329
0
ELLIPSE
5
190
100
AcDbEntity
8
1
62
256
6
ByLayer
370
-1
48
1
60
0
100
AcDbEllipse
10
94.423221
20
-5.855876
30
0
11
0.499999999999965
21
0
31
0
210
0
220
0
230
1
40
0.998135
41
-1.22173047639604
42
-0.0349065850398093
0
ELLIPSE
5
191
100
AcDbEntity
8
1
62
256
6
ByLayer
370
-1
48
1
60
0
100
AcDbEllipse
10
93.818134
20
-3.507689
30
0
11
-0.485063016993205
21
4.90223629149413E-16
31
0
210
0
220
0
230
1
40
0.998135
41
3.10668606442663
42
-2.67245197825927
0
ELLIPSE
5
192
100
AcDbEntity
8
1
62
256
6
ByLayer
370
-1
48
1
60
0
100
AcDbEllipse
10
93.774047
20
-4.767814
30
0
11
-0.585063016993194
21
5.91287534657638E-16
31
0
210
0
220
0
230
1
40
0.998135
41
2.22178402597591
42
3.10668606513153
0
ELLIPSE
5
193
100
AcDbEntity
8
1
62
256
6
ByLayer
370
-1
48
1
60
0
100
AcDbEllipse
10
93.818134
20
-3.507689
30
0
11
-0.585063016993205
21
5.91287534657649E-16
31
0
210
0
220
0
230
1
40
0.998135
41
3.10668606513138
42
-2.67245197755452
0
ELLIPSE
5
194
100
AcDbEntity
8
1
62
256
6
ByLayer
370
-1
48
1
60
0
100
AcDbEllipse
10
90.476809
20
-2.647443
30
0
11
1.59999999999997
21
0
31
0
210
0
220
0
230
1
40
0.998135
41
0.945815682262001
42
3.11174736318322
0
ELLIPSE
5
195
100
AcDbEntity
8
1
62
256
6
ByLayer
370
-1
48
1
60
0
100
AcDbEllipse
10
96.655121
20
-2.072344
30
0
11
2.59556912180584
21
0
31
0
210
0
220
0
230
1
40
0.998135
41
-3.08923277577814
42
-2.67245197336552
0
ELLIPSE
5
196
100
AcDbEntity
8
1
62
256
6
ByLayer
370
-1
48
1
60
0
100
AcDbEllipse
10
94.258815
20
-4.772501
30
0
11
-0.199877710054841
21
0.00699292665720253
31
0
210
0
220
0
230
1
40
0.061011
41
0.525733317016736
42
1.57293086821336
0
ELLIPSE
5
197
100
AcDbEntity
8
1
62
256
6
ByLayer
370
-1
48
1
60
0
100
AcDbEllipse
10
90.476809
20
-2.647443
30
0
11
1.69999999999997
21
0
31
0
210
0
220
0
230
1
40
0.998135
41
1.23160257064669
42
2.95476640619256
0
ELLIPSE
5
198
100
AcDbEntity
8
1
62
256
6
ByLayer
370
-1
48
1
60
0
100
AcDbEllipse
10
93.774047
20
-4.767814
30
0
11
-0.485063016993194
21
4.90223629149402E-16
31
0
210
0
220
0
230
1
40
0.998135
41
2.28676983792909
42
3.10668606442681
0
ELLIPSE
5
199
100
AcDbEntity
8
1
62
256
6
ByLayer
370
-1
48
1
60
0
100
AcDbEllipse
10
90.476809
20
-2.675549
30
0
11
1.59999999999993
21
0
31
0
210
0
220
0
230
1
40
0.998135
41
0.897612222206565
42
3.09574505906762
0
ELLIPSE
5
19A
100
AcDbEntity
8
1
62
256
6
ByLayer
370
-1
48
1
60
0
100
AcDbEllipse
10
93.818134
20
-3.501584
30
0
11
0.311857936236317
21
0
31
0
210
0
220
0
230
1
40
0.998135
41
-0.0349065914531923
42
0.469140673040489
0
ELLIPSE
5
19B
100
AcDbEntity
8
1
62
256
6
ByLayer
370
-1
48
1
60
0
100
AcDbEllipse
10
93.381185
20
-0.378438
30
0
11
-0.585063016993195
21
5.91287534657639E-16
31
0
210
0
220
0
230
1
40
0.998135
41
-3.08923277944838
42
-2.49060495440881
0
ELLIPSE
5
19C
100
AcDbEntity
8
1
62
256
6
ByLayer
370
-1
48
1
60
0
100
AcDbEllipse
10
96.655121
20
-2.072344
30
0
11
2.69556912180584
21
0
31
0
210
0
220
0
230
1
40
0.998135
41
-3.08923277578748
42
-2.6724519733941
0
ELLIPSE
5
19D
100
AcDbEntity
8
1
62
256
6
ByLayer
370
-1
48
1
60
0
100
AcDbEllipse
10
93.513866
20
1.114568
30
0
11
0.499999999999965
21
0
31
0
210
0
220
0
230
1
40
0.998135
41
0.349065850398867
42
0.877721328342332
0
ELLIPSE
5
19E
100
AcDbEntity
8
1
62
256
6
ByLayer
370
-1
48
1
60
0
100
AcDbEllipse
10
93.774047
20
-4.761709
30
0
11
0.311857936236306
21
0
31
0
210
0
220
0
230
1
40
0.998135
41
-0.241836267641149
42
-0.0349065914529243
0
ELLIPSE
5
19F
100
AcDbEntity
8
1
62
256
6
ByLayer
370
-1
48
1
60
0
100
AcDbEllipse
10
94.250789
20
-3.276581
30
0
11
-0.178323259633013
21
-0.0905583517620391
31
0
210
0
220
0
230
1
40
0.054453
41
0.495952978577004
42
1.54315052977256
0
ELLIPSE
5
1A0
100
AcDbEntity
8
1
62
256
6
ByLayer
370
-1
48
1
60
0
100
AcDbEllipse
10
93.963246
20
-2.200946
30
0
11
-0.199724883720219
21
-0.0104866974279341
31
0
210
0
220
0
230
1
40
0.060965
41
1.44670832171472
42
1.56759533351589
0
POINT
5
41
100
AcDbEntity
8
81
62
256
6
ByLayer
370
-1
48
1
60
0
100
AcDbPoint
10
95
20
0
30
0
39
0
210
0
220
0
230
1
50
360
0
POINT
5
43
100
AcDbEntity
8
80
62
256
6
ByLayer
370
-1
48
1
60
0
100
AcDbPoint
10
0
20
0
30
0
39
0
210
0
220
0
230
1
50
360
0
SPLINE
5
1A1
100
AcDbEntity
8
1
62
256
6
ByLayer
370
-1
48
1
60
0
100
AcDbSpline
70
4
71
3
72
15
73
11
40
0
40
0
40
0
40
0
40
0.111978740076068
40
0.225178781906871
40
0.33714656833125
40
0.449191635453967
40
0.560590987347822
40
0.706325516855411
40
0.852661567542326
40
1
40
1
40
1
40
1
41
1
10
19
20
11.55
30
0
41
1
10
18.433964715072
20
11.5512755899144
30
0
41
1
10
17.3257867837721
20
11.6700219755627
30
0
41
1
10
15.7055733050197
20
12.1815106469602
30
0
41
1
10
14.2780952291911
20
13.0749879292933
30
0
41
1
10
12.9084539238609
20
14.0293228408713
30
0
41
1
10
11.2483025074354
20
14.8299613060794
30
0
41
1
10
9.34762666224776
20
15.4884141531028
30
0
41
1
10
7.19297883504996
20
15.9074489427199
30
0
41
1
10
5.73754833932261
20
16.0010990902283
30
0
41
1
10
5.00000000000003
20
16
30
0
0
SPLINE
5
1A2
100
AcDbEntity
8
1
62
256
6
ByLayer
370
-1
48
1
60
0
100
AcDbSpline
70
4
71
3
72
16
73
12
40
0
40
0
40
0
40
0
40
0.140636569655873
40
0.280349077795559
40
0.419465579973582
40
0.558630486365949
40
0.646626637946193
40
0.734454149997223
40
0.823246978135615
40
0.9121653492746
40
1
40
1
40
1
40
1
41
1
10
4.99999999999997
20
-16
30
0
41
1
10
5.70376886497397
20
-16.0009620489971
30
0
41
1
10
7.09407349881101
20
-15.9158349288558
30
0
41
1
10
9.15373479178896
20
-15.5334101954852
30
0
41
1
10
11.134971530581
20
-14.8859370791712
30
0
41
1
10
12.7849342730583
20
-14.0932256982462
30
0
41
1
10
14.0948167541052
20
-13.2324368957239
30
0
41
1
10
15.1736707027058
20
-12.4715592652856
30
0
41
1
10
16.3964294846299
20
-11.9492742483435
30
0
41
1
10
17.6835393360334
20
-11.6215197309188
30
0
41
1
10
18.5586126587314
20
-11.5504837210455
30
0
41
1
10
19
20
-11.55
30
0
0
SPLINE
5
1A3
100
AcDbEntity
8
1
62
256
6
ByLayer
370
-1
48
1
60
0
100
AcDbSpline
70
4
71
3
72
8
73
4
40
0
40
0
40
0
40
0
40
1
40
1
40
1
40
1
41
1
10
90.3239963234115
20
-1.09141378315411
30
0
41
1
10
90.3468209910568
20
-1.08923918634858
30
0
41
1
10
90.369741368662
20
-1.08754487336228
30
0
41
1
10
90.3927792469006
20
-1.0863250220176
30
0
0
SPLINE
5
1A4
100
AcDbEntity
8
1
62
256
6
ByLayer
370
-1
48
1
60
0
100
AcDbSpline
70
4
71
3
72
11
73
7
40
0
40
0
40
0
40
0
40
0.106176828717524
40
0.445677782819356
40
0.786041083820759
40
1
40
1
40
1
40
1
41
1
10
90.3927792469006
20
-1.0863250220176
30
0
41
1
10
90.4317222142363
20
-1.0842962929961
30
0
41
1
10
90.5945692198557
20
-1.081655558985
30
0
41
1
10
90.882768488876
20
-1.12111781404471
30
0
41
1
10
91.1899359001487
20
-1.24000606633908
30
0
41
1
10
91.3620254571704
20
-1.3476486003147
30
0
41
1
10
91.4250332219746
20
-1.39375252716062
30
0
0
SPLINE
5
1A5
100
AcDbEntity
8
1
62
256
6
ByLayer
370
-1
48
1
60
0
100
AcDbSpline
70
4
71
3
72
21
73
17
40
0
40
0
40
0
40
0
40
0.0597762690613361
40
0.13579032214547
40
0.211530993727913
40
0.286818424735326
40
0.361585740511639
40
0.435882531329702
40
0.509850872570428
40
0.583689381760932
40
0.65757765150626
40
0.731688480482426
40
0.806190846721176
40
0.881182870506973
40
0.956664962366449
40
1
40
1
40
1
40
1
41
1
10
90.3985220982559
20
9.05275828097896
30
0
41
1
10
90.4972460991337
20
9.05770518414144
30
0
41
1
10
90.7171324090041
20
9.04686385680657
30
0
41
1
10
91.0515291682399
20
8.94447716706122
30
0
41
1
10
91.3760859762681
20
8.75665014622359
30
0
41
1
10
91.6483503714425
20
8.49659719891474
30
0
41
1
10
91.8529557989506
20
8.18045915794664
30
0
41
1
10
91.9791132048033
20
7.82559833228723
30
0
41
1
10
92.0204316211327
20
7.45166197952133
30
0
41
1
10
91.9752010664217
20
7.07891263468827
30
0
41
1
10
91.8462861351405
20
6.72733140109989
30
0
41
1
10
91.6408936748064
20
6.41553877318324
30
0
41
1
10
91.369856636375
20
6.1599308571046
30
0
41
1
10
91.0476940613719
20
5.97414851898091
30
0
41
1
10
90.7412057761711
20
5.88353810452861
30
0
41
1
10
90.5493809266384
20
5.86383401166884
30
0
41
1
10
90.4783745501244
20
5.86130034127211
30
0
0
SPLINE
5
1A6
100
AcDbEntity
8
1
62
256
6
ByLayer
370
-1
48
1
60
0
100
AcDbSpline
70
4
71
4
72
10
73
5
40
0
40
0
40
0
40
0
40
0
40
1
40
1
40
1
40
1
40
1
41
1
10
76.1143729226432
20
7.52999999999989
30
0
41
1
10
76.1143729226434
20
7.5493346623702
30
0
41
1
10
76.1143729226437
20
7.56866932474054
30
0
41
1
10
76.114372922644
20
7.58800398711088
30
0
41
1
10
76.1143729226442
20
7.60733864948119
30
0
0
SPLINE
5
1A7
100
AcDbEntity
8
1
62
256
6
ByLayer
370
-1
48
1
60
0
100
AcDbSpline
70
4
71
3
72
14
73
10
40
0
40
0
40
0
40
0
40
0.25
40
0.25
40
0.5
40
0.5
40
0.75
40
0.75
40
1
40
1
40
1
40
1
41
1
10
15.4464966859038
20
-6.56672528822821
30
0
41
1
10
15.6076793858214
20
-6.68347336723147
30
0
41
1
10
15.7806448630096
20
-6.78444365766535
30
0
41
1
10
16.1491441182226
20
-6.96398006719107
30
0
41
1
10
16.3446775621114
20
-7.04251107426254
30
0
41
1
10
16.7582175242764
20
-7.18395367903202
30
0
41
1
10
16.9774070433755
20
-7.24708512344588
30
0
41
1
10
17.4295951520633
20
-7.36092353126054
30
0
41
1
10
17.6632193020262
20
-7.41193218282666
30
0
41
1
10
17.9043229105849
20
-7.45952249414938
30
0
0
SPLINE
5
1A8
100
AcDbEntity
8
1
62
256
6
ByLayer
370
-1
48
1
60
0
100
AcDbSpline
70
4
71
3
72
8
73
4
40
0
40
0
40
0
40
0
40
1
40
1
40
1
40
1
41
1
10
83.5731171623827
20
1.33080949830079
30
0
41
1
10
83.3736005775471
20
1.32737223451693
30
0
41
1
10
83.1747404564755
20
1.3348514888082
30
0
41
1
10
82.9766714501822
20
1.35332768930331
30
0
0
SPLINE
5
1A9
100
AcDbEntity
8
1
62
256
6
ByLayer
370
-1
48
1
60
0
100
AcDbSpline
70
4
71
3
72
14
73
10
40
0
40
0
40
0
40
0
40
0.132030479736242
40
0.132030479736242
40
0.421353653157494
40
0.421353653157494
40
0.710676826578747
40
0.710676826578747
40
1
40
1
40
1
40
1
41
1
10
93.5362178532768
20
3.11821873480471
30
0
41
1
10
93.5353543445877
20
3.10251824068214
30
0
41
1
10
93.5343546670819
20
3.08764452553561
30
0
41
1
10
93.5308585134065
20
3.04277604055144
30
0
41
1
10
93.527939036834
20
3.01584439806786
30
0
41
1
10
93.5216889131738
20
2.97278887864005
30
0
41
1
10
93.5182946397379
20
2.95611870102428
30
0
41
1
10
93.5112920094739
20
2.93369516480223
30
0
41
1
10
93.5077440544454
20
2.92803667132961
30
0
41
1
10
93.5042044423849
20
2.92800213989938
30
0
0
SPLINE
5
1AA
100
AcDbEntity
8
1
62
256
6
ByLayer
370
-1
48
1
60
0
100
AcDbSpline
70
4
71
3
72
30
73
26
40
0
40
0
40
0
40
0
40
0.0625000000000009
40
0.0625000000000009
40
0.125000000000002
40
0.125000000000002
40
0.187500000000003
40
0.187500000000003
40
0.218750000000004
40
0.218750000000004
40
0.250000000000005
40
0.250000000000005
40
0.312500000000006
40
0.312500000000006
40
0.375000000000006
40
0.375000000000006
40
0.437500000000007
40
0.437500000000007
40
0.500000000000008
40
0.500000000000008
40
0.62500000000001
40
0.62500000000001
40
0.750000000000012
40
0.750000000000012
40
1
40
1
40
1
40
1
41
1
10
79.9065902787336
20
4.82055450520818
30
0
41
1
10
79.8671374907534
20
4.80885323909757
30
0
41
1
10
79.8284347095454
20
4.79506146225987
30
0
41
1
10
79.7532762675884
20
4.76119912389001
30
0
41
1
10
79.7170997247179
20
4.74120975517727
30
0
41
1
10
79.6516295317567
20
4.69329183496029
30
0
41
1
10
79.6218706107838
20
4.66467263729942
30
0
41
1
10
79.5883150378423
20
4.61656595700921
30
0
41
1
10
79.5788078620929
20
4.59942477257113
30
0
41
1
10
79.5642416255055
20
4.56481377507089
30
0
41
1
10
79.5590236203625
20
4.54716814596199
30
0
41
1
10
79.5491658893541
20
4.49329663569961
30
0
41
1
10
79.5505772990258
20
4.45833017799532
30
0
41
1
10
79.5639318089549
20
4.39030963784057
30
0
41
1
10
79.5756024658859
20
4.35847561810212
30
0
41
1
10
79.6050555167561
20
4.29767851134315
30
0
41
1
10
79.6230504156981
20
4.26855756379001
30
0
41
1
10
79.6626693272955
20
4.21353764517337
30
0
41
1
10
79.6843414637823
20
4.18751736820789
30
0
41
1
10
79.7534120402683
20
4.11269527077141
30
0
41
1
10
79.8049143841592
20
4.06699098800598
30
0
41
1
10
79.9143924316618
20
3.98145828338428
30
0
41
1
10
79.9718938605051
20
3.9420649327277
30
0
41
1
10
80.150335701376
20
3.83097763406067
30
0
41
1
10
80.2771301353832
20
3.76626913413665
30
0
41
1
10
80.4092713639017
20
3.70756629495105
30
0
0
SPLINE
5
1AB
100
AcDbEntity
8
1
62
256
6
ByLayer
370
-1
48
1
60
0
100
AcDbSpline
70
4
71
3
72
24
73
20
40
0
40
0
40
0
40
0
40
0.19541271629809
40
0.19541271629809
40
0.390825432596179
40
0.390825432596179
40
0.488531790745224
40
0.488531790745224
40
0.586238148894269
40
0.586238148894269
40
0.683944507043314
40
0.683944507043314
40
0.781650865192358
40
0.781650865192358
40
0.879357223341403
40
0.879357223341403
40
0.977063581490448
40
0.977063581490448
40
1
40
1
40
1
40
1
41
1
10
76.0868382203647
20
7.52800051794003
30
0
41
1
10
75.9302684924251
20
7.29537746426337
30
0
41
1
10
75.7772237402129
20
7.06029880777913
30
0
41
1
10
75.4618822131728
20
6.59716059402726
30
0
41
1
10
75.299860227933
20
6.36890008478949
30
0
41
1
10
75.0385807459969
20
6.0400294859852
30
0
41
1
10
74.9484855352897
20
5.93263058287414
30
0
41
1
10
74.7602635826317
20
5.72375965600301
30
0
41
1
10
74.6622372074428
20
5.62245841388139
30
0
41
1
10
74.4585994973475
20
5.43051485416305
30
0
41
1
10
74.352699693069
20
5.3395052840873
30
0
41
1
10
74.1298506207391
20
5.17002589239544
30
0
41
1
10
74.0120255863677
20
5.09108542481255
30
0
41
1
10
73.7676887585608
20
4.95168293624829
30
0
41
1
10
73.6411572162184
20
4.8910368154007
30
0
41
1
10
73.378020963895
20
4.79008757766687
30
0
41
1
10
73.2398067633866
20
4.74969482530534
30
0
41
1
10
73.069531288394
20
4.71485616084931
30
0
41
1
10
73.0371367523464
20
4.70886363029658
30
0
41
1
10
73.0047221640074
20
4.70348672077512
30
0
0
SPLINE
5
1AC
100
AcDbEntity
8
1
62
256
6
ByLayer
370
-1
48
1
60
0
100
AcDbSpline
70
4
71
3
72
18
73
14
40
0
40
0
40
0
40
0
40
0.25
40
0.25
40
0.5
40
0.5
40
0.625
40
0.625
40
0.75
40
0.75
40
0.875
40
0.875
40
1
40
1
40
1
40
1
41
1
10
7.54649668590369
20
1.99494200655988
30
0
41
1
10
7.34501375375694
20
2.33086474881273
30
0
41
1
10
7.1686676340901
20
2.67651711516703
30
0
41
1
10
6.85788979842991
20
3.38189024493676
30
0
41
1
10
6.72348630511252
20
3.74168466333501
30
0
41
1
10
6.55181418906076
20
4.28862473435464
30
0
41
1
10
6.49947676298575
20
4.47274394527392
30
0
41
1
10
6.40611771366167
20
4.83956675813101
30
0
41
1
10
6.36512899157103
20
5.02195995177266
30
0
41
1
10
6.29531067712384
20
5.38294222709945
30
0
41
1
10
6.26645791641613
20
5.56153859020841
30
0
41
1
10
6.22287585351745
20
5.91247873028075
30
0
41
1
10
6.20859196473162
20
6.08146343954826
30
0
41
1
10
6.20284347309342
20
6.24174498785518
30
0
0
SPLINE
5
1AD
100
AcDbEntity
8
1
62
256
6
ByLayer
370
-1
48
1
60
0
100
AcDbSpline
70
4
71
3
72
22
73
18
40
0
40
0
40
0
40
0
40
0.249999999999997
40
0.249999999999997
40
0.374999999999995
40
0.374999999999995
40
0.499999999999994
40
0.499999999999994
40
0.624999999999994
40
0.624999999999994
40
0.656249999999994
40
0.656249999999994
40
0.687499999999994
40
0.687499999999994
40
0.749999999999995
40
0.749999999999995
40
1
40
1
40
1
40
1
41
1
10
19
20
7.58023418655679
30
0
41
1
10
18.4052820435906
20
7.80259190373002
30
0
41
1
10
17.8106750631758
20
8.04518097442727
30
0
41
1
10
16.9265903843043
20
8.45591669545061
30
0
41
1
10
16.6332241083225
20
8.60070103657986
30
0
41
1
10
16.0507638451462
20
8.90964345862292
30
0
41
1
10
15.7606508266363
20
9.07452732614036
30
0
41
1
10
15.1975507372033
20
9.42090523393776
30
0
41
1
10
14.9233797021657
20
9.60294050640613
30
0
41
1
10
14.5909223658898
20
9.84318348789054
30
0
41
1
10
14.5249443800045
20
9.89186773894184
30
0
41
1
10
14.3940442096199
20
9.99055189669119
30
0
41
1
10
14.3292913029583
20
10.0407596932677
30
0
41
1
10
14.1353505628609
20
10.1918154655735
30
0
41
1
10
14.0054086804508
20
10.291779191709
30
0
41
1
10
13.3480959809089
20
10.7824279239153
30
0
41
1
10
12.8022394884231
20
11.1509183893313
30
0
41
1
10
12.2349574925802
20
11.4921027952975
30
0
0
SPLINE
5
1AE
100
AcDbEntity
8
1
62
256
6
ByLayer
370
-1
48
1
60
0
100
AcDbSpline
70
4
71
3
72
8
73
4
40
0
40
0
40
0
40
0
40
1
40
1
40
1
40
1
41
1
10
15.4464966859037
20
-4.65542987958921
30
0
41
1
10
15.4464966859038
20
-5.29252834913552
30
0
41
1
10
15.4464966859038
20
-5.92962681868187
30
0
41
1
10
15.4464966859038
20
-6.56672528822818
30
0
0
SPLINE
5
1AF
100
AcDbEntity
8
1
62
256
6
ByLayer
370
-1
48
1
60
0
100
AcDbSpline
70
4
71
3
72
10
73
6
40
0
40
0
40
0
40
0
40
0.5
40
0.5
40
1
40
1
40
1
40
1
41
1
10
65.6170856220659
20
8.58529994512438
30
0
41
1
10
65.3047806670232
20
8.69350010672571
30
0
41
1
10
64.9901398930749
20
8.80555821274163
30
0
41
1
10
64.3566921407544
20
9.03655551690298
30
0
41
1
10
64.038405328298
20
9.15531264479588
30
0
41
1
10
63.7202683589679
20
9.27636674594936
30
0
0
SPLINE
5
1B0
100
AcDbEntity
8
1
62
256
6
ByLayer
370
-1
48
1
60
0
100
AcDbSpline
70
4
71
3
72
18
73
14
40
0
40
0
40
0
40
0
40
0.25
40
0.25
40
0.375
40
0.375
40
0.5
40
0.5
40
0.75
40
0.75
40
0.875
40
0.875
40
1
40
1
40
1
40
1
41
1
10
81.6961862025847
20
3.14464940791697
30
0
41
1
10
81.8502023995134
20
3.05201859293993
30
0
41
1
10
82.0089124563891
20
2.96646071859544
30
0
41
1
10
82.2579123643862
20
2.85029987049774
30
0
41
1
10
82.3427571459985
20
2.81362290693679
30
0
41
1
10
82.5171762796512
20
2.7448698636525
30
0
41
1
10
82.6070535690319
20
2.71270694058475
30
0
41
1
10
82.8824195309348
20
2.625329172199
30
0
41
1
10
83.0740713203133
20
2.57881988810246
30
0
41
1
10
83.3797617462631
20
2.53253981886047
30
0
41
1
10
83.4852036077107
20
2.52107765168228
30
0
41
1
10
83.6980696063115
20
2.50754860153029
30
0
41
1
10
83.8059565961838
20
2.50537703013367
30
0
41
1
10
83.9152892418585
20
2.50795285618577
30
0
0
SPLINE
5
1B1
100
AcDbEntity
8
1
62
256
6
ByLayer
370
-1
48
1
60
0
100
AcDbSpline
70
4
71
3
72
12
73
8
40
0
40
0
40
0
40
0
40
0.5
40
0.5
40
0.75
40
0.75
40
1
40
1
40
1
40
1
41
1
10
81.6961862025847
20
3.14464940791697
30
0
41
1
10
82.0547531077298
20
3.0160047353894
30
0
41
1
10
82.4228476518181
20
2.92164664788308
30
0
41
1
10
82.989571323509
20
2.83256036638332
30
0
41
1
10
83.1818409874313
20
2.81167231551393
30
0
41
1
10
83.5637823719892
20
2.78861710735646
30
0
41
1
10
83.7541022765106
20
2.78626059479961
30
0
41
1
10
83.9437896284865
20
2.7928893570826
30
0
0
SPLINE
5
1B2
100
AcDbEntity
8
1
62
256
6
ByLayer
370
-1
48
1
60
0
100
AcDbSpline
70
4
71
3
72
24
73
20
40
0
40
0
40
0
40
0
40
0.125000000000004
40
0.125000000000004
40
0.187500000000008
40
0.187500000000008
40
0.250000000000012
40
0.250000000000012
40
0.37500000000001
40
0.37500000000001
40
0.500000000000008
40
0.500000000000008
40
0.625000000000006
40
0.625000000000006
40
0.750000000000004
40
0.750000000000004
40
0.875000000000002
40
0.875000000000002
40
1
40
1
40
1
40
1
41
1
10
85.7590423907461
20
2.85493102611866
30
0
41
1
10
85.7641104881002
20
2.85493102611866
30
0
41
1
10
85.7611126294905
20
2.86090480410798
30
0
41
1
10
85.7470244733735
20
2.87777863305303
30
0
41
1
10
85.7406717539064
20
2.88479772359901
30
0
41
1
10
85.7256310514133
20
2.90099613317821
30
0
41
1
10
85.7169289380865
20
2.91019838642271
30
0
41
1
10
85.6880720579834
20
2.94090710970315
30
0
41
1
10
85.6650317649005
20
2.96570180430629
30
0
41
1
10
85.6162621991134
20
3.02141605792897
30
0
41
1
10
85.5903531453889
20
3.05249009174017
30
0
41
1
10
85.5371498414353
20
3.12139656999031
30
0
41
1
10
85.5097020272133
20
3.15948888015242
30
0
41
1
10
85.4562961005714
20
3.24054041766149
30
0
41
1
10
85.4301111133789
20
3.28374769823705
30
0
41
1
10
85.3794850310513
20
3.37627372951641
30
0
41
1
10
85.354922618055
20
3.42597052614258
30
0
41
1
10
85.3100899762782
20
3.52812254108085
30
0
41
1
10
85.2895552068981
20
3.58099287411349
30
0
41
1
10
85.2710427886456
20
3.63586810769891
30
0
0
SPLINE
5
1B3
100
AcDbEntity
8
1
62
256
6
ByLayer
370
-1
48
1
60
0
100
AcDbSpline
70
4
71
2
72
6
73
3
40
0
40
0
40
0
40
1
40
1
40
1
41
1
10
7.54649668590358
20
1.99494200656008
30
0
41
1
10
7.54649668590363
20
0.396451006269189
30
0
41
1
10
7.54649668590369
20
-1.20203999402165
30
0
0
SPLINE
5
1B4
100
AcDbEntity
8
1
62
256
6
ByLayer
370
-1
48
1
60
0
100
AcDbSpline
70
4
71
3
72
8
73
4
40
0
40
0
40
0
40
0
40
1
40
1
40
1
40
1
41
1
10
76.1143729226441
20
7.60733864948546
30
0
41
1
10
76.1143729226438
20
7.57843015307364
30
0
41
1
10
76.1027088446397
20
7.55158025542204
30
0
41
1
10
76.0868382203651
20
7.52800051794006
30
0
0
SPLINE
5
1B5
100
AcDbEntity
8
1
62
256
6
ByLayer
370
-1
48
1
60
0
100
AcDbSpline
70
4
71
3
72
18
73
14
40
0
40
0
40
0
40
0
40
0.186330199762808
40
0.186330199762808
40
0.457553466508539
40
0.457553466508539
40
0.593165099881404
40
0.593165099881404
40
0.72877673325427
40
0.72877673325427
40
0.864388366627135
40
0.864388366627135
40
1
40
1
40
1
40
1
41
1
10
63.4164117330681
20
9.36802190660157
30
0
41
1
10
64.202981744571
20
9.55345386958177
30
0
41
1
10
64.9893644460725
20
9.72821781981608
30
0
41
1
10
66.9203356574274
20
10.1305905132176
30
0
41
1
10
68.06467969163
20
10.3461901310304
30
0
41
1
10
69.7830422850955
20
10.6318740044559
30
0
41
1
10
70.356191015655
20
10.7207618718355
30
0
41
1
10
71.5038424748371
20
10.8852392829385
30
0
41
1
10
72.0784112984431
20
10.9607891480676
30
0
41
1
10
73.228722272475
20
11.0987706488743
30
0
41
1
10
73.8043898477605
20
11.1612260580918
30
0
41
1
10
74.957930013367
20
11.2721984159156
30
0
41
1
10
75.5359574193086
20
11.3206868723062
30
0
41
1
10
76.114372922675
20
11.362595961644
30
0
0
SPLINE
5
1B6
100
AcDbEntity
8
1
62
256
6
ByLayer
370
-1
48
1
60
0
100
AcDbSpline
70
4
71
3
72
12
73
8
40
0
40
0
40
0
40
0
40
0.031798798457512
40
0.031798798457512
40
0.515899399228756
40
0.515899399228756
40
1
40
1
40
1
40
1
41
1
10
70.5391163207572
20
5.97515657399381
30
0
41
1
10
70.5379022172045
20
5.98535571350962
30
0
41
1
10
70.5367064600188
20
5.99557437578781
30
0
41
1
10
70.5175748539117
20
6.16167153595992
30
0
41
1
10
70.5033902365947
20
6.32200929048466
30
0
41
1
10
70.4768005033526
20
6.64654032393076
30
0
41
1
10
70.4644840700329
20
6.81127145868101
30
0
41
1
10
70.4512368691761
20
6.97823460411394
30
0
0
SPLINE
5
1B7
100
AcDbEntity
8
1
62
256
6
ByLayer
370
-1
48
1
60
0
100
AcDbSpline
70
4
71
3
72
20
73
16
40
0
40
0
40
0
40
0
40
0.125000000000003
40
0.125000000000003
40
0.250000000000007
40
0.250000000000007
40
0.500000000000003
40
0.500000000000003
40
0.625000000000002
40
0.625000000000002
40
0.75
40
0.75
40
0.875
40
0.875
40
1
40
1
40
1
40
1
41
1
10
70.4512368692093
20
6.97823460411757
30
0
41
1
10
70.4466325854865
20
7.03626540632641
30
0
41
1
10
70.4492177309506
20
7.09394629408607
30
0
41
1
10
70.4666753137878
20
7.20874952832364
30
0
41
1
10
70.4818541876932
20
7.26636514612409
30
0
41
1
10
70.5429825239726
20
7.43144331917745
30
0
41
1
10
70.6055045522509
20
7.53470859689733
30
0
41
1
10
70.7216201677705
20
7.66697595513025
30
0
41
1
10
70.7647719020726
20
7.70806778861498
30
0
41
1
10
70.8567845869449
20
7.78063457777165
30
0
41
1
10
70.9054382202737
20
7.81211789992156
30
0
41
1
10
71.008250402176
20
7.86514358722059
30
0
41
1
10
71.0628769315061
20
7.88663780914126
30
0
41
1
10
71.1731638462541
20
7.91776328380016
30
0
41
1
10
71.2293061374843
20
7.92771384043584
30
0
41
1
10
71.2861852118605
20
7.93361421200245
30
0
0
SPLINE
5
1B8
100
AcDbEntity
8
1
62
256
6
ByLayer
370
-1
48
1
60
0
100
AcDbSpline
70
4
71
3
72
9
73
5
40
0
40
0
40
0
40
0
40
0.875295797278206
40
1
40
1
40
1
40
1
41
1
10
70.451236869177
20
6.97823460411405
30
0
41
1
10
70.039760173766
20
6.9267040520686
30
0
41
1
10
69.569710429249
20
6.86508774773307
30
0
41
1
10
69.0994240258859
20
6.80077330503329
30
0
41
1
10
69.0407733046542
20
6.79271178236152
30
0
0
SPLINE
5
1B9
100
AcDbEntity
8
1
62
256
6
ByLayer
370
-1
48
1
60
0
100
AcDbSpline
70
4
71
3
72
8
73
4
40
0
40
0
40
0
40
0
40
1
40
1
40
1
40
1
41
1
10
12.2349574925816
20
7.10413528167089
30
0
41
1
10
15.0557765043251
20
5.65815959226768
30
0
41
1
10
17.8490382982345
20
4.20503327016863
30
0
41
1
10
20.6349574925791
20
2.7666235650891
30
0
0
SPLINE
5
1BA
100
AcDbEntity
8
1
62
256
6
ByLayer
370
-1
48
1
60
0
100
AcDbSpline
70
4
71
3
72
42
73
38
40
0
40
0
40
0
40
0
40
0.125000000000001
40
0.125000000000001
40
0.156250000000001
40
0.156250000000001
40
0.187500000000001
40
0.187500000000001
40
0.250000000000001
40
0.250000000000001
40
0.312500000000002
40
0.312500000000002
40
0.343750000000002
40
0.343750000000002
40
0.375000000000002
40
0.375000000000002
40
0.500000000000002
40
0.500000000000002
40
0.531250000000002
40
0.531250000000002
40
0.562500000000002
40
0.562500000000002
40
0.625000000000002
40
0.625000000000002
40
0.687500000000001
40
0.687500000000001
40
0.750000000000001
40
0.750000000000001
40
0.812500000000001
40
0.812500000000001
40
0.875000000000001
40
0.875000000000001
40
0.90625
40
0.90625
40
0.9375
40
0.9375
40
1
40
1
40
1
40
1
41
1
10
20.6349574925795
20
6.91721419564104
30
0
41
1
10
23.125434271223
20
6.11152396835146
30
0
41
1
10
25.607383662879
20
5.22966371645433
30
0
41
1
10
28.7140400233033
20
4.06495541818731
30
0
41
1
10
29.3355137729273
20
3.82874279734068
30
0
41
1
10
30.5792971843046
20
3.35104345007829
30
0
41
1
10
31.201916731293
20
3.10939391096466
30
0
41
1
10
33.0688585377194
20
2.37826236616456
30
0
41
1
10
34.311471760306
20
1.8832899358714
30
0
41
1
10
36.7963325544814
20
0.887307725378321
30
0
41
1
10
38.0382185660773
20
0.385405647051044
30
0
41
1
10
39.9025641537543
20
-0.367519784058004
30
0
41
1
10
40.5242741664067
20
-0.618484602447239
30
0
41
1
10
41.7685394576483
20
-1.11959013106323
30
0
41
1
10
42.391380595242
20
-1.36985422625281
30
0
41
1
10
45.502081225574
20
-2.61427393128011
30
0
41
1
10
47.983219890978
20
-3.58923284312292
30
0
41
1
10
51.0908057121518
20
-4.74527750420359
30
0
41
1
10
51.7126158475778
20
-4.97339723287638
30
0
41
1
10
52.9570939505666
20
-5.42281288909774
30
0
41
1
10
53.5797194354378
20
-5.64391008540809
30
0
41
1
10
55.4454237289208
20
-6.29376314286191
30
0
41
1
10
56.687535409129
20
-6.70995720124952
30
0
41
1
10
59.1719789747918
20
-7.50107018789885
30
0
41
1
10
60.414694417966
20
-7.8753128801246
30
0
41
1
10
62.9024038842309
20
-8.57889145571141
30
0
41
1
10
64.1486740077963
20
-8.90888073247064
30
0
41
1
10
66.6332025562767
20
-9.51445720763695
30
0
41
1
10
67.8730413259143
20
-9.79002690932427
30
0
41
1
10
70.3496177533631
20
-10.2849137443932
30
0
41
1
10
71.586591968886
20
-10.5038738571502
30
0
41
1
10
73.4422775672371
20
-10.7872782975973
30
0
41
1
10
74.0605196926601
20
-10.874548641347
30
0
41
1
10
75.2981327113875
20
-11.033121826978
30
0
41
1
10
75.9169140866442
20
-11.1049119069359
30
0
41
1
10
77.7748889840635
20
-11.2964203676871
30
0
41
1
10
79.0148006404851
20
-11.392844330499
30
0
41
1
10
80.2582702755658
20
-11.4566181077057
30
0
0
SPLINE
5
1BB
100
AcDbEntity
8
1
62
256
6
ByLayer
370
-1
48
1
60
0
100
AcDbSpline
70
4
71
3
72
8
73
4
40
0
40
0
40
0
40
0
40
1
40
1
40
1
40
1
41
1
10
19
20
-7.71477263358662
30
0
41
1
10
18.6377624598678
20
-7.60557765643779
30
0
41
1
10
18.2722693396487
20
-7.52020700435105
30
0
41
1
10
17.9043229108854
20
-7.45952249420907
30
0
0
SPLINE
5
1BC
100
AcDbEntity
8
1
62
256
6
ByLayer
370
-1
48
1
60
0
100
AcDbSpline
70
4
71
3
72
8
73
4
40
0
40
0
40
0
40
0
40
1
40
1
40
1
40
1
41
1
10
81.3602516573905
20
1.48142571781932
30
0
41
1
10
81.1920031238898
20
1.49247582954175
30
0
41
1
10
81.0170823579329
20
1.5162597728814
30
0
41
1
10
80.8407258913863
20
1.55108955149066
30
0
0
SPLINE
5
1BD
100
AcDbEntity
8
1
62
256
6
ByLayer
370
-1
48
1
60
0
100
AcDbSpline
70
4
71
3
72
87
73
83
40
-0.0312500000000066
40
-0.0312500000000066
40
0
40
0
40
0.0312499999999974
40
0.0312499999999974
40
0.0468749999999959
40
0.0468749999999959
40
0.0624999999999943
40
0.0624999999999943
40
0.0937499999999911
40
0.0937499999999911
40
0.124999999999988
40
0.124999999999988
40
0.156249999999985
40
0.156249999999985
40
0.171874999999983
40
0.171874999999983
40
0.187499999999982
40
0.20312499999998
40
0.20312499999998
40
0.218749999999979
40
0.218749999999979
40
0.249999999999975
40
0.249999999999975
40
0.281249999999972
40
0.281249999999972
40
0.312499999999969
40
0.312499999999969
40
0.32812499999997
40
0.32812499999997
40
0.34374999999997
40
0.34374999999997
40
0.374999999999971
40
0.374999999999971
40
0.406249999999971
40
0.406249999999971
40
0.437499999999972
40
0.437499999999972
40
0.468749999999973
40
0.468749999999973
40
0.484374999999973
40
0.484374999999973
40
0.499999999999972
40
0.499999999999972
40
0.531249999999972
40
0.531249999999972
40
0.562499999999971
40
0.562499999999971
40
0.57812499999997
40
0.57812499999997
40
0.593749999999969
40
0.593749999999969
40
0.624999999999969
40
0.624999999999969
40
0.656249999999969
40
0.656249999999969
40
0.687499999999969
40
0.687499999999969
40
0.703124999999969
40
0.703124999999969
40
0.71874999999997
40
0.71874999999997
40
0.74999999999997
40
0.74999999999997
40
0.78124999999997
40
0.78124999999997
40
0.79687499999997
40
0.79687499999997
40
0.81249999999997
40
0.81249999999997
40
0.84374999999997
40
0.84374999999997
40
0.859374999999972
40
0.859374999999972
40
0.874999999999974
40
0.874999999999974
40
0.90624999999998
40
0.90624999999998
40
0.937499999999987
40
0.937499999999987
40
0.968749999999993
40
0.968749999999993
40
1
40
1
40
1.03125
40
1.03125
41
1
10
88.6931913084532
20
-2.12245215049776
30
0
41
1
10
88.6822773837046
20
-1.91152485638261
30
0
41
1
10
88.6869738205518
20
-1.80698111398618
30
0
41
1
10
88.7089293946514
20
-1.65153110480671
30
0
41
1
10
88.7187503626538
20
-1.5999439664424
30
0
41
1
10
88.7435565961551
20
-1.49725035847138
30
0
41
1
10
88.7586304159524
20
-1.44596288018477
30
0
41
1
10
88.8107867314541
20
-1.2961341771792
30
0
41
1
10
88.8549011665513
20
-1.20060212098548
30
0
41
1
10
88.9618629725499
20
-1.01833988282343
30
0
41
1
10
89.0254262081505
20
-0.931091993268183
30
0
41
1
10
89.1664368211232
20
-0.77330658151206
30
0
41
1
10
89.2442815596516
20
-0.701783523043929
30
0
41
1
10
89.3723370195789
20
-0.605879421056386
30
0
41
1
10
89.4169709121928
20
-0.575834028397935
30
0
41
1
10
89.5080275997522
20
-0.520951992217533
30
0
41
1
10
89.6013553017723
20
-0.470890342928101
30
0
41
1
10
89.6991534026699
20
-0.430325052470266
30
0
41
1
10
89.7992174607145
20
-0.39457658337534
30
0
41
1
10
89.8506737379379
20
-0.379045115341455
30
0
41
1
10
90.006235037259
20
-0.340544745446238
30
0
41
1
10
90.111035559657
20
-0.325560269139885
30
0
41
1
10
90.3227686150422
20
-0.316436110403487
30
0
41
1
10
90.430762688079
20
-0.322606388361692
30
0
41
1
10
90.6403342372498
20
-0.355881830409288
30
0
41
1
10
90.742666258578
20
-0.382747845578962
30
0
41
1
10
90.8924331428896
20
-0.438589059704356
30
0
41
1
10
90.9418965279804
20
-0.459923534569413
30
0
41
1
10
91.0374147542781
20
-0.506942806975559
30
0
41
1
10
91.0837205039699
20
-0.532700437042593
30
0
41
1
10
91.2183630584796
20
-0.616578135331935
30
0
41
1
10
91.3028467844405
20
-0.681600828547971
30
0
41
1
10
91.4583166767861
20
-0.82839866099107
30
0
41
1
10
91.527534128335
20
-0.908358078087559
30
0
41
1
10
91.6495673795209
20
-1.08083965089025
30
0
41
1
10
91.7027620588449
20
-1.17447895609581
30
0
41
1
10
91.788563743548
20
-1.36763196057129
30
0
41
1
10
91.8216412811539
20
-1.46739074820047
30
0
41
1
10
91.8566891806123
20
-1.62169815312521
30
0
41
1
10
91.8659468282484
20
-1.67418786169804
30
0
41
1
10
91.879200399607
20
-1.77881257737965
30
0
41
1
10
91.8832526285812
20
-1.83106902817309
30
0
41
1
10
91.8879289083497
20
-1.98767018555259
30
0
41
1
10
91.8811421413267
20
-2.09184660223244
30
0
41
1
10
91.8473460278666
20
-2.29975058856468
30
0
41
1
10
91.8208485199203
20
-2.40031667472806
30
0
41
1
10
91.7674280718509
20
-2.54623833955677
30
0
41
1
10
91.747323482976
20
-2.59406058737721
30
0
41
1
10
91.7024301961923
20
-2.68805217283429
30
0
41
1
10
91.6775056910246
20
-2.73441628815365
30
0
41
1
10
91.5969864398497
20
-2.86840785443121
30
0
41
1
10
91.5354877886577
20
-2.95164084517424
30
0
41
1
10
91.3968171411507
20
-3.10609602431663
30
0
41
1
10
91.3186606847186
20
-3.17792797858851
30
0
41
1
10
91.1516833634053
20
-3.30354236332479
30
0
41
1
10
91.0626565018038
20
-3.35789334005403
30
0
41
1
10
90.9204439875334
20
-3.42635725473778
30
0
41
1
10
90.8712883209818
20
-3.44708713306343
30
0
41
1
10
90.7713854773028
20
-3.48335572385849
30
0
41
1
10
90.7208464936497
20
-3.49885732644711
30
0
41
1
10
90.5674941559175
20
-3.53761710386158
30
0
41
1
10
90.462962462673
20
-3.55320934517724
30
0
41
1
10
90.2490502388397
20
-3.56284779573173
30
0
41
1
10
90.1425261599532
20
-3.55664566799462
30
0
41
1
10
89.9859195369422
20
-3.53159442661453
30
0
41
1
10
89.934107990746
20
-3.52060642382713
30
0
41
1
10
89.8312764720146
20
-3.49327075928133
30
0
41
1
10
89.7802343421166
20
-3.47687294643484
30
0
41
1
10
89.6317907989919
20
-3.42081829772152
30
0
41
1
10
89.5378039600475
20
-3.37408888104679
30
0
41
1
10
89.4040222035596
20
-3.29029140065774
30
0
41
1
10
89.3604690465718
20
-3.25990398303179
30
0
41
1
10
89.2774345696207
20
-3.19569561150564
30
0
41
1
10
89.2377741632514
20
-3.16178817661688
30
0
41
1
10
89.124161049568
20
-3.0548089061725
30
0
41
1
10
89.055257855912
20
-2.97615576244812
30
0
41
1
10
88.9330420442377
20
-2.80607259116545
30
0
41
1
10
88.8809359697046
20
-2.71647827070294
30
0
41
1
10
88.7939778272387
20
-2.52840021245984
30
0
41
1
10
88.7589429127752
20
-2.42896390332012
30
0
41
1
10
88.7086524055482
20
-2.22593170612174
30
0
41
1
10
88.6931913084532
20
-2.12245215049776
30
0
41
1
10
88.6822773837046
20
-1.91152485638261
30
0
0
SPLINE
5
1BE
100
AcDbEntity
8
1
62
256
6
ByLayer
370
-1
48
1
60
0
100
AcDbSpline
70
4
71
3
72
8
73
4
40
0
40
0
40
0
40
0
40
1
40
1
40
1
40
1
41
1
10
81.4006295672899
20
3.26620519848254
30
0
41
1
10
81.497226091773
20
3.2230988592425
30
0
41
1
10
81.5956673920721
20
3.18256201958053
30
0
41
1
10
81.6961862025847
20
3.14464940791697
30
0
0
SPLINE
5
1BF
100
AcDbEntity
8
1
62
256
6
ByLayer
370
-1
48
1
60
0
100
AcDbSpline
70
4
71
3
72
16
73
12
40
0
40
0
40
0
40
0
40
0.125
40
0.125
40
0.25
40
0.25
40
0.5
40
0.5
40
0.75
40
0.75
40
1
40
1
40
1
40
1
41
1
10
76.1143729226793
20
8.19337377310785
30
0
41
1
10
75.9447331651329
20
8.19754234697709
30
0
41
1
10
75.7743701535028
20
8.19936091756966
30
0
41
1
10
75.4346725785073
20
8.1971225902513
30
0
41
1
10
75.2649657731213
20
8.19307731231734
30
0
41
1
10
74.7561786094112
20
8.17407346724539
30
0
41
1
10
74.4173258550317
20
8.15442420250704
30
0
41
1
10
73.7398235300481
20
8.1109382515412
30
0
41
1
10
73.4011575840842
20
8.08743904567393
30
0
41
1
10
72.7237300456673
20
8.04241181575952
30
0
41
1
10
72.3849579225425
20
8.02110081868895
30
0
41
1
10
72.0462566072861
20
7.99833053980092
30
0
0
SPLINE
5
1C0
100
AcDbEntity
8
1
62
256
6
ByLayer
370
-1
48
1
60
0
100
AcDbSpline
70
4
71
3
72
8
73
4
40
0
40
0
40
0
40
0
40
1
40
1
40
1
40
1
41
1
10
19
20
7.58023418655679
30
0
41
1
10
19.5508343447327
20
7.37428401115795
30
0
41
1
10
20.0953974792435
20
7.15314760354937
30
0
41
1
10
20.6349574925792
20
6.91721419564115
30
0
0
SPLINE
5
1C1
100
AcDbEntity
8
1
62
256
6
ByLayer
370
-1
48
1
60
0
100
AcDbSpline
70
4
71
3
72
34
73
30
40
0
40
0
40
0
40
0
40
0.012728705846274
40
0.012728705846274
40
0.0832480840001117
40
0.0832480840001117
40
0.153767462153949
40
0.153767462153949
40
0.224286840307787
40
0.224286840307787
40
0.294806218461625
40
0.294806218461625
40
0.4358449747693
40
0.4358449747693
40
0.506364352923138
40
0.506364352923138
40
0.576883731076975
40
0.576883731076975
40
0.647403109230812
40
0.647403109230812
40
0.71792248738465
40
0.71792248738465
40
0.788441865538488
40
0.788441865538488
40
0.858961243692325
40
0.858961243692325
40
0.929480621846163
40
0.929480621846163
40
1
40
1
40
1
40
1
41
1
10
62.7699938433206
20
-8.54044131101855
30
0
41
1
10
62.5807937706342
20
-8.58311208345552
30
0
41
1
10
62.3915632164377
20
-8.62522805977832
30
0
41
1
10
61.1537296168586
20
-8.89698920084382
30
0
41
1
10
60.1048627453261
20
-9.10974234982521
30
0
41
1
10
58.0092009484891
20
-9.49808384743136
30
0
41
1
10
56.9616916116716
20
-9.67402151109718
30
0
41
1
10
54.8666733824398
20
-9.98611649577154
30
0
41
1
10
53.8190579322602
20
-10.1225707721414
30
0
41
1
10
51.7220571111956
20
-10.3553058233297
30
0
41
1
10
50.672588220574
20
-10.4512385600144
30
0
41
1
10
47.5290861474609
20
-10.6748827587042
30
0
41
1
10
45.4369127285821
20
-10.7371859582951
30
0
41
1
10
42.2930345774117
20
-10.7004148853968
30
0
41
1
10
41.2435464154468
20
-10.6664191195335
30
0
41
1
10
39.1474967385519
20
-10.5555907266039
30
0
41
1
10
38.100395174477
20
-10.4787845489567
30
0
41
1
10
36.0064205645171
20
-10.2837953993467
30
0
41
1
10
34.9595411637932
20
-10.1656999330396
30
0
41
1
10
32.864623521369
20
-9.8879865712851
30
0
41
1
10
31.815894755101
20
-9.7282466962086
30
0
41
1
10
29.7190467249649
20
-9.37189060839589
30
0
41
1
10
28.6712978878114
20
-9.17430219596505
30
0
41
1
10
26.5755857743865
20
-8.74270836741027
30
0
41
1
10
25.527219136262
20
-8.50864923184952
30
0
41
1
10
23.4304825516429
20
-8.00691797012101
30
0
41
1
10
22.382756046202
20
-7.74001338742681
30
0
41
1
10
20.2872023296303
20
-7.1758306150829
30
0
41
1
10
19.2394868417774
20
-6.87783497707855
30
0
41
1
10
18.1907592112113
20
-6.56685084824667
30
0
0
SPLINE
5
1C2
100
AcDbEntity
8
1
62
256
6
ByLayer
370
-1
48
1
60
0
100
AcDbSpline
70
4
71
3
72
22
73
18
40
0
40
0
40
0
40
0
40
0.125
40
0.125
40
0.25
40
0.25
40
0.375
40
0.375
40
0.5
40
0.5
40
0.75
40
0.75
40
0.8125
40
0.8125
40
0.875
40
0.875
40
1
40
1
40
1
40
1
41
1
10
7.54649668590369
20
-1.20203999402168
30
0
41
1
10
7.37875057493105
20
-0.920862085284739
30
0
41
1
10
7.23687019037678
20
-0.629066493192909
30
0
41
1
10
6.99044217173366
20
-0.0299084365875331
30
0
41
1
10
6.8860557291593
20
0.277518752525026
30
0
41
1
10
6.7062467249296
20
0.904698832114406
30
0
41
1
10
6.6306886252074
20
1.22598643807984
30
0
41
1
10
6.50487593122062
20
1.86477197709678
30
0
41
1
10
6.45411431892404
20
2.18369261965435
30
0
41
1
10
6.32852488685393
20
3.13813057785356
30
0
41
1
10
6.27999586391496
20
3.77130470680825
30
0
41
1
10
6.24205761722556
20
4.55648155182794
30
0
41
1
10
6.23563834658117
20
4.71340960371327
30
0
41
1
10
6.22479763402202
20
5.02478728174583
30
0
41
1
10
6.22036525194753
20
5.17940460868485
30
0
41
1
10
6.20942059445252
20
5.64008825303722
30
0
41
1
10
6.20523883055131
20
5.94298989206976
30
0
41
1
10
6.20284347309342
20
6.24174498785507
30
0
0
SPLINE
5
1C3
100
AcDbEntity
8
1
62
256
6
ByLayer
370
-1
48
1
60
0
100
AcDbSpline
70
4
71
3
72
8
73
4
40
0
40
0
40
0
40
0
40
1
40
1
40
1
40
1
41
1
10
71.2861852118606
20
7.93361421200214
30
0
41
1
10
71.5393637871965
20
7.95987778403747
30
0
41
1
10
71.7927017121164
20
7.98128450125182
30
0
41
1
10
72.0462566072661
20
7.99833053979958
30
0
0
SPLINE
5
1C4
100
AcDbEntity
8
1
62
256
6
ByLayer
370
-1
48
1
60
0
100
AcDbSpline
70
4
71
3
72
10
73
6
40
0
40
0
40
0
40
0
40
0.5
40
0.5
40
1
40
1
40
1
40
1
41
1
10
9.39640858732355
20
-0.0154078527104389
30
0
41
1
10
10.4291904388877
20
-0.77528356921772
30
0
41
1
10
11.4530825074805
20
-1.54269322010015
30
0
41
1
10
13.472484179855
20
-3.09141929612019
30
0
41
1
10
14.4679305505235
20
-3.87280232560826
30
0
41
1
10
15.4464966859038
20
-4.65542987958921
30
0
0
SPLINE
5
1C5
100
AcDbEntity
8
1
62
256
6
ByLayer
370
-1
48
1
60
0
100
AcDbSpline
70
4
71
3
72
14
73
10
40
0
40
0
40
0
40
0
40
0.500000000000015
40
0.500000000000015
40
0.625000000000015
40
0.625000000000015
40
0.750000000000015
40
0.750000000000015
40
1
40
1
40
1
40
1
41
1
10
83.1968994859876
20
0.0365421823768486
30
0
41
1
10
82.7401885650918
20
0.0099597546673351
30
0
41
1
10
82.2892931762397
20
0.0367570591994877
30
0
41
1
10
81.7328139755186
20
0.135774299366233
30
0
41
1
10
81.6218801220911
20
0.158899273364312
30
0
41
1
10
81.4007536086225
20
0.211948825022318
30
0
41
1
10
81.2902969972654
20
0.241958584007591
30
0
41
1
10
80.9623639205906
20
0.341821998852424
30
0
41
1
10
80.7484321502703
20
0.421349428865341
30
0
41
1
10
80.5392743329079
20
0.514033283397339
30
0
0
SPLINE
5
1C6
100
AcDbEntity
8
1
62
256
6
ByLayer
370
-1
48
1
60
0
100
AcDbSpline
70
4
71
3
72
48
73
44
40
0
40
0
40
0
40
0
40
0.125
40
0.125
40
0.15625
40
0.15625
40
0.187500000000001
40
0.187500000000001
40
0.250000000000001
40
0.250000000000001
40
0.281250000000001
40
0.281250000000001
40
0.312500000000002
40
0.312500000000002
40
0.375000000000002
40
0.375000000000002
40
0.437500000000002
40
0.437500000000002
40
0.468750000000003
40
0.468750000000003
40
0.500000000000003
40
0.500000000000003
40
0.562500000000002
40
0.562500000000002
40
0.593750000000002
40
0.593750000000002
40
0.625000000000002
40
0.625000000000002
40
0.687500000000001
40
0.687500000000001
40
0.718750000000001
40
0.718750000000001
40
0.750000000000001
40
0.750000000000001
40
0.812500000000001
40
0.812500000000001
40
0.84375
40
0.84375
40
0.875
40
0.875
40
0.9375
40
0.9375
40
1
40
1
40
1
40
1
41
1
10
12.2349574925794
20
11.4921027952956
30
0
41
1
10
11.7466620724079
20
11.7521760390046
30
0
41
1
10
11.2436966036805
20
11.9515165145734
30
0
41
1
10
10.5971616742408
20
12.1212947443329
30
0
41
1
10
10.4664947908235
20
12.1513001648702
30
0
41
1
10
10.2054638186047
20
12.2024423782326
30
0
41
1
10
10.0757082368777
20
12.2234931370166
30
0
41
1
10
9.6887737301706
20
12.2732727917959
30
0
41
1
10
9.43391582750596
20
12.2887014523863
30
0
41
1
10
9.05666849166229
20
12.2847000090996
30
0
41
1
10
8.93176190170561
20
12.2788247270407
30
0
41
1
10
8.68373722718974
20
12.2576695692927
30
0
41
1
10
8.56001743254862
20
12.2422735075448
30
0
41
1
10
8.19730120651641
20
12.1822312037463
30
0
41
1
10
7.96645737648046
20
12.124039750064
30
0
41
1
10
7.52663661558768
20
11.9719502720046
30
0
41
1
10
7.31765203458789
20
11.8780627998757
30
0
41
1
10
7.02162385294468
20
11.7088957749448
30
0
41
1
10
6.92683218006209
20
11.6482765034172
30
0
41
1
10
6.74633332546657
20
11.5197311384189
30
0
41
1
10
6.66037450643731
20
11.4516622077317
30
0
41
1
10
6.41517574838898
20
11.2362153040113
30
0
41
1
10
6.26854180692496
20
11.0776671139354
30
0
41
1
10
6.07436106474523
20
10.8168007395554
30
0
41
1
10
6.0142295985442
20
10.726273396743
30
0
41
1
10
5.90460326649895
20
10.5408044702349
30
0
41
1
10
5.85483175865807
20
10.4455026150771
30
0
41
1
10
5.72019302780132
20
10.1520519961832
30
0
41
1
10
5.64992672245339
20
9.94639962620926
30
0
41
1
10
5.5734311611489
20
9.62272821543232
30
0
41
1
10
5.55286387686505
20
9.51247573733741
30
0
41
1
10
5.52182706452203
20
9.29050964342122
30
0
41
1
10
5.51124668977326
20
9.17836272522342
30
0
41
1
10
5.49373777821998
20
8.83848811158322
30
0
41
1
10
5.50097535761066
20
8.60734292750504
30
0
41
1
10
5.53922166930238
20
8.25369350577259
30
0
41
1
10
5.5566291495937
20
8.13438193346454
30
0
41
1
10
5.59992484609063
20
7.89672263127437
30
0
41
1
10
5.6258333217813
20
7.77800424246934
30
0
41
1
10
5.71576222712736
20
7.42210394425987
30
0
41
1
10
5.79193327668585
20
7.18517505801753
30
0
41
1
10
5.9751044827226
20
6.71163774281646
30
0
41
1
10
6.08282250264813
20
6.47393205007572
30
0
41
1
10
6.20284347309334
20
6.2417449878553
30
0
0
SPLINE
5
1C7
100
AcDbEntity
8
1
62
256
6
ByLayer
370
-1
48
1
60
0
100
AcDbSpline
70
4
71
3
72
12
73
8
40
0
40
0
40
0
40
0
40
0.499999999999998
40
0.499999999999998
40
0.749999999999999
40
0.749999999999999
40
1
40
1
40
1
40
1
41
1
10
15.4464966859038
20
-4.65542987958924
30
0
41
1
10
15.7552546356408
20
-4.96660680726924
30
0
41
1
10
16.1023251514277
20
-5.25956486709916
30
0
41
1
10
16.6708624481606
20
-5.68723894839806
30
0
41
1
10
16.8684710676611
20
-5.82767121817938
30
0
41
1
10
17.2796772927693
20
-6.10502189470509
30
0
41
1
10
17.494096448219
20
-6.24241374644348
30
0
41
1
10
17.7136064954057
20
-6.37582906731913
30
0
0
SPLINE
5
1C8
100
AcDbEntity
8
1
62
256
6
ByLayer
370
-1
48
1
60
0
100
AcDbSpline
70
4
71
3
72
8
73
4
40
0
40
0
40
0
40
0
40
1
40
1
40
1
40
1
41
1
10
85.5802075614807
20
7.6931156576245
30
0
41
1
10
85.5819479921772
20
7.6931156576245
30
0
41
1
10
85.5846409137531
20
7.69414612921915
30
0
41
1
10
85.5882728282373
20
7.69617690000308
30
0
0
SPLINE
5
1C9
100
AcDbEntity
8
1
62
256
6
ByLayer
370
-1
48
1
60
0
100
AcDbSpline
70
4
71
3
72
8
73
4
40
0
40
0
40
0
40
0
40
1
40
1
40
1
40
1
41
1
10
65.6170856220679
20
8.58529994512006
30
0
41
1
10
66.3084834740994
20
8.21424814973378
30
0
41
1
10
67.0116036379626
20
7.84804783280748
30
0
41
1
10
67.7242394368113
20
7.48578572353412
30
0
0
SPLINE
5
1CA
100
AcDbEntity
8
1
62
256
6
ByLayer
370
-1
48
1
60
0
100
AcDbSpline
70
4
71
1
72
4
73
2
40
0
40
0
40
1
40
1
41
1
10
20.6349574925791
20
2.7666235650891
30
0
41
1
10
20.6349574925792
20
6.91721419564112
30
0
0
SPLINE
5
1CB
100
AcDbEntity
8
1
62
256
6
ByLayer
370
-1
48
1
60
0
100
AcDbSpline
70
4
71
4
72
19
73
14
40
0
40
0
40
0
40
0
40
0
40
0.483450164971717
40
0.483450164971717
40
0.483450164971717
40
0.725175247457576
40
0.725175247457576
40
0.725175247457576
40
0.966900329943434
40
0.966900329943434
40
0.966900329943434
40
1
40
1
40
1
40
1
40
1
41
1
10
20.634957492582
20
2.76662356508845
30
0
41
1
10
20.634957492582
20
2.02385634310994
30
0
41
0.974581796258695
10
20.5410933006437
20
0.809269675731275
30
0
41
0.974581796258695
10
20.2983805461506
20
-0.758053324754896
30
0
41
0.987290898129347
10
19.8586233368111
20
-2.95136047255176
30
0
41
0.993645449064674
10
19.7024772712485
20
-3.64266086977821
30
0
41
1
10
19.5455411362493
20
-4.25959442356452
30
0
41
1
10
19.254458863756
20
-5.29493921767323
30
0
41
0.993645449064674
10
19.0975227287568
20
-5.79441175064112
30
0
41
0.987290898129347
10
18.9413766631941
20
-6.21389707537645
30
0
41
0.982474440605619
10
18.7760576226919
20
-6.5654016384484
30
0
41
0.981934066555334
10
18.756279552351
20
-6.60579424793524
30
0
41
0.981438847067059
10
18.7367489060454
20
-6.64397871332158
30
0
41
0.980992731153716
10
18.7174925493167
20
-6.67988697811191
30
0
0
SPLINE
5
1CC
100
AcDbEntity
8
1
62
256
6
ByLayer
370
-1
48
1
60
0
100
AcDbSpline
70
4
71
3
72
30
73
26
40
0
40
0
40
0
40
0
40
0.125
40
0.125
40
0.249999999999999
40
0.249999999999999
40
0.312499999999999
40
0.312499999999999
40
0.374999999999999
40
0.374999999999999
40
0.499999999999999
40
0.499999999999999
40
0.624999999999999
40
0.624999999999999
40
0.687499999999999
40
0.687499999999999
40
0.749999999999999
40
0.749999999999999
40
0.812499999999999
40
0.812499999999999
40
0.843749999999999
40
0.843749999999999
40
0.874999999999999
40
0.874999999999999
40
1
40
1
40
1
40
1
41
1
10
7.54649668590366
20
-1.20203999402162
30
0
41
1
10
7.84231155072413
20
-1.56419195315391
30
0
41
1
10
8.14199673063118
20
-1.91434932321411
30
0
41
1
10
8.75090652465082
20
-2.5892845299353
30
0
41
1
10
9.06012124666611
20
-2.91407393902185
30
0
41
1
10
9.53298760024623
20
-3.38022375658662
30
0
41
1
10
9.6921236619506
20
-3.53209029598659
30
0
41
1
10
10.0138421477603
20
-3.82829197703623
30
0
41
1
10
10.1768899216525
20
-3.97301983829567
30
0
41
1
10
10.6684161527941
20
-4.39195287677168
30
0
41
1
10
10.9978304277116
20
-4.64990932213971
30
0
41
1
10
11.6628974931947
20
-5.11961848084565
30
0
41
1
10
11.9985302966282
20
-5.33141805957635
30
0
41
1
10
12.5093646830849
20
-5.60947690811579
30
0
41
1
10
12.681290655423
20
-5.6957107453303
30
0
41
1
10
13.0263724645665
20
-5.85277295248108
30
0
41
1
10
13.1985974426938
20
-5.92321217674163
30
0
41
1
10
13.542784783386
20
-6.04714646969208
30
0
41
1
10
13.7147466422244
20
-6.10064421981272
30
0
41
1
10
13.9727803425068
20
-6.16735782837674
30
0
41
1
10
14.0588068949657
20
-6.18733727140037
30
0
41
1
10
14.2309415261384
20
-6.22260101777152
30
0
41
1
10
14.3170312291135
20
-6.23714309936017
30
0
41
1
10
14.7486730360824
20
-6.32509757826898
30
0
41
1
10
15.0971962622509
20
-6.43285564366604
30
0
41
1
10
15.4464966859038
20
-6.56672528822818
30
0
0
SPLINE
5
1CD
100
AcDbEntity
8
1
62
256
6
ByLayer
370
-1
48
1
60
0
100
AcDbSpline
70
4
71
3
72
16
73
12
40
0
40
0
40
0
40
0
40
0.0817245973271467
40
0.0817245973271467
40
0.387816398218098
40
0.387816398218098
40
0.693908199109049
40
0.693908199109049
40
0.846954099554524
40
0.846954099554524
40
1
40
1
40
1
40
1
41
1
10
45.4621690719328
20
11.5499936942661
30
0
41
1
10
45.9595679074476
20
11.549935765529
30
0
41
1
10
46.4565655581039
20
11.5446382517751
30
0
41
1
10
48.8135259125291
20
11.4946900402676
30
0
41
1
10
50.6697095138742
20
11.3818333036291
30
0
41
1
10
54.3846653913503
20
11.0145608541786
30
0
41
1
10
56.2434799411127
20
10.7603596010651
30
0
41
1
10
59.0400053754119
20
10.2778991280933
30
0
41
1
10
59.9735422427509
20
10.100183873732
30
0
41
1
10
61.8446497141326
20
9.71211932722812
30
0
41
1
10
62.7831570046144
20
9.501523694073
30
0
41
1
10
63.7202683589679
20
9.27636674594936
30
0
0
SPLINE
5
1CE
100
AcDbEntity
8
1
62
256
6
ByLayer
370
-1
48
1
60
0
100
AcDbSpline
70
4
71
3
72
8
73
4
40
0
40
0
40
0
40
0
40
1
40
1
40
1
40
1
41
1
10
12.2349574925794
20
7.10413528166518
30
0
41
1
10
12.2349574925794
20
8.56679111954196
30
0
41
1
10
12.2349574925794
20
10.0294469574188
30
0
41
1
10
12.2349574925794
20
11.4921027952956
30
0
0
SPLINE
5
1CF
100
AcDbEntity
8
1
62
256
6
ByLayer
370
-1
48
1
60
0
100
AcDbSpline
70
4
71
3
72
8
73
4
40
0
40
0
40
0
40
0
40
1
40
1
40
1
40
1
41
1
10
9.39640820100584
20
-0.0154087711320869
30
0
41
1
10
9.12637147158759
20
0.208916631436494
30
0
41
1
10
8.8677473131182
20
0.455156030766943
30
0
41
1
10
8.61941012624715
20
0.722574436787085
30
0
0
SPLINE
5
1D0
100
AcDbEntity
8
1
62
256
6
ByLayer
370
-1
48
1
60
0
100
AcDbSpline
70
4
71
3
72
30
73
26
40
0
40
0
40
0
40
0
40
0.144216359774756
40
0.144216359774756
40
0.25118931480291
40
0.25118931480291
40
0.304675792316987
40
0.304675792316987
40
0.358162269831064
40
0.358162269831064
40
0.572108179887375
40
0.572108179887375
40
0.679081134915529
40
0.679081134915529
40
0.786054089943684
40
0.786054089943684
40
0.893027044971839
40
0.893027044971839
40
0.946513522485916
40
0.946513522485916
40
0.973256761242957
40
0.973256761242957
40
0.986628380621478
40
0.986628380621478
40
1
40
1
40
1
40
1
41
1
10
76.1533493295628
20
3.24365269230566
30
0
41
1
10
76.1904375159203
20
3.39035886017615
30
0
41
1
10
76.224580731942
20
3.54866656917076
30
0
41
1
10
76.2785075034705
20
3.84408655727583
30
0
41
1
10
76.2997080675803
20
3.97615945896089
30
0
41
1
10
76.3285429499921
20
4.18388052098041
30
0
41
1
10
76.3376800609636
20
4.25492125570537
30
0
41
1
10
76.3547350951281
20
4.39892730701882
30
0
41
1
10
76.3626658888274
20
4.47195363079194
30
0
41
1
10
76.3992512414974
20
4.8420929793171
30
0
41
1
10
76.4189515067388
20
5.15410976566491
30
0
41
1
10
76.4300041247038
20
5.64545756291997
30
0
41
1
10
76.4305553395413
20
5.81379236554895
30
0
41
1
10
76.4236955787246
20
6.15516712220338
30
0
41
1
10
76.4163974560324
20
6.32774469957087
30
0
41
1
10
76.390672456259
20
6.67621162109882
30
0
41
1
10
76.3727290555323
20
6.8521617408397
30
0
41
1
10
76.3292866226291
20
7.11456500626664
30
0
41
1
10
76.3121059365324
20
7.2021009458758
30
0
41
1
10
76.2770672647947
20
7.33073484232744
30
0
41
1
10
76.2638425865401
20
7.37328392467381
30
0
41
1
10
76.2390155306161
20
7.43536534506092
30
0
41
1
10
76.2299548738992
20
7.45560753776695
30
0
41
1
10
76.2090891851481
20
7.49447240820282
30
0
41
1
10
76.1974269695164
20
7.51318169464645
30
0
41
1
10
76.1826144714562
20
7.53000000000037
30
0
0
SPLINE
5
1D1
100
AcDbEntity
8
1
62
256
6
ByLayer
370
-1
48
1
60
0
100
AcDbSpline
70
4
71
3
72
8
73
4
40
0
40
0
40
0
40
0
40
1
40
1
40
1
40
1
41
1
10
17.7136064065903
20
-6.37582934394254
30
0
41
1
10
17.77615779657
20
-6.40610618537889
30
0
41
1
10
17.8398749202494
20
-6.43502961537544
30
0
41
1
10
17.9043229168095
20
-6.46235949328064
30
0
0
SPLINE
5
1D2
100
AcDbEntity
8
1
62
256
6
ByLayer
370
-1
48
1
60
0
100
AcDbSpline
70
4
71
3
72
38
73
34
40
0
40
0
40
0
40
0
40
0.0624999999999991
40
0.0624999999999991
40
0.124999999999998
40
0.124999999999998
40
0.187499999999997
40
0.187499999999997
40
0.249999999999997
40
0.249999999999997
40
0.281249999999996
40
0.281249999999996
40
0.312499999999996
40
0.312499999999996
40
0.374999999999996
40
0.374999999999996
40
0.437499999999996
40
0.437499999999996
40
0.499999999999996
40
0.499999999999996
40
0.562499999999997
40
0.562499999999997
40
0.624999999999997
40
0.624999999999997
40
0.687499999999998
40
0.687499999999998
40
0.749999999999998
40
0.749999999999998
40
0.812499999999999
40
0.812499999999999
40
0.874999999999999
40
0.874999999999999
40
1
40
1
40
1
40
1
41
1
10
85.3282563493954
20
1.57738773138965
30
0
41
1
10
85.415998603218
20
1.59842107551614
30
0
41
1
10
85.499079874097
20
1.62093172619203
30
0
41
1
10
85.652233366926
20
1.66778665961692
30
0
41
1
10
85.7229386659993
20
1.69227874862915
30
0
41
1
10
85.8524312422031
20
1.74342392566996
30
0
41
1
10
85.9113998071761
20
1.77023702280059
30
0
41
1
10
86.0133305456578
20
1.82431513583364
30
0
41
1
10
86.0568527061038
20
1.8517649866327
30
0
41
1
10
86.1110168601564
20
1.89355343058335
30
0
41
1
10
86.1272107839645
20
1.90758561002994
30
0
41
1
10
86.1557894027865
20
1.93586020209707
30
0
41
1
10
86.1681770665404
20
1.95013083937172
30
0
41
1
10
86.1989639497706
20
1.9925387203256
30
0
41
1
10
86.2112907486361
20
2.0205036798379
30
0
41
1
10
86.2199172849735
20
2.07583347556084
30
0
41
1
10
86.2161867126796
20
2.10326772199738
30
0
41
1
10
86.1921022288637
20
2.15721914428286
30
0
41
1
10
86.1720369386669
20
2.18318894513078
30
0
41
1
10
86.1165053525037
20
2.23319760615465
30
0
41
1
10
86.081037645899
20
2.25723628946818
30
0
41
1
10
85.9942941695856
20
2.30333167956408
30
0
41
1
10
85.943328714042
20
2.32514686889002
30
0
41
1
10
85.8288944561241
20
2.36543832274538
30
0
41
1
10
85.765142264158
20
2.38407098184354
30
0
41
1
10
85.6244631079791
20
2.4182859355634
30
0
41
1
10
85.5471215062291
20
2.43389311961323
30
0
41
1
10
85.3841101356387
20
2.4610295387352
30
0
41
1
10
85.2979305584308
20
2.4727087831468
30
0
41
1
10
85.1162987616913
20
2.49231971029766
30
0
41
1
10
85.0200053605997
20
2.50029142364181
30
0
41
1
10
84.7236573497976
20
2.51788245018616
30
0
41
1
10
84.5166812378034
20
2.52145957290384
30
0
41
1
10
84.300850828621
20
2.51672184940375
30
0
0
SPLINE
5
1D3
100
AcDbEntity
8
1
62
256
6
ByLayer
370
-1
48
1
60
0
100
AcDbSpline
70
4
71
3
72
28
73
24
40
0
40
0
40
0
40
0
40
0.136908939640925
40
0.136908939640925
40
0.273817879281849
40
0.273817879281849
40
0.410726818922774
40
0.410726818922774
40
0.479181288743237
40
0.479181288743237
40
0.513408523653468
40
0.513408523653468
40
0.547635758563699
40
0.547635758563699
40
0.684544698204623
40
0.684544698204623
40
0.821453637845548
40
0.821453637845548
40
0.958362577486473
40
0.958362577486473
40
0.992589812396704
40
0.992589812396704
40
1
40
1
40
1
40
1
41
1
10
19
20
-7.71477263358659
30
0
41
1
10
21.0381344486555
20
-8.32915965837137
30
0
41
1
10
23.0646887834996
20
-8.8813745214305
30
0
41
1
10
27.1084266964441
20
-9.84101631666431
30
0
41
1
10
29.1256992569041
20
-10.2484357181328
30
0
41
1
10
33.1632848297042
20
-10.9045958901579
30
0
41
1
10
35.1834373852671
20
-11.1534302292347
30
0
41
1
10
38.2254937116811
20
-11.3989816170514
30
0
41
1
10
39.2414844486019
20
-11.4595849021204
30
0
41
1
10
40.7695916836724
20
-11.5178190267363
30
0
41
1
10
41.279509205345
20
-11.5317695954728
30
0
41
1
10
42.297182969905
20
-11.5486669931203
30
0
41
1
10
42.8053972883271
20
-11.551634019101
30
0
41
1
10
45.3437834273618
20
-11.5392290901151
30
0
41
1
10
47.3656369900489
20
-11.4419128783817
30
0
41
1
10
51.4049008107343
20
-11.0785776084742
30
0
41
1
10
53.4224782453034
20
-10.8127013547602
30
0
41
1
10
57.466249742469
20
-10.1233135282795
30
0
41
1
10
59.4921969297197
20
-9.69960610734137
30
0
41
1
10
62.0371994823579
20
-9.0789346949683
30
0
41
1
10
62.5471461107822
20
-8.95018741367792
30
0
41
1
10
63.1669872054321
20
-8.78859497367318
30
0
41
1
10
63.2772879604965
20
-8.75964333173118
30
0
41
1
10
63.3875778035817
20
-8.73050048462093
30
0
0
SPLINE
5
1D4
100
AcDbEntity
8
1
62
256
6
ByLayer
370
-1
48
1
60
0
100
AcDbSpline
70
4
71
3
72
18
73
14
40
0
40
0
40
0
40
0
40
0.0634578169634313
40
0.0634578169634313
40
0.375638544642319
40
0.375638544642319
40
0.53172890848174
40
0.53172890848174
40
0.68781927232116
40
0.68781927232116
40
0.84390963616058
40
0.84390963616058
40
1
40
1
40
1
40
1
41
1
10
87.9723978885749
20
2.92171984964881
30
0
41
1
10
87.9646463918444
20
2.91540380957514
30
0
41
1
10
87.9568987841945
20
2.90921327503497
30
0
41
1
10
87.9110844003358
20
2.87329362459602
30
0
41
1
10
87.8728708672453
20
2.84621301578377
30
0
41
1
10
87.8185170049063
20
2.81094560549352
30
0
41
1
10
87.8009883141443
20
2.8001340553601
30
0
41
1
10
87.7677816304916
20
2.78058273841984
30
0
41
1
10
87.752053173492
20
2.77182376472626
30
0
41
1
10
87.7245582349646
20
2.75730826812574
30
0
41
1
10
87.7126546667132
20
2.75146501069017
30
0
41
1
10
87.6942209570209
20
2.7432805703705
30
0
41
1
10
87.6878846790455
20
2.74103966375498
30
0
41
1
10
87.6853811671495
20
2.74103966375498
30
0
0
SPLINE
5
1D5
100
AcDbEntity
8
1
62
256
6
ByLayer
370
-1
48
1
60
0
100
AcDbSpline
70
4
71
3
72
16
73
12
40
0
40
0
40
0
40
0
40
0.422431155838912
40
0.422431155838912
40
0.528038944798639
40
0.528038944798639
40
0.633646733758366
40
0.633646733758366
40
0.844862311677821
40
0.844862311677821
40
1
40
1
40
1
40
1
41
1
10
89.2418873939004
20
7.17835255386743
30
0
41
1
10
89.2617553269694
20
6.9881583775873
30
0
41
1
10
89.3136613143408
20
6.79967137277001
30
0
41
1
10
89.4251198886905
20
6.56867936864393
30
0
41
1
10
89.4499217931501
20
6.52256132710565
30
0
41
1
10
89.5037357948599
20
6.43257218210982
30
0
41
1
10
89.5328091290834
20
6.38853512845603
30
0
41
1
10
89.6267392254549
20
6.25950797500994
30
0
41
1
10
89.6982283290266
20
6.17755818527806
30
0
41
1
10
89.8398982358945
20
6.04417097771156
30
0
41
1
10
89.9042050112236
20
5.99160162606964
30
0
41
1
10
89.9725232061488
20
5.94357585443916
30
0
0
SPLINE
5
1D6
100
AcDbEntity
8
1
62
256
6
ByLayer
370
-1
48
1
60
0
100
AcDbSpline
70
4
71
3
72
10
73
6
40
0
40
0
40
0
40
0
40
0.111901815976448
40
0.111901815976448
40
1
40
1
40
1
40
1
41
1
10
89.2396520039081
20
7.49556095940528
30
0
41
1
10
89.2385851283963
20
7.48391657843177
30
0
41
1
10
89.2376452274923
20
7.47224463481069
30
0
41
1
10
89.2303880774204
20
7.36771753178073
30
0
41
1
10
89.231953427366
20
7.27344964200748
30
0
41
1
10
89.2418873939004
20
7.17835255386743
30
0
0
SPLINE
5
1D7
100
AcDbEntity
8
1
62
256
6
ByLayer
370
-1
48
1
60
0
100
AcDbSpline
70
4
71
3
72
8
73
4
40
0
40
0
40
0
40
0
40
1
40
1
40
1
40
1
41
1
10
84.6965494273283
20
-11.5419459156438
30
0
41
1
10
84.7697620228799
20
-11.5425852796251
30
0
41
1
10
84.8425925033232
20
-11.5432426896796
30
0
41
1
10
84.9150407491002
20
-11.5438964865012
30
0
0
SPLINE
5
1D8
100
AcDbEntity
8
1
62
256
6
ByLayer
370
-1
48
1
60
0
100
AcDbSpline
70
4
71
3
72
30
73
26
40
0
40
0
40
0
40
0
40
0.0908327139005349
40
0.0908327139005349
40
0.18166542780107
40
0.18166542780107
40
0.272498141701605
40
0.272498141701605
40
0.36333085560214
40
0.36333085560214
40
0.454163569502675
40
0.454163569502675
40
0.544996283403209
40
0.544996283403209
40
0.635828997303744
40
0.635828997303744
40
0.726661711204279
40
0.726661711204279
40
0.817494425104814
40
0.817494425104814
40
0.908327139005349
40
0.908327139005349
40
0.999159852905884
40
0.999159852905884
40
1
40
1
40
1
40
1
41
1
10
20.634957492582
20
2.76662356508845
30
0
41
1
10
20.4806730618286
20
2.62452161359695
30
0
41
1
10
20.3193669780337
20
2.45743664534859
30
0
41
1
10
19.9881733085328
20
2.07895815182761
30
0
41
1
10
19.8182921057603
20
1.86757192078557
30
0
41
1
10
19.4757131208178
20
1.40766300194127
30
0
41
1
10
19.3030219410048
20
1.15914917773833
30
0
41
1
10
18.9606835088192
20
0.633417447315026
30
0
41
1
10
18.7910428541676
20
0.356209673264743
30
0
41
1
10
18.4605626794634
20
-0.217503471353638
30
0
41
1
10
18.2997295285933
20
-0.513997785029346
30
0
41
1
10
17.9923228905388
20
-1.11622263409305
30
0
41
1
10
17.8457553278519
20
-1.42194156309654
30
0
41
1
10
17.5718544748173
20
-2.03224082468483
30
0
41
1
10
17.4445264632267
20
-2.33680939527091
30
0
41
1
10
17.2134265807219
20
-2.93447176165958
30
0
41
1
10
17.1096591636826
20
-3.22755403900817
30
0
41
1
10
16.9292029300175
20
-3.7922970521237
30
0
41
1
10
16.8525175912364
20
-4.06394690387526
30
0
41
1
10
16.7288290259229
20
-4.5766052671724
30
0
41
1
10
16.6818281831797
20
-4.81760389850447
30
0
41
1
10
16.6191048202789
20
-5.26077987649845
30
0
41
1
10
16.6033835089581
20
-5.4629486820468
30
0
41
1
10
16.6035704417697
20
-5.64393426308141
30
0
41
1
10
16.6035735157603
20
-5.64559097272831
30
0
41
1
10
16.6035779503575
20
-5.64724572553672
30
0
0
SPLINE
5
1D9
100
AcDbEntity
8
1
62
256
6
ByLayer
370
-1
48
1
60
0
100
AcDbSpline
70
4
71
3
72
10
73
6
40
0
40
0
40
0
40
0
40
0.858526449399856
40
0.858526449399856
40
1
40
1
40
1
40
1
41
1
10
76.1826144755979
20
7.52999999999992
30
0
41
1
10
76.1631221810063
20
7.5521318092978
30
0
41
1
10
76.1435980042259
20
7.57426450861283
30
0
41
1
10
76.1208203369686
20
7.60004432016629
30
0
41
1
10
76.117597051845
20
7.60369148518581
30
0
41
1
10
76.114372922689
20
7.60733864948119
30
0
0
SPLINE
5
1DA
100
AcDbEntity
8
1
62
256
6
ByLayer
370
-1
48
1
60
0
100
AcDbSpline
70
4
71
2
72
6
73
3
40
0
40
0
40
0
40
1
40
1
40
1
41
1
10
17.9043229108854
20
-6.46235951616205
30
0
41
1
10
17.9043229108854
20
-6.96094100517701
30
0
41
1
10
17.9043229108854
20
-7.45952249419193
30
0
0
SPLINE
5
1DB
100
AcDbEntity
8
1
62
256
6
ByLayer
370
-1
48
1
60
0
100
AcDbSpline
70
4
71
3
72
8
73
4
40
0
40
0
40
0
40
0
40
1
40
1
40
1
40
1
41
1
10
76.1143729226432
20
7.52999999999989
30
0
41
1
10
76.105194843289
20
7.52933435854303
30
0
41
1
10
76.0960166086496
20
7.52866786618728
30
0
41
1
10
76.0868382203494
20
7.52800051793889
30
0
0
SPLINE
5
1DC
100
AcDbEntity
8
1
62
256
6
ByLayer
370
-1
48
1
60
0
100
AcDbSpline
70
4
71
4
72
10
73
5
40
0
40
0
40
0
40
0
40
0
40
1
40
1
40
1
40
1
40
1
41
1
10
76.1143729226508
20
8.19337377310785
30
0
41
1
10
76.1143729226593
20
8.9856793202419
30
0
41
1
10
76.1143729226659
20
9.77798486737595
30
0
41
1
10
76.114372922671
20
10.57029041451
30
0
41
1
10
76.114372922675
20
11.362595961644
30
0
0
SPLINE
5
1DD
100
AcDbEntity
8
1
62
256
6
ByLayer
370
-1
48
1
60
0
100
AcDbSpline
70
4
71
4
72
10
73
5
40
0
40
0
40
0
40
0
40
0
40
1
40
1
40
1
40
1
40
1
41
0.978676988425584
10
75.622133409854
20
3.47177552912494
30
0
41
0.977466521631179
10
75.8661659223802
20
4.28251052054174
30
0
41
0.984124892626726
10
76.0431826485446
20
5.34084896800169
30
0
41
1
10
76.1143729226432
20
6.50549909969186
30
0
41
1
10
76.1143729226432
20
7.52999999999989
30
0
0
SPLINE
5
1DE
100
AcDbEntity
8
1
62
256
6
ByLayer
370
-1
48
1
60
0
100
AcDbSpline
70
4
71
3
72
8
73
4
40
0
40
0
40
0
40
0
40
1
40
1
40
1
40
1
41
1
10
7.54649668590363
20
1.99494200655997
30
0
41
1
10
7.88570355406222
20
1.55037700531002
30
0
41
1
10
8.24387589915301
20
1.12696318613536
30
0
41
1
10
8.6194101262524
20
0.722574436781457
30
0
0
SPLINE
5
1DF
100
AcDbEntity
8
1
62
256
6
ByLayer
370
-1
48
1
60
0
100
AcDbSpline
70
4
71
3
72
29
73
25
40
0
40
0
40
0
40
0
40
0.022872822145336
40
0.0771576653594839
40
0.131442508573632
40
0.18572735178778
40
0.240012195001928
40
0.294297038216076
40
0.321439459823149
40
0.348581881430224
40
0.402866724644372
40
0.45715156785852
40
0.511436411072668
40
0.538578832679742
40
0.565721254286816
40
0.620006097500964
40
0.674290940715112
40
0.72857578392926
40
0.782860627143408
40
0.837145470357556
40
0.86428789196463
40
0.891430313571704
40
0.945715156785852
40
1
40
1
40
1
40
1
41
1
10
38.0766353439563
20
0.369654104835377
30
0
41
1
10
37.9436414909833
20
0.389668919913703
30
0
41
1
10
37.4950231849938
20
0.457143560499731
30
0
41
1
10
36.7308675323191
20
0.571798679411956
30
0
41
1
10
35.7843070648168
20
0.712977275752991
30
0
41
1
10
34.8378153603417
20
0.853338731795077
30
0
41
1
10
33.8910848512085
20
0.992967541534284
30
0
41
1
10
33.1019605683229
20
1.10880824674663
30
0
41
1
10
32.470760362378
20
1.20098935909903
30
0
41
1
10
31.8397602502519
20
1.29255091502765
30
0
41
1
10
31.0510699535473
20
1.40589808932271
30
0
41
1
10
30.1042966050692
20
1.54032082071689
30
0
41
1
10
29.3150528180565
20
1.65102257058496
30
0
41
1
10
28.6837542591446
20
1.73866544811236
30
0
41
1
10
28.0526836354123
20
1.82545749091423
30
0
41
1
10
27.263783402387
20
1.93254568997028
30
0
41
1
10
26.3163478382323
20
2.05912259432037
30
0
41
1
10
25.3686827882835
20
2.18370162247177
30
0
41
1
10
24.4215304045042
20
2.30589749212868
30
0
41
1
10
23.6326877017612
20
2.40558424444265
30
0
41
1
10
23.0018862679312
20
2.48388723583713
30
0
41
1
10
22.371301194354
20
2.56106644728271
30
0
41
1
10
21.5826880470328
20
2.65574592373972
30
0
41
1
10
20.9510019922678
20
2.72993068844607
30
0
41
1
10
20.634957492582
20
2.76662356508845
30
0
0
SPLINE
5
1E0
100
AcDbEntity
8
1
62
256
6
ByLayer
370
-1
48
1
60
0
100
AcDbSpline
70
4
71
3
72
49
73
45
40
0
40
0
40
0
40
0
40
0.0336796893144197
40
0.0673593786288397
40
0.0841992232860494
40
0.101039067943259
40
0.134718757257679
40
0.15155860191489
40
0.1683984465721
40
0.202078135886519
40
0.218917980543729
40
0.235757825200939
40
0.269437514515359
40
0.286277359172569
40
0.303117203829779
40
0.336796893144199
40
0.353636737801409
40
0.370476582458619
40
0.404156271773038
40
0.420996116430249
40
0.437835961087458
40
0.471515650401878
40
0.488355495059088
40
0.505195339716298
40
0.538875029030718
40
0.555714873687928
40
0.572554718345138
40
0.606234407659558
40
0.623074252316768
40
0.639914096973978
40
0.673593786288397
40
0.690433630945608
40
0.707273475602818
40
0.740953164917237
40
0.757793009574447
40
0.774632854231657
40
0.808312543546077
40
0.825152388203287
40
0.841992232860497
40
0.875671922174917
40
0.909351611489337
40
0.943031300803757
40
0.976710990118176
40
1
40
1
40
1
40
1
41
1
10
12.2349574925816
20
7.10413528167089
30
0
41
1
10
12.1979969133776
20
7.05314386512035
30
0
41
1
10
12.1225905280603
20
6.94806193701746
30
0
41
1
10
12.024767895958
20
6.8090309518841
30
0
41
1
10
11.9444600500933
20
6.69324051627444
30
0
41
1
10
11.8628299128514
20
6.57444506139794
30
0
41
1
10
11.7792826416602
20
6.45120019622391
30
0
41
1
10
11.6939508427535
20
6.32362215795769
30
0
41
1
10
11.6074883361069
20
6.19322138761407
30
0
41
1
10
11.5194182339561
20
6.0586855941304
30
0
41
1
10
11.4299174685128
20
5.92021292745872
30
0
41
1
10
11.3395356649873
20
5.77920943085817
30
0
41
1
10
11.2479414105079
20
5.63455031765881
30
0
41
1
10
11.1553529174132
20
5.4865168444498
30
0
41
1
10
11.062185921327
20
5.33635368348416
30
0
41
1
10
10.9682776548813
20
5.18317581925828
30
0
41
1
10
10.8738810863321
20
5.02734290852152
30
0
41
1
10
10.7792513934881
20
4.86988190141219
30
0
41
1
10
10.6844106298632
20
4.71019165169616
30
0
41
1
10
10.5896360267802
20
4.54869796327756
30
0
41
1
10
10.4950016083255
20
4.38615986164601
30
0
41
1
10
10.4007215832137
20
4.22229195907826
30
0
41
1
10
10.3070841842461
20
4.05756789334063
30
0
41
1
10
10.2139698962719
20
3.89243894781072
30
0
41
1
10
10.1217823151341
20
3.72695152607395
30
0
41
1
10
10.0308055215245
20
3.56160331509329
30
0
41
1
10
9.94072412853529
20
3.39651306136497
30
0
41
1
10
9.85211814987844
20
3.23205746863761
30
0
41
1
10
9.76525221235792
20
3.06873198715599
30
0
41
1
10
9.67962348041596
20
2.906315619456
30
0
41
1
10
9.59596632407315
20
2.7454964818551
30
0
41
1
10
9.51451227779239
20
2.58674169320668
30
0
41
1
10
9.43458950046306
20
2.42950163618758
30
0
41
1
10
9.35705741992609
20
2.27474142510403
30
0
41
1
10
9.28210362291176
20
2.1228765569391
30
0
41
1
10
9.20891437854382
20
1.9730573619552
30
0
41
1
10
9.13844050859245
20
1.82647984359556
30
0
41
1
10
9.07081910395152
20
1.68349033556586
30
0
41
1
10
9.00512736066756
20
1.5429814449628
30
0
41
1
10
8.92668333001316
20
1.37216263414635
30
0
41
1
10
8.83859163764882
20
1.17541940830637
30
0
41
1
10
8.75660683351174
20
0.987278702732965
30
0
41
1
10
8.68859105139333
20
0.826529732595844
30
0
41
1
10
8.648776616459
20
0.729875932738935
30
0
41
1
10
8.63298861717257
20
0.691104814367662
30
0
0
SPLINE
5
1E1
100
AcDbEntity
8
1
62
256
6
ByLayer
370
-1
48
1
60
0
100
AcDbSpline
70
4
71
3
72
14
73
10
40
0
40
0
40
0
40
0
40
0.25
40
0.25
40
0.5
40
0.5
40
0.75
40
0.75
40
1
40
1
40
1
40
1
41
1
10
85.4684768033853
20
11.5477206887829
30
0
41
1
10
85.4726748138136
20
11.5467735568981
30
0
41
1
10
85.4824200266302
20
11.545560733541
30
0
41
1
10
85.5125948136873
20
11.5427038528591
30
0
41
1
10
85.5333247751365
20
11.5410440419582
30
0
41
1
10
85.583622048058
20
11.5376099364713
30
0
41
1
10
85.6136208147116
20
11.5358029195358
30
0
41
1
10
85.6818691873856
20
11.5323092946466
30
0
41
1
10
85.7194848493478
20
11.5306517356903
30
0
41
1
10
85.7606405715686
20
11.5291859657735
30
0
0
SPLINE
5
1E2
100
AcDbEntity
8
1
62
256
6
ByLayer
370
-1
48
1
60
0
100
AcDbSpline
70
4
71
3
72
8
73
4
40
0
40
0
40
0
40
0
40
1
40
1
40
1
40
1
41
1
10
18.1907592112128
20
-6.5668508482471
30
0
41
1
10
18.0946317790527
20
-6.53454463959812
30
0
41
1
10
17.9991606335588
20
-6.4997062244565
30
0
41
1
10
17.9043229108854
20
-6.46235949076865
30
0
0
SPLINE
5
1E3
100
AcDbEntity
8
1
62
256
6
ByLayer
370
-1
48
1
60
0
100
AcDbSpline
70
4
71
3
72
20
73
16
40
0
40
0
40
0
40
0
40
0.0098199397469173
40
0.0174614009336107
40
0.0251028621202998
40
0.0403857844936805
40
0.0480272456803713
40
0.28491254246779
40
0.529439300441891
40
0.773966058415997
40
0.89622943740305
40
0.926795282149813
40
0.957361126896576
40
0.987926971643341
40
1
40
1
40
1
40
1
41
1
10
94.0625160555974
20
11.9275001368402
30
0
41
1
10
94.0608298686071
20
11.9275962343008
30
0
41
1
10
94.0578049889486
20
11.9277601223375
30
0
41
1
10
94.05335500762
20
11.9279978777465
30
0
41
1
10
94.0478564072359
20
11.9282890580456
30
0
41
1
10
94.0422792369157
20
11.9285818576496
30
0
41
1
10
93.9949147738889
20
11.9310690139488
30
0
41
1
10
93.9065735816293
20
11.9357183991483
30
0
41
1
10
93.7762394422722
20
11.9425810545374
30
0
41
1
10
93.6657661748562
20
11.948376127995
30
0
41
1
10
93.5940624763097
20
11.9521778291911
30
0
41
1
10
93.56096575105
20
11.9538854921768
30
0
41
1
10
93.5444189916809
20
11.9547624655515
30
0
41
1
10
93.5312122414278
20
11.9555070268924
30
0
41
1
10
93.5235176767216
20
11.9558998846202
30
0
41
1
10
93.5213387120386
20
11.9560059836639
30
0
0
SPLINE
5
1E4
100
AcDbEntity
8
1
62
256
6
ByLayer
370
-1
48
1
60
0
100
AcDbSpline
70
4
71
1
72
4
73
2
40
0
40
0
40
1
40
1
41
1
10
90.0668163276903
20
11.8379376711532
30
0
41
1
10
93.4518149945633
20
11.9565959599417
30
0
0
SPLINE
5
1E5
100
AcDbEntity
8
1
62
256
6
ByLayer
370
-1
48
1
60
0
100
AcDbSpline
70
4
71
1
72
4
73
2
40
0
40
0
40
1
40
1
41
1
10
94.4618368973128
20
11.0111375435825
30
0
41
1
10
94.5800436554885
20
7.61320873171752
30
0
0
SPLINE
5
1E6
100
AcDbEntity
8
1
62
256
6
ByLayer
370
-1
48
1
60
0
100
AcDbSpline
70
4
71
3
72
33
73
29
40
0
40
0
40
0
40
0
40
0.015625
40
0.0234375
40
0.02734375
40
0.03125
40
0.046875
40
0.0625
40
0.125
40
0.1875
40
0.21875
40
0.234375
40
0.25
40
0.3125
40
0.375
40
0.4375
40
0.5
40
0.5625
40
0.578125
40
0.59375
40
0.625
40
0.65625
40
0.6875
40
0.75
40
0.8125
40
0.84375
40
0.875
40
1
40
1
40
1
40
1
41
1
10
93.5106678193025
20
7.57646781237872
30
0
41
1
10
93.5164262864988
20
7.57666967061584
30
0
41
1
10
93.5254322402326
20
7.57698056619759
30
0
41
1
10
93.5351649712212
20
7.57730825128212
30
0
41
1
10
93.5402931509804
20
7.57747820562346
30
0
41
1
10
93.5478699081391
20
7.57772825219314
30
0
41
1
10
93.5593362217998
20
7.57810708424452
30
0
41
1
10
93.5898456062797
20
7.57911479491696
30
0
41
1
10
93.6356071673351
20
7.58062627500394
30
0
41
1
10
93.686466204126
20
7.58230613647811
30
0
41
1
10
93.722041618536
20
7.58348115451656
30
0
41
1
10
93.7424151696591
20
7.58415412157444
30
0
41
1
10
93.7726807670675
20
7.58515366623925
30
0
41
1
10
93.8198911195553
20
7.58672490111886
30
0
41
1
10
93.8861774455211
20
7.58895490395068
30
0
41
1
10
93.9548284387556
20
7.59128801682925
30
0
41
1
10
94.0248286629161
20
7.5936893998533
30
0
41
1
10
94.0772035351549
20
7.59550262762767
30
0
41
1
10
94.1123303540586
20
7.59672503758998
30
0
41
1
10
94.1358055340721
20
7.59754163395817
30
0
41
1
10
94.1651603821921
20
7.59856293088058
30
0
41
1
10
94.2004197399369
20
7.59978909010306
30
0
41
1
10
94.2472554615834
20
7.60142062825833
30
0
41
1
10
94.3059297532532
20
7.60347595597008
30
0
41
1
10
94.3640491976866
20
7.60552576047607
30
0
41
1
10
94.4099521607652
20
7.60715302186048
30
0
41
1
10
94.477916954551
20
7.60957245542934
30
0
41
1
10
94.5346739562117
20
7.61159340069332
30
0
41
1
10
94.5800436554885
20
7.61320873171752
30
0
0
SPLINE
5
1E7
100
AcDbEntity
8
1
62
256
6
ByLayer
370
-1
48
1
60
0
100
AcDbSpline
70
4
71
3
72
12
73
8
40
0
40
0
40
0
40
0
40
0.144152604951367
40
0.620677764711237
40
0.858940344591172
40
0.978071634531112
40
1
40
1
40
1
40
1
41
1
10
94.6976626824243
20
4.14549063307015
30
0
41
1
10
94.6978245808153
20
4.14884100330912
30
0
41
1
10
94.6984699682134
20
4.16326952032748
30
0
41
1
10
94.6988838017622
20
4.1832635156797
30
0
41
1
10
94.6985910478234
20
4.20266538350529
30
0
41
1
10
94.6983470964075
20
4.21148844297133
30
0
41
1
10
94.6982470384683
20
4.21476930412067
30
0
41
1
10
94.6982312891078
20
4.21527932476886
30
0
0
SPLINE
5
1E8
100
AcDbEntity
8
1
62
256
6
ByLayer
370
-1
48
1
60
0
100
AcDbSpline
70
4
71
3
72
12
73
8
40
0
40
0
40
0
40
0
40
0.0219283654687436
40
0.141059655408736
40
0.379322235288721
40
0.855847395048691
40
1
40
1
40
1
40
1
41
1
10
94.4618177779897
20
11.0111367980591
30
0
41
1
10
94.4617980471258
20
11.011646679139
30
0
41
1
10
94.4616698709107
20
11.0149265546258
30
0
41
1
10
94.4613001045893
20
11.0237452037558
30
0
41
1
10
94.4602438896285
20
11.0431203090957
30
0
41
1
10
94.4584416608407
20
11.0630366222417
30
0
41
1
10
94.456795193075
20
11.0773848001998
30
0
41
1
10
94.4564008683838
20
11.0807156725052
30
0
0
SPLINE
5
1E9
100
AcDbEntity
8
1
62
256
6
ByLayer
370
-1
48
1
60
0
100
AcDbSpline
70
4
71
3
72
20
73
16
40
0
40
0
40
0
40
0
40
0.0098199397468809
40
0.0174614009335743
40
0.0251028621202634
40
0.0403857844936442
40
0.048027245680335
40
0.284912542467754
40
0.529439300441857
40
0.773966058415964
40
0.896229437403017
40
0.92679528214978
40
0.957361126896544
40
0.987926971643309
40
1
40
1
40
1
40
1
41
1
10
86.3756913572408
20
2.99317914304388
30
0
41
1
10
86.3773775442311
20
2.99308304558332
30
0
41
1
10
86.3804024238896
20
2.9929191575466
30
0
41
1
10
86.3848524052182
20
2.99268140213761
30
0
41
1
10
86.3903510056023
20
2.99239022183858
30
0
41
1
10
86.3959281759225
20
2.99209742223451
30
0
41
1
10
86.4432926389493
20
2.98961026593537
30
0
41
1
10
86.5316338312089
20
2.9849608807358
30
0
41
1
10
86.661967970566
20
2.97809822534677
30
0
41
1
10
86.7724412379821
20
2.97230315188909
30
0
41
1
10
86.8441449365286
20
2.96850145069305
30
0
41
1
10
86.8772416617882
20
2.9667937877073
30
0
41
1
10
86.8937884211574
20
2.96591681433264
30
0
41
1
10
86.9069951714105
20
2.96517225299169
30
0
41
1
10
86.9146897361167
20
2.96477939526397
30
0
41
1
10
86.9168687007996
20
2.96467329622021
30
0
0
SPLINE
5
1EA
100
AcDbEntity
8
1
62
256
6
ByLayer
370
-1
48
1
60
0
100
AcDbSpline
70
4
71
3
72
12
73
8
40
0
40
0
40
0
40
0
40
0.0219283654687707
40
0.141059655408763
40
0.379322235288748
40
0.855847395048718
40
1
40
1
40
1
40
1
41
1
10
86.6818184035037
20
11.7192601900089
30
0
41
1
10
86.6813104626752
20
11.7192403837764
30
0
41
1
10
86.6780430681049
20
11.7191117179489
30
0
41
1
10
86.6692579765972
20
11.7187405391802
30
0
41
1
10
86.6499565993826
20
11.7176802896499
30
0
41
1
10
86.6301160738211
20
11.7158711766409
30
0
41
1
10
86.615822495012
20
11.7142184196358
30
0
41
1
10
86.6125042976813
20
11.7138225886883
30
0
0
SPLINE
5
1EB
100
AcDbEntity
8
1
62
256
6
ByLayer
370
-1
48
1
60
0
100
AcDbSpline
70
4
71
3
72
12
73
8
40
0
40
0
40
0
40
0
40
0.144152604951321
40
0.620677764711352
40
0.858940344591368
40
0.978071634531348
40
1
40
1
40
1
40
1
41
1
10
86.9168687007986
20
2.96467329622027
30
0
41
1
10
86.9202063218673
20
2.96451077940367
30
0
41
1
10
86.9345799340223
20
2.96386292673057
30
0
41
1
10
86.9544978461859
20
2.96344751240488
30
0
41
1
10
86.9738258840468
20
2.96374138461613
30
0
41
1
10
86.9826153691079
20
2.96398626788678
30
0
41
1
10
86.9858837455899
20
2.96408670803106
30
0
41
1
10
86.9863918254556
20
2.96410251755162
30
0
0
SPLINE
5
1EC
100
AcDbEntity
8
1
62
256
6
ByLayer
370
-1
48
1
60
0
100
AcDbSpline
70
4
71
3
72
33
73
29
40
0
40
0
40
0
40
0
40
0.015625
40
0.0234375
40
0.02734375
40
0.03125
40
0.046875
40
0.0625
40
0.125
40
0.1875
40
0.21875
40
0.234375
40
0.25
40
0.3125
40
0.375
40
0.4375
40
0.5
40
0.5625
40
0.578125
40
0.59375
40
0.625
40
0.65625
40
0.6875
40
0.75
40
0.8125
40
0.84375
40
0.875
40
1
40
1
40
1
40
1
41
1
10
90.3135327690572
20
4.13486388076413
30
0
41
1
10
90.3137338591629
20
4.12908341715862
30
0
41
1
10
90.3141805189672
20
4.12018053253522
30
0
41
1
10
90.3148917227312
20
4.11079685945768
30
0
41
1
10
90.3153408743938
20
4.10593000389244
30
0
41
1
10
90.3160335771896
20
4.09876960699052
30
0
41
1
10
90.3170702319293
20
4.08792127641553
30
0
41
1
10
90.3198362442045
20
4.05906421836366
30
0
41
1
10
90.3239851124707
20
4.01578109176128
30
0
41
1
10
90.3285957335156
20
3.96767615310631
30
0
41
1
10
90.3318216217375
20
3.93402803894509
30
0
41
1
10
90.3336676568995
20
3.91475678382508
30
0
41
1
10
90.3364147011857
20
3.88613356963569
30
0
41
1
10
90.3403672463705
20
3.84113928965667
30
0
41
1
10
90.3452591659127
20
3.77728036374271
30
0
41
1
10
90.3496770208502
20
3.71046875241396
30
0
41
1
10
90.3535645552633
20
3.64170213990818
30
0
41
1
10
90.3560192922771
20
3.58977809010199
30
0
41
1
10
90.3574918337193
20
3.5547728488057
30
0
41
1
10
90.3584852264466
20
3.53138858837619
30
0
41
1
10
90.3597226581051
20
3.50214247102917
30
0
41
1
10
90.3612245171726
20
3.4670298649686
30
0
41
1
10
90.3631422166671
20
3.42030872511404
30
0
41
1
10
90.3652310981896
20
3.36145184018076
30
0
41
1
10
90.3669171923451
20
3.30275311916688
30
0
41
1
10
90.3680198774306
20
3.25615445000548
30
0
41
1
10
90.3693750303128
20
3.18687093752604
30
0
41
1
10
90.3704932080558
20
3.12899863707588
30
0
41
1
10
90.3713910851479
20
3.08274160873094
30
0
0
SPLINE
5
1ED
100
AcDbEntity
8
1
62
256
6
ByLayer
370
-1
48
1
60
0
100
AcDbSpline
70
4
71
1
72
4
73
2
40
0
40
0
40
1
40
1
41
1
10
86.6818176608173
20
11.7192793823647
30
0
41
1
10
90.0668163276903
20
11.8379376711532
30
0
0
SPLINE
5
1EE
100
AcDbEntity
8
1
62
256
6
ByLayer
370
-1
48
1
60
0
100
AcDbSpline
70
4
71
3
72
12
73
8
40
0
40
0
40
0
40
0
40
0.021928365468796
40
0.141059655408779
40
0.379322235288744
40
0.855847395048675
40
1
40
1
40
1
40
1
41
1
10
85.9763896348485
20
3.90954248182504
30
0
41
1
10
85.9764093657124
20
3.90903260074512
30
0
41
1
10
85.9765375419275
20
3.90575272525837
30
0
41
1
10
85.9769073082489
20
3.8969340761283
30
0
41
1
10
85.9779635232097
20
3.87755897078838
30
0
41
1
10
85.9797657519975
20
3.85764265764246
30
0
41
1
10
85.9814122197633
20
3.84329447968437
30
0
41
1
10
85.9818065444545
20
3.83996360737896
30
0
0
SPLINE
5
1EF
100
AcDbEntity
8
1
62
256
6
ByLayer
370
-1
48
1
60
0
100
AcDbSpline
70
4
71
3
72
20
73
16
40
0
40
0
40
0
40
0
40
0.0120730283552062
40
0.0426388731029672
40
0.0579217954768477
40
0.0732047178507282
40
0.103770562598489
40
0.164902252094011
40
0.226033941589533
40
0.470560699571621
40
0.959614215535797
40
0.974897137909677
40
0.990180060283558
40
0.997821521470498
40
1
40
1
40
1
40
1
41
1
10
86.6125042976813
20
11.7138225886883
30
0
41
1
10
86.6103380137789
20
11.7135641706004
30
0
41
1
10
86.6026894927338
20
11.7126334738722
30
0
41
1
10
86.5923063041168
20
11.7113140790407
30
0
41
1
10
86.5813438985386
20
11.7099492060084
30
0
41
1
10
86.5703796902789
20
11.7085973750691
30
0
41
1
10
86.5511895192545
20
11.7062517725141
30
0
41
1
10
86.5237779731302
20
11.7028775796598
30
0
41
1
10
86.4579787139822
20
11.6947464226305
30
0
41
1
10
86.3152368231717
20
11.6771748178555
30
0
41
1
10
86.1820444817528
20
11.6607386882441
30
0
41
1
10
86.0878094414012
20
11.6491342132213
30
0
41
1
10
86.0810108376773
20
11.6482928047621
30
0
41
1
10
86.0766765800228
20
11.6477521136728
30
0
41
1
10
86.0749978106197
20
11.6475388161447
30
0
41
1
10
86.0746261355856
20
11.6474913562725
30
0
0
SPLINE
5
1F0
100
AcDbEntity
8
1
62
256
6
ByLayer
370
-1
48
1
60
0
100
AcDbSpline
70
4
71
1
72
4
73
2
40
0
40
0
40
1
40
1
41
1
10
85.9763705155254
20
3.90954173630169
30
0
41
1
10
85.8581637573498
20
7.30747054816661
30
0
0
SPLINE
5
1F1
100
AcDbEntity
8
1
62
256
6
ByLayer
370
-1
48
1
60
0
100
AcDbSpline
70
4
71
3
72
12
73
8
40
0
40
0
40
0
40
0
40
0.144152604951348
40
0.620677764711243
40
0.858940344591191
40
0.978071634531138
40
1
40
1
40
1
40
1
41
1
10
85.7405447304139
20
10.775188646814
30
0
41
1
10
85.7403828320229
20
10.771838276575
30
0
41
1
10
85.7397374446248
20
10.7574097595567
30
0
41
1
10
85.7393236110761
20
10.7374157642045
30
0
41
1
10
85.7396163650149
20
10.7180138963788
30
0
41
1
10
85.7398603164307
20
10.7091908369128
30
0
41
1
10
85.7399603743699
20
10.7059099757635
30
0
41
1
10
85.7399761237305
20
10.7053999551153
30
0
0
SPLINE
5
1F2
100
AcDbEntity
8
1
62
256
6
ByLayer
370
-1
48
1
60
0
100
AcDbSpline
70
4
71
1
72
4
73
2
40
0
40
0
40
1
40
1
41
1
10
90.3713910851479
20
3.08274160873094
30
0
41
1
10
86.9863924182749
20
2.96408331994243
30
0
0
SPLINE
5
1F3
100
AcDbEntity
8
1
62
256
6
ByLayer
370
-1
48
1
60
0
100
AcDbSpline
70
4
71
3
72
20
73
16
40
0
40
0
40
0
40
0
40
0.0098199397469157
40
0.0174614009336092
40
0.0251028621202983
40
0.0403857844936792
40
0.0480272456803701
40
0.284912542467791
40
0.529439300441895
40
0.773966058416003
40
0.896229437403057
40
0.926795282149821
40
0.957361126896584
40
0.98792697164335
40
1
40
1
40
1
40
1
41
1
10
85.7689421038842
20
11.3184331999063
30
0
41
1
10
85.7688463721036
20
11.3167405719556
30
0
41
1
10
85.7686831077103
20
11.3137041377483
30
0
41
1
10
85.7684462570324
20
11.309237158214
30
0
41
1
10
85.7681561847623
20
11.3037175540696
30
0
41
1
10
85.7678644993491
20
11.2981190798649
30
0
41
1
10
85.7653868074306
20
11.250573692284
30
0
41
1
10
85.7607551145454
20
11.1618950510216
30
0
41
1
10
85.753918573632
20
11.0310630564258
30
0
41
1
10
85.7481455521785
20
10.9201677990753
30
0
41
1
10
85.7443583176032
20
10.8481902040491
30
0
41
1
10
85.7426571527907
20
10.8149670546758
30
0
41
1
10
85.7417835165645
20
10.7983570893739
30
0
41
1
10
85.7410417885042
20
10.7850998914804
30
0
41
1
10
85.7406504257187
20
10.7773759347871
30
0
41
1
10
85.7405447304139
20
10.775188646813
30
0
0
SPLINE
5
1F4
100
AcDbEntity
8
1
62
256
6
ByLayer
370
-1
48
1
60
0
100
AcDbSpline
70
4
71
1
72
4
73
2
40
0
40
0
40
1
40
1
41
1
10
93.7563897520209
20
3.20139989751945
30
0
41
1
10
90.3713910851479
20
3.08274160873094
30
0
0
SPLINE
5
1F5
100
AcDbEntity
8
1
62
256
6
ByLayer
370
-1
48
1
60
0
100
AcDbSpline
70
4
71
3
72
20
73
16
40
0
40
0
40
0
40
0
40
0.0120730283552444
40
0.0426388731030054
40
0.0579217954768859
40
0.0732047178507664
40
0.103770562598527
40
0.164902252094049
40
0.226033941589571
40
0.470560699571659
40
0.959614215535835
40
0.974897137909716
40
0.990180060283596
40
0.997821521470536
40
1
40
1
40
1
40
1
41
1
10
85.9818065444545
20
3.83996360737896
30
0
41
1
10
85.9820639791835
20
3.83778904862399
30
0
41
1
10
85.9829911343297
20
3.83011131147103
30
0
41
1
10
85.9843055084656
20
3.81968846076035
30
0
41
1
10
85.9856651877438
20
3.80868418057372
30
0
41
1
10
85.9870118745583
20
3.7976780908196
30
0
41
1
10
85.9893485513875
20
3.77841461645951
30
0
41
1
10
85.9927099044192
20
3.75089836268228
30
0
41
1
10
86.0008101199412
20
3.68484776105382
30
0
41
1
10
86.018314859455
20
3.54156061940981
30
0
41
1
10
86.0346884446309
20
3.40785950488461
30
0
41
1
10
86.0462487611228
20
3.31326450198802
30
0
41
1
10
86.0470869677689
20
3.30643992870239
30
0
41
1
10
86.0476256013653
20
3.30208911488776
30
0
41
1
10
86.0478380872319
20
3.3004039328583
30
0
41
1
10
86.047885366505
20
3.30003083808595
30
0
0
SPLINE
5
1F6
100
AcDbEntity
8
1
62
256
6
ByLayer
370
-1
48
1
60
0
100
AcDbSpline
70
4
71
3
72
20
73
16
40
0
40
0
40
0
40
0
40
0.0098199397469123
40
0.0174614009336058
40
0.025102862120295
40
0.0403857844936759
40
0.0480272456803668
40
0.284912542467789
40
0.529439300441895
40
0.773966058416004
40
0.896229437403058
40
0.926795282149822
40
0.957361126896586
40
0.987926971643351
40
1
40
1
40
1
40
1
41
1
10
94.669265308954
20
3.60224607997782
30
0
41
1
10
94.6693610407347
20
3.60393870792851
30
0
41
1
10
94.6695243051279
20
3.60697514213587
30
0
41
1
10
94.6697611558058
20
3.61144212167019
30
0
41
1
10
94.6700512280759
20
3.61696172581452
30
0
41
1
10
94.6703429134891
20
3.62256020001928
30
0
41
1
10
94.6728206054077
20
3.67010558760018
30
0
41
1
10
94.6774522982928
20
3.75878422886251
30
0
41
1
10
94.6842888392062
20
3.88961622345832
30
0
41
1
10
94.6900618606598
20
4.00051148080885
30
0
41
1
10
94.693849095235
20
4.07248907583502
30
0
41
1
10
94.6955502600475
20
4.10571222520835
30
0
41
1
10
94.6964238962738
20
4.12232219051023
30
0
41
1
10
94.697165624334
20
4.13557938840373
30
0
41
1
10
94.6975569871195
20
4.14330334509708
30
0
41
1
10
94.6976626824243
20
4.14549063307112
30
0
0
SPLINE
5
1F7
100
AcDbEntity
8
1
62
256
6
ByLayer
370
-1
48
1
60
0
100
AcDbSpline
70
4
71
1
72
4
73
2
40
0
40
0
40
1
40
1
41
1
10
85.8581637573498
20
7.30747054816661
30
0
41
1
10
85.739956999174
20
10.7053993600315
30
0
0
SPLINE
5
1F8
100
AcDbEntity
8
1
62
256
6
ByLayer
370
-1
48
1
60
0
100
AcDbSpline
70
4
71
3
72
39
73
35
40
0
40
0
40
0
40
0
40
0.0060880048236033
40
0.023119452933136
40
0.0316351769879024
40
0.0571823491522015
40
0.091245245371267
40
0.125308141590332
40
0.150855313754631
40
0.159371037809398
40
0.176402485918931
40
0.193433934028463
40
0.210465382137996
40
0.227496830247529
40
0.29562262268566
40
0.363748415123791
40
0.431874207561921
40
0.500000000000052
40
0.568125792438181
40
0.636251584876314
40
0.704377377314445
40
0.772503169752576
40
0.789534617862109
40
0.806566065971641
40
0.823597514081174
40
0.840628962190707
40
0.849144686245473
40
0.874691858409774
40
0.908754754628838
40
0.942817650847901
40
0.976880547066969
40
0.985396271121733
40
0.993911995176497
40
1
40
1
40
1
40
1
41
1
10
94.3903220463312
20
11.620648441814
30
0
41
1
10
94.3902034838373
20
11.6215840536329
30
0
41
1
10
94.3897498727477
20
11.6251191683941
30
0
41
1
10
94.3890950878974
20
11.6298872984678
30
0
41
1
10
94.3878937783834
20
11.6375847400846
30
0
41
1
10
94.3860372219854
20
11.6478449849594
30
0
41
1
10
94.3828768122095
20
11.6619703143706
30
0
41
1
10
94.3790303212151
20
11.6761533299231
30
0
41
1
10
94.375789287567
20
11.6864677748974
30
0
41
1
10
94.3731661578865
20
11.6941914526197
30
0
41
1
10
94.3708595269775
20
11.7006177631634
30
0
41
1
10
94.3678969691344
20
11.7083052275533
30
0
41
1
10
94.3647383130006
20
11.7159606155116
30
0
41
1
10
94.3580258090743
20
11.731191302226
30
0
41
1
10
94.3464638529261
20
11.7536772365205
30
0
41
1
10
94.3279795570216
20
11.7824236747622
30
0
41
1
10
94.306544046256
20
11.8094687023598
30
0
41
1
10
94.2824533879732
20
11.8343932910348
30
0
41
1
10
94.2560036495174
20
11.8567784125083
30
0
41
1
10
94.2276319004043
20
11.8763568224024
30
0
41
1
10
94.19777521015
20
11.8928612763389
30
0
41
1
10
94.1746228865056
20
11.9028705858688
30
0
41
1
10
94.1590188765546
20
11.9085298776901
30
0
41
1
10
94.1511908601236
20
11.9111588627894
30
0
41
1
10
94.1433446462859
20
11.9135892425058
30
0
41
1
10
94.1367974819563
20
11.9154507673074
30
0
41
1
10
94.1289389577788
20
11.9175387261749
30
0
41
1
10
94.1184627091625
20
11.9200647155822
30
0
41
1
10
94.1040997642614
20
11.9229271367452
30
0
41
1
10
94.0885458446406
20
11.9253046867644
30
0
41
1
10
94.0769362945488
20
11.9265200219735
30
0
41
1
10
94.0692073105666
20
11.9270898970408
30
0
41
1
10
94.065693183618
20
11.9273155192105
30
0
41
1
10
94.0634541072017
20
11.9274466763536
30
0
41
1
10
94.0625160555974
20
11.9275001368402
30
0
0
SPLINE
5
1F9
100
AcDbEntity
8
1
62
256
6
ByLayer
370
-1
48
1
60
0
100
AcDbSpline
70
4
71
3
72
87
73
83
40
0
40
0
40
0
40
0
40
0.125
40
0.25
40
0.375
40
0.390625
40
0.39453125
40
0.396484375
40
0.3984375
40
0.3994140625
40
0.400390625
40
0.40234375
40
0.40625
40
0.408203125
40
0.41015625
40
0.412109375
40
0.4140625
40
0.421875
40
0.4375
40
0.453125
40
0.46826171875
40
0.46875
40
0.4697265625
40
0.47021484375
40
0.470703125
40
0.4716796875
40
0.47216796875
40
0.47265625
40
0.474609375
40
0.4765625
40
0.478515625
40
0.47998046875
40
0.48046875
40
0.4814453125
40
0.482421875
40
0.4833984375
40
0.484375
40
0.48828125
40
0.4921875
40
0.49609375
40
0.5
40
0.50390625
40
0.5078125
40
0.51171875
40
0.515625
40
0.5166015625
40
0.517578125
40
0.5185546875
40
0.51953125
40
0.52001953125
40
0.521484375
40
0.5234375
40
0.525390625
40
0.52685546875
40
0.52734375
40
0.5283203125
40
0.52880859375
40
0.529296875
40
0.5302734375
40
0.53125
40
0.5625
40
0.578125
40
0.58203125
40
0.5859375
40
0.587890625
40
0.5888671875
40
0.58984375
40
0.591796875
40
0.59375
40
0.59765625
40
0.599609375
40
0.6005859375
40
0.6015625
40
0.603515625
40
0.60546875
40
0.609375
40
0.6171875
40
0.625
40
0.6875
40
0.75
40
0.875
40
1
40
1
40
1
40
1
41
1
10
86.8850251794511
20
7.3442114675054
30
0
41
1
10
86.8754779194314
20
7.61865355859987
30
0
41
1
10
86.856383399392
20
8.16753774078882
30
0
41
1
10
86.8277330346389
20
8.99087104796635
30
0
41
1
10
86.807474295057
20
9.57403657630209
30
0
41
1
10
86.7964073409113
20
9.89138313254713
30
0
41
1
10
86.794762861673
20
9.9385557706772
30
0
41
1
10
86.7941649768769
20
9.95570936906321
30
0
41
1
10
86.7937913523326
20
9.96643032425729
30
0
41
1
10
86.7934924899278
20
9.97500705790759
30
0
41
1
10
86.7931936540628
20
9.98358376981238
30
0
41
1
10
86.7926707654798
20
9.99859295486556
30
0
41
1
10
86.792073368718
20
10.0157461533792
30
0
41
1
10
86.7914762034142
20
10.0328991622471
30
0
41
1
10
86.7910284554823
20
10.0457638156219
30
0
41
1
10
86.7905808439134
20
10.0586283572672
30
0
41
1
10
86.7896859141357
20
10.0843572001925
30
0
41
1
10
86.7877486004178
20
10.1401016329747
30
0
41
1
10
86.7847760483725
20
10.2258558008352
30
0
41
1
10
86.7812639268733
20
10.3276743037526
30
0
41
1
10
86.7788690328705
20
10.3962914460767
30
0
41
1
10
86.7775783448327
20
10.4327593795206
30
0
41
1
10
86.7774262924548
20
10.4370498940135
30
0
41
1
10
86.7772743213117
20
10.4413403419465
30
0
41
1
10
86.7771225003119
20
10.4456306668591
30
0
41
1
10
86.7769710485077
20
10.4499206892702
30
0
41
1
10
86.7768202538601
20
10.4542101732382
30
0
41
1
10
86.7765948630257
20
10.4606437427761
30
0
41
1
10
86.7762603209648
20
10.4702911931401
30
0
41
1
10
86.775826433199
20
10.4831444901474
30
0
41
1
10
86.7754440804635
20
10.4949140792939
30
0
41
1
10
86.7751395863203
20
10.5034954273254
30
0
41
1
10
86.7748882557009
20
10.5099502507018
30
0
41
1
10
86.7746620390523
20
10.5153430143896
30
0
41
1
10
86.774466314257
20
10.5216198224206
30
0
41
1
10
86.7744488989733
20
10.5274856229308
30
0
41
1
10
86.7748574984245
20
10.5392227282377
30
0
41
1
10
86.7773583141727
20
10.5577638365717
30
0
41
1
10
86.7850323784048
20
10.5825238313412
30
0
41
1
10
86.7974091298403
20
10.6063161786322
30
0
41
1
10
86.8139891724369
20
10.6278911364049
30
0
41
1
10
86.8342731101524
20
10.6459989626195
30
0
41
1
10
86.8570538254239
20
10.6600523971746
30
0
41
1
10
86.8811242006884
20
10.6694641799691
30
0
41
1
10
86.8993753130787
20
10.6732617956324
30
0
41
1
10
86.9110107704982
20
10.6744896958155
30
0
41
1
10
86.9168412302732
20
10.6748814341524
30
0
41
1
10
86.9230925744203
20
10.6751232883118
30
0
41
1
10
86.928467510577
20
10.6752729408882
30
0
41
1
10
86.9348996395472
20
10.6754715305114
30
0
41
1
10
86.9434487492089
20
10.6757652223944
30
0
41
1
10
86.9551716620648
20
10.6762033491197
30
0
41
1
10
86.9669081688712
20
10.6766269559066
30
0
41
1
10
86.9754500850023
20
10.6769283313266
30
0
41
1
10
86.9818584476328
20
10.6771523061967
30
0
41
1
10
86.9861315248734
20
10.6773007303784
30
0
41
1
10
86.9904051830425
20
10.6774485340602
30
0
41
1
10
86.9946791436444
20
10.6775960147081
30
0
41
1
10
87.0000220023595
20
10.6777799297659
30
0
41
1
10
87.0726865086154
20
10.6802794359435
30
0
41
1
10
87.177310384793
20
10.6839868755414
30
0
41
1
10
87.2883656202115
20
10.6878937269241
30
0
41
1
10
87.3396253880492
20
10.6896931449886
30
0
41
1
10
87.3609841480693
20
10.6904423434402
30
0
41
1
10
87.3759355229586
20
10.690966522937
30
0
41
1
10
87.3844792305852
20
10.691265984829
30
0
41
1
10
87.3930229799137
20
10.6915654021785
30
0
41
1
10
87.4037027419151
20
10.6919395933926
30
0
41
1
10
87.4207905096843
20
10.6925381406482
30
0
41
1
10
87.437878482063
20
10.6931364693568
30
0
41
1
10
87.4528306050069
20
10.6936598498432
30
0
41
1
10
87.4613747127326
20
10.6939588843824
30
0
41
1
10
87.4699188439196
20
10.6942578938621
30
0
41
1
10
87.4805990490432
20
10.6946316117695
30
0
41
1
10
87.4976874528458
20
10.6952294796666
30
0
41
1
10
87.5275923260419
20
10.6962755706005
30
0
41
1
10
87.5703138668929
20
10.6977696728047
30
0
41
1
10
87.7411996495925
20
10.7037464882586
30
0
41
1
10
88.0316876835407
20
10.7139260834367
30
0
41
1
10
88.5784662471671
20
10.7331116444717
30
0
41
1
10
89.2619669614517
20
10.7570642121142
30
0
41
1
10
89.8087624736148
20
10.7762316701181
30
0
41
1
10
90.0821602296963
20
10.78581539912
30
0
0
SPLINE
5
1FA
100
AcDbEntity
8
1
62
256
6
ByLayer
370
-1
48
1
60
0
100
AcDbSpline
70
4
71
3
72
33
73
29
40
0
40
0
40
0
40
0
40
0.125
40
0.15625
40
0.1875
40
0.25
40
0.3125
40
0.34375
40
0.375
40
0.40625
40
0.421875
40
0.4375
40
0.5
40
0.5625
40
0.625
40
0.6875
40
0.75
40
0.765625
40
0.78125
40
0.8125
40
0.875
40
0.9375
40
0.953125
40
0.96875
40
0.97265625
40
0.9765625
40
0.984375
40
1
40
1
40
1
40
1
41
1
10
90.0668163276903
20
11.8379376711532
30
0
41
1
10
90.0691368190022
20
11.7916806428083
30
0
41
1
10
90.0720451511734
20
11.7338083423581
30
0
41
1
10
90.0755104520785
20
11.6645248298787
30
0
41
1
10
90.0776499053202
20
11.6179261607173
30
0
41
1
10
90.0800478199266
20
11.5592274397034
30
0
41
1
10
90.0820539515428
20
11.5003705547701
30
0
41
1
10
90.0833869113682
20
11.4536494149155
30
0
41
1
10
90.0843280389336
20
11.418536808855
30
0
41
1
10
90.0851254284337
20
11.389290691508
30
0
41
1
10
90.0857590136514
20
11.3659064310784
30
0
41
1
10
90.0867219888558
20
11.3309011897821
30
0
41
1
10
90.0878799076326
20
11.278977139976
30
0
41
1
10
90.0887768632928
20
11.2102105274702
30
0
41
1
10
90.0890074777146
20
11.1433989161415
30
0
41
1
10
90.088558592168
20
11.0795399902275
30
0
41
1
10
90.0877365586962
20
11.0345457102484
30
0
41
1
10
90.0869809966013
20
11.005922496059
30
0
41
1
10
90.0864757738693
20
10.986651240939
30
0
41
1
10
90.0855909791276
20
10.9530031267778
30
0
41
1
10
90.0843272962709
20
10.9048981881228
30
0
41
1
10
90.0831898849024
20
10.8616150615205
30
0
41
1
10
90.0824316246855
20
10.8327580034686
30
0
41
1
10
90.0821497509078
20
10.8219096728936
30
0
41
1
10
90.0819552382461
20
10.8147492759917
30
0
41
1
10
90.081844701811
20
10.8098824204264
30
0
41
1
10
90.0817863743347
20
10.8004987473489
30
0
41
1
10
90.0819591395907
20
10.7915958627255
30
0
41
1
10
90.0821602296963
20
10.78581539912
30
0
0
SPLINE
5
1FB
100
AcDbEntity
8
1
62
256
6
ByLayer
370
-1
48
1
60
0
100
AcDbSpline
70
4
71
3
72
87
73
83
40
0
40
0
40
0
40
0
40
0.125
40
0.25
40
0.375
40
0.390625
40
0.39453125
40
0.396484375
40
0.3984375
40
0.3994140625
40
0.400390625
40
0.40234375
40
0.40625
40
0.408203125
40
0.41015625
40
0.412109375
40
0.4140625
40
0.421875
40
0.4375
40
0.453125
40
0.46826171875
40
0.46875
40
0.4697265625
40
0.47021484375
40
0.470703125
40
0.4716796875
40
0.47216796875
40
0.47265625
40
0.474609375
40
0.4765625
40
0.478515625
40
0.47998046875
40
0.48046875
40
0.4814453125
40
0.482421875
40
0.4833984375
40
0.484375
40
0.48828125
40
0.4921875
40
0.49609375
40
0.5
40
0.50390625
40
0.5078125
40
0.51171875
40
0.515625
40
0.5166015625
40
0.517578125
40
0.5185546875
40
0.51953125
40
0.52001953125
40
0.521484375
40
0.5234375
40
0.525390625
40
0.52685546875
40
0.52734375
40
0.5283203125
40
0.52880859375
40
0.529296875
40
0.5302734375
40
0.53125
40
0.5625
40
0.578125
40
0.58203125
40
0.5859375
40
0.587890625
40
0.5888671875
40
0.58984375
40
0.591796875
40
0.59375
40
0.59765625
40
0.599609375
40
0.6005859375
40
0.6015625
40
0.603515625
40
0.60546875
40
0.609375
40
0.6171875
40
0.625
40
0.6875
40
0.75
40
0.875
40
1
40
1
40
1
40
1
41
1
10
90.0821602296963
20
10.78581539912
30
0
41
1
10
90.3555579857778
20
10.795399128122
30
0
41
1
10
90.9023534979409
20
10.8145665861258
30
0
41
1
10
91.7225537733135
20
10.8433263906179
30
0
41
1
10
92.3035001807514
20
10.8636625152939
30
0
41
1
10
92.6196391375404
20
10.8747717434064
30
0
41
1
10
92.6666322695406
20
10.8764225042883
30
0
41
1
10
92.6837205933059
20
10.8770226729073
30
0
41
1
10
92.6944007520287
20
10.8773977246365
30
0
41
1
10
92.7029448486181
20
10.8776977286472
30
0
41
1
10
92.7114889235447
20
10.8779977060166
30
0
41
1
10
92.7264409941174
20
10.878522591949
30
0
41
1
10
92.743528919532
20
10.8791222706695
30
0
41
1
10
92.7606166560225
20
10.8797217170477
30
0
41
1
10
92.7734323555072
20
10.880171175304
30
0
41
1
10
92.7862479436876
20
10.8806204966763
30
0
41
1
10
92.8118788805979
20
10.8815188449404
30
0
41
1
10
92.8674111889836
20
10.883463558882
30
0
41
1
10
92.9528390363456
20
10.8864474655932
30
0
41
1
10
93.0542700891195
20
10.8899730028259
30
0
41
1
10
93.1226261225009
20
10.8923770449348
30
0
41
1
10
93.1589552844482
20
10.8936726631912
30
0
41
1
10
93.1632294722381
20
10.8938252963844
30
0
41
1
10
93.1675035937213
20
10.8939778480327
30
0
41
1
10
93.1717775926523
20
10.894130248964
30
0
41
1
10
93.176051290233
20
10.8942822792895
30
0
41
1
10
93.1803244514194
20
10.8944336499482
30
0
41
1
10
93.186733539283
20
10.8946599017389
30
0
41
1
10
93.1963442781856
20
10.8949957216961
30
0
41
1
10
93.2091486645173
20
10.8954312668427
30
0
41
1
10
93.2208734668238
20
10.8958150801035
30
0
41
1
10
93.2294221602353
20
10.8961207373649
30
0
41
1
10
93.2358524210599
20
10.8963730280264
30
0
41
1
10
93.2412246636538
20
10.8966001087859
30
0
41
1
10
93.2474775865352
20
10.8967965812181
30
0
41
1
10
93.2533210659035
20
10.8968140630253
30
0
41
1
10
93.2650135079812
20
10.8964039027906
30
0
41
1
10
93.2834840618003
20
10.8938935343326
30
0
41
1
10
93.3081498373144
20
10.8861901564218
30
0
41
1
10
93.3318516475409
20
10.8737661278065
30
0
41
1
10
93.3533445060856
20
10.8571227521407
30
0
41
1
10
93.3713834265546
20
10.8367613330784
30
0
41
1
10
93.3853833835484
20
10.8138935991755
30
0
41
1
10
93.3947593516677
20
10.7897312789878
30
0
41
1
10
93.398542516257
20
10.7714104503132
30
0
41
1
10
93.3997657439092
20
10.7597305473366
30
0
41
1
10
93.4001559915635
20
10.7538778161524
30
0
41
1
10
93.4003969253947
20
10.7476025928863
30
0
41
1
10
93.4005460084979
20
10.7422071253467
30
0
41
1
10
93.4007438424277
20
10.7357504266888
30
0
41
1
10
93.4010364167244
20
10.727168660817
30
0
41
1
10
93.4014728762452
20
10.7154009683385
30
0
41
1
10
93.4018948710803
20
10.7036196299827
30
0
41
1
10
93.4021950996759
20
10.6950450851197
30
0
41
1
10
93.402418222254
20
10.688612243585
30
0
41
1
10
93.4025660816369
20
10.6843228438836
30
0
41
1
10
93.402713322881
20
10.6800328610346
30
0
41
1
10
93.4028602423206
20
10.6757425745975
30
0
41
1
10
93.4030434575261
20
10.6703793070301
30
0
41
1
10
93.405533452328
20
10.5974372341651
30
0
41
1
10
93.409226783999
20
10.4924137117773
30
0
41
1
10
93.4131187686326
20
10.3809342634012
30
0
41
1
10
93.4149113393681
20
10.329478691578
30
0
41
1
10
93.4156576868934
20
10.3080383445644
30
0
41
1
10
93.416179871729
20
10.293029857852
30
0
41
1
10
93.4164781940781
20
10.2844535146502
30
0
41
1
10
93.4167764720542
20
10.2758771295872
30
0
41
1
10
93.4171492393577
20
10.2651565726299
30
0
41
1
10
93.4177455089604
20
10.248003532364
30
0
41
1
10
93.4183415608475
20
10.2308502867069
30
0
41
1
10
93.4188629497132
20
10.2158410490824
30
0
41
1
10
93.4191608463357
20
10.2072643042532
30
0
41
1
10
93.419458717994
20
10.1986875358731
30
0
41
1
10
93.419831013792
20
10.187966534101
30
0
41
1
10
93.4204266066212
20
10.170812855372
30
0
41
1
10
93.4214687168632
20
10.1407937504185
30
0
41
1
10
93.4229571335575
20
10.0979090202219
30
0
41
1
10
93.4289112054242
20
9.92637048159392
30
0
41
1
10
93.4390520641693
20
9.63477283054775
30
0
41
1
10
93.4581646183523
20
9.0859056616361
30
0
41
1
10
93.4820260392434
20
8.39979408566214
30
0
41
1
10
93.5011205592828
20
7.85090990347319
30
0
41
1
10
93.5106678193025
20
7.57646781237872
30
0
0
SPLINE
5
1FC
100
AcDbEntity
8
1
62
256
6
ByLayer
370
-1
48
1
60
0
100
AcDbSpline
70
4
71
3
72
87
73
83
40
0
40
0
40
0
40
0
40
0.125
40
0.25
40
0.375
40
0.390625
40
0.39453125
40
0.396484375
40
0.3984375
40
0.3994140625
40
0.400390625
40
0.40234375
40
0.40625
40
0.408203125
40
0.41015625
40
0.412109375
40
0.4140625
40
0.421875
40
0.4375
40
0.453125
40
0.46826171875
40
0.46875
40
0.4697265625
40
0.47021484375
40
0.470703125
40
0.4716796875
40
0.47216796875
40
0.47265625
40
0.474609375
40
0.4765625
40
0.478515625
40
0.47998046875
40
0.48046875
40
0.4814453125
40
0.482421875
40
0.4833984375
40
0.484375
40
0.48828125
40
0.4921875
40
0.49609375
40
0.5
40
0.50390625
40
0.5078125
40
0.51171875
40
0.515625
40
0.5166015625
40
0.517578125
40
0.5185546875
40
0.51953125
40
0.52001953125
40
0.521484375
40
0.5234375
40
0.525390625
40
0.52685546875
40
0.52734375
40
0.5283203125
40
0.52880859375
40
0.529296875
40
0.5302734375
40
0.53125
40
0.5625
40
0.578125
40
0.58203125
40
0.5859375
40
0.587890625
40
0.5888671875
40
0.58984375
40
0.591796875
40
0.59375
40
0.59765625
40
0.599609375
40
0.6005859375
40
0.6015625
40
0.603515625
40
0.60546875
40
0.609375
40
0.6171875
40
0.625
40
0.6875
40
0.75
40
0.875
40
1
40
1
40
1
40
1
41
1
10
90.3135327690572
20
4.13486388076413
30
0
41
1
10
90.0401350129757
20
4.12528015176218
30
0
41
1
10
89.4933395008127
20
4.10611269375829
30
0
41
1
10
88.6731392254401
20
4.07735288926625
30
0
41
1
10
88.0921928180022
20
4.05701676459026
30
0
41
1
10
87.7760538612131
20
4.04590753647773
30
0
41
1
10
87.729060729213
20
4.04425677559584
30
0
41
1
10
87.7119724054477
20
4.0436566069769
30
0
41
1
10
87.7012922467248
20
4.04328155524763
30
0
41
1
10
87.6927481501355
20
4.04298155123695
30
0
41
1
10
87.6842040752088
20
4.0426815738675
30
0
41
1
10
87.6692520046362
20
4.04215668793512
30
0
41
1
10
87.6521640792215
20
4.04155700921467
30
0
41
1
10
87.6350763427311
20
4.04095756283641
30
0
41
1
10
87.6222606432464
20
4.04050810458017
30
0
41
1
10
87.6094450550659
20
4.04005878320783
30
0
41
1
10
87.5838141181557
20
4.03916043494371
30
0
41
1
10
87.5282818097699
20
4.03721572100216
30
0
41
1
10
87.442853962408
20
4.03423181429096
30
0
41
1
10
87.341422909634
20
4.03070627705821
30
0
41
1
10
87.2730668762526
20
4.02830223494934
30
0
41
1
10
87.2367377143054
20
4.02700661669294
30
0
41
1
10
87.2324635265155
20
4.02685398349973
30
0
41
1
10
87.2281894050321
20
4.02670143185148
30
0
41
1
10
87.2239154061012
20
4.02654903092014
30
0
41
1
10
87.2196417085206
20
4.02639700059467
30
0
41
1
10
87.2153685473342
20
4.026245629936
30
0
41
1
10
87.2089594594706
20
4.02601937814524
30
0
41
1
10
87.1993487205679
20
4.02568355818798
30
0
41
1
10
87.1865443342363
20
4.02524801304142
30
0
41
1
10
87.1748195319298
20
4.02486419978061
30
0
41
1
10
87.1662708385182
20
4.02455854251923
30
0
41
1
10
87.1598405776936
20
4.02430625185775
30
0
41
1
10
87.1544683350998
20
4.02407917109824
30
0
41
1
10
87.1482154122183
20
4.02388269866603
30
0
41
1
10
87.14237193285
20
4.02386521685881
30
0
41
1
10
87.1306794907724
20
4.02427537709355
30
0
41
1
10
87.1122089369533
20
4.02678574555153
30
0
41
1
10
87.0875431614392
20
4.03448912346232
30
0
41
1
10
87.0638413512127
20
4.04691315207762
30
0
41
1
10
87.0423484926679
20
4.0635565277434
30
0
41
1
10
87.0243095721989
20
4.08391794680574
30
0
41
1
10
87.0103096152052
20
4.1067856807087
30
0
41
1
10
87.0009336470858
20
4.1309480008963
30
0
41
1
10
86.9971504824966
20
4.14926882957093
30
0
41
1
10
86.9959272548443
20
4.16094873254752
30
0
41
1
10
86.9955370071901
20
4.16680146373167
30
0
41
1
10
86.9952960733589
20
4.17307668699786
30
0
41
1
10
86.9951469902556
20
4.17847215453742
30
0
41
1
10
86.9949491563259
20
4.18492885319534
30
0
41
1
10
86.9946565820292
20
4.19351061906713
30
0
41
1
10
86.9942201225084
20
4.20527831154564
30
0
41
1
10
86.9937981276732
20
4.21705964990139
30
0
41
1
10
86.9934978990777
20
4.22563419476441
30
0
41
1
10
86.9932747764996
20
4.23206703629913
30
0
41
1
10
86.9931269171167
20
4.23635643600056
30
0
41
1
10
86.9929796758725
20
4.24064641884956
30
0
41
1
10
86.992832756433
20
4.2449367052867
30
0
41
1
10
86.9926495412275
20
4.25029997285404
30
0
41
1
10
86.9901595464255
20
4.3232420457191
30
0
41
1
10
86.9864662147546
20
4.42826556810684
30
0
41
1
10
86.9825742301209
20
4.53974501648293
30
0
41
1
10
86.9807816593853
20
4.59120058830621
30
0
41
1
10
86.9800353118601
20
4.61264093531972
30
0
41
1
10
86.9795131270246
20
4.62764942203216
30
0
41
1
10
86.9792148046755
20
4.63622576523397
30
0
41
1
10
86.9789165266994
20
4.6448021502969
30
0
41
1
10
86.9785437593958
20
4.65552270725419
30
0
41
1
10
86.9779474897932
20
4.67267574752012
30
0
41
1
10
86.977351437906
20
4.68982899317726
30
0
41
1
10
86.9768300490404
20
4.70483823080176
30
0
41
1
10
86.9765321524179
20
4.71341497563091
30
0
41
1
10
86.9762342807595
20
4.72199174401104
30
0
41
1
10
86.9758619849616
20
4.73271274578318
30
0
41
1
10
86.9752663921324
20
4.74986642451216
30
0
41
1
10
86.9742242818903
20
4.77988552946562
30
0
41
1
10
86.9727358651961
20
4.82277025966226
30
0
41
1
10
86.9667817933293
20
4.99430879829023
30
0
41
1
10
86.9566409345842
20
5.28590644933638
30
0
41
1
10
86.9375283804013
20
5.83477361824802
30
0
41
1
10
86.9136669595101
20
6.52088519422202
30
0
41
1
10
86.8945724394708
20
7.06976937641093
30
0
41
1
10
86.8850251794511
20
7.3442114675054
30
0
0
SPLINE
5
1FD
100
AcDbEntity
8
1
62
256
6
ByLayer
370
-1
48
1
60
0
100
AcDbSpline
70
4
71
3
72
39
73
35
40
0
40
0
40
0
40
0
40
0.0060880048235881
40
0.0231194529331214
40
0.0316351769878881
40
0.0571823491521882
40
0.0912452453712549
40
0.125308141590322
40
0.150855313754622
40
0.159371037809388
40
0.176402485918922
40
0.193433934028455
40
0.210465382137988
40
0.227496830247522
40
0.295622622685655
40
0.363748415123789
40
0.431874207561922
40
0.500000000000057
40
0.568125792438186
40
0.636251584876324
40
0.704377377314457
40
0.77250316975259
40
0.789534617862124
40
0.806566065971657
40
0.823597514081191
40
0.840628962190724
40
0.849144686245491
40
0.874691858409791
40
0.908754754628857
40
0.94281765084792
40
0.976880547066991
40
0.985396271121754
40
0.99391199517652
40
1
40
1
40
1
40
1
41
1
10
86.0746261355699
20
11.6474913562705
30
0
41
1
10
86.0736940840364
20
11.6473723408871
30
0
41
1
10
86.0701724214542
20
11.6469169970768
30
0
41
1
10
86.0654224355549
20
11.6462597110548
30
0
41
1
10
86.0577542850274
20
11.6450538127336
30
0
41
1
10
86.047533083482
20
11.6431901645917
30
0
41
1
10
86.0334615052137
20
11.6400176825639
30
0
41
1
10
86.0193324603175
20
11.6361564985988
30
0
41
1
10
86.0090572649202
20
11.6329030847287
30
0
41
1
10
86.0013629781235
20
11.6302699351189
30
0
41
1
10
85.9949611216316
20
11.6279544932546
30
0
41
1
10
85.9873029103646
20
11.6249806189219
30
0
41
1
10
85.9796766534687
20
11.6218098972348
30
0
41
1
10
85.9645039241155
20
11.615071752634
30
0
41
1
10
85.9421035555897
20
11.6034656316916
30
0
41
1
10
85.9134665062243
20
11.5849107287797
30
0
41
1
10
85.8865243931218
20
11.5633933378453
30
0
41
1
10
85.8616946500317
20
11.5392106571616
30
0
41
1
10
85.8393947107036
20
11.5126598850017
30
0
41
1
10
85.8198908025701
20
11.4841797604163
30
0
41
1
10
85.8034491530637
20
11.4542090224556
30
0
41
1
10
85.7934779319784
20
11.4309682606961
30
0
41
1
10
85.7878401754711
20
11.4153046459621
30
0
41
1
10
85.7852211944538
20
11.40744672778
30
0
41
1
10
85.7828000630659
20
11.3995705426801
30
0
41
1
10
85.7809456219281
20
11.3929983692463
30
0
41
1
10
85.7788656083746
20
11.3851098267832
30
0
41
1
10
85.7763492311196
20
11.3745935605992
30
0
41
1
10
85.7734977023333
20
11.3601757515819
30
0
41
1
10
85.7711291996098
20
11.344562418515
30
0
41
1
10
85.769918489118
20
11.3329085218279
30
0
41
1
10
85.7693507825975
20
11.3251500143825
30
0
41
1
10
85.7691260189882
20
11.3216224640398
30
0
41
1
10
85.7689953609376
20
11.3193748347153
30
0
41
1
10
85.7689421038842
20
11.3184331999063
30
0
0
SPLINE
5
1FE
100
AcDbEntity
8
1
62
256
6
ByLayer
370
-1
48
1
60
0
100
AcDbSpline
70
4
71
1
72
4
73
2
40
0
40
0
40
1
40
1
41
1
10
94.5800436554885
20
7.61320873171752
30
0
41
1
10
94.6982504136643
20
4.21527991985261
30
0
0
SPLINE
5
1FF
100
AcDbEntity
8
1
62
256
6
ByLayer
370
-1
48
1
60
0
100
AcDbSpline
70
4
71
3
72
12
73
8
40
0
40
0
40
0
40
0
40
0.144152604951234
40
0.620677764711019
40
0.858940344590912
40
0.978071634530831
40
1
40
1
40
1
40
1
41
1
10
93.5213387120396
20
11.9560059836639
30
0
41
1
10
93.5180010909709
20
11.9561685004805
30
0
41
1
10
93.5036274788159
20
11.9568163531536
30
0
41
1
10
93.4837095666524
20
11.9572317674792
30
0
41
1
10
93.4643815287914
20
11.956937895268
30
0
41
1
10
93.4555920437304
20
11.9566930119973
30
0
41
1
10
93.4523236672483
20
11.9565925718531
30
0
41
1
10
93.4518155873826
20
11.9565767623325
30
0
0
SPLINE
5
200
100
AcDbEntity
8
1
62
256
6
ByLayer
370
-1
48
1
60
0
100
AcDbSpline
70
4
71
3
72
39
73
35
40
0
40
0
40
0
40
0
40
0.0060880048235611
40
0.0231194529330949
40
0.0316351769878619
40
0.0571823491521626
40
0.0912452453712303
40
0.125308141590298
40
0.150855313754599
40
0.159371037809366
40
0.176402485918899
40
0.193433934028433
40
0.210465382137967
40
0.227496830247501
40
0.295622622685636
40
0.363748415123771
40
0.431874207561907
40
0.500000000000043
40
0.568125792438175
40
0.636251584876314
40
0.704377377314449
40
0.772503169752584
40
0.789534617862118
40
0.806566065971652
40
0.823597514081186
40
0.84062896219072
40
0.849144686245487
40
0.874691858409787
40
0.908754754628855
40
0.942817650847919
40
0.97688054706699
40
0.985396271121753
40
0.99391199517652
40
1
40
1
40
1
40
1
41
1
10
94.3635812772683
20
3.27318792361368
30
0
41
1
10
94.3645133288018
20
3.27330693899708
30
0
41
1
10
94.368034991384
20
3.27376228280733
30
0
41
1
10
94.3727849772833
20
3.27441956882933
30
0
41
1
10
94.3804531278108
20
3.27562546715055
30
0
41
1
10
94.3906743293562
20
3.27748911529244
30
0
41
1
10
94.4047459076245
20
3.28066159732026
30
0
41
1
10
94.4188749525208
20
3.28452278128535
30
0
41
1
10
94.429150147918
20
3.28777619515543
30
0
41
1
10
94.4368444347147
20
3.29040934476518
30
0
41
1
10
94.4432462912066
20
3.29272478662952
30
0
41
1
10
94.4509045024737
20
3.29569866096225
30
0
41
1
10
94.4585307593695
20
3.29886938264934
30
0
41
1
10
94.4737034887227
20
3.30560752725015
30
0
41
1
10
94.4961038572485
20
3.31721364819256
30
0
41
1
10
94.5247409066139
20
3.33576855110442
30
0
41
1
10
94.5516830197165
20
3.35728594203886
30
0
41
1
10
94.5765127628065
20
3.38146862272259
30
0
41
1
10
94.5988127021346
20
3.40801939488242
30
0
41
1
10
94.6183166102682
20
3.4364995194679
30
0
41
1
10
94.6347582597746
20
3.46647025742857
30
0
41
1
10
94.6447294808598
20
3.48971101918806
30
0
41
1
10
94.6503672373672
20
3.50537463392209
30
0
41
1
10
94.6529862183845
20
3.51323255210414
30
0
41
1
10
94.6554073497723
20
3.52110873720403
30
0
41
1
10
94.6572617909101
20
3.5276809106378
30
0
41
1
10
94.6593418044636
20
3.53556945310095
30
0
41
1
10
94.6618581817187
20
3.546085719285
30
0
41
1
10
94.664709710505
20
3.56050352830229
30
0
41
1
10
94.6670782132284
20
3.57611686136917
30
0
41
1
10
94.6682889237202
20
3.58777075805628
30
0
41
1
10
94.6688566302408
20
3.59552926550168
30
0
41
1
10
94.66908139385
20
3.59905681584431
30
0
41
1
10
94.6692120519007
20
3.60130444516884
30
0
41
1
10
94.669265308954
20
3.60224607997782
30
0
0
SPLINE
5
201
100
AcDbEntity
8
1
62
256
6
ByLayer
370
-1
48
1
60
0
100
AcDbSpline
70
4
71
3
72
39
73
35
40
0
40
0
40
0
40
0
40
0.0060880048236014
40
0.0231194529331342
40
0.0316351769879007
40
0.0571823491521999
40
0.0912452453712655
40
0.125308141590331
40
0.15085531375463
40
0.159371037809397
40
0.17640248591893
40
0.193433934028463
40
0.210465382137995
40
0.227496830247528
40
0.295622622685659
40
0.363748415123791
40
0.431874207561922
40
0.500000000000053
40
0.568125792438183
40
0.636251584876316
40
0.704377377314447
40
0.772503169752578
40
0.789534617862111
40
0.806566065971644
40
0.823597514081177
40
0.84062896219071
40
0.849144686245478
40
0.874691858409777
40
0.908754754628841
40
0.942817650847905
40
0.976880547066972
40
0.985396271121737
40
0.993911995176501
40
1
40
1
40
1
40
1
41
1
10
86.047885366507
20
3.30003083807014
30
0
41
1
10
86.0480039290009
20
3.29909522625127
30
0
41
1
10
86.0484575400906
20
3.29556011149006
30
0
41
1
10
86.0491123249408
20
3.29079198141633
30
0
41
1
10
86.0503136344548
20
3.28309453979955
30
0
41
1
10
86.0521701908528
20
3.27283429492476
30
0
41
1
10
86.0553306006288
20
3.25870896551353
30
0
41
1
10
86.0591770916232
20
3.24452594996109
30
0
41
1
10
86.0624181252712
20
3.23421150498669
30
0
41
1
10
86.0650412549518
20
3.22648782726441
30
0
41
1
10
86.0673478858607
20
3.22006151672073
30
0
41
1
10
86.0703104437038
20
3.21237405233077
30
0
41
1
10
86.0734690998376
20
3.20471866437253
30
0
41
1
10
86.0801816037639
20
3.1894879776581
30
0
41
1
10
86.0917435599122
20
3.1670020433636
30
0
41
1
10
86.1102278558166
20
3.13825560512194
30
0
41
1
10
86.1316633665822
20
3.1112105775243
30
0
41
1
10
86.155754024865
20
3.08628598884934
30
0
41
1
10
86.1822037633208
20
3.06390086737579
30
0
41
1
10
86.2105755124339
20
3.04432245748177
30
0
41
1
10
86.2404322026882
20
3.02781800354526
30
0
41
1
10
86.2635845263326
20
3.01780869401537
30
0
41
1
10
86.2791885362836
20
3.01214940219407
30
0
41
1
10
86.2870165527146
20
3.00952041709473
30
0
41
1
10
86.2948627665523
20
3.00709003737831
30
0
41
1
10
86.301409930882
20
3.00522851257668
30
0
41
1
10
86.3092684550595
20
3.0031405537093
30
0
41
1
10
86.3197447036757
20
3.00061456430191
30
0
41
1
10
86.3341076485768
20
2.99775214313891
30
0
41
1
10
86.3496615681976
20
2.99537459311978
30
0
41
1
10
86.3612711182894
20
2.99415925791067
30
0
41
1
10
86.3690001022716
20
2.99358938284337
30
0
41
1
10
86.3725142292202
20
2.9933637606737
30
0
41
1
10
86.3747533056366
20
2.99323260353051
30
0
41
1
10
86.3756913572408
20
2.99317914304388
30
0
0
SPLINE
5
202
100
AcDbEntity
8
1
62
256
6
ByLayer
370
-1
48
1
60
0
100
AcDbSpline
70
4
71
3
72
20
73
16
40
0
40
0
40
0
40
0
40
0.0120730283552444
40
0.0426388731030055
40
0.0579217954768861
40
0.0732047178507666
40
0.103770562598528
40
0.16490225209405
40
0.226033941589572
40
0.470560699571661
40
0.959614215535838
40
0.974897137909719
40
0.9901800602836
40
0.99782152147054
40
1
40
1
40
1
40
1
41
1
10
94.4564008683838
20
11.0807156725052
30
0
41
1
10
94.4561434336547
20
11.0828902312602
30
0
41
1
10
94.4552162785085
20
11.0905679684131
30
0
41
1
10
94.4539019043727
20
11.1009908191238
30
0
41
1
10
94.4525422250944
20
11.1119950993104
30
0
41
1
10
94.4511955382799
20
11.1230011890645
30
0
41
1
10
94.4488588614507
20
11.1422646634246
30
0
41
1
10
94.445497508419
20
11.1697809172019
30
0
41
1
10
94.4373972928971
20
11.2358315188303
30
0
41
1
10
94.4198925533832
20
11.3791186604744
30
0
41
1
10
94.4035189682073
20
11.5128197749995
30
0
41
1
10
94.3919586517154
20
11.6074147778961
30
0
41
1
10
94.3911204450693
20
11.6142393511818
30
0
41
1
10
94.390581811473
20
11.6185901649964
30
0
41
1
10
94.3903693256063
20
11.6202753470258
30
0
41
1
10
94.3903220463332
20
11.6206484417982
30
0
0
SPLINE
5
203
100
AcDbEntity
8
1
62
256
6
ByLayer
370
-1
48
1
60
0
100
AcDbSpline
70
4
71
3
72
87
73
83
40
0
40
0
40
0
40
0
40
0.125
40
0.25
40
0.375
40
0.390625
40
0.39453125
40
0.396484375
40
0.3984375
40
0.3994140625
40
0.400390625
40
0.40234375
40
0.40625
40
0.408203125
40
0.41015625
40
0.412109375
40
0.4140625
40
0.421875
40
0.4375
40
0.453125
40
0.46826171875
40
0.46875
40
0.4697265625
40
0.47021484375
40
0.470703125
40
0.4716796875
40
0.47216796875
40
0.47265625
40
0.474609375
40
0.4765625
40
0.478515625
40
0.47998046875
40
0.48046875
40
0.4814453125
40
0.482421875
40
0.4833984375
40
0.484375
40
0.48828125
40
0.4921875
40
0.49609375
40
0.5
40
0.50390625
40
0.5078125
40
0.51171875
40
0.515625
40
0.5166015625
40
0.517578125
40
0.5185546875
40
0.51953125
40
0.52001953125
40
0.521484375
40
0.5234375
40
0.525390625
40
0.52685546875
40
0.52734375
40
0.5283203125
40
0.52880859375
40
0.529296875
40
0.5302734375
40
0.53125
40
0.5625
40
0.578125
40
0.58203125
40
0.5859375
40
0.587890625
40
0.5888671875
40
0.58984375
40
0.591796875
40
0.59375
40
0.59765625
40
0.599609375
40
0.6005859375
40
0.6015625
40
0.603515625
40
0.60546875
40
0.609375
40
0.6171875
40
0.625
40
0.6875
40
0.75
40
0.875
40
1
40
1
40
1
40
1
41
1
10
93.5106678193025
20
7.57646781237872
30
0
41
1
10
93.5202150793222
20
7.30202572128425
30
0
41
1
10
93.5393095993615
20
6.75314153909531
30
0
41
1
10
93.5679599641147
20
5.92980823191778
30
0
41
1
10
93.5882187036966
20
5.34664270358204
30
0
41
1
10
93.5992856578422
20
5.02929614733699
30
0
41
1
10
93.6009301370806
20
4.98212350920693
30
0
41
1
10
93.6015280218767
20
4.96496991082094
30
0
41
1
10
93.6019016464209
20
4.95424895562687
30
0
41
1
10
93.6022005088258
20
4.94567222197657
30
0
41
1
10
93.6024993446907
20
4.93709551007174
30
0
41
1
10
93.6030222332737
20
4.92208632501857
30
0
41
1
10
93.6036196300356
20
4.90493312650489
30
0
41
1
10
93.6042167953394
20
4.88778011763702
30
0
41
1
10
93.6046645432713
20
4.87491546426227
30
0
41
1
10
93.6051121548401
20
4.86205092261696
30
0
41
1
10
93.6060070846179
20
4.83632207969168
30
0
41
1
10
93.6079443983357
20
4.78057764690948
30
0
41
1
10
93.6109169503811
20
4.69482347904895
30
0
41
1
10
93.6144290718802
20
4.59300497613157
30
0
41
1
10
93.6168239658831
20
4.52438783380745
30
0
41
1
10
93.6181146539209
20
4.48791990036352
30
0
41
1
10
93.6182667062987
20
4.48362938587064
30
0
41
1
10
93.6184186774419
20
4.47933893793763
30
0
41
1
10
93.6185704984416
20
4.47504861302505
30
0
41
1
10
93.6187219502458
20
4.47075859061397
30
0
41
1
10
93.6188727448935
20
4.466469106646
30
0
41
1
10
93.6190981357278
20
4.46003553710804
30
0
41
1
10
93.6194326777887
20
4.45038808674406
30
0
41
1
10
93.6198665655546
20
4.43753478973676
30
0
41
1
10
93.62024891829
20
4.42576520059029
30
0
41
1
10
93.6205534124333
20
4.41718385255871
30
0
41
1
10
93.6208047430526
20
4.41072902918233
30
0
41
1
10
93.6210309597013
20
4.40533626549453
30
0
41
1
10
93.6212266844965
20
4.39905945746352
30
0
41
1
10
93.6212440997802
20
4.39319365695334
30
0
41
1
10
93.620835500329
20
4.38145655164649
30
0
41
1
10
93.6183346845809
20
4.36291544331243
30
0
41
1
10
93.6106606203488
20
4.33815544854301
30
0
41
1
10
93.5982838689133
20
4.31436310125196
30
0
41
1
10
93.5817038263166
20
4.29278814347919
30
0
41
1
10
93.5614198886011
20
4.27468031726463
30
0
41
1
10
93.5386391733297
20
4.26062688270949
30
0
41
1
10
93.5145687980652
20
4.2512150999151
30
0
41
1
10
93.4963176856749
20
4.2474174842518
30
0
41
1
10
93.4846822282553
20
4.24618958406862
30
0
41
1
10
93.4788517684804
20
4.24579784573174
30
0
41
1
10
93.4726004243332
20
4.24555599157239
30
0
41
1
10
93.4672254881766
20
4.24540633899599
30
0
41
1
10
93.4607933592064
20
4.2452077493727
30
0
41
1
10
93.4522442495446
20
4.24491405748969
30
0
41
1
10
93.4405213366888
20
4.24447593076442
30
0
41
1
10
93.4287848298824
20
4.2440523239776
30
0
41
1
10
93.4202429137513
20
4.24375094855756
30
0
41
1
10
93.4138345511207
20
4.24352697368749
30
0
41
1
10
93.4095614738801
20
4.24337854950574
30
0
41
1
10
93.4052878157111
20
4.24323074582395
30
0
41
1
10
93.4010138551091
20
4.24308326517607
30
0
41
1
10
93.3956709963941
20
4.24289935011825
30
0
41
1
10
93.3230064901381
20
4.24039984394065
30
0
41
1
10
93.2183826139605
20
4.23669240434273
30
0
41
1
10
93.107327378542
20
4.23278555296002
30
0
41
1
10
93.0560676107044
20
4.23098613489549
30
0
41
1
10
93.0347088506843
20
4.23023693644393
30
0
41
1
10
93.019757475795
20
4.22971275694715
30
0
41
1
10
93.0112137681683
20
4.22941329505517
30
0
41
1
10
93.0026700188398
20
4.22911387770563
30
0
41
1
10
92.9919902568384
20
4.22873968649157
30
0
41
1
10
92.9749024890693
20
4.22814113923587
30
0
41
1
10
92.9578145166906
20
4.22754281052735
30
0
41
1
10
92.9428623937467
20
4.22701943004091
30
0
41
1
10
92.934318286021
20
4.22672039550176
30
0
41
1
10
92.925774154834
20
4.22642138602205
30
0
41
1
10
92.9150939497103
20
4.22604766811466
30
0
41
1
10
92.8980055459077
20
4.22544980021758
30
0
41
1
10
92.8681006727116
20
4.22440370928368
30
0
41
1
10
92.8253791318606
20
4.22290960707949
30
0
41
1
10
92.654493349161
20
4.21693279162551
30
0
41
1
10
92.3640053152129
20
4.20675319644744
30
0
41
1
10
91.8172267515865
20
4.18756763541248
30
0
41
1
10
91.1337260373018
20
4.16361506776997
30
0
41
1
10
90.5869305251388
20
4.14444760976608
30
0
41
1
10
90.3135327690572
20
4.13486388076413
30
0
0
SPLINE
5
204
100
AcDbEntity
8
1
62
256
6
ByLayer
370
-1
48
1
60
0
100
AcDbSpline
70
4
71
3
72
12
73
8
40
0
40
0
40
0
40
0
40
0.0219283654690014
40
0.141059655408923
40
0.379322235288766
40
0.855847395048451
40
1
40
1
40
1
40
1
41
1
10
93.7563890093345
20
3.2014190898752
30
0
41
1
10
93.756896950163
20
3.20143889610779
30
0
41
1
10
93.7601643447333
20
3.20156756193526
30
0
41
1
10
93.768949436241
20
3.20193874070395
30
0
41
1
10
93.7882508134556
20
3.20299899023419
30
0
41
1
10
93.8080913390171
20
3.2048081032433
30
0
41
1
10
93.8223849178263
20
3.20646086024837
30
0
41
1
10
93.8257031151569
20
3.20685669119581
30
0
0
SPLINE
5
205
100
AcDbEntity
8
1
62
256
6
ByLayer
370
-1
48
1
60
0
100
AcDbSpline
70
4
71
3
72
20
73
16
40
0
40
0
40
0
40
0
40
0.0120730283552201
40
0.0426388731029812
40
0.0579217954768618
40
0.0732047178507423
40
0.103770562598503
40
0.164902252094026
40
0.226033941589548
40
0.470560699571636
40
0.959614215535814
40
0.974897137909695
40
0.990180060283575
40
0.997821521470515
40
1
40
1
40
1
40
1
41
1
10
93.8257031151569
20
3.20685669119581
30
0
41
1
10
93.8278693990593
20
3.20711510928371
30
0
41
1
10
93.8355179201045
20
3.208045806012
30
0
41
1
10
93.8459011087214
20
3.20936520084348
30
0
41
1
10
93.8568635142997
20
3.21073007387571
30
0
41
1
10
93.8678277225594
20
3.21208190481505
30
0
41
1
10
93.8870178935837
20
3.21442750737009
30
0
41
1
10
93.914429439708
20
3.2178017002243
30
0
41
1
10
93.980228698856
20
3.22593285725361
30
0
41
1
10
94.1229705896665
20
3.24350446202862
30
0
41
1
10
94.2561629310854
20
3.25994059163998
30
0
41
1
10
94.350397971437
20
3.27154506666278
30
0
41
1
10
94.3571965751609
20
3.27238647512209
30
0
41
1
10
94.3615308328154
20
3.27292716621128
30
0
41
1
10
94.3632096022185
20
3.27314046373945
30
0
41
1
10
94.3635812772526
20
3.27318792361166
30
0
0
SPLINE
5
206
100
AcDbEntity
8
1
62
256
6
ByLayer
370
-1
48
1
60
0
100
AcDbSpline
70
4
71
3
72
33
73
29
40
0
40
0
40
0
40
0
40
0.015625
40
0.0234375
40
0.02734375
40
0.03125
40
0.046875
40
0.0625
40
0.125
40
0.1875
40
0.21875
40
0.234375
40
0.25
40
0.3125
40
0.375
40
0.4375
40
0.5
40
0.5625
40
0.578125
40
0.59375
40
0.625
40
0.65625
40
0.6875
40
0.75
40
0.8125
40
0.84375
40
0.875
40
1
40
1
40
1
40
1
41
1
10
86.8850251794511
20
7.3442114675054
30
0
41
1
10
86.8792667122548
20
7.34400960926828
30
0
41
1
10
86.8705346530694
20
7.34369871368653
30
0
41
1
10
86.8615714533211
20
7.34337102860201
30
0
41
1
10
86.8570029616594
20
7.34320107426066
30
0
41
1
10
86.8503134199582
20
7.34295102769099
30
0
41
1
10
86.840165634815
20
7.3425721956396
30
0
41
1
10
86.8131805228273
20
7.34156448496717
30
0
41
1
10
86.7727052414065
20
7.34005300488022
30
0
41
1
10
86.7277205085172
20
7.33837314340602
30
0
41
1
10
86.6962557770708
20
7.33719812536756
30
0
41
1
10
86.6782334838417
20
7.33652515830971
30
0
41
1
10
86.6514704928144
20
7.33552561364488
30
0
41
1
10
86.6090347189831
20
7.3339543787653
30
0
41
1
10
86.5480891981063
20
7.33172437593345
30
0
41
1
10
86.4836254453874
20
7.32939126305487
30
0
41
1
10
86.4166157999799
20
7.32698988003085
30
0
41
1
10
86.365537745978
20
7.32517665225649
30
0
41
1
10
86.3309204933121
20
7.32395424229418
30
0
41
1
10
86.3078051208083
20
7.32313764592598
30
0
41
1
10
86.2788903148465
20
7.32211634900358
30
0
41
1
10
86.2441916886038
20
7.32089018978107
30
0
41
1
10
86.1979407066265
20
7.31925865162583
30
0
41
1
10
86.1393491648629
20
7.31720332391407
30
0
41
1
10
86.0805178999786
20
7.31515351940809
30
0
41
1
10
86.0335781687439
20
7.31352625802367
30
0
41
1
10
85.9635032269352
20
7.31110682445478
30
0
41
1
10
85.9049560708463
20
7.30908587919083
30
0
41
1
10
85.8581637573498
20
7.30747054816661
30
0
0
SPLINE
5
207
100
AcDbEntity
8
1
62
256
6
ByLayer
370
-1
48
1
60
0
100
AcDbSpline
70
4
71
3
72
8
73
4
40
0
40
0
40
0
40
0
40
1
40
1
40
1
40
1
41
1
10
94.6682941466303
20
-3.17112751454269
30
0
41
1
10
94.6627266724868
20
-3.16101874260022
30
0
41
1
10
94.6573513144924
20
-3.15086313457636
30
0
41
1
10
94.6521700009118
20
-3.14066033489667
30
0
0
SPLINE
5
208
100
AcDbEntity
8
1
62
256
6
ByLayer
370
-1
48
1
60
0
100
AcDbSpline
70
4
71
3
72
16
73
12
40
0
40
0
40
0
40
0
40
0.249999999999997
40
0.249999999999997
40
0.499999999999995
40
0.499999999999995
40
0.749999999999992
40
0.749999999999992
40
0.874999999999996
40
0.874999999999996
40
1
40
1
40
1
40
1
41
1
10
94.8062706359468
20
-5.72927128300702
30
0
41
1
10
94.8120609229345
20
-5.75903258302992
30
0
41
1
10
94.8163754918814
20
-5.78980674857618
30
0
41
1
10
94.8207236247828
20
-5.85410796182177
30
0
41
1
10
94.8207931329403
20
-5.88764394712442
30
0
41
1
10
94.8139331411344
20
-5.95807623832087
30
0
41
1
10
94.8071715762474
20
-5.99531202635993
30
0
41
1
10
94.7863058904064
20
-6.05496691106177
30
0
41
1
10
94.7775216712682
20
-6.07551293928643
30
0
41
1
10
94.753918717318
20
-6.11794277762957
30
0
41
1
10
94.7395062738804
20
-6.13927731311679
30
0
41
1
10
94.7201676678446
20
-6.16076602277772
30
0
0
SPLINE
5
209
100
AcDbEntity
8
1
62
256
6
ByLayer
370
-1
48
1
60
0
100
AcDbSpline
70
4
71
3
72
20
73
16
40
0
40
0
40
0
40
0
40
0.249999999999998
40
0.249999999999998
40
0.499999999999997
40
0.499999999999997
40
0.624999999999997
40
0.624999999999997
40
0.749999999999996
40
0.749999999999996
40
0.812499999999997
40
0.812499999999997
40
0.874999999999997
40
0.874999999999997
40
1
40
1
40
1
40
1
41
1
10
94.8062706359468
20
-5.72927128300719
30
0
41
1
10
94.795521185487
20
-5.67402054657578
30
0
41
1
10
94.7849007877031
20
-5.61740379111629
30
0
41
1
10
94.76413972129
20
-5.49939466085135
30
0
41
1
10
94.753990024883
20
-5.43816482252743
30
0
41
1
10
94.7395591155122
20
-5.33915131073081
30
0
41
1
10
94.7348921917541
20
-5.30498598499602
30
0
41
1
10
94.7260360670997
20
-5.23278761440503
30
0
41
1
10
94.7218389651833
20
-5.19478086597255
30
0
41
1
10
94.7163125732188
20
-5.13334079611906
30
0
41
1
10
94.7145976384908
20
-5.11208532113002
30
0
41
1
10
94.7115479736085
20
-5.06725644877716
30
0
41
1
10
94.7102029186504
20
-5.04347560614872
30
0
41
1
10
94.7071778784206
20
-4.96868789473217
30
0
41
1
10
94.7065408273817
20
-4.91248639105916
30
0
41
1
10
94.7085404895308
20
-4.85533036435743
30
0
0
SPLINE
5
20A
100
AcDbEntity
8
1
62
256
6
ByLayer
370
-1
48
1
60
0
100
AcDbSpline
70
4
71
3
72
12
73
8
40
0
40
0
40
0
40
0
40
0.25
40
0.25
40
0.500000000000001
40
0.500000000000001
40
1
40
1
40
1
40
1
41
1
10
94.2866694369035
20
-0.121805079258053
30
0
41
1
10
94.2757981781785
20
-0.0924590230810338
30
0
41
1
10
94.2655172567528
20
-0.0629543840122722
30
0
41
1
10
94.2471955304412
20
-0.0071747857114701
30
0
41
1
10
94.2390843926237
20
0.0192468593102149
30
0
41
1
10
94.21769829384
20
0.092707333432628
30
0
41
1
10
94.2069885294331
20
0.134880701421054
30
0
41
1
10
94.197961291944
20
0.173253245059669
30
0
0
SPLINE
5
20B
100
AcDbEntity
8
1
62
256
6
ByLayer
370
-1
48
1
60
0
100
AcDbSpline
70
4
71
3
72
8
73
4
40
0
40
0
40
0
40
0
40
1
40
1
40
1
40
1
41
1
10
94.7526272735673
20
-3.59520483053254
30
0
41
1
10
94.7531826265575
20
-3.57933126391515
30
0
41
1
10
94.7539203497129
20
-3.56371230384289
30
0
41
1
10
94.7548254559098
20
-3.54837537871134
30
0
0
SPLINE
5
20C
100
AcDbEntity
8
1
62
256
6
ByLayer
370
-1
48
1
60
0
100
AcDbSpline
70
4
71
3
72
8
73
4
40
0
40
0
40
0
40
0
40
1
40
1
40
1
40
1
41
1
10
94.2866694369035
20
-0.121805079258024
30
0
41
1
10
94.3046383858219
20
-0.170310758107462
30
0
41
1
10
94.3125168265441
20
-0.220100471959824
30
0
41
1
10
94.3122144416827
20
-0.265204919553298
30
0
0
SPLINE
5
20D
100
AcDbEntity
8
1
62
256
6
ByLayer
370
-1
48
1
60
0
100
AcDbSpline
70
4
71
3
72
12
73
8
40
0
40
0
40
0
40
0
40
0.25
40
0.25
40
0.5
40
0.5
40
1
40
1
40
1
40
1
41
1
10
94.6682941466304
20
-3.17112751454269
30
0
41
1
10
94.6839535409574
20
-3.19956002126446
30
0
41
1
10
94.6979524411456
20
-3.22959893643963
30
0
41
1
10
94.7215409661001
20
-3.29120933169497
30
0
41
1
10
94.7310874653051
20
-3.32254094485035
30
0
41
1
10
94.753058535001
20
-3.41809881261474
30
0
41
1
10
94.7586049673311
20
-3.48433197264146
30
0
41
1
10
94.7548254559097
20
-3.54837537871129
30
0
0
SPLINE
5
20E
100
AcDbEntity
8
1
62
256
6
ByLayer
370
-1
48
1
60
0
100
AcDbSpline
70
4
71
3
72
14
73
10
40
0
40
0
40
0
40
0
40
0.25
40
0.25
40
0.5
40
0.5
40
0.75
40
0.75
40
1
40
1
40
1
40
1
41
1
10
93.8431555125785
20
1.43474587112902
30
0
41
1
10
93.856867185642
20
1.42150682267149
30
0
41
1
10
93.870447791668
20
1.40614352473381
30
0
41
1
10
93.8942142837556
20
1.37385884840077
30
0
41
1
10
93.9043191670013
20
1.35709490781801
30
0
41
1
10
93.9202832986451
20
1.32583830239074
30
0
41
1
10
93.9264546869065
20
1.31092040659533
30
0
41
1
10
93.9362118992802
20
1.28323182562576
30
0
41
1
10
93.9398940937995
20
1.27023278811222
30
0
41
1
10
93.942827738427
20
1.25776259365867
30
0
0
SPLINE
5
20F
100
AcDbEntity
8
1
62
256
6
ByLayer
370
-1
48
1
60
0
100
AcDbSpline
70
4
71
3
72
14
73
10
40
0
40
0
40
0
40
0
40
0.25
40
0.25
40
0.5
40
0.5
40
0.75
40
0.75
40
1
40
1
40
1
40
1
41
1
10
94.7201676701518
20
-6.16076602021397
30
0
41
1
10
94.7074028037842
20
-6.17495010938214
30
0
41
1
10
94.6922673974271
20
-6.18876150700459
30
0
41
1
10
94.6598016956116
20
-6.21236319938953
30
0
41
1
10
94.6426345464632
20
-6.22207804661909
30
0
41
1
10
94.6102283527939
20
-6.23692325778083
30
0
41
1
10
94.5945615691334
20
-6.24236346900369
30
0
41
1
10
94.5652482865309
20
-6.25053245575748
30
0
41
1
10
94.551362235018
20
-6.25334666852749
30
0
41
1
10
94.5379583126133
20
-6.25536611438255
30
0
0
SPLINE
5
210
100
AcDbEntity
8
1
62
256
6
ByLayer
370
-1
48
1
60
0
100
AcDbSpline
70
4
71
3
72
8
73
4
40
0
40
0
40
0
40
0
40
1
40
1
40
1
40
1
41
1
10
94.3149661596398
20
-0.384535711304238
30
0
41
1
10
94.3127428016193
20
-0.342190643468683
30
0
41
1
10
94.3119673565176
20
-0.30206073247021
30
0
41
1
10
94.3122144416827
20
-0.265204919553327
30
0
0
SPLINE
5
211
100
AcDbEntity
8
1
62
256
6
ByLayer
370
-1
48
1
60
0
100
AcDbSpline
70
4
71
3
72
10
73
6
40
0
40
0
40
0
40
0
40
0.380837242212271
40
0.380837242212271
40
1
40
1
40
1
40
1
41
1
10
93.7459571340366
20
1.50421796377
30
0
41
1
10
93.757688615903
20
1.49814031229525
30
0
41
1
10
93.7697064950279
20
1.49123389702967
30
0
41
1
10
93.8020649524463
20
1.47024329041852
30
0
41
1
10
93.8223825096011
20
1.45480285442107
30
0
41
1
10
93.8431555150569
20
1.43474586873609
30
0
0
SPLINE
5
212
100
AcDbEntity
8
SK1
62
256
6
ByLayer
370
-1
48
1
60
0
100
AcDbSpline
70
4
71
3
72
20
73
16
40
0
40
0
40
0
40
0
40
0.25
40
0.25
40
0.375
40
0.375
40
0.5
40
0.5
40
0.625
40
0.625
40
0.75
40
0.75
40
0.875
40
0.875
40
1
40
1
40
1
40
1
41
1
10
-54.5162227297291
20
6.8120439556497
30
0
41
1
10
-54.4772709483907
20
6.72453199501689
30
0
41
1
10
-54.4306845518237
20
6.63914767831511
30
0
41
1
10
-54.3469265709005
20
6.52165950363116
30
0
41
1
10
-54.3163253277688
20
6.4838456686486
30
0
41
1
10
-54.2501041764424
20
6.41421731653315
30
0
41
1
10
-54.2145625265326
20
6.38236090680323
30
0
41
1
10
-54.1369222939179
20
6.32662557921188
30
0
41
1
10
-54.0940013611407
20
6.30244517653043
30
0
41
1
10
-54.0037548865671
20
6.26824500575401
30
0
41
1
10
-53.9556146989167
20
6.25796898452336
30
0
41
1
10
-53.8582046255659
20
6.25504848254036
30
0
41
1
10
-53.8099490429817
20
6.26234710426348
30
0
41
1
10
-53.7177558858445
20
6.29178438547694
30
0
41
1
10
-53.6739857261288
20
6.31382932086129
30
0
41
1
10
-53.6338144512151
20
6.3403417946746
30
0
0
SPLINE
5
213
100
AcDbEntity
8
SK1
62
256
6
ByLayer
370
-1
48
1
60
0
100
AcDbSpline
70
4
71
3
72
8
73
4
40
0
40
0
40
0
40
0
40
1
40
1
40
1
40
1
41
1
10
-54.516222729729
20
-6.81204395564961
30
0
41
1
10
-54.5439393896427
20
-6.87431425928901
30
0
41
1
10
-54.5718676648179
20
-6.93646419260506
30
0
41
1
10
-54.6
20
-6.99849805315392
30
0
0
SPLINE
5
214
100
AcDbEntity
8
SK1
62
256
6
ByLayer
370
-1
48
1
60
0
100
AcDbSpline
70
4
71
3
72
68
73
64
40
0
40
0
40
0
40
0
40
0.015625
40
0.015625
40
0.0312499999999999
40
0.0312499999999999
40
0.0468749999999999
40
0.0468749999999999
40
0.0624999999999998
40
0.0624999999999998
40
0.0781249999999998
40
0.0781249999999998
40
0.0937499999999997
40
0.0937499999999997
40
0.125
40
0.125
40
0.15625
40
0.15625
40
0.1875
40
0.1875
40
0.25
40
0.25
40
0.28125
40
0.28125
40
0.3125
40
0.3125
40
0.375
40
0.375
40
0.4375
40
0.4375
40
0.46875
40
0.46875
40
0.5
40
0.5
40
0.5625
40
0.5625
40
0.625
40
0.625
40
0.6875
40
0.6875
40
0.75
40
0.75
40
0.8125
40
0.8125
40
0.84375
40
0.84375
40
0.859375
40
0.859375
40
0.875
40
0.875
40
0.90625
40
0.90625
40
0.921875
40
0.921875
40
0.9375
40
0.9375
40
0.953125
40
0.953125
40
0.96875
40
0.96875
40
0.984375
40
0.984375
40
1
40
1
40
1
40
1
41
1
10
-6.5
20
-6.99849805315398
30
0
41
1
10
-6.4096424095903
20
-6.99849805315398
30
0
41
1
10
-6.31887533751086
20
-6.9924669932976
30
0
41
1
10
-6.13726564177031
20
-6.96792032412691
30
0
41
1
10
-6.04880117468585
20
-6.94974705973743
30
0
41
1
10
-5.87614107362342
20
-6.90252164638767
30
0
41
1
10
-5.79194795071362
20
-6.87346297167917
30
0
41
1
10
-5.62761370230606
20
-6.80484072991021
30
0
41
1
10
-5.54890965383427
20
-6.76585529638666
30
0
41
1
10
-5.39867973784189
20
-6.68016521734489
30
0
41
1
10
-5.32694157755157
20
-6.63336290342139
30
0
41
1
10
-5.18947718430641
20
-6.53250060019133
30
0
41
1
10
-5.12348684568531
20
-6.47818603126365
30
0
41
1
10
-4.93566988154686
20
-6.30674027670506
30
0
41
1
10
-4.82518003213681
20
-6.18267595320251
30
0
41
1
10
-4.62603001440084
20
-5.91868980815966
30
0
41
1
10
-4.53721391214785
20
-5.77825879287735
30
0
41
1
10
-4.37814656673874
20
-5.48542007115435
30
0
41
1
10
-4.30877871567313
20
-5.33483042069352
30
0
41
1
10
-4.12354082750574
20
-4.87237000918773
30
0
41
1
10
-4.03020120532329
20
-4.54989217457512
30
0
41
1
10
-3.91807144557504
20
-4.04887624586692
30
0
41
1
10
-3.88552668802802
20
-3.87909831441809
30
0
41
1
10
-3.82866773565829
20
-3.53847076026688
30
0
41
1
10
-3.80422767364425
20
-3.36705941807358
30
0
41
1
10
-3.74020579920568
20
-2.84975913582008
30
0
41
1
10
-3.70977205452269
20
-2.5008195214777
30
0
41
1
10
-3.66416163751657
20
-1.79552608157809
30
0
41
1
10
-3.64903771748126
20
-1.43916908464092
30
0
41
1
10
-3.63426182330713
20
-0.899256752194447
30
0
41
1
10
-3.63068669313998
20
-0.718167674817778
30
0
41
1
10
-3.62598899859142
20
-0.357375695924361
30
0
41
1
10
-3.62485343662013
20
-0.177302953433326
30
0
41
1
10
-3.62488496014578
20
0.361962578325034
30
0
41
1
10
-3.62938260517049
20
0.720207066315254
30
0
41
1
10
-3.64887950283875
20
1.43414621185846
30
0
41
1
10
-3.66385562324439
20
1.78984138878459
30
0
41
1
10
-3.70956223321124
20
2.49851694715909
30
0
41
1
10
-3.74045671775656
20
2.85271919963691
30
0
41
1
10
-3.82645737175278
20
3.54573152185978
30
0
41
1
10
-3.88145968550236
20
3.88575414429386
30
0
41
1
10
-4.03051920995767
20
4.55084385300148
30
0
41
1
10
-4.12523349261875
20
4.87761469840365
30
0
41
1
10
-4.31105593218689
20
5.33999328729007
30
0
41
1
10
-4.38041029850672
20
5.4899128326384
30
0
41
1
10
-4.49888437250004
20
5.70752713951083
30
0
41
1
10
-4.54079549132547
20
5.77885043055693
30
0
41
1
10
-4.63023926406612
20
5.91883578995851
30
0
41
1
10
-4.67776791395602
20
5.98743717509882
30
0
41
1
10
-4.82792587490127
20
6.18597359029033
30
0
41
1
10
-4.93858588995937
20
6.30966494075429
30
0
41
1
10
-5.12522766477915
20
6.47964028567972
30
0
41
1
10
-5.19131964832849
20
6.53397024553271
30
0
41
1
10
-5.32929892448178
20
6.63497116118225
30
0
41
1
10
-5.40112275258878
20
6.68167605293547
30
0
41
1
10
-5.55102867370906
20
6.76694298534821
30
0
41
1
10
-5.62910582891868
20
6.80551115138627
30
0
41
1
10
-5.79238720600742
20
6.87359848794483
30
0
41
1
10
-5.87738605118548
20
6.90291103819595
30
0
41
1
10
-6.04966564042599
20
6.94993403370722
30
0
41
1
10
-6.13756051826556
20
6.96792637087054
30
0
41
1
10
-6.31709499624006
20
6.99225989008042
30
0
41
1
10
-6.40924253974518
20
6.99849805315398
30
0
41
1
10
-6.5
20
6.99849805315398
30
0
0
SPLINE
5
215
100
AcDbEntity
8
SK1
62
256
6
ByLayer
370
-1
48
1
60
0
100
AcDbSpline
70
4
71
3
72
8
73
4
40
0
40
0
40
0
40
0
40
1
40
1
40
1
40
1
41
1
10
-56.0000000000001
20
4.99854728896315
30
0
41
1
10
-55.7019755215914
20
5.68400902895925
30
0
41
1
10
-55.3641473109836
20
6.34826454962635
30
0
41
1
10
-55
20
6.99849805315404
30
0
0
SPLINE
5
216
100
AcDbEntity
8
SK1
62
256
6
ByLayer
370
-1
48
1
60
0
100
AcDbSpline
70
4
71
3
72
8
73
4
40
0
40
0
40
0
40
0
40
1
40
1
40
1
40
1
41
1
10
-54.6
20
6.99849805315404
30
0
41
1
10
-54.5718676648179
20
6.93646419260517
30
0
41
1
10
-54.5439393896427
20
6.87431425928909
30
0
41
1
10
-54.516222729729
20
6.81204395564973
30
0
0
SPLINE
5
217
100
AcDbEntity
8
SK1
62
256
6
ByLayer
370
-1
48
1
60
0
100
AcDbSpline
70
4
71
3
72
8
73
4
40
0
40
0
40
0
40
0
40
1
40
1
40
1
40
1
41
1
10
-52.6000000000004
20
-6.99849805315466
30
0
41
1
10
-52.9473802440142
20
-6.78469639798683
30
0
41
1
10
-53.292222119692
20
-6.56578790669792
30
0
41
1
10
-53.6338144512151
20
-6.34034179467449
30
0
0
SPLINE
5
218
100
AcDbEntity
8
SK1
62
256
6
ByLayer
370
-1
48
1
60
0
100
AcDbSpline
70
4
71
3
72
8
73
4
40
0
40
0
40
0
40
0
40
1
40
1
40
1
40
1
41
1
10
-53.6338144512151
20
6.3403417946746
30
0
41
1
10
-53.292222119692
20
6.56578790669803
30
0
41
1
10
-52.9473802440142
20
6.78469639798695
30
0
41
1
10
-52.6000000000004
20
6.99849805315478
30
0
0
SPLINE
5
219
100
AcDbEntity
8
SK1
62
256
6
ByLayer
370
-1
48
1
60
0
100
AcDbSpline
70
4
71
3
72
20
73
16
40
0
40
0
40
0
40
0
40
0.125000000000007
40
0.125000000000007
40
0.250000000000015
40
0.250000000000015
40
0.312500000000018
40
0.312500000000018
40
0.375000000000022
40
0.375000000000022
40
0.500000000000012
40
0.500000000000012
40
0.750000000000006
40
0.750000000000006
40
1
40
1
40
1
40
1
41
1
10
-53.6338144512145
20
-6.34034179467375
30
0
41
1
10
-53.6736405326374
20
-6.31405714368668
30
0
41
1
10
-53.7174596238936
20
-6.2918915268643
30
0
41
1
10
-53.8100286430816
20
-6.26230917234659
30
0
41
1
10
-53.858409060093
20
-6.25510537770515
30
0
41
1
10
-53.930507607687
20
-6.25719119578446
30
0
41
1
10
-53.9548847131617
20
-6.26004287846277
30
0
41
1
10
-54.0024268232708
20
-6.26975628298462
30
0
41
1
10
-54.025531470073
20
-6.27654559824734
30
0
41
1
10
-54.0930893921825
20
-6.30200607369946
30
0
41
1
10
-54.136092797726
20
-6.32609087475549
30
0
41
1
10
-54.2534188607808
20
-6.41013429612562
30
0
41
1
10
-54.3194596979378
20
-6.48308041368765
30
0
41
1
10
-54.4306544823114
20
-6.63915672058906
30
0
41
1
10
-54.4771151388184
20
-6.72418194167685
30
0
41
1
10
-54.5162227297291
20
-6.81204395564961
30
0
0
SPLINE
5
21A
100
AcDbEntity
8
SK1
62
256
6
ByLayer
370
-1
48
1
60
0
100
AcDbSpline
70
4
71
3
72
8
73
4
40
0
40
0
40
0
40
0
40
1
40
1
40
1
40
1
41
1
10
-55
20
-6.99849805315392
30
0
41
1
10
-55.3648529633576
20
-6.34700451336727
30
0
41
1
10
-55.7026345426883
20
-5.68249326840734
30
0
41
1
10
-56
20
-4.99854728896301
30
0
0
LINE
5
45
100
AcDbEntity
8
80
62
256
6
ByLayer
370
-1
48
1
60
0
100
AcDbLine
10
0
20
0
30
0
11
-7
21
0
31
0
39
0
210
0
220
0
230
1
0
LINE
5
46
100
AcDbEntity
8
81
62
256
6
ByLayer
370
-1
48
1
60
0
100
AcDbLine
10
95
20
0
30
0
11
102
21
0
31
0
39
0
210
0
220
0
230
1
0
LINE
5
47
100
AcDbEntity
8
1
62
256
6
ByLayer
370
-1
48
1
60
0
100
AcDbLine
10
0.2
20
16
30
0
11
0
21
15.8
31
0
39
0
210
0
220
0
230
1
0
LINE
5
49
100
AcDbEntity
8
1
62
256
6
ByLayer
370
-1
48
1
60
0
100
AcDbLine
10
0
20
-15.8
30
0
11
0.2
21
-16
31
0
39
0
210
0
220
0
230
1
0
LINE
5
4A
100
AcDbEntity
8
1
62
256
6
ByLayer
370
-1
48
1
60
0
100
AcDbLine
10
5
20
16
30
0
11
0.2
21
16
31
0
39
0
210
0
220
0
230
1
0
LINE
5
4B
100
AcDbEntity
8
1
62
256
6
ByLayer
370
-1
48
1
60
0
100
AcDbLine
10
0.2
20
-16
30
0
11
5
21
-16
31
0
39
0
210
0
220
0
230
1
0
LINE
5
4C
100
AcDbEntity
8
1
62
256
6
ByLayer
370
-1
48
1
60
0
100
AcDbLine
10
45.453646
20
11.55
30
0
11
19
21
11.55
31
0
39
0
210
0
220
0
230
1
0
LINE
5
4D
100
AcDbEntity
8
1
62
256
6
ByLayer
370
-1
48
1
60
0
100
AcDbLine
10
85.448336
20
11.55
30
0
11
84.503702
21
11.55
31
0
39
0
210
0
220
0
230
1
0
LINE
5
4E
100
AcDbEntity
8
1
62
256
6
ByLayer
370
-1
48
1
60
0
100
AcDbLine
10
19
20
-11.55
30
0
11
42.966625
21
-11.55
31
0
39
0
210
0
220
0
230
1
0
LINE
5
4F
100
AcDbEntity
8
SK1
62
256
6
ByLayer
370
-1
48
1
60
0
100
AcDbLine
10
-2
20
12.49675
30
0
11
-52.6
21
12.49675
31
0
39
0
210
0
220
0
230
1
0
LINE
5
51
100
AcDbEntity
8
SK1
62
256
6
ByLayer
370
-1
48
1
60
0
100
AcDbLine
10
-52.6
20
-12.49675
30
0
11
-2
21
-12.49675
31
0
39
0
210
0
220
0
230
1
0
LINE
5
52
100
AcDbEntity
8
SK1
62
256
6
ByLayer
370
-1
48
1
60
0
100
AcDbLine
10
-2
20
-12.49675
30
0
11
-1.551212
21
-12.287477
31
0
39
0
210
0
220
0
230
1
0
LINE
5
53
100
AcDbEntity
8
SK1
62
256
6
ByLayer
370
-1
48
1
60
0
100
AcDbLine
10
-1.551212
20
12.287477
30
0
11
-2
21
12.49675
31
0
39
0
210
0
220
0
230
1
0
LINE
5
54
100
AcDbEntity
8
SK1
62
256
6
ByLayer
370
-1
48
1
60
0
100
AcDbLine
10
-0.15
20
12.25
30
0
11
-1.382165
21
12.25
31
0
39
0
210
0
220
0
230
1
0
LINE
5
55
100
AcDbEntity
8
SK1
62
256
6
ByLayer
370
-1
48
1
60
0
100
AcDbLine
10
-1.382165
20
-12.25
30
0
11
-0.15
21
-12.25
31
0
39
0
210
0
220
0
230
1
0
LINE
5
56
100
AcDbEntity
8
SK1
62
256
6
ByLayer
370
-1
48
1
60
0
100
AcDbLine
10
-54.6
20
-12.49675
30
0
11
-54.516223
21
-12.393294
31
0
39
0
210
0
220
0
230
1
0
LINE
5
57
100
AcDbEntity
8
SK1
62
256
6
ByLayer
370
-1
48
1
60
0
100
AcDbLine
10
-54.516223
20
12.393294
30
0
11
-54.6
21
12.49675
31
0
39
0
210
0
220
0
230
1
0
LINE
5
58
100
AcDbEntity
8
SK1
62
256
6
ByLayer
370
-1
48
1
60
0
100
AcDbLine
10
-54.6
20
12.49675
30
0
11
-55
21
12.49675
31
0
39
0
210
0
220
0
230
1
0
LINE
5
59
100
AcDbEntity
8
SK1
62
256
6
ByLayer
370
-1
48
1
60
0
100
AcDbLine
10
-55
20
-12.49675
30
0
11
-54.6
21
-12.49675
31
0
39
0
210
0
220
0
230
1
0
LINE
5
5A
100
AcDbEntity
8
SK1
62
256
6
ByLayer
370
-1
48
1
60
0
100
AcDbLine
10
-52.6
20
12.49675
30
0
11
-53.633814
21
12.140417
31
0
39
0
210
0
220
0
230
1
0
LINE
5
5B
100
AcDbEntity
8
SK1
62
256
6
ByLayer
370
-1
48
1
60
0
100
AcDbLine
10
-53.633814
20
-12.140417
30
0
11
-52.6
21
-12.49675
31
0
39
0
210
0
220
0
230
1
0
LINE
5
5C
100
AcDbEntity
8
SK1
62
256
6
ByLayer
370
-1
48
1
60
0
100
AcDbLine
10
-55
20
12.49675
30
0
11
-56
21
11.49675
31
0
39
0
210
0
220
0
230
1
0
LINE
5
5D
100
AcDbEntity
8
SK1
62
256
6
ByLayer
370
-1
48
1
60
0
100
AcDbLine
10
-56
20
-11.49675
30
0
11
-55
21
-12.49675
31
0
39
0
210
0
220
0
230
1
0
LINE
5
5E
100
AcDbEntity
8
SK4
62
256
6
ByLayer
370
-1
48
0.05
60
0
100
AcDbLine
10
95
20
0
30
0
11
-56
21
0
31
0
39
0
210
0
220
0
230
1
0
LINE
5
60
100
AcDbEntity
8
4
62
256
6
ByLayer
370
-1
48
0.05
60
0
100
AcDbLine
10
95
20
0
30
0
11
0
21
0
31
0
39
0
210
0
220
0
230
1
0
LINE
5
62
100
AcDbEntity
8
1
62
256
6
ByLayer
370
-1
48
1
60
0
100
AcDbLine
10
94.48533
20
-6.664749
30
0
11
94.132219
21
-6.622096
31
0
39
0
210
0
220
0
230
1
0
LINE
5
63
100
AcDbEntity
8
1
62
256
6
ByLayer
370
-1
48
1
60
0
100
AcDbLine
10
19
20
-11.55
30
0
11
19
21
-7.714773
31
0
39
0
210
0
220
0
230
1
0
LINE
5
64
100
AcDbEntity
8
1
62
256
6
ByLayer
370
-1
48
1
60
0
100
AcDbLine
10
85.108547
20
6.511091
30
0
11
85.352583
21
6.511091
31
0
39
0
210
0
220
0
230
1
0
LINE
5
65
100
AcDbEntity
8
1
62
256
6
ByLayer
370
-1
48
1
60
0
100
AcDbLine
10
93.607545
20
2.910317
30
0
11
93.298489
21
2.928002
31
0
39
0
210
0
220
0
230
1
0
LINE
5
66
100
AcDbEntity
8
1
62
256
6
ByLayer
370
-1
48
1
60
0
100
AcDbLine
10
80.409271
20
3.707566
30
0
11
81.445096
21
3.266205
31
0
39
0
210
0
220
0
230
1
0
LINE
5
67
100
AcDbEntity
8
1
62
256
6
ByLayer
370
-1
48
1
60
0
100
AcDbLine
10
93.882424
20
1.512672
30
0
11
93.994825
21
3.139937
31
0
39
0
210
0
220
0
230
1
0
LINE
5
68
100
AcDbEntity
8
1
62
256
6
ByLayer
370
-1
48
1
60
0
100
AcDbLine
10
85.588273
20
7.696177
30
0
11
85.775663
21
7.696177
31
0
39
0
210
0
220
0
230
1
0
LINE
5
69
100
AcDbEntity
8
1
62
256
6
ByLayer
370
-1
48
1
60
0
100
AcDbLine
10
19
20
11.55
30
0
11
19
21
7.580234
31
0
39
0
210
0
220
0
230
1
0
LINE
5
6A
100
AcDbEntity
8
1
62
256
6
ByLayer
370
-1
48
1
60
0
100
AcDbLine
10
87.48525
20
2.74104
30
0
11
93.298489
21
2.928002
31
0
39
0
210
0
220
0
230
1
0
LINE
5
6B
100
AcDbEntity
8
1
62
256
6
ByLayer
370
-1
48
1
60
0
100
AcDbLine
10
94.127888
20
-5.808685
30
0
11
93.780822
21
-5.654042
31
0
39
0
210
0
220
0
230
1
0
LINE
5
6C
100
AcDbEntity
8
1
62
256
6
ByLayer
370
-1
48
1
60
0
100
AcDbLine
10
93.776191
20
0.889588
30
0
11
94.127888
21
-5.808685
31
0
39
0
210
0
220
0
230
1
0
LINE
5
6D
100
AcDbEntity
8
1
62
256
6
ByLayer
370
-1
48
1
60
0
100
AcDbLine
10
83.273864
20
1.353328
30
0
11
82.976671
21
1.353328
31
0
39
0
210
0
220
0
230
1
0
LINE
5
6E
100
AcDbEntity
8
1
62
256
6
ByLayer
370
-1
48
1
60
0
100
AcDbLine
10
85.468477
20
11.547721
30
0
11
85.580208
21
7.693116
31
0
39
0
210
0
220
0
230
1
0
LINE
5
6F
100
AcDbEntity
8
1
62
256
6
ByLayer
370
-1
48
1
60
0
100
AcDbLine
10
93.776191
20
0.889588
30
0
11
93.017277
21
1.22774
31
0
39
0
210
0
220
0
230
1
0
LINE
5
70
100
AcDbEntity
8
1
62
256
6
ByLayer
370
-1
48
1
60
0
100
AcDbLine
10
80.840726
20
1.55109
30
0
11
80.539274
21
0.514033
31
0
39
0
210
0
220
0
230
1
0
LINE
5
71
100
AcDbEntity
8
1
62
256
6
ByLayer
370
-1
48
1
60
0
100
AcDbLine
10
85.713755
20
2.854931
30
0
11
85.759042
21
2.854931
31
0
39
0
210
0
220
0
230
1
0
LINE
5
72
100
AcDbEntity
8
1
62
256
6
ByLayer
370
-1
48
1
60
0
100
AcDbLine
10
93.897327
20
2.90617
30
0
11
93.607545
21
2.910317
31
0
39
0
210
0
220
0
230
1
0
LINE
5
73
100
AcDbEntity
8
1
62
256
6
ByLayer
370
-1
48
1
60
0
100
AcDbLine
10
85.108547
20
6.511091
30
0
11
85.185036
21
4.11232
31
0
39
0
210
0
220
0
230
1
0
LINE
5
74
100
AcDbEntity
8
1
62
256
6
ByLayer
370
-1
48
1
60
0
100
AcDbLine
10
84.915041
20
-11.543896
30
0
11
94.052564
21
-11.543896
31
0
39
0
210
0
220
0
230
1
0
LINE
5
75
100
AcDbEntity
8
1
62
256
6
ByLayer
370
-1
48
1
60
0
100
AcDbLine
10
93.787758
20
1.524497
30
0
11
93.796463
21
1.524193
31
0
39
0
210
0
220
0
230
1
0
LINE
5
76
100
AcDbEntity
8
1
62
256
6
ByLayer
370
-1
48
1
60
0
100
AcDbLine
10
76.114373
20
7.607339
30
0
11
72.046257
21
7.998331
31
0
39
0
210
0
220
0
230
1
0
LINE
5
77
100
AcDbEntity
8
1
62
256
6
ByLayer
370
-1
48
1
60
0
100
AcDbLine
10
76.114373
20
7.53
30
0
11
76.182614
21
7.53
31
0
39
0
210
0
220
0
230
1
0
LINE
5
78
100
AcDbEntity
8
1
62
256
6
ByLayer
370
-1
48
1
60
0
100
AcDbLine
10
93.504204
20
2.928002
30
0
11
93.897327
21
2.90617
31
0
39
0
210
0
220
0
230
1
0
LINE
5
79
100
AcDbEntity
8
1
62
256
6
ByLayer
370
-1
48
1
60
0
100
AcDbLine
10
81.445096
20
3.266205
30
0
11
81.40063
21
3.266205
31
0
39
0
210
0
220
0
230
1
0
LINE
5
7A
100
AcDbEntity
8
1
62
256
6
ByLayer
370
-1
48
1
60
0
100
AcDbLine
10
5
20
16
30
0
11
5
21
-16
31
0
39
0
210
0
220
0
230
1
0
LINE
5
7B
100
AcDbEntity
8
1
62
256
6
ByLayer
370
-1
48
1
60
0
100
AcDbLine
10
82.841637
20
6.960773
30
0
11
82.841637
21
11.549085
31
0
39
0
210
0
220
0
230
1
0
LINE
5
7C
100
AcDbEntity
8
1
62
256
6
ByLayer
370
-1
48
1
60
0
100
AcDbLine
10
93.796463
20
1.524193
30
0
11
93.845852
21
1.498052
31
0
39
0
210
0
220
0
230
1
0
LINE
5
7D
100
AcDbEntity
8
1
62
256
6
ByLayer
370
-1
48
1
60
0
100
AcDbLine
10
94.052564
20
-11.543896
30
0
11
94.48533
21
-6.664749
31
0
39
0
210
0
220
0
230
1
0
LINE
5
7E
100
AcDbEntity
8
1
62
256
6
ByLayer
370
-1
48
1
60
0
100
AcDbLine
10
93.652035
20
-5.596658
30
0
11
93.297996
21
-5.438908
31
0
39
0
210
0
220
0
230
1
0
LINE
5
7F
100
AcDbEntity
8
1
62
256
6
ByLayer
370
-1
48
1
60
0
100
AcDbLine
10
93.017277
20
1.22774
30
0
11
93.607545
21
2.910317
31
0
39
0
210
0
220
0
230
1
0
LINE
5
80
100
AcDbEntity
8
1
62
256
6
ByLayer
370
-1
48
1
60
0
100
AcDbLine
10
85.713755
20
2.854931
30
0
11
83.998673
21
2.79481
31
0
39
0
210
0
220
0
230
1
0
LINE
5
81
100
AcDbEntity
8
1
62
256
6
ByLayer
370
-1
48
1
60
0
100
AcDbLine
10
85.271043
20
3.635868
30
0
11
84.031073
21
3.592402
31
0
39
0
210
0
220
0
230
1
0
LINE
5
82
100
AcDbEntity
8
1
62
256
6
ByLayer
370
-1
48
1
60
0
100
AcDbLine
10
85.552957
20
7.693116
30
0
11
85.441169
21
11.549709
31
0
39
0
210
0
220
0
230
1
0
LINE
5
83
100
AcDbEntity
8
1
62
256
6
ByLayer
370
-1
48
1
60
0
100
AcDbLine
10
83.915289
20
2.507953
30
0
11
83.998673
21
2.79481
31
0
39
0
210
0
220
0
230
1
0
LINE
5
84
100
AcDbEntity
8
1
62
256
6
ByLayer
370
-1
48
1
60
0
100
AcDbLine
10
83.196899
20
0.036542
30
0
11
83.573117
21
1.330809
31
0
39
0
210
0
220
0
230
1
0
LINE
5
85
100
AcDbEntity
8
1
62
256
6
ByLayer
370
-1
48
1
60
0
100
AcDbLine
10
94.127888
20
-5.808685
30
0
11
94.114962
21
-5.95442
31
0
39
0
210
0
220
0
230
1
0
LINE
5
86
100
AcDbEntity
8
1
62
256
6
ByLayer
370
-1
48
1
60
0
100
AcDbLine
10
93.298489
20
2.928002
30
0
11
93.504149
21
2.928002
31
0
39
0
210
0
220
0
230
1
0
LINE
5
87
100
AcDbEntity
8
1
62
256
6
ByLayer
370
-1
48
1
60
0
100
AcDbLine
10
80.553555
20
1.61478
30
0
11
83.273864
21
1.353328
31
0
39
0
210
0
220
0
230
1
0
LINE
5
88
100
AcDbEntity
8
1
62
256
6
ByLayer
370
-1
48
1
60
0
100
AcDbLine
10
0
20
15.8
30
0
11
0
21
-15.8
31
0
39
0
210
0
220
0
230
1
0
LINE
5
89
100
AcDbEntity
8
1
62
256
6
ByLayer
370
-1
48
1
60
0
100
AcDbLine
10
93.845852
20
1.498052
30
0
11
93.882424
21
1.512672
31
0
39
0
210
0
220
0
230
1
0
LINE
5
8A
100
AcDbEntity
8
1
62
256
6
ByLayer
370
-1
48
1
60
0
100
AcDbLine
10
0.2
20
16
30
0
11
0.2
21
-16
31
0
39
0
210
0
220
0
230
1
0
LINE
5
8B
100
AcDbEntity
8
1
62
256
6
ByLayer
370
-1
48
1
60
0
100
AcDbLine
10
85.185036
20
4.11232
30
0
11
85.429072
21
4.11232
31
0
39
0
210
0
220
0
230
1
0
LINE
5
8C
100
AcDbEntity
8
1
62
256
6
ByLayer
370
-1
48
1
60
0
100
AcDbLine
10
85.352583
20
6.511091
30
0
11
85.429072
21
4.11232
31
0
39
0
210
0
220
0
230
1
0
LINE
5
8D
100
AcDbEntity
8
1
62
256
6
ByLayer
370
-1
48
1
60
0
100
AcDbLine
10
92.776117
20
0.597697
30
0
11
93.017277
21
1.22774
31
0
39
0
210
0
220
0
230
1
0
LINE
5
8E
100
AcDbEntity
8
1
62
256
6
ByLayer
370
-1
48
1
60
0
100
AcDbLine
10
93.770369
20
0.962486
30
0
11
93.776191
21
0.889588
31
0
39
0
210
0
220
0
230
1
0
LINE
5
8F
100
AcDbEntity
8
1
62
256
6
ByLayer
370
-1
48
1
60
0
100
AcDbLine
10
81.826216
20
4.002609
30
0
11
79.90659
21
4.820555
31
0
39
0
210
0
220
0
230
1
0
LINE
5
90
100
AcDbEntity
8
1
62
256
6
ByLayer
370
-1
48
1
60
0
100
AcDbLine
10
81.360252
20
1.481426
30
0
11
81.035583
21
1.513913
31
0
39
0
210
0
220
0
230
1
0
LINE
5
91
100
AcDbEntity
8
1
62
256
6
ByLayer
370
-1
48
1
60
0
100
AcDbLine
10
85.552957
20
7.693116
30
0
11
85.580208
21
7.693116
31
0
39
0
210
0
220
0
230
1
0
LINE
5
92
100
AcDbEntity
8
1
62
256
6
ByLayer
370
-1
48
1
60
0
100
AcDbLine
10
82.841637
20
6.960773
30
0
11
76.114373
21
7.607339
31
0
39
0
210
0
220
0
230
1
0
LINE
5
93
100
AcDbEntity
8
1
62
256
6
ByLayer
370
-1
48
1
60
0
100
AcDbLine
10
93.773732
20
1.500566
30
0
11
93.845852
21
1.498052
31
0
39
0
210
0
220
0
230
1
0
LINE
5
94
100
AcDbEntity
8
1
62
256
6
ByLayer
370
-1
48
1
60
0
100
AcDbLine
10
85.987281
20
3.595907
30
0
11
85.976371
21
3.909542
31
0
39
0
210
0
220
0
230
1
0
LINE
5
95
100
AcDbEntity
8
1
62
256
6
ByLayer
370
-1
48
1
60
0
100
AcDbLine
10
93.451815
20
11.956596
30
0
11
93.764256
21
11.967548
31
0
39
0
210
0
220
0
230
1
0
LINE
5
96
100
AcDbEntity
8
1
62
256
6
ByLayer
370
-1
48
1
60
0
100
AcDbLine
10
86.22814
20
11.772033
30
0
11
86.231344
21
11.7024
31
0
39
0
210
0
220
0
230
1
0
LINE
5
97
100
AcDbEntity
8
1
62
256
6
ByLayer
370
-1
48
1
60
0
100
AcDbLine
10
85.660152
20
11.0166
30
0
11
85.729046
21
11.019034
31
0
39
0
210
0
220
0
230
1
0
LINE
5
98
100
AcDbEntity
8
1
62
256
6
ByLayer
370
-1
48
1
60
0
100
AcDbLine
10
86.378043
20
2.878372
30
0
11
86.377512
21
2.948106
31
0
39
0
210
0
220
0
230
1
0
LINE
5
99
100
AcDbEntity
8
1
62
256
6
ByLayer
370
-1
48
1
60
0
100
AcDbLine
10
86.986392
20
2.964083
30
0
11
86.673952
21
2.953131
31
0
39
0
210
0
220
0
230
1
0
LINE
5
9A
100
AcDbEntity
8
1
62
256
6
ByLayer
370
-1
48
1
60
0
100
AcDbLine
10
94.211131
20
3.148646
30
0
11
94.206863
21
3.218279
31
0
39
0
210
0
220
0
230
1
0
LINE
5
9B
100
AcDbEntity
8
1
62
256
6
ByLayer
370
-1
48
1
60
0
100
AcDbLine
10
86.068996
20
11.762146
30
0
11
86.07331
21
11.692582
31
0
39
0
210
0
220
0
230
1
0
LINE
5
9C
100
AcDbEntity
8
1
62
256
6
ByLayer
370
-1
48
1
60
0
100
AcDbLine
10
86.537487
20
2.879653
30
0
11
86.535844
21
2.949378
31
0
39
0
210
0
220
0
230
1
0
LINE
5
9D
100
AcDbEntity
8
1
62
256
6
ByLayer
370
-1
48
1
60
0
100
AcDbLine
10
93.852981
20
12.040002
30
0
11
93.854242
21
11.970291
31
0
39
0
210
0
220
0
230
1
0
LINE
5
9E
100
AcDbEntity
8
1
62
256
6
ByLayer
370
-1
48
1
60
0
100
AcDbLine
10
85.65638
20
11.156553
30
0
11
85.725308
21
11.157669
31
0
39
0
210
0
220
0
230
1
0
LINE
5
9F
100
AcDbEntity
8
1
62
256
6
ByLayer
370
-1
48
1
60
0
100
AcDbLine
10
85.655104
20
11.316606
30
0
11
85.724041
21
11.316606
31
0
39
0
210
0
220
0
230
1
0
LINE
5
A0
100
AcDbEntity
8
1
62
256
6
ByLayer
370
-1
48
1
60
0
100
AcDbLine
10
94.162376
20
3.146251
30
0
11
94.158788
21
3.215917
31
0
39
0
210
0
220
0
230
1
0
LINE
5
A1
100
AcDbEntity
8
1
62
256
6
ByLayer
370
-1
48
1
60
0
100
AcDbLine
10
94.514921
20
11.467082
30
0
11
94.445022
21
11.463332
31
0
39
0
210
0
220
0
230
1
0
LINE
5
A2
100
AcDbEntity
8
1
62
256
6
ByLayer
370
-1
48
1
60
0
100
AcDbLine
10
94.517308
20
11.418141
30
0
11
94.447375
21
11.415073
31
0
39
0
210
0
220
0
230
1
0
LINE
5
A3
100
AcDbEntity
8
1
62
256
6
ByLayer
370
-1
48
1
60
0
100
AcDbLine
10
86.58629
20
2.880678
30
0
11
86.583966
21
2.950388
31
0
39
0
210
0
220
0
230
1
0
LINE
5
A4
100
AcDbEntity
8
1
62
256
6
ByLayer
370
-1
48
1
60
0
100
AcDbLine
10
86.002465
20
11.749768
30
0
11
86.022244
21
11.683082
31
0
39
0
210
0
220
0
230
1
0
LINE
5
A5
100
AcDbEntity
8
1
62
256
6
ByLayer
370
-1
48
1
60
0
100
AcDbLine
10
94.520884
20
11.327206
30
0
11
94.450926
21
11.324772
31
0
39
0
210
0
220
0
230
1
0
LINE
5
A6
100
AcDbEntity
8
1
62
256
6
ByLayer
370
-1
48
1
60
0
100
AcDbLine
10
94.505072
20
11.626834
30
0
11
94.435241
21
11.62197
31
0
39
0
210
0
220
0
230
1
0
LINE
5
A7
100
AcDbEntity
8
1
62
256
6
ByLayer
370
-1
48
1
60
0
100
AcDbLine
10
85.94653
20
3.227061
30
0
11
86.012431
21
3.247449
31
0
39
0
210
0
220
0
230
1
0
LINE
5
A8
100
AcDbEntity
8
1
62
256
6
ByLayer
370
-1
48
1
60
0
100
AcDbLine
10
86.369377
20
11.708327
30
0
11
86.681818
21
11.719279
31
0
39
0
210
0
220
0
230
1
0
LINE
5
A9
100
AcDbEntity
8
1
62
256
6
ByLayer
370
-1
48
1
60
0
100
AcDbLine
10
94.370275
20
3.158533
30
0
11
94.364898
21
3.228097
31
0
39
0
210
0
220
0
230
1
0
LINE
5
AA
100
AcDbEntity
8
1
62
256
6
ByLayer
370
-1
48
1
60
0
100
AcDbLine
10
93.901784
20
12.041026
30
0
11
93.902364
21
11.971301
31
0
39
0
210
0
220
0
230
1
0
LINE
5
AB
100
AcDbEntity
8
1
62
256
6
ByLayer
370
-1
48
1
60
0
100
AcDbLine
10
94.78187
20
3.813115
30
0
11
94.711894
21
3.811316
31
0
39
0
210
0
220
0
230
1
0
LINE
5
AC
100
AcDbEntity
8
1
62
256
6
ByLayer
370
-1
48
1
60
0
100
AcDbLine
10
94.071787
20
3.142661
30
0
11
94.068831
21
3.212352
31
0
39
0
210
0
220
0
230
1
0
LINE
5
AD
100
AcDbEntity
8
1
62
256
6
ByLayer
370
-1
48
1
60
0
100
AcDbLine
10
94.068831
20
3.212352
30
0
11
93.75639
21
3.2014
31
0
39
0
210
0
220
0
230
1
0
LINE
5
AE
100
AcDbEntity
8
1
62
256
6
ByLayer
370
-1
48
1
60
0
100
AcDbLine
10
94.69825
20
4.21528
30
0
11
94.709161
21
3.901646
31
0
39
0
210
0
220
0
230
1
0
LINE
5
AF
100
AcDbEntity
8
1
62
256
6
ByLayer
370
-1
48
1
60
0
100
AcDbLine
10
85.662764
20
11.384091
30
0
11
85.72992
21
11.368405
31
0
39
0
210
0
220
0
230
1
0
LINE
5
B0
100
AcDbEntity
8
1
62
256
6
ByLayer
370
-1
48
1
60
0
100
AcDbLine
10
94.776507
20
3.536588
30
0
11
94.708288
21
3.552275
31
0
39
0
210
0
220
0
230
1
0
LINE
5
B1
100
AcDbEntity
8
1
62
256
6
ByLayer
370
-1
48
1
60
0
100
AcDbLine
10
85.660152
20
11.0166
30
0
11
85.918387
21
3.593474
31
0
39
0
210
0
220
0
230
1
0
LINE
5
B2
100
AcDbEntity
8
1
62
256
6
ByLayer
370
-1
48
1
60
0
100
AcDbLine
10
94.779119
20
3.904079
30
0
11
94.520884
21
11.327206
31
0
39
0
210
0
220
0
230
1
0
LINE
5
B3
100
AcDbEntity
8
1
62
256
6
ByLayer
370
-1
48
1
60
0
100
AcDbLine
10
94.450926
20
11.324772
30
0
11
94.461837
21
11.011138
31
0
39
0
210
0
220
0
230
1
0
LINE
5
B4
100
AcDbEntity
8
1
62
256
6
ByLayer
370
-1
48
1
60
0
100
AcDbLine
10
93.762363
20
12.037239
30
0
11
86.367484
21
11.778018
31
0
39
0
210
0
220
0
230
1
0
LINE
5
B5
100
AcDbEntity
8
1
62
256
6
ByLayer
370
-1
48
1
60
0
100
AcDbLine
10
94.061227
20
12.042307
30
0
11
94.060696
21
11.972573
31
0
39
0
210
0
220
0
230
1
0
LINE
5
B6
100
AcDbEntity
8
1
62
256
6
ByLayer
370
-1
48
1
60
0
100
AcDbLine
10
85.934199
20
3.293845
30
0
11
86.002966
21
3.29871
31
0
39
0
210
0
220
0
230
1
0
LINE
5
B7
100
AcDbEntity
8
1
62
256
6
ByLayer
370
-1
48
1
60
0
100
AcDbLine
10
93.762363
20
12.037239
30
0
11
93.764256
21
11.967548
31
0
39
0
210
0
220
0
230
1
0
LINE
5
B8
100
AcDbEntity
8
1
62
256
6
ByLayer
370
-1
48
1
60
0
100
AcDbLine
10
86.310815
20
2.886061
30
0
11
86.32591
21
2.954008
31
0
39
0
210
0
220
0
230
1
0
LINE
5
B9
100
AcDbEntity
8
1
62
256
6
ByLayer
370
-1
48
1
60
0
100
AcDbLine
10
85.918387
20
3.593474
30
0
11
85.987281
21
3.595907
31
0
39
0
210
0
220
0
230
1
0
LINE
5
BA
100
AcDbEntity
8
1
62
256
6
ByLayer
370
-1
48
1
60
0
100
AcDbLine
10
86.276895
20
11.774428
30
0
11
86.279419
21
11.704762
31
0
39
0
210
0
220
0
230
1
0
LINE
5
BB
100
AcDbEntity
8
1
62
256
6
ByLayer
370
-1
48
1
60
0
100
AcDbLine
10
86.676908
20
2.88344
30
0
11
86.673952
21
2.953131
31
0
39
0
210
0
220
0
230
1
0
LINE
5
BC
100
AcDbEntity
8
1
62
256
6
ByLayer
370
-1
48
1
60
0
100
AcDbLine
10
94.436806
20
3.170911
30
0
11
94.415963
21
3.237598
31
0
39
0
210
0
220
0
230
1
0
LINE
5
BD
100
AcDbEntity
8
1
62
256
6
ByLayer
370
-1
48
1
60
0
100
AcDbLine
10
85.92435
20
3.453597
30
0
11
85.993186
21
3.457348
31
0
39
0
210
0
220
0
230
1
0
LINE
5
BE
100
AcDbEntity
8
1
62
256
6
ByLayer
370
-1
48
1
60
0
100
AcDbLine
10
94.128456
20
12.034618
30
0
11
94.112297
21
11.966672
31
0
39
0
210
0
220
0
230
1
0
LINE
5
BF
100
AcDbEntity
8
1
62
256
6
ByLayer
370
-1
48
1
60
0
100
AcDbLine
10
94.492741
20
11.693619
30
0
11
94.425777
21
11.673231
31
0
39
0
210
0
220
0
230
1
0
LINE
5
C0
100
AcDbEntity
8
1
62
256
6
ByLayer
370
-1
48
1
60
0
100
AcDbLine
10
85.739957
20
10.705399
30
0
11
85.729046
21
11.019034
31
0
39
0
210
0
220
0
230
1
0
LINE
5
C1
100
AcDbEntity
8
1
62
256
6
ByLayer
370
-1
48
1
60
0
100
AcDbLine
10
94.784167
20
3.604073
30
0
11
94.714167
21
3.604073
31
0
39
0
210
0
220
0
230
1
0
LINE
5
C2
100
AcDbEntity
8
1
62
256
6
ByLayer
370
-1
48
1
60
0
100
AcDbLine
10
86.676908
20
2.88344
30
0
11
94.071787
21
3.142661
31
0
39
0
210
0
220
0
230
1
0
LINE
5
C3
100
AcDbEntity
8
1
62
256
6
ByLayer
370
-1
48
1
60
0
100
AcDbLine
10
86.367484
20
11.778018
30
0
11
86.369377
21
11.708327
31
0
39
0
210
0
220
0
230
1
0
LINE
5
C4
100
AcDbEntity
8
1
62
256
6
ByLayer
370
-1
48
1
60
0
100
AcDbLine
10
94.779119
20
3.904079
30
0
11
94.709161
21
3.901646
31
0
39
0
210
0
220
0
230
1
0
LINE
5
C5
100
AcDbEntity
8
1
62
256
6
ByLayer
370
-1
48
1
60
0
100
AcDbLine
10
94.782891
20
3.764126
30
0
11
94.7129
21
3.76301
31
0
39
0
210
0
220
0
230
1
0
LINE
5
C6
100
AcDbEntity
8
1
62
256
6
ByLayer
370
-1
48
1
60
0
100
AcDbLine
10
85.6574
20
11.107564
30
0
11
85.726314
21
11.109363
31
0
39
0
210
0
220
0
230
1
0
LINE
5
C7
100
AcDbEntity
8
1
62
256
6
ByLayer
370
-1
48
1
60
0
100
AcDbLine
10
85.921963
20
3.502539
30
0
11
85.990832
21
3.505606
31
0
39
0
210
0
220
0
230
1
0
LINE
5
C8
100
AcDbEntity
8
1
62
256
6
ByLayer
370
-1
48
1
60
0
100
AcDbLine
10
94.41263
20
-2.244592
30
0
11
94.063109
21
-2.207932
31
0
39
0
210
0
220
0
230
1
0
LINE
5
C9
100
AcDbEntity
8
1
62
256
6
ByLayer
370
-1
48
1
60
0
100
AcDbLine
10
94.922917
20
-5.873293
30
0
11
94.806271
21
-5.729271
31
0
39
0
210
0
220
0
230
1
0
LINE
5
CA
100
AcDbEntity
8
1
62
256
6
ByLayer
370
-1
48
1
60
0
100
AcDbLine
10
94.129802
20
-3.512447
30
0
11
94.085715
21
-4.772573
31
0
39
0
210
0
220
0
230
1
0
LINE
5
CB
100
AcDbEntity
8
1
62
256
6
ByLayer
370
-1
48
1
60
0
100
AcDbLine
10
94.063109
20
-2.207932
30
0
11
93.963246
21
-2.213156
31
0
39
0
210
0
220
0
230
1
0
LINE
5
CC
100
AcDbEntity
8
1
62
256
6
ByLayer
370
-1
48
1
60
0
100
AcDbLine
10
94.522488
20
-0.192254
30
0
11
93.983712
21
1.285259
31
0
39
0
210
0
220
0
230
1
0
LINE
5
CD
100
AcDbEntity
8
1
62
256
6
ByLayer
370
-1
48
1
60
0
100
AcDbLine
10
94.522488
20
-0.192254
30
0
11
94.286669
21
-0.121805
31
0
39
0
210
0
220
0
230
1
0
LINE
5
CE
100
AcDbEntity
8
1
62
256
6
ByLayer
370
-1
48
1
60
0
100
AcDbLine
10
94.720168
20
-6.160766
30
0
11
94.128579
21
-5.232355
31
0
39
0
210
0
220
0
230
1
0
LINE
5
CF
100
AcDbEntity
8
1
62
256
6
ByLayer
370
-1
48
1
60
0
100
AcDbLine
10
94.358754
20
-4.788195
30
0
11
94.40284
21
-3.528069
31
0
39
0
210
0
220
0
230
1
0
LINE
5
D0
100
AcDbEntity
8
1
62
256
6
ByLayer
370
-1
48
1
60
0
100
AcDbLine
10
93.983712
20
1.285259
30
0
11
93.942828
21
1.257763
31
0
39
0
210
0
220
0
230
1
0
LINE
5
D1
100
AcDbEntity
8
1
62
256
6
ByLayer
370
-1
48
1
60
0
100
AcDbLine
10
94.314966
20
-0.384536
30
0
11
93.965446
21
-0.347875
31
0
39
0
210
0
220
0
230
1
0
LINE
5
D2
100
AcDbEntity
8
1
62
256
6
ByLayer
370
-1
48
1
60
0
100
AcDbLine
10
94.885244
20
-3.179061
30
0
11
94.668294
21
-3.171128
31
0
39
0
210
0
220
0
230
1
0
LINE
5
D3
100
AcDbEntity
8
1
62
256
6
ByLayer
370
-1
48
1
60
0
100
AcDbLine
10
94.099889
20
-6.504436
30
0
11
94.594231
21
-6.324846
31
0
39
0
210
0
220
0
230
1
0
LINE
5
D4
100
AcDbEntity
8
1
62
256
6
ByLayer
370
-1
48
1
60
0
100
AcDbLine
10
94.197961
20
0.173253
30
0
11
93.846594
21
-0.024567
31
0
39
0
210
0
220
0
230
1
0
LINE
5
D5
100
AcDbEntity
8
1
62
256
6
ByLayer
370
-1
48
1
60
0
100
AcDbLine
10
94.657862
20
-2.353861
30
0
11
94.551956
21
-0.336826
31
0
39
0
210
0
220
0
230
1
0
LINE
5
D6
100
AcDbEntity
8
1
62
256
6
ByLayer
370
-1
48
1
60
0
100
AcDbLine
10
94.551956
20
-0.336826
30
0
11
94.312214
21
-0.265205
31
0
39
0
210
0
220
0
230
1
0
LINE
5
D7
100
AcDbEntity
8
1
62
256
6
ByLayer
370
-1
48
1
60
0
100
AcDbLine
10
93.846594
20
-0.024567
30
0
11
93.822522
21
0.006973
31
0
39
0
210
0
220
0
230
1
0
LINE
5
D8
100
AcDbEntity
8
1
62
256
6
ByLayer
370
-1
48
1
60
0
100
AcDbLine
10
94.197961
20
0.173253
30
0
11
93.942828
21
1.257763
31
0
39
0
210
0
220
0
230
1
0
LINE
5
D9
100
AcDbEntity
8
1
62
256
6
ByLayer
370
-1
48
1
60
0
100
AcDbLine
10
94.41263
20
-2.244592
30
0
11
94.314966
21
-0.384536
31
0
39
0
210
0
220
0
230
1
0
LINE
5
DA
100
AcDbEntity
8
1
62
256
6
ByLayer
370
-1
48
1
60
0
100
AcDbLine
10
94.65217
20
-3.14066
30
0
11
94.339985
21
-3.243663
31
0
39
0
210
0
220
0
230
1
0
LINE
5
DB
100
AcDbEntity
8
1
62
256
6
ByLayer
370
-1
48
1
60
0
100
AcDbLine
10
94.752627
20
-3.595205
30
0
11
94.40284
21
-3.528069
31
0
39
0
210
0
220
0
230
1
0
LINE
5
DC
100
AcDbEntity
8
1
62
256
6
ByLayer
370
-1
48
1
60
0
100
AcDbLine
10
94.258815
20
-4.784711
30
0
11
94.302901
21
-3.524586
31
0
39
0
210
0
220
0
230
1
0
LINE
5
DD
100
AcDbEntity
8
1
62
256
6
ByLayer
370
-1
48
1
60
0
100
AcDbLine
10
94.70854
20
-4.85533
30
0
11
94.358754
21
-4.788195
31
0
39
0
210
0
220
0
230
1
0
LINE
5
DE
100
AcDbEntity
8
1
62
256
6
ByLayer
370
-1
48
1
60
0
100
AcDbLine
10
93.963246
20
-2.213156
30
0
11
93.865583
21
-0.353099
31
0
39
0
210
0
220
0
230
1
0
LINE
5
DF
100
AcDbEntity
8
1
62
256
6
ByLayer
370
-1
48
1
60
0
100
AcDbLine
10
94.09526
20
-6.322063
30
0
11
94.537958
21
-6.255366
31
0
39
0
210
0
220
0
230
1
0
LINE
5
E0
100
AcDbEntity
8
1
62
256
6
ByLayer
370
-1
48
1
60
0
100
AcDbLine
10
93.843156
20
1.434746
30
0
11
93.7587
21
1.387197
31
0
39
0
210
0
220
0
230
1
0
LINE
5
E1
100
AcDbEntity
8
1
62
256
6
ByLayer
370
-1
48
1
60
0
100
AcDbLine
10
94.594231
20
-6.324846
30
0
11
94.537958
21
-6.255366
31
0
39
0
210
0
220
0
230
1
0
LINE
5
E2
100
AcDbEntity
8
1
62
256
6
ByLayer
370
-1
48
1
60
0
100
AcDbLine
10
94.70854
20
-4.85533
30
0
11
94.752627
21
-3.595205
31
0
39
0
210
0
220
0
230
1
0
LINE
5
E3
100
AcDbEntity
8
1
62
256
6
ByLayer
370
-1
48
1
60
0
100
AcDbLine
10
94.098803
20
-5.254995
30
0
11
94.128579
21
-5.232355
31
0
39
0
210
0
220
0
230
1
0
LINE
5
E4
100
AcDbEntity
8
1
62
256
6
ByLayer
370
-1
48
1
60
0
100
AcDbLine
10
94.063109
20
-2.207932
30
0
11
93.965446
21
-0.347875
31
0
39
0
210
0
220
0
230
1
0
LINE
5
E5
100
AcDbEntity
8
1
62
256
6
ByLayer
370
-1
48
1
60
0
100
AcDbLine
10
94.999695
20
-3.678734
30
0
11
94.754825
21
-3.548375
31
0
39
0
210
0
220
0
230
1
0
LINE
5
E6
100
AcDbEntity
8
1
62
256
6
ByLayer
370
-1
48
1
60
0
100
AcDbLine
10
94.657862
20
-2.353861
30
0
11
94.41263
21
-2.244592
31
0
39
0
210
0
220
0
230
1
0
LINE
5
E7
100
AcDbEntity
8
1
62
256
6
ByLayer
370
-1
48
1
60
0
100
AcDbLine
10
94.922917
20
-5.873293
30
0
11
94.999695
21
-3.678734
31
0
39
0
210
0
220
0
230
1
0
LINE
5
E8
100
AcDbEntity
8
SK1
62
256
6
ByLayer
370
-1
48
1
60
0
100
AcDbLine
10
-56
20
-4.998547
30
0
11
-56
21
-11.49675
31
0
39
0
210
0
220
0
230
1
0
LINE
5
E9
100
AcDbEntity
8
SK1
62
256
6
ByLayer
370
-1
48
1
60
0
100
AcDbLine
10
-56
20
11.49675
30
0
11
-56
21
4.998547
31
0
39
0
210
0
220
0
230
1
0
LINE
5
EA
100
AcDbEntity
8
SK1
62
256
6
ByLayer
370
-1
48
1
60
0
100
AcDbLine
10
-52.6
20
6.998498
30
0
11
-52.6
21
12.49675
31
0
39
0
210
0
220
0
230
1
0
LINE
5
EB
100
AcDbEntity
8
SK1
62
256
6
ByLayer
370
-1
48
1
60
0
100
AcDbLine
10
-52.6
20
-12.49675
30
0
11
-52.6
21
-6.998498
31
0
39
0
210
0
220
0
230
1
0
LINE
5
EC
100
AcDbEntity
8
SK1
62
256
6
ByLayer
370
-1
48
1
60
0
100
AcDbLine
10
-54.6
20
-12.49675
30
0
11
-54.6
21
-6.998498
31
0
39
0
210
0
220
0
230
1
0
LINE
5
ED
100
AcDbEntity
8
SK1
62
256
6
ByLayer
370
-1
48
1
60
0
100
AcDbLine
10
-54.6
20
6.998498
30
0
11
-54.6
21
12.49675
31
0
39
0
210
0
220
0
230
1
0
LINE
5
EE
100
AcDbEntity
8
SK1
62
256
6
ByLayer
370
-1
48
1
60
0
100
AcDbLine
10
-54.516223
20
-6.812044
30
0
11
-54.516223
21
-12.393294
31
0
39
0
210
0
220
0
230
1
0
LINE
5
EF
100
AcDbEntity
8
SK1
62
256
6
ByLayer
370
-1
48
1
60
0
100
AcDbLine
10
-54.516223
20
12.393294
30
0
11
-54.516223
21
6.812044
31
0
39
0
210
0
220
0
230
1
0
LINE
5
F0
100
AcDbEntity
8
SK1
62
256
6
ByLayer
370
-1
48
1
60
0
100
AcDbLine
10
-54.6
20
-6.998498
30
0
11
-55
21
-6.998498
31
0
39
0
210
0
220
0
230
1
0
LINE
5
F1
100
AcDbEntity
8
SK1
62
256
6
ByLayer
370
-1
48
1
60
0
100
AcDbLine
10
-55
20
-6.998498
30
0
11
-55
21
-12.49675
31
0
39
0
210
0
220
0
230
1
0
LINE
5
F2
100
AcDbEntity
8
SK1
62
256
6
ByLayer
370
-1
48
1
60
0
100
AcDbLine
10
-55
20
12.49675
30
0
11
-55
21
6.998498
31
0
39
0
210
0
220
0
230
1
0
LINE
5
F3
100
AcDbEntity
8
SK1
62
256
6
ByLayer
370
-1
48
1
60
0
100
AcDbLine
10
-56
20
4.998547
30
0
11
-56
21
-4.998547
31
0
39
0
210
0
220
0
230
1
0
LINE
5
F4
100
AcDbEntity
8
SK1
62
256
6
ByLayer
370
-1
48
1
60
0
100
AcDbLine
10
-0.15
20
12.25
30
0
11
-0.15
21
-12.25
31
0
39
0
210
0
220
0
230
1
0
LINE
5
F5
100
AcDbEntity
8
SK1
62
256
6
ByLayer
370
-1
48
1
60
0
100
AcDbLine
10
-1.382165
20
12.25
30
0
11
-1.382165
21
-12.25
31
0
39
0
210
0
220
0
230
1
0
LINE
5
F6
100
AcDbEntity
8
SK1
62
256
6
ByLayer
370
-1
48
1
60
0
100
AcDbLine
10
-53.633814
20
-6.340342
30
0
11
-53.633814
21
-12.140417
31
0
39
0
210
0
220
0
230
1
0
LINE
5
F7
100
AcDbEntity
8
SK1
62
256
6
ByLayer
370
-1
48
1
60
0
100
AcDbLine
10
-53.633814
20
12.140417
30
0
11
-53.633814
21
6.340342
31
0
39
0
210
0
220
0
230
1
0
LINE
5
F8
100
AcDbEntity
8
SK1
62
256
6
ByLayer
370
-1
48
1
60
0
100
AcDbLine
10
-1.551212
20
12.287477
30
0
11
-1.551212
21
-12.287477
31
0
39
0
210
0
220
0
230
1
0
LINE
5
F9
100
AcDbEntity
8
SK1
62
256
6
ByLayer
370
-1
48
1
60
0
100
AcDbLine
10
-2
20
-12.49675
30
0
11
-2
21
12.49675
31
0
39
0
210
0
220
0
230
1
0
LINE
5
FA
100
AcDbEntity
8
SK1
62
256
6
ByLayer
370
-1
48
1
60
0
100
AcDbLine
10
-55
20
6.998498
30
0
11
-54.6
21
6.998498
31
0
39
0
210
0
220
0
230
1
0
LINE
5
FB
100
AcDbEntity
8
SK1
62
256
6
ByLayer
370
-1
48
1
60
0
100
AcDbLine
10
-52.6
20
6.998498
30
0
11
-6.5
21
6.998498
31
0
39
0
210
0
220
0
230
1
0
LINE
5
FC
100
AcDbEntity
8
SK1
62
256
6
ByLayer
370
-1
48
1
60
0
100
AcDbLine
10
-6.5
20
-6.998498
30
0
11
-52.6
21
-6.998498
31
0
39
0
210
0
220
0
230
1
0
LINE
5
FD
100
AcDbEntity
8
SK1
62
256
6
ByLayer
370
-1
48
1
60
0
100
AcDbLine
10
-6.5
20
6.998498
30
0
11
-6.5
21
-6.998498
31
0
39
0
210
0
220
0
230
1
0
MTEXT
5
21B
100
AcDbEntity
8
SK6
62
256
6
ByLayer
370
-1
48
1
60
0
100
AcDbMText
10
0.79375
20
-80.79375
30
0
210
0
220
0
230
1
1
\W00.747;\fsimplex.shx,bigfont.shx;880-D2400L25-03 
40
3.175
41
0
44
1.084337
50
0
71
7
72
5
7
DEFAULT
0
DIMENSION
5
24B
100
AcDbEntity
8
SK2
62
256
6
ByLayer
370
-3
48
1
60
0
100
AcDbDimension
2
DimnDraft3D1
10
95
20
-54.86955
30
0
11
19.5
21
-54.86955
31
0
70
32
71
5
72
1
41
1
210
0
220
0
230
1
3
Standard
100
AcDbAlignedDimension
13
-56
23
-14.0875
33
0
14
95
24
-13.5875
34
0
50
0
100
AcDbRotatedDimension
1001
ACAD
1000
DSTYLE
1002
{
1070
   279
1070
     0
1070
   172
1070
     1
1070
   173
1070
     1
1070
   340
1005
21C
1070
   271
1070
     1
1070
   272
1070
     2
1070
    77
1070
     1
1070
    73
1070
     0
1070
   171
1070
     3
1070
   274
1070
     4
1070
   177
1070
   150
1070
   176
1070
     9
1070
   178
1070
    43
1070
    78
1070
     8
1070
    48
1040
-0.005
1070
    41
1041
4.175
1070
   147
1041
2.25
1070
    42
1041
1.5875
1070
    44
1041
3.175
1070
   140
1041
4.5
1070
   343
1005
0
1070
   344
1005
0
1002
}
0
DIMENSION
5
255
100
AcDbEntity
8
SK2
62
256
6
ByLayer
370
-3
48
1
60
0
100
AcDbDimension
2
DimnDraft3D2
10
0
20
-42.9008
30
0
11
-28
21
-42.9008
31
0
70
32
71
5
72
1
41
1
210
0
220
0
230
1
3
Standard
100
AcDbAlignedDimension
13
-56
23
-14.0875
33
0
14
0
24
-17.5875
34
0
50
0
100
AcDbRotatedDimension
1001
ACAD
1000
DSTYLE
1002
{
1070
   279
1070
     0
1070
   172
1070
     1
1070
   173
1070
     1
1070
   340
1005
21C
1070
   271
1070
     1
1070
   272
1070
     2
1070
    77
1070
     1
1070
    73
1070
     0
1070
   171
1070
     3
1070
   274
1070
     4
1070
   177
1070
   150
1070
   176
1070
     9
1070
   178
1070
    43
1070
    78
1070
     8
1070
    48
1040
-0.005
1070
    41
1041
4.175
1070
   147
1041
2.25
1070
    42
1041
1.5875
1070
    44
1041
3.175
1070
   140
1041
4.5
1070
   343
1005
0
1070
   344
1005
0
1002
}
0
DIMENSION
5
260
100
AcDbEntity
8
2
62
256
6
ByLayer
370
-3
48
1
60
0
100
AcDbDimension
2
DimnDraft3D3
10
95
20
-42.9008
30
0
11
47.5
21
-42.9008
31
0
70
32
71
5
72
1
41
1
210
0
220
0
230
1
3
Standard
100
AcDbAlignedDimension
13
0
23
-17.5875
33
0
14
95
24
-13.5875
34
0
50
0
100
AcDbRotatedDimension
1001
ACAD
1000
DSTYLE
1002
{
1070
   279
1070
     0
1070
   172
1070
     1
1070
   173
1070
     1
1070
   340
1005
21C
1070
   271
1070
     1
1070
   272
1070
     2
1070
    77
1070
     1
1070
    73
1070
     0
1070
   171
1070
     3
1070
   274
1070
     4
1070
   177
1070
   150
1070
   176
1070
     9
1070
   178
1070
    43
1070
    78
1070
     8
1070
    48
1040
-0.005
1070
    41
1041
4.175
1070
   147
1041
2.25
1070
    42
1041
1.5875
1070
    44
1041
3.175
1070
   140
1041
4.5
1070
   343
1005
0
1070
   344
1005
0
1002
}
0
DIMENSION
5
26A
100
AcDbEntity
8
SK2
62
256
6
ByLayer
370
-3
48
1
60
0
100
AcDbDimension
2
DimnDraft3D4
10
95
20
-32.9008
30
0
11
57
21
-32.9008
31
0
70
32
71
5
72
1
41
1
210
0
220
0
230
1
3
Standard
100
AcDbAlignedDimension
13
19
23
-11.5875
33
0
14
95
24
-13.5875
34
0
50
0
100
AcDbRotatedDimension
1001
ACAD
1000
DSTYLE
1002
{
1070
   279
1070
     0
1070
   172
1070
     1
1070
   173
1070
     1
1070
   340
1005
21C
1070
   271
1070
     1
1070
   272
1070
     2
1070
    77
1070
     1
1070
    73
1070
     0
1070
   171
1070
     3
1070
   274
1070
     4
1070
   177
1070
   150
1070
   176
1070
     9
1070
   178
1070
    43
1070
    78
1070
     8
1070
    48
1040
-0.005
1070
    41
1041
4.175
1070
   147
1041
2.25
1070
    42
1041
1.5875
1070
    44
1041
3.175
1070
   140
1041
4.5
1070
   343
1005
0
1070
   344
1005
0
1002
}
0
DIMENSION
5
275
100
AcDbEntity
8
SK2
62
256
6
ByLayer
370
-3
48
1
60
0
100
AcDbDimension
2
DimnDraft3D5
10
-67.9
20
-12.5
30
0
11
-68.1
21
4.121053
31
0
70
33
71
5
72
1
41
1
210
0
220
0
230
1
3
Standard
100
AcDbAlignedDimension
13
-57.5875
23
12.5
33
0
14
-57.5875
24
-12.5
34
0
1001
ACAD
1000
DSTYLE
1002
{
1070
   279
1070
     0
1070
    74
1070
     0
1070
   173
1070
     1
1070
   340
1005
21C
1070
   271
1070
     2
1070
   272
1070
     2
1070
    77
1070
     1
1070
    73
1070
     0
1070
   171
1070
     3
1070
   274
1070
     4
1070
   177
1070
   150
1070
   176
1070
     9
1070
   178
1070
    43
1070
    78
1070
     8
1070
    48
1040
-0.005
1070
    41
1041
4.175
1070
   147
1041
2.25
1070
    42
1041
1.5875
1070
    44
1041
3.175
1070
   140
1041
4.5
1070
   343
1005
0
1070
   344
1005
0
1002
}
0
DIMENSION
5
280
100
AcDbEntity
8
SK2
62
256
6
ByLayer
370
-3
48
1
60
0
100
AcDbDimension
2
DimnDraft3D6
10
-77.9
20
16
30
0
11
-78.1
21
4.121053
31
0
70
33
71
5
72
1
41
1
210
0
220
0
230
1
3
Standard
100
AcDbAlignedDimension
13
-1.5875
23
-16
33
0
14
-1.5875
24
16
34
0
1001
ACAD
1000
DSTYLE
1002
{
1070
   279
1070
     0
1070
    74
1070
     0
1070
   173
1070
     1
1070
   340
1005
21C
1070
   271
1070
     1
1070
   272
1070
     2
1070
    77
1070
     1
1070
    73
1070
     0
1070
   171
1070
     3
1070
   274
1070
     4
1070
   177
1070
   150
1070
   176
1070
     9
1070
   178
1070
    43
1070
    78
1070
     8
1070
    48
1040
-0.005
1070
    41
1041
4.175
1070
   147
1041
2.25
1070
    42
1041
1.5875
1070
    44
1041
3.175
1070
   140
1041
4.5
1070
   343
1005
0
1070
   344
1005
0
1002
}
0
DIMENSION
5
28B
100
AcDbEntity
8
2
62
256
6
ByLayer
370
-3
48
1
60
0
100
AcDbDimension
2
DimnDraft3D7
10
125.15
20
-12
30
0
11
118.6
21
3.884211
31
0
70
33
71
5
72
1
41
1
210
0
220
0
230
1
3
Standard
100
AcDbAlignedDimension
13
96.5875
23
12
33
0
14
96.5875
24
-12
34
0
1001
ACAD
1000
DSTYLE
1002
{
1070
   279
1070
     0
1070
    74
1070
     0
1070
   173
1070
     1
1070
   340
1005
21C
1070
   271
1070
     2
1070
   272
1070
     2
1070
    77
1070
     1
1070
    73
1070
     0
1070
   171
1070
     3
1070
   274
1070
     4
1070
   177
1070
   150
1070
   176
1070
     9
1070
   178
1070
    43
1070
    78
1070
     8
1070
    48
1040
-0.005
1070
    41
1041
4.175
1070
   147
1041
2.25
1070
    42
1041
1.5875
1070
    44
1041
3.175
1070
   140
1041
4.5
1070
   343
1005
0
1070
   344
1005
0
1002
}
0
ENDSEC
0
SECTION
2
OBJECTS
0
DICTIONARY
5
2bc
330
0
100
AcDbDictionary
280
0
281
1
3
ACAD_GROUP
350
2bd
3
ACAD_MLINESTYLE
350
2be
0
DICTIONARY
5
2bd
330
0
100
AcDbDictionary
280
0
281
1
0
DICTIONARY
5
2be
330
0
100
AcDbDictionary
280
0
281
1
3
Standard
350
18
0
MLINESTYLE
5
18
330
2be
100
AcDbMlineStyle
2
Standard
70
0
3

62
256
51
90
52
90
71
2
49
-0.5
62
256
6
ByLayer
49
0.5
62
256
6
ByLayer
0
RASTERVARIABLES
5
2aa
330

100
AcDbRasterVariables
90
0
70
1
71
1
72
1
0
ENDSEC
0
EOF
