0
SECTION
2
HEADER
9
$ACADVER
1
AC1015
9
$DWGCODEPAGE
3
ANSI_1252
9
$HANDSEED
5
2b1
9
$ANGBASE
50
0
9
$ANGDIR
70
0
9
$ATTMODE
70
1
9
$AUNITS
70
0
9
$AUPREC
70
0
9
$CECOLOR
62
256
9
$CELTSCALE
40
1
9
$CELTYPE
6
ByLayer
9
$CELWEIGHT
370
-1
9
$CLAYER
8
0
9
$CMLJUST
70
0
9
$CMLSCALE
40
1
9
$CMLSTYLE
2
Standard
9
$DIMSTYLE
2
Standard
9
$TEXTSIZE
40
0.2
9
$TEXTSTYLE
7
Standard
9
$LUNITS
70
2
9
$LUPREC
70
4
9
$EXTNAMES
290
1
9
$INSUNITS
70
4
9
$LTSCALE
40
1
9
$LWDISPLAY
290
0
9
$PDMODE
70
0
9
$PDSIZE
40
0
9
$PLINEGEN
70
0
0
ENDSEC
0
SECTION
2
CLASSES
0
CLASS
1
RASTERVARIABLES
2
AcDbRasterVariables
3
ISM
90
0
280
0
281
0
0
ENDSEC
0
SECTION
2
TABLES
0
TABLE
2
VPORT
5
2a7
100
AcDbSymbolTable
0
VPORT
5
1
100
AcDbSymbolTableRecord
100
AcDbViewportTableRecord
2
*Active
70
0
10
0
20
0
11
1
21
1
12
-1
22
1
13
0
23
0
14
0.5
24
0.5
15
10
25
10
16
0
26
0
36
1
17
0
27
0
37
0
0
ENDTAB
0
TABLE
2
LTYPE
5
2a8
100
AcDbSymbolTable
0
LTYPE
5
14
100
AcDbSymbolTableRecord
100
AcDbLinetypeTableRecord
70
0
2
ByBlock
3

72
65
73
0
40
0
0
LTYPE
5
15
100
AcDbSymbolTableRecord
100
AcDbLinetypeTableRecord
70
0
2
ByLayer
3

72
65
73
0
40
0
0
LTYPE
5
16
100
AcDbSymbolTableRecord
100
AcDbLinetypeTableRecord
70
0
2
CONTINUOUS
3
Solid line
72
65
73
0
40
0
0
LTYPE
5
3B
100
AcDbSymbolTableRecord
100
AcDbLinetypeTableRecord
70
0
2
DASHED
3
__ __ __ __ __ __ __ __ __
72
65
73
2
40
25.72
49
12.86
74
0
49
-12.86
74
0
0
LTYPE
5
3C
100
AcDbSymbolTableRecord
100
AcDbLinetypeTableRecord
70
0
2
HIDDEN
3
_ _ _ _ _ _ _ _ _ _ _ _ _ _ _
72
65
73
2
40
0.5
49
0.25
74
0
49
-0.25
74
0
0
LTYPE
5
3D
100
AcDbSymbolTableRecord
100
AcDbLinetypeTableRecord
70
0
2
PHANTOM
3
____ _ _ ____ _ _ _____ _ _ ____
72
65
73
6
40
50.5
49
18
74
0
49
-6.5
74
0
49
6.5
74
0
49
-6.5
74
0
49
6.5
74
0
49
-6.5
74
0
0
LTYPE
5
3E
100
AcDbSymbolTableRecord
100
AcDbLinetypeTableRecord
70
0
2
CENTER
3
____ _ ____ _ ____ _ ____
72
65
73
4
40
47.5
49
22
74
0
49
-8.5
74
0
49
8.5
74
0
49
-8.5
74
0
0
LTYPE
5
3F
100
AcDbSymbolTableRecord
100
AcDbLinetypeTableRecord
70
0
2
DOT
3
.........................
72
65
73
2
40
10
49
0
74
0
49
-10
74
0
0
LTYPE
5
40
100
AcDbSymbolTableRecord
100
AcDbLinetypeTableRecord
70
0
2
DASHDOT
3
_._._._._._._._._._._._._._._._.
72
65
73
4
40
70
49
31
74
0
49
-13
74
0
49
13
74
0
49
-13
74
0
0
ENDTAB
0
TABLE
2
LAYER
5
2a9
100
AcDbSymbolTable
0
LAYER
5
10
100
AcDbSymbolTableRecord
100
AcDbLayerTableRecord
2
0
70
0
62
7
6
CONTINUOUS
290
1
370
-3
390
0
0
LAYER
5
42
100
AcDbSymbolTableRecord
100
AcDbLayerTableRecord
2
81
70
0
62
-3
6
CONTINUOUS
290
1
370
-3
390
0
0
LAYER
5
44
100
AcDbSymbolTableRecord
100
AcDbLayerTableRecord
2
80
70
0
62
-6
6
CONTINUOUS
290
1
370
-3
390
0
0
LAYER
5
48
100
AcDbSymbolTableRecord
100
AcDbLayerTableRecord
2
1
70
0
62
4
6
CONTINUOUS
290
1
370
-3
390
0
0
LAYER
5
61
100
AcDbSymbolTableRecord
100
AcDbLayerTableRecord
2
4
70
0
62
-2
6
CENTER
290
1
370
-3
390
0
0
LAYER
5
240
100
AcDbSymbolTableRecord
100
AcDbLayerTableRecord
2
2
70
0
62
7
6
CONTINUOUS
290
1
370
-3
390
0
0
LAYER
5
293
100
AcDbSymbolTableRecord
100
AcDbLayerTableRecord
2
SK1
70
0
62
4
6
CONTINUOUS
290
1
370
-3
390
0
0
LAYER
5
294
100
AcDbSymbolTableRecord
100
AcDbLayerTableRecord
2
SK4
70
0
62
2
6
CENTER
290
1
370
-3
390
0
0
LAYER
5
295
100
AcDbSymbolTableRecord
100
AcDbLayerTableRecord
2
SK6
70
0
62
5
6
CONTINUOUS
290
1
370
-3
390
0
0
LAYER
5
296
100
AcDbSymbolTableRecord
100
AcDbLayerTableRecord
2
SK2
70
0
62
7
6
CONTINUOUS
290
1
370
-3
390
0
0
ENDTAB
0
TABLE
2
STYLE
5
2aa
100
AcDbSymbolTable
0
STYLE
5
11
100
AcDbSymbolTableRecord
100
AcDbTextStyleTableRecord
2
Standard
3
txt
70
0
71
0
40
0
41
1
42
0
50
0
0
STYLE
5
204
100
AcDbSymbolTableRecord
100
AcDbTextStyleTableRecord
2
DEFAULT
3
simplex.shx
70
0
71
0
40
0
41
1
42
0
50
0
0
STYLE
5
227
100
AcDbSymbolTableRecord
100
AcDbTextStyleTableRecord
2
DWGDirectTextStyle
3
SIMPLEX
70
0
71
0
40
0
41
1
42
0
50
0
0
ENDTAB
0
TABLE
2
DIMSTYLE
5
2ab
100
AcDbSymbolTable
100
AcDbDimStyleTable
0
DIMSTYLE
105
27
100
AcDbSymbolTableRecord
100
AcDbDimStyleTableRecord
2
Standard
70
0
3
<>
41
0.18
42
0.0625
44
0.18
140
0.18
147
0.09
73
0
74
0
77
1
271
2
275
0
278
52
280
0
340
11
0
ENDTAB
0
TABLE
2
VIEW
5
2ac
100
AcDbSymbolTable
0
ENDTAB
0
TABLE
2
UCS
5
2ad
100
AcDbSymbolTable
0
ENDTAB
0
TABLE
2
APPID
5
2ae
100
AcDbSymbolTable
0
APPID
5
12
100
AcDbSymbolTableRecord
100
AcDbRegAppTableRecord
2
ACAD
70
0
0
ENDTAB
0
TABLE
2
BLOCK_RECORD
5
2af
100
AcDbSymbolTable
0
BLOCK_RECORD
5
1F
100
AcDbSymbolTableRecord
100
AcDbBlockTableRecord
2
*Model_Space
340
0
70
0
0
BLOCK_RECORD
5
1B
100
AcDbSymbolTableRecord
100
AcDbBlockTableRecord
2
*Paper_Space
340
0
70
0
0
BLOCK_RECORD
5
23
100
AcDbSymbolTableRecord
100
AcDbBlockTableRecord
2
*Paper_Space0
340
0
70
0
0
BLOCK_RECORD
5
229
100
AcDbSymbolTableRecord
100
AcDbBlockTableRecord
2
DimnDraft3D1
340
0
70
0
0
BLOCK_RECORD
5
234
100
AcDbSymbolTableRecord
100
AcDbBlockTableRecord
2
DimnDraft3D2
340
0
70
0
0
BLOCK_RECORD
5
23E
100
AcDbSymbolTableRecord
100
AcDbBlockTableRecord
2
DimnDraft3D3
340
0
70
0
0
BLOCK_RECORD
5
249
100
AcDbSymbolTableRecord
100
AcDbBlockTableRecord
2
DimnDraft3D4
340
0
70
0
0
BLOCK_RECORD
5
253
100
AcDbSymbolTableRecord
100
AcDbBlockTableRecord
2
DimnDraft3D5
340
0
70
0
0
BLOCK_RECORD
5
25E
100
AcDbSymbolTableRecord
100
AcDbBlockTableRecord
2
DimnDraft3D6
340
0
70
0
0
BLOCK_RECORD
5
269
100
AcDbSymbolTableRecord
100
AcDbBlockTableRecord
2
DimnDraft3D7
340
0
70
0
0
ENDTAB
0
ENDSEC
0
SECTION
2
BLOCKS
0
BLOCK
5
20
100
AcDbEntity
8
0
100
AcDbBlockBegin
2
*Model_Space
70
0
10
0
20
0
30
0
3
*Model_Space
0
ENDBLK
5
21
100
AcDbEntity
8
0
100
AcDbBlockEnd
0
BLOCK
5
1C
100
AcDbEntity
8
0
100
AcDbBlockBegin
2
*Paper_Space
70
0
10
0
20
0
30
0
3
*Paper_Space
0
ENDBLK
5
1D
100
AcDbEntity
8
0
100
AcDbBlockEnd
0
BLOCK
5
24
100
AcDbEntity
8
0
100
AcDbBlockBegin
2
*Paper_Space0
70
0
10
0
20
0
30
0
3
*Paper_Space0
0
ENDBLK
5
25
100
AcDbEntity
8
0
100
AcDbBlockEnd
0
BLOCK
5
231
100
AcDbEntity
8
0
100
AcDbBlockBegin
2
DimnDraft3D1
70
0
10
0
20
0
30
0
3
DimnDraft3D1
0
MTEXT
5
22A
100
AcDbEntity
8
SK2
62
256
6
ByLayer
370
-1
48
1
60
0
100
AcDbMText
10
8.169737
20
-51.7758
30
0
210
0
220
0
230
1
1
\W01.000;\fsimplex.shx,bigfont.shx;(143) 
40
4.5
41
0
44
1.084337
50
0
71
7
72
5
7
DEFAULT
0
LINE
5
22C
100
AcDbEntity
8
SK2
62
256
6
ByLayer
370
-1
48
1
60
0
100
AcDbLine
10
-56
20
-14.0875
30
0
11
-56
21
-58.04455
31
0
39
0
210
0
220
0
230
1
0
LINE
5
22D
100
AcDbEntity
8
SK2
62
256
6
ByLayer
370
-1
48
1
60
0
100
AcDbLine
10
87
20
-12.5875
30
0
11
87
21
-58.04455
31
0
39
0
210
0
220
0
230
1
0
LINE
5
22E
100
AcDbEntity
8
SK2
62
256
6
ByLayer
370
-1
48
1
60
0
100
AcDbLine
10
-56
20
-54.86955
30
0
11
87
21
-54.86955
31
0
39
0
210
0
220
0
230
1
0
SOLID
5
22F
100
AcDbEntity
8
SK2
62
256
6
ByLayer
370
-1
48
1
60
0
100
AcDbTrace
10
-56
20
-54.86955
30
0
11
-51.825003
21
-53.943975
31
0
12
-51.824997
22
-55.795125
32
0
13
-56
23
-54.86955
33
0
39
0
210
0
220
0
230
1
0
SOLID
5
230
100
AcDbEntity
8
SK2
62
256
6
ByLayer
370
-1
48
1
60
0
100
AcDbTrace
10
87
20
-54.86955
30
0
11
82.825003
21
-55.795125
31
0
12
82.824997
22
-53.943975
32
0
13
87
23
-54.86955
33
0
39
0
210
0
220
0
230
1
0
ENDBLK
5
232
100
AcDbEntity
8
0
100
AcDbBlockEnd
0
BLOCK
5
23B
100
AcDbEntity
8
0
100
AcDbBlockBegin
2
DimnDraft3D2
70
0
10
0
20
0
30
0
3
DimnDraft3D2
0
MTEXT
5
235
100
AcDbEntity
8
SK2
62
256
6
ByLayer
370
-1
48
1
60
0
100
AcDbMText
10
-29.503947
20
-41.7758
30
0
210
0
220
0
230
1
1
\W01.000;\fsimplex.shx,bigfont.shx;56 
40
4.5
41
0
44
1.084337
50
0
71
7
72
5
7
DEFAULT
0
LINE
5
236
100
AcDbEntity
8
SK2
62
256
6
ByLayer
370
-1
48
1
60
0
100
AcDbLine
10
-56
20
-14.0875
30
0
11
-56
21
-46.0758
31
0
39
0
210
0
220
0
230
1
0
LINE
5
237
100
AcDbEntity
8
SK2
62
256
6
ByLayer
370
-1
48
1
60
0
100
AcDbLine
10
0
20
-17.5875
30
0
11
0
21
-46.0758
31
0
39
0
210
0
220
0
230
1
0
LINE
5
238
100
AcDbEntity
8
SK2
62
256
6
ByLayer
370
-1
48
1
60
0
100
AcDbLine
10
-56
20
-42.9008
30
0
11
0
21
-42.9008
31
0
39
0
210
0
220
0
230
1
0
SOLID
5
239
100
AcDbEntity
8
SK2
62
256
6
ByLayer
370
-1
48
1
60
0
100
AcDbTrace
10
-56
20
-42.9008
30
0
11
-51.825003
21
-41.975225
31
0
12
-51.824997
22
-43.826375
32
0
13
-56
23
-42.9008
33
0
39
0
210
0
220
0
230
1
0
SOLID
5
23A
100
AcDbEntity
8
SK2
62
256
6
ByLayer
370
-1
48
1
60
0
100
AcDbTrace
10
0
20
-42.9008
30
0
11
-4.174997
21
-43.826375
31
0
12
-4.175003
22
-41.975225
32
0
13
0
23
-42.9008
33
0
39
0
210
0
220
0
230
1
0
ENDBLK
5
23C
100
AcDbEntity
8
0
100
AcDbBlockEnd
0
BLOCK
5
246
100
AcDbEntity
8
0
100
AcDbBlockBegin
2
DimnDraft3D3
70
0
10
0
20
0
30
0
3
DimnDraft3D3
0
MTEXT
5
23F
100
AcDbEntity
8
2
62
256
6
ByLayer
370
-1
48
1
60
0
100
AcDbMText
10
41.996053
20
-41.7758
30
0
210
0
220
0
230
1
1
\W01.000;\fsimplex.shx,bigfont.shx;87 
40
4.5
41
0
44
1.084337
50
0
71
7
72
5
7
DEFAULT
0
LINE
5
241
100
AcDbEntity
8
2
62
256
6
ByLayer
370
-1
48
1
60
0
100
AcDbLine
10
0
20
-17.5875
30
0
11
0
21
-46.0758
31
0
39
0
210
0
220
0
230
1
0
LINE
5
242
100
AcDbEntity
8
2
62
256
6
ByLayer
370
-1
48
1
60
0
100
AcDbLine
10
87
20
-12.5875
30
0
11
87
21
-46.0758
31
0
39
0
210
0
220
0
230
1
0
LINE
5
243
100
AcDbEntity
8
2
62
256
6
ByLayer
370
-1
48
1
60
0
100
AcDbLine
10
0
20
-42.9008
30
0
11
87
21
-42.9008
31
0
39
0
210
0
220
0
230
1
0
SOLID
5
244
100
AcDbEntity
8
2
62
256
6
ByLayer
370
-1
48
1
60
0
100
AcDbTrace
10
0
20
-42.9008
30
0
11
4.174997
21
-41.975225
31
0
12
4.175003
22
-43.826375
32
0
13
0
23
-42.9008
33
0
39
0
210
0
220
0
230
1
0
SOLID
5
245
100
AcDbEntity
8
2
62
256
6
ByLayer
370
-1
48
1
60
0
100
AcDbTrace
10
87
20
-42.9008
30
0
11
82.825003
21
-43.826375
31
0
12
82.824997
22
-41.975225
32
0
13
87
23
-42.9008
33
0
39
0
210
0
220
0
230
1
0
ENDBLK
5
247
100
AcDbEntity
8
0
100
AcDbBlockEnd
0
BLOCK
5
250
100
AcDbEntity
8
0
100
AcDbBlockBegin
2
DimnDraft3D4
70
0
10
0
20
0
30
0
3
DimnDraft3D4
0
MTEXT
5
24A
100
AcDbEntity
8
SK2
62
256
6
ByLayer
370
-1
48
1
60
0
100
AcDbMText
10
50.996053
20
-31.7758
30
0
210
0
220
0
230
1
1
\W01.000;\fsimplex.shx,bigfont.shx;69 
40
4.5
41
0
44
1.084337
50
0
71
7
72
5
7
DEFAULT
0
LINE
5
24B
100
AcDbEntity
8
SK2
62
256
6
ByLayer
370
-1
48
1
60
0
100
AcDbLine
10
18
20
-11.5875
30
0
11
18
21
-36.0758
31
0
39
0
210
0
220
0
230
1
0
LINE
5
24C
100
AcDbEntity
8
SK2
62
256
6
ByLayer
370
-1
48
1
60
0
100
AcDbLine
10
87
20
-12.5875
30
0
11
87
21
-36.0758
31
0
39
0
210
0
220
0
230
1
0
LINE
5
24D
100
AcDbEntity
8
SK2
62
256
6
ByLayer
370
-1
48
1
60
0
100
AcDbLine
10
18
20
-32.9008
30
0
11
87
21
-32.9008
31
0
39
0
210
0
220
0
230
1
0
SOLID
5
24E
100
AcDbEntity
8
SK2
62
256
6
ByLayer
370
-1
48
1
60
0
100
AcDbTrace
10
18
20
-32.9008
30
0
11
22.174997
21
-31.975225
31
0
12
22.175003
22
-33.826375
32
0
13
18
23
-32.9008
33
0
39
0
210
0
220
0
230
1
0
SOLID
5
24F
100
AcDbEntity
8
SK2
62
256
6
ByLayer
370
-1
48
1
60
0
100
AcDbTrace
10
87
20
-32.9008
30
0
11
82.825003
21
-33.826375
31
0
12
82.824997
22
-31.975225
32
0
13
87
23
-32.9008
33
0
39
0
210
0
220
0
230
1
0
ENDBLK
5
251
100
AcDbEntity
8
0
100
AcDbBlockEnd
0
BLOCK
5
25B
100
AcDbEntity
8
0
100
AcDbBlockBegin
2
DimnDraft3D5
70
0
10
0
20
0
30
0
3
DimnDraft3D5
0
MTEXT
5
254
100
AcDbEntity
8
SK2
62
256
6
ByLayer
370
-1
48
1
60
0
100
AcDbMText
10
-66.975
20
5.246053
30
0
210
0
220
0
230
1
1
\W01.000;\fsimplex.shx,bigfont.shx;25 
40
4.5
41
0
44
1.084337
50
90
71
7
72
5
7
DEFAULT
0
MTEXT
5
255
100
AcDbEntity
8
SK2
62
256
6
ByLayer
370
-1
48
1
60
0
100
AcDbMText
10
-66.975
20
-8.253947
30
0
210
0
220
0
230
1
1
\W01.000;\fsimplex.shx,bigfont.shx;%%c 
40
4.5
41
0
44
1.084337
50
90
71
7
72
5
7
DEFAULT
0
LINE
5
256
100
AcDbEntity
8
SK2
62
256
6
ByLayer
370
-1
48
1
60
0
100
AcDbLine
10
-57.5875
20
12.5
30
0
11
-67.9
21
12.5
31
0
39
0
210
0
220
0
230
1
0
LINE
5
257
100
AcDbEntity
8
SK2
62
256
6
ByLayer
370
-1
48
1
60
0
100
AcDbLine
10
-57.5875
20
-12.5
30
0
11
-67.9
21
-12.5
31
0
39
0
210
0
220
0
230
1
0
LINE
5
258
100
AcDbEntity
8
SK2
62
256
6
ByLayer
370
-1
48
1
60
0
100
AcDbLine
10
-64.725
20
23.75
30
0
11
-64.725
21
-23.75
31
0
39
0
210
0
220
0
230
1
0
SOLID
5
259
100
AcDbEntity
8
SK2
62
256
6
ByLayer
370
-1
48
1
60
0
100
AcDbTrace
10
-64.725
20
12.5
30
0
11
-65.650575
21
16.674997
31
0
12
-63.799425
22
16.675003
32
0
13
-64.725
23
12.5
33
0
39
0
210
0
220
0
230
1
0
SOLID
5
25A
100
AcDbEntity
8
SK2
62
256
6
ByLayer
370
-1
48
1
60
0
100
AcDbTrace
10
-64.725
20
-12.5
30
0
11
-63.799425
21
-16.674997
31
0
12
-65.650575
22
-16.675003
32
0
13
-64.725
23
-12.5
33
0
39
0
210
0
220
0
230
1
0
ENDBLK
5
25C
100
AcDbEntity
8
0
100
AcDbBlockEnd
0
BLOCK
5
266
100
AcDbEntity
8
0
100
AcDbBlockBegin
2
DimnDraft3D6
70
0
10
0
20
0
30
0
3
DimnDraft3D6
0
MTEXT
5
25F
100
AcDbEntity
8
SK2
62
256
6
ByLayer
370
-1
48
1
60
0
100
AcDbMText
10
-76.975
20
5.246053
30
0
210
0
220
0
230
1
1
\W01.000;\fsimplex.shx,bigfont.shx;32 
40
4.5
41
0
44
1.084337
50
90
71
7
72
5
7
DEFAULT
0
MTEXT
5
260
100
AcDbEntity
8
SK2
62
256
6
ByLayer
370
-1
48
1
60
0
100
AcDbMText
10
-76.975
20
-8.253947
30
0
210
0
220
0
230
1
1
\W01.000;\fsimplex.shx,bigfont.shx;%%c 
40
4.5
41
0
44
1.084337
50
90
71
7
72
5
7
DEFAULT
0
LINE
5
261
100
AcDbEntity
8
SK2
62
256
6
ByLayer
370
-1
48
1
60
0
100
AcDbLine
10
-1.5875
20
-16
30
0
11
-77.9
21
-16
31
0
39
0
210
0
220
0
230
1
0
LINE
5
262
100
AcDbEntity
8
SK2
62
256
6
ByLayer
370
-1
48
1
60
0
100
AcDbLine
10
-1.5875
20
16
30
0
11
-77.9
21
16
31
0
39
0
210
0
220
0
230
1
0
LINE
5
263
100
AcDbEntity
8
SK2
62
256
6
ByLayer
370
-1
48
1
60
0
100
AcDbLine
10
-74.725
20
-16
30
0
11
-74.725
21
16
31
0
39
0
210
0
220
0
230
1
0
SOLID
5
264
100
AcDbEntity
8
SK2
62
256
6
ByLayer
370
-1
48
1
60
0
100
AcDbTrace
10
-74.725
20
-16
30
0
11
-75.650575
21
-11.825003
31
0
12
-73.799425
22
-11.824997
32
0
13
-74.725
23
-16
33
0
39
0
210
0
220
0
230
1
0
SOLID
5
265
100
AcDbEntity
8
SK2
62
256
6
ByLayer
370
-1
48
1
60
0
100
AcDbTrace
10
-74.725
20
16
30
0
11
-73.799425
21
11.825003
31
0
12
-75.650575
22
11.824997
32
0
13
-74.725
23
16
33
0
39
0
210
0
220
0
230
1
0
ENDBLK
5
267
100
AcDbEntity
8
0
100
AcDbBlockEnd
0
BLOCK
5
271
100
AcDbEntity
8
0
100
AcDbBlockBegin
2
DimnDraft3D7
70
0
10
0
20
0
30
0
3
DimnDraft3D7
0
MTEXT
5
26A
100
AcDbEntity
8
2
62
256
6
ByLayer
370
-1
48
1
60
0
100
AcDbMText
10
111.725
20
5.246053
30
0
210
0
220
0
230
1
1
\W01.000;\fsimplex.shx,bigfont.shx;22 
40
4.5
41
0
44
1.084337
50
90
71
7
72
5
7
DEFAULT
0
MTEXT
5
26B
100
AcDbEntity
8
2
62
256
6
ByLayer
370
-1
48
1
60
0
100
AcDbMText
10
111.725
20
-8.253947
30
0
210
0
220
0
230
1
1
\W01.000;\fsimplex.shx,bigfont.shx;%%c 
40
4.5
41
0
44
1.084337
50
90
71
7
72
5
7
DEFAULT
0
LINE
5
26C
100
AcDbEntity
8
2
62
256
6
ByLayer
370
-1
48
1
60
0
100
AcDbLine
10
88.5875
20
11
30
0
11
117.15
21
11
31
0
39
0
210
0
220
0
230
1
0
LINE
5
26D
100
AcDbEntity
8
2
62
256
6
ByLayer
370
-1
48
1
60
0
100
AcDbLine
10
88.5875
20
-11
30
0
11
117.15
21
-11
31
0
39
0
210
0
220
0
230
1
0
LINE
5
26E
100
AcDbEntity
8
2
62
256
6
ByLayer
370
-1
48
1
60
0
100
AcDbLine
10
113.975
20
22.25
30
0
11
113.975
21
-22.25
31
0
39
0
210
0
220
0
230
1
0
SOLID
5
26F
100
AcDbEntity
8
2
62
256
6
ByLayer
370
-1
48
1
60
0
100
AcDbTrace
10
113.975
20
11
30
0
11
113.049425
21
15.174997
31
0
12
114.900575
22
15.175003
32
0
13
113.975
23
11
33
0
39
0
210
0
220
0
230
1
0
SOLID
5
270
100
AcDbEntity
8
2
62
256
6
ByLayer
370
-1
48
1
60
0
100
AcDbTrace
10
113.975
20
-11
30
0
11
114.900575
21
-15.174997
31
0
12
113.049425
22
-15.175003
32
0
13
113.975
23
-11
33
0
39
0
210
0
220
0
230
1
0
ENDBLK
5
272
100
AcDbEntity
8
0
100
AcDbBlockEnd
0
ENDSEC
0
SECTION
2
ENTITIES
0
ARC
5
ED
100
AcDbEntity
8
SK1
62
256
6
ByLayer
370
-1
48
1
60
0
100
AcDbCircle
39
0
10
1.382165
20
12.65
30
0
40
0.4
210
0
220
0
230
-1
100
AcDbArc
50
270
51
295
0
ARC
5
EE
100
AcDbEntity
8
SK1
62
256
6
ByLayer
370
-1
48
1
60
0
100
AcDbCircle
39
0
10
1.382165
20
-12.65
30
0
40
0.4
210
0
220
0
230
-1
100
AcDbArc
50
65
51
90
0
ARC
5
EF
100
AcDbEntity
8
SK1
62
256
6
ByLayer
370
-1
48
1
60
0
100
AcDbCircle
39
0
10
0.15
20
12.65
30
0
40
0.4
210
0
220
0
230
-1
100
AcDbArc
50
247.975687
51
270
0
ARC
5
F0
100
AcDbEntity
8
SK1
62
256
6
ByLayer
370
-1
48
1
60
0
100
AcDbCircle
39
0
10
0.15
20
-12.65
30
0
40
0.4
210
0
220
0
230
-1
100
AcDbArc
50
90
51
112.024313
0
ARC
5
F1
100
AcDbEntity
8
SK1
62
256
6
ByLayer
370
-1
48
1
60
0
100
AcDbCircle
39
0
10
53.894506
20
12.89675
30
0
40
0.8
210
0
220
0
230
-1
100
AcDbArc
50
250.982048
51
321
0
ARC
5
F2
100
AcDbEntity
8
SK1
62
256
6
ByLayer
370
-1
48
1
60
0
100
AcDbCircle
39
0
10
53.894506
20
-12.89675
30
0
40
0.8
210
0
220
0
230
-1
100
AcDbArc
50
39
51
109.017952
0
ELLIPSE
5
F3
100
AcDbEntity
8
1
62
256
6
ByLayer
370
-1
48
1
60
0
100
AcDbEllipse
10
80.714535
20
4.742415
30
0
11
-1.43971234164275
21
-1.28202564713952
31
0
210
0
220
0
230
-1
40
0.721468
41
-1.1842853586517
42
-0.8686602616939
0
ELLIPSE
5
F4
100
AcDbEntity
8
1
62
256
6
ByLayer
370
-1
48
1
60
0
100
AcDbEllipse
10
86.980358
20
0
30
0
11
-0.871674528846694
21
-10.5994275137375
31
0
210
0
220
0
230
-1
40
0.126383
41
0.019556282571719
42
1.0682877772075
0
ELLIPSE
5
F5
100
AcDbEntity
8
1
62
256
6
ByLayer
370
-1
48
1
60
0
100
AcDbEllipse
10
79.539042
20
4.708823
30
0
11
-0.599695201525335
21
-0.0191223760942034
31
0
210
0
220
0
230
1
40
0.002788
41
0.0872220186676158
42
1.33217642950434
0
ELLIPSE
5
F6
100
AcDbEntity
8
1
62
256
6
ByLayer
370
-1
48
1
60
0
100
AcDbEllipse
10
83.383655
20
7.009033
30
0
11
1.46431667789534E-15
21
1.25
31
0
210
0
220
0
230
1
40
0.996195
41
0.0981750815225059
42
1.57079634872777
0
ELLIPSE
5
F7
100
AcDbEntity
8
1
62
256
6
ByLayer
370
-1
48
1
60
0
100
AcDbEllipse
10
83.383655
20
7.009033
30
0
11
1.46431667789534E-15
21
1.25
31
0
210
0
220
0
230
1
40
0.996195
41
1.57079634872777
42
2.6683900478538
0
ELLIPSE
5
F8
100
AcDbEntity
8
1
62
256
6
ByLayer
370
-1
48
1
60
0
100
AcDbEllipse
10
10.7
20
4.947355
30
0
11
-5
21
5.05319527541181E-15
31
0
210
0
220
0
230
1
40
0.588876
41
-1.79637723778042
42
-0.522650206014197
0
ELLIPSE
5
F9
100
AcDbEntity
8
1
62
256
6
ByLayer
370
-1
48
1
60
0
100
AcDbEllipse
10
56.496067
20
10.369918
30
0
11
-20.5314376065744
21
3.78776840121267
31
0
210
0
220
0
230
-1
40
0.234668
41
3.09832655540805
42
-2.88923853047337
0
ELLIPSE
5
FA
100
AcDbEntity
8
1
62
256
6
ByLayer
370
-1
48
1
60
0
100
AcDbEllipse
10
80.313287
20
6.141698
30
0
11
1.93289801482185E-15
21
1.65
31
0
210
0
220
0
230
1
40
0.996195
41
0.843408340772049
42
1.60279402974813
0
ELLIPSE
5
FB
100
AcDbEntity
8
1
62
256
6
ByLayer
370
-1
48
1
60
0
100
AcDbEllipse
10
67.827995
20
8.234415
30
0
11
-18.5566330389807
21
8.47950143981546
31
0
210
0
220
0
230
-1
40
0.008949
41
2.09686449692157
42
2.11132714430493
0
ELLIPSE
5
FC
100
AcDbEntity
8
1
62
256
6
ByLayer
370
-1
48
1
60
0
100
AcDbEllipse
10
86.202583
20
0
30
0
11
-0.778797530846495
21
10.599599978075
31
0
210
0
220
0
230
-1
40
0.118204
41
-1.51489340842859
42
-1.44715809192727
0
ELLIPSE
5
FD
100
AcDbEntity
8
1
62
256
6
ByLayer
370
-1
48
1
60
0
100
AcDbEllipse
10
86.204973
20
-5.479852
30
0
11
-0.0581290992931615
21
-0.65856497394919
31
0
210
0
220
0
230
-1
40
0.115224
41
0.00370845515651095
42
1.57450478194901
0
ELLIPSE
5
FE
100
AcDbEntity
8
1
62
256
6
ByLayer
370
-1
48
1
60
0
100
AcDbEllipse
10
76.907937
20
0
30
0
11
-31.243304703013
21
-3.54017788880752E-14
31
0
210
0
220
0
230
-1
40
0.339273
41
1.5326022249901
42
1.5752388823657
0
ELLIPSE
5
FF
100
AcDbEntity
8
1
62
256
6
ByLayer
370
-1
48
1
60
0
100
AcDbEllipse
10
79.691083
20
7.858495
30
0
11
-0.579980162406309
21
-0.618336926204215
31
0
210
0
220
0
230
-1
40
0.04503
41
-0.791576829876695
42
-0.359511934336813
0
ELLIPSE
5
100
100
AcDbEntity
8
1
62
256
6
ByLayer
370
-1
48
1
60
0
100
AcDbEllipse
10
85.931391
20
0.014355
30
0
11
-0.044499915140614
21
0.601865889316071
31
0
210
0
220
0
230
-1
40
0.117795
41
-1.45609609372881
42
0.0738969798482449
0
ELLIPSE
5
101
100
AcDbEntity
8
1
62
256
6
ByLayer
370
-1
48
1
60
0
100
AcDbEllipse
10
83.139619
20
7.009033
30
0
11
1.46431667789534E-15
21
1.25
31
0
210
0
220
0
230
1
40
0.996195
41
-2.35825588077847
42
0
0
ELLIPSE
5
102
100
AcDbEntity
8
1
62
256
6
ByLayer
370
-1
48
1
60
0
100
AcDbEllipse
10
83.139619
20
7.009033
30
0
11
1.46431667789534E-15
21
1.25
31
0
210
0
220
0
230
1
40
0.996195
41
0
42
1.57079605281728
0
ELLIPSE
5
103
100
AcDbEntity
8
1
62
256
6
ByLayer
370
-1
48
1
60
0
100
AcDbEllipse
10
83.139619
20
7.009033
30
0
11
1.46431667789534E-15
21
1.25
31
0
210
0
220
0
230
1
40
0.996195
41
1.57079634872777
42
1.80887004062054
0
ELLIPSE
5
104
100
AcDbEntity
8
1
62
256
6
ByLayer
370
-1
48
1
60
0
100
AcDbEllipse
10
80.394762
20
9.29648
30
0
11
6.09155738004463E-15
21
5.2
31
0
210
0
220
0
230
1
40
0.996195
41
2.72271363311116
42
2.8201777055268
0
ELLIPSE
5
105
100
AcDbEntity
8
1
62
256
6
ByLayer
370
-1
48
1
60
0
100
AcDbEllipse
10
78.218056
20
4.546044
30
0
11
-0.326425640836806
21
-0.730374082922088
31
0
210
0
220
0
230
1
40
0.079621
41
0.0355698365710786
42
1.60636616336575
0
ELLIPSE
5
106
100
AcDbEntity
8
1
62
256
6
ByLayer
370
-1
48
1
60
0
100
AcDbEllipse
10
79.337885
20
0
30
0
11
-0.343210421609215
21
10.5999575331775
31
0
210
0
220
0
230
-1
40
0.087398
41
-0.0175579357324586
42
0.0118281993278637
0
ELLIPSE
5
107
100
AcDbEntity
8
1
62
256
6
ByLayer
370
-1
48
1
60
0
100
AcDbEllipse
10
74.909322
20
4.019948
30
0
11
-10.7531969262598
21
0.565681931119844
31
0
210
0
220
0
230
-1
40
0.00032
41
-3.13642649798139
42
-3.13551585798736
0
ELLIPSE
5
108
100
AcDbEntity
8
1
62
256
6
ByLayer
370
-1
48
1
60
0
100
AcDbEllipse
10
67.527168
20
8.258414
30
0
11
-12.8194375418511
21
7.3041296754047
31
0
210
0
220
0
230
-1
40
0.09337
41
-2.16509266390925
42
-1.66831162687224
0
ELLIPSE
5
109
100
AcDbEntity
8
1
62
256
6
ByLayer
370
-1
48
1
60
0
100
AcDbEllipse
10
77.059877
20
-1E-06
30
0
11
-43.1348636626903
21
0.688522942831998
31
0
210
0
220
0
230
-1
40
0.245222
41
-1.60584766947533
42
-1.58015800534095
0
ELLIPSE
5
10A
100
AcDbEntity
8
1
62
256
6
ByLayer
370
-1
48
1
60
0
100
AcDbEllipse
10
76.508485
20
3E-06
30
0
11
-121.158536317571
21
-1.37284699998584E-13
31
0
210
0
220
0
230
-1
40
0.087489
41
1.57523888301989
42
1.59118406319916
0
ELLIPSE
5
10B
100
AcDbEntity
8
1
62
256
6
ByLayer
370
-1
48
1
60
0
100
AcDbEllipse
10
76.547255
20
6.591555
30
0
11
-0.907366862038665
21
-4.81525548415389
31
0
210
0
220
0
230
1
40
0.316289
41
0.518378728430273
42
1.06643300920593
0
ELLIPSE
5
10C
100
AcDbEntity
8
1
62
256
6
ByLayer
370
-1
48
1
60
0
100
AcDbEllipse
10
83.110593
20
-2.515467
30
0
11
-1.25
21
1.26329881885295E-15
31
0
210
0
220
0
230
1
40
0.998135
41
-2.58160408898123
42
-0.560087611647872
0
ELLIPSE
5
10D
100
AcDbEntity
8
1
62
256
6
ByLayer
370
-1
48
1
60
0
100
AcDbEllipse
10
87.225259
20
0
30
0
11
-24.1204097237665
21
10.2721716565947
31
0
210
0
220
0
230
-1
40
0.108448
41
-1.18425650398132
42
-0.64291682620728
0
ELLIPSE
5
10E
100
AcDbEntity
8
1
62
256
6
ByLayer
370
-1
48
1
60
0
100
AcDbEllipse
10
85.931
20
0.014368
30
0
11
-0.0367908244084297
21
0.601613404041984
31
0
210
0
220
0
230
-1
40
0.118734
41
-1.49832253880012
42
-1.45751968031221
0
ELLIPSE
5
10F
100
AcDbEntity
8
1
62
256
6
ByLayer
370
-1
48
1
60
0
100
AcDbEllipse
10
85.82171
20
-6.029568
30
0
11
-0.0780818607266571
21
1.26896433879322
31
0
210
0
220
0
230
-1
40
0.116833
41
-0.777014085527786
42
0.898697512565688
0
ELLIPSE
5
110
100
AcDbEntity
8
1
62
256
6
ByLayer
370
-1
48
1
60
0
100
AcDbEllipse
10
16.146148
20
0
30
0
11
-188.51714386554
21
-10.2508423490384
31
0
210
0
220
0
230
-1
40
0.014313
41
-1.94312819811489
42
-1.91472400946902
0
ELLIPSE
5
111
100
AcDbEntity
8
1
62
256
6
ByLayer
370
-1
48
1
60
0
100
AcDbEllipse
10
85.703872
20
-6.014951
30
0
11
-0.100311958106982
21
-1.24711813076538
31
0
210
0
220
0
230
-1
40
0.126165
41
-2.25929237454025
42
2.34818133454694
0
ELLIPSE
5
112
100
AcDbEntity
8
1
62
256
6
ByLayer
370
-1
48
1
60
0
100
AcDbEllipse
10
80.539892
20
6.141698
30
0
11
-1.76858446507625E-15
21
-1.65
31
0
210
0
220
0
230
1
40
0.996195
41
-2.2954931910143
42
-1.53879862384166
0
ELLIPSE
5
113
100
AcDbEntity
8
1
62
256
6
ByLayer
370
-1
48
1
60
0
100
AcDbEllipse
10
80.357906
20
4.742415
30
0
11
1.93289801482185E-15
21
1.65
31
0
210
0
220
0
230
1
40
0.996195
41
1.60279402974813
42
1.80296078808598
0
ELLIPSE
5
114
100
AcDbEntity
8
1
62
256
6
ByLayer
370
-1
48
1
60
0
100
AcDbEllipse
10
86.20358
20
0
30
0
11
-0.643189875921069
21
10.5997232334065
31
0
210
0
220
0
230
-1
40
0.119092
41
-2.05568537669035
42
-1.5163517938375
0
ELLIPSE
5
115
100
AcDbEntity
8
1
62
256
6
ByLayer
370
-1
48
1
60
0
100
AcDbEllipse
10
79.494423
20
6.108106
30
0
11
-0.599695201525335
21
-0.0191223760942034
31
0
210
0
220
0
230
1
40
0.002788
41
0.0872220186676158
42
1.32520647544542
0
ELLIPSE
5
116
100
AcDbEntity
8
1
62
256
6
ByLayer
370
-1
48
1
60
0
100
AcDbEllipse
10
83.110593
20
-2.204119
30
0
11
1.35
21
0
31
0
210
0
220
0
230
1
40
0.998135
41
0.0630280791550876
42
3.14159243501374
0
ELLIPSE
5
117
100
AcDbEntity
8
1
62
256
6
ByLayer
370
-1
48
1
60
0
100
AcDbEllipse
10
83.139619
20
7.009033
30
0
11
1.75718001347441E-15
21
1.5
31
0
210
0
220
0
230
1
40
0.996195
41
0.0349499032697529
42
0.710883060211173
0
ELLIPSE
5
118
100
AcDbEntity
8
1
62
256
6
ByLayer
370
-1
48
1
60
0
100
AcDbEllipse
10
80.325038
20
9.29648
30
0
11
-6.43121623664089E-15
21
-6
31
0
210
0
220
0
230
1
40
0.996195
41
-0.418879020478633
42
-0.16037719861653
0
ELLIPSE
5
119
100
AcDbEntity
8
1
62
256
6
ByLayer
370
-1
48
1
60
0
100
AcDbEllipse
10
83.069894
20
7.009033
30
0
11
1.75718001347441E-15
21
1.5
31
0
210
0
220
0
230
1
40
0.996195
41
-1.54046055081385
42
0
0
ELLIPSE
5
11A
100
AcDbEntity
8
1
62
256
6
ByLayer
370
-1
48
1
60
0
100
AcDbEllipse
10
83.069894
20
7.009033
30
0
11
1.75718001347441E-15
21
1.5
31
0
210
0
220
0
230
1
40
0.996195
41
0
42
0.510607148495788
0
ELLIPSE
5
11B
100
AcDbEntity
8
1
62
256
6
ByLayer
370
-1
48
1
60
0
100
AcDbEllipse
10
85.849799
20
4.045219
30
0
11
-0.0439569216247479
21
0.60307711193967
31
0
210
0
220
0
230
-1
40
0.116841
41
2.32559372564197
42
-3.13145300652618
0
ELLIPSE
5
11C
100
AcDbEntity
8
1
62
256
6
ByLayer
370
-1
48
1
60
0
100
AcDbEllipse
10
80.584511
20
4.742415
30
0
11
-1.76858446507625E-15
21
-1.65
31
0
210
0
220
0
230
1
40
0.996195
41
-1.53879862384166
42
-0.123410159232465
0
ELLIPSE
5
11D
100
AcDbEntity
8
1
62
256
6
ByLayer
370
-1
48
1
60
0
100
AcDbEllipse
10
83.110593
20
-2.204119
30
0
11
-1.11602540378444
21
1.12789885952862E-15
31
0
210
0
220
0
230
1
40
0.998135
41
0
42
6.28318530717959
0
ELLIPSE
5
11E
100
AcDbEntity
8
1
62
256
6
ByLayer
370
-1
48
1
60
0
100
AcDbEllipse
10
88.681038
20
-2.40742
30
0
11
2.00000000000005
21
0
31
0
210
0
220
0
230
1
40
0.998135
41
-3.0892327757073
42
-2.67604929468264
0
ELLIPSE
5
11F
100
AcDbEntity
8
1
62
256
6
ByLayer
370
-1
48
1
60
0
100
AcDbEllipse
10
86.444161
20
-5.365093
30
0
11
0.499999999999967
21
0
31
0
210
0
220
0
230
1
40
0.998135
41
-1.22173047639589
42
-0.034906585039941
0
ELLIPSE
5
120
100
AcDbEntity
8
1
62
256
6
ByLayer
370
-1
48
1
60
0
100
AcDbEllipse
10
88.681038
20
-2.242589
30
0
11
2.55607522661845
21
0
31
0
210
0
220
0
230
1
40
0.998135
41
-3.0892327757775
42
-2.6888382774219
0
ELLIPSE
5
121
100
AcDbEntity
8
1
62
256
6
ByLayer
370
-1
48
1
60
0
100
AcDbEllipse
10
86.094113
20
-0.817231
30
0
11
0.49999999999995
21
0
31
0
210
0
220
0
230
1
40
0.998135
41
0.0523598775597036
42
0.349065850398738
0
ELLIPSE
5
122
100
AcDbEntity
8
1
62
256
6
ByLayer
370
-1
48
1
60
0
100
AcDbEllipse
10
85.842951
20
-3.62062
30
0
11
-0.599999999999998
21
6.06383433049416E-16
31
0
210
0
220
0
230
1
40
0.998135
41
3.10668606854991
42
-2.6888382774219
0
ELLIPSE
5
123
100
AcDbEntity
8
1
62
256
6
ByLayer
370
-1
48
1
60
0
100
AcDbEllipse
10
86.028603
20
-2.369128
30
0
11
-0.199724883720219
21
-0.0104866974279326
31
0
210
0
220
0
230
1
40
0.060965
41
1.34771660471096
42
1.56759533351589
0
ELLIPSE
5
124
100
AcDbEntity
8
1
62
256
6
ByLayer
370
-1
48
1
60
0
100
AcDbEllipse
10
85.819925
20
-4.278769
30
0
11
-0.600000000000032
21
6.0638343304945E-16
31
0
210
0
220
0
230
1
40
0.998135
41
2.38534574936599
42
3.10668606854991
0
ELLIPSE
5
125
100
AcDbEntity
8
1
62
256
6
ByLayer
370
-1
48
1
60
0
100
AcDbEllipse
10
86.183633
20
-4.609017
30
0
11
-0.145355336275983
21
0.137374765572487
31
0
210
0
220
0
230
1
40
0.044408
41
0.98510727762439
42
1.6127412692516
0
ELLIPSE
5
126
100
AcDbEntity
8
1
62
256
6
ByLayer
370
-1
48
1
60
0
100
AcDbEllipse
10
86.31962
20
-4.283976
30
0
11
-0.199877710054841
21
0.00699292665720022
31
0
210
0
220
0
230
1
40
0.061011
41
0.525733317016835
42
1.57293086821329
0
ELLIPSE
5
127
100
AcDbEntity
8
1
62
256
6
ByLayer
370
-1
48
1
60
0
100
AcDbEllipse
10
85.819925
20
-4.272664
30
0
11
0.326794919243145
21
0
31
0
210
0
220
0
230
1
40
0.998135
41
-0.578165928880406
42
-0.0349065850398962
0
ELLIPSE
5
128
100
AcDbEntity
8
1
62
256
6
ByLayer
370
-1
48
1
60
0
100
AcDbEllipse
10
85.448819
20
-0.87489
30
0
11
-0.500000000000031
21
5.05319527541213E-16
31
0
210
0
220
0
230
1
40
0.998135
41
-3.08923277602996
42
-2.66850494205334
0
ELLIPSE
5
129
100
AcDbEntity
8
1
62
256
6
ByLayer
370
-1
48
1
60
0
100
AcDbEllipse
10
83.30186
20
-2.780297
30
0
11
1.4
21
0
31
0
210
0
220
0
230
1
40
0.998135
41
1.20804052964577
42
2.77127760037697
0
ELLIPSE
5
12A
100
AcDbEntity
8
1
62
256
6
ByLayer
370
-1
48
1
60
0
100
AcDbEllipse
10
85.819925
20
-4.278769
30
0
11
-0.500000000000032
21
5.05319527541214E-16
31
0
210
0
220
0
230
1
40
0.998135
41
2.38534574936601
42
3.10668606854992
0
ELLIPSE
5
12B
100
AcDbEntity
8
1
62
256
6
ByLayer
370
-1
48
1
60
0
100
AcDbEllipse
10
85.448819
20
-0.87489
30
0
11
-0.600000000000031
21
6.06383433049449E-16
31
0
210
0
220
0
230
1
40
0.998135
41
-3.08923277602996
42
-2.38276718465505
0
ELLIPSE
5
12C
100
AcDbEntity
8
1
62
256
6
ByLayer
370
-1
48
1
60
0
100
AcDbEllipse
10
83.30186
20
-2.804956
30
0
11
1.4
21
0
31
0
210
0
220
0
230
1
40
0.998135
41
1.14481596360342
42
2.76823410218923
0
ELLIPSE
5
12D
100
AcDbEntity
8
1
62
256
6
ByLayer
370
-1
48
1
60
0
100
AcDbEllipse
10
88.681038
20
-2.242589
30
0
11
2.65607522661845
21
0
31
0
210
0
220
0
230
1
40
0.998135
41
-3.089232775787
42
-2.6888382774219
0
ELLIPSE
5
12E
100
AcDbEntity
8
1
62
256
6
ByLayer
370
-1
48
1
60
0
100
AcDbEllipse
10
86.292574
20
-3.390096
30
0
11
-0.179784788659424
21
-0.0876209436532512
31
0
210
0
220
0
230
1
40
0.054898
41
0.496849932696674
42
1.54404748389334
0
ELLIPSE
5
12F
100
AcDbEntity
8
1
62
256
6
ByLayer
370
-1
48
1
60
0
100
AcDbEllipse
10
86.342646
20
-3.625827
30
0
11
-0.199877710054841
21
0.00699292665720022
31
0
210
0
220
0
230
1
40
0.061011
41
0.525733317016768
42
1.57293086821329
0
ELLIPSE
5
130
100
AcDbEntity
8
1
62
256
6
ByLayer
370
-1
48
1
60
0
100
AcDbEllipse
10
85.842951
20
-3.62062
30
0
11
-0.499999999999999
21
5.0531952754118E-16
31
0
210
0
220
0
230
1
40
0.998135
41
3.10668606854992
42
-2.68883827742191
0
ELLIPSE
5
131
100
AcDbEntity
8
1
62
256
6
ByLayer
370
-1
48
1
60
0
100
AcDbEllipse
10
88.681038
20
-2.236484
30
0
11
-2.82928030737534
21
2.85938117640895E-15
31
0
210
0
220
0
230
1
40
0.998135
41
0.355821229759151
42
0.452754376167888
0
ELLIPSE
5
132
100
AcDbEntity
8
1
62
256
6
ByLayer
370
-1
48
1
60
0
100
AcDbEllipse
10
85.948134
20
-0.836561
30
0
11
-0.199724883720219
21
-0.0104866974279326
31
0
210
0
220
0
230
1
40
0.060965
41
1.34771660471096
42
1.56759533351589
0
ELLIPSE
5
133
100
AcDbEntity
8
1
62
256
6
ByLayer
370
-1
48
1
60
0
100
AcDbEllipse
10
85.842951
20
-3.614515
30
0
11
0.326794919243111
21
0
31
0
210
0
220
0
230
1
40
0.998135
41
-0.0349065850398939
42
0.452754376167898
0
ELLIPSE
5
134
100
AcDbEntity
8
1
62
256
6
ByLayer
370
-1
48
1
60
0
100
AcDbEllipse
10
83.30186
20
-2.780297
30
0
11
1.5
21
0
31
0
210
0
220
0
230
1
40
0.998135
41
1.56824355508757
42
2.60850353614161
0
ELLIPSE
5
135
100
AcDbEntity
8
1
62
256
6
ByLayer
370
-1
48
1
60
0
100
AcDbEllipse
10
85.726348
20
0.191312
30
0
11
0.499999999999967
21
0
31
0
210
0
220
0
230
1
40
0.998135
41
0.34906585039895
42
1.13657821053286
0
ELLIPSE
5
136
100
AcDbEntity
8
1
62
256
6
ByLayer
370
-1
48
1
60
0
100
AcDbEllipse
10
86.000305
20
-3.751633
30
0
11
0.999999999999949
21
0
31
0
210
0
220
0
230
1
40
0.998135
41
-0.0349065850400205
42
0.465543358906949
0
ELLIPSE
5
137
100
AcDbEntity
8
1
62
256
6
ByLayer
370
-1
48
1
60
0
100
AcDbEllipse
10
88.681038
20
-2.291427
30
0
11
-2.23329066571558
21
2.25705076812306E-15
31
0
210
0
220
0
230
1
40
0.998135
41
0.0523598778487879
42
0.452754376167892
0
ELLIPSE
5
138
100
AcDbEntity
8
1
62
256
6
ByLayer
370
-1
48
1
60
0
100
AcDbEllipse
10
76.827723
20
4.053294
30
0
11
1.16328437305553E-14
21
9.93026637113358
31
0
210
0
220
0
230
1
40
0.996195
41
-1.54499037067321
42
-1.53953256490644
0
ELLIPSE
5
139
100
AcDbEntity
8
1
62
256
6
ByLayer
370
-1
48
1
60
0
100
AcDbEllipse
10
86.11786
20
10.741431
30
0
11
2.69746310087586E-16
21
0.230266371133677
31
0
210
0
220
0
230
1
40
0.996195
41
-0.226892802759241
42
0
0
ELLIPSE
5
13A
100
AcDbEntity
8
1
62
256
6
ByLayer
370
-1
48
1
60
0
100
AcDbEllipse
10
89.37213
20
4.493028
30
0
11
1.16328437305553E-14
21
9.93026637113358
31
0
210
0
220
0
230
1
40
0.996195
41
1.60934574665594
42
1.61480354075299
0
ELLIPSE
5
13B
100
AcDbEntity
8
1
62
256
6
ByLayer
370
-1
48
1
60
0
100
AcDbEllipse
10
86.118392
20
1.041431
30
0
11
-1.07186937277344E-14
21
-9.99999999999964
31
0
210
0
220
0
230
1
40
0.996195
41
3.14159265358979
42
-3.12558669055491
0
ELLIPSE
5
13C
100
AcDbEntity
8
1
62
256
6
ByLayer
370
-1
48
1
60
0
100
AcDbEllipse
10
89.369743
20
4.541969
30
0
11
1.1632843730555E-14
21
9.9302663711333
31
0
210
0
220
0
230
1
40
0.996195
41
1.62460353383979
42
1.64060949687468
0
ELLIPSE
5
13D
100
AcDbEntity
8
1
62
256
6
ByLayer
370
-1
48
1
60
0
100
AcDbEllipse
10
89.167597
20
10.368079
30
0
11
-1.07186937277344E-14
21
-9.99999999999964
31
0
210
0
220
0
230
1
40
0.996195
41
-1.5707963267949
42
-1.55479036376002
0
ELLIPSE
5
13E
100
AcDbEntity
8
1
62
256
6
ByLayer
370
-1
48
1
60
0
100
AcDbEllipse
10
79.875908
20
3.728932
30
0
11
2.69746310087586E-16
21
0.230266371133677
31
0
210
0
220
0
230
1
40
0.996195
41
2.91469985083055
42
3.14159265358979
0
ELLIPSE
5
13F
100
AcDbEntity
8
1
62
256
6
ByLayer
370
-1
48
1
60
0
100
AcDbEllipse
10
80.046037
20
5.830742
30
0
11
5.77557701897395E-15
21
4.93026637113357
31
0
210
0
220
0
230
1
40
0.996195
41
0.0440072139581178
42
0.0538072070448944
0
ELLIPSE
5
140
100
AcDbEntity
8
1
62
256
6
ByLayer
370
-1
48
1
60
0
100
AcDbEllipse
10
86.490323
20
4.102283
30
0
11
-3.21560811832046E-16
21
-0.300000000000001
31
0
210
0
220
0
230
1
40
0.996195
41
1.34390352403567
42
1.5707963267949
0
ELLIPSE
5
141
100
AcDbEntity
8
1
62
256
6
ByLayer
370
-1
48
1
60
0
100
AcDbEllipse
10
86.489791
20
4.102283
30
0
11
2.69746310087586E-16
21
0.230266371133677
31
0
210
0
220
0
230
1
40
0.996195
41
-1.79768912955418
42
-1.5707963267949
0
ELLIPSE
5
142
100
AcDbEntity
8
1
62
256
6
ByLayer
370
-1
48
1
60
0
100
AcDbEllipse
10
79.698641
20
10.323089
30
0
11
-5.35934686386747E-16
21
-0.500000000000006
31
0
210
0
220
0
230
1
40
0.996195
41
-2.84488668075078
42
-1.79768912955414
0
ELLIPSE
5
143
100
AcDbEntity
8
1
62
256
6
ByLayer
370
-1
48
1
60
0
100
AcDbEllipse
10
84.18673
20
10.288053
30
0
11
5.77557701897395E-15
21
4.93026637113357
31
0
210
0
220
0
230
1
40
0.996195
41
1.58680228982978
42
1.59660228291656
0
ELLIPSE
5
144
100
AcDbEntity
8
1
62
256
6
ByLayer
370
-1
48
1
60
0
100
AcDbEllipse
10
86.118392
20
10.741431
30
0
11
-3.21560811832046E-16
21
-0.300000000000001
31
0
210
0
220
0
230
1
40
0.996195
41
2.91469985083062
42
-3.14159265358975
0
ELLIPSE
5
145
100
AcDbEntity
8
1
62
256
6
ByLayer
370
-1
48
1
60
0
100
AcDbEllipse
10
79.876439
20
3.728932
30
0
11
-3.21560811832046E-16
21
-0.300000000000001
31
0
210
0
220
0
230
1
40
0.996195
41
-0.226892802759223
42
0
0
ELLIPSE
5
146
100
AcDbEntity
8
1
62
256
6
ByLayer
370
-1
48
1
60
0
100
AcDbEllipse
10
79.875908
20
13.428932
30
0
11
1.1632843730555E-14
21
9.9302663711333
31
0
210
0
220
0
230
1
40
0.996195
41
3.14159265358979
42
-3.12558669055491
0
ELLIPSE
5
147
100
AcDbEntity
8
1
62
256
6
ByLayer
370
-1
48
1
60
0
100
AcDbEllipse
10
84.187261
20
10.288053
30
0
11
-5.35934686386771E-15
21
-5.00000000000028
31
0
210
0
220
0
230
1
40
0.996195
41
-1.55479036376001
42
-1.54499037067324
0
ELLIPSE
5
148
100
AcDbEntity
8
1
62
256
6
ByLayer
370
-1
48
1
60
0
100
AcDbEllipse
10
86.167194
20
1.042455
30
0
11
-1.07186937277348E-14
21
-9.99999999999999
31
0
210
0
220
0
230
1
40
0.996195
41
-3.11578669746811
42
-3.1066860685499
0
ELLIPSE
5
149
100
AcDbEntity
8
1
62
256
6
ByLayer
370
-1
48
1
60
0
100
AcDbEllipse
10
81.80757
20
4.18231
30
0
11
-5.35934686386771E-15
21
-5.00000000000028
31
0
210
0
220
0
230
1
40
0.996195
41
1.58680228982978
42
1.59660228291656
0
ELLIPSE
5
14A
100
AcDbEntity
8
1
62
256
6
ByLayer
370
-1
48
1
60
0
100
AcDbEllipse
10
76.62217
20
9.977334
30
0
11
-1.07186937277348E-14
21
-9.99999999999999
31
0
210
0
220
0
230
1
40
0.996195
41
1.60570291183479
42
1.61480354075299
0
ELLIPSE
5
14B
100
AcDbEntity
8
1
62
256
6
ByLayer
370
-1
48
1
60
0
100
AcDbEllipse
10
83.188816
20
7.235181
30
0
11
-1.50061712188287E-15
21
-1.4
31
0
210
0
220
0
230
1
40
0.996195
41
-3.12352863120908
42
0
0
ELLIPSE
5
14C
100
AcDbEntity
8
1
62
256
6
ByLayer
370
-1
48
1
60
0
100
AcDbEllipse
10
83.188816
20
7.235181
30
0
11
-1.50061712188287E-15
21
-1.4
31
0
210
0
220
0
230
1
40
0.996195
41
0
42
0.0349500842375337
0
ELLIPSE
5
14D
100
AcDbEntity
8
1
62
256
6
ByLayer
370
-1
48
1
60
0
100
AcDbEllipse
10
79.876439
20
13.428932
30
0
11
-1.07186937277344E-14
21
-9.99999999999964
31
0
210
0
220
0
230
1
40
0.996195
41
0
42
0.0160059630348837
0
ELLIPSE
5
14E
100
AcDbEntity
8
1
62
256
6
ByLayer
370
-1
48
1
60
0
100
AcDbEllipse
10
79.640389
20
10.51435
30
0
11
-3.21560811832046E-16
21
-0.300000000000001
31
0
210
0
220
0
230
1
40
0.996195
41
-3.07177948351009
42
-2.84488668075079
0
ELLIPSE
5
14F
100
AcDbEntity
8
1
62
256
6
ByLayer
370
-1
48
1
60
0
100
AcDbEllipse
10
86.295659
20
4.147274
30
0
11
5.04036978550836E-16
21
0.430266371133673
31
0
210
0
220
0
230
1
40
0.996195
41
-2.8448866807508
42
-1.79768912955418
0
ELLIPSE
5
150
100
AcDbEntity
8
1
62
256
6
ByLayer
370
-1
48
1
60
0
100
AcDbEllipse
10
80.314452
20
0.837978
30
0
11
-1.07186937277344E-14
21
-9.99999999999964
31
0
210
0
220
0
230
1
40
0.996195
41
-3.0877854465449
42
-3.07177948351001
0
ELLIPSE
5
151
100
AcDbEntity
8
1
62
256
6
ByLayer
370
-1
48
1
60
0
100
AcDbEllipse
10
76.827234
20
4.102283
30
0
11
-1.07186937277344E-14
21
-9.99999999999964
31
0
210
0
220
0
230
1
40
0.996195
41
1.57079632679489
42
1.58680228982978
0
ELLIPSE
5
152
100
AcDbEntity
8
1
62
256
6
ByLayer
370
-1
48
1
60
0
100
AcDbEllipse
10
89.166045
20
10.417068
30
0
11
1.16328437305553E-14
21
9.93026637113358
31
0
210
0
220
0
230
1
40
0.996195
41
1.59660228291658
42
1.60206008868336
0
ELLIPSE
5
153
100
AcDbEntity
8
1
62
256
6
ByLayer
370
-1
48
1
60
0
100
AcDbEllipse
10
85.680379
20
13.632384
30
0
11
-1.07186937277344E-14
21
-9.99999999999964
31
0
210
0
220
0
230
1
40
0.996195
41
0.0538072070448948
42
0.069813170079785
0
ELLIPSE
5
154
100
AcDbEntity
8
1
62
256
6
ByLayer
370
-1
48
1
60
0
100
AcDbEllipse
10
84.39651
20
4.273063
30
0
11
-5.35934686386771E-15
21
-5.00000000000028
31
0
210
0
220
0
230
1
40
0.996195
41
-1.52678911283678
42
-1.51698911975
0
ELLIPSE
5
155
100
AcDbEntity
8
1
62
256
6
ByLayer
370
-1
48
1
60
0
100
AcDbEllipse
10
83.049221
20
7.235181
30
0
11
-2.01991837106078E-15
21
-1.88448184300126
31
0
210
0
220
0
230
1
40
0.996195
41
2.21551025834039
42
-9.46223865285074E-16
0
ELLIPSE
5
156
100
AcDbEntity
8
1
62
256
6
ByLayer
370
-1
48
1
60
0
100
AcDbEllipse
10
83.049221
20
7.235181
30
0
11
-2.01991837106078E-15
21
-1.88448184300126
31
0
210
0
220
0
230
1
40
0.996195
41
0
42
0.92608264308836
0
ELLIPSE
5
157
100
AcDbEntity
8
1
62
256
6
ByLayer
370
-1
48
1
60
0
100
AcDbEllipse
10
89.372661
20
4.493028
30
0
11
-1.07186937277348E-14
21
-9.99999999999999
31
0
210
0
220
0
230
1
40
0.996195
41
-1.53588974175501
42
-1.5267891128368
0
ELLIPSE
5
158
100
AcDbEntity
8
1
62
256
6
ByLayer
370
-1
48
1
60
0
100
AcDbEllipse
10
76.624024
20
9.928393
30
0
11
1.1632843730555E-14
21
9.9302663711333
31
0
210
0
220
0
230
1
40
0.996195
41
-1.51698911975
42
-1.50098315671511
0
ELLIPSE
5
159
100
AcDbEntity
8
1
62
256
6
ByLayer
370
-1
48
1
60
0
100
AcDbEllipse
10
79.920727
20
3.923806
30
0
11
5.04036978550836E-16
21
0.430266371133673
31
0
210
0
220
0
230
1
40
0.996195
41
1.86750229963393
42
2.9146998508305
0
ELLIPSE
5
15A
100
AcDbEntity
8
1
62
256
6
ByLayer
370
-1
48
1
60
0
100
AcDbEllipse
10
79.827105
20
13.427907
30
0
11
1.16328437305553E-14
21
9.93026637113358
31
0
210
0
220
0
230
1
40
0.996195
41
-3.11578669746811
42
-3.11032889170133
0
ELLIPSE
5
15B
100
AcDbEntity
8
1
62
256
6
ByLayer
370
-1
48
1
60
0
100
AcDbEllipse
10
81.807038
20
4.18231
30
0
11
5.77557701897395E-15
21
4.93026637113357
31
0
210
0
220
0
230
1
40
0.996195
41
-1.55479036376002
42
-1.54499037067324
0
ELLIPSE
5
15C
100
AcDbEntity
8
1
62
256
6
ByLayer
370
-1
48
1
60
0
100
AcDbEllipse
10
86.073573
20
10.546557
30
0
11
-5.35934686386747E-16
21
-0.500000000000006
31
0
210
0
220
0
230
1
40
0.996195
41
1.8675022996339
42
2.91469985083053
0
ELLIPSE
5
15D
100
AcDbEntity
8
1
62
256
6
ByLayer
370
-1
48
1
60
0
100
AcDbEllipse
10
86.354442
20
3.956013
30
0
11
-3.21560811832046E-16
21
-0.300000000000001
31
0
210
0
220
0
230
1
40
0.996195
41
0.0698131700798042
42
0.296705972839085
0
ELLIPSE
5
15E
100
AcDbEntity
8
1
62
256
6
ByLayer
370
-1
48
1
60
0
100
AcDbEllipse
10
82.979984
20
7.235181
30
0
11
2.27265689458196E-15
21
1.94003193510747
31
0
210
0
220
0
230
1
40
0.996195
41
0
42
6.28318530717959
0
ELLIPSE
5
15F
100
AcDbEntity
8
1
62
256
6
ByLayer
370
-1
48
1
60
0
100
AcDbEllipse
10
85.948262
20
8.63962
30
0
11
-5.35934686386771E-15
21
-5.00000000000028
31
0
210
0
220
0
230
1
40
0.996195
41
0.0440072139581186
42
0.0538072070448985
0
ELLIPSE
5
160
100
AcDbEntity
8
1
62
256
6
ByLayer
370
-1
48
1
60
0
100
AcDbEllipse
10
76.624556
20
9.928393
30
0
11
-1.07186937277344E-14
21
-9.99999999999964
31
0
210
0
220
0
230
1
40
0.996195
41
1.62460353383979
42
1.64060949687468
0
ELLIPSE
5
161
100
AcDbEntity
8
1
62
256
6
ByLayer
370
-1
48
1
60
0
100
AcDbEllipse
10
79.95563
20
8.429572
30
0
11
5.77557701897395E-15
21
4.93026637113357
31
0
210
0
220
0
230
1
40
0.996195
41
-3.12558669055491
42
-3.11578669746813
0
ELLIPSE
5
162
100
AcDbEntity
8
1
62
256
6
ByLayer
370
-1
48
1
60
0
100
AcDbEllipse
10
79.698109
20
10.323089
30
0
11
5.04036978550836E-16
21
0.430266371133673
31
0
210
0
220
0
230
1
40
0.996195
41
0.296705972838953
42
1.34390352403561
0
ELLIPSE
5
163
100
AcDbEntity
8
1
62
256
6
ByLayer
370
-1
48
1
60
0
100
AcDbEllipse
10
86.073041
20
10.546557
30
0
11
5.04036978550836E-16
21
0.430266371133673
31
0
210
0
220
0
230
1
40
0.996195
41
-1.27409035395586
42
-0.226892802759293
0
ELLIPSE
5
164
100
AcDbEntity
8
1
62
256
6
ByLayer
370
-1
48
1
60
0
100
AcDbEllipse
10
85.94773
20
8.63962
30
0
11
5.77557701897395E-15
21
4.93026637113357
31
0
210
0
220
0
230
1
40
0.996195
41
-3.09758543963168
42
-3.0877854465449
0
ELLIPSE
5
165
100
AcDbEntity
8
1
62
256
6
ByLayer
370
-1
48
1
60
0
100
AcDbEllipse
10
79.730193
20
3.865331
30
0
11
2.69746310087586E-16
21
0.230266371133677
31
0
210
0
220
0
230
1
40
0.996195
41
1.64060949687465
42
1.86750229963388
0
ELLIPSE
5
166
100
AcDbEntity
8
1
62
256
6
ByLayer
370
-1
48
1
60
0
100
AcDbEllipse
10
84.395979
20
4.273063
30
0
11
5.77557701897395E-15
21
4.93026637113357
31
0
210
0
220
0
230
1
40
0.996195
41
1.61480354075301
42
1.62460353383979
0
ELLIPSE
5
167
100
AcDbEntity
8
1
62
256
6
ByLayer
370
-1
48
1
60
0
100
AcDbEllipse
10
83.069954
20
7.235181
30
0
11
-1.93445608783117E-15
21
-1.80474984822612
31
0
210
0
220
0
230
1
40
0.996195
41
0
42
6.28318530717959
0
ELLIPSE
5
168
100
AcDbEntity
8
1
62
256
6
ByLayer
370
-1
48
1
60
0
100
AcDbEllipse
10
86.264106
20
10.605031
30
0
11
-3.21560811832046E-16
21
-0.300000000000001
31
0
210
0
220
0
230
1
40
0.996195
41
1.64060949687463
42
1.86750229963386
0
ELLIPSE
5
169
100
AcDbEntity
8
1
62
256
6
ByLayer
370
-1
48
1
60
0
100
AcDbEllipse
10
76.621638
20
9.977334
30
0
11
1.16328437305553E-14
21
9.93026637113358
31
0
210
0
220
0
230
1
40
0.996195
41
-1.53224690693385
42
-1.5267891128368
0
ELLIPSE
5
16A
100
AcDbEntity
8
1
62
256
6
ByLayer
370
-1
48
1
60
0
100
AcDbEllipse
10
80.046569
20
5.830742
30
0
11
-5.35934686386771E-15
21
-5.00000000000028
31
0
210
0
220
0
230
1
40
0.996195
41
-3.09758543963168
42
-3.0877854465449
0
ELLIPSE
5
16B
100
AcDbEntity
8
1
62
256
6
ByLayer
370
-1
48
1
60
0
100
AcDbEllipse
10
79.504508
20
10.368079
30
0
11
-3.21560811832046E-16
21
-0.300000000000001
31
0
210
0
220
0
230
1
40
0.996195
41
-1.79768912955407
42
-1.5707963267949
0
ELLIPSE
5
16C
100
AcDbEntity
8
1
62
256
6
ByLayer
370
-1
48
1
60
0
100
AcDbEllipse
10
81.598321
20
10.197299
30
0
11
-5.35934686386771E-15
21
-5.00000000000028
31
0
210
0
220
0
230
1
40
0.996195
41
1.61480354075302
42
1.62460353383979
0
ELLIPSE
5
16D
100
AcDbEntity
8
1
62
256
6
ByLayer
370
-1
48
1
60
0
100
AcDbEllipse
10
79.921258
20
3.923806
30
0
11
-5.35934686386747E-16
21
-0.500000000000006
31
0
210
0
220
0
230
1
40
0.996195
41
-1.27409035395589
42
-0.226892802759265
0
ELLIPSE
5
16E
100
AcDbEntity
8
1
62
256
6
ByLayer
370
-1
48
1
60
0
100
AcDbEllipse
10
79.827637
20
13.427907
30
0
11
-1.07186937277348E-14
21
-9.99999999999999
31
0
210
0
220
0
230
1
40
0.996195
41
0.0258059561216852
42
0.0349065850398896
0
ELLIPSE
5
16F
100
AcDbEntity
8
1
62
256
6
ByLayer
370
-1
48
1
60
0
100
AcDbEllipse
10
79.503977
20
10.368079
30
0
11
2.69746310087586E-16
21
0.230266371133677
31
0
210
0
220
0
230
1
40
0.996195
41
1.34390352403567
42
1.5707963267949
0
ELLIPSE
5
170
100
AcDbEntity
8
1
62
256
6
ByLayer
370
-1
48
1
60
0
100
AcDbEllipse
10
76.828255
20
4.053294
30
0
11
-1.07186937277348E-14
21
-9.99999999999999
31
0
210
0
220
0
230
1
40
0.996195
41
1.59660228291658
42
1.60570291183479
0
ELLIPSE
5
171
100
AcDbEntity
8
1
62
256
6
ByLayer
370
-1
48
1
60
0
100
AcDbEllipse
10
86.29619
20
4.147274
30
0
11
-5.35934686386747E-16
21
-0.500000000000006
31
0
210
0
220
0
230
1
40
0.996195
41
0.296705972839008
42
1.34390352403565
0
ELLIPSE
5
172
100
AcDbEntity
8
1
62
256
6
ByLayer
370
-1
48
1
60
0
100
AcDbEllipse
10
79.730725
20
3.865331
30
0
11
-3.21560811832046E-16
21
-0.300000000000001
31
0
210
0
220
0
230
1
40
0.996195
41
-1.50098315671517
42
-1.27409035395594
0
ELLIPSE
5
173
100
AcDbEntity
8
1
62
256
6
ByLayer
370
-1
48
1
60
0
100
AcDbEllipse
10
80.265165
20
0.835583
30
0
11
1.16328437305553E-14
21
9.93026637113358
31
0
210
0
220
0
230
1
40
0.996195
41
0.0385494198610459
42
0.0440072139580949
0
ELLIPSE
5
174
100
AcDbEntity
8
1
62
256
6
ByLayer
370
-1
48
1
60
0
100
AcDbEllipse
10
86.038138
20
6.04079
30
0
11
5.77557701897395E-15
21
4.93026637113357
31
0
210
0
220
0
230
1
40
0.996195
41
0.0160059630348803
42
0.0258059561216634
0
ELLIPSE
5
175
100
AcDbEntity
8
1
62
256
6
ByLayer
370
-1
48
1
60
0
100
AcDbEllipse
10
80.265697
20
0.835583
30
0
11
-1.07186937277348E-14
21
-9.99999999999999
31
0
210
0
220
0
230
1
40
0.996195
41
-3.10668606854991
42
-3.0975854396317
0
ELLIPSE
5
176
100
AcDbEntity
8
1
62
256
6
ByLayer
370
-1
48
1
60
0
100
AcDbEllipse
10
76.826702
20
4.102283
30
0
11
1.1632843730555E-14
21
9.9302663711333
31
0
210
0
220
0
230
1
40
0.996195
41
-1.5707963267949
42
-1.55479036376002
0
ELLIPSE
5
177
100
AcDbEntity
8
1
62
256
6
ByLayer
370
-1
48
1
60
0
100
AcDbEllipse
10
79.639857
20
10.51435
30
0
11
2.69746310087586E-16
21
0.230266371133677
31
0
210
0
220
0
230
1
40
0.996195
41
0.0698131700797728
42
0.296705972839014
0
ELLIPSE
5
178
100
AcDbEntity
8
1
62
256
6
ByLayer
370
-1
48
1
60
0
100
AcDbEllipse
10
85.679847
20
13.632384
30
0
11
1.1632843730555E-14
21
9.9302663711333
31
0
210
0
220
0
230
1
40
0.996195
41
-3.0877854465449
42
-3.07177948351001
0
ELLIPSE
5
179
100
AcDbEntity
8
1
62
256
6
ByLayer
370
-1
48
1
60
0
100
AcDbEllipse
10
80.31392
20
0.837978
30
0
11
1.1632843730555E-14
21
9.9302663711333
31
0
210
0
220
0
230
1
40
0.996195
41
0.0538072070448951
42
0.0698131700797843
0
ELLIPSE
5
17A
100
AcDbEntity
8
1
62
256
6
ByLayer
370
-1
48
1
60
0
100
AcDbEllipse
10
89.166577
20
10.417068
30
0
11
-1.07186937277348E-14
21
-9.99999999999999
31
0
210
0
220
0
230
1
40
0.996195
41
-1.54499037067321
42
-1.53588974175501
0
ELLIPSE
5
17B
100
AcDbEntity
8
1
62
256
6
ByLayer
370
-1
48
1
60
0
100
AcDbEllipse
10
85.728602
20
13.634779
30
0
11
1.16328437305553E-14
21
9.93026637113358
31
0
210
0
220
0
230
1
40
0.996195
41
-3.10304323372874
42
-3.0975854396317
0
ELLIPSE
5
17C
100
AcDbEntity
8
1
62
256
6
ByLayer
370
-1
48
1
60
0
100
AcDbEllipse
10
89.167065
20
10.368079
30
0
11
1.1632843730555E-14
21
9.9302663711333
31
0
210
0
220
0
230
1
40
0.996195
41
1.57079632679489
42
1.58680228982978
0
ELLIPSE
5
17D
100
AcDbEntity
8
1
62
256
6
ByLayer
370
-1
48
1
60
0
100
AcDbEllipse
10
86.166663
20
1.042455
30
0
11
1.16328437305553E-14
21
9.93026637113358
31
0
210
0
220
0
230
1
40
0.996195
41
0.0258059561216822
42
0.0312637618884577
0
ELLIPSE
5
17E
100
AcDbEntity
8
1
62
256
6
ByLayer
370
-1
48
1
60
0
100
AcDbEllipse
10
85.729134
20
13.634779
30
0
11
-1.07186937277348E-14
21
-9.99999999999999
31
0
210
0
220
0
230
1
40
0.996195
41
0.0349065850398881
42
0.0440072139580939
0
ELLIPSE
5
17F
100
AcDbEntity
8
1
62
256
6
ByLayer
370
-1
48
1
60
0
100
AcDbEllipse
10
81.597789
20
10.197299
30
0
11
5.77557701897395E-15
21
4.93026637113357
31
0
210
0
220
0
230
1
40
0.996195
41
-1.52678911283678
42
-1.51698911975
0
ELLIPSE
5
180
100
AcDbEntity
8
1
62
256
6
ByLayer
370
-1
48
1
60
0
100
AcDbEllipse
10
86.263574
20
10.605031
30
0
11
2.69746310087586E-16
21
0.230266371133677
31
0
210
0
220
0
230
1
40
0.996195
41
-1.50098315671514
42
-1.27409035395598
0
ELLIPSE
5
181
100
AcDbEntity
8
1
62
256
6
ByLayer
370
-1
48
1
60
0
100
AcDbEllipse
10
86.35391
20
3.956013
30
0
11
2.69746310087586E-16
21
0.230266371133677
31
0
210
0
220
0
230
1
40
0.996195
41
-3.07177948351008
42
-2.84488668075083
0
ELLIPSE
5
182
100
AcDbEntity
8
1
62
256
6
ByLayer
370
-1
48
1
60
0
100
AcDbEllipse
10
83.22402
20
7.235181
30
0
11
1.64003467924279E-15
21
1.4
31
0
210
0
220
0
230
1
40
0.996195
41
0
42
1.57079653853157
0
ELLIPSE
5
183
100
AcDbEntity
8
1
62
256
6
ByLayer
370
-1
48
1
60
0
100
AcDbEllipse
10
83.22402
20
7.235181
30
0
11
1.64003467924279E-15
21
1.4
31
0
210
0
220
0
230
1
40
0.996195
41
1.57079640587062
42
-3.14159236166655
0
ELLIPSE
5
184
100
AcDbEntity
8
1
62
256
6
ByLayer
370
-1
48
1
60
0
100
AcDbEllipse
10
86.03867
20
6.04079
30
0
11
-5.35934686386771E-15
21
-5.00000000000028
31
0
210
0
220
0
230
1
40
0.996195
41
-3.12558669055491
42
-3.11578669746813
0
ELLIPSE
5
185
100
AcDbEntity
8
1
62
256
6
ByLayer
370
-1
48
1
60
0
100
AcDbEllipse
10
89.370275
20
4.541969
30
0
11
-1.07186937277344E-14
21
-9.99999999999964
31
0
210
0
220
0
230
1
40
0.996195
41
-1.51698911975
42
-1.50098315671511
0
ELLIPSE
5
186
100
AcDbEntity
8
1
62
256
6
ByLayer
370
-1
48
1
60
0
100
AcDbEllipse
10
86.11786
20
1.041431
30
0
11
1.1632843730555E-14
21
9.9302663711333
31
0
210
0
220
0
230
1
40
0.996195
41
0
42
0.0160059630348815
0
ELLIPSE
5
187
100
AcDbEntity
8
1
62
256
6
ByLayer
370
-1
48
1
60
0
100
AcDbEllipse
10
79.956161
20
8.429572
30
0
11
-5.35934686386771E-15
21
-5.00000000000028
31
0
210
0
220
0
230
1
40
0.996195
41
0.0160059630348838
42
0.0258059561216593
0
POINT
5
41
100
AcDbEntity
8
81
62
256
6
ByLayer
370
-1
48
1
60
0
100
AcDbPoint
10
87
20
0
30
0
39
0
210
0
220
0
230
1
50
360
0
POINT
5
43
100
AcDbEntity
8
80
62
256
6
ByLayer
370
-1
48
1
60
0
100
AcDbPoint
10
0
20
0
30
0
39
0
210
0
220
0
230
1
50
360
0
SPLINE
5
188
100
AcDbEntity
8
1
62
256
6
ByLayer
370
-1
48
1
60
0
100
AcDbSpline
70
4
71
3
72
17
73
13
40
0
40
0
40
0
40
0
40
0.0924276529000795
40
0.186771634824183
40
0.281694352991773
40
0.375808640449276
40
0.46828511527143
40
0.560846869658062
40
0.669008972143633
40
0.77791033217744
40
0.888279960794985
40
1
40
1
40
1
40
1
41
1
10
18
20
10.6
30
0
41
1
10
17.5493337164091
20
10.6005269613864
30
0
41
1
10
16.6534341617002
20
10.6756391550748
30
0
41
1
10
15.327564788105
20
11.0168709355336
30
0
41
1
10
14.0793917156908
20
11.5856264194222
30
0
41
1
10
12.936741541382
20
12.340040135205
30
0
41
1
10
12.0060653700927
20
13.3183712982595
30
0
41
1
10
10.9625470141149
20
14.279690246815
30
0
41
1
10
9.66471728206758
20
15.0437496956868
30
0
41
1
10
8.182558518587
20
15.6067435155093
30
0
41
1
10
6.61025320331925
20
15.9300242079151
30
0
41
1
10
5.5431023837123
20
16.0021969490514
30
0
41
1
10
5.00000000000003
20
16
30
0
0
SPLINE
5
189
100
AcDbEntity
8
1
62
256
6
ByLayer
370
-1
48
1
60
0
100
AcDbSpline
70
4
71
3
72
10
73
6
40
0
40
0
40
0
40
0
40
0.156620253061884
40
0.649955738289597
40
1
40
1
40
1
40
1
41
1
10
83.2283462797965
20
-1.41415127975864
30
0
41
1
10
83.2653495343951
20
-1.41222568073346
30
0
41
1
10
83.4182123522697
20
-1.41021361316189
30
0
41
1
10
83.6541231402238
20
-1.44594323991637
30
0
41
1
10
83.8407694449024
20
-1.51691609839989
30
0
41
1
10
83.914959147348
20
-1.55286931784451
30
0
0
SPLINE
5
18A
100
AcDbEntity
8
1
62
256
6
ByLayer
370
-1
48
1
60
0
100
AcDbSpline
70
4
71
3
72
12
73
8
40
0
40
0
40
0
40
0
40
0.179227330574275
40
0.399540178228583
40
0.619125937377123
40
0.838006887567234
40
1
40
1
40
1
40
1
41
1
10
81.9998708533496
20
-2.29500481337527
30
0
41
1
10
82.035434788868
20
-2.20683058775819
30
0
41
1
10
82.1310180713249
20
-2.01823350330085
30
0
41
1
10
82.347484677885
20
-1.76619548068572
30
0
41
1
10
82.6364286911012
20
-1.5627919089018
30
0
41
1
10
82.9401942169753
20
-1.44796747704223
30
0
41
1
10
83.1406991218394
20
-1.41891257719766
30
0
41
1
10
83.2283462797965
20
-1.41415127975864
30
0
0
SPLINE
5
18B
100
AcDbEntity
8
1
62
256
6
ByLayer
370
-1
48
1
60
0
100
AcDbSpline
70
4
71
3
72
16
73
12
40
0
40
0
40
0
40
0
40
0.113767613736516
40
0.226127665923895
40
0.336977324159933
40
0.447134601716506
40
0.558285870026605
40
0.667766855631262
40
0.779365343025083
40
0.890849248218789
40
1
40
1
40
1
40
1
41
1
10
4.99999999999997
20
-16
30
0
41
1
10
5.55307422430363
20
-16.0023251031442
30
0
41
1
10
6.63898431800044
20
-15.9273133226572
30
0
41
1
10
8.23907629611139
20
-15.5926789943746
30
0
41
1
10
9.74095279159803
20
-15.0057066917689
30
0
41
1
10
11.1334673190404
20
-14.1787997824452
30
0
41
1
10
12.2373180314114
20
-13.0176372374216
30
0
41
1
10
13.4418029288693
20
-11.9507595711946
30
0
41
1
10
14.8652208509778
20
-11.18235405394
30
0
41
1
10
16.4093839016636
20
-10.704839835454
30
0
41
1
10
17.4657728371849
20
-10.6010241167619
30
0
41
1
10
18
20
-10.6
30
0
0
SPLINE
5
18C
100
AcDbEntity
8
1
62
256
6
ByLayer
370
-1
48
1
60
0
100
AcDbSpline
70
4
71
3
72
20
73
16
40
0
40
0
40
0
40
0
40
0.0553893404809089
40
0.136567403713274
40
0.217471982885445
40
0.297898519492235
40
0.377777370957183
40
0.457177337562034
40
0.53627321772531
40
0.615298749254409
40
0.694429112718046
40
0.773874250405754
40
0.853793010588117
40
0.934241316975787
40
1
40
1
40
1
40
1
41
1
10
83.1636334561132
20
8.62542071992988
30
0
41
1
10
83.2437394793819
20
8.63122798496116
30
0
41
1
10
83.4377178609588
20
8.62661482960536
30
0
41
1
10
83.740009589277
20
8.53469835537632
30
0
41
1
10
84.0425993435384
20
8.35662774594638
30
0
41
1
10
84.2916361391354
20
8.10643458428589
30
0
41
1
10
84.4710742659377
20
7.80249370325936
30
0
41
1
10
84.5701006080398
20
7.46366557253529
30
0
41
1
10
84.5830516834644
20
7.11139834167065
30
0
41
1
10
84.5096483876972
20
6.7674867737577
30
0
41
1
10
84.3548745785189
20
6.4529608445107
30
0
41
1
10
84.1282851070146
20
6.18680064869832
30
0
41
1
10
83.8440391049388
20
5.98512812656162
30
0
41
1
10
83.5377520877751
20
5.86796212631128
30
0
41
1
10
83.3319941073271
20
5.83953971309995
30
0
41
1
10
83.2368245586041
20
5.8360224287195
30
0
0
SPLINE
5
18D
100
AcDbEntity
8
1
62
256
6
ByLayer
370
-1
48
1
60
0
100
AcDbSpline
70
4
71
3
72
8
73
4
40
0
40
0
40
0
40
0
40
1
40
1
40
1
40
1
41
1
10
78.377108019026
20
3.60475378093815
30
0
41
1
10
78.6845291523674
20
3.50263813335099
30
0
41
1
10
78.9988341657534
20
3.4253695703531
30
0
41
1
10
79.3201723694738
20
3.37347728912616
30
0
0
SPLINE
5
18E
100
AcDbEntity
8
1
62
256
6
ByLayer
370
-1
48
1
60
0
100
AcDbSpline
70
4
71
3
72
83
73
79
40
-0.0312500000000097
40
-0.0312500000000097
40
0
40
0
40
0.0312499999999933
40
0.0312499999999933
40
0.0468749999999896
40
0.0468749999999896
40
0.0624999999999859
40
0.0624999999999859
40
0.093749999999977
40
0.093749999999977
40
0.124999999999968
40
0.124999999999968
40
0.156249999999959
40
0.156249999999959
40
0.171874999999955
40
0.171874999999955
40
0.18749999999995
40
0.18749999999995
40
0.218749999999945
40
0.218749999999945
40
0.249999999999941
40
0.249999999999941
40
0.281249999999936
40
0.281249999999936
40
0.312499999999932
40
0.312499999999932
40
0.328124999999932
40
0.328124999999932
40
0.343749999999932
40
0.343749999999932
40
0.374999999999931
40
0.374999999999931
40
0.406249999999931
40
0.406249999999931
40
0.437499999999931
40
0.437499999999931
40
0.468749999999931
40
0.468749999999931
40
0.484374999999931
40
0.484374999999931
40
0.499999999999931
40
0.499999999999931
40
0.531249999999931
40
0.531249999999931
40
0.562499999999931
40
0.562499999999931
40
0.59374999999993
40
0.59374999999993
40
0.62499999999993
40
0.62499999999993
40
0.65624999999993
40
0.65624999999993
40
0.68749999999993
40
0.68749999999993
40
0.71874999999993
40
0.71874999999993
40
0.74999999999993
40
0.74999999999993
40
0.765624999999932
40
0.765624999999932
40
0.781249999999934
40
0.796874999999937
40
0.796874999999937
40
0.812499999999939
40
0.812499999999939
40
0.843749999999948
40
0.843749999999948
40
0.859374999999955
40
0.859374999999955
40
0.874999999999961
40
0.874999999999961
40
0.906249999999971
40
0.906249999999971
40
0.937499999999981
40
0.937499999999981
40
0.96874999999999
40
0.96874999999999
40
1
40
1
40
1.03124999999999
40
1.03124999999999
41
1
10
81.7670270030268
20
-2.27494129236439
30
0
41
1
10
81.7578587893274
20
-2.09738549511607
30
0
41
1
10
81.7617659997941
20
-2.00934694900411
30
0
41
1
10
81.7801170567785
20
-1.87839096148545
30
0
41
1
10
81.7883301023345
20
-1.83492419665927
30
0
41
1
10
81.8090835477471
20
-1.74837977379269
30
0
41
1
10
81.821704937867
20
-1.70512035308263
30
0
41
1
10
81.8654328473021
20
-1.57862816769281
30
0
41
1
10
81.9024472104168
20
-1.49792771833401
30
0
41
1
10
81.9922546317687
20
-1.3438839446556
30
0
41
1
10
82.0457197861282
20
-1.26998672689805
30
0
41
1
10
82.1645558348525
20
-1.1361712701663
30
0
41
1
10
82.2301828382351
20
-1.07550265499455
30
0
41
1
10
82.3381561309069
20
-0.994135306213678
30
0
41
1
10
82.3758939179886
20
-0.968568867930941
30
0
41
1
10
82.4529313459859
20
-0.921858010331334
30
0
41
1
10
82.4924078256233
20
-0.900560621787434
30
0
41
1
10
82.6136593095831
20
-0.842741480590064
30
0
41
1
10
82.698714667035
20
-0.812113080853266
30
0
41
1
10
82.8745986554349
20
-0.7683578318142
30
0
41
1
10
82.9634088004675
20
-0.75562609142051
30
0
41
1
10
83.1427142908063
20
-0.747930150890369
30
0
41
1
10
83.2341812354683
20
-0.753225435984689
30
0
41
1
10
83.4117728721188
20
-0.781696028655034
30
0
41
1
10
83.4984001240861
20
-0.804648424904599
30
0
41
1
10
83.6250563042526
20
-0.852261024367749
30
0
41
1
10
83.6668961367771
20
-0.870452402480424
30
0
41
1
10
83.7476858745587
20
-0.9105421349783
30
0
41
1
10
83.7868251408482
20
-0.932490779305482
30
0
41
1
10
83.900557424587
20
-1.00391460962757
30
0
41
1
10
83.9718034787533
20
-1.05920478918708
30
0
41
1
10
84.102808998202
20
-1.18391731860328
30
0
41
1
10
84.1610403713556
20
-1.25176745898224
30
0
41
1
10
84.2635573299893
20
-1.39792261900513
30
0
41
1
10
84.3081494085284
20
-1.47715476527685
30
0
41
1
10
84.3799633941806
20
-1.64037777642369
30
0
41
1
10
84.4075877795499
20
-1.72459827248937
30
0
41
1
10
84.4367827426639
20
-1.85473428522803
30
0
41
1
10
84.4444752611666
20
-1.89897187170101
30
0
41
1
10
84.4554539765697
20
-1.98711545764968
30
0
41
1
10
84.4587875658066
20
-2.03113055840666
30
0
41
1
10
84.4625281928659
20
-2.16300584242836
30
0
41
1
10
84.4567327037589
20
-2.25069603314907
30
0
41
1
10
84.4282476554428
20
-2.42562278023499
30
0
41
1
10
84.4059543135293
20
-2.51035128177296
30
0
41
1
10
84.3461232767795
20
-2.67418099482856
30
0
41
1
10
84.308163096313
20
-2.75401678269495
30
0
41
1
10
84.2178801514088
20
-2.90481917800594
30
0
41
1
10
84.1661631950407
20
-2.97508872427616
30
0
41
1
10
84.0495509905942
20
-3.10552127236221
30
0
41
1
10
83.9837877433522
20
-3.16626262592709
30
0
41
1
10
83.8428262997023
20
-3.27278070923873
30
0
41
1
10
83.7676786785051
20
-3.3188536292048
30
0
41
1
10
83.6076637032402
20
-3.39623762201262
30
0
41
1
10
83.5220596235932
20
-3.42753390630611
30
0
41
1
10
83.3488460566849
20
-3.47148275846479
30
0
41
1
10
83.2603638410482
20
-3.4847049169525
30
0
41
1
10
83.1246876052018
20
-3.49081380195091
30
0
41
1
10
83.0790996810803
20
-3.49050428065223
30
0
41
1
10
82.9892264924983
20
-3.48528723055935
30
0
41
1
10
82.9000914320349
20
-3.47550906326856
30
0
41
1
10
82.8124048574115
20
-3.45676673335825
30
0
41
1
10
82.7254493344916
20
-3.43348711560682
30
0
41
1
10
82.6822349110873
20
-3.41951096126337
30
0
41
1
10
82.5566215411254
20
-3.37175705733964
30
0
41
1
10
82.4772274683649
20
-3.33200415595928
30
0
41
1
10
82.3643804206424
20
-3.26086753207397
30
0
41
1
10
82.3276595179318
20
-3.23508508882298
30
0
41
1
10
82.2576628926712
20
-3.18062035743597
30
0
41
1
10
82.2242548652284
20
-3.15187877512491
30
0
41
1
10
82.1286143973702
20
-3.06126641456541
30
0
41
1
10
82.0707081059903
20
-2.99474797179076
30
0
41
1
10
81.9680724866745
20
-2.85106018077693
30
0
41
1
10
81.9243596959012
20
-2.77544045876121
30
0
41
1
10
81.8514565890392
20
-2.61684876740594
30
0
41
1
10
81.8221170536311
20
-2.53309701860951
30
0
41
1
10
81.7799826153071
20
-2.36208877761652
30
0
41
1
10
81.7670270030268
20
-2.27494129236439
30
0
41
1
10
81.7578587893274
20
-2.09738549511607
30
0
0
SPLINE
5
18F
100
AcDbEntity
8
1
62
256
6
ByLayer
370
-1
48
1
60
0
100
AcDbSpline
70
4
71
3
72
14
73
10
40
0
40
0
40
0
40
0
40
0.25
40
0.25
40
0.5
40
0.5
40
0.75
40
0.75
40
1
40
1
40
1
40
1
41
1
10
79.0056559561609
20
10.5995708553633
30
0
41
1
10
79.0098399269846
20
10.5991419306572
30
0
41
1
10
79.019573376592
20
10.5984051324392
30
0
41
1
10
79.049732975956
20
10.5964262308522
30
0
41
1
10
79.0704584590132
20
10.5951696635975
30
0
41
1
10
79.1207514227431
20
10.5924390198381
30
0
41
1
10
79.1507555611844
20
10.5909404002684
30
0
41
1
10
79.2189975891421
20
10.5879763419659
30
0
41
1
10
79.2566099779343
20
10.5865361737881
30
0
41
1
10
79.2977613850839
20
10.5852487046503
30
0
0
SPLINE
5
190
100
AcDbEntity
8
1
62
256
6
ByLayer
370
-1
48
1
60
0
100
AcDbSpline
70
4
71
3
72
21
73
17
40
0
40
0
40
0
40
0
40
0.24999999999997
40
0.24999999999997
40
0.312499999999965
40
0.312499999999965
40
0.37499999999996
40
0.37499999999996
40
0.499999999999961
40
0.624999999999961
40
0.624999999999961
40
0.687499999999967
40
0.687499999999967
40
0.749999999999972
40
0.749999999999972
40
1
40
1
40
1
40
1
41
1
10
74.1400469030199
20
3.17691679108364
30
0
41
1
10
74.418699075366
20
3.04063160120899
30
0
41
1
10
74.698920757789
20
2.91435480802159
30
0
41
1
10
75.051111422265
20
2.76871114790967
30
0
41
1
10
75.1216464755917
20
2.74020045468777
30
0
41
1
10
75.262914257839
20
2.68443959902331
30
0
41
1
10
75.3338827692313
20
2.65710202341927
30
0
41
1
10
75.545125178545
20
2.57777045252624
30
0
41
1
10
75.8218809159407
20
2.47925958741041
30
0
41
1
10
76.0891164284943
20
2.39486073518137
30
0
41
1
10
76.2859277564269
20
2.33692063453239
30
0
41
1
10
76.3509274820295
20
2.31850266316974
30
0
41
1
10
76.4796918217622
20
2.28349754999985
30
0
41
1
10
76.5435473601157
20
2.26689328377239
30
0
41
1
10
76.8554101331684
20
2.18959513345311
30
0
41
1
10
77.0848507834658
20
2.14487251446468
30
0
41
1
10
77.2944201758986
20
2.11711357694813
30
0
0
SPLINE
5
191
100
AcDbEntity
8
1
62
256
6
ByLayer
370
-1
48
1
60
0
100
AcDbSpline
70
4
71
3
72
10
73
6
40
0
40
0
40
0
40
0
40
0.5
40
0.5
40
1
40
1
40
1
40
1
41
1
10
74.1879525343043
20
10.537886826912
30
0
41
1
10
74.4636090895224
20
10.5465475566475
30
0
41
1
10
74.7284214790291
20
10.5567868252058
30
0
41
1
10
75.2373842881873
20
10.5764365595359
30
0
41
1
10
75.4819432961259
20
10.585881477455
30
0
41
1
10
75.7149174090239
20
10.5922693559938
30
0
0
SPLINE
5
192
100
AcDbEntity
8
1
62
256
6
ByLayer
370
-1
48
1
60
0
100
AcDbSpline
70
4
71
3
72
18
73
14
40
0
40
0
40
0
40
0
40
0.177777861979496
40
0.177777861979496
40
0.355555723958992
40
0.355555723958992
40
0.533333585938488
40
0.533333585938488
40
0.711111447917984
40
0.711111447917984
40
0.88888930989748
40
0.88888930989748
40
1
40
1
40
1
40
1
41
1
10
19.5183629653069
20
2.71094498897798
30
0
41
1
10
19.1842332195748
20
2.47718420524251
30
0
41
1
10
18.8260219067486
20
2.15948229553319
30
0
41
1
10
18.1065378031267
20
1.39619742401411
30
0
41
1
10
17.7454612945065
20
0.95082269365011
30
0
41
1
10
17.0661017708277
20
-0.0113151318391829
30
0
41
1
10
16.7480040915739
20
-0.527815746522492
30
0
41
1
10
16.1950239286194
20
-1.56664884020705
30
0
41
1
10
15.9602923032197
20
-2.08869791556035
30
0
41
1
10
15.6039005450503
20
-3.07233098835647
30
0
41
1
10
15.4823376393761
20
-3.53364664124734
30
0
41
1
10
15.3892625638916
20
-4.18652687886802
30
0
41
1
10
15.3785882023796
20
-4.41428976718046
30
0
41
1
10
15.3929292901691
20
-4.61345189999605
30
0
0
SPLINE
5
193
100
AcDbEntity
8
1
62
256
6
ByLayer
370
-1
48
1
60
0
100
AcDbSpline
70
4
71
2
72
6
73
3
40
0
40
0
40
0
40
1
40
1
40
1
41
1
10
17.1336933260098
20
-5.69621507782696
30
0
41
1
10
17.1336933260098
20
-6.19382239745707
30
0
41
1
10
17.1336933260098
20
-6.69142971708717
30
0
0
SPLINE
5
194
100
AcDbEntity
8
1
62
256
6
ByLayer
370
-1
48
1
60
0
100
AcDbSpline
70
4
71
3
72
8
73
4
40
0
40
0
40
0
40
0
40
1
40
1
40
1
40
1
41
1
10
68.0965314328739
20
6.35601234632333
30
0
41
1
10
67.8176877590822
20
6.4504685528286
30
0
41
1
10
67.5362358474709
20
6.54974985098184
30
0
41
1
10
67.2526002483206
20
6.65307084690662
30
0
0
SPLINE
5
195
100
AcDbEntity
8
1
62
256
6
ByLayer
370
-1
48
1
60
0
100
AcDbSpline
70
4
71
3
72
18
73
14
40
0
40
0
40
0
40
0
40
0.308415905459511
40
0.308415905459511
40
0.616831810919023
40
0.616831810919023
40
0.693935787283901
40
0.693935787283901
40
0.77103976364878
40
0.77103976364878
40
0.925247716378535
40
0.925247716378535
40
1
40
1
40
1
40
1
41
1
10
7.31181742467848
20
3.53772723167026
30
0
41
1
10
7.1472144436043
20
3.85372374455145
30
0
41
1
10
7.00529614052428
20
4.1763796274418
30
0
41
1
10
6.76247441315161
20
4.8302577808187
30
0
41
1
10
6.66148012360418
20
5.16154882259664
30
0
41
1
10
6.56236154188397
20
5.57762670464876
30
0
41
1
10
6.54391675593226
20
5.66093563376145
30
0
41
1
10
6.5099387756141
20
5.82763031130676
30
0
41
1
10
6.49436425360236
20
5.91129844464504
30
0
41
1
10
6.45286431612416
20
6.15891721436333
30
0
41
1
10
6.4319727388926
20
6.32009522033215
30
0
41
1
10
6.41177311779535
20
6.55188581730567
30
0
41
1
10
6.40689602715446
20
6.62637241646735
30
0
41
1
10
6.40382929674632
20
6.69954980465198
30
0
0
SPLINE
5
196
100
AcDbEntity
8
1
62
256
6
ByLayer
370
-1
48
1
60
0
100
AcDbSpline
70
4
71
3
72
22
73
18
40
0
40
0
40
0
40
0
40
0.125
40
0.125
40
0.25
40
0.25
40
0.375
40
0.375
40
0.5
40
0.5
40
0.625
40
0.625
40
0.75
40
0.75
40
0.875
40
0.875
40
1
40
1
40
1
40
1
41
1
10
79.3705404169777
20
3.37347728912616
30
0
41
1
10
79.3763257526307
20
3.37347728912616
30
0
41
1
10
79.3645655774185
20
3.38504593199204
30
0
41
1
10
79.3232654233499
20
3.42215716435183
30
0
41
1
10
79.2941950442706
20
3.44771599473856
30
0
41
1
10
79.232339937063
20
3.50654369971457
30
0
41
1
10
79.1991129902233
20
3.54008186512749
30
0
41
1
10
79.1317079842552
20
3.61485270050275
30
0
41
1
10
79.0978141755294
20
3.65576869996227
30
0
41
1
10
79.0323923156573
20
3.7432628661501
30
0
41
1
10
79.0006545427581
20
3.79004360795324
30
0
41
1
10
78.9400386312025
20
3.89025703364865
30
0
41
1
10
78.9109820133845
20
3.94412802764819
30
0
41
1
10
78.8582201597428
20
4.05591251325754
30
0
41
1
10
78.8342993953009
20
4.1140887288702
30
0
41
1
10
78.7918063218132
20
4.23559669525042
30
0
41
1
10
78.7732604582456
20
4.29919202572339
30
0
41
1
10
78.7582848276355
20
4.36277526250942
30
0
0
SPLINE
5
197
100
AcDbEntity
8
1
62
256
6
ByLayer
370
-1
48
1
60
0
100
AcDbSpline
70
4
71
3
72
8
73
4
40
0
40
0
40
0
40
0
40
1
40
1
40
1
40
1
41
1
10
11.8183629653062
20
7.81713817625339
30
0
41
1
10
14.4158427172922
20
6.11433834317293
30
0
41
1
10
16.9740703500547
20
4.40369969843275
30
0
41
1
10
19.518362965304
20
2.71094498897861
30
0
0
SPLINE
5
198
100
AcDbEntity
8
1
62
256
6
ByLayer
370
-1
48
1
60
0
100
AcDbSpline
70
4
71
3
72
22
73
18
40
0
40
0
40
0
40
0
40
0.0520385111256218
40
0.0520385111256218
40
0.241630808900496
40
0.241630808900496
40
0.336426957787934
40
0.336426957787934
40
0.431223106675371
40
0.431223106675371
40
0.620815404450247
40
0.620815404450247
40
0.715611553337685
40
0.715611553337685
40
0.810407702225123
40
0.810407702225123
40
1
40
1
40
1
40
1
41
1
10
75.3520059241693
20
2.63703744762748
30
0
41
1
10
75.3759481673179
20
2.67975726727002
30
0
41
1
10
75.3993774120884
20
2.72456483020829
30
0
41
1
10
75.5056646827847
20
2.94232330201993
30
0
41
1
10
75.579498683159
20
3.1358385737519
30
0
41
1
10
75.6751985613842
20
3.45837789343185
30
0
41
1
10
75.704568476639
20
3.57130636116304
30
0
41
1
10
75.7578385995777
20
3.80813846092096
30
0
41
1
10
75.7817412730465
20
3.93232759377443
30
0
41
1
10
75.8431607798918
20
4.3134926418366
30
0
41
1
10
75.8711477762444
20
4.58138316246828
30
0
41
1
10
75.8910046356203
20
5.00286316950533
30
0
41
1
10
75.8938998885911
20
5.14704118747866
30
0
41
1
10
75.8913122049901
20
5.44029533507688
30
0
41
1
10
75.8858633118282
20
5.58806828937827
30
0
41
1
10
75.8560575490625
20
6.03436910081021
30
0
41
1
10
75.8186835451577
20
6.33594469878159
30
0
41
1
10
75.757405560365
20
6.63999999999933
30
0
0
SPLINE
5
199
100
AcDbEntity
8
1
62
256
6
ByLayer
370
-1
48
1
60
0
100
AcDbSpline
70
4
71
3
72
18
73
14
40
0
40
0
40
0
40
0
40
0.0415764294927084
40
0.0415764294927084
40
0.36105095299514
40
0.36105095299514
40
0.520788214746355
40
0.520788214746355
40
0.68052547649757
40
0.68052547649757
40
0.840262738248785
40
0.840262738248785
40
1
40
1
40
1
40
1
41
1
10
81.4706754953143
20
3.47242949372952
30
0
41
1
10
81.4655291098146
20
3.4684351300501
30
0
41
1
10
81.4603834506956
20
3.46449171876304
30
0
41
1
10
81.4157136603778
20
3.43068248375138
30
0
41
1
10
81.3759498043753
20
3.40353807336106
30
0
41
1
10
81.3191519316427
20
3.36813044959052
30
0
41
1
10
81.3007664387977
20
3.35724807562224
30
0
41
1
10
81.2657755099524
20
3.33750148264454
30
0
41
1
10
81.2491673978264
20
3.32864541899525
30
0
41
1
10
81.219931298242
20
3.31386602112909
30
0
41
1
10
81.2071563654936
20
3.30785545487058
30
0
41
1
10
81.187307011854
20
3.29937739587786
30
0
41
1
10
81.1805706963319
20
3.29706280010075
30
0
41
1
10
81.1780284742272
20
3.29706280010075
30
0
0
SPLINE
5
19A
100
AcDbEntity
8
1
62
256
6
ByLayer
370
-1
48
1
60
0
100
AcDbSpline
70
4
71
4
72
10
73
5
40
0
40
0
40
0
40
0
40
0
40
1
40
1
40
1
40
1
40
1
41
1
10
74.1879525343043
20
6.63999999999987
30
0
41
1
10
74.187952534317
20
7.61447170672818
30
0
41
1
10
74.1879525343263
20
8.58894341345646
30
0
41
1
10
74.187952534333
20
9.56341512018474
30
0
41
1
10
74.1879525343378
20
10.537886826913
30
0
0
SPLINE
5
19B
100
AcDbEntity
8
1
62
256
6
ByLayer
370
-1
48
1
60
0
100
AcDbSpline
70
4
71
3
72
24
73
20
40
0
40
0
40
0
40
0
40
0.249999999999998
40
0.249999999999998
40
0.374999999999997
40
0.374999999999997
40
0.437499999999997
40
0.437499999999997
40
0.499999999999996
40
0.499999999999996
40
0.749999999999998
40
0.749999999999998
40
0.874999999999999
40
0.874999999999999
40
0.9375
40
0.9375
40
0.96875
40
0.96875
40
1
40
1
40
1
40
1
41
1
10
18
20
7.32685744007574
30
0
41
1
10
17.4464069684656
20
7.53685138952358
30
0
41
1
10
16.8892905760193
20
7.76077989146251
30
0
41
1
10
16.0552935494882
20
8.13467840782405
30
0
41
1
10
15.7776029290381
20
8.26570880508424
30
0
41
1
10
15.3626814022519
20
8.47459410503282
30
0
41
1
10
15.2246453620928
20
8.5462835521717
30
0
41
1
10
14.9493343264844
20
8.6943011166037
30
0
41
1
10
14.8124784101487
20
8.77042162762933
30
0
41
1
10
14.1388461580831
20
9.15898568592576
30
0
41
1
10
13.6281245973935
20
9.49837517010562
30
0
41
1
10
12.9126945054183
20
10.0642449798291
30
0
41
1
10
12.682669771192
20
10.2623356484548
30
0
41
1
10
12.3516477670068
20
10.5756721465658
30
0
41
1
10
12.2437373737115
20
10.6831196129757
30
0
41
1
10
12.0860877281988
20
10.8468935118722
30
0
41
1
10
12.0337790977771
20
10.901684458259
30
0
41
1
10
11.9272702899171
20
11.010072042402
30
0
41
1
10
11.8732161363456
20
11.0637653238212
30
0
41
1
10
11.8183629653052
20
11.1169506983974
30
0
0
SPLINE
5
19C
100
AcDbEntity
8
1
62
256
6
ByLayer
370
-1
48
1
60
0
100
AcDbSpline
70
4
71
2
72
6
73
3
40
0
40
0
40
0
40
1
40
1
40
1
41
1
10
7.31181742467837
20
3.53772723167052
30
0
41
1
10
7.31181742467842
20
2.1606521727345
30
0
41
1
10
7.31181742467845
20
0.783577113798543
30
0
0
SPLINE
5
19D
100
AcDbEntity
8
1
62
256
6
ByLayer
370
-1
48
1
60
0
100
AcDbSpline
70
4
71
3
72
30
73
26
40
0
40
0
40
0
40
0
40
0.0312500000000053
40
0.0312500000000053
40
0.0625000000000106
40
0.0625000000000106
40
0.12500000000001
40
0.12500000000001
40
0.15625000000001
40
0.15625000000001
40
0.187500000000009
40
0.187500000000009
40
0.250000000000009
40
0.250000000000009
40
0.312500000000008
40
0.312500000000008
40
0.375000000000008
40
0.375000000000008
40
0.500000000000006
40
0.500000000000006
40
0.625000000000005
40
0.625000000000005
40
0.750000000000003
40
0.750000000000003
40
1
40
1
40
1
40
1
41
1
10
76.155282479738
20
5.49911953110359
30
0
41
1
10
76.1351162363611
20
5.48659040155079
30
0
41
1
10
76.1160345186922
20
5.4727015669755
30
0
41
1
10
76.0806197913644
20
5.44147647326179
30
0
41
1
10
76.0641664441498
20
5.42390105057203
30
0
41
1
10
76.0224304603079
20
5.36758987755778
30
0
41
1
10
76.0041484027236
20
5.32353237416598
30
0
41
1
10
75.9934640615556
20
5.25679932753073
30
0
41
1
10
75.9924875207571
20
5.2342754540455
30
0
41
1
10
75.994617441467
20
5.19058560217559
30
0
41
1
10
75.9976755514501
20
5.16913993596364
30
0
41
1
10
76.0114927346916
20
5.10574292990333
30
0
41
1
10
76.0265328910997
20
5.06588363697685
30
0
41
1
10
76.0629609126007
20
4.99019844968336
30
0
41
1
10
76.0846730484067
20
4.95394146964892
30
0
41
1
10
76.1319448535411
20
4.88503548728858
30
0
41
1
10
76.1574649897619
20
4.85240691177714
30
0
41
1
10
76.2380408571848
20
4.75839339166757
30
0
41
1
10
76.2970468998287
20
4.70081707458189
30
0
41
1
10
76.4218254669598
20
4.59207226231166
30
0
41
1
10
76.4878892077414
20
4.54084779755672
30
0
41
1
10
76.6237333333486
20
4.44430623853631
30
0
41
1
10
76.6936441121577
20
4.39888435842374
30
0
41
1
10
76.9081471657827
20
4.26924442947586
30
0
41
1
10
77.0574505590338
20
4.19155857357893
30
0
41
1
10
77.211590153295
20
4.12015359762862
30
0
0
SPLINE
5
19E
100
AcDbEntity
8
1
62
256
6
ByLayer
370
-1
48
1
60
0
100
AcDbSpline
70
4
71
3
72
32
73
28
40
0
40
0
40
0
40
0
40
0.125
40
0.125
40
0.250000000000001
40
0.250000000000001
40
0.312500000000001
40
0.312500000000001
40
0.375000000000001
40
0.375000000000001
40
0.500000000000002
40
0.500000000000002
40
0.562500000000002
40
0.562500000000002
40
0.593750000000001
40
0.593750000000001
40
0.625000000000001
40
0.625000000000001
40
0.687500000000001
40
0.687500000000001
40
0.718750000000001
40
0.718750000000001
40
0.750000000000001
40
0.750000000000001
40
0.875000000000001
40
0.875000000000001
40
1
40
1
40
1
40
1
41
1
10
7.31181742467845
20
0.783577113798572
30
0
41
1
10
7.56310047935736
20
0.394303407684618
30
0
41
1
10
7.81757164861247
20
0.0147868779457667
30
0
41
1
10
8.33507043311931
20
-0.722799353169961
30
0
41
1
10
8.59807345388629
20
-1.08090157166367
30
0
41
1
10
9.00149322299765
20
-1.59912159803437
30
0
41
1
10
9.13746339142685
20
-1.76868884811429
30
0
41
1
10
9.41301889184257
20
-2.10069585433567
30
0
41
1
10
9.5528248203662
20
-2.26338955457578
30
0
41
1
10
9.97750758519976
20
-2.73755589040454
30
0
41
1
10
10.2617096105221
20
-3.02885964522341
30
0
41
1
10
10.692710236954
20
-3.42052528370121
30
0
41
1
10
10.8371702241292
20
-3.54347426292139
30
0
41
1
10
11.0556059597853
20
-3.71461038995273
30
0
41
1
10
11.1287692377774
20
-3.7694557405386
30
0
41
1
10
11.2739573696665
20
-3.87302733210311
30
0
41
1
10
11.3462012307938
20
-3.92193192279424
30
0
41
1
10
11.5619318745998
20
-4.05959517459902
30
0
41
1
10
11.7044214703349
20
-4.13935236531771
30
0
41
1
10
11.9162959530088
20
-4.2385902183704
30
0
41
1
10
11.9865880187514
20
-4.26809328793911
30
0
41
1
10
12.1266501960188
20
-4.32038946026506
30
0
41
1
10
12.1967138762861
20
-4.34535732767549
30
0
41
1
10
12.5498197898866
20
-4.48503325160908
30
0
41
1
10
12.8390540761882
20
-4.62972476537627
30
0
41
1
10
13.4221176843993
20
-4.95854668518916
30
0
41
1
10
13.716431989785
20
-5.14301269860917
30
0
41
1
10
14.0118174246786
20
-5.33926295246059
30
0
0
SPLINE
5
19F
100
AcDbEntity
8
1
62
256
6
ByLayer
370
-1
48
1
60
0
100
AcDbSpline
70
4
71
3
72
10
73
6
40
0
40
0
40
0
40
0
40
0.5
40
0.5
40
1
40
1
40
1
40
1
41
1
10
16.5621055976549
20
-5.44825750260304
30
0
41
1
10
16.6537133139423
20
-5.49611019160341
30
0
41
1
10
16.7478138229833
20
-5.54107417259985
30
0
41
1
10
16.9386682961823
20
-5.62389222094944
30
0
41
1
10
17.0354793211572
20
-5.66180658766899
30
0
41
1
10
17.1336933331242
20
-5.69621504692287
30
0
0
SPLINE
5
1A0
100
AcDbEntity
8
1
62
256
6
ByLayer
370
-1
48
1
60
0
100
AcDbSpline
70
4
71
3
72
8
73
4
40
0
40
0
40
0
40
0
40
1
40
1
40
1
40
1
41
1
10
78.0400402784144
20
2.1221310704037
30
0
41
1
10
77.8297550714868
20
2.08433288323448
30
0
41
1
10
77.5758432643805
20
2.07983711287002
30
0
41
1
10
77.2944201758986
20
2.1171135769481
30
0
0
SPLINE
5
1A1
100
AcDbEntity
8
1
62
256
6
ByLayer
370
-1
48
1
60
0
100
AcDbSpline
70
4
71
1
72
4
73
2
40
0
40
0
40
1
40
1
41
1
10
19.518362965304
20
2.71094498897861
30
0
41
1
10
19.5183629653041
20
6.68878530974172
30
0
0
SPLINE
5
1A2
100
AcDbEntity
8
1
62
256
6
ByLayer
370
-1
48
1
60
0
100
AcDbSpline
70
4
71
3
72
8
73
4
40
0
40
0
40
0
40
0
40
1
40
1
40
1
40
1
41
1
10
18
20
-6.91888133739567
30
0
41
1
10
17.7121721141836
20
-6.83083825151368
30
0
41
1
10
17.4232375304975
20
-6.75511229756688
30
0
41
1
10
17.1336933260098
20
-6.69142971708735
30
0
0
SPLINE
5
1A3
100
AcDbEntity
8
1
62
256
6
ByLayer
370
-1
48
1
60
0
100
AcDbSpline
70
4
71
3
72
28
73
24
40
0
40
0
40
0
40
0
40
0.14596941845528
40
0.14596941845528
40
0.29193883691056
40
0.29193883691056
40
0.437908255365839
40
0.437908255365839
40
0.474400609979659
40
0.474400609979659
40
0.510892964593479
40
0.510892964593479
40
0.58387767382112
40
0.58387767382112
40
0.7298470922764
40
0.7298470922764
40
0.875816510731681
40
0.875816510731681
40
0.948801219959322
40
0.948801219959322
40
0.985293574573142
40
0.985293574573142
40
1
40
1
40
1
40
1
41
1
10
18
20
-6.91888133739565
30
0
41
1
10
20.035229867908
20
-7.54143365730567
30
0
41
1
10
22.0580531144205
20
-8.09817396703775
30
0
41
1
10
26.0943975834732
20
-9.05644043030696
30
0
41
1
10
28.1080325167487
20
-9.45787959681388
30
0
41
1
10
32.1407660540556
20
-10.0882142505999
30
0
41
1
10
34.1595994145536
20
-10.3173246176323
30
0
41
1
10
36.6956773031496
20
-10.4871881798119
30
0
41
1
10
37.2035233264346
20
-10.515344493467
30
0
41
1
10
38.2207187235069
20
-10.5598488331715
30
0
41
1
10
38.7292848262373
20
-10.5761543062044
30
0
41
1
10
40.2520573894051
20
-10.6071760041278
30
0
41
1
10
41.2646519681607
20
-10.604051949399
30
0
41
1
10
44.2973583419697
20
-10.5242979579991
30
0
41
1
10
46.3121758112924
20
-10.3771183098179
30
0
41
1
10
50.3423399559876
20
-9.90227847518355
30
0
41
1
10
52.3579024324286
20
-9.57469158733883
30
0
41
1
10
55.3935531330864
20
-8.95848569449856
30
0
41
1
10
56.4074769804942
20
-8.73232413457617
30
0
41
1
10
57.9326983422614
20
-8.36332289293517
30
0
41
1
10
58.4416410002788
20
-8.23539269372912
30
0
41
1
10
59.1544074051544
20
-8.04976769581546
30
0
41
1
10
59.3590642759764
20
-7.99572203044988
30
0
41
1
10
59.5636495123311
20
-7.94096385520922
30
0
0
SPLINE
5
1A4
100
AcDbEntity
8
1
62
256
6
ByLayer
370
-1
48
1
60
0
100
AcDbSpline
70
4
71
3
72
8
73
4
40
0
40
0
40
0
40
0
40
1
40
1
40
1
40
1
41
1
10
17.3279176347355
20
-5.76007233428052
30
0
41
1
10
17.2629635191375
20
-5.73997051043756
30
0
41
1
10
17.1982248825945
20
-5.71868186765911
30
0
41
1
10
17.1336933260098
20
-5.69621504443049
30
0
0
SPLINE
5
1A5
100
AcDbEntity
8
1
62
256
6
ByLayer
370
-1
48
1
60
0
100
AcDbSpline
70
4
71
3
72
44
73
40
40
0
40
0
40
0
40
0
40
0.0624999999999996
40
0.0624999999999996
40
0.124999999999999
40
0.124999999999999
40
0.187499999999999
40
0.187499999999999
40
0.218749999999999
40
0.218749999999999
40
0.249999999999999
40
0.249999999999999
40
0.312499999999998
40
0.312499999999998
40
0.343749999999998
40
0.343749999999998
40
0.374999999999998
40
0.374999999999998
40
0.499999999999998
40
0.499999999999998
40
0.562499999999998
40
0.562499999999998
40
0.624999999999998
40
0.624999999999998
40
0.687499999999998
40
0.687499999999998
40
0.718749999999999
40
0.718749999999999
40
0.749999999999999
40
0.749999999999999
40
0.812499999999999
40
0.812499999999999
40
0.874999999999999
40
0.874999999999999
40
0.906249999999999
40
0.906249999999999
40
0.9375
40
0.9375
40
1
40
1
40
1
40
1
41
1
10
19.5183629653044
20
6.68878530974166
30
0
41
1
10
20.7022771354511
20
6.31688278193189
30
0
41
1
10
21.8824413233217
20
5.9265728940259
30
0
41
1
10
24.2380575120916
20
5.1157762327019
30
0
41
1
10
25.413475083618
20
4.69522713063392
30
0
41
1
10
27.7613723171952
20
3.82821550219097
30
0
41
1
10
28.9341170288415
20
3.38236434688909
30
0
41
1
10
30.6931462372884
20
2.69913080462678
30
0
41
1
10
31.2793318752116
20
2.46861907752319
30
0
41
1
10
32.4527162745853
20
2.00533207749905
30
0
41
1
10
33.0399043052509
20
1.7725459841202
30
0
41
1
10
34.8021550557006
20
1.06873347132029
30
0
41
1
10
35.9780517833755
20
0.592555941910945
30
0
41
1
10
37.7472097121475
20
-0.12276633116798
30
0
41
1
10
38.3377465790788
20
-0.361552187529014
30
0
41
1
10
39.5207741467829
20
-0.839002641626848
30
0
41
1
10
40.1131061687528
20
-1.07760235855449
30
0
41
1
10
43.0702345948705
20
-2.2638622567404
30
0
41
1
10
45.4296501686133
20
-3.19433999202786
30
0
41
1
10
48.9769982812079
20
-4.51969234578769
30
0
41
1
10
50.1614294767312
20
-4.95004084350825
30
0
41
1
10
52.5255324472122
20
-5.7754043406718
30
0
41
1
10
53.7060871176104
20
-6.17177714746865
30
0
41
1
10
56.069251478631
20
-6.92187949445071
30
0
41
1
10
57.2517311415319
20
-7.27599153901178
30
0
41
1
10
59.0277013865287
20
-7.77407032675441
30
0
41
1
10
59.6202380450754
20
-7.93462749707427
30
0
41
1
10
60.8027073689546
20
-8.24306090653221
30
0
41
1
10
61.3931089744143
20
-8.39102243655691
30
0
41
1
10
63.1624900501409
20
-8.81515372801741
30
0
41
1
10
64.3395359280977
20
-9.071724055793
30
0
41
1
10
66.6916393983119
20
-9.52847360392499
30
0
41
1
10
67.8673610035752
20
-9.72795874784646
30
0
41
1
10
69.6311699876839
20
-9.9832051739636
30
0
41
1
10
70.2194962169291
20
-10.0606333898222
30
0
41
1
10
71.3966761126433
20
-10.2004374433919
30
0
41
1
10
71.985428508176
20
-10.2628637917314
30
0
41
1
10
73.753249847299
20
-10.4267861226662
30
0
41
1
10
74.9339971855263
20
-10.5048853390305
30
0
41
1
10
76.1183629652978
20
-10.5508743319066
30
0
0
SPLINE
5
1A6
100
AcDbEntity
8
1
62
256
6
ByLayer
370
-1
48
1
60
0
100
AcDbSpline
70
4
71
3
72
10
73
6
40
0
40
0
40
0
40
0
40
0.5
40
0.5
40
1
40
1
40
1
40
1
41
1
10
79.1128197095533
20
7.23881754885815
30
0
41
1
10
79.1156568467547
20
7.23881754885815
30
0
41
1
10
79.1209629320545
20
7.24168649893446
30
0
41
1
10
79.1361252728268
20
7.25249438593897
30
0
41
1
10
79.1460774575418
20
7.26051474553762
30
0
41
1
10
79.1579777479355
20
7.27050074488054
30
0
0
SPLINE
5
1A7
100
AcDbEntity
8
1
62
256
6
ByLayer
370
-1
48
1
60
0
100
AcDbSpline
70
4
71
3
72
8
73
4
40
0
40
0
40
0
40
0
40
1
40
1
40
1
40
1
41
1
10
7.31181742467842
20
3.53772723167037
30
0
41
1
10
7.56508016765699
20
3.15907797889335
30
0
41
1
10
7.82953296728573
20
2.79083427677955
30
0
41
1
10
8.1033236082952
20
2.43117276825893
30
0
0
SPLINE
5
1A8
100
AcDbEntity
8
1
62
256
6
ByLayer
370
-1
48
1
60
0
100
AcDbSpline
70
4
71
3
72
27
73
23
40
0
40
0
40
0
40
0
40
0.250000000000003
40
0.250000000000003
40
0.312500000000004
40
0.312500000000004
40
0.375000000000005
40
0.375000000000005
40
0.500000000000004
40
0.500000000000004
40
0.562500000000003
40
0.562500000000003
40
0.625000000000002
40
0.625000000000002
40
0.750000000000002
40
0.750000000000002
40
0.812500000000001
40
0.812500000000001
40
0.875000000000001
40
0.9375
40
0.9375
40
1
40
1
40
1
40
1
41
1
10
78.377108019025
20
3.60475378093832
30
0
41
1
10
78.6229119523093
20
3.44402571486015
30
0
41
1
10
78.8395367412276
20
3.30518647277807
30
0
41
1
10
79.0543763900467
20
3.14295942203506
30
0
41
1
10
79.0944488491824
20
3.1110844442573
30
0
41
1
10
79.1669325241317
20
3.04914687621834
30
0
41
1
10
79.1995397428665
20
3.01894125036009
30
0
41
1
10
79.2858503620328
20
2.93000891222576
30
0
41
1
10
79.3281044785134
20
2.87292950767056
30
0
41
1
10
79.3652080069504
20
2.78881345762511
30
0
41
1
10
79.3730900437494
20
2.76110807522676
30
0
41
1
10
79.3794878825902
20
2.70721766798562
30
0
41
1
10
79.378078913817
20
2.68088449677705
30
0
41
1
10
79.3601273232359
20
2.60358504480351
30
0
41
1
10
79.3298973582395
20
2.55425144693578
30
0
41
1
10
79.2568851669395
20
2.484216208742
30
0
41
1
10
79.2279811706552
20
2.46165544524101
30
0
41
1
10
79.1624362134799
20
2.4190067298895
30
0
41
1
10
79.0889374333551
20
2.37860891886945
30
0
41
1
10
79.0005453326485
20
2.34317582688749
30
0
41
1
10
78.905116453727
20
2.31054557025931
30
0
41
1
10
78.8537315195585
20
2.29559648761813
30
0
41
1
10
78.7993455950362
20
2.28233337038881
30
0
0
SPLINE
5
1A9
100
AcDbEntity
8
1
62
256
6
ByLayer
370
-1
48
1
60
0
100
AcDbSpline
70
4
71
3
72
8
73
4
40
0
40
0
40
0
40
0
40
1
40
1
40
1
40
1
41
1
10
76.1183629652538
20
-10.5508743319056
30
0
41
1
10
76.5308498027212
20
-10.5599828942606
30
0
41
1
10
76.9227961964835
20
-10.5729083447548
30
0
41
1
10
77.2948527820505
20
-10.583596983519
30
0
0
SPLINE
5
1AA
100
AcDbEntity
8
1
62
256
6
ByLayer
370
-1
48
1
60
0
100
AcDbSpline
70
4
71
3
72
34
73
30
40
0
40
0
40
0
40
0
40
0.0727509788540172
40
0.0727509788540172
40
0.150021730616183
40
0.150021730616183
40
0.227292482378348
40
0.227292482378348
40
0.304563234140514
40
0.304563234140514
40
0.381833985902679
40
0.381833985902679
40
0.53637548942701
40
0.53637548942701
40
0.613646241189175
40
0.613646241189175
40
0.652281617070257
40
0.652281617070257
40
0.69091699295134
40
0.69091699295134
40
0.729552368832422
40
0.729552368832422
40
0.768187744713505
40
0.768187744713505
40
0.84545849647567
40
0.84545849647567
40
0.922729248237835
40
0.922729248237835
40
1
40
1
40
1
40
1
41
1
10
58.4661670066804
20
-7.60373225547738
30
0
41
1
10
57.4690837591665
20
-7.82116257295428
30
0
41
1
10
56.4719632094844
20
-8.02214175308765
30
0
41
1
10
54.4141514986042
20
-8.40102404168047
30
0
41
1
10
53.3527534233674
20
-8.57706875723503
30
0
41
1
10
51.2329769546125
20
-8.88649904096374
30
0
41
1
10
50.1740590912543
20
-9.01975095198961
30
0
41
1
10
48.0562472343114
20
-9.24098830255707
30
0
41
1
10
46.9972519898799
20
-9.32985118655733
30
0
41
1
10
44.8773619090421
20
-9.46029750526398
30
0
41
1
10
43.8162211776362
20
-9.50146031031403
30
0
41
1
10
40.6374557606615
20
-9.55496850531796
30
0
41
1
10
38.5212375574943
20
-9.4968658451416
30
0
41
1
10
35.3406104695195
20
-9.27258386783734
30
0
41
1
10
34.2798535121686
20
-9.17513946164769
30
0
41
1
10
32.6906733594801
20
-8.99684370399319
30
0
41
1
10
32.1610861075502
20
-8.93201813134328
30
0
41
1
10
31.1021052699752
20
-8.79046291336641
30
0
41
1
10
30.5727091953912
20
-8.71364640391005
30
0
41
1
10
29.5136423531869
20
-8.55046710977558
30
0
41
1
10
28.9839608900881
20
-8.46436370787649
30
0
41
1
10
27.9242968964931
20
-8.28145652858913
30
0
41
1
10
27.3943356995977
20
-8.18425484314318
30
0
41
1
10
25.8035430415716
20
-7.87797343570506
30
0
41
1
10
24.7434357686776
20
-7.654303047258
30
0
41
1
10
22.6252354805196
20
-7.17022698334819
30
0
41
1
10
21.5666474870571
20
-6.9099705312656
30
0
41
1
10
19.4484525821101
20
-6.35794607707524
30
0
41
1
10
18.3888570418076
20
-6.06616328155698
30
0
41
1
10
17.3279176347343
20
-5.76007233428027
30
0
0
SPLINE
5
1AB
100
AcDbEntity
8
1
62
256
6
ByLayer
370
-1
48
1
60
0
100
AcDbSpline
70
4
71
3
72
14
73
10
40
0
40
0
40
0
40
0
40
0.0705200632865203
40
0.0705200632865203
40
0.38034670885768
40
0.38034670885768
40
0.69017335442884
40
0.69017335442884
40
1
40
1
40
1
40
1
41
1
10
85.6925070779646
20
3.62146877090038
30
0
41
1
10
85.6920348515744
20
3.61405016180393
30
0
41
1
10
85.6915331875338
20
3.60683563808578
30
0
41
1
10
85.6886957308409
20
3.56901685307503
30
0
41
1
10
85.6858542946363
20
3.54208696941143
30
0
41
1
10
85.6797289331928
20
3.4990347017206
30
0
41
1
10
85.6763829646519
20
3.48236603910596
30
0
41
1
10
85.6694453090588
20
3.45994566921911
30
0
41
1
10
85.6659137489526
20
3.45428879391918
30
0
41
1
10
85.662374234327
20
3.45425607822526
30
0
0
SPLINE
5
1AC
100
AcDbEntity
8
1
62
256
6
ByLayer
370
-1
48
1
60
0
100
AcDbSpline
70
4
71
3
72
8
73
4
40
0
40
0
40
0
40
0
40
1
40
1
40
1
40
1
41
1
10
18
20
7.32685744007574
30
0
41
1
10
18.5140050736203
20
7.13188035529095
30
0
41
1
10
19.0195390614532
20
6.91912429948061
30
0
41
1
10
19.5183629653041
20
6.68878530974183
30
0
0
SPLINE
5
1AD
100
AcDbEntity
8
1
62
256
6
ByLayer
370
-1
48
1
60
0
100
AcDbSpline
70
4
71
3
72
16
73
12
40
0
40
0
40
0
40
0
40
0.211848344357262
40
0.211848344357262
40
0.474565562904841
40
0.474565562904841
40
0.60592417217863
40
0.60592417217863
40
0.73728278145242
40
0.73728278145242
40
1
40
1
40
1
40
1
41
1
10
43.8059648411846
20
10.5999679129303
30
0
41
1
10
45.4569362625675
20
10.6001968548839
30
0
41
1
10
47.10424770961
20
10.5374573543168
30
0
41
1
10
50.7965770656766
20
10.2582263481796
30
0
41
1
10
52.842271092864
20
10.0087733416871
30
0
41
1
10
55.9244096584373
20
9.49991113522628
30
0
41
1
10
56.9544326945107
20
9.30769622368231
30
0
41
1
10
59.0186753814439
20
8.87991886693908
30
0
41
1
10
60.0488813442352
20
8.6452474625591
30
0
41
1
10
63.1369379885489
20
7.88375450914032
30
0
41
1
10
65.1923074435109
20
7.29943772393565
30
0
41
1
10
67.2526002483206
20
6.65307084690659
30
0
0
SPLINE
5
1AE
100
AcDbEntity
8
1
62
256
6
ByLayer
370
-1
48
1
60
0
100
AcDbSpline
70
4
71
3
72
18
73
14
40
0
40
0
40
0
40
0
40
0.0145950948657487
40
0.0145950948657487
40
0.507297547432875
40
0.507297547432875
40
0.630473160574656
40
0.630473160574656
40
0.753648773716438
40
0.753648773716438
40
0.876824386858219
40
0.876824386858219
40
1
40
1
40
1
40
1
41
1
10
60.3580719617364
20
8.5315256801683
30
0
41
1
10
60.4255532087074
20
8.54768988550146
30
0
41
1
10
60.4930224193698
20
8.56376733517479
30
0
41
1
10
62.837571038975
20
9.11952259663317
30
0
41
1
10
65.1041729098059
20
9.56056654276816
30
0
41
1
10
67.9392292045254
20
9.97225423202454
30
0
41
1
10
68.5062800378194
20
10.0476959426799
30
0
41
1
10
69.6405483642679
20
10.1846366994712
30
0
41
1
10
70.2080453502716
20
10.2459366548605
30
0
41
1
10
71.3434217134452
20
10.3543694472465
30
0
41
1
10
71.9112564083734
20
10.401486501944
30
0
41
1
10
73.0485267032297
20
10.480784333002
30
0
41
1
10
73.6179894967376
20
10.5130047565634
30
0
41
1
10
74.1879525343378
20
10.537886826913
30
0
0
SPLINE
5
1AF
100
AcDbEntity
8
1
62
256
6
ByLayer
370
-1
48
1
60
0
100
AcDbSpline
70
4
71
3
72
24
73
20
40
0
40
0
40
0
40
0
40
0.125000000000031
40
0.125000000000031
40
0.250000000000061
40
0.250000000000061
40
0.312500000000064
40
0.312500000000064
40
0.375000000000066
40
0.375000000000066
40
0.437500000000068
40
0.437500000000068
40
0.500000000000071
40
0.500000000000071
40
0.625000000000056
40
0.625000000000056
40
0.750000000000042
40
0.750000000000042
40
1
40
1
40
1
40
1
41
1
10
80.4908557743294
20
3.12140334709142
30
0
41
1
10
80.4308288459151
20
3.11050809482225
30
0
41
1
10
80.3683604975047
20
3.10213800182748
30
0
41
1
10
80.2368545531825
20
3.09228518524466
30
0
41
1
10
80.1700114154867
20
3.09108193429782
30
0
41
1
10
80.071102763406
20
3.09541383956542
30
0
41
1
10
80.0380621965673
20
3.09790628180551
30
0
41
1
10
79.9746196610219
20
3.10466024030603
30
0
41
1
10
79.9438945032451
20
3.10892513113697
30
0
41
1
10
79.88423019803
20
3.11903168855551
30
0
41
1
10
79.8552351441526
20
3.12490030361565
30
0
41
1
10
79.8003568815414
20
3.1376633072631
30
0
41
1
10
79.7742442558135
20
3.14459143349635
30
0
41
1
10
79.6992140239487
20
3.16671288507959
30
0
41
1
10
79.6532515988025
20
3.18337629179601
30
0
41
1
10
79.5698180495267
20
3.21833676512145
30
0
41
1
10
79.5322122119293
20
3.23663558734833
30
0
41
1
10
79.4281973325175
20
3.29313687336645
30
0
41
1
10
79.3702456566656
20
3.33309268321156
30
0
41
1
10
79.3201723694738
20
3.37347728912616
30
0
0
SPLINE
5
1B0
100
AcDbEntity
8
1
62
256
6
ByLayer
370
-1
48
1
60
0
100
AcDbSpline
70
4
71
3
72
8
73
4
40
0
40
0
40
0
40
0
40
1
40
1
40
1
40
1
41
1
10
77.8667282226793
20
3.81520725450559
30
0
41
1
10
78.0402159399204
20
3.73366880744064
30
0
41
1
10
78.2107200134327
20
3.66405695510653
30
0
41
1
10
78.3771080190268
20
3.60475378093787
30
0
0
SPLINE
5
1B1
100
AcDbEntity
8
1
62
256
6
ByLayer
370
-1
48
1
60
0
100
AcDbSpline
70
4
71
3
72
14
73
10
40
0
40
0
40
0
40
0
40
0.412371044526775
40
0.412371044526775
40
0.618556566790163
40
0.618556566790163
40
0.824742089053551
40
0.824742089053551
40
1
40
1
40
1
40
1
41
1
10
82.1840696408714
20
6.96191902084675
30
0
41
1
10
82.2016834374938
20
6.80359958278586
30
0
41
1
10
82.2456436120813
20
6.64607360480252
30
0
41
1
10
82.3584377689395
20
6.41345838138355
30
0
41
1
10
82.403805487024
20
6.33728313370071
30
0
41
1
10
82.5092933477345
20
6.19226612859961
30
0
41
1
10
82.5696339089947
20
6.12285876059764
30
0
41
1
10
82.697756615119
20
6.00181507273524
30
0
41
1
10
82.7616340188717
20
5.9504728838829
30
0
41
1
10
82.8306275714181
20
5.9041343108164
30
0
0
SPLINE
5
1B2
100
AcDbEntity
8
1
62
256
6
ByLayer
370
-1
48
1
60
0
100
AcDbSpline
70
4
71
3
72
12
73
8
40
0
40
0
40
0
40
0
40
0.236641162266524
40
0.236641162266524
40
0.618320581133263
40
0.618320581133263
40
1
40
1
40
1
40
1
41
1
10
82.2504332558788
20
7.55572123714509
30
0
41
1
10
82.2348105099259
20
7.5118087413494
30
0
41
1
10
82.2216873839267
20
7.46717736551093
30
0
41
1
10
82.1936514757186
20
7.34867324879156
30
0
41
1
10
82.1825800073076
20
7.27364393308511
30
0
41
1
10
82.173345080092
20
7.11961766754638
30
0
41
1
10
82.1752627425602
20
7.04107873987721
30
0
41
1
10
82.1840696408714
20
6.96191902084675
30
0
0
SPLINE
5
1B3
100
AcDbEntity
8
1
62
256
6
ByLayer
370
-1
48
1
60
0
100
AcDbSpline
70
4
71
4
72
19
73
14
40
0
40
0
40
0
40
0
40
0
40
0.48117000538245
40
0.48117000538245
40
0.48117000538245
40
0.721755008073675
40
0.721755008073675
40
0.721755008073675
40
0.9623400107649
40
0.9623400107649
40
0.9623400107649
40
1
40
1
40
1
40
1
40
1
41
1
10
19.5183629653069
20
2.71094498897798
30
0
41
1
10
19.5183629653069
20
1.99994417767056
30
0
41
0.974581796258695
10
19.4333606582131
20
0.861488137756531
30
0
41
0.974581796258695
10
19.2135628453628
20
-0.576265323364279
30
0
41
0.987290898129347
10
18.815323894139
20
-2.56245941167905
30
0
41
0.993645449064674
10
18.6739198555769
20
-3.18396098858095
30
0
41
1
10
18.5318003394351
20
-3.73407264338871
30
0
41
1
10
18.2681996605703
20
-4.65013617936705
30
0
41
0.993645449064674
10
18.1260801444285
20
-5.08781034551398
30
0
41
0.987290898129347
10
17.9846761058664
20
-5.44912174257461
30
0
41
0.982391390806456
10
17.8323708000159
20
-5.74808871837722
30
0
41
0.981780153108118
10
17.8119267432256
20
-5.78614250929312
30
0
41
0.981228942279438
10
17.7917807543956
20
-5.82150283731877
30
0
41
0.980743339306396
10
17.7719688328566
20
-5.85408581252627
30
0
0
SPLINE
5
1B4
100
AcDbEntity
8
1
62
256
6
ByLayer
370
-1
48
1
60
0
100
AcDbSpline
70
4
71
3
72
47
73
43
40
0
40
0
40
0
40
0
40
0.068608521868711
40
0.102912782803067
40
0.137217043737422
40
0.1543691742046
40
0.171521304671778
40
0.205825565606133
40
0.222977696073311
40
0.240129826540489
40
0.274434087474844
40
0.291586217942022
40
0.308738348409199
40
0.343042609343555
40
0.360194739810733
40
0.377346870277911
40
0.411651131212266
40
0.428803261679444
40
0.445955392146622
40
0.480259653080977
40
0.497411783548155
40
0.514563914015333
40
0.548868174949688
40
0.566020305416865
40
0.583172435884044
40
0.617476696818399
40
0.634628827285577
40
0.651780957752755
40
0.68608521868711
40
0.703237349154288
40
0.720389479621466
40
0.754693740555821
40
0.771845871022999
40
0.788998001490177
40
0.823302262424532
40
0.84045439289171
40
0.857606523358888
40
0.891910784293243
40
0.926215045227599
40
0.960519306161954
40
0.99482356709631
40
1
40
1
40
1
40
1
41
1
10
11.8183629653062
20
7.81713817625339
30
0
41
1
10
11.735921883545
20
7.73079890551625
30
0
41
1
10
11.6077972968008
20
7.593295015866
30
0
41
1
10
11.4289376963831
20
7.39422199721719
30
0
41
1
10
11.3140702899291
20
7.26340496008186
30
0
41
1
10
11.2204868818571
20
7.15500927457663
30
0
41
1
10
11.1258453882844
20
7.04417420136483
30
0
41
1
10
11.0297191211178
20
6.92976302083028
30
0
41
1
10
10.9323127896722
20
6.81194168144717
30
0
41
1
10
10.8341352632808
20
6.69192601461612
30
0
41
1
10
10.734924216331
20
6.56873752428982
30
0
41
1
10
10.6349261925435
20
6.44261354582162
30
0
41
1
10
10.5344969881291
20
6.31463421077041
30
0
41
1
10
10.4335612186715
20
6.18402429411213
30
0
41
1
10
10.3323992959651
20
6.05108870238163
30
0
41
1
10
10.2311873445486
20
5.91672339115289
30
0
41
1
10
10.1300514602509
20
5.78039459650159
30
0
41
1
10
10.0292938634396
20
5.64246451007739
30
0
41
1
10
9.92889153883843
20
5.50360155311756
30
0
41
1
10
9.82917674338111
20
5.36354127632362
30
0
41
1
10
9.73045871872512
20
5.22268765163437
30
0
41
1
10
9.63250514974195
20
5.08144696262195
30
0
41
1
10
9.53584817697595
20
4.93983842853527
30
0
41
1
10
9.44078762584286
20
4.79828755219535
30
0
41
1
10
9.34688274762908
20
4.65691663982869
30
0
41
1
10
9.25484846654021
20
4.51602796163502
30
0
41
1
10
9.16495895806824
20
4.37604609404048
30
0
41
1
10
9.07657745966722
20
4.23680252416594
30
0
41
1
10
8.99057521886218
20
4.0988670368524
30
0
41
1
10
8.90718672063227
20
3.96264090406163
30
0
41
1
10
8.82560205881913
20
3.82767364854303
30
0
41
1
10
8.74681516368122
20
3.69477367031806
30
0
41
1
10
8.67101005931863
20
3.56429889215764
30
0
41
1
10
8.5972353580255
20
3.43554071019042
30
0
41
1
10
8.52657007516535
20
3.30950711673836
30
0
41
1
10
8.45914183839571
20
3.18649750025199
30
0
41
1
10
8.39389485082546
20
3.0655808506435
30
0
41
1
10
8.31646949324698
20
2.91850369321764
30
0
41
1
10
8.23031177800164
20
2.74898284504639
30
0
41
1
10
8.15093630861179
20
2.58675191424896
30
0
41
1
10
8.09891061703433
20
2.47589261466973
30
0
41
1
10
8.07256160573263
20
2.41829305065431
30
0
41
1
10
8.06913246157379
20
2.4107706468165
30
0
0
SPLINE
5
1B5
100
AcDbEntity
8
1
62
256
6
ByLayer
370
-1
48
1
60
0
100
AcDbSpline
70
4
71
3
72
18
73
14
40
0
40
0
40
0
40
0
40
0.25
40
0.25
40
0.375
40
0.375
40
0.5
40
0.5
40
0.750000000000001
40
0.750000000000001
40
0.875
40
0.875
40
1
40
1
40
1
40
1
41
1
10
14.0118174246785
20
-5.33926295246056
30
0
41
1
10
14.1923137540178
20
-5.53448606162422
30
0
41
1
10
14.3951697004547
20
-5.69842364524402
30
0
41
1
10
14.7317697691355
20
-5.91247727529282
30
0
41
1
10
14.8493835677645
20
-5.97844803876174
30
0
41
1
10
15.0955656514553
20
-6.10147486515734
30
0
41
1
10
15.2247195810072
20
-6.15875171567686
30
0
41
1
10
15.6246814367358
20
-6.31781181999483
30
0
41
1
10
15.9060570836229
20
-6.40656358366192
30
0
41
1
10
16.3499721990028
20
-6.52381829329923
30
0
41
1
10
16.5016059370053
20
-6.56020702228292
30
0
41
1
10
16.8124015595469
20
-6.62880102107937
30
0
41
1
10
16.971911741827
20
-6.66106054998016
30
0
41
1
10
17.1336933260269
20
-6.69142971709019
30
0
0
SPLINE
5
1B6
100
AcDbEntity
8
1
62
256
6
ByLayer
370
-1
48
1
60
0
100
AcDbSpline
70
4
71
4
72
10
73
5
40
0
40
0
40
0
40
0
40
0
40
1
40
1
40
1
40
1
40
1
41
0.978787829043613
10
73.8397208683474
20
3.32773824148965
30
0
41
0.9802499527279
10
74.0156198723059
20
4.04428786275143
30
0
41
0.987740862920877
10
74.1377514763671
20
4.90787856087987
30
0
41
1
10
74.1879525343043
20
5.82155165626907
30
0
41
1
10
74.1879525343043
20
6.63999999999987
30
0
0
SPLINE
5
1B7
100
AcDbEntity
8
1
62
256
6
ByLayer
370
-1
48
1
60
0
100
AcDbSpline
70
4
71
3
72
8
73
4
40
0
40
0
40
0
40
0
40
1
40
1
40
1
40
1
41
1
10
77.4421397694043
20
4.01332743988289
30
0
41
1
10
77.5878060072444
20
3.94581685334191
30
0
41
1
10
77.7293741650805
20
3.8797630440034
30
0
41
1
10
77.8667282226793
20
3.81520725450559
30
0
0
SPLINE
5
1B8
100
AcDbEntity
8
1
62
256
6
ByLayer
370
-1
48
1
60
0
100
AcDbSpline
70
4
71
3
72
8
73
4
40
0
40
0
40
0
40
0
40
1
40
1
40
1
40
1
41
1
10
8.94580904081732
20
1.46081678936486
30
0
41
1
10
8.65180646565375
20
1.75474213831541
30
0
41
1
10
8.37174090879179
20
2.07856987849704
30
0
41
1
10
8.10332360829057
20
2.43117276826501
30
0
0
SPLINE
5
1B9
100
AcDbEntity
8
1
62
256
6
ByLayer
370
-1
48
1
60
0
100
AcDbSpline
70
4
71
3
72
22
73
18
40
0
40
0
40
0
40
0
40
0.125
40
0.125
40
0.25
40
0.25
40
0.3125
40
0.3125
40
0.375
40
0.375
40
0.499999999999999
40
0.499999999999999
40
0.75
40
0.75
40
0.875
40
0.875
40
1
40
1
40
1
40
1
41
1
10
7.31181742467848
20
0.783577113798486
30
0
41
1
10
7.18389858525228
20
1.04759327001042
30
0
41
1
10
7.0760699984707
20
1.31669532314123
30
0
41
1
10
6.89031597100387
20
1.86227566853671
30
0
41
1
10
6.81249704335229
20
2.13878144558851
30
0
41
1
10
6.71361060568472
20
2.55777715870076
30
0
41
1
10
6.68364302340495
20
2.69815392047545
30
0
41
1
10
6.62909550018463
20
2.98015598767725
30
0
41
1
10
6.60446172619001
20
3.12215841107368
30
0
41
1
10
6.53834738233144
20
3.54653351891383
30
0
41
1
10
6.50454368455573
20
3.827148843423
30
0
41
1
10
6.42639673832588
20
4.662253979778
30
0
41
1
10
6.40504302886532
20
5.21003234559714
30
0
41
1
10
6.39866850293112
20
6.01795790477743
30
0
41
1
10
6.40091303399447
20
6.28496657085955
30
0
41
1
10
6.41151724000085
20
6.81424611544645
30
0
41
1
10
6.41984165825613
20
7.07482608525092
30
0
41
1
10
6.429926611209
20
7.33087191867804
30
0
0
SPLINE
5
1BA
100
AcDbEntity
8
1
62
256
6
ByLayer
370
-1
48
1
60
0
100
AcDbSpline
70
4
71
3
72
10
73
6
40
0
40
0
40
0
40
0
40
0.5
40
0.5
40
1
40
1
40
1
40
1
41
1
10
8.94580948727412
20
1.4608180163668
30
0
41
1
10
9.798554085853
20
0.668754715788083
30
0
41
1
10
10.6501598697548
20
-0.122536076375042
30
0
41
1
10
12.3416342589547
20
-1.7043523766726
30
0
41
1
10
13.1813144607667
20
-2.49480086306306
30
0
41
1
10
14.0118174246786
20
-3.28212465960078
30
0
0
SPLINE
5
1BB
100
AcDbEntity
8
1
62
256
6
ByLayer
370
-1
48
1
60
0
100
AcDbSpline
70
4
71
3
72
27
73
23
40
0
40
0
40
0
40
0
40
0.0643204372488093
40
0.116302635179431
40
0.142293734144743
40
0.168284833110053
40
0.194275932075363
40
0.220267031040674
40
0.272249228971296
40
0.324231426901918
40
0.350222525867229
40
0.37621362483254
40
0.40220472379785
40
0.428195822763161
40
0.480178020693783
40
0.532160218624405
40
0.558151317589715
40
0.584142416555027
40
0.597137966037682
40
0.68810681241627
40
0.792071208277513
40
1
40
1
40
1
40
1
41
1
10
36.5310078232485
20
0.368908803918458
30
0
41
1
10
36.1660707259449
20
0.424636614197823
30
0
41
1
10
35.5062300862788
20
0.525305428468272
30
0
41
1
10
34.699012952957
20
0.648125593890512
30
0
41
1
10
34.1093151984647
20
0.737274391435136
30
0
41
1
10
33.6671438563285
20
0.803726965193789
30
0
41
1
10
33.2249911980048
20
0.869737071907821
30
0
41
1
10
32.6352050288913
20
0.957344959576432
30
0
41
1
10
31.8974760059498
20
1.06654175789038
30
0
41
1
10
31.1596902180855
20
1.17579374931566
30
0
41
1
10
30.5702964054291
20
1.26245105714597
30
0
41
1
10
30.1287517878525
20
1.32674475846577
30
0
41
1
10
29.6868463085053
20
1.39051080795139
30
0
41
1
10
29.0970124990565
20
1.47508076400081
30
0
41
1
10
28.3600958097629
20
1.57968665044425
30
0
41
1
10
27.6230045980886
20
1.68278141134559
30
0
41
1
10
27.0331850502446
20
1.76439354686866
30
0
41
1
10
26.6646405907426
20
1.81494252967585
30
0
41
1
10
25.927726019009
20
1.91511781646767
30
0
41
1
10
24.748593835296
20
2.07236650834841
30
0
41
1
10
22.4642080795597
20
2.36513756193469
30
0
41
1
10
20.6963157309319
20
2.57721989485154
30
0
41
1
10
19.5183629653069
20
2.71094498897798
30
0
0
SPLINE
5
1BC
100
AcDbEntity
8
1
62
256
6
ByLayer
370
-1
48
1
60
0
100
AcDbSpline
70
4
71
3
72
18
73
14
40
0
40
0
40
0
40
0
40
0.14568765175533
40
0.291375303510659
40
0.437062955265989
40
0.509906781143654
40
0.582750607021319
40
0.655594432898984
40
0.728438258776649
40
0.801282084654314
40
0.874125910531979
40
0.946969736409644
40
1
40
1
40
1
40
1
41
1
10
74.1879525343043
20
6.63999999999987
30
0
41
1
10
73.9046732363896
20
6.62761976949272
30
0
41
1
10
73.338055559835
20
6.60048122721904
30
0
41
1
10
72.4878984490088
20
6.5527137173091
30
0
41
1
10
71.7794115661912
20
6.50716173639972
30
0
41
1
10
71.2127991878333
20
6.46735599857698
30
0
41
1
10
70.7882391439447
20
6.43585811289165
30
0
41
1
10
70.3636419125575
20
6.40272474311249
30
0
41
1
10
69.938244077404
20
6.36792086815072
30
0
41
1
10
69.5128241566754
20
6.33147664637133
30
0
41
1
10
69.0876940581642
20
6.29340630300135
30
0
41
1
10
68.7013798869281
20
6.25732558835458
30
0
41
1
10
68.4567139406051
20
6.23366899846064
30
0
41
1
10
68.3536252818438
20
6.22355908791491
30
0
0
SPLINE
5
1BD
100
AcDbEntity
8
1
62
256
6
ByLayer
370
-1
48
1
60
0
100
AcDbSpline
70
4
71
3
72
8
73
4
40
0
40
0
40
0
40
0
40
1
40
1
40
1
40
1
41
1
10
78.799345595036
20
2.28233337038878
30
0
41
1
10
78.5379550079404
20
2.21858794306107
30
0
41
1
10
78.2844207665545
20
2.16605779052915
30
0
41
1
10
78.0400402784145
20
2.12213107040373
30
0
0
SPLINE
5
1BE
100
AcDbEntity
8
1
62
256
6
ByLayer
370
-1
48
1
60
0
100
AcDbSpline
70
4
71
3
72
8
73
4
40
0
40
0
40
0
40
0
40
1
40
1
40
1
40
1
41
1
10
11.8183629653042
20
7.81713817624848
30
0
41
1
10
11.8183629653042
20
8.91707568363088
30
0
41
1
10
11.8183629653042
20
10.0170131910133
30
0
41
1
10
11.8183629653042
20
11.1169506983957
30
0
0
SPLINE
5
1BF
100
AcDbEntity
8
1
62
256
6
ByLayer
370
-1
48
1
60
0
100
AcDbSpline
70
4
71
3
72
8
73
4
40
0
40
0
40
0
40
0
40
1
40
1
40
1
40
1
41
1
10
14.0118174246785
20
-3.28212465960078
30
0
41
1
10
14.0118174246785
20
-3.96783742388737
30
0
41
1
10
14.0118174246785
20
-4.65355018817399
30
0
41
1
10
14.0118174246785
20
-5.33926295246059
30
0
0
SPLINE
5
1C0
100
AcDbEntity
8
1
62
256
6
ByLayer
370
-1
48
1
60
0
100
AcDbSpline
70
4
71
3
72
8
73
4
40
0
40
0
40
0
40
0
40
1
40
1
40
1
40
1
41
1
10
75.757405560414
20
6.63999999999993
30
0
41
1
10
75.7306058625969
20
6.77297745054949
30
0
41
1
10
75.7149174090239
20
6.90776672775087
30
0
41
1
10
75.7149174090239
20
7.04505147477931
30
0
0
SPLINE
5
1C1
100
AcDbEntity
8
1
62
256
6
ByLayer
370
-1
48
1
60
0
100
AcDbSpline
70
4
71
3
72
48
73
44
40
0
40
0
40
0
40
0
40
0.125000000000001
40
0.125000000000001
40
0.156250000000001
40
0.156250000000001
40
0.187500000000001
40
0.187500000000001
40
0.25
40
0.25
40
0.28125
40
0.28125
40
0.3125
40
0.3125
40
0.375
40
0.375
40
0.437499999999999
40
0.437499999999999
40
0.499999999999999
40
0.499999999999999
40
0.531249999999999
40
0.531249999999999
40
0.562499999999999
40
0.562499999999999
40
0.624999999999998
40
0.624999999999998
40
0.656249999999998
40
0.656249999999998
40
0.687499999999998
40
0.687499999999998
40
0.749999999999998
40
0.749999999999998
40
0.781249999999998
40
0.781249999999998
40
0.812499999999998
40
0.812499999999998
40
0.874999999999999
40
0.874999999999999
40
0.906249999999999
40
0.906249999999999
40
0.937499999999999
40
0.937499999999999
40
1
40
1
40
1
40
1
41
1
10
11.8183629653042
20
11.1169506983957
30
0
41
1
10
11.4457398421878
20
11.4614089596389
30
0
41
1
10
11.0392507039581
20
11.7515329918953
30
0
41
1
10
10.4908060554281
20
12.034962436423
30
0
41
1
10
10.3787024689977
20
12.0878064528214
30
0
41
1
10
10.1521626781687
20
12.1842580613471
30
0
41
1
10
10.0384193244605
20
12.2276066500457
30
0
41
1
10
9.69615189140981
20
12.3431576527243
30
0
41
1
10
9.46659559919863
20
12.400931643978
30
0
41
1
10
9.12157661942373
20
12.4582061943209
30
0
41
1
10
9.00645453070712
20
12.4723847473431
30
0
41
1
10
8.77619963129959
20
12.4906070172378
30
0
41
1
10
8.66044412755005
20
12.4946327277227
30
0
41
1
10
8.31850597568797
20
12.4908738521294
30
0
41
1
10
8.09866789461378
20
12.4676421810301
30
0
41
1
10
7.67645265903593
20
12.3816134605575
30
0
41
1
10
7.47363538772348
20
12.3186453091548
30
0
41
1
10
7.08945081782446
20
12.1524887485526
30
0
41
1
10
6.91342693082956
20
12.0517259774205
30
0
41
1
10
6.67295396274574
20
11.8759185952031
30
0
41
1
10
6.59674145909199
20
11.8131795895455
30
0
41
1
10
6.45233423200443
20
11.6794455110212
30
0
41
1
10
6.38384822699615
20
11.6080923002222
30
0
41
1
10
6.19313489687056
20
11.3841815345039
30
0
41
1
10
6.08602420225378
20
11.222807752902
30
0
41
1
10
5.95387956064297
20
10.9638221773555
30
0
41
1
10
5.91460931750211
20
10.8746546274889
30
0
41
1
10
5.84564468621983
20
10.6906447798333
30
0
41
1
10
5.81589374560087
20
10.5954434951371
30
0
41
1
10
5.74233657984547
20
10.3060429499609
30
0
41
1
10
5.71355060882658
20
10.1069671240734
30
0
41
1
10
5.69887148060962
20
9.79953481041005
30
0
41
1
10
5.69875179129161
20
9.69557874854499
30
0
41
1
10
5.70800056299234
20
9.48467599460949
30
0
41
1
10
5.71743352509949
20
9.37749977278463
30
0
41
1
10
5.75924278110514
20
9.05640979072138
30
0
41
1
10
5.80504144231296
20
8.84140512267635
30
0
41
1
10
5.89871189816085
20
8.51718019711763
30
0
41
1
10
5.93411604176717
20
8.40881707319187
30
0
41
1
10
6.01316312043124
20
8.19144013966317
30
0
41
1
10
6.05698592116829
20
8.08203836215858
30
0
41
1
10
6.19916562528181
20
7.75632099309723
30
0
41
1
10
6.30809716116448
20
7.54232078998157
30
0
41
1
10
6.42992661121735
20
7.33087191866352
30
0
0
SPLINE
5
1C2
100
AcDbEntity
8
1
62
256
6
ByLayer
370
-1
48
1
60
0
100
AcDbSpline
70
4
71
3
72
14
73
10
40
0
40
0
40
0
40
0
40
0.499999999999993
40
0.499999999999993
40
0.624999999999995
40
0.624999999999995
40
0.749999999999996
40
0.749999999999996
40
1
40
1
40
1
40
1
41
1
10
79.8498697273687
20
0.916277584544019
30
0
41
1
10
79.37548726134
20
0.888042795534233
30
0
41
1
10
78.9073915829868
20
0.918574238577804
30
0
41
1
10
78.3300723587519
20
1.02947191240494
30
0
41
1
10
78.2150047513815
20
1.05534347514663
30
0
41
1
10
77.9856864166044
20
1.11468240861828
30
0
41
1
10
77.871498931116
20
1.14816143404124
30
0
41
1
10
77.5339789436761
20
1.25903653400732
30
0
41
1
10
77.3144021448543
20
1.34713481144115
30
0
41
1
10
77.1004003584314
20
1.44964491679534
30
0
0
SPLINE
5
1C3
100
AcDbEntity
8
1
62
256
6
ByLayer
370
-1
48
1
60
0
100
AcDbSpline
70
4
71
3
72
16
73
12
40
0
40
0
40
0
40
0
40
0.249999999999999
40
0.249999999999999
40
0.499999999999999
40
0.499999999999999
40
0.624999999999998
40
0.624999999999998
40
0.749999999999998
40
0.749999999999998
40
1
40
1
40
1
40
1
41
1
10
14.0118174246786
20
-3.28212465960081
30
0
41
1
10
14.1704699079356
20
-3.47164239476001
30
0
41
1
10
14.3452723497547
20
-3.65707614195122
30
0
41
1
10
14.7236201181212
20
-4.0253656475752
30
0
41
1
10
14.9271643022696
20
-4.20821468330672
30
0
41
1
10
15.2529738919094
20
-4.48244762198098
30
0
41
1
10
15.3652845846375
20
-4.57402851841834
30
0
41
1
10
15.593441409326
20
-4.75457386621849
30
0
41
1
10
15.7096307144464
20
-4.84383958272898
30
0
41
1
10
16.0643529955478
20
-5.10855782676819
30
0
41
1
10
16.3089715216
20
-5.28101168944588
30
0
41
1
10
16.5621055953395
20
-5.4482574855833
30
0
0
SPLINE
5
1C4
100
AcDbEntity
8
SK1
62
256
6
ByLayer
370
-1
48
1
60
0
100
AcDbSpline
70
4
71
3
72
20
73
16
40
0
40
0
40
0
40
0
40
0.125000000000007
40
0.125000000000007
40
0.250000000000015
40
0.250000000000015
40
0.312500000000018
40
0.312500000000018
40
0.375000000000022
40
0.375000000000022
40
0.500000000000012
40
0.500000000000012
40
0.750000000000006
40
0.750000000000006
40
1
40
1
40
1
40
1
41
1
10
-53.6338144512145
20
-6.34034179467375
30
0
41
1
10
-53.6736405326374
20
-6.31405714368668
30
0
41
1
10
-53.7174596238936
20
-6.2918915268643
30
0
41
1
10
-53.8100286430816
20
-6.26230917234659
30
0
41
1
10
-53.858409060093
20
-6.25510537770515
30
0
41
1
10
-53.930507607687
20
-6.25719119578446
30
0
41
1
10
-53.9548847131617
20
-6.26004287846277
30
0
41
1
10
-54.0024268232708
20
-6.26975628298462
30
0
41
1
10
-54.025531470073
20
-6.27654559824734
30
0
41
1
10
-54.0930893921825
20
-6.30200607369946
30
0
41
1
10
-54.136092797726
20
-6.32609087475549
30
0
41
1
10
-54.2534188607808
20
-6.41013429612562
30
0
41
1
10
-54.3194596979378
20
-6.48308041368765
30
0
41
1
10
-54.4306544823114
20
-6.63915672058906
30
0
41
1
10
-54.4771151388184
20
-6.72418194167685
30
0
41
1
10
-54.5162227297291
20
-6.81204395564961
30
0
0
SPLINE
5
1C5
100
AcDbEntity
8
SK1
62
256
6
ByLayer
370
-1
48
1
60
0
100
AcDbSpline
70
4
71
3
72
8
73
4
40
0
40
0
40
0
40
0
40
1
40
1
40
1
40
1
41
1
10
-55
20
-6.99849805315392
30
0
41
1
10
-55.3648529633576
20
-6.34700451336727
30
0
41
1
10
-55.7026345426883
20
-5.68249326840734
30
0
41
1
10
-56
20
-4.99854728896301
30
0
0
SPLINE
5
1C6
100
AcDbEntity
8
SK1
62
256
6
ByLayer
370
-1
48
1
60
0
100
AcDbSpline
70
4
71
3
72
20
73
16
40
0
40
0
40
0
40
0
40
0.25
40
0.25
40
0.375
40
0.375
40
0.5
40
0.5
40
0.625
40
0.625
40
0.75
40
0.75
40
0.875
40
0.875
40
1
40
1
40
1
40
1
41
1
10
-54.5162227297291
20
6.8120439556497
30
0
41
1
10
-54.4772709483907
20
6.72453199501689
30
0
41
1
10
-54.4306845518237
20
6.63914767831511
30
0
41
1
10
-54.3469265709005
20
6.52165950363116
30
0
41
1
10
-54.3163253277688
20
6.4838456686486
30
0
41
1
10
-54.2501041764424
20
6.41421731653315
30
0
41
1
10
-54.2145625265326
20
6.38236090680323
30
0
41
1
10
-54.1369222939179
20
6.32662557921188
30
0
41
1
10
-54.0940013611407
20
6.30244517653043
30
0
41
1
10
-54.0037548865671
20
6.26824500575401
30
0
41
1
10
-53.9556146989167
20
6.25796898452336
30
0
41
1
10
-53.8582046255659
20
6.25504848254036
30
0
41
1
10
-53.8099490429817
20
6.26234710426348
30
0
41
1
10
-53.7177558858445
20
6.29178438547694
30
0
41
1
10
-53.6739857261288
20
6.31382932086129
30
0
41
1
10
-53.6338144512151
20
6.3403417946746
30
0
0
SPLINE
5
1C7
100
AcDbEntity
8
SK1
62
256
6
ByLayer
370
-1
48
1
60
0
100
AcDbSpline
70
4
71
3
72
8
73
4
40
0
40
0
40
0
40
0
40
1
40
1
40
1
40
1
41
1
10
-54.516222729729
20
-6.81204395564961
30
0
41
1
10
-54.5439393896427
20
-6.87431425928901
30
0
41
1
10
-54.5718676648179
20
-6.93646419260506
30
0
41
1
10
-54.6
20
-6.99849805315392
30
0
0
SPLINE
5
1C8
100
AcDbEntity
8
SK1
62
256
6
ByLayer
370
-1
48
1
60
0
100
AcDbSpline
70
4
71
3
72
8
73
4
40
0
40
0
40
0
40
0
40
1
40
1
40
1
40
1
41
1
10
-54.6
20
6.99849805315404
30
0
41
1
10
-54.5718676648179
20
6.93646419260517
30
0
41
1
10
-54.5439393896427
20
6.87431425928909
30
0
41
1
10
-54.516222729729
20
6.81204395564973
30
0
0
SPLINE
5
1C9
100
AcDbEntity
8
SK1
62
256
6
ByLayer
370
-1
48
1
60
0
100
AcDbSpline
70
4
71
3
72
8
73
4
40
0
40
0
40
0
40
0
40
1
40
1
40
1
40
1
41
1
10
-53.6338144512151
20
6.3403417946746
30
0
41
1
10
-53.292222119692
20
6.56578790669803
30
0
41
1
10
-52.9473802440142
20
6.78469639798695
30
0
41
1
10
-52.6000000000004
20
6.99849805315478
30
0
0
SPLINE
5
1CA
100
AcDbEntity
8
SK1
62
256
6
ByLayer
370
-1
48
1
60
0
100
AcDbSpline
70
4
71
3
72
8
73
4
40
0
40
0
40
0
40
0
40
1
40
1
40
1
40
1
41
1
10
-56.0000000000001
20
4.99854728896315
30
0
41
1
10
-55.7019755215914
20
5.68400902895925
30
0
41
1
10
-55.3641473109836
20
6.34826454962635
30
0
41
1
10
-55
20
6.99849805315404
30
0
0
SPLINE
5
1CB
100
AcDbEntity
8
SK1
62
256
6
ByLayer
370
-1
48
1
60
0
100
AcDbSpline
70
4
71
3
72
8
73
4
40
0
40
0
40
0
40
0
40
1
40
1
40
1
40
1
41
1
10
-52.6000000000004
20
-6.99849805315466
30
0
41
1
10
-52.9473802440142
20
-6.78469639798683
30
0
41
1
10
-53.292222119692
20
-6.56578790669792
30
0
41
1
10
-53.6338144512151
20
-6.34034179467449
30
0
0
SPLINE
5
1CC
100
AcDbEntity
8
SK1
62
256
6
ByLayer
370
-1
48
1
60
0
100
AcDbSpline
70
4
71
3
72
68
73
64
40
0
40
0
40
0
40
0
40
0.015625
40
0.015625
40
0.0312499999999999
40
0.0312499999999999
40
0.0468749999999999
40
0.0468749999999999
40
0.0624999999999998
40
0.0624999999999998
40
0.0781249999999998
40
0.0781249999999998
40
0.0937499999999997
40
0.0937499999999997
40
0.125
40
0.125
40
0.15625
40
0.15625
40
0.1875
40
0.1875
40
0.25
40
0.25
40
0.28125
40
0.28125
40
0.3125
40
0.3125
40
0.375
40
0.375
40
0.4375
40
0.4375
40
0.46875
40
0.46875
40
0.5
40
0.5
40
0.5625
40
0.5625
40
0.625
40
0.625
40
0.6875
40
0.6875
40
0.75
40
0.75
40
0.8125
40
0.8125
40
0.84375
40
0.84375
40
0.859375
40
0.859375
40
0.875
40
0.875
40
0.90625
40
0.90625
40
0.921875
40
0.921875
40
0.9375
40
0.9375
40
0.953125
40
0.953125
40
0.96875
40
0.96875
40
0.984375
40
0.984375
40
1
40
1
40
1
40
1
41
1
10
-6.5
20
-6.99849805315398
30
0
41
1
10
-6.4096424095903
20
-6.99849805315398
30
0
41
1
10
-6.31887533751086
20
-6.9924669932976
30
0
41
1
10
-6.13726564177031
20
-6.96792032412691
30
0
41
1
10
-6.04880117468585
20
-6.94974705973743
30
0
41
1
10
-5.87614107362342
20
-6.90252164638767
30
0
41
1
10
-5.79194795071362
20
-6.87346297167917
30
0
41
1
10
-5.62761370230606
20
-6.80484072991021
30
0
41
1
10
-5.54890965383427
20
-6.76585529638666
30
0
41
1
10
-5.39867973784189
20
-6.68016521734489
30
0
41
1
10
-5.32694157755157
20
-6.63336290342139
30
0
41
1
10
-5.18947718430641
20
-6.53250060019133
30
0
41
1
10
-5.12348684568531
20
-6.47818603126365
30
0
41
1
10
-4.93566988154686
20
-6.30674027670506
30
0
41
1
10
-4.82518003213681
20
-6.18267595320251
30
0
41
1
10
-4.62603001440084
20
-5.91868980815966
30
0
41
1
10
-4.53721391214785
20
-5.77825879287735
30
0
41
1
10
-4.37814656673874
20
-5.48542007115435
30
0
41
1
10
-4.30877871567313
20
-5.33483042069352
30
0
41
1
10
-4.12354082750574
20
-4.87237000918773
30
0
41
1
10
-4.03020120532329
20
-4.54989217457512
30
0
41
1
10
-3.91807144557504
20
-4.04887624586692
30
0
41
1
10
-3.88552668802802
20
-3.87909831441809
30
0
41
1
10
-3.82866773565829
20
-3.53847076026688
30
0
41
1
10
-3.80422767364425
20
-3.36705941807358
30
0
41
1
10
-3.74020579920568
20
-2.84975913582008
30
0
41
1
10
-3.70977205452269
20
-2.5008195214777
30
0
41
1
10
-3.66416163751657
20
-1.79552608157809
30
0
41
1
10
-3.64903771748126
20
-1.43916908464092
30
0
41
1
10
-3.63426182330713
20
-0.899256752194447
30
0
41
1
10
-3.63068669313998
20
-0.718167674817778
30
0
41
1
10
-3.62598899859142
20
-0.357375695924361
30
0
41
1
10
-3.62485343662013
20
-0.177302953433326
30
0
41
1
10
-3.62488496014578
20
0.361962578325034
30
0
41
1
10
-3.62938260517049
20
0.720207066315254
30
0
41
1
10
-3.64887950283875
20
1.43414621185846
30
0
41
1
10
-3.66385562324439
20
1.78984138878459
30
0
41
1
10
-3.70956223321124
20
2.49851694715909
30
0
41
1
10
-3.74045671775656
20
2.85271919963691
30
0
41
1
10
-3.82645737175278
20
3.54573152185978
30
0
41
1
10
-3.88145968550236
20
3.88575414429386
30
0
41
1
10
-4.03051920995767
20
4.55084385300148
30
0
41
1
10
-4.12523349261875
20
4.87761469840365
30
0
41
1
10
-4.31105593218689
20
5.33999328729007
30
0
41
1
10
-4.38041029850672
20
5.4899128326384
30
0
41
1
10
-4.49888437250004
20
5.70752713951083
30
0
41
1
10
-4.54079549132547
20
5.77885043055693
30
0
41
1
10
-4.63023926406612
20
5.91883578995851
30
0
41
1
10
-4.67776791395602
20
5.98743717509882
30
0
41
1
10
-4.82792587490127
20
6.18597359029033
30
0
41
1
10
-4.93858588995937
20
6.30966494075429
30
0
41
1
10
-5.12522766477915
20
6.47964028567972
30
0
41
1
10
-5.19131964832849
20
6.53397024553271
30
0
41
1
10
-5.32929892448178
20
6.63497116118225
30
0
41
1
10
-5.40112275258878
20
6.68167605293547
30
0
41
1
10
-5.55102867370906
20
6.76694298534821
30
0
41
1
10
-5.62910582891868
20
6.80551115138627
30
0
41
1
10
-5.79238720600742
20
6.87359848794483
30
0
41
1
10
-5.87738605118548
20
6.90291103819595
30
0
41
1
10
-6.04966564042599
20
6.94993403370722
30
0
41
1
10
-6.13756051826556
20
6.96792637087054
30
0
41
1
10
-6.31709499624006
20
6.99225989008042
30
0
41
1
10
-6.40924253974518
20
6.99849805315398
30
0
41
1
10
-6.5
20
6.99849805315398
30
0
0
SPLINE
5
1CD
100
AcDbEntity
8
1
62
256
6
ByLayer
370
-1
48
1
60
0
100
AcDbSpline
70
4
71
3
72
8
73
4
40
0
40
0
40
0
40
0
40
1
40
1
40
1
40
1
41
1
10
86.7669133649914
20
-3.66254366440455
30
0
41
1
10
86.7662126399078
20
-3.67547662095308
30
0
41
1
10
86.7656320653114
20
-3.68849604616884
30
0
41
1
10
86.7651734954861
20
-3.7016032745239
30
0
0
SPLINE
5
1CE
100
AcDbEntity
8
1
62
256
6
ByLayer
370
-1
48
1
60
0
100
AcDbSpline
70
4
71
3
72
10
73
6
40
0
40
0
40
0
40
0
40
0.5
40
0.5
40
1
40
1
40
1
40
1
41
1
10
86.3678367620624
20
-0.723718325619132
30
0
41
1
10
86.3682727997301
20
-0.701671241718458
30
0
41
1
10
86.3669108873473
20
-0.678759048079286
30
0
41
1
10
86.3594119847703
20
-0.630682146855634
30
0
41
1
10
86.3532363998432
20
-0.605760426383085
30
0
41
1
10
86.3444240321697
20
-0.580955481902038
30
0
0
SPLINE
5
1CF
100
AcDbEntity
8
1
62
256
6
ByLayer
370
-1
48
1
60
0
100
AcDbSpline
70
4
71
3
72
20
73
16
40
0
40
0
40
0
40
0
40
0.0625000000000018
40
0.0625000000000018
40
0.125000000000004
40
0.125000000000004
40
0.250000000000005
40
0.250000000000005
40
0.375000000000005
40
0.375000000000005
40
0.500000000000006
40
0.500000000000006
40
0.750000000000003
40
0.750000000000003
40
1
40
1
40
1
40
1
41
1
10
86.7421474814381
20
-4.35975217057836
30
0
41
1
10
86.7411445949528
20
-4.38841751542537
30
0
41
1
10
86.7407476094775
20
-4.41750965705813
30
0
41
1
10
86.7410233301925
20
-4.47330970117105
30
0
41
1
10
86.7416656921887
20
-4.49981462092143
30
0
41
1
10
86.7446243526456
20
-4.57647675927154
30
0
41
1
10
86.7478189413624
20
-4.62155637866738
30
0
41
1
10
86.7551730489511
20
-4.70593930120199
30
0
41
1
10
86.7593678995533
20
-4.74500278036999
30
0
41
1
10
86.7681491928786
20
-4.81869539219198
30
0
41
1
10
86.7727717455795
20
-4.85353730595759
30
0
41
1
10
86.7870534384898
20
-4.95448449396594
30
0
41
1
10
86.797116832478
20
-5.0170957535428
30
0
41
1
10
86.8177395857996
20
-5.13803158378644
30
0
41
1
10
86.8283180687942
20
-5.19624887953046
30
0
41
1
10
86.8390235305447
20
-5.25307406137097
30
0
0
SPLINE
5
1D0
100
AcDbEntity
8
1
62
256
6
ByLayer
370
-1
48
1
60
0
100
AcDbSpline
70
4
71
3
72
10
73
6
40
0
40
0
40
0
40
0
40
0.5
40
0.5
40
1
40
1
40
1
40
1
41
1
10
86.7669133649912
20
-3.66254366440452
30
0
41
1
10
86.7703334770196
20
-3.59942024940184
30
0
41
1
10
86.7652841642201
20
-3.53603722746937
30
0
41
1
10
86.7374927808916
20
-3.40936819566693
30
0
41
1
10
86.7154654793762
20
-3.3492172889724
30
0
41
1
10
86.6856629824917
20
-3.29211381362219
30
0
0
SPLINE
5
1D1
100
AcDbEntity
8
1
62
256
6
ByLayer
370
-1
48
1
60
0
100
AcDbSpline
70
4
71
3
72
22
73
18
40
0
40
0
40
0
40
0
40
0.124999999999984
40
0.124999999999984
40
0.249999999999967
40
0.249999999999967
40
0.374999999999951
40
0.374999999999951
40
0.437499999999942
40
0.437499999999942
40
0.499999999999933
40
0.499999999999933
40
0.62499999999995
40
0.62499999999995
40
0.749999999999966
40
0.749999999999966
40
1
40
1
40
1
40
1
41
1
10
86.5427852470894
20
-5.74468893451402
30
0
41
1
10
86.5597294718079
20
-5.74347136738467
30
0
41
1
10
86.5772322252157
20
-5.74126439275506
30
0
41
1
10
86.6140096721338
20
-5.73371153431893
30
0
41
1
10
86.6334202486231
20
-5.72837423469747
30
0
41
1
10
86.6746883052035
20
-5.7120071924945
30
0
41
1
10
86.6968208379175
20
-5.70089891810895
30
0
41
1
10
86.7308449740755
20
-5.67639806851406
30
0
41
1
10
86.7425666811125
20
-5.66663924432984
30
0
41
1
10
86.7644757418716
20
-5.64497836893446
30
0
41
1
10
86.7748216776083
20
-5.63290623879408
30
0
41
1
10
86.8016739552734
20
-5.59620741822545
30
0
41
1
10
86.8141526151449
20
-5.57139867425406
30
0
41
1
10
86.8320887270043
20
-5.52602810266006
30
0
41
1
10
86.8379000808669
20
-5.50481020290297
30
0
41
1
10
86.8504465934816
20
-5.44423018292881
30
0
41
1
10
86.8523666635726
20
-5.40833375499503
30
0
41
1
10
86.8517809222659
20
-5.37418333116688
30
0
0
SPLINE
5
1D2
100
AcDbEntity
8
1
62
256
6
ByLayer
370
-1
48
1
60
0
100
AcDbSpline
70
4
71
3
72
8
73
4
40
0
40
0
40
0
40
0
40
1
40
1
40
1
40
1
41
1
10
86.6727610533744
20
-3.26654492910234
30
0
41
1
10
86.676906875792
20
-3.2750515232577
30
0
41
1
10
86.681256407679
20
-3.28367053663186
30
0
41
1
10
86.6856629824917
20
-3.29211381362219
30
0
0
SPLINE
5
1D3
100
AcDbEntity
8
1
62
256
6
ByLayer
370
-1
48
1
60
0
100
AcDbSpline
70
4
71
3
72
8
73
4
40
0
40
0
40
0
40
0
40
1
40
1
40
1
40
1
41
1
10
86.8517809222659
20
-5.3741833311669
30
0
41
1
10
86.8510509722467
20
-5.33162511946733
30
0
41
1
10
86.8462683158588
20
-5.29152978168102
30
0
41
1
10
86.8390235305446
20
-5.25307406137094
30
0
0
SPLINE
5
1D4
100
AcDbEntity
8
1
62
256
6
ByLayer
370
-1
48
1
60
0
100
AcDbSpline
70
4
71
3
72
8
73
4
40
0
40
0
40
0
40
0
40
1
40
1
40
1
40
1
41
1
10
86.367836762062
20
-0.723718325617455
30
0
41
1
10
86.3669419469045
20
-0.768962271992166
30
0
41
1
10
86.3674581351879
20
-0.820648870405392
30
0
41
1
10
86.3703394128991
20
-0.87552437909585
30
0
0
SPLINE
5
1D5
100
AcDbEntity
8
1
62
256
6
ByLayer
370
-1
48
1
60
0
100
AcDbSpline
70
4
71
3
72
18
73
14
40
0
40
0
40
0
40
0
40
0.201652115390627
40
0.201652115390627
40
0.403304230781254
40
0.403304230781254
40
0.604956346171881
40
0.604956346171881
40
0.705782403867194
40
0.705782403867194
40
0.806608461562508
40
0.806608461562508
40
1
40
1
40
1
40
1
41
1
10
86.1436025863638
20
0.326633507827211
30
0
41
1
10
86.1408053195037
20
0.341971645886929
30
0
41
1
10
86.1370544059761
20
0.357904810443074
30
0
41
1
10
86.126527121487
20
0.391658869463896
30
0
41
1
10
86.1197449687277
20
0.409601038259524
30
0
41
1
10
86.1007705253626
20
0.448220111595219
30
0
41
1
10
86.0884794974433
20
0.469151534385247
30
0
41
1
10
86.0628473411545
20
0.502028711115173
30
0
41
1
10
86.0528207175157
20
0.513479457025426
30
0
41
1
10
86.0309757949078
20
0.535204350941541
30
0
41
1
10
86.0189873148142
20
0.545637000401342
30
0
41
1
10
85.9839848674674
20
0.57246666172739
30
0
41
1
10
85.9611894716863
20
0.585650583759644
30
0
41
1
10
85.9404117813218
20
0.595693556720619
30
0
0
SPLINE
5
1D6
100
AcDbEntity
8
1
62
256
6
ByLayer
370
-1
48
1
60
0
100
AcDbSpline
70
4
71
3
72
16
73
12
40
0
40
0
40
0
40
0
40
0.25
40
0.25
40
0.5
40
0.5
40
0.75
40
0.75
40
0.875
40
0.875
40
1
40
1
40
1
40
1
41
1
10
86.2272611569025
20
-0.132088083284202
30
0
41
1
10
86.2323119651936
20
-0.159782972173389
30
0
41
1
10
86.2378759511291
20
-0.188658683294079
30
0
41
1
10
86.2505884826631
20
-0.249841852332764
30
0
41
1
10
86.2577161890234
20
-0.282124459847722
30
0
41
1
10
86.2748639579073
20
-0.35302981412832
30
0
41
1
10
86.2848570333585
20
-0.391625870125608
30
0
41
1
10
86.3038238718345
20
-0.457118060992883
30
0
41
1
10
86.310847506384
20
-0.480296680356872
30
0
41
1
10
86.3263822124372
20
-0.528791396767303
30
0
41
1
10
86.3350799161491
20
-0.554653778692796
30
0
41
1
10
86.3444240321697
20
-0.580955481902038
30
0
0
SPLINE
5
1D7
100
AcDbEntity
8
1
62
256
6
ByLayer
370
-1
48
1
60
0
100
AcDbSpline
70
4
71
3
72
12
73
8
40
0
40
0
40
0
40
0
40
0.126690309034523
40
0.323314059973655
40
0.71656156185192
40
0.913185312791052
40
1
40
1
40
1
40
1
41
1
10
79.2789539002642
20
10.1764469896739
30
0
41
1
10
79.2788098321691
20
10.1735028805324
30
0
41
1
10
79.278458060801
20
10.1659853026514
30
0
41
1
10
79.2778725671875
20
10.149322685492
30
0
41
1
10
79.2777436784846
20
10.1310113687261
30
0
41
1
10
79.2780947599185
20
10.1152706325811
30
0
41
1
10
79.2782919002406
20
10.1086787474875
30
0
41
1
10
79.278355204531
20
10.1066597733797
30
0
0
SPLINE
5
1D8
100
AcDbEntity
8
1
62
256
6
ByLayer
370
-1
48
1
60
0
100
AcDbSpline
70
4
71
3
72
41
73
37
40
0
40
0
40
0
40
0
40
0.0080831369865558
40
0.0179214742470046
40
0.0277598115074535
40
0.0671131605492487
40
0.106466509591044
40
0.185173207674634
40
0.22452655671643
40
0.244203231237327
40
0.258960737128001
40
0.263879905758225
40
0.273718243018674
40
0.283556580279123
40
0.293394917539571
40
0.30323325480002
40
0.322909929320918
40
0.342586603841815
40
0.421293301925406
40
0.500000000008996
40
0.578706698092586
40
0.657413396176177
40
0.677090070697074
40
0.696766745217972
40
0.706605082478421
40
0.716443419738869
40
0.726281756999318
40
0.736120094259767
40
0.741039262889992
40
0.755796768780665
40
0.775473443301562
40
0.814826792343358
40
0.893533490426948
40
0.972240188510539
40
0.991916863031436
40
1
40
1
40
1
40
1
41
1
10
79.7206110531492
20
10.7414628414966
30
0
41
1
10
79.7188402412004
20
10.7412366561862
30
0
41
1
10
79.7149412000504
20
10.7407290127386
30
0
41
1
10
79.7089742062835
20
10.7398984310763
30
0
41
1
10
79.6963604083625
20
10.7379901875351
30
0
41
1
10
79.6773656002554
20
10.7344499459604
30
0
41
1
10
79.6434696159214
20
10.7262336479606
30
0
41
1
10
79.6095075297193
20
10.7151420164142
30
0
41
1
10
79.5801634049096
20
10.7027761508175
30
0
41
1
10
79.5646051490979
20
10.6954475373174
30
0
41
1
10
79.5563673952962
20
10.6913212522161
30
0
41
1
10
79.5502178858133
20
10.6881336742287
30
0
41
1
10
79.5451119438757
20
10.6854194091555
30
0
41
1
10
79.5390167184455
20
10.6820698589881
30
0
41
1
10
79.5329554639275
20
10.6786281647959
30
0
41
1
10
79.5249218404769
20
10.6739167645795
30
0
41
1
10
79.5149750685326
20
10.6677985945201
30
0
41
1
10
79.4914406957284
20
10.6523870519277
30
0
41
1
10
79.4575301470618
20
10.6265572671299
30
0
41
1
10
79.4162199358916
20
10.5869588429128
30
0
41
1
10
79.3797499430073
20
10.5428296009947
30
0
41
1
10
79.3564466092643
20
10.5070706447637
30
0
41
1
10
79.3427727859884
20
10.4824288671476
30
0
41
1
10
79.3373865959915
20
10.4720416405719
30
0
41
1
10
79.3332649543802
20
10.4636683235746
30
0
41
1
10
79.3302675205064
20
10.4573586569094
30
0
41
1
10
79.3273640261085
20
10.4510214002784
30
0
41
1
10
79.3250228487913
20
10.4457191022402
30
0
41
1
10
79.3222841038298
20
10.4393387855467
30
0
41
1
10
79.3187581703203
20
10.4308018731714
30
0
41
1
10
79.3125605176715
20
10.4147110130125
30
0
41
1
10
79.3023186586
20
10.3844639530927
30
0
41
1
10
79.291501866947
20
10.3409858493317
30
0
41
1
10
79.2860459596885
20
10.3022557047363
30
0
41
1
10
79.2843734344306
20
10.2792633322933
30
0
41
1
10
79.2840133045749
20
10.2731606846929
30
0
41
1
10
79.2839120544447
20
10.2713716607307
30
0
0
SPLINE
5
1D9
100
AcDbEntity
8
1
62
256
6
ByLayer
370
-1
48
1
60
0
100
AcDbSpline
70
4
71
3
72
12
73
8
40
0
40
0
40
0
40
0
40
0.0366937705554764
40
0.110794249743517
40
0.407196166495678
40
0.703598083247839
40
1
40
1
40
1
40
1
41
1
10
80.1723475368527
20
3.50368968714113
30
0
41
1
10
80.2084394316671
20
3.5049632820554
30
0
41
1
10
80.3174138037289
20
3.50876815457332
30
0
41
1
10
80.7179260543293
20
3.52282488794347
30
0
41
1
10
81.373880845806
20
3.5458051310184
30
0
41
1
10
82.2484886323633
20
3.57646768814649
30
0
41
1
10
82.8315603256067
20
3.59690677724817
30
0
41
1
10
83.1230961722285
20
3.607126321799
30
0
0
SPLINE
5
1DA
100
AcDbEntity
8
1
62
256
6
ByLayer
370
-1
48
1
60
0
100
AcDbSpline
70
4
71
3
72
36
73
32
40
0
40
0
40
0
40
0
40
0.0625
40
0.125
40
0.140625
40
0.15625
40
0.1875
40
0.25
40
0.3125
40
0.34375
40
0.375
40
0.4375
40
0.453125
40
0.46875
40
0.5
40
0.5625
40
0.625
40
0.6875
40
0.75
40
0.78125
40
0.796875
40
0.8125
40
0.875
40
0.9375
40
0.953125
40
0.9609375
40
0.96484375
40
0.96875
40
0.9765625
40
0.984375
40
1
40
1
40
1
40
1
41
1
10
82.8706714551425
20
10.8632361436926
30
0
41
1
10
82.8716681581128
20
10.8433677144039
30
0
41
1
10
82.8736615640532
20
10.8036308558266
30
0
41
1
10
82.8759018678592
20
10.7589147397316
30
0
41
1
10
82.8774014780685
20
10.7291363961897
30
0
41
1
10
82.8783890748009
20
10.7092779051155
30
0
41
1
10
82.8800217259179
20
10.6743225672541
30
0
41
1
10
82.8820895997367
20
10.6238764426723
30
0
41
1
10
82.883787795196
20
10.5733404360383
30
0
41
1
10
82.8848833688883
20
10.5332186511588
30
0
41
1
10
82.8859754393747
20
10.4930037061802
30
0
41
1
10
82.8869316705836
20
10.4578307423872
30
0
41
1
10
82.8877483460965
20
10.4276965465571
30
0
41
1
10
82.8882999477666
20
10.4076271562328
30
0
41
1
10
82.8891490710217
20
10.3729302477655
30
0
41
1
10
82.8900242778783
20
10.3233102541093
30
0
41
1
10
82.890509010439
20
10.2649968156634
30
0
41
1
10
82.8904080979393
20
10.2087906278527
30
0
41
1
10
82.8898465539319
20
10.1643666602762
30
0
41
1
10
82.8892143472814
20
10.1349376469015
30
0
41
1
10
82.8887794616765
20
10.1185338594957
30
0
41
1
10
82.8881288839096
20
10.0937107564512
30
0
41
1
10
82.8871510099934
20
10.0565473288215
30
0
41
1
10
82.8861749533677
20
10.0193657625074
30
0
41
1
10
82.8855767901998
20
9.9966302861344
30
0
41
1
10
82.885388002995
20
9.98941324775049
30
0
41
1
10
82.8852775564284
20
9.98526086745221
30
0
41
1
10
82.8851662427028
20
9.98117976696059
30
0
41
1
10
82.8850740042741
20
9.97578497415017
30
0
41
1
10
82.8850729919726
20
9.96632116432994
30
0
41
1
10
82.8852391458526
20
9.95869393785671
30
0
41
1
10
82.8854118912574
20
9.95372826079051
30
0
0
SPLINE
5
1DB
100
AcDbEntity
8
1
62
256
6
ByLayer
370
-1
48
1
60
0
100
AcDbSpline
70
4
71
3
72
8
73
4
40
0
40
0
40
0
40
0
40
1
40
1
40
1
40
1
41
1
10
86.7141752940335
20
4.39985566455621
30
0
41
1
10
86.7145945131915
20
4.38780494192662
30
0
41
1
10
86.7149918665235
20
4.37575345280885
30
0
41
1
10
86.715367351393
20
4.36370127716538
30
0
0
SPLINE
5
1DC
100
AcDbEntity
8
1
62
256
6
ByLayer
370
-1
48
1
60
0
100
AcDbSpline
70
4
71
3
72
12
73
8
40
0
40
0
40
0
40
0
40
0.0366937705554793
40
0.110794249743519
40
0.40719616649568
40
0.70359808324784
40
1
40
1
40
1
40
1
41
1
10
86.7141759073911
20
4.39985568620008
30
0
41
1
10
86.7129071588899
20
4.43608544618937
30
0
41
1
10
86.7091167650607
20
4.54547608264889
30
0
41
1
10
86.6951135218048
20
4.94751822498068
30
0
41
1
10
86.6722207254928
20
5.60597865719652
30
0
41
1
10
86.6416748486518
20
6.48392730341266
30
0
41
1
10
86.6213135364549
20
7.06922623580047
30
0
41
1
10
86.6111328803564
20
7.36187570199436
30
0
0
SPLINE
5
1DD
100
AcDbEntity
8
1
62
256
6
ByLayer
370
-1
48
1
60
0
100
AcDbSpline
70
4
71
3
72
14
73
10
40
0
40
0
40
0
40
0
40
0.0868146872094566
40
0.28343843814602
40
0.480062189082583
40
0.676685940019147
40
0.87330969095571
40
0.971621566423992
40
1
40
1
40
1
40
1
41
1
10
86.506812274635
20
10.3600472724393
30
0
41
1
10
86.5067351241304
20
10.3620657611798
30
0
41
1
10
86.5064737073484
20
10.3686553931161
30
0
41
1
10
86.5059461644832
20
10.3798126023941
30
0
41
1
10
86.5050295701157
20
10.3935112124472
30
0
41
1
10
86.5038510519129
20
10.4071898729625
30
0
41
1
10
86.5026560651389
20
10.4185644165585
30
0
41
1
10
86.5017904124404
20
10.4260396434277
30
0
41
1
10
86.5014434718814
20
10.4289669584136
30
0
41
1
10
86.501365451802
20
10.4296225681524
30
0
0
SPLINE
5
1DE
100
AcDbEntity
8
1
62
256
6
ByLayer
370
-1
48
1
60
0
100
AcDbSpline
70
4
71
3
72
36
73
32
40
0
40
0
40
0
40
0
40
0.015625
40
0.0234375
40
0.03125
40
0.03515625
40
0.0390625
40
0.046875
40
0.0625
40
0.125
40
0.1875
40
0.203125
40
0.21875
40
0.25
40
0.3125
40
0.375
40
0.4375
40
0.5
40
0.53125
40
0.546875
40
0.5625
40
0.625
40
0.65625
40
0.6875
40
0.75
40
0.8125
40
0.84375
40
0.859375
40
0.875
40
0.9375
40
1
40
1
40
1
40
1
41
1
10
83.0745568963036
20
4.51663420470109
30
0
41
1
10
83.0747296417085
20
4.5116685276349
30
0
41
1
10
83.0750941579897
20
4.50404130116169
30
0
41
1
10
83.0757536221547
20
4.49457749134143
30
0
41
1
10
83.0762212074516
20
4.48918269853101
30
0
41
1
10
83.0766164668898
20
4.48510159803939
30
0
41
1
10
83.0770158185165
20
4.48094921774111
30
0
41
1
10
83.0777067367301
20
4.4737321793572
30
0
41
1
10
83.079886738192
20
4.45099670298418
30
0
41
1
10
83.0834497309552
20
4.41381513667011
30
0
41
1
10
83.0870132789959
20
4.37665170904037
30
0
41
1
10
83.0893909432917
20
4.35182860599588
30
0
41
1
10
83.0909671350501
20
4.3354248185901
30
0
41
1
10
83.0936468879913
20
4.30599580521542
30
0
41
1
10
83.0972992637866
20
4.26157183763891
30
0
41
1
10
83.1013107651294
20
4.20536564982817
30
0
41
1
10
83.104883234999
20
4.14705221138229
30
0
41
1
10
83.1074603774503
20
4.09743221772612
30
0
41
1
10
83.1090253183476
20
4.06273530925878
30
0
41
1
10
83.1098700599796
20
4.04266591893455
30
0
41
1
10
83.1111499943704
20
4.01253172310439
30
0
41
1
10
83.11264094923
20
3.97735875931144
30
0
41
1
10
83.1143468645399
20
3.93714381433284
30
0
41
1
10
83.1160427949582
20
3.8970220294533
30
0
41
1
10
83.1178606811157
20
3.84648602281936
30
0
41
1
10
83.1193026353007
20
3.79603989823755
30
0
41
1
10
83.1201020287604
20
3.76108456037613
30
0
41
1
10
83.1204961018523
20
3.74122606930189
30
0
41
1
10
83.1210683428493
20
3.71144772576002
30
0
41
1
10
83.1219391972896
20
3.66673160966496
30
0
41
1
10
83.1227105139155
20
3.62699475108766
30
0
41
1
10
83.1230961722285
20
3.607126321799
30
0
0
SPLINE
5
1DF
100
AcDbEntity
8
1
62
256
6
ByLayer
370
-1
48
1
60
0
100
AcDbSpline
70
4
71
3
72
14
73
10
40
0
40
0
40
0
40
0
40
0.0128443058603011
40
0.0848398580565359
40
0.228830962449006
40
0.372822066841475
40
0.660804275626414
40
0.948786484411354
40
1
40
1
40
1
40
1
41
1
10
79.972247006942
20
3.50802652458094
30
0
41
1
10
79.9726340035189
20
3.50800445479584
30
0
41
1
10
79.9751939506766
20
3.50785980786887
30
0
41
1
10
79.9821687616064
20
3.50748636843164
30
0
41
1
10
79.9935002934163
20
3.50688903496254
30
0
41
1
10
80.0119402218103
20
3.50592480125803
30
0
41
1
10
80.0347133061002
20
3.50472711247613
30
0
41
1
10
80.054472067126
20
3.50367060163887
30
0
41
1
10
80.0651914878295
20
3.50312926086767
30
0
41
1
10
80.0668104609549
20
3.50304943105766
30
0
0
SPLINE
5
1E0
100
AcDbEntity
8
1
62
256
6
ByLayer
370
-1
48
1
60
0
100
AcDbSpline
70
4
71
3
72
41
73
37
40
0
40
0
40
0
40
0
40
0.0080831369865503
40
0.0179214742469991
40
0.027759811507448
40
0.0671131605492434
40
0.106466509591039
40
0.18517320767463
40
0.224526556716425
40
0.244203231237323
40
0.258960737127996
40
0.263879905758221
40
0.273718243018669
40
0.283556580279118
40
0.293394917539567
40
0.303233254800016
40
0.322909929320914
40
0.342586603841811
40
0.421293301925402
40
0.500000000008992
40
0.578706698092583
40
0.657413396176174
40
0.677090070697072
40
0.696766745217969
40
0.706605082478418
40
0.716443419738867
40
0.726281756999316
40
0.736120094259765
40
0.741039262889989
40
0.755796768780662
40
0.77547344330156
40
0.814826792343356
40
0.893533490426946
40
0.972240188510537
40
0.991916863031435
40
1
40
1
40
1
40
1
41
1
10
86.2731565742218
20
3.72889962399495
30
0
41
1
10
86.2749273861706
20
3.7291258093054
30
0
41
1
10
86.2788264273206
20
3.72963345275303
30
0
41
1
10
86.2847934210876
20
3.73046403441524
30
0
41
1
10
86.2974072190086
20
3.73237227795653
30
0
41
1
10
86.3164020271157
20
3.73591251953121
30
0
41
1
10
86.3502980114497
20
3.74412881753099
30
0
41
1
10
86.3842600976517
20
3.75522044907737
30
0
41
1
10
86.4136042224614
20
3.76758631467405
30
0
41
1
10
86.4291624782732
20
3.77491492817421
30
0
41
1
10
86.4374002320748
20
3.77904121327549
30
0
41
1
10
86.4435497415578
20
3.78222879126284
30
0
41
1
10
86.4486556834953
20
3.78494305633612
30
0
41
1
10
86.4547509089256
20
3.78829260650346
30
0
41
1
10
86.4608121634435
20
3.79173430069565
30
0
41
1
10
86.4688457868941
20
3.79644570091207
30
0
41
1
10
86.4787925588385
20
3.80256387097145
30
0
41
1
10
86.5023269316426
20
3.81797541356391
30
0
41
1
10
86.5362374803092
20
3.84380519836165
30
0
41
1
10
86.5775476914794
20
3.88340362257878
30
0
41
1
10
86.6140176843638
20
3.9275328644969
30
0
41
1
10
86.6373210181067
20
3.96329182072787
30
0
41
1
10
86.6509948413826
20
3.98793359834397
30
0
41
1
10
86.6563810313796
20
3.99832082491975
30
0
41
1
10
86.6605026729908
20
4.00669414191702
30
0
41
1
10
86.6635001068647
20
4.01300380858214
30
0
41
1
10
86.6664036012626
20
4.01934106521321
30
0
41
1
10
86.6687447785797
20
4.02464336325139
30
0
41
1
10
86.6714835235412
20
4.03102367994489
30
0
41
1
10
86.6750094570507
20
4.03956059232019
30
0
41
1
10
86.6812071096995
20
4.05565145247908
30
0
41
1
10
86.6914489687711
20
4.08589851239884
30
0
41
1
10
86.702265760424
20
4.12937661615985
30
0
41
1
10
86.7077216676826
20
4.16810676075528
30
0
41
1
10
86.7093941929405
20
4.19109913319824
30
0
41
1
10
86.7097543227961
20
4.19720178079868
30
0
41
1
10
86.7098555729264
20
4.19899080476085
30
0
0
SPLINE
5
1E1
100
AcDbEntity
8
1
62
256
6
ByLayer
370
-1
48
1
60
0
100
AcDbSpline
70
4
71
3
72
14
73
10
40
0
40
0
40
0
40
0
40
0.012844305860455
40
0.0848398580566807
40
0.228830962449132
40
0.372822066841583
40
0.660804275626486
40
0.948786484411389
40
1
40
1
40
1
40
1
41
1
10
86.709855572927
20
4.19899080477282
30
0
41
1
10
86.7098775587299
20
4.19937927961382
30
0
41
1
10
86.7100216552317
20
4.20194900535381
30
0
41
1
10
86.7103936736191
20
4.20895045892829
30
0
41
1
10
86.710988734054
20
4.22032527534873
30
0
41
1
10
86.7119492985582
20
4.23883564127354
30
0
41
1
10
86.7131424297727
20
4.26169571504579
30
0
41
1
10
86.7141949202672
20
4.28152995132871
30
0
41
1
10
86.7147342010734
20
4.29229031847788
30
0
41
1
10
86.7148137271068
20
4.29391547581767
30
0
0
SPLINE
5
1E2
100
AcDbEntity
8
1
62
256
6
ByLayer
370
-1
48
1
60
0
100
AcDbSpline
70
4
71
3
72
8
73
4
40
0
40
0
40
0
40
0
40
1
40
1
40
1
40
1
41
1
10
86.1098571721355
20
3.71189065185598
30
0
41
1
10
86.0978538744879
20
3.7114259339574
30
0
41
1
10
86.0858497336151
20
3.71098316261154
30
0
41
1
10
86.0738448291659
20
3.7105623407563
30
0
0
SPLINE
5
1E3
100
AcDbEntity
8
1
62
256
6
ByLayer
370
-1
48
1
60
0
100
AcDbSpline
70
4
71
3
72
14
73
10
40
0
40
0
40
0
40
0
40
0.0128443058604671
40
0.0848398580566915
40
0.228830962449141
40
0.372822066841589
40
0.660804275626487
40
0.948786484411385
40
1
40
1
40
1
40
1
41
1
10
79.283912054444
20
10.2713716607188
30
0
41
1
10
79.2838900686411
20
10.2709831858778
30
0
41
1
10
79.2837459721393
20
10.2684134601378
30
0
41
1
10
79.2833739537519
20
10.2614120065633
30
0
41
1
10
79.282778893317
20
10.2500371901428
30
0
41
1
10
79.2818183288128
20
10.2315268242181
30
0
41
1
10
79.2806251975984
20
10.2086667504458
30
0
41
1
10
79.2795727071039
20
10.1888325141629
30
0
41
1
10
79.2790334262976
20
10.1780721470137
30
0
41
1
10
79.2789539002642
20
10.1764469896739
30
0
0
SPLINE
5
1E4
100
AcDbEntity
8
1
62
256
6
ByLayer
370
-1
48
1
60
0
100
AcDbSpline
70
4
71
3
72
77
73
73
40
0
40
0
40
0
40
0
40
0.125
40
0.25
40
0.375
40
0.40625
40
0.421875
40
0.423828125
40
0.42578125
40
0.427734375
40
0.4296875
40
0.43359375
40
0.435546875
40
0.4375
40
0.44140625
40
0.4453125
40
0.447265625
40
0.44921875
40
0.4501953125
40
0.451171875
40
0.453125
40
0.4609375
40
0.46875
40
0.47265625
40
0.474609375
40
0.47607421875
40
0.4765625
40
0.4775390625
40
0.478515625
40
0.4794921875
40
0.48046875
40
0.482421875
40
0.484375
40
0.4921875
40
0.5
40
0.5078125
40
0.515625
40
0.517578125
40
0.51953125
40
0.5205078125
40
0.521484375
40
0.5224609375
40
0.5234375
40
0.52392578125
40
0.525390625
40
0.52734375
40
0.53125
40
0.5390625
40
0.54296875
40
0.546875
40
0.5478515625
40
0.548828125
40
0.5498046875
40
0.55078125
40
0.552734375
40
0.5546875
40
0.55859375
40
0.560546875
40
0.5625
40
0.5634765625
40
0.564453125
40
0.56640625
40
0.568359375
40
0.5703125
40
0.572265625
40
0.57421875
40
0.578125
40
0.59375
40
0.625
40
0.75
40
0.875
40
1
40
1
40
1
40
1
41
1
10
80.2717822579293
20
7.14024747862698
30
0
41
1
10
80.2639944785061
20
7.36411217546035
30
0
41
1
10
80.2484189196596
20
7.81184156912707
30
0
41
1
10
80.2250555813899
20
8.48343565962716
30
0
41
1
10
80.2075330776876
20
8.98713122750226
30
0
41
1
10
80.1968248809807
20
9.29494518564812
30
0
41
1
10
80.1937827796435
20
9.38239233284867
30
0
41
1
10
80.1925659391086
20
9.41737119172888
30
0
41
1
10
80.1922008869481
20
9.42786484939293
30
0
41
1
10
80.1918358347876
20
9.43835850705702
30
0
41
1
10
80.1913490985737
20
9.45235005060908
30
0
41
1
10
80.1908623623598
20
9.46634159416118
30
0
41
1
10
80.1903756261458
20
9.48033313771327
30
0
41
1
10
80.1898888899319
20
9.49432468126534
30
0
41
1
10
80.1892804696644
20
9.51181411070544
30
0
41
1
10
80.1886715518325
20
9.52930334889811
30
0
41
1
10
80.1881838204896
20
9.54329450995533
30
0
41
1
10
80.1878786774225
20
9.55203886608641
30
0
41
1
10
80.1876343390648
20
9.55903426492995
30
0
41
1
10
80.1873898389986
20
9.56602960161806
30
0
41
1
10
80.1867167454579
20
9.58526650139686
30
0
41
1
10
80.1856108415839
20
9.61674334344431
30
0
41
1
10
80.184403554287
20
9.65172587427543
30
0
41
1
10
80.1835852022453
20
9.67622392731968
30
0
41
1
10
80.1831306782768
20
9.68934168789056
30
0
41
1
10
80.1828723832356
20
9.69633172224331
30
0
41
1
10
80.18266836237
20
9.70157028918587
30
0
41
1
10
80.1824911800536
20
9.70593300767482
30
0
41
1
10
80.1823389793952
20
9.71102843662669
30
0
41
1
10
80.1823190788649
20
9.71584860544991
30
0
41
1
10
80.1824882565355
20
9.72216589026806
30
0
41
1
10
80.1831028972194
20
9.73033962056439
30
0
41
1
10
80.1859468765201
20
9.75045018300898
30
0
41
1
10
80.1956411347641
20
9.7809926083923
30
0
41
1
10
80.2208525917783
20
9.81794144511977
30
0
41
1
10
80.2558125016766
20
9.84576497793
30
0
41
1
10
80.2854883499402
20
9.85760309362965
30
0
41
1
10
80.3052751977517
20
9.86185382413669
30
0
41
1
10
80.3133551143402
20
9.86303948029806
30
0
41
1
10
80.3196212287145
20
9.86364956202991
30
0
41
1
10
80.3244127465226
20
9.86396587212462
30
0
41
1
10
80.3294870378336
20
9.8641689014097
30
0
41
1
10
80.3338349275525
20
9.86429580339924
30
0
41
1
10
80.3390550796157
20
9.86445692604747
30
0
41
1
10
80.3460195699506
20
9.86468587610611
30
0
41
1
10
80.3590872868613
20
9.86514577607761
30
0
41
1
10
80.3834897538296
20
9.86603519693719
30
0
41
1
10
80.4113687429728
20
9.86702024588124
30
0
41
1
10
80.4392437055153
20
9.86799203443405
30
0
41
1
10
80.4549228965828
20
9.8685371000322
30
0
41
1
10
80.4653759236488
20
9.86890124448135
30
0
41
1
10
80.4706024808731
20
9.86908346059039
30
0
41
1
10
80.4758290788761
20
9.86926581099158
30
0
41
1
10
80.4827979267013
20
9.86950911112632
30
0
41
1
10
80.4915090738657
20
9.86981352406363
30
0
41
1
10
80.5054470646759
20
9.87030109635251
30
0
41
1
10
80.5193852419028
20
9.8707892825484
30
0
41
1
10
80.5333235123381
20
9.87127777569779
30
0
41
1
10
80.5420349507785
20
9.87158314786478
30
0
41
1
10
80.5490041015308
20
9.8718274455984
30
0
41
1
10
80.5559732522833
20
9.87207174333201
30
0
41
1
10
80.5646846907237
20
9.87237711549903
30
0
41
1
10
80.5751384168522
20
9.87274356209943
30
0
41
1
10
80.5855921429807
20
9.87311000869985
30
0
41
1
10
80.5960458691093
20
9.87347645530025
30
0
41
1
10
80.609984170614
20
9.87396505076748
30
0
41
1
10
80.6483144997519
20
9.87530868830231
30
0
41
1
10
80.7389134595325
20
9.87848455883923
30
0
41
1
10
81.045556092636
20
9.88923365911799
30
0
41
1
10
81.5473349468056
20
9.90682309593777
30
0
41
1
10
82.2163734190315
20
9.93027567836413
30
0
41
1
10
82.6623990671822
20
9.94591073331506
30
0
41
1
10
82.8854118912574
20
9.95372826079051
30
0
0
SPLINE
5
1E5
100
AcDbEntity
8
1
62
256
6
ByLayer
370
-1
48
1
60
0
100
AcDbSpline
70
4
71
3
72
12
73
8
40
0
40
0
40
0
40
0
40
0.296401916752163
40
0.592803833504326
40
0.889205750256489
40
0.96330622944453
40
1
40
1
40
1
40
1
41
1
10
82.8706714551425
20
10.8632361436926
30
0
41
1
10
82.5791356085208
20
10.8530165991418
30
0
41
1
10
81.9960639152773
20
10.8325775100401
30
0
41
1
10
81.1214558566745
20
10.8019227730316
30
0
41
1
10
80.4655020173569
20
10.778915159538
30
0
41
1
10
80.0649885775988
20
10.7648926092665
30
0
41
1
10
79.9560152571227
20
10.7610575082462
30
0
41
1
10
79.9199227769285
20
10.7598007404458
30
0
0
SPLINE
5
1E6
100
AcDbEntity
8
1
62
256
6
ByLayer
370
-1
48
1
60
0
100
AcDbSpline
70
4
71
3
72
8
73
4
40
0
40
0
40
0
40
0
40
1
40
1
40
1
40
1
41
1
10
79.2795923333376
20
10.0705068009354
30
0
41
1
10
79.2791731141795
20
10.082557523565
30
0
41
1
10
79.2787757608475
20
10.0946090126827
30
0
41
1
10
79.278400275978
20
10.1066611883262
30
0
0
SPLINE
5
1E7
100
AcDbEntity
8
1
62
256
6
ByLayer
370
-1
48
1
60
0
100
AcDbSpline
70
4
71
3
72
41
73
37
40
0
40
0
40
0
40
0
40
0.0080831369865713
40
0.0179214742470199
40
0.0277598115074684
40
0.0671131605492627
40
0.106466509591057
40
0.185173207674645
40
0.22452655671644
40
0.244203231237337
40
0.25896073712801
40
0.263879905758234
40
0.273718243018682
40
0.283556580279131
40
0.29339491753958
40
0.303233254800028
40
0.322909929320925
40
0.342586603841822
40
0.421293301925411
40
0.500000000008999
40
0.578706698092588
40
0.657413396176176
40
0.677090070697074
40
0.696766745217971
40
0.706605082478419
40
0.716443419738868
40
0.726281756999316
40
0.736120094259765
40
0.741039262889989
40
0.755796768780662
40
0.775473443301559
40
0.814826792343353
40
0.893533490426942
40
0.97224018851053
40
0.991916863031427
40
1
40
1
40
1
40
1
41
1
10
79.5039446650313
20
3.9463936425166
30
0
41
1
10
79.5041699896384
20
3.94461606635386
30
0
41
1
10
79.5046757013495
20
3.94070213150005
30
0
41
1
10
79.5055031223977
20
3.93471234478628
30
0
41
1
10
79.5074041044962
20
3.9220503642064
30
0
41
1
10
79.5109308743828
20
3.90298299901815
30
0
41
1
10
79.5191159068881
20
3.86895753753063
30
0
41
1
10
79.5301653314278
20
3.83486572167661
30
0
41
1
10
79.5424841411726
20
3.80540950707734
30
0
41
1
10
79.5497848670858
20
3.78979182125596
30
0
41
1
10
79.5538954504265
20
3.78152260057303
30
0
41
1
10
79.5570708987173
20
3.7753496009629
30
0
41
1
10
79.5597748351925
20
3.77022415515665
30
0
41
1
10
79.5631116393102
20
3.76410564695541
30
0
41
1
10
79.5665402368169
20
3.75802123942992
30
0
41
1
10
79.5712337087331
20
3.74995692884286
30
0
41
1
10
79.5773285973083
20
3.73997216184563
30
0
41
1
10
79.5926814943283
20
3.71634789156067
30
0
41
1
10
79.6184129889966
20
3.6823078101072
30
0
41
1
10
79.6578607292545
20
3.6408398006414
30
0
41
1
10
79.7018220460842
20
3.60423049830899
30
0
41
1
10
79.7374449286908
20
3.58083814961697
30
0
41
1
10
79.7619929369035
20
3.56711209455753
30
0
41
1
10
79.7723406369461
20
3.5617053301898
30
0
41
1
10
79.7806820909443
20
3.55756794457721
30
0
41
1
10
79.7869677474228
20
3.55455906099294
30
0
41
1
10
79.7932808888791
20
3.55164447571812
30
0
41
1
10
79.7985630100724
20
3.54929435548397
30
0
41
1
10
79.8049190477346
20
3.5465451489616
30
0
41
1
10
79.813423474581
20
3.54300574695893
30
0
41
1
10
79.829453104159
20
3.53678442028385
30
0
41
1
10
79.859585064884
20
3.52650343897454
30
0
41
1
10
79.9028977213337
20
3.51564532893468
30
0
41
1
10
79.941480486036
20
3.51016858099678
30
0
41
1
10
79.9643853655602
20
3.5084896669641
30
0
41
1
10
79.9704647907441
20
3.50812816147089
30
0
41
1
10
79.97224700693
20
3.50802652458162
30
0
0
SPLINE
5
1E8
100
AcDbEntity
8
1
62
256
6
ByLayer
370
-1
48
1
60
0
100
AcDbSpline
70
4
71
3
72
12
73
8
40
0
40
0
40
0
40
0
40
0.29640191675216
40
0.59280383350432
40
0.88920575025648
40
0.96330622944452
40
1
40
1
40
1
40
1
41
1
10
79.3826347470146
20
7.10848676349724
30
0
41
1
10
79.392815403113
20
6.81583729730332
30
0
41
1
10
79.41317671531
20
6.23053836491553
30
0
41
1
10
79.4437148017892
20
5.3525894456148
30
0
41
1
10
79.4666348643673
20
4.69412996919505
30
0
41
1
10
79.4806040546014
20
4.29208663316311
30
0
41
1
10
79.4844245619046
20
4.18269705230617
30
0
41
1
10
79.485676547324
20
4.14646670470114
30
0
0
SPLINE
5
1E9
100
AcDbEntity
8
1
62
256
6
ByLayer
370
-1
48
1
60
0
100
AcDbSpline
70
4
71
3
72
15
73
11
40
0
40
0
40
0
40
0
40
0.0512135155738352
40
0.19520461994848
40
0.339195724323124
40
0.627177933072413
40
0.771169037447058
40
0.915160141821702
40
0.987155694009024
40
1
40
1
40
1
40
1
41
1
10
79.8145982919883
20
10.7530494213936
30
0
41
1
10
79.812988810056
20
10.7528564207997
30
0
41
1
10
79.8068565393733
20
10.7521136743398
30
0
41
1
10
79.7962211787877
20
10.7508071379742
30
0
41
1
10
79.7781690316841
20
10.7485704079449
30
0
41
1
10
79.7600615264241
20
10.7463388804184
30
0
41
1
10
79.7417335223615
20
10.7440857776841
30
0
41
1
10
79.7304711029112
20
10.7426964322063
30
0
41
1
10
79.7235392329571
20
10.7418355057358
30
0
41
1
10
79.720995573362
20
10.7415119561549
30
0
41
1
10
79.7206110531374
20
10.7414628414951
30
0
0
SPLINE
5
1EA
100
AcDbEntity
8
1
62
256
6
ByLayer
370
-1
48
1
60
0
100
AcDbSpline
70
4
71
3
72
14
73
10
40
0
40
0
40
0
40
0
40
0.0868146872097133
40
0.2834384381462
40
0.480062189082686
40
0.676685940019172
40
0.873309690955659
40
0.971621566423902
40
1
40
1
40
1
40
1
41
1
10
79.8839088326959
20
10.7585170502049
30
0
41
1
10
79.8818980249144
20
10.7584396049979
30
0
41
1
10
79.8753334685172
20
10.7581771896463
30
0
41
1
10
79.8642187157889
20
10.757647631653
30
0
41
1
10
79.8505722330827
20
10.7567275360439
30
0
41
1
10
79.8369456240004
20
10.755544516093
30
0
41
1
10
79.8256143639768
20
10.7543449646638
30
0
41
1
10
79.8181675826028
20
10.7534760053125
30
0
41
1
10
79.8152514069341
20
10.753127739497
30
0
41
1
10
79.8145982919883
20
10.7530494213936
30
0
0
SPLINE
5
1EB
100
AcDbEntity
8
1
62
256
6
ByLayer
370
-1
48
1
60
0
100
AcDbSpline
70
4
71
3
72
36
73
32
40
0
40
0
40
0
40
0
40
0.015625
40
0.0234375
40
0.03125
40
0.03515625
40
0.0390625
40
0.046875
40
0.0625
40
0.125
40
0.1875
40
0.203125
40
0.21875
40
0.25
40
0.3125
40
0.375
40
0.4375
40
0.5
40
0.53125
40
0.546875
40
0.5625
40
0.625
40
0.65625
40
0.6875
40
0.75
40
0.8125
40
0.84375
40
0.859375
40
0.875
40
0.9375
40
1
40
1
40
1
40
1
41
1
10
80.2717822579293
20
7.14024747862698
30
0
41
1
10
80.2668354767636
20
7.14007407336277
30
0
41
1
10
80.2593364553904
20
7.13980772474525
30
0
41
1
10
80.2502388964569
20
7.139477241224
30
0
41
1
10
80.2451445443247
20
7.1392888509078
30
0
41
1
10
80.2413322602345
20
7.13914633573827
30
0
41
1
10
80.2374505800935
20
7.13900133142303
30
0
41
1
10
80.2307008574288
20
7.1387493068892
30
0
41
1
10
80.2094409787222
20
7.13795536655951
30
0
41
1
10
80.1746704241879
20
7.13665695765292
30
0
41
1
10
80.1399191255987
20
7.13535918216311
30
0
41
1
10
80.1167046029869
20
7.13449234030364
30
0
41
1
10
80.1013687756263
20
7.13391950742485
30
0
41
1
10
80.0737077283283
20
7.13289182363243
30
0
41
1
10
80.0315597672616
20
7.13134050450077
30
0
41
1
10
79.9776236678859
20
7.12937774117222
30
0
41
1
10
79.9210759983331
20
7.12734139103
30
0
41
1
10
79.8724957915308
20
7.12560862266935
30
0
41
1
10
79.8382888240965
20
7.12439697992667
30
0
41
1
10
79.8184423738426
20
7.12369614137333
30
0
41
1
10
79.7886544771643
20
7.12264383206693
30
0
41
1
10
79.7538827189429
20
7.12141556510596
30
0
41
1
10
79.7141277263829
20
7.12001122828224
30
0
41
1
10
79.6744587953709
20
7.11861014468087
30
0
41
1
10
79.6241749388486
20
7.11684538844219
30
0
41
1
10
79.573607817184
20
7.1150837709539
30
0
41
1
10
79.5383688661078
20
7.11386310365793
30
0
41
1
10
79.5182891807673
20
7.11316962986868
30
0
41
1
10
79.4881604682068
20
7.112129747198
30
0
41
1
10
79.4429297857508
20
7.11056822601529
30
0
41
1
10
79.40273309326
20
7.10918058433657
30
0
41
1
10
79.3826347470146
20
7.10848676349724
30
0
0
SPLINE
5
1EC
100
AcDbEntity
8
1
62
256
6
ByLayer
370
-1
48
1
60
0
100
AcDbSpline
70
4
71
3
72
12
73
8
40
0
40
0
40
0
40
0
40
0.296401916752159
40
0.592803833504318
40
0.889205750256476
40
0.963306229444516
40
1
40
1
40
1
40
1
41
1
10
83.1230961722285
20
3.607126321799
30
0
41
1
10
83.4146320188502
20
3.61734586634984
30
0
41
1
10
83.9977037120938
20
3.63778495545154
30
0
41
1
10
84.8723117706965
20
3.66843969245997
30
0
41
1
10
85.5282656100141
20
3.6914473059536
30
0
41
1
10
85.9287790497723
20
3.70546985622502
30
0
41
1
10
86.0377523702484
20
3.70930495724539
30
0
41
1
10
86.0738448504426
20
3.71056172504575
30
0
0
SPLINE
5
1ED
100
AcDbEntity
8
1
62
256
6
ByLayer
370
-1
48
1
60
0
100
AcDbSpline
70
4
71
3
72
8
73
4
40
0
40
0
40
0
40
0
40
1
40
1
40
1
40
1
41
1
10
85.8214201120799
20
10.9666721626499
30
0
41
1
10
85.8334249780717
20
10.967092983157
30
0
41
1
10
85.8454306076349
20
10.9674918543143
30
0
41
1
10
85.8574369211115
20
10.9678687734749
30
0
0
SPLINE
5
1EE
100
AcDbEntity
8
1
62
256
6
ByLayer
370
-1
48
1
60
0
100
AcDbSpline
70
4
71
3
72
8
73
4
40
0
40
0
40
0
40
0
40
1
40
1
40
1
40
1
41
1
10
79.4870004171665
20
4.11031682178981
30
0
41
1
10
79.4865374676598
20
4.12236597008439
30
0
41
1
10
79.4860963811926
20
4.13441596482517
30
0
41
1
10
79.4856771606916
20
4.14646672605909
30
0
0
SPLINE
5
1EF
100
AcDbEntity
8
1
62
256
6
ByLayer
370
-1
48
1
60
0
100
AcDbSpline
70
4
71
3
72
12
73
8
40
0
40
0
40
0
40
0
40
0.126690309034452
40
0.323314059973588
40
0.716561561851859
40
0.913185312790995
40
1
40
1
40
1
40
1
41
1
10
85.9269571664161
20
10.9673130344339
30
0
41
1
10
85.9240242604988
20
10.9674576528457
30
0
41
1
10
85.9165352892712
20
10.9678107679233
30
0
41
1
10
85.8999360784006
20
10.9683984980273
30
0
41
1
10
85.8816944417234
20
10.9685278790641
30
0
41
1
10
85.8660136038317
20
10.9681754565561
30
0
41
1
10
85.859446802851
20
10.96797756319
30
0
41
1
10
85.8574355115492
20
10.9679140170876
30
0
0
SPLINE
5
1F0
100
AcDbEntity
8
1
62
256
6
ByLayer
370
-1
48
1
60
0
100
AcDbSpline
70
4
71
3
72
15
73
11
40
0
40
0
40
0
40
0
40
0.0512135155738247
40
0.195204619948486
40
0.339195724323147
40
0.627177933072469
40
0.77116903744713
40
0.915160141821791
40
0.987155694009121
40
1
40
1
40
1
40
1
41
1
10
86.501365451802
20
10.4296225681524
30
0
41
1
10
86.5011731856337
20
10.4312381980443
30
0
41
1
10
86.5004332655483
20
10.4373938930047
30
0
41
1
10
86.499131700948
20
10.44806987894
30
0
41
1
10
86.4969034823517
20
10.4661909823129
30
0
41
1
10
86.4946804464612
20
10.4843676553012
30
0
41
1
10
86.4924359174631
20
10.5027656693618
30
0
41
1
10
86.4910518588643
20
10.5140711094247
30
0
41
1
10
86.490194208479
20
10.5210294579959
30
0
41
1
10
86.4898718901018
20
10.5235828339575
30
0
41
1
10
86.4898229623382
20
10.5239688229869
30
0
0
SPLINE
5
1F1
100
AcDbEntity
8
1
62
256
6
ByLayer
370
-1
48
1
60
0
100
AcDbSpline
70
4
71
3
72
41
73
37
40
0
40
0
40
0
40
0
40
0.0080831369865769
40
0.0179214742470254
40
0.0277598115074739
40
0.0671131605492681
40
0.106466509591062
40
0.185173207674651
40
0.224526556716445
40
0.244203231237342
40
0.258960737128014
40
0.263879905758239
40
0.273718243018687
40
0.283556580279136
40
0.293394917539584
40
0.303233254800033
40
0.32290992932093
40
0.342586603841827
40
0.421293301925415
40
0.500000000009004
40
0.578706698092592
40
0.657413396176181
40
0.677090070697078
40
0.696766745217975
40
0.706605082478423
40
0.716443419738872
40
0.726281756999321
40
0.736120094259769
40
0.741039262889993
40
0.755796768780666
40
0.775473443301563
40
0.814826792343357
40
0.893533490426946
40
0.972240188510534
40
0.991916863031431
40
1
40
1
40
1
40
1
41
1
10
86.4898229623397
20
10.523968822975
30
0
41
1
10
86.4895976377326
20
10.5257463991377
30
0
41
1
10
86.4890919260216
20
10.5296603339915
30
0
41
1
10
86.4882645049734
20
10.5356501207053
30
0
41
1
10
86.4863635228749
20
10.5483121012852
30
0
41
1
10
86.4828367529882
20
10.5673794664734
30
0
41
1
10
86.4746517204829
20
10.6014049279609
30
0
41
1
10
86.4636022959432
20
10.635496743815
30
0
41
1
10
86.4512834861985
20
10.6649529584142
30
0
41
1
10
86.4439827602852
20
10.6805706442356
30
0
41
1
10
86.4398721769445
20
10.6888398649186
30
0
41
1
10
86.4366967286538
20
10.6950128645287
30
0
41
1
10
86.4339927921786
20
10.7001383103349
30
0
41
1
10
86.4306559880608
20
10.7062568185362
30
0
41
1
10
86.4272273905542
20
10.7123412260616
30
0
41
1
10
86.422533918638
20
10.7204055366487
30
0
41
1
10
86.4164390300627
20
10.730390303646
30
0
41
1
10
86.4010861330427
20
10.7540145739309
30
0
41
1
10
86.3753546383744
20
10.7880546553844
30
0
41
1
10
86.3359068981165
20
10.8295226648502
30
0
41
1
10
86.2919455812869
20
10.8661319671826
30
0
41
1
10
86.2563226986803
20
10.8895243158746
30
0
41
1
10
86.2317746904675
20
10.903250370934
30
0
41
1
10
86.2214269904249
20
10.9086571353018
30
0
41
1
10
86.2130855364268
20
10.9127945209144
30
0
41
1
10
86.2067998799482
20
10.9158034044987
30
0
41
1
10
86.2004867384919
20
10.9187179897735
30
0
41
1
10
86.1952046172986
20
10.9210681100076
30
0
41
1
10
86.1888485796364
20
10.92381731653
30
0
41
1
10
86.18034415279
20
10.9273567185327
30
0
41
1
10
86.1643145232121
20
10.9335780452077
30
0
41
1
10
86.1341825624871
20
10.943859026517
30
0
41
1
10
86.0908699060373
20
10.9547171365569
30
0
41
1
10
86.052287141335
20
10.9601938844948
30
0
41
1
10
86.0293822618107
20
10.9618727985275
30
0
41
1
10
86.0233028366268
20
10.9622343040207
30
0
41
1
10
86.021520620441
20
10.96233594091
30
0
0
SPLINE
5
1F2
100
AcDbEntity
8
1
62
256
6
ByLayer
370
-1
48
1
60
0
100
AcDbSpline
70
4
71
3
72
14
73
10
40
0
40
0
40
0
40
0
40
0.012844305860413
40
0.0848398580566328
40
0.228830962449072
40
0.372822066841512
40
0.660804275626391
40
0.94878648441127
40
1
40
1
40
1
40
1
41
1
10
86.021520620429
20
10.9623359409106
30
0
41
1
10
86.0211336238522
20
10.9623580106957
30
0
41
1
10
86.0185736766944
20
10.9625026576227
30
0
41
1
10
86.0115988657646
20
10.9628760970599
30
0
41
1
10
86.0002673339548
20
10.963473430529
30
0
41
1
10
85.9818274055608
20
10.9644376642335
30
0
41
1
10
85.9590543212709
20
10.9656353530154
30
0
41
1
10
85.9392955602451
20
10.9666918638527
30
0
41
1
10
85.9285761395415
20
10.9672332046239
30
0
41
1
10
85.9269571664161
20
10.9673130344339
30
0
0
SPLINE
5
1F3
100
AcDbEntity
8
1
62
256
6
ByLayer
370
-1
48
1
60
0
100
AcDbSpline
70
4
71
3
72
8
73
4
40
0
40
0
40
0
40
0
40
1
40
1
40
1
40
1
41
1
10
86.5067672102045
20
10.3600456437018
30
0
41
1
10
86.5072301597112
20
10.3479964954072
30
0
41
1
10
86.5076712461784
20
10.3359465006664
30
0
41
1
10
86.5080904666794
20
10.3238957394325
30
0
0
SPLINE
5
1F4
100
AcDbEntity
8
1
62
256
6
ByLayer
370
-1
48
1
60
0
100
AcDbSpline
70
4
71
3
72
12
73
8
40
0
40
0
40
0
40
0
40
0.0366937705554793
40
0.110794249743519
40
0.40719616649568
40
0.70359808324784
40
1
40
1
40
1
40
1
41
1
10
79.27959171998
20
10.0705067792915
30
0
41
1
10
79.2808604684811
20
10.0342770193022
30
0
41
1
10
79.2846508623103
20
9.92488638284271
30
0
41
1
10
79.2986541055662
20
9.52284424051089
30
0
41
1
10
79.3215469018783
20
8.86438380829506
30
0
41
1
10
79.3520927787192
20
7.98643516207892
30
0
41
1
10
79.3724540909161
20
7.40113622969113
30
0
41
1
10
79.3826347470146
20
7.10848676349721
30
0
0
SPLINE
5
1F5
100
AcDbEntity
8
1
62
256
6
ByLayer
370
-1
48
1
60
0
100
AcDbSpline
70
4
71
3
72
12
73
8
40
0
40
0
40
0
40
0
40
0.126690309034433
40
0.323314059973539
40
0.716561561851751
40
0.913185312790857
40
1
40
1
40
1
40
1
41
1
10
80.0668104609549
20
3.50304943105766
30
0
41
1
10
80.0697433668723
20
3.50290481264588
30
0
41
1
10
80.0772323380998
20
3.50255169756824
30
0
41
1
10
80.0938315489704
20
3.50196396746432
30
0
41
1
10
80.1120731856477
20
3.50183458642746
30
0
41
1
10
80.1277540235394
20
3.50218700893544
30
0
41
1
10
80.13432082452
20
3.50238490230154
30
0
41
1
10
80.1363321158219
20
3.50244844840398
30
0
0
SPLINE
5
1F6
100
AcDbEntity
8
1
62
256
6
ByLayer
370
-1
48
1
60
0
100
AcDbSpline
70
4
71
3
72
12
73
8
40
0
40
0
40
0
40
0
40
0.0366937705554851
40
0.110794249743525
40
0.407196166495683
40
0.703598083247842
40
1
40
1
40
1
40
1
41
1
10
85.8214200905184
20
10.9666727783505
30
0
41
1
10
85.785328195704
20
10.9653991834362
30
0
41
1
10
85.6763538236421
20
10.9615943109183
30
0
41
1
10
85.2758415730417
20
10.9475375775481
30
0
41
1
10
84.6198867815651
20
10.9245573344732
30
0
41
1
10
83.7452789950078
20
10.8938947773451
30
0
41
1
10
83.1622073017643
20
10.8734556882434
30
0
41
1
10
82.8706714551425
20
10.8632361436926
30
0
0
SPLINE
5
1F7
100
AcDbEntity
8
1
62
256
6
ByLayer
370
-1
48
1
60
0
100
AcDbSpline
70
4
71
3
72
77
73
73
40
0
40
0
40
0
40
0
40
0.125
40
0.25
40
0.375
40
0.40625
40
0.421875
40
0.423828125
40
0.42578125
40
0.427734375
40
0.4296875
40
0.43359375
40
0.435546875
40
0.4375
40
0.44140625
40
0.4453125
40
0.447265625
40
0.44921875
40
0.4501953125
40
0.451171875
40
0.453125
40
0.4609375
40
0.46875
40
0.47265625
40
0.474609375
40
0.47607421875
40
0.4765625
40
0.4775390625
40
0.478515625
40
0.4794921875
40
0.48046875
40
0.482421875
40
0.484375
40
0.4921875
40
0.5
40
0.5078125
40
0.515625
40
0.517578125
40
0.51953125
40
0.5205078125
40
0.521484375
40
0.5224609375
40
0.5234375
40
0.52392578125
40
0.525390625
40
0.52734375
40
0.53125
40
0.5390625
40
0.54296875
40
0.546875
40
0.5478515625
40
0.548828125
40
0.5498046875
40
0.55078125
40
0.552734375
40
0.5546875
40
0.55859375
40
0.560546875
40
0.5625
40
0.5634765625
40
0.564453125
40
0.56640625
40
0.568359375
40
0.5703125
40
0.572265625
40
0.57421875
40
0.578125
40
0.59375
40
0.625
40
0.75
40
0.875
40
1
40
1
40
1
40
1
41
1
10
85.6881865296318
20
7.3301149868646
30
0
41
1
10
85.695974309055
20
7.10625029003126
30
0
41
1
10
85.7115498679015
20
6.65852089636451
30
0
41
1
10
85.7349132061712
20
5.98692680586441
30
0
41
1
10
85.7524357098735
20
5.48323123798934
30
0
41
1
10
85.7631439065805
20
5.17541727984346
30
0
41
1
10
85.7661860079177
20
5.08797013264291
30
0
41
1
10
85.7674028484525
20
5.0529912737627
30
0
41
1
10
85.767767900613
20
5.04249761609864
30
0
41
1
10
85.7681329527734
20
5.03200395843459
30
0
41
1
10
85.7686196889874
20
5.01801241488249
30
0
41
1
10
85.7691064252014
20
5.0040208713304
30
0
41
1
10
85.7695931614153
20
4.99002932777833
30
0
41
1
10
85.7700798976293
20
4.97603778422624
30
0
41
1
10
85.7706883178967
20
4.95854835478613
30
0
41
1
10
85.7712972357286
20
4.94105911659346
30
0
41
1
10
85.7717849670715
20
4.92706795553627
30
0
41
1
10
85.7720901101386
20
4.91832359940517
30
0
41
1
10
85.7723344484963
20
4.91132820056163
30
0
41
1
10
85.7725789485625
20
4.90433286387352
30
0
41
1
10
85.7732520421031
20
4.88509596409472
30
0
41
1
10
85.7743579459772
20
4.85361912204726
30
0
41
1
10
85.7755652332742
20
4.81863659121618
30
0
41
1
10
85.7763835853158
20
4.79413853817189
30
0
41
1
10
85.7768381092843
20
4.78102077760104
30
0
41
1
10
85.7770964043256
20
4.77403074324826
30
0
41
1
10
85.7773004251911
20
4.76879217630571
30
0
41
1
10
85.7774776075075
20
4.76442945781679
30
0
41
1
10
85.7776298081659
20
4.75933402886491
30
0
41
1
10
85.7776497086962
20
4.75451386004167
30
0
41
1
10
85.7774805310257
20
4.74819657522352
30
0
41
1
10
85.7768658903416
20
4.74002284492718
30
0
41
1
10
85.774021911041
20
4.7199122824826
30
0
41
1
10
85.764327652797
20
4.68936985709931
30
0
41
1
10
85.7391161957828
20
4.6524210203718
30
0
41
1
10
85.7041562858846
20
4.6245974875616
30
0
41
1
10
85.674480437621
20
4.61275937186193
30
0
41
1
10
85.6546935898094
20
4.60850864135489
30
0
41
1
10
85.6466136732209
20
4.60732298519352
30
0
41
1
10
85.6403475588465
20
4.6067129034617
30
0
41
1
10
85.6355560410385
20
4.60639659336695
30
0
41
1
10
85.6304817497275
20
4.60619356408188
30
0
41
1
10
85.6261338600086
20
4.60606666209233
30
0
41
1
10
85.6209137079454
20
4.60590553944411
30
0
41
1
10
85.6139492176105
20
4.6056765893855
30
0
41
1
10
85.6008815006998
20
4.60521668941396
30
0
41
1
10
85.5764790337315
20
4.60432726855438
30
0
41
1
10
85.5486000445883
20
4.60334221961037
30
0
41
1
10
85.5207250820458
20
4.60237043105752
30
0
41
1
10
85.5050458909783
20
4.6018253654594
30
0
41
1
10
85.4945928639124
20
4.60146122101023
30
0
41
1
10
85.489366306688
20
4.60127900490119
30
0
41
1
10
85.484139708685
20
4.6010966545
30
0
41
1
10
85.4771708608598
20
4.60085335436529
30
0
41
1
10
85.4684597136954
20
4.60054894142795
30
0
41
1
10
85.4545217228852
20
4.60006136913907
30
0
41
1
10
85.4405835456583
20
4.59957318294317
30
0
41
1
10
85.4266452752231
20
4.59908468979378
30
0
41
1
10
85.4179338367826
20
4.59877931762679
30
0
41
1
10
85.4109646860302
20
4.59853501989318
30
0
41
1
10
85.4039955352779
20
4.59829072215956
30
0
41
1
10
85.3952840968374
20
4.59798534999257
30
0
41
1
10
85.3848303707089
20
4.59761890339215
30
0
41
1
10
85.3743766445804
20
4.59725245679175
30
0
41
1
10
85.3639229184519
20
4.59688601019133
30
0
41
1
10
85.3499846169472
20
4.59639741472409
30
0
41
1
10
85.3116542878092
20
4.59505377718926
30
0
41
1
10
85.2210553280286
20
4.59187790665237
30
0
41
1
10
84.914412694925
20
4.58112880637364
30
0
41
1
10
84.4126338407556
20
4.56353936955384
30
0
41
1
10
83.7435953685296
20
4.54008678712748
30
0
41
1
10
83.297569720379
20
4.52445173217654
30
0
41
1
10
83.0745568963036
20
4.51663420470109
30
0
0
SPLINE
5
1F8
100
AcDbEntity
8
1
62
256
6
ByLayer
370
-1
48
1
60
0
100
AcDbSpline
70
4
71
3
72
12
73
8
40
0
40
0
40
0
40
0
40
0.29640191675216
40
0.592803833504319
40
0.889205750256479
40
0.963306229444519
40
1
40
1
40
1
40
1
41
1
10
86.6111328803564
20
7.36187570199436
30
0
41
1
10
86.600952224258
20
7.65452516818826
30
0
41
1
10
86.5805909120611
20
8.23982410057607
30
0
41
1
10
86.5500528255818
20
9.11777301987678
30
0
41
1
10
86.5271327630037
20
9.77623249629653
30
0
41
1
10
86.5131635727696
20
10.1782758323285
30
0
41
1
10
86.5093430654665
20
10.2876654131854
30
0
41
1
10
86.5080910800471
20
10.3238957607904
30
0
0
SPLINE
5
1F9
100
AcDbEntity
8
1
62
256
6
ByLayer
370
-1
48
1
60
0
100
AcDbSpline
70
4
71
3
72
77
73
73
40
0
40
0
40
0
40
0
40
0.125
40
0.25
40
0.375
40
0.40625
40
0.421875
40
0.423828125
40
0.42578125
40
0.427734375
40
0.4296875
40
0.43359375
40
0.435546875
40
0.4375
40
0.44140625
40
0.4453125
40
0.447265625
40
0.44921875
40
0.4501953125
40
0.451171875
40
0.453125
40
0.4609375
40
0.46875
40
0.47265625
40
0.474609375
40
0.47607421875
40
0.4765625
40
0.4775390625
40
0.478515625
40
0.4794921875
40
0.48046875
40
0.482421875
40
0.484375
40
0.4921875
40
0.5
40
0.5078125
40
0.515625
40
0.517578125
40
0.51953125
40
0.5205078125
40
0.521484375
40
0.5224609375
40
0.5234375
40
0.52392578125
40
0.525390625
40
0.52734375
40
0.53125
40
0.5390625
40
0.54296875
40
0.546875
40
0.5478515625
40
0.548828125
40
0.5498046875
40
0.55078125
40
0.552734375
40
0.5546875
40
0.55859375
40
0.560546875
40
0.5625
40
0.5634765625
40
0.564453125
40
0.56640625
40
0.568359375
40
0.5703125
40
0.572265625
40
0.57421875
40
0.578125
40
0.59375
40
0.625
40
0.75
40
0.875
40
1
40
1
40
1
40
1
41
1
10
83.0745568963036
20
4.51663420470109
30
0
41
1
10
82.8515440722284
20
4.50881667722564
30
0
41
1
10
82.4055184240777
20
4.49318162227473
30
0
41
1
10
81.7364799518518
20
4.46972903984835
30
0
41
1
10
81.2347010976823
20
4.45213960302857
30
0
41
1
10
80.9280584645788
20
4.44139050274981
30
0
41
1
10
80.8409440801744
20
4.4383367810797
30
0
41
1
10
80.8060983264126
20
4.43711529241168
30
0
41
1
10
80.795644600284
20
4.43674884581125
30
0
41
1
10
80.7851908741555
20
4.43638239921086
30
0
41
1
10
80.7712525726508
20
4.43589380374362
30
0
41
1
10
80.7573142711461
20
4.43540520827642
30
0
41
1
10
80.7433759696414
20
4.43491661280919
30
0
41
1
10
80.7294376681367
20
4.43442801734199
30
0
41
1
10
80.7120147912558
20
4.43381727300795
30
0
41
1
10
80.6945921048946
20
4.43320602920883
30
0
41
1
10
80.6806541844293
20
4.43271643481145
30
0
41
1
10
80.6719431032133
20
4.4324101261474
30
0
41
1
10
80.6649743239743
20
4.43216485445686
30
0
41
1
10
80.6580056066542
20
4.43191942044018
30
0
41
1
10
80.6388419090869
20
4.43124375579154
30
0
41
1
10
80.6074848459265
20
4.43013362754434
30
0
41
1
10
80.5726354341867
20
4.42892172860604
30
0
41
1
10
80.5482306036305
20
4.42810025059254
30
0
41
1
10
80.535162760099
20
4.42764399041633
30
0
41
1
10
80.5281993249372
20
4.42738470873002
30
0
41
1
10
80.5229806923235
20
4.42717990853788
30
0
41
1
10
80.5186345752955
20
4.4270020494138
30
0
41
1
10
80.5135585359891
20
4.4268492673736
30
0
41
1
10
80.5087567093635
20
4.4268292908265
30
0
41
1
10
80.5024634637214
20
4.42699911472829
30
0
41
1
10
80.4943208369365
20
4.42761610323987
30
0
41
1
10
80.4742868012536
20
4.43047094607942
30
0
41
1
10
80.4438605990199
20
4.44020223481502
30
0
41
1
10
80.4070523637713
20
4.46550999549925
30
0
41
1
10
80.3793347079036
20
4.50060344657382
30
0
41
1
10
80.3675416398082
20
4.53039265175676
30
0
41
1
10
80.3633070846141
20
4.55025508211239
30
0
41
1
10
80.3621259402323
20
4.55836586266963
30
0
41
1
10
80.3615181800457
20
4.56465591258294
30
0
41
1
10
80.3612030736064
20
4.56946573321065
30
0
41
1
10
80.361000816909
20
4.57455940749006
30
0
41
1
10
80.3608743978198
20
4.57892390544137
30
0
41
1
10
80.3607138882919
20
4.58416399763735
30
0
41
1
10
80.3604858094574
20
4.59115509119391
30
0
41
1
10
80.3600276595441
20
4.60427272466032
30
0
41
1
10
80.3591416231994
20
4.6287684050881
30
0
41
1
10
80.358160322664
20
4.65675388744066
30
0
41
1
10
80.35719223206
20
4.68473532781155
30
0
41
1
10
80.3566492406011
20
4.70047441084182
30
0
41
1
10
80.3562864818315
20
4.71096736677296
30
0
41
1
10
80.3561049591098
20
4.71621388859683
30
0
41
1
10
80.3559233026069
20
4.72146045135514
30
0
41
1
10
80.3556809283026
20
4.72845591904692
30
0
41
1
10
80.3553776737484
20
4.73720034137824
30
0
41
1
10
80.3548919568193
20
4.75119157304903
30
0
41
1
10
80.3544056283193
20
4.7651829918486
30
0
41
1
10
80.3539189940338
20
4.77917450421256
30
0
41
1
10
80.3536147839001
20
4.78791921893261
30
0
41
1
10
80.3533714157931
20
4.79491499070866
30
0
41
1
10
80.3531280476861
20
4.80191076248471
30
0
41
1
10
80.3528238375524
20
4.81065547720476
30
0
41
1
10
80.3524587853919
20
4.82114913486882
30
0
41
1
10
80.3520937332315
20
4.83164279253288
30
0
41
1
10
80.351728681071
20
4.84213645019693
30
0
41
1
10
80.3512419448571
20
4.85612799374903
30
0
41
1
10
80.3499034202687
20
4.89460473851727
30
0
41
1
10
80.346739634878
20
4.9855497716058
30
0
41
1
10
80.3360314381711
20
5.29336372975169
30
0
41
1
10
80.3185089344688
20
5.79705929762676
30
0
41
1
10
80.2951455961991
20
6.46865338812688
30
0
41
1
10
80.2795700373526
20
6.9163827817936
30
0
41
1
10
80.2717822579293
20
7.14024747862698
30
0
0
SPLINE
5
1FA
100
AcDbEntity
8
1
62
256
6
ByLayer
370
-1
48
1
60
0
100
AcDbSpline
70
4
71
3
72
14
73
10
40
0
40
0
40
0
40
0
40
0.0868146872090153
40
0.283438438145693
40
0.480062189082371
40
0.676685940019048
40
0.873309690955726
40
0.971621566424065
40
1
40
1
40
1
40
1
41
1
10
86.1098587946752
20
3.71184541528669
30
0
41
1
10
86.1118696024566
20
3.7119228604937
30
0
41
1
10
86.1184341588539
20
3.71218527584534
30
0
41
1
10
86.1295489115822
20
3.71271483383853
30
0
41
1
10
86.1431953942883
20
3.71363492944766
30
0
41
1
10
86.1568220033706
20
3.71481794939857
30
0
41
1
10
86.1681532633942
20
3.71601750082783
30
0
41
1
10
86.1756000447683
20
3.71688646017907
30
0
41
1
10
86.1785162204369
20
3.71723472599462
30
0
41
1
10
86.1791693353827
20
3.71731304409801
30
0
0
SPLINE
5
1FB
100
AcDbEntity
8
1
62
256
6
ByLayer
370
-1
48
1
60
0
100
AcDbSpline
70
4
71
3
72
12
73
8
40
0
40
0
40
0
40
0
40
0.126690309034486
40
0.323314059973623
40
0.716561561851897
40
0.913185312791033
40
1
40
1
40
1
40
1
41
1
10
86.7148137271068
20
4.29391547581767
30
0
41
1
10
86.7149577952019
20
4.29685958495912
30
0
41
1
10
86.7153095665701
20
4.30437716284013
30
0
41
1
10
86.7158950601835
20
4.32103977999958
30
0
41
1
10
86.7160239488865
20
4.33935109676545
30
0
41
1
10
86.7156728674526
20
4.35509183291046
30
0
41
1
10
86.7154757271304
20
4.36168371800406
30
0
41
1
10
86.7154124228401
20
4.36370269211196
30
0
0
SPLINE
5
1FC
100
AcDbEntity
8
1
62
256
6
ByLayer
370
-1
48
1
60
0
100
AcDbSpline
70
4
71
3
72
15
73
11
40
0
40
0
40
0
40
0
40
0.051213515573835
40
0.195204619948502
40
0.339195724323169
40
0.627177933072502
40
0.771169037447169
40
0.915160141821836
40
0.98715569400917
40
1
40
1
40
1
40
1
41
1
10
86.1791693353827
20
3.71731304409801
30
0
41
1
10
86.1807788173151
20
3.71750604469187
30
0
41
1
10
86.1869110879977
20
3.71824879115181
30
0
41
1
10
86.1975464485834
20
3.71955532751741
30
0
41
1
10
86.215598595687
20
3.72179205754674
30
0
41
1
10
86.2337061009469
20
3.72402358507321
30
0
41
1
10
86.2520341050096
20
3.72627668780751
30
0
41
1
10
86.2632965244598
20
3.72766603328526
30
0
41
1
10
86.2702283944138
20
3.72852695975573
30
0
41
1
10
86.2727720540091
20
3.7288505093367
30
0
41
1
10
86.2731565742336
20
3.72889962399646
30
0
0
SPLINE
5
1FD
100
AcDbEntity
8
1
62
256
6
ByLayer
370
-1
48
1
60
0
100
AcDbSpline
70
4
71
3
72
36
73
32
40
0
40
0
40
0
40
0
40
0.015625
40
0.0234375
40
0.03125
40
0.03515625
40
0.0390625
40
0.046875
40
0.0625
40
0.125
40
0.1875
40
0.203125
40
0.21875
40
0.25
40
0.3125
40
0.375
40
0.4375
40
0.5
40
0.53125
40
0.546875
40
0.5625
40
0.625
40
0.65625
40
0.6875
40
0.75
40
0.8125
40
0.84375
40
0.859375
40
0.875
40
0.9375
40
1
40
1
40
1
40
1
41
1
10
85.6881865296318
20
7.3301149868646
30
0
41
1
10
85.6931333107975
20
7.33028839212881
30
0
41
1
10
85.7008306945719
20
7.33055474074635
30
0
41
1
10
85.7105887299718
20
7.33088522426757
30
0
41
1
10
85.7162429058297
20
7.33107361458377
30
0
41
1
10
85.7205617630837
20
7.33121612975333
30
0
41
1
10
85.724953241418
20
7.33136113406854
30
0
41
1
10
85.7325826695011
20
7.33161315860238
30
0
41
1
10
85.7566207128374
20
7.33240709893209
30
0
41
1
10
85.7959303167607
20
7.33370550783869
30
0
41
1
10
85.8352230373068
20
7.33500328332846
30
0
41
1
10
85.8614658019814
20
7.33587012518794
30
0
41
1
10
85.8788127067052
20
7.33644295806673
30
0
41
1
10
85.9097857135949
20
7.33747064185917
30
0
41
1
10
85.9561475944643
20
7.33902196099081
30
0
41
1
10
86.0141961076826
20
7.34098472431936
30
0
41
1
10
86.0738315145442
20
7.3430210744616
30
0
41
1
10
86.1241136569412
20
7.34475384282223
30
0
41
1
10
86.1590364420176
20
7.3459654855649
30
0
41
1
10
86.1791760322335
20
7.34666632411825
30
0
41
1
10
86.2094271877897
20
7.34771863342465
30
0
41
1
10
86.2447336696618
20
7.34894690038561
30
0
41
1
10
86.2851025070453
20
7.35035123720934
30
0
41
1
10
86.3253717947832
20
7.3517523208107
30
0
41
1
10
86.3757753420039
20
7.35351707704942
30
0
41
1
10
86.4257165440346
20
7.35527869453767
30
0
41
1
10
86.4601222374535
20
7.35649936183364
30
0
41
1
10
86.4796083991535
20
7.3571928356229
30
0
41
1
10
86.5088097425017
20
7.35823271829358
30
0
41
1
10
86.552670975592
20
7.35979423947629
30
0
41
1
10
86.5916455787683
20
7.36118188115501
30
0
41
1
10
86.6111328803564
20
7.36187570199436
30
0
0
SPLINE
5
1FE
100
AcDbEntity
8
1
62
256
6
ByLayer
370
-1
48
1
60
0
100
AcDbSpline
70
4
71
3
72
8
73
4
40
0
40
0
40
0
40
0
40
1
40
1
40
1
40
1
41
1
10
80.1723475152911
20
3.50369030284168
30
0
41
1
10
80.1603426492994
20
3.50326948233453
30
0
41
1
10
80.1483370197361
20
3.50287061117734
30
0
41
1
10
80.1363307062596
20
3.50249369201666
30
0
0
SPLINE
5
1FF
100
AcDbEntity
8
1
62
256
6
ByLayer
370
-1
48
1
60
0
100
AcDbSpline
70
4
71
3
72
77
73
73
40
0
40
0
40
0
40
0
40
0.125
40
0.25
40
0.375
40
0.40625
40
0.421875
40
0.423828125
40
0.42578125
40
0.427734375
40
0.4296875
40
0.43359375
40
0.435546875
40
0.4375
40
0.44140625
40
0.4453125
40
0.447265625
40
0.44921875
40
0.4501953125
40
0.451171875
40
0.453125
40
0.4609375
40
0.46875
40
0.47265625
40
0.474609375
40
0.47607421875
40
0.4765625
40
0.4775390625
40
0.478515625
40
0.4794921875
40
0.48046875
40
0.482421875
40
0.484375
40
0.4921875
40
0.5
40
0.5078125
40
0.515625
40
0.517578125
40
0.51953125
40
0.5205078125
40
0.521484375
40
0.5224609375
40
0.5234375
40
0.52392578125
40
0.525390625
40
0.52734375
40
0.53125
40
0.5390625
40
0.54296875
40
0.546875
40
0.5478515625
40
0.548828125
40
0.5498046875
40
0.55078125
40
0.552734375
40
0.5546875
40
0.55859375
40
0.560546875
40
0.5625
40
0.5634765625
40
0.564453125
40
0.56640625
40
0.568359375
40
0.5703125
40
0.572265625
40
0.57421875
40
0.578125
40
0.59375
40
0.625
40
0.75
40
0.875
40
1
40
1
40
1
40
1
41
1
10
82.8854118912574
20
9.95372826079051
30
0
41
1
10
83.1084247153327
20
9.96154578826597
30
0
41
1
10
83.5544503634834
20
9.9771808432169
30
0
41
1
10
84.2234888357093
20
10.0006334256433
30
0
41
1
10
84.7252676898788
20
10.018222862463
30
0
41
1
10
85.0319103229824
20
10.0289719627418
30
0
41
1
10
85.1190247073868
20
10.0320256844119
30
0
41
1
10
85.1538704611485
20
10.0332471730799
30
0
41
1
10
85.1643241872771
20
10.0336136196803
30
0
41
1
10
85.1747779134056
20
10.0339800662807
30
0
41
1
10
85.1887162149103
20
10.0344686617479
30
0
41
1
10
85.202654516415
20
10.0349572572152
30
0
41
1
10
85.2165928179197
20
10.0354458526824
30
0
41
1
10
85.2305311194244
20
10.0359344481496
30
0
41
1
10
85.2479539963053
20
10.0365451924836
30
0
41
1
10
85.2653766826665
20
10.0371564362827
30
0
41
1
10
85.2793146031319
20
10.0376460306801
30
0
41
1
10
85.2880256843479
20
10.0379523393442
30
0
41
1
10
85.2949944635868
20
10.0381976110347
30
0
41
1
10
85.3019631809069
20
10.0384430450514
30
0
41
1
10
85.3211268784743
20
10.0391187097
30
0
41
1
10
85.3524839416346
20
10.0402288379472
30
0
41
1
10
85.3873333533744
20
10.0414407368855
30
0
41
1
10
85.4117381839307
20
10.0422622148991
30
0
41
1
10
85.4248060274622
20
10.0427184750752
30
0
41
1
10
85.4317694626239
20
10.0429777567616
30
0
41
1
10
85.4369880952377
20
10.0431825569537
30
0
41
1
10
85.4413342122656
20
10.0433604160778
30
0
41
1
10
85.4464102515719
20
10.043513198118
30
0
41
1
10
85.4512120781976
20
10.0435331746651
30
0
41
1
10
85.4575053238398
20
10.0433633507633
30
0
41
1
10
85.4656479506246
20
10.0427463622517
30
0
41
1
10
85.4856819863076
20
10.0398915194121
30
0
41
1
10
85.5161081885412
20
10.0301602306766
30
0
41
1
10
85.5529164237898
20
10.0048524699924
30
0
41
1
10
85.5806340796576
20
9.96975901891776
30
0
41
1
10
85.5924271477529
20
9.93996981373482
30
0
41
1
10
85.596661702947
20
9.92010738337919
30
0
41
1
10
85.5978428473288
20
9.91199660282194
30
0
41
1
10
85.5984506075154
20
9.90570655290864
30
0
41
1
10
85.5987657139548
20
9.90089673228093
30
0
41
1
10
85.5989679706521
20
9.89580305800152
30
0
41
1
10
85.5990943897413
20
9.89143856005023
30
0
41
1
10
85.5992548992692
20
9.88619846785426
30
0
41
1
10
85.5994829781037
20
9.87920737429769
30
0
41
1
10
85.599941128017
20
9.86608974083126
30
0
41
1
10
85.6008271643617
20
9.84159406040348
30
0
41
1
10
85.6018084648971
20
9.81360857805092
30
0
41
1
10
85.6027765555011
20
9.78562713768002
30
0
41
1
10
85.6033195469601
20
9.76988805464975
30
0
41
1
10
85.6036823057296
20
9.75939509871861
30
0
41
1
10
85.6038638284514
20
9.75414857689475
30
0
41
1
10
85.6040454849542
20
9.74890201413643
30
0
41
1
10
85.6042878592585
20
9.74190654644468
30
0
41
1
10
85.6045911138127
20
9.73316212411333
30
0
41
1
10
85.6050768307418
20
9.71917089244255
30
0
41
1
10
85.6055631592419
20
9.70517947364297
30
0
41
1
10
85.6060497935273
20
9.69118796127901
30
0
41
1
10
85.606354003661
20
9.68244324655896
30
0
41
1
10
85.606597371768
20
9.67544747478294
30
0
41
1
10
85.606840739875
20
9.66845170300689
30
0
41
1
10
85.6071449500087
20
9.65970698828684
30
0
41
1
10
85.6075100021691
20
9.64921333062276
30
0
41
1
10
85.6078750543296
20
9.6387196729587
30
0
41
1
10
85.6082401064901
20
9.62822601529464
30
0
41
1
10
85.6087268427041
20
9.61423447174255
30
0
41
1
10
85.6100653672924
20
9.57575772697433
30
0
41
1
10
85.6132291526831
20
9.48481269388577
30
0
41
1
10
85.6239373493901
20
9.17699873573989
30
0
41
1
10
85.6414598530923
20
8.67330316786482
30
0
41
1
10
85.6648231913621
20
8.00170907736472
30
0
41
1
10
85.6803987502085
20
7.55397968369797
30
0
41
1
10
85.6881865296318
20
7.3301149868646
30
0
0
SPLINE
5
200
100
AcDbEntity
8
1
62
256
6
ByLayer
370
-1
48
1
60
0
100
AcDbSpline
70
4
71
3
72
8
73
4
40
0
40
0
40
0
40
0
40
1
40
1
40
1
40
1
41
1
10
79.8839104552355
20
10.7584718136356
30
0
41
1
10
79.8959137528832
20
10.7589365315342
30
0
41
1
10
79.907917893756
20
10.75937930288
30
0
41
1
10
79.9199227982052
20
10.7598001247353
30
0
0
SPLINE
5
201
100
AcDbEntity
8
1
62
256
6
ByLayer
370
-1
48
1
60
0
100
AcDbSpline
70
4
71
3
72
14
73
10
40
0
40
0
40
0
40
0
40
0.0868146872094688
40
0.283438438146034
40
0.4800621890826
40
0.676685940019165
40
0.873309690955731
40
0.971621566424014
40
1
40
1
40
1
40
1
41
1
10
79.486955352736
20
4.11031519305229
30
0
41
1
10
79.4870325032406
20
4.10829670431178
30
0
41
1
10
79.4872939200226
20
4.10170707237555
30
0
41
1
10
79.4878214628878
20
4.09054986309749
30
0
41
1
10
79.4887380572554
20
4.07685125304437
30
0
41
1
10
79.4899165754582
20
4.0631725925291
30
0
41
1
10
79.491111562232
20
4.05179804893302
30
0
41
1
10
79.4919772149307
20
4.04432282206392
30
0
41
1
10
79.4923241554897
20
4.04139550707797
30
0
41
1
10
79.492402175569
20
4.04073989733919
30
0
0
SPLINE
5
202
100
AcDbEntity
8
1
62
256
6
ByLayer
370
-1
48
1
60
0
100
AcDbSpline
70
4
71
3
72
15
73
11
40
0
40
0
40
0
40
0
40
0.0512135155738161
40
0.195204619948476
40
0.339195724323136
40
0.627177933072455
40
0.771169037447115
40
0.915160141821775
40
0.987155694009105
40
1
40
1
40
1
40
1
41
1
10
79.4924021755691
20
4.04073989733919
30
0
41
1
10
79.4925944417373
20
4.03912426744733
30
0
41
1
10
79.4933343618227
20
4.03296857248688
30
0
41
1
10
79.494635926423
20
4.02229258655157
30
0
41
1
10
79.4968641450193
20
4.00417148317871
30
0
41
1
10
79.4990871809098
20
3.98599481019039
30
0
41
1
10
79.501331709908
20
3.96759679612975
30
0
41
1
10
79.5027157685067
20
3.95629135606686
30
0
41
1
10
79.5035734188921
20
3.94933300749568
30
0
41
1
10
79.5038957372692
20
3.94677963153407
30
0
41
1
10
79.5039446650329
20
3.94639364250469
30
0
0
LINE
5
45
100
AcDbEntity
8
80
62
256
6
ByLayer
370
-1
48
1
60
0
100
AcDbLine
10
0
20
0
30
0
11
-7
21
0
31
0
39
0
210
0
220
0
230
1
0
LINE
5
46
100
AcDbEntity
8
81
62
256
6
ByLayer
370
-1
48
1
60
0
100
AcDbLine
10
87
20
0
30
0
11
94
21
0
31
0
39
0
210
0
220
0
230
1
0
LINE
5
47
100
AcDbEntity
8
1
62
256
6
ByLayer
370
-1
48
1
60
0
100
AcDbLine
10
0.2
20
16
30
0
11
0
21
15.8
31
0
39
0
210
0
220
0
230
1
0
LINE
5
49
100
AcDbEntity
8
1
62
256
6
ByLayer
370
-1
48
1
60
0
100
AcDbLine
10
0
20
-15.8
30
0
11
0.2
21
-16
31
0
39
0
210
0
220
0
230
1
0
LINE
5
4A
100
AcDbEntity
8
1
62
256
6
ByLayer
370
-1
48
1
60
0
100
AcDbLine
10
5
20
16
30
0
11
0.2
21
16
31
0
39
0
210
0
220
0
230
1
0
LINE
5
4B
100
AcDbEntity
8
1
62
256
6
ByLayer
370
-1
48
1
60
0
100
AcDbLine
10
0.2
20
-16
30
0
11
5
21
-16
31
0
39
0
210
0
220
0
230
1
0
LINE
5
4C
100
AcDbEntity
8
1
62
256
6
ByLayer
370
-1
48
1
60
0
100
AcDbLine
10
43.815331
20
10.6
30
0
11
18
21
10.6
31
0
39
0
210
0
220
0
230
1
0
LINE
5
4D
100
AcDbEntity
8
1
62
256
6
ByLayer
370
-1
48
1
60
0
100
AcDbLine
10
78.997297
20
10.6
30
0
11
76.907937
21
10.6
31
0
39
0
210
0
220
0
230
1
0
LINE
5
4E
100
AcDbEntity
8
1
62
256
6
ByLayer
370
-1
48
1
60
0
100
AcDbLine
10
18
20
-10.6
30
0
11
40.563258
21
-10.6
31
0
39
0
210
0
220
0
230
1
0
LINE
5
4F
100
AcDbEntity
8
SK1
62
256
6
ByLayer
370
-1
48
1
60
0
100
AcDbLine
10
-2
20
12.49675
30
0
11
-52.6
21
12.49675
31
0
39
0
210
0
220
0
230
1
0
LINE
5
51
100
AcDbEntity
8
SK1
62
256
6
ByLayer
370
-1
48
1
60
0
100
AcDbLine
10
-52.6
20
-12.49675
30
0
11
-2
21
-12.49675
31
0
39
0
210
0
220
0
230
1
0
LINE
5
52
100
AcDbEntity
8
SK1
62
256
6
ByLayer
370
-1
48
1
60
0
100
AcDbLine
10
-2
20
-12.49675
30
0
11
-1.551212
21
-12.287477
31
0
39
0
210
0
220
0
230
1
0
LINE
5
53
100
AcDbEntity
8
SK1
62
256
6
ByLayer
370
-1
48
1
60
0
100
AcDbLine
10
-1.551212
20
12.287477
30
0
11
-2
21
12.49675
31
0
39
0
210
0
220
0
230
1
0
LINE
5
54
100
AcDbEntity
8
SK1
62
256
6
ByLayer
370
-1
48
1
60
0
100
AcDbLine
10
-0.15
20
12.25
30
0
11
-1.382165
21
12.25
31
0
39
0
210
0
220
0
230
1
0
LINE
5
55
100
AcDbEntity
8
SK1
62
256
6
ByLayer
370
-1
48
1
60
0
100
AcDbLine
10
-1.382165
20
-12.25
30
0
11
-0.15
21
-12.25
31
0
39
0
210
0
220
0
230
1
0
LINE
5
56
100
AcDbEntity
8
SK1
62
256
6
ByLayer
370
-1
48
1
60
0
100
AcDbLine
10
-55
20
12.49675
30
0
11
-56
21
11.49675
31
0
39
0
210
0
220
0
230
1
0
LINE
5
57
100
AcDbEntity
8
SK1
62
256
6
ByLayer
370
-1
48
1
60
0
100
AcDbLine
10
-56
20
-11.49675
30
0
11
-55
21
-12.49675
31
0
39
0
210
0
220
0
230
1
0
LINE
5
58
100
AcDbEntity
8
SK1
62
256
6
ByLayer
370
-1
48
1
60
0
100
AcDbLine
10
-52.6
20
12.49675
30
0
11
-53.633814
21
12.140417
31
0
39
0
210
0
220
0
230
1
0
LINE
5
59
100
AcDbEntity
8
SK1
62
256
6
ByLayer
370
-1
48
1
60
0
100
AcDbLine
10
-53.633814
20
-12.140417
30
0
11
-52.6
21
-12.49675
31
0
39
0
210
0
220
0
230
1
0
LINE
5
5A
100
AcDbEntity
8
SK1
62
256
6
ByLayer
370
-1
48
1
60
0
100
AcDbLine
10
-54.6
20
-12.49675
30
0
11
-54.516223
21
-12.393294
31
0
39
0
210
0
220
0
230
1
0
LINE
5
5B
100
AcDbEntity
8
SK1
62
256
6
ByLayer
370
-1
48
1
60
0
100
AcDbLine
10
-54.516223
20
12.393294
30
0
11
-54.6
21
12.49675
31
0
39
0
210
0
220
0
230
1
0
LINE
5
5C
100
AcDbEntity
8
SK1
62
256
6
ByLayer
370
-1
48
1
60
0
100
AcDbLine
10
-54.6
20
12.49675
30
0
11
-55
21
12.49675
31
0
39
0
210
0
220
0
230
1
0
LINE
5
5D
100
AcDbEntity
8
SK1
62
256
6
ByLayer
370
-1
48
1
60
0
100
AcDbLine
10
-55
20
-12.49675
30
0
11
-54.6
21
-12.49675
31
0
39
0
210
0
220
0
230
1
0
LINE
5
5E
100
AcDbEntity
8
SK4
62
256
6
ByLayer
370
-1
48
0.05
60
0
100
AcDbLine
10
87
20
0
30
0
11
-56
21
0
31
0
39
0
210
0
220
0
230
1
0
LINE
5
60
100
AcDbEntity
8
4
62
256
6
ByLayer
370
-1
48
0.05
60
0
100
AcDbLine
10
87
20
0
30
0
11
0
21
0
31
0
39
0
210
0
220
0
230
1
0
LINE
5
62
100
AcDbEntity
8
1
62
256
6
ByLayer
370
-1
48
1
60
0
100
AcDbLine
10
85.662086
20
-5.13118
30
0
11
85.386549
21
-5.008408
31
0
39
0
210
0
220
0
230
1
0
LINE
5
63
100
AcDbEntity
8
1
62
256
6
ByLayer
370
-1
48
1
60
0
100
AcDbLine
10
85.51282
20
3.454256
30
0
11
85.662319
21
3.454256
31
0
39
0
210
0
220
0
230
1
0
LINE
5
64
100
AcDbEntity
8
1
62
256
6
ByLayer
370
-1
48
1
60
0
100
AcDbLine
10
78.715026
20
4.689627
30
0
11
78.941631
21
4.689627
31
0
39
0
210
0
220
0
230
1
0
LINE
5
65
100
AcDbEntity
8
1
62
256
6
ByLayer
370
-1
48
1
60
0
100
AcDbLine
10
77.21159
20
4.120154
30
0
11
77.893905
21
3.815207
31
0
39
0
210
0
220
0
230
1
0
LINE
5
66
100
AcDbEntity
8
1
62
256
6
ByLayer
370
-1
48
1
60
0
100
AcDbLine
10
86.082654
20
-10.595246
30
0
11
86.474451
21
-6.177994
31
0
39
0
210
0
220
0
230
1
0
LINE
5
67
100
AcDbEntity
8
1
62
256
6
ByLayer
370
-1
48
1
60
0
100
AcDbLine
10
0.2
20
16
30
0
11
0.2
21
-16
31
0
39
0
210
0
220
0
230
1
0
LINE
5
68
100
AcDbEntity
8
1
62
256
6
ByLayer
370
-1
48
1
60
0
100
AcDbLine
10
79.320172
20
3.373477
30
0
11
79.37054
21
3.373477
31
0
39
0
210
0
220
0
230
1
0
LINE
5
69
100
AcDbEntity
8
1
62
256
6
ByLayer
370
-1
48
1
60
0
100
AcDbLine
10
77.046737
20
6.794089
30
0
11
77.046737
21
10.599895
31
0
39
0
210
0
220
0
230
1
0
LINE
5
6A
100
AcDbEntity
8
1
62
256
6
ByLayer
370
-1
48
1
60
0
100
AcDbLine
10
84.863184
20
1.215825
30
0
11
85.683461
21
3.445015
31
0
39
0
210
0
220
0
230
1
0
LINE
5
6B
100
AcDbEntity
8
1
62
256
6
ByLayer
370
-1
48
1
60
0
100
AcDbLine
10
77.893905
20
3.815207
30
0
11
77.866728
21
3.815207
31
0
39
0
210
0
220
0
230
1
0
LINE
5
6C
100
AcDbEntity
8
1
62
256
6
ByLayer
370
-1
48
1
60
0
100
AcDbLine
10
85.934986
20
0.592317
30
0
11
86.035538
21
3.639384
31
0
39
0
210
0
220
0
230
1
0
LINE
5
6D
100
AcDbEntity
8
1
62
256
6
ByLayer
370
-1
48
1
60
0
100
AcDbLine
10
77.046737
20
6.794089
30
0
11
75.714917
21
7.045051
31
0
39
0
210
0
220
0
230
1
0
LINE
5
6E
100
AcDbEntity
8
1
62
256
6
ByLayer
370
-1
48
1
60
0
100
AcDbLine
10
85.934986
20
0.592317
30
0
11
85.892247
21
0.614965
31
0
39
0
210
0
220
0
230
1
0
LINE
5
6F
100
AcDbEntity
8
1
62
256
6
ByLayer
370
-1
48
1
60
0
100
AcDbLine
10
78.402766
20
-10.595246
30
0
11
86.082654
21
-10.595246
31
0
39
0
210
0
220
0
230
1
0
LINE
5
70
100
AcDbEntity
8
1
62
256
6
ByLayer
370
-1
48
1
60
0
100
AcDbLine
10
78.670408
20
6.088911
30
0
11
78.715026
21
4.689627
31
0
39
0
210
0
220
0
230
1
0
LINE
5
71
100
AcDbEntity
8
1
62
256
6
ByLayer
370
-1
48
1
60
0
100
AcDbLine
10
79.085569
20
7.238818
30
0
11
78.978462
21
10.597797
31
0
39
0
210
0
220
0
230
1
0
LINE
5
72
100
AcDbEntity
8
1
62
256
6
ByLayer
370
-1
48
1
60
0
100
AcDbLine
10
85.933912
20
0.589094
30
0
11
85.869011
21
0.591356
31
0
39
0
210
0
220
0
230
1
0
LINE
5
73
100
AcDbEntity
8
1
62
256
6
ByLayer
370
-1
48
1
60
0
100
AcDbLine
10
78.897013
20
6.088911
30
0
11
78.941631
21
4.689627
31
0
39
0
210
0
220
0
230
1
0
LINE
5
74
100
AcDbEntity
8
1
62
256
6
ByLayer
370
-1
48
1
60
0
100
AcDbLine
10
86.140514
20
-5.344354
30
0
11
86.129306
21
-5.470712
31
0
39
0
210
0
220
0
230
1
0
LINE
5
75
100
AcDbEntity
8
1
62
256
6
ByLayer
370
-1
48
1
60
0
100
AcDbLine
10
74.187953
20
6.64
30
0
11
75.757406
21
6.64
31
0
39
0
210
0
220
0
230
1
0
LINE
5
76
100
AcDbEntity
8
1
62
256
6
ByLayer
370
-1
48
1
60
0
100
AcDbLine
10
77.29442
20
2.117114
30
0
11
77.1004
21
1.449645
31
0
39
0
210
0
220
0
230
1
0
LINE
5
77
100
AcDbEntity
8
1
62
256
6
ByLayer
370
-1
48
1
60
0
100
AcDbLine
10
85.855867
20
0.078031
30
0
11
84.908107
21
0.500327
31
0
39
0
210
0
220
0
230
1
0
LINE
5
78
100
AcDbEntity
8
1
62
256
6
ByLayer
370
-1
48
1
60
0
100
AcDbLine
10
85.662374
20
3.454256
30
0
11
85.893039
21
3.442121
31
0
39
0
210
0
220
0
230
1
0
LINE
5
79
100
AcDbEntity
8
1
62
256
6
ByLayer
370
-1
48
1
60
0
100
AcDbLine
10
85.683461
20
3.445015
30
0
11
85.51282
21
3.454256
31
0
39
0
210
0
220
0
230
1
0
LINE
5
7A
100
AcDbEntity
8
1
62
256
6
ByLayer
370
-1
48
1
60
0
100
AcDbLine
10
18
20
10.6
30
0
11
18
21
7.326857
31
0
39
0
210
0
220
0
230
1
0
LINE
5
7B
100
AcDbEntity
8
1
62
256
6
ByLayer
370
-1
48
1
60
0
100
AcDbLine
10
86.474451
20
-6.177994
30
0
11
86.146563
21
-6.138387
31
0
39
0
210
0
220
0
230
1
0
LINE
5
7C
100
AcDbEntity
8
1
62
256
6
ByLayer
370
-1
48
1
60
0
100
AcDbLine
10
85.857091
20
0.053574
30
0
11
86.140514
21
-5.344354
31
0
39
0
210
0
220
0
230
1
0
LINE
5
7D
100
AcDbEntity
8
1
62
256
6
ByLayer
370
-1
48
1
60
0
100
AcDbLine
10
75.714917
20
10.592269
30
0
11
75.714917
21
7.045051
31
0
39
0
210
0
220
0
230
1
0
LINE
5
7E
100
AcDbEntity
8
1
62
256
6
ByLayer
370
-1
48
1
60
0
100
AcDbLine
10
79.005656
20
10.599571
30
0
11
79.11282
21
7.238818
31
0
39
0
210
0
220
0
230
1
0
LINE
5
7F
100
AcDbEntity
8
1
62
256
6
ByLayer
370
-1
48
1
60
0
100
AcDbLine
10
18
20
-10.6
30
0
11
18
21
-6.918881
31
0
39
0
210
0
220
0
230
1
0
LINE
5
80
100
AcDbEntity
8
1
62
256
6
ByLayer
370
-1
48
1
60
0
100
AcDbLine
10
85.893039
20
3.442121
30
0
11
85.683461
21
3.445015
31
0
39
0
210
0
220
0
230
1
0
LINE
5
81
100
AcDbEntity
8
1
62
256
6
ByLayer
370
-1
48
1
60
0
100
AcDbLine
10
78.670408
20
6.088911
30
0
11
78.897013
21
6.088911
31
0
39
0
210
0
220
0
230
1
0
LINE
5
82
100
AcDbEntity
8
1
62
256
6
ByLayer
370
-1
48
1
60
0
100
AcDbLine
10
85.934986
20
0.592317
30
0
11
85.933912
21
0.589094
31
0
39
0
210
0
220
0
230
1
0
LINE
5
83
100
AcDbEntity
8
1
62
256
6
ByLayer
370
-1
48
1
60
0
100
AcDbLine
10
79.84987
20
0.916278
30
0
11
80.490856
21
3.121403
31
0
39
0
210
0
220
0
230
1
0
LINE
5
84
100
AcDbEntity
8
1
62
256
6
ByLayer
370
-1
48
1
60
0
100
AcDbLine
10
85.883499
20
0.61527
30
0
11
85.892247
21
0.614965
31
0
39
0
210
0
220
0
230
1
0
LINE
5
85
100
AcDbEntity
8
1
62
256
6
ByLayer
370
-1
48
1
60
0
100
AcDbLine
10
79.085569
20
7.238818
30
0
11
79.11282
21
7.238818
31
0
39
0
210
0
220
0
230
1
0
LINE
5
86
100
AcDbEntity
8
1
62
256
6
ByLayer
370
-1
48
1
60
0
100
AcDbLine
10
86.140514
20
-5.344354
30
0
11
85.889108
21
-5.232335
31
0
39
0
210
0
220
0
230
1
0
LINE
5
87
100
AcDbEntity
8
1
62
256
6
ByLayer
370
-1
48
1
60
0
100
AcDbLine
10
5
20
16
30
0
11
5
21
-16
31
0
39
0
210
0
220
0
230
1
0
LINE
5
88
100
AcDbEntity
8
1
62
256
6
ByLayer
370
-1
48
1
60
0
100
AcDbLine
10
79.157978
20
7.270501
30
0
11
79.308018
21
7.270501
31
0
39
0
210
0
220
0
230
1
0
LINE
5
89
100
AcDbEntity
8
1
62
256
6
ByLayer
370
-1
48
1
60
0
100
AcDbLine
10
81.02853
20
3.297063
30
0
11
85.51282
21
3.454256
31
0
39
0
210
0
220
0
230
1
0
LINE
5
8A
100
AcDbEntity
8
1
62
256
6
ByLayer
370
-1
48
1
60
0
100
AcDbLine
10
0
20
15.8
30
0
11
0
21
-15.8
31
0
39
0
210
0
220
0
230
1
0
LINE
5
8B
100
AcDbEntity
8
1
62
256
6
ByLayer
370
-1
48
1
60
0
100
AcDbLine
10
78.28778
20
4.546044
30
0
11
76.155282
21
5.49912
31
0
39
0
210
0
220
0
230
1
0
LINE
5
8C
100
AcDbEntity
8
SK1
62
256
6
ByLayer
370
-1
48
1
60
0
100
AcDbLine
10
-0.15
20
12.25
30
0
11
-0.15
21
-12.25
31
0
39
0
210
0
220
0
230
1
0
LINE
5
8D
100
AcDbEntity
8
SK1
62
256
6
ByLayer
370
-1
48
1
60
0
100
AcDbLine
10
-52.6
20
6.998498
30
0
11
-6.5
21
6.998498
31
0
39
0
210
0
220
0
230
1
0
LINE
5
8E
100
AcDbEntity
8
SK1
62
256
6
ByLayer
370
-1
48
1
60
0
100
AcDbLine
10
-54.6
20
-12.49675
30
0
11
-54.6
21
-6.998498
31
0
39
0
210
0
220
0
230
1
0
LINE
5
8F
100
AcDbEntity
8
SK1
62
256
6
ByLayer
370
-1
48
1
60
0
100
AcDbLine
10
-54.6
20
6.998498
30
0
11
-54.6
21
12.49675
31
0
39
0
210
0
220
0
230
1
0
LINE
5
90
100
AcDbEntity
8
SK1
62
256
6
ByLayer
370
-1
48
1
60
0
100
AcDbLine
10
-2
20
-12.49675
30
0
11
-2
21
12.49675
31
0
39
0
210
0
220
0
230
1
0
LINE
5
91
100
AcDbEntity
8
SK1
62
256
6
ByLayer
370
-1
48
1
60
0
100
AcDbLine
10
-54.6
20
-6.998498
30
0
11
-55
21
-6.998498
31
0
39
0
210
0
220
0
230
1
0
LINE
5
92
100
AcDbEntity
8
SK1
62
256
6
ByLayer
370
-1
48
1
60
0
100
AcDbLine
10
-55
20
6.998498
30
0
11
-54.6
21
6.998498
31
0
39
0
210
0
220
0
230
1
0
LINE
5
93
100
AcDbEntity
8
SK1
62
256
6
ByLayer
370
-1
48
1
60
0
100
AcDbLine
10
-1.382165
20
12.25
30
0
11
-1.382165
21
-12.25
31
0
39
0
210
0
220
0
230
1
0
LINE
5
94
100
AcDbEntity
8
SK1
62
256
6
ByLayer
370
-1
48
1
60
0
100
AcDbLine
10
-56
20
4.998547
30
0
11
-56
21
-4.998547
31
0
39
0
210
0
220
0
230
1
0
LINE
5
95
100
AcDbEntity
8
SK1
62
256
6
ByLayer
370
-1
48
1
60
0
100
AcDbLine
10
-1.551212
20
12.287477
30
0
11
-1.551212
21
-12.287477
31
0
39
0
210
0
220
0
230
1
0
LINE
5
96
100
AcDbEntity
8
SK1
62
256
6
ByLayer
370
-1
48
1
60
0
100
AcDbLine
10
-53.633814
20
-6.340342
30
0
11
-53.633814
21
-12.140417
31
0
39
0
210
0
220
0
230
1
0
LINE
5
97
100
AcDbEntity
8
SK1
62
256
6
ByLayer
370
-1
48
1
60
0
100
AcDbLine
10
-53.633814
20
12.140417
30
0
11
-53.633814
21
6.340342
31
0
39
0
210
0
220
0
230
1
0
LINE
5
98
100
AcDbEntity
8
SK1
62
256
6
ByLayer
370
-1
48
1
60
0
100
AcDbLine
10
-54.516223
20
-6.812044
30
0
11
-54.516223
21
-12.393294
31
0
39
0
210
0
220
0
230
1
0
LINE
5
99
100
AcDbEntity
8
SK1
62
256
6
ByLayer
370
-1
48
1
60
0
100
AcDbLine
10
-54.516223
20
12.393294
30
0
11
-54.516223
21
6.812044
31
0
39
0
210
0
220
0
230
1
0
LINE
5
9A
100
AcDbEntity
8
SK1
62
256
6
ByLayer
370
-1
48
1
60
0
100
AcDbLine
10
-52.6
20
6.998498
30
0
11
-52.6
21
12.49675
31
0
39
0
210
0
220
0
230
1
0
LINE
5
9B
100
AcDbEntity
8
SK1
62
256
6
ByLayer
370
-1
48
1
60
0
100
AcDbLine
10
-52.6
20
-12.49675
30
0
11
-52.6
21
-6.998498
31
0
39
0
210
0
220
0
230
1
0
LINE
5
9C
100
AcDbEntity
8
SK1
62
256
6
ByLayer
370
-1
48
1
60
0
100
AcDbLine
10
-55
20
-6.998498
30
0
11
-55
21
-12.49675
31
0
39
0
210
0
220
0
230
1
0
LINE
5
9D
100
AcDbEntity
8
SK1
62
256
6
ByLayer
370
-1
48
1
60
0
100
AcDbLine
10
-55
20
12.49675
30
0
11
-55
21
6.998498
31
0
39
0
210
0
220
0
230
1
0
LINE
5
9E
100
AcDbEntity
8
SK1
62
256
6
ByLayer
370
-1
48
1
60
0
100
AcDbLine
10
-6.5
20
6.998498
30
0
11
-6.5
21
-6.998498
31
0
39
0
210
0
220
0
230
1
0
LINE
5
9F
100
AcDbEntity
8
SK1
62
256
6
ByLayer
370
-1
48
1
60
0
100
AcDbLine
10
-56
20
-4.998547
30
0
11
-56
21
-11.49675
31
0
39
0
210
0
220
0
230
1
0
LINE
5
A0
100
AcDbEntity
8
SK1
62
256
6
ByLayer
370
-1
48
1
60
0
100
AcDbLine
10
-56
20
11.49675
30
0
11
-56
21
4.998547
31
0
39
0
210
0
220
0
230
1
0
LINE
5
A1
100
AcDbEntity
8
SK1
62
256
6
ByLayer
370
-1
48
1
60
0
100
AcDbLine
10
-6.5
20
-6.998498
30
0
11
-52.6
21
-6.998498
31
0
39
0
210
0
220
0
230
1
0
LINE
5
A2
100
AcDbEntity
8
1
62
256
6
ByLayer
370
-1
48
1
60
0
100
AcDbLine
10
86.563959
20
-0.64654
30
0
11
86.196194
21
0.362003
31
0
39
0
210
0
220
0
230
1
0
LINE
5
A3
100
AcDbEntity
8
1
62
256
6
ByLayer
370
-1
48
1
60
0
100
AcDbLine
10
86.128466
20
-2.376114
30
0
11
86.047997
21
-0.843547
31
0
39
0
210
0
220
0
230
1
0
LINE
5
A4
100
AcDbEntity
8
1
62
256
6
ByLayer
370
-1
48
1
60
0
100
AcDbLine
10
86.113873
20
-6.01618
30
0
11
86.615171
21
-5.834063
31
0
39
0
210
0
220
0
230
1
0
LINE
5
A5
100
AcDbEntity
8
1
62
256
6
ByLayer
370
-1
48
1
60
0
100
AcDbLine
10
86.31962
20
-4.296186
30
0
11
86.342646
21
-3.638037
31
0
39
0
210
0
220
0
230
1
0
LINE
5
A6
100
AcDbEntity
8
1
62
256
6
ByLayer
370
-1
48
1
60
0
100
AcDbLine
10
86.450808
20
-2.408091
30
0
11
86.370339
21
-0.875524
31
0
39
0
210
0
220
0
230
1
0
LINE
5
A7
100
AcDbEntity
8
1
62
256
6
ByLayer
370
-1
48
1
60
0
100
AcDbLine
10
86.615171
20
-5.834063
30
0
11
86.542785
21
-5.744689
31
0
39
0
210
0
220
0
230
1
0
LINE
5
A8
100
AcDbEntity
8
1
62
256
6
ByLayer
370
-1
48
1
60
0
100
AcDbLine
10
86.593428
20
-0.791111
30
0
11
86.367837
21
-0.723718
31
0
39
0
210
0
220
0
230
1
0
LINE
5
A9
100
AcDbEntity
8
1
62
256
6
ByLayer
370
-1
48
1
60
0
100
AcDbLine
10
86.169547
20
-3.625899
30
0
11
86.146521
21
-4.284048
31
0
39
0
210
0
220
0
230
1
0
LINE
5
AA
100
AcDbEntity
8
1
62
256
6
ByLayer
370
-1
48
1
60
0
100
AcDbLine
10
86.370339
20
-0.875524
30
0
11
86.047997
21
-0.843547
31
0
39
0
210
0
220
0
230
1
0
LINE
5
AB
100
AcDbEntity
8
1
62
256
6
ByLayer
370
-1
48
1
60
0
100
AcDbLine
10
86.943856
20
-5.38251
30
0
11
86.839024
21
-5.253074
31
0
39
0
210
0
220
0
230
1
0
LINE
5
AC
100
AcDbEntity
8
1
62
256
6
ByLayer
370
-1
48
1
60
0
100
AcDbLine
10
86.943856
20
-5.38251
30
0
11
86.999695
21
-3.786467
31
0
39
0
210
0
220
0
230
1
0
LINE
5
AD
100
AcDbEntity
8
1
62
256
6
ByLayer
370
-1
48
1
60
0
100
AcDbLine
10
86.893882
20
-3.303562
30
0
11
86.685663
21
-3.292114
31
0
39
0
210
0
220
0
230
1
0
LINE
5
AE
100
AcDbEntity
8
1
62
256
6
ByLayer
370
-1
48
1
60
0
100
AcDbLine
10
86.128466
20
-2.376114
30
0
11
86.450808
21
-2.408091
31
0
39
0
210
0
220
0
230
1
0
LINE
5
AF
100
AcDbEntity
8
1
62
256
6
ByLayer
370
-1
48
1
60
0
100
AcDbLine
10
86.106811
20
-4.702512
30
0
11
86.183633
21
-4.621227
31
0
39
0
210
0
220
0
230
1
0
LINE
5
B0
100
AcDbEntity
8
1
62
256
6
ByLayer
370
-1
48
1
60
0
100
AcDbLine
10
86.41956
20
-4.299669
30
0
11
86.742147
21
-4.359752
31
0
39
0
210
0
220
0
230
1
0
LINE
5
B1
100
AcDbEntity
8
1
62
256
6
ByLayer
370
-1
48
1
60
0
100
AcDbLine
10
86.999695
20
-3.786467
30
0
11
86.766913
21
-3.662544
31
0
39
0
210
0
220
0
230
1
0
LINE
5
B2
100
AcDbEntity
8
1
62
256
6
ByLayer
370
-1
48
1
60
0
100
AcDbLine
10
86.128466
20
-2.376114
30
0
11
86.028603
21
-2.381338
31
0
39
0
210
0
220
0
230
1
0
LINE
5
B3
100
AcDbEntity
8
1
62
256
6
ByLayer
370
-1
48
1
60
0
100
AcDbLine
10
86.442586
20
-3.64152
30
0
11
86.765173
21
-3.701603
31
0
39
0
210
0
220
0
230
1
0
LINE
5
B4
100
AcDbEntity
8
1
62
256
6
ByLayer
370
-1
48
1
60
0
100
AcDbLine
10
86.028603
20
-2.381338
30
0
11
85.948134
21
-0.848771
31
0
39
0
210
0
220
0
230
1
0
LINE
5
B5
100
AcDbEntity
8
1
62
256
6
ByLayer
370
-1
48
1
60
0
100
AcDbLine
10
86.542785
20
-5.744689
30
0
11
86.110895
21
-5.775723
31
0
39
0
210
0
220
0
230
1
0
LINE
5
B6
100
AcDbEntity
8
1
62
256
6
ByLayer
370
-1
48
1
60
0
100
AcDbLine
10
86.382498
20
-3.358643
30
0
11
86.672761
21
-3.266545
31
0
39
0
210
0
220
0
230
1
0
LINE
5
B7
100
AcDbEntity
8
1
62
256
6
ByLayer
370
-1
48
1
60
0
100
AcDbLine
10
86.563959
20
-0.64654
30
0
11
86.344424
21
-0.580955
31
0
39
0
210
0
220
0
230
1
0
LINE
5
B8
100
AcDbEntity
8
1
62
256
6
ByLayer
370
-1
48
1
60
0
100
AcDbLine
10
86.765173
20
-3.701603
30
0
11
86.742147
21
-4.359752
31
0
39
0
210
0
220
0
230
1
0
LINE
5
B9
100
AcDbEntity
8
1
62
256
6
ByLayer
370
-1
48
1
60
0
100
AcDbLine
10
86.41956
20
-4.299669
30
0
11
86.442586
21
-3.64152
31
0
39
0
210
0
220
0
230
1
0
LINE
5
BA
100
AcDbEntity
8
1
62
256
6
ByLayer
370
-1
48
1
60
0
100
AcDbLine
10
86.683779
20
-2.511896
30
0
11
86.450808
21
-2.408091
31
0
39
0
210
0
220
0
230
1
0
LINE
5
BB
100
AcDbEntity
8
1
62
256
6
ByLayer
370
-1
48
1
60
0
100
AcDbLine
10
86.114046
20
-4.840316
30
0
11
86.256375
21
-4.689718
31
0
39
0
210
0
220
0
230
1
0
LINE
5
BC
100
AcDbEntity
8
1
62
256
6
ByLayer
370
-1
48
1
60
0
100
AcDbLine
10
86.196194
20
0.362003
30
0
11
86.143603
21
0.326634
31
0
39
0
210
0
220
0
230
1
0
LINE
5
BD
100
AcDbEntity
8
1
62
256
6
ByLayer
370
-1
48
1
60
0
100
AcDbLine
10
85.882025
20
-0.421256
30
0
11
86.227261
21
-0.132088
31
0
39
0
210
0
220
0
230
1
0
LINE
5
BE
100
AcDbEntity
8
1
62
256
6
ByLayer
370
-1
48
1
60
0
100
AcDbLine
10
86.683779
20
-2.511896
30
0
11
86.593428
21
-0.791111
31
0
39
0
210
0
220
0
230
1
0
LINE
5
BF
100
AcDbEntity
8
1
62
256
6
ByLayer
370
-1
48
1
60
0
100
AcDbLine
10
86.256375
20
-4.689718
30
0
11
86.851781
21
-5.374183
31
0
39
0
210
0
220
0
230
1
0
LINE
5
C0
100
AcDbEntity
8
1
62
256
6
ByLayer
370
-1
48
1
60
0
100
AcDbLine
10
86.143603
20
0.326634
30
0
11
86.227261
21
-0.132088
31
0
39
0
210
0
220
0
230
1
0
LINE
5
C1
100
AcDbEntity
8
1
62
256
6
ByLayer
370
-1
48
1
60
0
100
AcDbLine
10
79.553011
20
10.801241
30
0
11
79.57279
21
10.734555
31
0
39
0
210
0
220
0
230
1
0
LINE
5
C2
100
AcDbEntity
8
1
62
256
6
ByLayer
370
-1
48
1
60
0
100
AcDbLine
10
79.210698
20
10.068073
30
0
11
79.279592
21
10.070507
31
0
39
0
210
0
220
0
230
1
0
LINE
5
C3
100
AcDbEntity
8
1
62
256
6
ByLayer
370
-1
48
1
60
0
100
AcDbLine
10
80.084686
20
3.431237
30
0
11
80.082362
21
3.500947
31
0
39
0
210
0
220
0
230
1
0
LINE
5
C4
100
AcDbEntity
8
1
62
256
6
ByLayer
370
-1
48
1
60
0
100
AcDbLine
10
86.784133
20
4.402289
30
0
11
86.714175
21
4.399856
31
0
39
0
210
0
220
0
230
1
0
LINE
5
C5
100
AcDbEntity
8
1
62
256
6
ByLayer
370
-1
48
1
60
0
100
AcDbLine
10
86.781521
20
4.034798
30
0
11
86.713302
21
4.050485
31
0
39
0
210
0
220
0
230
1
0
LINE
5
C6
100
AcDbEntity
8
1
62
256
6
ByLayer
370
-1
48
1
60
0
100
AcDbLine
10
79.416783
20
4.144033
30
0
11
79.485677
21
4.146467
31
0
39
0
210
0
220
0
230
1
0
LINE
5
C7
100
AcDbEntity
8
1
62
256
6
ByLayer
370
-1
48
1
60
0
100
AcDbLine
10
79.206926
20
10.208026
30
0
11
79.275854
21
10.209142
31
0
39
0
210
0
220
0
230
1
0
LINE
5
C8
100
AcDbEntity
8
1
62
256
6
ByLayer
370
-1
48
1
60
0
100
AcDbLine
10
79.20565
20
10.368079
30
0
11
79.274587
21
10.368079
31
0
39
0
210
0
220
0
230
1
0
LINE
5
C9
100
AcDbEntity
8
1
62
256
6
ByLayer
370
-1
48
1
60
0
100
AcDbLine
10
79.420359
20
4.053098
30
0
11
79.489228
21
4.056166
31
0
39
0
210
0
220
0
230
1
0
LINE
5
CA
100
AcDbEntity
8
1
62
256
6
ByLayer
370
-1
48
1
60
0
100
AcDbLine
10
79.827441
20
10.825901
30
0
11
79.829965
21
10.756235
31
0
39
0
210
0
220
0
230
1
0
LINE
5
CB
100
AcDbEntity
8
1
62
256
6
ByLayer
370
-1
48
1
60
0
100
AcDbLine
10
85.910145
20
11.039125
30
0
11
85.911406
21
10.969415
31
0
39
0
210
0
220
0
230
1
0
LINE
5
CC
100
AcDbEntity
8
1
62
256
6
ByLayer
370
-1
48
1
60
0
100
AcDbLine
10
79.809211
20
3.436621
30
0
11
79.824306
21
3.504567
31
0
39
0
210
0
220
0
230
1
0
LINE
5
CD
100
AcDbEntity
8
1
62
256
6
ByLayer
370
-1
48
1
60
0
100
AcDbLine
10
79.207946
20
10.159037
30
0
11
79.27686
21
10.160837
31
0
39
0
210
0
220
0
230
1
0
LINE
5
CE
100
AcDbEntity
8
1
62
256
6
ByLayer
370
-1
48
1
60
0
100
AcDbLine
10
86.787905
20
4.262336
30
0
11
86.717914
21
4.26122
31
0
39
0
210
0
220
0
230
1
0
LINE
5
CF
100
AcDbEntity
8
1
62
256
6
ByLayer
370
-1
48
1
60
0
100
AcDbLine
10
86.562236
20
10.625958
30
0
11
86.492405
21
10.621094
31
0
39
0
210
0
220
0
230
1
0
LINE
5
D0
100
AcDbEntity
8
1
62
256
6
ByLayer
370
-1
48
1
60
0
100
AcDbLine
10
79.432595
20
3.844404
30
0
11
79.501362
21
3.849269
31
0
39
0
210
0
220
0
230
1
0
LINE
5
D1
100
AcDbEntity
8
1
62
256
6
ByLayer
370
-1
48
1
60
0
100
AcDbLine
10
86.076801
20
3.640871
30
0
11
86.073845
21
3.710562
31
0
39
0
210
0
220
0
230
1
0
LINE
5
D2
100
AcDbEntity
8
1
62
256
6
ByLayer
370
-1
48
1
60
0
100
AcDbLine
10
79.778686
20
10.823506
30
0
11
79.78189
21
10.753873
31
0
39
0
210
0
220
0
230
1
0
LINE
5
D3
100
AcDbEntity
8
1
62
256
6
ByLayer
370
-1
48
1
60
0
100
AcDbLine
10
80.175304
20
3.433999
30
0
11
80.172348
21
3.50369
31
0
39
0
210
0
220
0
230
1
0
LINE
5
D4
100
AcDbEntity
8
1
62
256
6
ByLayer
370
-1
48
1
60
0
100
AcDbLine
10
79.21331
20
10.435564
30
0
11
79.280466
21
10.419878
31
0
39
0
210
0
220
0
230
1
0
LINE
5
D5
100
AcDbEntity
8
1
62
256
6
ByLayer
370
-1
48
1
60
0
100
AcDbLine
10
79.91803
20
10.829491
30
0
11
79.919923
21
10.7598
31
0
39
0
210
0
220
0
230
1
0
LINE
5
D6
100
AcDbEntity
8
1
62
256
6
ByLayer
370
-1
48
1
60
0
100
AcDbLine
10
79.210698
20
10.068073
30
0
11
79.416783
21
4.144033
31
0
39
0
210
0
220
0
230
1
0
LINE
5
D7
100
AcDbEntity
8
1
62
256
6
ByLayer
370
-1
48
1
60
0
100
AcDbLine
10
80.035883
20
3.430213
30
0
11
80.03424
21
3.499937
31
0
39
0
210
0
220
0
230
1
0
LINE
5
D8
100
AcDbEntity
8
1
62
256
6
ByLayer
370
-1
48
1
60
0
100
AcDbLine
10
79.422746
20
4.004157
30
0
11
79.491582
21
4.007907
31
0
39
0
210
0
220
0
230
1
0
LINE
5
D9
100
AcDbEntity
8
1
62
256
6
ByLayer
370
-1
48
1
60
0
100
AcDbLine
10
80.175304
20
3.433999
30
0
11
86.076801
21
3.640871
31
0
39
0
210
0
220
0
230
1
0
LINE
5
DA
100
AcDbEntity
8
1
62
256
6
ByLayer
370
-1
48
1
60
0
100
AcDbLine
10
85.819527
20
11.036363
30
0
11
79.91803
21
10.829491
31
0
39
0
210
0
220
0
230
1
0
LINE
5
DB
100
AcDbEntity
8
1
62
256
6
ByLayer
370
-1
48
1
60
0
100
AcDbLine
10
86.375289
20
3.656743
30
0
11
86.369912
21
3.726307
31
0
39
0
210
0
220
0
230
1
0
LINE
5
DC
100
AcDbEntity
8
1
62
256
6
ByLayer
370
-1
48
1
60
0
100
AcDbLine
10
79.619542
20
10.813619
30
0
11
79.623856
21
10.744055
31
0
39
0
210
0
220
0
230
1
0
LINE
5
DD
100
AcDbEntity
8
1
62
256
6
ByLayer
370
-1
48
1
60
0
100
AcDbLine
10
86.789181
20
4.102283
30
0
11
86.719181
21
4.102283
31
0
39
0
210
0
220
0
230
1
0
LINE
5
DE
100
AcDbEntity
8
1
62
256
6
ByLayer
370
-1
48
1
60
0
100
AcDbLine
10
86.786885
20
4.311325
30
0
11
86.716908
21
4.309526
31
0
39
0
210
0
220
0
230
1
0
LINE
5
DF
100
AcDbEntity
8
1
62
256
6
ByLayer
370
-1
48
1
60
0
100
AcDbLine
10
86.574472
20
10.417265
30
0
11
86.504539
21
10.414197
31
0
39
0
210
0
220
0
230
1
0
LINE
5
E0
100
AcDbEntity
8
1
62
256
6
ByLayer
370
-1
48
1
60
0
100
AcDbLine
10
86.118392
20
11.041431
30
0
11
86.11786
21
10.971697
31
0
39
0
210
0
220
0
230
1
0
LINE
5
E1
100
AcDbEntity
8
1
62
256
6
ByLayer
370
-1
48
1
60
0
100
AcDbLine
10
86.16739
20
3.644461
30
0
11
86.163802
21
3.714127
31
0
39
0
210
0
220
0
230
1
0
LINE
5
E2
100
AcDbEntity
8
1
62
256
6
ByLayer
370
-1
48
1
60
0
100
AcDbLine
10
79.876439
20
3.428932
30
0
11
79.875908
21
3.498665
31
0
39
0
210
0
220
0
230
1
0
LINE
5
E3
100
AcDbEntity
8
1
62
256
6
ByLayer
370
-1
48
1
60
0
100
AcDbLine
10
86.549906
20
10.692743
30
0
11
86.482941
21
10.672354
31
0
39
0
210
0
220
0
230
1
0
LINE
5
E4
100
AcDbEntity
8
1
62
256
6
ByLayer
370
-1
48
1
60
0
100
AcDbLine
10
79.444926
20
3.77762
30
0
11
79.510827
21
3.798008
31
0
39
0
210
0
220
0
230
1
0
LINE
5
E5
100
AcDbEntity
8
1
62
256
6
ByLayer
370
-1
48
1
60
0
100
AcDbLine
10
85.958948
20
11.04015
30
0
11
85.959528
21
10.970425
31
0
39
0
210
0
220
0
230
1
0
LINE
5
E6
100
AcDbEntity
8
1
62
256
6
ByLayer
370
-1
48
1
60
0
100
AcDbLine
10
86.572086
20
10.466206
30
0
11
86.502186
21
10.462455
31
0
39
0
210
0
220
0
230
1
0
LINE
5
E7
100
AcDbEntity
8
1
62
256
6
ByLayer
370
-1
48
1
60
0
100
AcDbLine
10
86.578048
20
10.326329
30
0
11
86.50809
21
10.323896
31
0
39
0
210
0
220
0
230
1
0
LINE
5
E8
100
AcDbEntity
8
1
62
256
6
ByLayer
370
-1
48
1
60
0
100
AcDbLine
10
86.784133
20
4.402289
30
0
11
86.578048
21
10.326329
31
0
39
0
210
0
220
0
230
1
0
LINE
5
E9
100
AcDbEntity
8
1
62
256
6
ByLayer
370
-1
48
1
60
0
100
AcDbLine
10
86.18562
20
11.033742
30
0
11
86.169462
21
10.965795
31
0
39
0
210
0
220
0
230
1
0
LINE
5
EA
100
AcDbEntity
8
1
62
256
6
ByLayer
370
-1
48
1
60
0
100
AcDbLine
10
85.819527
20
11.036363
30
0
11
85.82142
21
10.966672
31
0
39
0
210
0
220
0
230
1
0
LINE
5
EB
100
AcDbEntity
8
1
62
256
6
ByLayer
370
-1
48
1
60
0
100
AcDbLine
10
86.216145
20
3.646857
30
0
11
86.211877
21
3.716489
31
0
39
0
210
0
220
0
230
1
0
LINE
5
EC
100
AcDbEntity
8
1
62
256
6
ByLayer
370
-1
48
1
60
0
100
AcDbLine
10
86.44182
20
3.669121
30
0
11
86.420978
21
3.735808
31
0
39
0
210
0
220
0
230
1
0
MTEXT
5
203
100
AcDbEntity
8
SK6
62
256
6
ByLayer
370
-1
48
1
60
0
100
AcDbMText
10
0.79375
20
-80.79375
30
0
210
0
220
0
230
1
1
\W00.740;\fsimplex.shx,bigfont.shx;880-D2200L25-03 
40
3.175
41
0
44
1.084337
50
0
71
7
72
5
7
DEFAULT
0
DIMENSION
5
233
100
AcDbEntity
8
SK2
62
256
6
ByLayer
370
-3
48
1
60
0
100
AcDbDimension
2
DimnDraft3D1
10
87
20
-54.86955
30
0
11
15.5
21
-54.86955
31
0
70
32
71
5
72
1
41
1
210
0
220
0
230
1
3
Standard
100
AcDbAlignedDimension
13
-56
23
-14.0875
33
0
14
87
24
-12.5875
34
0
50
0
100
AcDbRotatedDimension
1001
ACAD
1000
DSTYLE
1002
{
1070
   279
1070
     0
1070
   172
1070
     1
1070
   173
1070
     1
1070
   340
1005
204
1070
   271
1070
     1
1070
   272
1070
     2
1070
    77
1070
     1
1070
    73
1070
     0
1070
   171
1070
     3
1070
   274
1070
     4
1070
   177
1070
   150
1070
   176
1070
     9
1070
   178
1070
    43
1070
    78
1070
     8
1070
    48
1040
-0.005
1070
    41
1041
4.175
1070
   147
1041
2.25
1070
    42
1041
1.5875
1070
    44
1041
3.175
1070
   140
1041
4.5
1070
   343
1005
0
1070
   344
1005
0
1002
}
0
DIMENSION
5
23D
100
AcDbEntity
8
SK2
62
256
6
ByLayer
370
-3
48
1
60
0
100
AcDbDimension
2
DimnDraft3D2
10
0
20
-42.9008
30
0
11
-28
21
-42.9008
31
0
70
32
71
5
72
1
41
1
210
0
220
0
230
1
3
Standard
100
AcDbAlignedDimension
13
-56
23
-14.0875
33
0
14
0
24
-17.5875
34
0
50
0
100
AcDbRotatedDimension
1001
ACAD
1000
DSTYLE
1002
{
1070
   279
1070
     0
1070
   172
1070
     1
1070
   173
1070
     1
1070
   340
1005
204
1070
   271
1070
     1
1070
   272
1070
     2
1070
    77
1070
     1
1070
    73
1070
     0
1070
   171
1070
     3
1070
   274
1070
     4
1070
   177
1070
   150
1070
   176
1070
     9
1070
   178
1070
    43
1070
    78
1070
     8
1070
    48
1040
-0.005
1070
    41
1041
4.175
1070
   147
1041
2.25
1070
    42
1041
1.5875
1070
    44
1041
3.175
1070
   140
1041
4.5
1070
   343
1005
0
1070
   344
1005
0
1002
}
0
DIMENSION
5
248
100
AcDbEntity
8
2
62
256
6
ByLayer
370
-3
48
1
60
0
100
AcDbDimension
2
DimnDraft3D3
10
87
20
-42.9008
30
0
11
43.5
21
-42.9008
31
0
70
32
71
5
72
1
41
1
210
0
220
0
230
1
3
Standard
100
AcDbAlignedDimension
13
0
23
-17.5875
33
0
14
87
24
-12.5875
34
0
50
0
100
AcDbRotatedDimension
1001
ACAD
1000
DSTYLE
1002
{
1070
   279
1070
     0
1070
   172
1070
     1
1070
   173
1070
     1
1070
   340
1005
204
1070
   271
1070
     1
1070
   272
1070
     2
1070
    77
1070
     1
1070
    73
1070
     0
1070
   171
1070
     3
1070
   274
1070
     4
1070
   177
1070
   150
1070
   176
1070
     9
1070
   178
1070
    43
1070
    78
1070
     8
1070
    48
1040
-0.005
1070
    41
1041
4.175
1070
   147
1041
2.25
1070
    42
1041
1.5875
1070
    44
1041
3.175
1070
   140
1041
4.5
1070
   343
1005
0
1070
   344
1005
0
1002
}
0
DIMENSION
5
252
100
AcDbEntity
8
SK2
62
256
6
ByLayer
370
-3
48
1
60
0
100
AcDbDimension
2
DimnDraft3D4
10
87
20
-32.9008
30
0
11
52.5
21
-32.9008
31
0
70
32
71
5
72
1
41
1
210
0
220
0
230
1
3
Standard
100
AcDbAlignedDimension
13
18
23
-11.5875
33
0
14
87
24
-12.5875
34
0
50
0
100
AcDbRotatedDimension
1001
ACAD
1000
DSTYLE
1002
{
1070
   279
1070
     0
1070
   172
1070
     1
1070
   173
1070
     1
1070
   340
1005
204
1070
   271
1070
     1
1070
   272
1070
     2
1070
    77
1070
     1
1070
    73
1070
     0
1070
   171
1070
     3
1070
   274
1070
     4
1070
   177
1070
   150
1070
   176
1070
     9
1070
   178
1070
    43
1070
    78
1070
     8
1070
    48
1040
-0.005
1070
    41
1041
4.175
1070
   147
1041
2.25
1070
    42
1041
1.5875
1070
    44
1041
3.175
1070
   140
1041
4.5
1070
   343
1005
0
1070
   344
1005
0
1002
}
0
DIMENSION
5
25D
100
AcDbEntity
8
SK2
62
256
6
ByLayer
370
-3
48
1
60
0
100
AcDbDimension
2
DimnDraft3D5
10
-67.9
20
-12.5
30
0
11
-68.1
21
4.121053
31
0
70
33
71
5
72
1
41
1
210
0
220
0
230
1
3
Standard
100
AcDbAlignedDimension
13
-57.5875
23
12.5
33
0
14
-57.5875
24
-12.5
34
0
1001
ACAD
1000
DSTYLE
1002
{
1070
   279
1070
     0
1070
    74
1070
     0
1070
   173
1070
     1
1070
   340
1005
204
1070
   271
1070
     2
1070
   272
1070
     2
1070
    77
1070
     1
1070
    73
1070
     0
1070
   171
1070
     3
1070
   274
1070
     4
1070
   177
1070
   150
1070
   176
1070
     9
1070
   178
1070
    43
1070
    78
1070
     8
1070
    48
1040
-0.005
1070
    41
1041
4.175
1070
   147
1041
2.25
1070
    42
1041
1.5875
1070
    44
1041
3.175
1070
   140
1041
4.5
1070
   343
1005
0
1070
   344
1005
0
1002
}
0
DIMENSION
5
268
100
AcDbEntity
8
SK2
62
256
6
ByLayer
370
-3
48
1
60
0
100
AcDbDimension
2
DimnDraft3D6
10
-77.9
20
16
30
0
11
-78.1
21
4.121053
31
0
70
33
71
5
72
1
41
1
210
0
220
0
230
1
3
Standard
100
AcDbAlignedDimension
13
-1.5875
23
-16
33
0
14
-1.5875
24
16
34
0
1001
ACAD
1000
DSTYLE
1002
{
1070
   279
1070
     0
1070
    74
1070
     0
1070
   173
1070
     1
1070
   340
1005
204
1070
   271
1070
     1
1070
   272
1070
     2
1070
    77
1070
     1
1070
    73
1070
     0
1070
   171
1070
     3
1070
   274
1070
     4
1070
   177
1070
   150
1070
   176
1070
     9
1070
   178
1070
    43
1070
    78
1070
     8
1070
    48
1040
-0.005
1070
    41
1041
4.175
1070
   147
1041
2.25
1070
    42
1041
1.5875
1070
    44
1041
3.175
1070
   140
1041
4.5
1070
   343
1005
0
1070
   344
1005
0
1002
}
0
DIMENSION
5
273
100
AcDbEntity
8
2
62
256
6
ByLayer
370
-3
48
1
60
0
100
AcDbDimension
2
DimnDraft3D7
10
117.15
20
-11
30
0
11
110.6
21
4.121053
31
0
70
33
71
5
72
1
41
1
210
0
220
0
230
1
3
Standard
100
AcDbAlignedDimension
13
88.5875
23
11
33
0
14
88.5875
24
-11
34
0
1001
ACAD
1000
DSTYLE
1002
{
1070
   279
1070
     0
1070
    74
1070
     0
1070
   173
1070
     1
1070
   340
1005
204
1070
   271
1070
     2
1070
   272
1070
     2
1070
    77
1070
     1
1070
    73
1070
     0
1070
   171
1070
     3
1070
   274
1070
     4
1070
   177
1070
   150
1070
   176
1070
     9
1070
   178
1070
    43
1070
    78
1070
     8
1070
    48
1040
-0.005
1070
    41
1041
4.175
1070
   147
1041
2.25
1070
    42
1041
1.5875
1070
    44
1041
3.175
1070
   140
1041
4.5
1070
   343
1005
0
1070
   344
1005
0
1002
}
0
ENDSEC
0
SECTION
2
OBJECTS
0
DICTIONARY
5
2a4
330
0
100
AcDbDictionary
280
0
281
1
3
ACAD_GROUP
350
2a5
3
ACAD_MLINESTYLE
350
2a6
0
DICTIONARY
5
2a5
330
0
100
AcDbDictionary
280
0
281
1
0
DICTIONARY
5
2a6
330
0
100
AcDbDictionary
280
0
281
1
3
Standard
350
18
0
MLINESTYLE
5
18
330
2a6
100
AcDbMlineStyle
2
Standard
70
0
3

62
256
51
90
52
90
71
2
49
-0.5
62
256
6
ByLayer
49
0.5
62
256
6
ByLayer
0
RASTERVARIABLES
5
292
330

100
AcDbRasterVariables
90
0
70
1
71
1
72
1
0
ENDSEC
0
EOF
