0
SECTION
2
HEADER
9
$ACADVER
1
AC1015
9
$DWGCODEPAGE
3
ANSI_1252
9
$HANDSEED
5
2be
9
$ANGBASE
50
0
9
$ANGDIR
70
0
9
$ATTMODE
70
1
9
$AUNITS
70
0
9
$AUPREC
70
0
9
$CECOLOR
62
256
9
$CELTSCALE
40
1
9
$CELTYPE
6
ByLayer
9
$CELWEIGHT
370
-1
9
$CLAYER
8
0
9
$CMLJUST
70
0
9
$CMLSCALE
40
1
9
$CMLSTYLE
2
Standard
9
$DIMSTYLE
2
Standard
9
$TEXTSIZE
40
0.2
9
$TEXTSTYLE
7
Standard
9
$LUNITS
70
2
9
$LUPREC
70
4
9
$EXTNAMES
290
1
9
$INSUNITS
70
4
9
$LTSCALE
40
1
9
$LWDISPLAY
290
0
9
$PDMODE
70
0
9
$PDSIZE
40
0
9
$PLINEGEN
70
0
0
ENDSEC
0
SECTION
2
CLASSES
0
CLASS
1
RASTERVARIABLES
2
AcDbRasterVariables
3
ISM
90
0
280
0
281
0
0
ENDSEC
0
SECTION
2
TABLES
0
TABLE
2
VPORT
5
2b4
100
AcDbSymbolTable
0
VPORT
5
1
100
AcDbSymbolTableRecord
100
AcDbViewportTableRecord
2
*Active
70
0
10
0
20
0
11
1
21
1
12
-1
22
1
13
0
23
0
14
0.5
24
0.5
15
10
25
10
16
0
26
0
36
1
17
0
27
0
37
0
0
ENDTAB
0
TABLE
2
LTYPE
5
2b5
100
AcDbSymbolTable
0
LTYPE
5
14
100
AcDbSymbolTableRecord
100
AcDbLinetypeTableRecord
70
0
2
ByBlock
3

72
65
73
0
40
0
0
LTYPE
5
15
100
AcDbSymbolTableRecord
100
AcDbLinetypeTableRecord
70
0
2
ByLayer
3

72
65
73
0
40
0
0
LTYPE
5
16
100
AcDbSymbolTableRecord
100
AcDbLinetypeTableRecord
70
0
2
CONTINUOUS
3
Solid line
72
65
73
0
40
0
0
LTYPE
5
3B
100
AcDbSymbolTableRecord
100
AcDbLinetypeTableRecord
70
0
2
DASHED
3
__ __ __ __ __ __ __ __ __
72
65
73
2
40
25.72
49
12.86
74
0
49
-12.86
74
0
0
LTYPE
5
3C
100
AcDbSymbolTableRecord
100
AcDbLinetypeTableRecord
70
0
2
HIDDEN
3
_ _ _ _ _ _ _ _ _ _ _ _ _ _ _
72
65
73
2
40
0.5
49
0.25
74
0
49
-0.25
74
0
0
LTYPE
5
3D
100
AcDbSymbolTableRecord
100
AcDbLinetypeTableRecord
70
0
2
PHANTOM
3
____ _ _ ____ _ _ _____ _ _ ____
72
65
73
6
40
50.5
49
18
74
0
49
-6.5
74
0
49
6.5
74
0
49
-6.5
74
0
49
6.5
74
0
49
-6.5
74
0
0
LTYPE
5
3E
100
AcDbSymbolTableRecord
100
AcDbLinetypeTableRecord
70
0
2
CENTER
3
____ _ ____ _ ____ _ ____
72
65
73
4
40
47.5
49
22
74
0
49
-8.5
74
0
49
8.5
74
0
49
-8.5
74
0
0
LTYPE
5
3F
100
AcDbSymbolTableRecord
100
AcDbLinetypeTableRecord
70
0
2
DOT
3
.........................
72
65
73
2
40
10
49
0
74
0
49
-10
74
0
0
LTYPE
5
40
100
AcDbSymbolTableRecord
100
AcDbLinetypeTableRecord
70
0
2
DASHDOT
3
_._._._._._._._._._._._._._._._.
72
65
73
4
40
70
49
31
74
0
49
-13
74
0
49
13
74
0
49
-13
74
0
0
ENDTAB
0
TABLE
2
LAYER
5
2b6
100
AcDbSymbolTable
0
LAYER
5
10
100
AcDbSymbolTableRecord
100
AcDbLayerTableRecord
2
0
70
0
62
7
6
CONTINUOUS
290
1
370
-3
390
0
0
LAYER
5
42
100
AcDbSymbolTableRecord
100
AcDbLayerTableRecord
2
81
70
0
62
-3
6
CONTINUOUS
290
1
370
-3
390
0
0
LAYER
5
44
100
AcDbSymbolTableRecord
100
AcDbLayerTableRecord
2
80
70
0
62
-6
6
CONTINUOUS
290
1
370
-3
390
0
0
LAYER
5
57
100
AcDbSymbolTableRecord
100
AcDbLayerTableRecord
2
1
70
0
62
4
6
CONTINUOUS
290
1
370
-3
390
0
0
LAYER
5
63
100
AcDbSymbolTableRecord
100
AcDbLayerTableRecord
2
4
70
0
62
-2
6
CENTER
290
1
370
-3
390
0
0
LAYER
5
24D
100
AcDbSymbolTableRecord
100
AcDbLayerTableRecord
2
2
70
0
62
7
6
CONTINUOUS
290
1
370
-3
390
0
0
LAYER
5
2a0
100
AcDbSymbolTableRecord
100
AcDbLayerTableRecord
2
SK1
70
0
62
4
6
CONTINUOUS
290
1
370
-3
390
0
0
LAYER
5
2a1
100
AcDbSymbolTableRecord
100
AcDbLayerTableRecord
2
SK4
70
0
62
2
6
CENTER
290
1
370
-3
390
0
0
LAYER
5
2a2
100
AcDbSymbolTableRecord
100
AcDbLayerTableRecord
2
SK6
70
0
62
5
6
CONTINUOUS
290
1
370
-3
390
0
0
LAYER
5
2a3
100
AcDbSymbolTableRecord
100
AcDbLayerTableRecord
2
SK2
70
0
62
7
6
CONTINUOUS
290
1
370
-3
390
0
0
ENDTAB
0
TABLE
2
STYLE
5
2b7
100
AcDbSymbolTable
0
STYLE
5
11
100
AcDbSymbolTableRecord
100
AcDbTextStyleTableRecord
2
Standard
3
txt
70
0
71
0
40
0
41
1
42
0
50
0
0
STYLE
5
211
100
AcDbSymbolTableRecord
100
AcDbTextStyleTableRecord
2
DEFAULT
3
simplex.shx
70
0
71
0
40
0
41
1
42
0
50
0
0
STYLE
5
234
100
AcDbSymbolTableRecord
100
AcDbTextStyleTableRecord
2
DWGDirectTextStyle
3
SIMPLEX
70
0
71
0
40
0
41
1
42
0
50
0
0
ENDTAB
0
TABLE
2
DIMSTYLE
5
2b8
100
AcDbSymbolTable
100
AcDbDimStyleTable
0
DIMSTYLE
105
27
100
AcDbSymbolTableRecord
100
AcDbDimStyleTableRecord
2
Standard
70
0
3
<>
41
0.18
42
0.0625
44
0.18
140
0.18
147
0.09
73
0
74
0
77
1
271
2
275
0
278
52
280
0
340
11
0
ENDTAB
0
TABLE
2
VIEW
5
2b9
100
AcDbSymbolTable
0
ENDTAB
0
TABLE
2
UCS
5
2ba
100
AcDbSymbolTable
0
ENDTAB
0
TABLE
2
APPID
5
2bb
100
AcDbSymbolTable
0
APPID
5
12
100
AcDbSymbolTableRecord
100
AcDbRegAppTableRecord
2
ACAD
70
0
0
ENDTAB
0
TABLE
2
BLOCK_RECORD
5
2bc
100
AcDbSymbolTable
0
BLOCK_RECORD
5
1F
100
AcDbSymbolTableRecord
100
AcDbBlockTableRecord
2
*Model_Space
340
0
70
0
0
BLOCK_RECORD
5
1B
100
AcDbSymbolTableRecord
100
AcDbBlockTableRecord
2
*Paper_Space
340
0
70
0
0
BLOCK_RECORD
5
23
100
AcDbSymbolTableRecord
100
AcDbBlockTableRecord
2
*Paper_Space0
340
0
70
0
0
BLOCK_RECORD
5
236
100
AcDbSymbolTableRecord
100
AcDbBlockTableRecord
2
DimnDraft3D1
340
0
70
0
0
BLOCK_RECORD
5
241
100
AcDbSymbolTableRecord
100
AcDbBlockTableRecord
2
DimnDraft3D2
340
0
70
0
0
BLOCK_RECORD
5
24B
100
AcDbSymbolTableRecord
100
AcDbBlockTableRecord
2
DimnDraft3D3
340
0
70
0
0
BLOCK_RECORD
5
256
100
AcDbSymbolTableRecord
100
AcDbBlockTableRecord
2
DimnDraft3D4
340
0
70
0
0
BLOCK_RECORD
5
260
100
AcDbSymbolTableRecord
100
AcDbBlockTableRecord
2
DimnDraft3D5
340
0
70
0
0
BLOCK_RECORD
5
26B
100
AcDbSymbolTableRecord
100
AcDbBlockTableRecord
2
DimnDraft3D6
340
0
70
0
0
BLOCK_RECORD
5
276
100
AcDbSymbolTableRecord
100
AcDbBlockTableRecord
2
DimnDraft3D7
340
0
70
0
0
ENDTAB
0
ENDSEC
0
SECTION
2
BLOCKS
0
BLOCK
5
20
100
AcDbEntity
8
0
100
AcDbBlockBegin
2
*Model_Space
70
0
10
0
20
0
30
0
3
*Model_Space
0
ENDBLK
5
21
100
AcDbEntity
8
0
100
AcDbBlockEnd
0
BLOCK
5
1C
100
AcDbEntity
8
0
100
AcDbBlockBegin
2
*Paper_Space
70
0
10
0
20
0
30
0
3
*Paper_Space
0
ENDBLK
5
1D
100
AcDbEntity
8
0
100
AcDbBlockEnd
0
BLOCK
5
24
100
AcDbEntity
8
0
100
AcDbBlockBegin
2
*Paper_Space0
70
0
10
0
20
0
30
0
3
*Paper_Space0
0
ENDBLK
5
25
100
AcDbEntity
8
0
100
AcDbBlockEnd
0
BLOCK
5
23E
100
AcDbEntity
8
0
100
AcDbBlockBegin
2
DimnDraft3D1
70
0
10
0
20
0
30
0
3
DimnDraft3D1
0
MTEXT
5
237
100
AcDbEntity
8
SK2
62
256
6
ByLayer
370
-1
48
1
60
0
100
AcDbMText
10
17.969079
20
-51.7758
30
0
210
0
220
0
230
1
1
\W01.000;\fsimplex.shx,bigfont.shx;(161) 
40
4.5
41
0
44
1.084337
50
0
71
7
72
5
7
DEFAULT
0
LINE
5
239
100
AcDbEntity
8
SK2
62
256
6
ByLayer
370
-1
48
1
60
0
100
AcDbLine
10
-56
20
-14.0875
30
0
11
-56
21
-58.04455
31
0
39
0
210
0
220
0
230
1
0
LINE
5
23A
100
AcDbEntity
8
SK2
62
256
6
ByLayer
370
-1
48
1
60
0
100
AcDbLine
10
105
20
-12.0875
30
0
11
105
21
-58.04455
31
0
39
0
210
0
220
0
230
1
0
LINE
5
23B
100
AcDbEntity
8
SK2
62
256
6
ByLayer
370
-1
48
1
60
0
100
AcDbLine
10
-56
20
-54.86955
30
0
11
105
21
-54.86955
31
0
39
0
210
0
220
0
230
1
0
SOLID
5
23C
100
AcDbEntity
8
SK2
62
256
6
ByLayer
370
-1
48
1
60
0
100
AcDbTrace
10
-56
20
-54.86955
30
0
11
-51.825003
21
-53.943975
31
0
12
-51.824997
22
-55.795125
32
0
13
-56
23
-54.86955
33
0
39
0
210
0
220
0
230
1
0
SOLID
5
23D
100
AcDbEntity
8
SK2
62
256
6
ByLayer
370
-1
48
1
60
0
100
AcDbTrace
10
105
20
-54.86955
30
0
11
100.825003
21
-55.795125
31
0
12
100.824997
22
-53.943975
32
0
13
105
23
-54.86955
33
0
39
0
210
0
220
0
230
1
0
ENDBLK
5
23F
100
AcDbEntity
8
0
100
AcDbBlockEnd
0
BLOCK
5
248
100
AcDbEntity
8
0
100
AcDbBlockBegin
2
DimnDraft3D2
70
0
10
0
20
0
30
0
3
DimnDraft3D2
0
MTEXT
5
242
100
AcDbEntity
8
SK2
62
256
6
ByLayer
370
-1
48
1
60
0
100
AcDbMText
10
-29.503947
20
-41.7758
30
0
210
0
220
0
230
1
1
\W01.000;\fsimplex.shx,bigfont.shx;56 
40
4.5
41
0
44
1.084337
50
0
71
7
72
5
7
DEFAULT
0
LINE
5
243
100
AcDbEntity
8
SK2
62
256
6
ByLayer
370
-1
48
1
60
0
100
AcDbLine
10
-56
20
-14.0875
30
0
11
-56
21
-46.0758
31
0
39
0
210
0
220
0
230
1
0
LINE
5
244
100
AcDbEntity
8
SK2
62
256
6
ByLayer
370
-1
48
1
60
0
100
AcDbLine
10
0
20
-17.5875
30
0
11
0
21
-46.0758
31
0
39
0
210
0
220
0
230
1
0
LINE
5
245
100
AcDbEntity
8
SK2
62
256
6
ByLayer
370
-1
48
1
60
0
100
AcDbLine
10
-56
20
-42.9008
30
0
11
0
21
-42.9008
31
0
39
0
210
0
220
0
230
1
0
SOLID
5
246
100
AcDbEntity
8
SK2
62
256
6
ByLayer
370
-1
48
1
60
0
100
AcDbTrace
10
-56
20
-42.9008
30
0
11
-51.825003
21
-41.975225
31
0
12
-51.824997
22
-43.826375
32
0
13
-56
23
-42.9008
33
0
39
0
210
0
220
0
230
1
0
SOLID
5
247
100
AcDbEntity
8
SK2
62
256
6
ByLayer
370
-1
48
1
60
0
100
AcDbTrace
10
0
20
-42.9008
30
0
11
-4.174997
21
-43.826375
31
0
12
-4.175003
22
-41.975225
32
0
13
0
23
-42.9008
33
0
39
0
210
0
220
0
230
1
0
ENDBLK
5
249
100
AcDbEntity
8
0
100
AcDbBlockEnd
0
BLOCK
5
253
100
AcDbEntity
8
0
100
AcDbBlockBegin
2
DimnDraft3D3
70
0
10
0
20
0
30
0
3
DimnDraft3D3
0
MTEXT
5
24C
100
AcDbEntity
8
2
62
256
6
ByLayer
370
-1
48
1
60
0
100
AcDbMText
10
49.906579
20
-41.7758
30
0
210
0
220
0
230
1
1
\W01.000;\fsimplex.shx,bigfont.shx;105 
40
4.5
41
0
44
1.084337
50
0
71
7
72
5
7
DEFAULT
0
LINE
5
24E
100
AcDbEntity
8
2
62
256
6
ByLayer
370
-1
48
1
60
0
100
AcDbLine
10
0
20
-17.5875
30
0
11
0
21
-46.0758
31
0
39
0
210
0
220
0
230
1
0
LINE
5
24F
100
AcDbEntity
8
2
62
256
6
ByLayer
370
-1
48
1
60
0
100
AcDbLine
10
105
20
-12.0875
30
0
11
105
21
-46.0758
31
0
39
0
210
0
220
0
230
1
0
LINE
5
250
100
AcDbEntity
8
2
62
256
6
ByLayer
370
-1
48
1
60
0
100
AcDbLine
10
0
20
-42.9008
30
0
11
105
21
-42.9008
31
0
39
0
210
0
220
0
230
1
0
SOLID
5
251
100
AcDbEntity
8
2
62
256
6
ByLayer
370
-1
48
1
60
0
100
AcDbTrace
10
0
20
-42.9008
30
0
11
4.174997
21
-41.975225
31
0
12
4.175003
22
-43.826375
32
0
13
0
23
-42.9008
33
0
39
0
210
0
220
0
230
1
0
SOLID
5
252
100
AcDbEntity
8
2
62
256
6
ByLayer
370
-1
48
1
60
0
100
AcDbTrace
10
105
20
-42.9008
30
0
11
100.825003
21
-43.826375
31
0
12
100.824997
22
-41.975225
32
0
13
105
23
-42.9008
33
0
39
0
210
0
220
0
230
1
0
ENDBLK
5
254
100
AcDbEntity
8
0
100
AcDbBlockEnd
0
BLOCK
5
25D
100
AcDbEntity
8
0
100
AcDbBlockBegin
2
DimnDraft3D4
70
0
10
0
20
0
30
0
3
DimnDraft3D4
0
MTEXT
5
257
100
AcDbEntity
8
SK2
62
256
6
ByLayer
370
-1
48
1
60
0
100
AcDbMText
10
59.996053
20
-31.7758
30
0
210
0
220
0
230
1
1
\W01.000;\fsimplex.shx,bigfont.shx;87 
40
4.5
41
0
44
1.084337
50
0
71
7
72
5
7
DEFAULT
0
LINE
5
258
100
AcDbEntity
8
SK2
62
256
6
ByLayer
370
-1
48
1
60
0
100
AcDbLine
10
18
20
-11.5875
30
0
11
18
21
-36.0758
31
0
39
0
210
0
220
0
230
1
0
LINE
5
259
100
AcDbEntity
8
SK2
62
256
6
ByLayer
370
-1
48
1
60
0
100
AcDbLine
10
105
20
-12.0875
30
0
11
105
21
-36.0758
31
0
39
0
210
0
220
0
230
1
0
LINE
5
25A
100
AcDbEntity
8
SK2
62
256
6
ByLayer
370
-1
48
1
60
0
100
AcDbLine
10
18
20
-32.9008
30
0
11
105
21
-32.9008
31
0
39
0
210
0
220
0
230
1
0
SOLID
5
25B
100
AcDbEntity
8
SK2
62
256
6
ByLayer
370
-1
48
1
60
0
100
AcDbTrace
10
18
20
-32.9008
30
0
11
22.174997
21
-31.975225
31
0
12
22.175003
22
-33.826375
32
0
13
18
23
-32.9008
33
0
39
0
210
0
220
0
230
1
0
SOLID
5
25C
100
AcDbEntity
8
SK2
62
256
6
ByLayer
370
-1
48
1
60
0
100
AcDbTrace
10
105
20
-32.9008
30
0
11
100.825003
21
-33.826375
31
0
12
100.824997
22
-31.975225
32
0
13
105
23
-32.9008
33
0
39
0
210
0
220
0
230
1
0
ENDBLK
5
25E
100
AcDbEntity
8
0
100
AcDbBlockEnd
0
BLOCK
5
268
100
AcDbEntity
8
0
100
AcDbBlockBegin
2
DimnDraft3D5
70
0
10
0
20
0
30
0
3
DimnDraft3D5
0
MTEXT
5
261
100
AcDbEntity
8
SK2
62
256
6
ByLayer
370
-1
48
1
60
0
100
AcDbMText
10
-66.975
20
5.246053
30
0
210
0
220
0
230
1
1
\W01.000;\fsimplex.shx,bigfont.shx;25 
40
4.5
41
0
44
1.084337
50
90
71
7
72
5
7
DEFAULT
0
MTEXT
5
262
100
AcDbEntity
8
SK2
62
256
6
ByLayer
370
-1
48
1
60
0
100
AcDbMText
10
-66.975
20
-8.253947
30
0
210
0
220
0
230
1
1
\W01.000;\fsimplex.shx,bigfont.shx;%%c 
40
4.5
41
0
44
1.084337
50
90
71
7
72
5
7
DEFAULT
0
LINE
5
263
100
AcDbEntity
8
SK2
62
256
6
ByLayer
370
-1
48
1
60
0
100
AcDbLine
10
-57.5875
20
12.5
30
0
11
-67.9
21
12.5
31
0
39
0
210
0
220
0
230
1
0
LINE
5
264
100
AcDbEntity
8
SK2
62
256
6
ByLayer
370
-1
48
1
60
0
100
AcDbLine
10
-57.5875
20
-12.5
30
0
11
-67.9
21
-12.5
31
0
39
0
210
0
220
0
230
1
0
LINE
5
265
100
AcDbEntity
8
SK2
62
256
6
ByLayer
370
-1
48
1
60
0
100
AcDbLine
10
-64.725
20
23.75
30
0
11
-64.725
21
-23.75
31
0
39
0
210
0
220
0
230
1
0
SOLID
5
266
100
AcDbEntity
8
SK2
62
256
6
ByLayer
370
-1
48
1
60
0
100
AcDbTrace
10
-64.725
20
12.5
30
0
11
-65.650575
21
16.674997
31
0
12
-63.799425
22
16.675003
32
0
13
-64.725
23
12.5
33
0
39
0
210
0
220
0
230
1
0
SOLID
5
267
100
AcDbEntity
8
SK2
62
256
6
ByLayer
370
-1
48
1
60
0
100
AcDbTrace
10
-64.725
20
-12.5
30
0
11
-63.799425
21
-16.674997
31
0
12
-65.650575
22
-16.675003
32
0
13
-64.725
23
-12.5
33
0
39
0
210
0
220
0
230
1
0
ENDBLK
5
269
100
AcDbEntity
8
0
100
AcDbBlockEnd
0
BLOCK
5
273
100
AcDbEntity
8
0
100
AcDbBlockBegin
2
DimnDraft3D6
70
0
10
0
20
0
30
0
3
DimnDraft3D6
0
MTEXT
5
26C
100
AcDbEntity
8
SK2
62
256
6
ByLayer
370
-1
48
1
60
0
100
AcDbMText
10
-76.975
20
5.246053
30
0
210
0
220
0
230
1
1
\W01.000;\fsimplex.shx,bigfont.shx;32 
40
4.5
41
0
44
1.084337
50
90
71
7
72
5
7
DEFAULT
0
MTEXT
5
26D
100
AcDbEntity
8
SK2
62
256
6
ByLayer
370
-1
48
1
60
0
100
AcDbMText
10
-76.975
20
-8.253947
30
0
210
0
220
0
230
1
1
\W01.000;\fsimplex.shx,bigfont.shx;%%c 
40
4.5
41
0
44
1.084337
50
90
71
7
72
5
7
DEFAULT
0
LINE
5
26E
100
AcDbEntity
8
SK2
62
256
6
ByLayer
370
-1
48
1
60
0
100
AcDbLine
10
-1.5875
20
-16
30
0
11
-77.9
21
-16
31
0
39
0
210
0
220
0
230
1
0
LINE
5
26F
100
AcDbEntity
8
SK2
62
256
6
ByLayer
370
-1
48
1
60
0
100
AcDbLine
10
-1.5875
20
16
30
0
11
-77.9
21
16
31
0
39
0
210
0
220
0
230
1
0
LINE
5
270
100
AcDbEntity
8
SK2
62
256
6
ByLayer
370
-1
48
1
60
0
100
AcDbLine
10
-74.725
20
-16
30
0
11
-74.725
21
16
31
0
39
0
210
0
220
0
230
1
0
SOLID
5
271
100
AcDbEntity
8
SK2
62
256
6
ByLayer
370
-1
48
1
60
0
100
AcDbTrace
10
-74.725
20
-16
30
0
11
-75.650575
21
-11.825003
31
0
12
-73.799425
22
-11.824997
32
0
13
-74.725
23
-16
33
0
39
0
210
0
220
0
230
1
0
SOLID
5
272
100
AcDbEntity
8
SK2
62
256
6
ByLayer
370
-1
48
1
60
0
100
AcDbTrace
10
-74.725
20
16
30
0
11
-73.799425
21
11.825003
31
0
12
-75.650575
22
11.824997
32
0
13
-74.725
23
16
33
0
39
0
210
0
220
0
230
1
0
ENDBLK
5
274
100
AcDbEntity
8
0
100
AcDbBlockEnd
0
BLOCK
5
27E
100
AcDbEntity
8
0
100
AcDbBlockBegin
2
DimnDraft3D7
70
0
10
0
20
0
30
0
3
DimnDraft3D7
0
MTEXT
5
277
100
AcDbEntity
8
2
62
256
6
ByLayer
370
-1
48
1
60
0
100
AcDbMText
10
129.725
20
5.808553
30
0
210
0
220
0
230
1
1
\W01.000;\fsimplex.shx,bigfont.shx;21 
40
4.5
41
0
44
1.084337
50
90
71
7
72
5
7
DEFAULT
0
MTEXT
5
278
100
AcDbEntity
8
2
62
256
6
ByLayer
370
-1
48
1
60
0
100
AcDbMText
10
129.725
20
-7.691447
30
0
210
0
220
0
230
1
1
\W01.000;\fsimplex.shx,bigfont.shx;%%c 
40
4.5
41
0
44
1.084337
50
90
71
7
72
5
7
DEFAULT
0
LINE
5
279
100
AcDbEntity
8
2
62
256
6
ByLayer
370
-1
48
1
60
0
100
AcDbLine
10
106.5875
20
10.5
30
0
11
135.15
21
10.5
31
0
39
0
210
0
220
0
230
1
0
LINE
5
27A
100
AcDbEntity
8
2
62
256
6
ByLayer
370
-1
48
1
60
0
100
AcDbLine
10
106.5875
20
-10.5
30
0
11
135.15
21
-10.5
31
0
39
0
210
0
220
0
230
1
0
LINE
5
27B
100
AcDbEntity
8
2
62
256
6
ByLayer
370
-1
48
1
60
0
100
AcDbLine
10
131.975
20
21.75
30
0
11
131.975
21
-21.75
31
0
39
0
210
0
220
0
230
1
0
SOLID
5
27C
100
AcDbEntity
8
2
62
256
6
ByLayer
370
-1
48
1
60
0
100
AcDbTrace
10
131.975
20
10.5
30
0
11
131.049425
21
14.674997
31
0
12
132.900575
22
14.675003
32
0
13
131.975
23
10.5
33
0
39
0
210
0
220
0
230
1
0
SOLID
5
27D
100
AcDbEntity
8
2
62
256
6
ByLayer
370
-1
48
1
60
0
100
AcDbTrace
10
131.975
20
-10.5
30
0
11
132.900575
21
-14.674997
31
0
12
131.049425
22
-14.675003
32
0
13
131.975
23
-10.5
33
0
39
0
210
0
220
0
230
1
0
ENDBLK
5
27F
100
AcDbEntity
8
0
100
AcDbBlockEnd
0
ENDSEC
0
SECTION
2
ENTITIES
0
ARC
5
F2
100
AcDbEntity
8
SK1
62
256
6
ByLayer
370
-1
48
1
60
0
100
AcDbCircle
39
0
10
1.382165
20
12.65
30
0
40
0.4
210
0
220
0
230
-1
100
AcDbArc
50
270
51
295
0
ARC
5
F3
100
AcDbEntity
8
SK1
62
256
6
ByLayer
370
-1
48
1
60
0
100
AcDbCircle
39
0
10
1.382165
20
-12.65
30
0
40
0.4
210
0
220
0
230
-1
100
AcDbArc
50
65
51
90
0
ARC
5
F4
100
AcDbEntity
8
SK1
62
256
6
ByLayer
370
-1
48
1
60
0
100
AcDbCircle
39
0
10
0.15
20
12.65
30
0
40
0.4
210
0
220
0
230
-1
100
AcDbArc
50
247.975687
51
270
0
ARC
5
F5
100
AcDbEntity
8
SK1
62
256
6
ByLayer
370
-1
48
1
60
0
100
AcDbCircle
39
0
10
0.15
20
-12.65
30
0
40
0.4
210
0
220
0
230
-1
100
AcDbArc
50
90
51
112.024313
0
ARC
5
F6
100
AcDbEntity
8
SK1
62
256
6
ByLayer
370
-1
48
1
60
0
100
AcDbCircle
39
0
10
53.894506
20
12.89675
30
0
40
0.8
210
0
220
0
230
-1
100
AcDbArc
50
250.982048
51
321
0
ARC
5
F7
100
AcDbEntity
8
SK1
62
256
6
ByLayer
370
-1
48
1
60
0
100
AcDbCircle
39
0
10
53.894506
20
-12.89675
30
0
40
0.8
210
0
220
0
230
-1
100
AcDbArc
50
39
51
109.017952
0
ELLIPSE
5
F8
100
AcDbEntity
8
1
62
256
6
ByLayer
370
-1
48
1
60
0
100
AcDbEllipse
10
11.3
20
3.23343
30
0
11
-5.00000000000001
21
5.05319527541183E-15
31
0
210
0
220
0
230
1
40
0.733611
41
-1.72219458148847
42
-0.476586342849572
0
ELLIPSE
5
F9
100
AcDbEntity
8
1
62
256
6
ByLayer
370
-1
48
1
60
0
100
AcDbEllipse
10
97.730652
20
7.378105
30
0
11
-0.579980162092182
21
-0.618336925850206
31
0
210
0
220
0
230
-1
40
0.04503
41
-0.791576830092934
42
-0.359511934403266
0
ELLIPSE
5
FA
100
AcDbEntity
8
1
62
256
6
ByLayer
370
-1
48
1
60
0
100
AcDbEllipse
10
104.204973
20
-5.204691
30
0
11
-0.057519863674568
21
-0.658282332472895
31
0
210
0
220
0
230
-1
40
0.115977
41
0.011712650197501
42
1.58250897699049
0
ELLIPSE
5
FB
100
AcDbEntity
8
1
62
256
6
ByLayer
370
-1
48
1
60
0
100
AcDbEllipse
10
96.257625
20
4.065654
30
0
11
-0.326425640836806
21
-0.730374082922088
31
0
210
0
220
0
230
1
40
0.079621
41
0.0355698365710786
42
1.60636616336575
0
ELLIPSE
5
FC
100
AcDbEntity
8
1
62
256
6
ByLayer
370
-1
48
1
60
0
100
AcDbEllipse
10
103.82906
20
-5.78088
30
0
11
-0.0776382921998548
21
1.2591703743963
31
0
210
0
220
0
230
-1
40
0.117011
41
-0.69969706144642
42
0.839252226138114
0
ELLIPSE
5
FD
100
AcDbEntity
8
1
62
256
6
ByLayer
370
-1
48
1
60
0
100
AcDbEllipse
10
94.548054
20
-4E-06
30
0
11
-115.443550162068
21
-1.30809050954774E-13
31
0
210
0
220
0
230
-1
40
0.087489
41
1.57609127957055
42
1.59219894863443
0
ELLIPSE
5
FE
100
AcDbEntity
8
1
62
256
6
ByLayer
370
-1
48
1
60
0
100
AcDbEllipse
10
104.963107
20
0
30
0
11
-0.819281375065156
21
-10.0994631693604
31
0
210
0
220
0
230
-1
40
0.127103
41
0.0307859670780309
42
1.07597060461118
0
ELLIPSE
5
FF
100
AcDbEntity
8
1
62
256
6
ByLayer
370
-1
48
1
60
0
100
AcDbEllipse
10
98.434331
20
8.816091
30
0
11
6.09155738004463E-15
21
5.2
31
0
210
0
220
0
230
1
40
0.996195
41
2.72271363311115
42
2.82017770552679
0
ELLIPSE
5
100
100
AcDbEntity
8
1
62
256
6
ByLayer
370
-1
48
1
60
0
100
AcDbEllipse
10
101.110593
20
-1.874003
30
0
11
1.35
21
0
31
0
210
0
220
0
230
1
40
0.997564
41
0
42
3.141592621704
0
ELLIPSE
5
101
100
AcDbEntity
8
1
62
256
6
ByLayer
370
-1
48
1
60
0
100
AcDbEllipse
10
101.110593
20
-1.874003
30
0
11
-1.11602540378444
21
1.12789885952862E-15
31
0
210
0
220
0
230
1
40
0.997564
41
0
42
6.28318530717959
0
ELLIPSE
5
102
100
AcDbEntity
8
1
62
256
6
ByLayer
370
-1
48
1
60
0
100
AcDbEllipse
10
98.62408
20
4.262025
30
0
11
-1.76858446507625E-15
21
-1.65
31
0
210
0
220
0
230
1
40
0.996195
41
-1.53879862384166
42
-0.123410159232465
0
ELLIPSE
5
103
100
AcDbEntity
8
1
62
256
6
ByLayer
370
-1
48
1
60
0
100
AcDbEllipse
10
97.578611
20
4.228433
30
0
11
-0.599695201525335
21
-0.0191223760942034
31
0
210
0
220
0
230
1
40
0.002788
41
0.0872220186676158
42
1.33217642950434
0
ELLIPSE
5
104
100
AcDbEntity
8
1
62
256
6
ByLayer
370
-1
48
1
60
0
100
AcDbEllipse
10
101.179188
20
6.528644
30
0
11
1.75718001347441E-15
21
1.5
31
0
210
0
220
0
230
1
40
0.996195
41
0.03494990326975
42
0.710883060211172
0
ELLIPSE
5
105
100
AcDbEntity
8
1
62
256
6
ByLayer
370
-1
48
1
60
0
100
AcDbEllipse
10
104.2216
20
0
30
0
11
-0.623433186639689
21
10.0997295698211
31
0
210
0
220
0
230
-1
40
0.118552
41
-2.047993824796
42
-1.48312380925494
0
ELLIPSE
5
106
100
AcDbEntity
8
1
62
256
6
ByLayer
370
-1
48
1
60
0
100
AcDbEllipse
10
97.533992
20
5.627717
30
0
11
-0.599695201525335
21
-0.0191223760942034
31
0
210
0
220
0
230
1
40
0.002788
41
0.0872220186670827
42
1.32520647544537
0
ELLIPSE
5
107
100
AcDbEntity
8
1
62
256
6
ByLayer
370
-1
48
1
60
0
100
AcDbEllipse
10
103.930997
20
0.286389
30
0
11
-0.0374161642018007
21
0.601620650502929
31
0
210
0
220
0
230
-1
40
0.118186
41
-1.48953518884745
42
-1.44873145879426
0
ELLIPSE
5
108
100
AcDbEntity
8
1
62
256
6
ByLayer
370
-1
48
1
60
0
100
AcDbEllipse
10
94.843322
20
6.091608
30
0
11
-0.809732322967331
21
-4.32485069859549
31
0
210
0
220
0
230
1
40
0.240831
41
0.444758745877704
42
1.00826195982664
0
ELLIPSE
5
109
100
AcDbEntity
8
1
62
256
6
ByLayer
370
-1
48
1
60
0
100
AcDbEllipse
10
94.947477
20
0
30
0
11
-40.0086066830151
21
-4.53337398484444E-14
31
0
210
0
220
0
230
-1
40
0.252446
41
1.53467476476735
42
1.5760912805489
0
ELLIPSE
5
10A
100
AcDbEntity
8
1
62
256
6
ByLayer
370
-1
48
1
60
0
100
AcDbEllipse
10
42.446155
20
0
30
0
11
-179.624826386307
21
-9.76731207606301
31
0
210
0
220
0
230
-1
40
0.014313
41
-1.91369402617363
42
-1.88402110106352
0
ELLIPSE
5
10B
100
AcDbEntity
8
1
62
256
6
ByLayer
370
-1
48
1
60
0
100
AcDbEllipse
10
101.405793
20
6.528644
30
0
11
1.46431667789534E-15
21
1.25
31
0
210
0
220
0
230
1
40
0.996195
41
0.0912039921120624
42
1.57079634872777
0
ELLIPSE
5
10C
100
AcDbEntity
8
1
62
256
6
ByLayer
370
-1
48
1
60
0
100
AcDbEllipse
10
101.405793
20
6.528644
30
0
11
1.46431667789534E-15
21
1.25
31
0
210
0
220
0
230
1
40
0.996195
41
1.57079634872777
42
2.64306111599982
0
ELLIPSE
5
10D
100
AcDbEntity
8
1
62
256
6
ByLayer
370
-1
48
1
60
0
100
AcDbEllipse
10
101.109463
20
6.528644
30
0
11
1.75718001347441E-15
21
1.5
31
0
210
0
220
0
230
1
40
0.996195
41
-1.54046055081385
42
0
0
ELLIPSE
5
10E
100
AcDbEntity
8
1
62
256
6
ByLayer
370
-1
48
1
60
0
100
AcDbEllipse
10
101.109463
20
6.528644
30
0
11
1.75718001347441E-15
21
1.5
31
0
210
0
220
0
230
1
40
0.996195
41
0
42
0.510607148495788
0
ELLIPSE
5
10F
100
AcDbEntity
8
1
62
256
6
ByLayer
370
-1
48
1
60
0
100
AcDbEllipse
10
98.364607
20
8.816091
30
0
11
-6.43121623664089E-15
21
-6
31
0
210
0
220
0
230
1
40
0.996195
41
-0.418879020478638
42
-0.160377198616544
0
ELLIPSE
5
110
100
AcDbEntity
8
1
62
256
6
ByLayer
370
-1
48
1
60
0
100
AcDbEllipse
10
98.397475
20
4.262025
30
0
11
1.93289801482185E-15
21
1.65
31
0
210
0
220
0
230
1
40
0.996195
41
1.60279402974813
42
1.80296078808597
0
ELLIPSE
5
111
100
AcDbEntity
8
1
62
256
6
ByLayer
370
-1
48
1
60
0
100
AcDbEllipse
10
103.703433
20
-5.771459
30
0
11
-0.0994831375701548
21
-1.24604927840206
31
0
210
0
220
0
230
-1
40
0.126716
41
-2.31901337799935
42
2.42522264159531
0
ELLIPSE
5
112
100
AcDbEntity
8
1
62
256
6
ByLayer
370
-1
48
1
60
0
100
AcDbEllipse
10
97.362019
20
0
30
0
11
-0.327021265001063
21
10.0999599715002
31
0
210
0
220
0
230
-1
40
0.087398
41
-0.0185728278729553
42
0.0122682547746942
0
ELLIPSE
5
113
100
AcDbEntity
8
1
62
256
6
ByLayer
370
-1
48
1
60
0
100
AcDbEllipse
10
103.931469
20
0.286372
30
0
11
-0.0466414994801687
21
0.601936685630889
31
0
210
0
220
0
230
-1
40
0.116927
41
-1.44705408022656
42
0.0829389933494007
0
ELLIPSE
5
114
100
AcDbEntity
8
1
62
256
6
ByLayer
370
-1
48
1
60
0
100
AcDbEllipse
10
101.179188
20
6.528644
30
0
11
1.46431667789534E-15
21
1.25
31
0
210
0
220
0
230
1
40
0.996195
41
-2.35825588077847
42
0
0
ELLIPSE
5
115
100
AcDbEntity
8
1
62
256
6
ByLayer
370
-1
48
1
60
0
100
AcDbEllipse
10
101.179188
20
6.528644
30
0
11
1.46431667789534E-15
21
1.25
31
0
210
0
220
0
230
1
40
0.996195
41
0
42
1.57079605281728
0
ELLIPSE
5
116
100
AcDbEntity
8
1
62
256
6
ByLayer
370
-1
48
1
60
0
100
AcDbEllipse
10
101.179188
20
6.528644
30
0
11
1.46431667789534E-15
21
1.25
31
0
210
0
220
0
230
1
40
0.996195
41
1.57079634872777
42
1.80887004062054
0
ELLIPSE
5
117
100
AcDbEntity
8
1
62
256
6
ByLayer
370
-1
48
1
60
0
100
AcDbEllipse
10
67.648892
20
11.183162
30
0
11
-27.498830043153
21
5.07682701819173
31
0
210
0
220
0
230
-1
40
0.157328
41
3.1125549577481
42
-2.87113360525278
0
ELLIPSE
5
118
100
AcDbEntity
8
1
62
256
6
ByLayer
370
-1
48
1
60
0
100
AcDbEllipse
10
95.778628
20
0
30
0
11
-53.6733036715488
21
0.730266240478786
31
0
210
0
220
0
230
-1
40
0.187683
41
-1.60206670916473
42
-1.56706574826058
0
ELLIPSE
5
119
100
AcDbEntity
8
1
62
256
6
ByLayer
370
-1
48
1
60
0
100
AcDbEllipse
10
98.352856
20
5.661309
30
0
11
1.93289801482185E-15
21
1.65
31
0
210
0
220
0
230
1
40
0.996195
41
0.843408340772049
42
1.60279402974813
0
ELLIPSE
5
11A
100
AcDbEntity
8
1
62
256
6
ByLayer
370
-1
48
1
60
0
100
AcDbEllipse
10
98.754104
20
4.262025
30
0
11
-1.43971234163364
21
-1.28202564679367
31
0
210
0
220
0
230
-1
40
0.721468
41
-1.18428535880551
42
-0.868660261817112
0
ELLIPSE
5
11B
100
AcDbEntity
8
1
62
256
6
ByLayer
370
-1
48
1
60
0
100
AcDbEllipse
10
101.110593
20
-2.229761
30
0
11
-1.25
21
1.26329881885295E-15
31
0
210
0
220
0
230
1
40
0.997564
41
-2.62008802915429
42
-0.521602163786987
0
ELLIPSE
5
11C
100
AcDbEntity
8
1
62
256
6
ByLayer
370
-1
48
1
60
0
100
AcDbEllipse
10
101.110593
20
-2.229761
30
0
11
-1.25
21
1.26329881885295E-15
31
0
210
0
220
0
230
1
40
0.997564
41
0
42
6.28318530717959
0
ELLIPSE
5
11D
100
AcDbEntity
8
1
62
256
6
ByLayer
370
-1
48
1
60
0
100
AcDbEllipse
10
104.217963
20
0
30
0
11
-22.982654547995
21
9.78763525765767
31
0
210
0
220
0
230
-1
40
0.108448
41
-1.2130427438432
42
-0.643045549648378
0
ELLIPSE
5
11E
100
AcDbEntity
8
1
62
256
6
ByLayer
370
-1
48
1
60
0
100
AcDbEllipse
10
98.579461
20
5.661309
30
0
11
-1.76858446507625E-15
21
-1.65
31
0
210
0
220
0
230
1
40
0.996195
41
-2.2954931910143
42
-1.53879862384166
0
ELLIPSE
5
11F
100
AcDbEntity
8
1
62
256
6
ByLayer
370
-1
48
1
60
0
100
AcDbEllipse
10
85.318792
20
7.848176
30
0
11
-12.488857316244
21
6.70607636526585
31
0
210
0
220
0
230
-1
40
0.08506
41
-2.28782228460938
42
-1.67053397122086
0
ELLIPSE
5
120
100
AcDbEntity
8
1
62
256
6
ByLayer
370
-1
48
1
60
0
100
AcDbEllipse
10
103.89401
20
3.564586
30
0
11
-0.0460898573840798
21
0.603186594509697
31
0
210
0
220
0
230
-1
40
0.115986
41
2.32476010412549
42
-3.13114780728661
0
ELLIPSE
5
121
100
AcDbEntity
8
1
62
256
6
ByLayer
370
-1
48
1
60
0
100
AcDbEllipse
10
93.206111
20
3.526027
30
0
11
-10.4959766851828
21
0.552150162144868
31
0
210
0
220
0
230
-1
40
0.000324
41
-3.13636357919621
42
-3.13544184823976
0
ELLIPSE
5
122
100
AcDbEntity
8
1
62
256
6
ByLayer
370
-1
48
1
60
0
100
AcDbEllipse
10
104.303675
20
10.124642
30
0
11
-3.21560811832046E-16
21
-0.300000000000001
31
0
210
0
220
0
230
1
40
0.996195
41
1.64060949687463
42
1.86750229963386
0
ELLIPSE
5
123
100
AcDbEntity
8
1
62
256
6
ByLayer
370
-1
48
1
60
0
100
AcDbEllipse
10
103.768703
20
13.15439
30
0
11
-1.07186937277348E-14
21
-9.99999999999999
31
0
210
0
220
0
230
1
40
0.996195
41
0.0349065850398881
42
0.0440072139580939
0
ELLIPSE
5
124
100
AcDbEntity
8
1
62
256
6
ByLayer
370
-1
48
1
60
0
100
AcDbEllipse
10
99.637358
20
9.71691
30
0
11
5.77557701897395E-15
21
4.93026637113357
31
0
210
0
220
0
230
1
40
0.996195
41
-1.52678911283678
42
-1.51698911975
0
ELLIPSE
5
125
100
AcDbEntity
8
1
62
256
6
ByLayer
370
-1
48
1
60
0
100
AcDbEllipse
10
104.303143
20
10.124642
30
0
11
2.69746310087586E-16
21
0.230266371133677
31
0
210
0
220
0
230
1
40
0.996195
41
-1.50098315671514
42
-1.27409035395598
0
ELLIPSE
5
126
100
AcDbEntity
8
1
62
256
6
ByLayer
370
-1
48
1
60
0
100
AcDbEllipse
10
104.206763
20
0.562066
30
0
11
-1.07186937277348E-14
21
-9.99999999999999
31
0
210
0
220
0
230
1
40
0.996195
41
-3.11578669746811
42
-3.1066860685499
0
ELLIPSE
5
127
100
AcDbEntity
8
1
62
256
6
ByLayer
370
-1
48
1
60
0
100
AcDbEllipse
10
94.661207
20
9.496945
30
0
11
1.16328437305553E-14
21
9.93026637113358
31
0
210
0
220
0
230
1
40
0.996195
41
-1.53224690693385
42
-1.5267891128368
0
ELLIPSE
5
128
100
AcDbEntity
8
1
62
256
6
ByLayer
370
-1
48
1
60
0
100
AcDbEllipse
10
98.304734
20
0.355194
30
0
11
1.16328437305553E-14
21
9.93026637113358
31
0
210
0
220
0
230
1
40
0.996195
41
0.0385494198610487
42
0.0440072139580949
0
ELLIPSE
5
129
100
AcDbEntity
8
1
62
256
6
ByLayer
370
-1
48
1
60
0
100
AcDbEllipse
10
101.019553
20
6.754792
30
0
11
2.27265689458196E-15
21
1.94003193510747
31
0
210
0
220
0
230
1
40
0.996195
41
0
42
6.28318530717959
0
ELLIPSE
5
12A
100
AcDbEntity
8
1
62
256
6
ByLayer
370
-1
48
1
60
0
100
AcDbEllipse
10
104.157429
20
10.261041
30
0
11
2.69746310087586E-16
21
0.230266371133677
31
0
210
0
220
0
230
1
40
0.996195
41
-0.22689280275933
42
0
0
ELLIPSE
5
12B
100
AcDbEntity
8
1
62
256
6
ByLayer
370
-1
48
1
60
0
100
AcDbEllipse
10
97.866674
20
12.947518
30
0
11
1.16328437305553E-14
21
9.93026637113358
31
0
210
0
220
0
230
1
40
0.996195
41
-3.11578669746811
42
-3.11032889170133
0
ELLIPSE
5
12C
100
AcDbEntity
8
1
62
256
6
ByLayer
370
-1
48
1
60
0
100
AcDbEllipse
10
98.305266
20
0.355194
30
0
11
-1.07186937277348E-14
21
-9.99999999999999
31
0
210
0
220
0
230
1
40
0.996195
41
-3.10668606854991
42
-3.0975854396317
0
ELLIPSE
5
12D
100
AcDbEntity
8
1
62
256
6
ByLayer
370
-1
48
1
60
0
100
AcDbEllipse
10
98.354021
20
0.357589
30
0
11
-1.07186937277344E-14
21
-9.99999999999964
31
0
210
0
220
0
230
1
40
0.996195
41
-3.0877854465449
42
-3.07177948351001
0
ELLIPSE
5
12E
100
AcDbEntity
8
1
62
256
6
ByLayer
370
-1
48
1
60
0
100
AcDbEllipse
10
103.719416
20
13.151995
30
0
11
1.1632843730555E-14
21
9.9302663711333
31
0
210
0
220
0
230
1
40
0.996195
41
-3.0877854465449
42
-3.07177948351001
0
ELLIPSE
5
12F
100
AcDbEntity
8
1
62
256
6
ByLayer
370
-1
48
1
60
0
100
AcDbEllipse
10
104.113142
20
10.066167
30
0
11
-5.35934686386747E-16
21
-0.500000000000006
31
0
210
0
220
0
230
1
40
0.996195
41
1.8675022996339
42
2.91469985083051
0
ELLIPSE
5
130
100
AcDbEntity
8
1
62
256
6
ByLayer
370
-1
48
1
60
0
100
AcDbEllipse
10
104.393479
20
3.475623
30
0
11
2.69746310087586E-16
21
0.230266371133677
31
0
210
0
220
0
230
1
40
0.996195
41
-3.07177948351002
42
-2.84488668075078
0
ELLIPSE
5
131
100
AcDbEntity
8
1
62
256
6
ByLayer
370
-1
48
1
60
0
100
AcDbEllipse
10
107.411699
20
4.012639
30
0
11
1.16328437305553E-14
21
9.93026637113358
31
0
210
0
220
0
230
1
40
0.996195
41
1.60934574665594
42
1.61480354075299
0
ELLIPSE
5
132
100
AcDbEntity
8
1
62
256
6
ByLayer
370
-1
48
1
60
0
100
AcDbEllipse
10
97.769762
20
3.384942
30
0
11
2.69746310087586E-16
21
0.230266371133677
31
0
210
0
220
0
230
1
40
0.996195
41
1.64060949687465
42
1.86750229963388
0
ELLIPSE
5
133
100
AcDbEntity
8
1
62
256
6
ByLayer
370
-1
48
1
60
0
100
AcDbEllipse
10
98.353489
20
0.357589
30
0
11
1.1632843730555E-14
21
9.9302663711333
31
0
210
0
220
0
230
1
40
0.996195
41
0.0538072070448967
42
0.0698131700797857
0
ELLIPSE
5
134
100
AcDbEntity
8
1
62
256
6
ByLayer
370
-1
48
1
60
0
100
AcDbEllipse
10
107.206146
20
9.936679
30
0
11
-1.07186937277348E-14
21
-9.99999999999999
31
0
210
0
220
0
230
1
40
0.996195
41
-1.54499037067321
42
-1.53588974175501
0
ELLIPSE
5
135
100
AcDbEntity
8
1
62
256
6
ByLayer
370
-1
48
1
60
0
100
AcDbEllipse
10
101.08879
20
6.754792
30
0
11
-2.01991837106078E-15
21
-1.88448184300126
31
0
210
0
220
0
230
1
40
0.996195
41
2.21551025834039
42
-9.46223865285074E-16
0
ELLIPSE
5
136
100
AcDbEntity
8
1
62
256
6
ByLayer
370
-1
48
1
60
0
100
AcDbEllipse
10
101.08879
20
6.754792
30
0
11
-2.01991837106078E-15
21
-1.88448184300126
31
0
210
0
220
0
230
1
40
0.996195
41
0
42
0.926082643088361
0
ELLIPSE
5
137
100
AcDbEntity
8
1
62
256
6
ByLayer
370
-1
48
1
60
0
100
AcDbEllipse
10
99.847139
20
3.70192
30
0
11
-5.35934686386771E-15
21
-5.00000000000028
31
0
210
0
220
0
230
1
40
0.996195
41
1.58680228982978
42
1.59660228291656
0
ELLIPSE
5
138
100
AcDbEntity
8
1
62
256
6
ByLayer
370
-1
48
1
60
0
100
AcDbEllipse
10
104.077707
20
5.560401
30
0
11
5.77557701897395E-15
21
4.93026637113357
31
0
210
0
220
0
230
1
40
0.996195
41
0.0160059630348803
42
0.0258059561216605
0
ELLIPSE
5
139
100
AcDbEntity
8
1
62
256
6
ByLayer
370
-1
48
1
60
0
100
AcDbEllipse
10
94.664125
20
9.448004
30
0
11
-1.07186937277344E-14
21
-9.99999999999964
31
0
210
0
220
0
230
1
40
0.996195
41
1.62460353383979
42
1.64060949687468
0
ELLIPSE
5
13A
100
AcDbEntity
8
1
62
256
6
ByLayer
370
-1
48
1
60
0
100
AcDbEllipse
10
99.63789
20
9.71691
30
0
11
-5.35934686386771E-15
21
-5.00000000000028
31
0
210
0
220
0
230
1
40
0.996195
41
1.61480354075301
42
1.62460353383979
0
ELLIPSE
5
13B
100
AcDbEntity
8
1
62
256
6
ByLayer
370
-1
48
1
60
0
100
AcDbEllipse
10
107.409844
20
4.06158
30
0
11
-1.07186937277344E-14
21
-9.99999999999964
31
0
210
0
220
0
230
1
40
0.996195
41
-1.51698911975
42
-1.50098315671511
0
ELLIPSE
5
13C
100
AcDbEntity
8
1
62
256
6
ByLayer
370
-1
48
1
60
0
100
AcDbEllipse
10
97.995199
20
7.949183
30
0
11
5.77557701897395E-15
21
4.93026637113357
31
0
210
0
220
0
230
1
40
0.996195
41
-3.12558669055491
42
-3.11578669746813
0
ELLIPSE
5
13D
100
AcDbEntity
8
1
62
256
6
ByLayer
370
-1
48
1
60
0
100
AcDbEllipse
10
103.987299
20
8.159231
30
0
11
5.77557701897395E-15
21
4.93026637113357
31
0
210
0
220
0
230
1
40
0.996195
41
-3.09758543963168
42
-3.0877854465449
0
ELLIPSE
5
13E
100
AcDbEntity
8
1
62
256
6
ByLayer
370
-1
48
1
60
0
100
AcDbEllipse
10
97.916008
20
3.248542
30
0
11
-3.21560811832046E-16
21
-0.300000000000001
31
0
210
0
220
0
230
1
40
0.996195
41
-0.226892802759265
42
-4.60644937498919E-14
0
ELLIPSE
5
13F
100
AcDbEntity
8
1
62
256
6
ByLayer
370
-1
48
1
60
0
100
AcDbEllipse
10
104.335228
20
3.666884
30
0
11
5.04036978550836E-16
21
0.430266371133673
31
0
210
0
220
0
230
1
40
0.996195
41
-2.84488668075083
42
-1.79768912955418
0
ELLIPSE
5
140
100
AcDbEntity
8
1
62
256
6
ByLayer
370
-1
48
1
60
0
100
AcDbEllipse
10
103.987831
20
8.159231
30
0
11
-5.35934686386771E-15
21
-5.00000000000028
31
0
210
0
220
0
230
1
40
0.996195
41
0.0440072139581186
42
0.0538072070448957
0
ELLIPSE
5
141
100
AcDbEntity
8
1
62
256
6
ByLayer
370
-1
48
1
60
0
100
AcDbEllipse
10
94.663593
20
9.448004
30
0
11
1.1632843730555E-14
21
9.9302663711333
31
0
210
0
220
0
230
1
40
0.996195
41
-1.51698911975
42
-1.50098315671511
0
ELLIPSE
5
142
100
AcDbEntity
8
1
62
256
6
ByLayer
370
-1
48
1
60
0
100
AcDbEllipse
10
104.335759
20
3.666884
30
0
11
-5.35934686386747E-16
21
-0.500000000000006
31
0
210
0
220
0
230
1
40
0.996195
41
0.296705972839008
42
1.34390352403565
0
ELLIPSE
5
143
100
AcDbEntity
8
1
62
256
6
ByLayer
370
-1
48
1
60
0
100
AcDbEllipse
10
97.679958
20
10.03396
30
0
11
-3.21560811832046E-16
21
-0.300000000000001
31
0
210
0
220
0
230
1
40
0.996195
41
-3.07177948351014
42
-2.84488668075083
0
ELLIPSE
5
144
100
AcDbEntity
8
1
62
256
6
ByLayer
370
-1
48
1
60
0
100
AcDbEllipse
10
97.960827
20
3.443416
30
0
11
-5.35934686386747E-16
21
-0.500000000000006
31
0
210
0
220
0
230
1
40
0.996195
41
-1.27409035395589
42
-0.226892802759265
0
ELLIPSE
5
145
100
AcDbEntity
8
1
62
256
6
ByLayer
370
-1
48
1
60
0
100
AcDbEllipse
10
104.529892
20
3.621894
30
0
11
-3.21560811832046E-16
21
-0.300000000000001
31
0
210
0
220
0
230
1
40
0.996195
41
1.34390352403567
42
1.5707963267949
0
ELLIPSE
5
146
100
AcDbEntity
8
1
62
256
6
ByLayer
370
-1
48
1
60
0
100
AcDbEllipse
10
97.960296
20
3.443416
30
0
11
5.04036978550836E-16
21
0.430266371133673
31
0
210
0
220
0
230
1
40
0.996195
41
1.86750229963393
42
2.91469985083054
0
ELLIPSE
5
147
100
AcDbEntity
8
1
62
256
6
ByLayer
370
-1
48
1
60
0
100
AcDbEllipse
10
107.41223
20
4.012639
30
0
11
-1.07186937277348E-14
21
-9.99999999999999
31
0
210
0
220
0
230
1
40
0.996195
41
-1.53588974175501
42
-1.5267891128368
0
ELLIPSE
5
148
100
AcDbEntity
8
1
62
256
6
ByLayer
370
-1
48
1
60
0
100
AcDbEllipse
10
102.435548
20
3.792674
30
0
11
5.77557701897395E-15
21
4.93026637113357
31
0
210
0
220
0
230
1
40
0.996195
41
1.61480354075301
42
1.62460353383979
0
ELLIPSE
5
149
100
AcDbEntity
8
1
62
256
6
ByLayer
370
-1
48
1
60
0
100
AcDbEllipse
10
102.436079
20
3.792674
30
0
11
-5.35934686386771E-15
21
-5.00000000000028
31
0
210
0
220
0
230
1
40
0.996195
41
-1.52678911283678
42
-1.51698911975
0
ELLIPSE
5
14A
100
AcDbEntity
8
1
62
256
6
ByLayer
370
-1
48
1
60
0
100
AcDbEllipse
10
99.846607
20
3.70192
30
0
11
5.77557701897395E-15
21
4.93026637113357
31
0
210
0
220
0
230
1
40
0.996195
41
-1.55479036376002
42
-1.54499037067324
0
ELLIPSE
5
14B
100
AcDbEntity
8
1
62
256
6
ByLayer
370
-1
48
1
60
0
100
AcDbEllipse
10
94.866271
20
3.621894
30
0
11
1.1632843730555E-14
21
9.9302663711333
31
0
210
0
220
0
230
1
40
0.996195
41
-1.5707963267949
42
-1.55479036376002
0
ELLIPSE
5
14C
100
AcDbEntity
8
1
62
256
6
ByLayer
370
-1
48
1
60
0
100
AcDbEllipse
10
104.157429
20
0.561041
30
0
11
1.1632843730555E-14
21
9.9302663711333
31
0
210
0
220
0
230
1
40
0.996195
41
0
42
0.0160059630348829
0
ELLIPSE
5
14D
100
AcDbEntity
8
1
62
256
6
ByLayer
370
-1
48
1
60
0
100
AcDbEllipse
10
102.22683
20
9.807663
30
0
11
-5.35934686386771E-15
21
-5.00000000000028
31
0
210
0
220
0
230
1
40
0.996195
41
-1.55479036376001
42
-1.54499037067324
0
ELLIPSE
5
14E
100
AcDbEntity
8
1
62
256
6
ByLayer
370
-1
48
1
60
0
100
AcDbEllipse
10
102.226299
20
9.807663
30
0
11
5.77557701897395E-15
21
4.93026637113357
31
0
210
0
220
0
230
1
40
0.996195
41
1.58680228982978
42
1.59660228291656
0
ELLIPSE
5
14F
100
AcDbEntity
8
1
62
256
6
ByLayer
370
-1
48
1
60
0
100
AcDbEllipse
10
101.228385
20
6.754792
30
0
11
-1.50061712188287E-15
21
-1.4
31
0
210
0
220
0
230
1
40
0.996195
41
-3.12352863120908
42
0
0
ELLIPSE
5
150
100
AcDbEntity
8
1
62
256
6
ByLayer
370
-1
48
1
60
0
100
AcDbEllipse
10
101.228385
20
6.754792
30
0
11
-1.50061712188287E-15
21
-1.4
31
0
210
0
220
0
230
1
40
0.996195
41
0
42
0.0349500842375337
0
ELLIPSE
5
151
100
AcDbEntity
8
1
62
256
6
ByLayer
370
-1
48
1
60
0
100
AcDbEllipse
10
94.661739
20
9.496945
30
0
11
-1.07186937277348E-14
21
-9.99999999999999
31
0
210
0
220
0
230
1
40
0.996195
41
1.60570291183479
42
1.61480354075299
0
ELLIPSE
5
152
100
AcDbEntity
8
1
62
256
6
ByLayer
370
-1
48
1
60
0
100
AcDbEllipse
10
97.916008
20
12.948542
30
0
11
-1.07186937277344E-14
21
-9.99999999999964
31
0
210
0
220
0
230
1
40
0.996195
41
0
42
0.0160059630348837
0
ELLIPSE
5
153
100
AcDbEntity
8
1
62
256
6
ByLayer
370
-1
48
1
60
0
100
AcDbEllipse
10
97.543546
20
9.88769
30
0
11
2.69746310087586E-16
21
0.230266371133677
31
0
210
0
220
0
230
1
40
0.996195
41
1.34390352403567
42
1.5707963267949
0
ELLIPSE
5
154
100
AcDbEntity
8
1
62
256
6
ByLayer
370
-1
48
1
60
0
100
AcDbEllipse
10
107.206634
20
9.88769
30
0
11
1.1632843730555E-14
21
9.9302663711333
31
0
210
0
220
0
230
1
40
0.996195
41
1.57079632679489
42
1.58680228982978
0
ELLIPSE
5
155
100
AcDbEntity
8
1
62
256
6
ByLayer
370
-1
48
1
60
0
100
AcDbEllipse
10
107.205614
20
9.936679
30
0
11
1.16328437305553E-14
21
9.93026637113358
31
0
210
0
220
0
230
1
40
0.996195
41
1.59660228291658
42
1.60206008868336
0
ELLIPSE
5
156
100
AcDbEntity
8
1
62
256
6
ByLayer
370
-1
48
1
60
0
100
AcDbEllipse
10
104.157961
20
0.561041
30
0
11
-1.07186937277344E-14
21
-9.99999999999964
31
0
210
0
220
0
230
1
40
0.996195
41
3.14159265358979
42
-3.12558669055491
0
ELLIPSE
5
157
100
AcDbEntity
8
1
62
256
6
ByLayer
370
-1
48
1
60
0
100
AcDbEllipse
10
104.157961
20
10.261041
30
0
11
-3.21560811832046E-16
21
-0.300000000000001
31
0
210
0
220
0
230
1
40
0.996195
41
2.91469985083062
42
3.14159265358979
0
ELLIPSE
5
158
100
AcDbEntity
8
1
62
256
6
ByLayer
370
-1
48
1
60
0
100
AcDbEllipse
10
97.915477
20
3.248542
30
0
11
2.69746310087586E-16
21
0.230266371133677
31
0
210
0
220
0
230
1
40
0.996195
41
2.9146998508306
42
3.14159265358979
0
ELLIPSE
5
159
100
AcDbEntity
8
1
62
256
6
ByLayer
370
-1
48
1
60
0
100
AcDbEllipse
10
104.52936
20
3.621894
30
0
11
2.69746310087586E-16
21
0.230266371133677
31
0
210
0
220
0
230
1
40
0.996195
41
-1.79768912955412
42
-1.5707963267949
0
ELLIPSE
5
15A
100
AcDbEntity
8
1
62
256
6
ByLayer
370
-1
48
1
60
0
100
AcDbEllipse
10
101.109523
20
6.754792
30
0
11
-1.93445608783117E-15
21
-1.80474984822612
31
0
210
0
220
0
230
1
40
0.996195
41
0
42
6.28318530717959
0
ELLIPSE
5
15B
100
AcDbEntity
8
1
62
256
6
ByLayer
370
-1
48
1
60
0
100
AcDbEllipse
10
104.11261
20
10.066167
30
0
11
5.04036978550836E-16
21
0.430266371133673
31
0
210
0
220
0
230
1
40
0.996195
41
-1.27409035395586
42
-0.226892802759249
0
ELLIPSE
5
15C
100
AcDbEntity
8
1
62
256
6
ByLayer
370
-1
48
1
60
0
100
AcDbEllipse
10
97.915477
20
12.948542
30
0
11
1.1632843730555E-14
21
9.9302663711333
31
0
210
0
220
0
230
1
40
0.996195
41
3.14159265358979
42
-3.12558669055491
0
ELLIPSE
5
15D
100
AcDbEntity
8
1
62
256
6
ByLayer
370
-1
48
1
60
0
100
AcDbEllipse
10
94.867824
20
3.572905
30
0
11
-1.07186937277348E-14
21
-9.99999999999999
31
0
210
0
220
0
230
1
40
0.996195
41
1.59660228291658
42
1.60570291183479
0
ELLIPSE
5
15E
100
AcDbEntity
8
1
62
256
6
ByLayer
370
-1
48
1
60
0
100
AcDbEllipse
10
104.206232
20
0.562066
30
0
11
1.16328437305553E-14
21
9.93026637113358
31
0
210
0
220
0
230
1
40
0.996195
41
0.0258059561216836
42
0.0312637618884592
0
ELLIPSE
5
15F
100
AcDbEntity
8
1
62
256
6
ByLayer
370
-1
48
1
60
0
100
AcDbEllipse
10
97.737678
20
9.842699
30
0
11
5.04036978550836E-16
21
0.430266371133673
31
0
210
0
220
0
230
1
40
0.996195
41
0.296705972839026
42
1.34390352403561
0
ELLIPSE
5
160
100
AcDbEntity
8
1
62
256
6
ByLayer
370
-1
48
1
60
0
100
AcDbEllipse
10
94.866803
20
3.621894
30
0
11
-1.07186937277344E-14
21
-9.99999999999964
31
0
210
0
220
0
230
1
40
0.996195
41
1.57079632679489
42
1.58680228982978
0
ELLIPSE
5
161
100
AcDbEntity
8
1
62
256
6
ByLayer
370
-1
48
1
60
0
100
AcDbEllipse
10
97.99573
20
7.949183
30
0
11
-5.35934686386771E-15
21
-5.00000000000028
31
0
210
0
220
0
230
1
40
0.996195
41
0.0160059630348838
42
0.0258059561216593
0
ELLIPSE
5
162
100
AcDbEntity
8
1
62
256
6
ByLayer
370
-1
48
1
60
0
100
AcDbEllipse
10
97.544077
20
9.88769
30
0
11
-3.21560811832046E-16
21
-0.300000000000001
31
0
210
0
220
0
230
1
40
0.996195
41
-1.79768912955412
42
-1.5707963267949
0
ELLIPSE
5
163
100
AcDbEntity
8
1
62
256
6
ByLayer
370
-1
48
1
60
0
100
AcDbEllipse
10
97.867206
20
12.947518
30
0
11
-1.07186937277348E-14
21
-9.99999999999999
31
0
210
0
220
0
230
1
40
0.996195
41
0.0258059561216836
42
0.0349065850398896
0
ELLIPSE
5
164
100
AcDbEntity
8
1
62
256
6
ByLayer
370
-1
48
1
60
0
100
AcDbEllipse
10
107.207166
20
9.88769
30
0
11
-1.07186937277344E-14
21
-9.99999999999964
31
0
210
0
220
0
230
1
40
0.996195
41
-1.5707963267949
42
-1.55479036376002
0
ELLIPSE
5
165
100
AcDbEntity
8
1
62
256
6
ByLayer
370
-1
48
1
60
0
100
AcDbEllipse
10
101.263589
20
6.754792
30
0
11
1.64003467924279E-15
21
1.4
31
0
210
0
220
0
230
1
40
0.996195
41
0
42
1.57079653853157
0
ELLIPSE
5
166
100
AcDbEntity
8
1
62
256
6
ByLayer
370
-1
48
1
60
0
100
AcDbEllipse
10
101.263589
20
6.754792
30
0
11
1.64003467924279E-15
21
1.4
31
0
210
0
220
0
230
1
40
0.996195
41
1.57079640587062
42
-3.14159236166655
0
ELLIPSE
5
167
100
AcDbEntity
8
1
62
256
6
ByLayer
370
-1
48
1
60
0
100
AcDbEllipse
10
103.768171
20
13.15439
30
0
11
1.16328437305553E-14
21
9.93026637113358
31
0
210
0
220
0
230
1
40
0.996195
41
-3.10304323372874
42
-3.0975854396317
0
ELLIPSE
5
168
100
AcDbEntity
8
1
62
256
6
ByLayer
370
-1
48
1
60
0
100
AcDbEllipse
10
97.770294
20
3.384942
30
0
11
-3.21560811832046E-16
21
-0.300000000000001
31
0
210
0
220
0
230
1
40
0.996195
41
-1.50098315671517
42
-1.27409035395594
0
ELLIPSE
5
169
100
AcDbEntity
8
1
62
256
6
ByLayer
370
-1
48
1
60
0
100
AcDbEllipse
10
107.409312
20
4.06158
30
0
11
1.1632843730555E-14
21
9.9302663711333
31
0
210
0
220
0
230
1
40
0.996195
41
1.62460353383979
42
1.64060949687468
0
ELLIPSE
5
16A
100
AcDbEntity
8
1
62
256
6
ByLayer
370
-1
48
1
60
0
100
AcDbEllipse
10
98.085606
20
5.350353
30
0
11
5.77557701897395E-15
21
4.93026637113357
31
0
210
0
220
0
230
1
40
0.996195
41
0.0440072139581178
42
0.0538072070448944
0
ELLIPSE
5
16B
100
AcDbEntity
8
1
62
256
6
ByLayer
370
-1
48
1
60
0
100
AcDbEllipse
10
97.73821
20
9.842699
30
0
11
-5.35934686386747E-16
21
-0.500000000000006
31
0
210
0
220
0
230
1
40
0.996195
41
-2.84488668075075
42
-1.79768912955414
0
ELLIPSE
5
16C
100
AcDbEntity
8
1
62
256
6
ByLayer
370
-1
48
1
60
0
100
AcDbEllipse
10
104.394011
20
3.475623
30
0
11
-3.21560811832046E-16
21
-0.300000000000001
31
0
210
0
220
0
230
1
40
0.996195
41
0.0698131700797553
42
0.296705972839008
0
ELLIPSE
5
16D
100
AcDbEntity
8
1
62
256
6
ByLayer
370
-1
48
1
60
0
100
AcDbEllipse
10
98.086138
20
5.350353
30
0
11
-5.35934686386771E-15
21
-5.00000000000028
31
0
210
0
220
0
230
1
40
0.996195
41
-3.09758543963167
42
-3.0877854465449
0
ELLIPSE
5
16E
100
AcDbEntity
8
1
62
256
6
ByLayer
370
-1
48
1
60
0
100
AcDbEllipse
10
94.867292
20
3.572905
30
0
11
1.16328437305553E-14
21
9.93026637113358
31
0
210
0
220
0
230
1
40
0.996195
41
-1.54499037067321
42
-1.53953256490644
0
ELLIPSE
5
16F
100
AcDbEntity
8
1
62
256
6
ByLayer
370
-1
48
1
60
0
100
AcDbEllipse
10
104.078239
20
5.560401
30
0
11
-5.35934686386771E-15
21
-5.00000000000028
31
0
210
0
220
0
230
1
40
0.996195
41
-3.12558669055491
42
-3.11578669746813
0
ELLIPSE
5
170
100
AcDbEntity
8
1
62
256
6
ByLayer
370
-1
48
1
60
0
100
AcDbEllipse
10
103.719948
20
13.151995
30
0
11
-1.07186937277344E-14
21
-9.99999999999964
31
0
210
0
220
0
230
1
40
0.996195
41
0.0538072070448949
42
0.0698131700797835
0
ELLIPSE
5
171
100
AcDbEntity
8
1
62
256
6
ByLayer
370
-1
48
1
60
0
100
AcDbEllipse
10
97.679426
20
10.03396
30
0
11
2.69746310087586E-16
21
0.230266371133677
31
0
210
0
220
0
230
1
40
0.996195
41
0.069813170079711
42
0.296705972838969
0
ELLIPSE
5
172
100
AcDbEntity
8
1
62
256
6
ByLayer
370
-1
48
1
60
0
100
AcDbEllipse
10
104.000305
20
-3.496694
30
0
11
0.999999999999949
21
0
31
0
210
0
220
0
230
1
40
0.997564
41
-0.034906585040019
42
0.465543358906949
0
ELLIPSE
5
173
100
AcDbEntity
8
1
62
256
6
ByLayer
370
-1
48
1
60
0
100
AcDbEllipse
10
104.028603
20
-2.089626
30
0
11
-0.199724569469276
21
-0.0104926807972083
31
0
210
0
220
0
230
1
40
0.069661
41
1.34748943558498
42
1.56713665656312
0
ELLIPSE
5
174
100
AcDbEntity
8
1
62
256
6
ByLayer
370
-1
48
1
60
0
100
AcDbEllipse
10
104.31962
20
-4.003379
30
0
11
-0.199877570208915
21
0.00699692270788842
31
0
210
0
220
0
230
1
40
0.069714
41
0.526039181296484
42
1.5732367324931
0
ELLIPSE
5
175
100
AcDbEntity
8
1
62
256
6
ByLayer
370
-1
48
1
60
0
100
AcDbEllipse
10
101.30186
20
-2.502308
30
0
11
1.5
21
0
31
0
210
0
220
0
230
1
40
0.997564
41
1.53525678255632
42
2.62097185987594
0
ELLIPSE
5
176
100
AcDbEntity
8
1
62
256
6
ByLayer
370
-1
48
1
60
0
100
AcDbEllipse
10
106.681038
20
-1.957932
30
0
11
-2.82928030737534
21
2.85938117640895E-15
31
0
210
0
220
0
230
1
40
0.997564
41
0.355821520526209
42
0.452754376167888
0
ELLIPSE
5
177
100
AcDbEntity
8
1
62
256
6
ByLayer
370
-1
48
1
60
0
100
AcDbEllipse
10
101.30186
20
-2.530484
30
0
11
1.4
21
0
31
0
210
0
220
0
230
1
40
0.997564
41
1.11830893008046
42
2.75939816091079
0
ELLIPSE
5
178
100
AcDbEntity
8
1
62
256
6
ByLayer
370
-1
48
1
60
0
100
AcDbEllipse
10
103.448819
20
-0.597991
30
0
11
-0.600000000000031
21
6.06383433049449E-16
31
0
210
0
220
0
230
1
40
0.997564
41
-3.08923277602996
42
-2.38288493715824
0
ELLIPSE
5
179
100
AcDbEntity
8
1
62
256
6
ByLayer
370
-1
48
1
60
0
100
AcDbEllipse
10
103.819925
20
-3.999923
30
0
11
-0.500000000000032
21
5.05319527541214E-16
31
0
210
0
220
0
230
1
40
0.997564
41
2.38534574936601
42
3.10668606854992
0
ELLIPSE
5
17A
100
AcDbEntity
8
1
62
256
6
ByLayer
370
-1
48
1
60
0
100
AcDbEllipse
10
106.681038
20
-1.964907
30
0
11
2.65607522661845
21
0
31
0
210
0
220
0
230
1
40
0.997564
41
-3.089232775787
42
-2.6888382774219
0
ELLIPSE
5
17B
100
AcDbEntity
8
1
62
256
6
ByLayer
370
-1
48
1
60
0
100
AcDbEllipse
10
106.681038
20
-2.15325
30
0
11
2.00000000000005
21
0
31
0
210
0
220
0
230
1
40
0.997564
41
-3.0892327757073
42
-2.67604929468265
0
ELLIPSE
5
17C
100
AcDbEntity
8
1
62
256
6
ByLayer
370
-1
48
1
60
0
100
AcDbEllipse
10
104.342646
20
-3.345606
30
0
11
-0.199877570208915
21
0.00699692270788842
31
0
210
0
220
0
230
1
40
0.069714
41
0.526039181296484
42
1.57323673249303
0
ELLIPSE
5
17D
100
AcDbEntity
8
1
62
256
6
ByLayer
370
-1
48
1
60
0
100
AcDbEllipse
10
103.948134
20
-0.557936
30
0
11
-0.199724569469276
21
-0.0104926807972083
31
0
210
0
220
0
230
1
40
0.069661
41
1.34748943558499
42
1.56713665656312
0
ELLIPSE
5
17E
100
AcDbEntity
8
1
62
256
6
ByLayer
370
-1
48
1
60
0
100
AcDbEllipse
10
104.094113
20
-0.56397
30
0
11
0.49999999999995
21
0
31
0
210
0
220
0
230
1
40
0.997564
41
0.0523598775597034
42
0.349065850398744
0
ELLIPSE
5
17F
100
AcDbEntity
8
1
62
256
6
ByLayer
370
-1
48
1
60
0
100
AcDbEllipse
10
101.30186
20
-2.502308
30
0
11
1.4
21
0
31
0
210
0
220
0
230
1
40
0.997564
41
1.18693294204111
42
2.7642089817927
0
ELLIPSE
5
180
100
AcDbEntity
8
1
62
256
6
ByLayer
370
-1
48
1
60
0
100
AcDbEllipse
10
103.726348
20
0.443996
30
0
11
0.499999999999967
21
0
31
0
210
0
220
0
230
1
40
0.997564
41
0.349065850398943
42
1.11821972434057
0
ELLIPSE
5
181
100
AcDbEntity
8
1
62
256
6
ByLayer
370
-1
48
1
60
0
100
AcDbEllipse
10
106.681038
20
-1.964907
30
0
11
2.55607522661845
21
0
31
0
210
0
220
0
230
1
40
0.997564
41
-3.0892327757775
42
-2.6888382774219
0
ELLIPSE
5
182
100
AcDbEntity
8
1
62
256
6
ByLayer
370
-1
48
1
60
0
100
AcDbEllipse
10
104.444161
20
-5.109232
30
0
11
0.499999999999967
21
0
31
0
210
0
220
0
230
1
40
0.997564
41
-1.22173047639592
42
-0.0349065850399456
0
ELLIPSE
5
183
100
AcDbEntity
8
1
62
256
6
ByLayer
370
-1
48
1
60
0
100
AcDbEllipse
10
103.842951
20
-3.342151
30
0
11
-0.599999999999998
21
6.06383433049416E-16
31
0
210
0
220
0
230
1
40
0.997564
41
3.10668606854991
42
-2.6888382774219
0
ELLIPSE
5
184
100
AcDbEntity
8
1
62
256
6
ByLayer
370
-1
48
1
60
0
100
AcDbEllipse
10
103.819925
20
-3.992947
30
0
11
0.326794919243145
21
0
31
0
210
0
220
0
230
1
40
0.997564
41
-0.578166151428061
42
-0.0349065850398991
0
ELLIPSE
5
185
100
AcDbEntity
8
1
62
256
6
ByLayer
370
-1
48
1
60
0
100
AcDbEllipse
10
103.819925
20
-3.999923
30
0
11
-0.600000000000032
21
6.0638343304945E-16
31
0
210
0
220
0
230
1
40
0.997564
41
2.38534574936601
42
3.10668606854991
0
ELLIPSE
5
186
100
AcDbEntity
8
1
62
256
6
ByLayer
370
-1
48
1
60
0
100
AcDbEllipse
10
104.292574
20
-3.11001
30
0
11
-0.179765043292579
21
-0.0876614465430335
31
0
210
0
220
0
230
1
40
0.062728
41
0.493019242990984
42
1.54021679418701
0
ELLIPSE
5
187
100
AcDbEntity
8
1
62
256
6
ByLayer
370
-1
48
1
60
0
100
AcDbEllipse
10
103.842951
20
-3.335175
30
0
11
0.326794919243111
21
0
31
0
210
0
220
0
230
1
40
0.997564
41
-0.0349065850398941
42
0.452754376167897
0
ELLIPSE
5
188
100
AcDbEntity
8
1
62
256
6
ByLayer
370
-1
48
1
60
0
100
AcDbEllipse
10
103.842951
20
-3.342151
30
0
11
-0.499999999999999
21
5.0531952754118E-16
31
0
210
0
220
0
230
1
40
0.997564
41
3.10668606854992
42
-2.6888382774219
0
ELLIPSE
5
189
100
AcDbEntity
8
1
62
256
6
ByLayer
370
-1
48
1
60
0
100
AcDbEllipse
10
103.448819
20
-0.597991
30
0
11
-0.500000000000031
21
5.05319527541213E-16
31
0
210
0
220
0
230
1
40
0.997564
41
-3.08923277602996
42
-2.66873051811648
0
ELLIPSE
5
18A
100
AcDbEntity
8
1
62
256
6
ByLayer
370
-1
48
1
60
0
100
AcDbEllipse
10
106.681038
20
-2.020712
30
0
11
-2.23329066571558
21
2.25705076812306E-15
31
0
210
0
220
0
230
1
40
0.997564
41
0.0523598778487875
42
0.452754376167892
0
ELLIPSE
5
18B
100
AcDbEntity
8
1
62
256
6
ByLayer
370
-1
48
1
60
0
100
AcDbEllipse
10
104.183633
20
-4.328234
30
0
11
-0.145316104585927
21
0.137416264495772
31
0
210
0
220
0
230
1
40
0.050742
41
0.991356938499546
42
1.61874306562627
0
POINT
5
41
100
AcDbEntity
8
81
62
256
6
ByLayer
370
-1
48
1
60
0
100
AcDbPoint
10
105
20
0
30
0
39
0
210
0
220
0
230
1
50
360
0
POINT
5
43
100
AcDbEntity
8
80
62
256
6
ByLayer
370
-1
48
1
60
0
100
AcDbPoint
10
0
20
0
30
0
39
0
210
0
220
0
230
1
50
360
0
SPLINE
5
18C
100
AcDbEntity
8
1
62
256
6
ByLayer
370
-1
48
1
60
0
100
AcDbSpline
70
4
71
3
72
20
73
16
40
0
40
0
40
0
40
0
40
0.0553893404808643
40
0.136567403713222
40
0.217471982885405
40
0.297898519492175
40
0.377777370957122
40
0.45717733756198
40
0.536273217725249
40
0.615298749254354
40
0.694429112717982
40
0.773874250405717
40
0.853793010588059
40
0.93424131697574
40
1
40
1
40
1
40
1
41
1
10
101.203202456113
20
8.14503136055609
30
0
41
1
10
101.283308479382
20
8.15083862558737
30
0
41
1
10
101.477286860959
20
8.1462254702316
30
0
41
1
10
101.779578589277
20
8.05430899600262
30
0
41
1
10
102.082168343538
20
7.87623838657279
30
0
41
1
10
102.331205139135
20
7.62604522491228
30
0
41
1
10
102.510643265938
20
7.32210434388585
30
0
41
1
10
102.60966960804
20
6.98327621316179
30
0
41
1
10
102.622620683464
20
6.63100898229712
30
0
41
1
10
102.549217387697
20
6.28709741438419
30
0
41
1
10
102.394443578519
20
5.97257148513711
30
0
41
1
10
102.167854107015
20
5.70641128932473
30
0
41
1
10
101.883608104939
20
5.50473876718792
30
0
41
1
10
101.577321087775
20
5.38757276693755
30
0
41
1
10
101.371563107327
20
5.35915035372619
30
0
41
1
10
101.276393558604
20
5.35563306934571
30
0
0
SPLINE
5
18D
100
AcDbEntity
8
1
62
256
6
ByLayer
370
-1
48
1
60
0
100
AcDbSpline
70
4
71
3
72
10
73
6
40
0
40
0
40
0
40
0
40
0.153028599947263
40
0.633930324066471
40
1
40
1
40
1
40
1
41
1
10
101.228271806398
20
-1.14190663651289
30
0
41
1
10
101.265313094999
20
-1.13998033933652
30
0
41
1
10
101.418059663734
20
-1.13797031169736
30
0
41
1
10
101.659750856666
20
-1.17448770863004
30
0
41
1
10
101.851366583616
20
-1.24855158388001
30
0
41
1
10
101.930318708565
20
-1.28794859067952
30
0
0
SPLINE
5
18E
100
AcDbEntity
8
1
62
256
6
ByLayer
370
-1
48
1
60
0
100
AcDbSpline
70
4
71
3
72
12
73
8
40
0
40
0
40
0
40
0
40
0.164204343133194
40
0.387684129788967
40
0.610202846000708
40
0.83179173714396
40
1
40
1
40
1
40
1
41
1
10
100.008066584437
20
-2.00160558330705
30
0
41
1
10
100.041114879626
20
-1.92264429425714
30
0
41
1
10
100.133411850648
20
-1.74328019021095
30
0
41
1
10
100.342647370885
20
-1.49781436779836
30
0
41
1
10
100.630547935786
20
-1.29344856550557
30
0
41
1
10
100.93580392104
20
-1.17659456272895
30
0
41
1
10
101.138342319426
20
-1.14680473771983
30
0
41
1
10
101.228271806398
20
-1.14190663651289
30
0
0
SPLINE
5
18F
100
AcDbEntity
8
1
62
256
6
ByLayer
370
-1
48
1
60
0
100
AcDbSpline
70
4
71
3
72
19
73
15
40
0
40
0
40
0
40
0
40
0.0786603883806185
40
0.159046178634029
40
0.240322394800543
40
0.32159682199501
40
0.401977362190724
40
0.480639563120357
40
0.559806099482507
40
0.645595224916
40
0.731969204529035
40
0.819883896406273
40
0.909417956965079
40
1
40
1
40
1
40
1
41
1
10
18
20
10.32
30
0
41
1
10
17.6124777045738
20
10.3202913540186
30
0
41
1
10
16.8382683483779
20
10.3760822688666
30
0
41
1
10
15.6856666683187
20
10.6314312133044
30
0
41
1
10
14.57275619605
20
11.0579779801402
30
0
41
1
10
13.5374701352609
20
11.6470504591311
30
0
41
1
10
12.6019958139284
20
12.3680335248931
30
0
41
1
10
11.8211032437607
20
13.2339102328043
30
0
41
1
10
11.0341307277369
20
14.1329545767087
30
0
41
1
10
10.0154198536328
20
14.8402666630644
30
0
41
1
10
8.86247402249484
20
15.3854931054248
30
0
41
1
10
7.62089433495896
20
15.7510720626911
30
0
41
1
10
6.32314027456098
20
15.9566285382679
30
0
41
1
10
5.44483890338577
20
16.0022116085095
30
0
41
1
10
5.00000000000003
20
16
30
0
0
SPLINE
5
190
100
AcDbEntity
8
1
62
256
6
ByLayer
370
-1
48
1
60
0
100
AcDbSpline
70
4
71
3
72
17
73
13
40
0
40
0
40
0
40
0
40
0.0960750491676969
40
0.19091887682522
40
0.283912367217515
40
0.375293817265097
40
0.466461407717001
40
0.558631947141519
40
0.668439882399835
40
0.780130070209927
40
0.891400540103461
40
1
40
1
40
1
40
1
41
1
10
4.99999999999997
20
-16
30
0
41
1
10
5.47196470350343
20
-16.0026726701156
30
0
41
1
10
6.40225357374729
20
-15.9511890138017
30
0
41
1
10
7.77478399696395
20
-15.7193419056744
30
0
41
1
10
9.08042109977023
20
-15.3044910895855
30
0
41
1
10
10.2825356846014
20
-14.6849229664933
30
0
41
1
10
11.3507010265599
20
-13.8496156334273
30
0
41
1
10
12.2244873528748
20
-12.7060705162521
30
0
41
1
10
13.4042774041986
20
-11.7072744247993
30
0
41
1
10
14.8329082987984
20
-10.9117479656737
30
0
41
1
10
16.3957880471141
20
-10.4272066653106
30
0
41
1
10
17.4614364559867
20
-10.3210584377196
30
0
41
1
10
18
20
-10.32
30
0
0
SPLINE
5
191
100
AcDbEntity
8
1
62
256
6
ByLayer
370
-1
48
1
60
0
100
AcDbSpline
70
4
71
3
72
8
73
4
40
0
40
0
40
0
40
0
40
1
40
1
40
1
40
1
41
1
10
52.6141855290464
20
10.1507634081983
30
0
41
1
10
55.5735423150097
20
10.1337975452303
30
0
41
1
10
58.5332071299827
20
10.0183773593207
30
0
41
1
10
61.4999999999999
20
9.80767176266431
30
0
0
SPLINE
5
192
100
AcDbEntity
8
1
62
256
6
ByLayer
370
-1
48
1
60
0
100
AcDbSpline
70
4
71
3
72
8
73
4
40
0
40
0
40
0
40
0
40
1
40
1
40
1
40
1
41
1
10
96.3714682307701
20
3.13957872840825
30
0
41
1
10
96.6932619338654
20
3.02987571003055
30
0
41
1
10
97.0226339172073
20
2.94752675624167
30
0
41
1
10
97.3597413694737
20
2.8930879297524
30
0
0
SPLINE
5
193
100
AcDbEntity
8
1
62
256
6
ByLayer
370
-1
48
1
60
0
100
AcDbSpline
70
4
71
3
72
18
73
14
40
0
40
0
40
0
40
0
40
0.250000000000013
40
0.250000000000013
40
0.375000000000013
40
0.375000000000013
40
0.500000000000014
40
0.500000000000014
40
0.750000000000001
40
0.750000000000001
40
0.875
40
0.875
40
1
40
1
40
1
40
1
41
1
10
93.0958336730898
20
2.64058483325286
30
0
41
1
10
93.3091573870522
20
2.54563763700332
30
0
41
1
10
93.5204795421731
20
2.45871825385817
30
0
41
1
10
93.8345515395825
20
2.34001550470273
30
0
41
1
10
93.9387529642201
20
2.30241016056158
30
0
41
1
10
94.1461426912673
20
2.23126288312099
30
0
41
1
10
94.2485924645961
20
2.19799408854698
30
0
41
1
10
94.5474819774157
20
2.1065225673386
30
0
41
1
10
94.7375237635558
20
2.05587938253711
30
0
41
1
10
95.008449325516
20
1.99576933132462
30
0
41
1
10
95.0964086521826
20
1.97842460408816
30
0
41
1
10
95.2636080583387
20
1.94990287713225
30
0
41
1
10
95.3433709242274
20
1.93860097405295
30
0
41
1
10
95.4193105490472
20
1.9302475460741
30
0
0
SPLINE
5
194
100
AcDbEntity
8
1
62
256
6
ByLayer
370
-1
48
1
60
0
100
AcDbSpline
70
4
71
3
72
18
73
14
40
0
40
0
40
0
40
0
40
0.25
40
0.25
40
0.5
40
0.5
40
0.5625
40
0.5625
40
0.625
40
0.625
40
0.75
40
0.75
40
1
40
1
40
1
40
1
41
1
10
22.9999999999996
20
-8.45580764991001
30
0
41
1
10
26.2109588058163
20
-8.96105443844763
30
0
41
1
10
29.4141141249691
20
-9.36390781887815
30
0
41
1
10
35.821822359741
20
-9.94182442119609
30
0
41
1
10
39.0262557183582
20
-10.1172289057229
30
0
41
1
10
43.042215324586
20
-10.1883579719014
30
0
41
1
10
43.8457325575652
20
-10.1951898910006
30
0
41
1
10
45.4514744291228
20
-10.1940848400104
30
0
41
1
10
46.2540060234305
20
-10.1861545840402
30
0
41
1
10
48.6609557916399
20
-10.1404009990309
30
0
41
1
10
50.2647360288211
20
-10.0806025692369
30
0
41
1
10
55.0763182607021
20
-9.81533841130207
30
0
41
1
10
58.2841077196721
20
-9.52338825053207
30
0
41
1
10
61.5000000000001
20
-9.12559703471661
30
0
0
SPLINE
5
195
100
AcDbEntity
8
1
62
256
6
ByLayer
370
-1
48
1
60
0
100
AcDbSpline
70
4
71
3
72
14
73
10
40
0
40
0
40
0
40
0
40
0.25
40
0.25
40
0.5
40
0.5
40
0.75
40
0.75
40
1
40
1
40
1
40
1
41
1
10
97.045850938202
20
10.0995501267277
30
0
41
1
10
97.0500357961952
20
10.0991002018559
30
0
41
1
10
97.0597711196302
20
10.0983271265422
30
0
41
1
10
97.0899354258542
20
10.0962506099354
30
0
41
1
10
97.1106635619101
20
10.0949320024194
30
0
41
1
10
97.1609613164936
20
10.0920664589733
30
0
41
1
10
97.1909683016063
20
10.0904937363762
30
0
41
1
10
97.2592128222358
20
10.0873831421254
30
0
41
1
10
97.2968262616311
20
10.085871716561
30
0
41
1
10
97.3379789265113
20
10.0845204930307
30
0
0
SPLINE
5
196
100
AcDbEntity
8
1
62
256
6
ByLayer
370
-1
48
1
60
0
100
AcDbSpline
70
4
71
3
72
8
73
4
40
0
40
0
40
0
40
0
40
1
40
1
40
1
40
1
41
1
10
95.2925251971546
20
3.62006904263942
30
0
41
1
10
95.5062900159244
20
3.52161157090544
30
0
41
1
10
95.7106330527578
20
3.42647875673094
30
0
41
1
10
95.905136886764
20
3.33481789513181
30
0
0
SPLINE
5
197
100
AcDbEntity
8
1
62
256
6
ByLayer
370
-1
48
1
60
0
100
AcDbSpline
70
4
71
3
72
8
73
4
40
0
40
0
40
0
40
0
40
1
40
1
40
1
40
1
41
1
10
93.731898082446
20
4.96856016956986
30
0
41
1
10
93.7050699955277
20
5.31999368381904
30
0
41
1
10
93.6537222349957
20
5.67839585466601
30
0
41
1
10
93.5665557408404
20
6.04000000000232
30
0
0
SPLINE
5
198
100
AcDbEntity
8
1
62
256
6
ByLayer
370
-1
48
1
60
0
100
AcDbSpline
70
4
71
3
72
14
73
10
40
0
40
0
40
0
40
0
40
0.0705200632902934
40
0.0705200632902934
40
0.380346708860195
40
0.380346708860195
40
0.690173354430098
40
0.690173354430098
40
1
40
1
40
1
40
1
41
1
10
103.732076077965
20
3.14107941152798
30
0
41
1
10
103.731603851575
20
3.13366080243105
30
0
41
1
10
103.731102187534
20
3.12644627871245
30
0
41
1
10
103.728264730841
20
3.08862749370127
30
0
41
1
10
103.725423294636
20
3.06169761003767
30
0
41
1
10
103.719297933193
20
3.01864534234684
30
0
41
1
10
103.715951964652
20
3.0019766797322
30
0
41
1
10
103.709014309059
20
2.97955630984535
30
0
41
1
10
103.705482748953
20
2.97389943454544
30
0
41
1
10
103.701943234327
20
2.9738667188515
30
0
0
SPLINE
5
199
100
AcDbEntity
8
1
62
256
6
ByLayer
370
-1
48
1
60
0
100
AcDbSpline
70
4
71
3
72
10
73
6
40
0
40
0
40
0
40
0
40
0.5
40
0.5
40
1
40
1
40
1
40
1
41
1
10
93.7318980824454
20
4.96856016956949
30
0
41
1
10
93.7302852965406
20
4.93215172222128
30
0
41
1
10
93.7308186280581
20
4.8958900444452
30
0
41
1
10
93.7354252548426
20
4.82587598100238
30
0
41
1
10
93.7394661412426
20
4.79196643845972
30
0
41
1
10
93.7449337803717
20
4.75900201766663
30
0
0
SPLINE
5
19A
100
AcDbEntity
8
1
62
256
6
ByLayer
370
-1
48
1
60
0
100
AcDbSpline
70
4
71
3
72
10
73
6
40
0
40
0
40
0
40
0
40
0.5
40
0.5
40
1
40
1
40
1
40
1
41
1
10
9.70265060245421
20
-0.875775263391375
30
0
41
1
10
9.5519992940377
20
-0.745153230889116
30
0
41
1
10
9.40449147441427
20
-0.603081546136082
30
0
41
1
10
9.11503897129845
20
-0.296910940770772
30
0
41
1
10
8.97309605880065
20
-0.132812714655273
30
0
41
1
10
8.83379423637496
20
0.0426166078530912
30
0
0
SPLINE
5
19B
100
AcDbEntity
8
1
62
256
6
ByLayer
370
-1
48
1
60
0
100
AcDbSpline
70
4
71
3
72
24
73
20
40
0
40
0
40
0
40
0
40
0.125000000000007
40
0.125000000000007
40
0.250000000000015
40
0.250000000000015
40
0.312500000000006
40
0.312500000000006
40
0.374999999999996
40
0.374999999999996
40
0.437499999999987
40
0.437499999999987
40
0.499999999999978
40
0.499999999999978
40
0.62499999999998
40
0.62499999999998
40
0.749999999999982
40
0.749999999999982
40
1
40
1
40
1
40
1
41
1
10
98.5304247743294
20
2.64101398771763
30
0
41
1
10
98.4703978459152
20
2.63011873544846
30
0
41
1
10
98.4079294975047
20
2.6217486424537
30
0
41
1
10
98.2764235531826
20
2.6118958258709
30
0
41
1
10
98.2095804154866
20
2.61069257492403
30
0
41
1
10
98.110671763406
20
2.61502448019166
30
0
41
1
10
98.0776311965673
20
2.61751692243172
30
0
41
1
10
98.0141886610219
20
2.62427088093224
30
0
41
1
10
97.9834635032451
20
2.62853577176321
30
0
41
1
10
97.92379919803
20
2.63864232918172
30
0
41
1
10
97.8948041441527
20
2.64451094424186
30
0
41
1
10
97.8399258815414
20
2.65727394788931
30
0
41
1
10
97.8138132558135
20
2.66420207412258
30
0
41
1
10
97.7387830239487
20
2.6863235257058
30
0
41
1
10
97.6928205988025
20
2.70298693242222
30
0
41
1
10
97.6093870495267
20
2.73794740574769
30
0
41
1
10
97.5717812119292
20
2.75624622797457
30
0
41
1
10
97.4677663325174
20
2.81274751399266
30
0
41
1
10
97.4098146566656
20
2.8527033238378
30
0
41
1
10
97.3597413694737
20
2.8930879297524
30
0
0
SPLINE
5
19C
100
AcDbEntity
8
1
62
256
6
ByLayer
370
-1
48
1
60
0
100
AcDbSpline
70
4
71
3
72
18
73
14
40
0
40
0
40
0
40
0
40
0.167806311152247
40
0.167806311152247
40
0.335612622304495
40
0.335612622304495
40
0.503418933456742
40
0.503418933456742
40
0.671225244608989
40
0.671225244608989
40
0.839031555761236
40
0.839031555761236
40
1
40
1
40
1
40
1
41
1
10
19.1541026986989
20
2.38218487720127
30
0
41
1
10
18.7772861404308
20
2.19067783504036
30
0
41
1
10
18.3843080832558
20
1.90844238748923
30
0
41
1
10
17.6154030671975
20
1.19797498239825
30
0
41
1
10
17.2396849696066
20
0.769936012467156
30
0
41
1
10
16.5529231354591
20
-0.177973283271228
30
0
41
1
10
16.2420659472553
20
-0.697586124010229
30
0
41
1
10
15.7244553891275
20
-1.76284359360636
30
0
41
1
10
15.5178426201983
20
-2.30819886155783
30
0
41
1
10
15.2349611059765
20
-3.35584356577726
30
0
41
1
10
15.1587692011225
20
-3.85784842537802
30
0
41
1
10
15.1467067858794
20
-4.73686894922056
30
0
41
1
10
15.2052479697937
20
-5.11791991313757
30
0
41
1
10
15.3246938804246
20
-5.42774695942754
30
0
0
SPLINE
5
19D
100
AcDbEntity
8
1
62
256
6
ByLayer
370
-1
48
1
60
0
100
AcDbSpline
70
4
71
3
72
84
73
80
40
-0.0312500000000004
40
-0.0312500000000004
40
0
40
0
40
0.0312499999999953
40
0.0312499999999953
40
0.046874999999993
40
0.046874999999993
40
0.0624999999999907
40
0.0624999999999907
40
0.0937499999999862
40
0.0937499999999862
40
0.124999999999982
40
0.124999999999982
40
0.156249999999977
40
0.156249999999977
40
0.171874999999977
40
0.171874999999977
40
0.187499999999977
40
0.187499999999977
40
0.21874999999998
40
0.21874999999998
40
0.249999999999984
40
0.249999999999984
40
0.281249999999988
40
0.281249999999988
40
0.312499999999992
40
0.312499999999992
40
0.328124999999994
40
0.328124999999994
40
0.343749999999995
40
0.343749999999995
40
0.374999999999995
40
0.374999999999995
40
0.406249999999995
40
0.406249999999995
40
0.437499999999994
40
0.437499999999994
40
0.468749999999994
40
0.468749999999994
40
0.484374999999994
40
0.484374999999994
40
0.499999999999994
40
0.499999999999994
40
0.531249999999993
40
0.531249999999993
40
0.562499999999993
40
0.562499999999993
40
0.578124999999993
40
0.578124999999993
40
0.593749999999994
40
0.593749999999994
40
0.624999999999995
40
0.624999999999995
40
0.656249999999997
40
0.656249999999997
40
0.687499999999998
40
0.687499999999998
40
0.71875
40
0.71875
40
0.750000000000001
40
0.750000000000001
40
0.781250000000003
40
0.781250000000003
40
0.796875000000001
40
0.796875000000001
40
0.8125
40
0.8125
40
0.843750000000001
40
0.843750000000001
40
0.859374999999999
40
0.859374999999999
40
0.874999999999998
40
0.874999999999998
40
0.906249999999998
40
0.906249999999998
40
0.937499999999999
40
0.937499999999999
40
0.96875
40
0.96875
40
1
40
1
40
1.03124999999999
40
1.03124999999999
41
1
10
99.7670349679466
20
-1.96661617078888
30
0
41
1
10
99.7578508244077
20
-1.7885890273831
30
0
41
1
10
99.7617795592849
20
-1.70033659340945
30
0
41
1
10
99.7802031525408
20
-1.56909047530587
30
0
41
1
10
99.7884471849754
20
-1.52553213299544
30
0
41
1
10
99.8092767647073
20
-1.43881466926675
30
0
41
1
10
99.8219408059711
20
-1.39548560836207
30
0
41
1
10
99.8657927496907
20
-1.26884810629858
30
0
41
1
10
99.902902205778
20
-1.18808173027824
30
0
41
1
10
99.9929218872204
20
-1.03395734364145
30
0
41
1
10
100.046476726911
20
-0.960094185104367
30
0
41
1
10
100.165410729385
20
-0.826437388254448
30
0
41
1
10
100.231083512785
20
-0.765852361803354
30
0
41
1
10
100.339128292586
20
-0.684613545913237
30
0
41
1
10
100.376848637007
20
-0.659120576955019
30
0
41
1
10
100.453818496932
20
-0.612557930086751
30
0
41
1
10
100.49326187632
20
-0.591326762138351
30
0
41
1
10
100.614418732596
20
-0.53368616820336
30
0
41
1
10
100.699506116333
20
-0.503131095672899
30
0
41
1
10
100.875044429954
20
-0.459579457458347
30
0
41
1
10
100.963706951835
20
-0.44689870289173
30
0
41
1
10
101.14277017322
20
-0.439242296771539
30
0
41
1
10
101.23410794269
20
-0.444528228267359
30
0
41
1
10
101.411388387002
20
-0.47289784187663
30
0
41
1
10
101.497904262425
20
-0.495769066334674
30
0
41
1
10
101.624453685962
20
-0.543247131799347
30
0
41
1
10
101.666251715565
20
-0.56138499487642
30
0
41
1
10
101.746956366676
20
-0.601352925014993
30
0
41
1
10
101.786065814609
20
-0.62324005504604
30
0
41
1
10
101.899742033693
20
-0.694486173898667
30
0
41
1
10
101.971011002662
20
-0.749681674248563
30
0
41
1
10
102.102060169887
20
-0.874202209096296
30
0
41
1
10
102.160347688448
20
-0.941985467991543
30
0
41
1
10
102.263014489456
20
-1.08809809090297
30
0
41
1
10
102.307703074372
20
-1.16736074982447
30
0
41
1
10
102.37969175588
20
-1.33072424608619
30
0
41
1
10
102.407398457348
20
-1.41505774617031
30
0
41
1
10
102.436690503875
20
-1.54543782761149
30
0
41
1
10
102.444410683489
20
-1.58977003893557
30
0
41
1
10
102.455429498616
20
-1.67810438555006
30
0
41
1
10
102.458776648103
20
-1.7222207584839
30
0
41
1
10
102.462537470991
20
-1.85441726686011
30
0
41
1
10
102.456728588701
20
-1.94234475711616
30
0
41
1
10
102.428148453807
20
-2.11779248190948
30
0
41
1
10
102.405801483302
20
-2.20268875870639
30
0
41
1
10
102.360804850378
20
-2.32588280120427
30
0
41
1
10
102.343877293926
20
-2.36626018643261
30
0
41
1
10
102.306090220991
20
-2.44562680350296
30
0
41
1
10
102.285111001553
20
-2.48479338211809
30
0
41
1
10
102.21729434316
20
-2.59807392991061
30
0
41
1
10
102.165502967758
20
-2.66846297718834
30
0
41
1
10
102.048722098825
20
-2.79912397218612
30
0
41
1
10
101.982876476394
20
-2.85995048945608
30
0
41
1
10
101.841964323566
20
-2.96648060802841
30
0
41
1
10
101.766835274051
20
-3.0125748362079
30
0
41
1
10
101.606824550772
20
-3.09000021581318
30
0
41
1
10
101.521340749529
20
-3.12125965589209
30
0
41
1
10
101.34840659036
20
-3.16516258754515
30
0
41
1
10
101.260032182049
20
-3.17838117125731
30
0
41
1
10
101.079267165561
20
-3.18650438663727
30
0
41
1
10
100.988962169976
20
-3.18117853346698
30
0
41
1
10
100.856536919006
20
-3.15978915615119
30
0
41
1
10
100.812743872227
20
-3.15041740326055
30
0
41
1
10
100.72586281219
20
-3.12712793749711
30
0
41
1
10
100.682713650426
20
-3.11315468355707
30
0
41
1
10
100.557275804207
20
-3.06541488865861
30
0
41
1
10
100.477936697545
20
-3.02565932535256
30
0
41
1
10
100.365101035094
20
-2.95446897063869
30
0
41
1
10
100.328382172921
20
-2.92866642189725
30
0
41
1
10
100.258396653391
20
-2.87416952718431
30
0
41
1
10
100.224982582679
20
-2.84540432390645
30
0
41
1
10
100.129296614341
20
-2.75469407928162
30
0
41
1
10
100.071304994519
20
-2.68804773620624
30
0
41
1
10
99.9685438915184
20
-2.54412816400702
30
0
41
1
10
99.9247509618349
20
-2.46836044474645
30
0
41
1
10
99.8516861316957
20
-2.30939899420133
30
0
41
1
10
99.8222639134271
20
-2.22541187587558
30
0
41
1
10
99.7800253709823
20
-2.05398113456644
30
0
41
1
10
99.7670349679466
20
-1.96661617078888
30
0
41
1
10
99.7578508244077
20
-1.7885890273831
30
0
0
SPLINE
5
19E
100
AcDbEntity
8
1
62
256
6
ByLayer
370
-1
48
1
60
0
100
AcDbSpline
70
4
71
3
72
12
73
8
40
0
40
0
40
0
40
0
40
0.500000000000011
40
0.500000000000011
40
0.750000000000005
40
0.750000000000005
40
1
40
1
40
1
40
1
41
1
10
91.8416509258471
20
10.0457489308395
30
0
41
1
10
92.1401890998287
20
10.0516640717368
30
0
41
1
10
92.4278689744602
20
10.060214356049
30
0
41
1
10
92.8438567847526
20
10.0735657026263
30
0
41
1
10
92.9799108070962
20
10.0780898267436
30
0
41
1
10
93.2466894193919
20
10.0865030136727
30
0
41
1
10
93.3774684122192
20
10.0903853075899
30
0
41
1
10
93.50261751938
20
10.0934116417604
30
0
0
SPLINE
5
19F
100
AcDbEntity
8
1
62
256
6
ByLayer
370
-1
48
1
60
0
100
AcDbSpline
70
4
71
3
72
14
73
10
40
0
40
0
40
0
40
0
40
0.500000000000007
40
0.500000000000007
40
0.625000000000009
40
0.625000000000009
40
0.75000000000001
40
0.75000000000001
40
1
40
1
40
1
40
1
41
1
10
97.9266071444852
20
0.563755336358241
30
0
41
1
10
97.4523011164922
20
0.535758590373774
30
0
41
1
10
96.9842545358758
20
0.566035826678842
30
0
41
1
10
96.4069473026898
20
0.675914713030409
30
0
41
1
10
96.2918795291297
20
0.701547165185076
30
0
41
1
10
96.062554919283
20
0.760333539264423
30
0
41
1
10
95.9482496031254
20
0.793529490184596
30
0
41
1
10
95.6102900571294
20
0.903510505631402
30
0
41
1
10
95.3903312214537
20
0.99093358709834
30
0
41
1
10
95.1758590655876
20
1.09272363950458
30
0
0
SPLINE
5
1A0
100
AcDbEntity
8
1
62
256
6
ByLayer
370
-1
48
1
60
0
100
AcDbSpline
70
4
71
4
72
10
73
5
40
0
40
0
40
0
40
0
40
0
40
1
40
1
40
1
40
1
40
1
41
1
10
91.8416509258471
20
6.03999999999988
30
0
41
1
10
91.8416509258615
20
7.04143723270994
30
0
41
1
10
91.8416509258715
20
8.04287446542003
30
0
41
1
10
91.8416509258785
20
9.04431169813012
30
0
41
1
10
91.8416509258833
20
10.0457489308402
30
0
0
SPLINE
5
1A1
100
AcDbEntity
8
1
62
256
6
ByLayer
370
-1
48
1
60
0
100
AcDbSpline
70
4
71
3
72
16
73
12
40
0
40
0
40
0
40
0
40
0.25
40
0.25
40
0.499999999999999
40
0.499999999999999
40
0.625
40
0.625
40
0.75
40
0.75
40
1
40
1
40
1
40
1
41
1
10
61.5
20
-5.2775610796038
30
0
41
1
10
64.1914045780902
20
-5.91516953554722
30
0
41
1
10
66.8774051780211
20
-6.50717379354879
30
0
41
1
10
72.2475322254218
20
-7.57533858990629
30
0
41
1
10
74.9315900505118
20
-8.05167774714783
30
0
41
1
10
78.9628890763291
20
-8.6634165433623
30
0
41
1
10
80.307907233506
20
-8.85060687058669
30
0
41
1
10
82.9986232880001
20
-9.1873857830663
30
0
41
1
10
84.3430878635971
20
-9.33717356562786
30
0
41
1
10
88.3757095705377
20
-9.7280072898464
30
0
41
1
10
91.0626854742495
20
-9.91059597001052
30
0
41
1
10
93.7541026986897
20
-10.0101307545643
30
0
0
SPLINE
5
1A2
100
AcDbEntity
8
1
62
256
6
ByLayer
370
-1
48
1
60
0
100
AcDbSpline
70
4
71
1
72
4
73
2
40
0
40
0
40
1
40
1
41
1
10
19.154102698696
20
2.38218487720175
30
0
41
1
10
19.1541026986961
20
5.94688785574556
30
0
0
SPLINE
5
1A3
100
AcDbEntity
8
1
62
256
6
ByLayer
370
-1
48
1
60
0
100
AcDbSpline
70
4
71
3
72
18
73
14
40
0
40
0
40
0
40
0
40
0.0415764294987262
40
0.0415764294987262
40
0.361050952999151
40
0.361050952999151
40
0.520788214749363
40
0.520788214749363
40
0.680525476499576
40
0.680525476499576
40
0.840262738249788
40
0.840262738249788
40
1
40
1
40
1
40
1
41
1
10
99.5102444953164
20
2.99204013435758
30
0
41
1
10
99.5050981098161
20
2.98804577067753
30
0
41
1
10
99.4999524506964
20
2.98410235938985
30
0
41
1
10
99.4552826603779
20
2.9502931243776
30
0
41
1
10
99.4155188043753
20
2.92314871398727
30
0
41
1
10
99.3587209316427
20
2.88774109021676
30
0
41
1
10
99.3403354387977
20
2.87685871624845
30
0
41
1
10
99.3053445099525
20
2.85711212327075
30
0
41
1
10
99.2887363978264
20
2.84825605962146
30
0
41
1
10
99.259500298242
20
2.83347666175533
30
0
41
1
10
99.2467253654935
20
2.82746609549679
30
0
41
1
10
99.2268760118541
20
2.81898803650409
30
0
41
1
10
99.2201396963319
20
2.81667344072696
30
0
41
1
10
99.2175974742273
20
2.81667344072696
30
0
0
SPLINE
5
1A4
100
AcDbEntity
8
1
62
256
6
ByLayer
370
-1
48
1
60
0
100
AcDbSpline
70
4
71
3
72
45
73
41
40
0
40
0
40
0
40
0
40
0.0314998526076502
40
0.0629997052153006
40
0.0944995578229508
40
0.125999410430601
40
0.157499263038252
40
0.188999115645902
40
0.220498968253552
40
0.251998820861203
40
0.283498673468853
40
0.314998526076503
40
0.330748452380329
40
0.346498378684154
40
0.377998231291804
40
0.393748157595629
40
0.409498083899454
40
0.440997936507105
40
0.45674786281093
40
0.472497789114755
40
0.503997641722405
40
0.51974756802623
40
0.535497494330056
40
0.566997346937706
40
0.582747273241531
40
0.598497199545357
40
0.629997052153007
40
0.661496904760657
40
0.692996757368307
40
0.724496609975958
40
0.755996462583608
40
0.787496315191258
40
0.818996167798909
40
0.881995873014209
40
0.91349572562186
40
0.94499557822951
40
0.960745504533335
40
0.97649543083716
40
0.992245357140986
40
1
40
1
40
1
40
1
41
1
10
12.0541026986975
20
6.85952568097616
30
0
41
1
10
12.0075656798936
20
6.8262365254437
30
0
41
1
10
11.9131435239774
20
6.75668218285486
30
0
41
1
10
11.7677710584595
20
6.64332910824524
30
0
41
1
10
11.6189644845793
20
6.52086100675453
30
0
41
1
10
11.4671240460528
20
6.3893085832041
30
0
41
1
10
11.3126499865958
20
6.24870254241532
30
0
41
1
10
11.1560335340366
20
6.0992182161105
30
0
41
1
10
10.9977659162033
20
5.94103093601211
30
0
41
1
10
10.8384163108154
20
5.77447201229549
30
0
41
1
10
10.6785538955923
20
5.59987275513612
30
0
41
1
10
10.5454298990962
20
5.44808054386138
30
0
41
1
10
10.4393007262448
20
5.32311554519274
30
0
41
1
10
10.3335274109149
20
5.19590216009408
30
0
41
1
10
10.2284516438046
20
5.0654748453544
30
0
41
1
10
10.124400948788
20
4.93215090098153
30
0
41
1
10
10.0211420165376
20
4.79702192354631
30
0
41
1
10
9.9192333004919
20
4.65937447655713
30
0
41
1
10
9.81899994476194
20
4.51958672009337
30
0
41
1
10
9.71998520099592
20
4.37851238418395
30
0
41
1
10
9.62295093280596
20
4.2357186194123
30
0
41
1
10
9.52820225545227
20
4.09162630639077
30
0
41
1
10
9.43506676944315
20
3.94681554272398
30
0
41
1
10
9.34448526663135
20
3.80114797537135
30
0
41
1
10
9.25672613937786
20
3.65506534889684
30
0
41
1
10
9.17092130091532
20
3.50885233902315
30
0
41
1
10
9.06746586635541
20
3.32611596283644
30
0
41
1
10
8.94983655702524
20
3.10775806535349
30
0
41
1
10
8.83904106528365
20
2.89115280631296
30
0
41
1
10
8.73539599657749
20
2.67712707021616
30
0
41
1
10
8.63909029922374
20
2.46641834698576
30
0
41
1
10
8.55031292153939
20
2.25976412654447
30
0
41
1
10
8.4420644136309
20
1.99045660468138
30
0
41
1
10
8.34912325339559
20
1.73173439341613
30
0
41
1
10
8.27127882315943
20
1.48553483673857
30
0
41
1
10
8.22879040584445
20
1.33716453054691
30
0
41
1
10
8.19842271139177
20
1.22194292202485
30
0
41
1
10
8.17744273836519
20
1.1373516695734
30
0
41
1
10
8.16149171613714
20
1.0686633229117
30
0
41
1
10
8.15255761756191
20
1.02809449922617
30
0
41
1
10
8.14967488159874
20
1.01476292061358
30
0
0
SPLINE
5
1A5
100
AcDbEntity
8
1
62
256
6
ByLayer
370
-1
48
1
60
0
100
AcDbSpline
70
4
71
3
72
14
73
10
40
0
40
0
40
0
40
0
40
0.500000000000001
40
0.500000000000001
40
0.75
40
0.75
40
0.875
40
0.875
40
1
40
1
40
1
40
1
41
1
10
61.5
20
9.80767176266414
30
0
41
1
10
65.4535347372535
20
9.5451735752755
30
0
41
1
10
69.3957582187613
20
9.10956197112191
30
0
41
1
10
75.3121480987876
20
8.22773522857827
30
0
41
1
10
77.2848327929025
20
7.89585377235224
30
0
41
1
10
80.2476606731961
20
7.34737851031019
30
0
41
1
10
81.2362347088768
20
7.15605929048092
30
0
41
1
10
83.2127884677652
20
6.75823695965471
30
0
41
1
10
84.2008993509758
20
6.55171806538041
30
0
41
1
10
85.1890754959179
20
6.33823456848973
30
0
0
SPLINE
5
1A6
100
AcDbEntity
8
1
62
256
6
ByLayer
370
-1
48
1
60
0
100
AcDbSpline
70
4
71
3
72
18
73
14
40
0
40
0
40
0
40
0
40
0.25
40
0.25
40
0.375
40
0.375
40
0.5
40
0.5
40
0.75
40
0.75
40
0.875
40
0.875
40
1
40
1
40
1
40
1
41
1
10
14.0465615666988
20
-6.36053238563866
30
0
41
1
10
14.2553879248431
20
-6.54743627210257
30
0
41
1
10
14.4921462062793
20
-6.69563553572405
30
0
41
1
10
14.8876300859367
20
-6.88249959824026
30
0
41
1
10
15.0262306779251
20
-6.93875858228895
30
0
41
1
10
15.3172946582281
20
-7.0419100244944
30
0
41
1
10
15.4699664349187
20
-7.08878304765742
30
0
41
1
10
15.9394011843197
20
-7.21633691958516
30
0
41
1
10
16.2704815845301
20
-7.28534563801742
30
0
41
1
10
16.7950558302856
20
-7.37784845127658
30
0
41
1
10
16.9753284471084
20
-7.40689193909128
30
0
41
1
10
17.3417683727065
20
-7.46222709471596
30
0
41
1
10
17.5277198965385
20
-7.48850804997505
30
0
41
1
10
17.7164168943815
20
-7.51412057059954
30
0
0
SPLINE
5
1A7
100
AcDbEntity
8
1
62
256
6
ByLayer
370
-1
48
1
60
0
100
AcDbSpline
70
4
71
3
72
8
73
4
40
0
40
0
40
0
40
0
40
1
40
1
40
1
40
1
41
1
10
18
20
-7.56454742016265
30
0
41
1
10
17.9055560876976
20
-7.54631638673362
30
0
41
1
10
17.8110251991437
20
-7.52950982299222
30
0
41
1
10
17.7164168944429
20
-7.51412057060827
30
0
0
SPLINE
5
1A8
100
AcDbEntity
8
1
62
256
6
ByLayer
370
-1
48
1
60
0
100
AcDbSpline
70
4
71
3
72
22
73
18
40
0
40
0
40
0
40
0
40
0.125
40
0.125
40
0.25
40
0.25
40
0.3125
40
0.3125
40
0.375
40
0.375
40
0.5
40
0.5
40
0.75
40
0.75
40
0.875
40
0.875
40
1
40
1
40
1
40
1
41
1
10
7.94656156669873
20
-1.75027842023849
30
0
41
1
10
7.81950814060519
20
-1.50814066133162
30
0
41
1
10
7.71201969384862
20
-1.25816641969402
30
0
41
1
10
7.52582308215111
20
-0.746447064716222
30
0
41
1
10
7.44723275579713
20
-0.484654654788443
30
0
41
1
10
7.34647855803473
20
-0.0847352436138067
30
0
41
1
10
7.31577068873807
20
0.0497850642663309
30
0
41
1
10
7.25953168655437
20
0.321053910736652
30
0
41
1
10
7.23394948566516
20
0.458155993881121
30
0
41
1
10
7.16484872133998
20
0.86859320122818
30
0
41
1
10
7.12870754677644
20
1.1418132382517
30
0
41
1
10
7.04283888165497
20
1.96000680127042
30
0
41
1
10
7.01539547083823
20
2.50351297743447
30
0
41
1
10
6.9997671827017
20
3.31487362445193
30
0
41
1
10
6.99891061819812
20
3.58508177256266
30
0
41
1
10
7.00346252483354
20
4.12227095126809
30
0
41
1
10
7.00884327100601
20
4.38788256586258
30
0
41
1
10
7.01617687163287
20
4.65066534227822
30
0
0
SPLINE
5
1A9
100
AcDbEntity
8
1
62
256
6
ByLayer
370
-1
48
1
60
0
100
AcDbSpline
70
4
71
3
72
34
73
30
40
0
40
0
40
0
40
0
40
0.125
40
0.125
40
0.249999999999999
40
0.249999999999999
40
0.312499999999999
40
0.312499999999999
40
0.374999999999999
40
0.374999999999999
40
0.437499999999999
40
0.437499999999999
40
0.468749999999999
40
0.468749999999999
40
0.499999999999999
40
0.499999999999999
40
0.562499999999999
40
0.562499999999999
40
0.625
40
0.625
40
0.65625
40
0.65625
40
0.6875
40
0.6875
40
0.75
40
0.75
40
0.875
40
0.875
40
1
40
1
40
1
40
1
41
1
10
7.9465615666987
20
-1.75027842023843
30
0
41
1
10
8.17874726811786
20
-2.09809813387895
30
0
41
1
10
8.41481002005315
20
-2.43275818613736
30
0
41
1
10
8.89686885680658
20
-3.07257031196329
30
0
41
1
10
9.14282223814155
20
-3.37780612094136
30
0
41
1
10
9.52208995429103
20
-3.80849716870671
30
0
41
1
10
9.65075466940698
20
-3.94797893127003
30
0
41
1
10
9.90841328762855
20
-4.21236634502265
30
0
41
1
10
10.0376743004287
20
-4.33763468741304
30
0
41
1
10
10.2974599120074
20
-4.57269557845635
30
0
41
1
10
10.4279820550533
20
-4.68250326932173
30
0
41
1
10
10.6251122154262
20
-4.83371625213246
30
0
41
1
10
10.6910480217435
20
-4.88186241212387
30
0
41
1
10
10.8234589540741
20
-4.97318349716554
30
0
41
1
10
10.8897339799283
20
-5.0161983401014
30
0
41
1
10
11.0865966060037
20
-5.13537559744717
30
0
41
1
10
11.216066437029
20
-5.20231308310591
30
0
41
1
10
11.4713806827861
20
-5.30793201113445
30
0
41
1
10
11.5972289143237
20
-5.34664963599974
30
0
41
1
10
11.7830346744934
20
-5.37954937905459
30
0
41
1
10
11.8448225499941
20
-5.3886733790458
30
0
41
1
10
11.9695060350713
20
-5.41305057271072
30
0
41
1
10
12.0323028182462
20
-5.42755364333945
30
0
41
1
10
12.2215264933015
20
-5.47714048828328
30
0
41
1
10
12.3488915988803
20
-5.51829322977554
30
0
41
1
10
12.7337170708994
20
-5.66077948053183
30
0
41
1
10
12.9938619536043
20
-5.78091133432505
30
0
41
1
10
13.5179051124676
20
-6.05133958600456
30
0
41
1
10
13.78182223519
20
-6.20174050181055
30
0
41
1
10
14.0465615666988
20
-6.36053238563863
30
0
0
SPLINE
5
1AA
100
AcDbEntity
8
1
62
256
6
ByLayer
370
-1
48
1
60
0
100
AcDbSpline
70
4
71
3
72
10
73
6
40
0
40
0
40
0
40
0
40
0.5
40
0.5
40
1
40
1
40
1
40
1
41
1
10
97.1523887095533
20
6.75842818948439
30
0
41
1
10
97.1552258467547
20
6.75842818948436
30
0
41
1
10
97.1605319320545
20
6.76129713956067
30
0
41
1
10
97.1756942728268
20
6.77210502656519
30
0
41
1
10
97.1856464575418
20
6.78012538616383
30
0
41
1
10
97.1975467479355
20
6.79011138550675
30
0
0
SPLINE
5
1AB
100
AcDbEntity
8
1
62
256
6
ByLayer
370
-1
48
1
60
0
100
AcDbSpline
70
4
71
3
72
30
73
26
40
0
40
0
40
0
40
0
40
0.012030009031424
40
0.0701458908531057
40
0.128261772674786
40
0.186377654496468
40
0.302609418139829
40
0.331667359050669
40
0.36072529996151
40
0.389783240872351
40
0.418841181783191
40
0.476957063604872
40
0.506015004515712
40
0.535072945426553
40
0.549601915881973
40
0.593188827248233
40
0.651304709069915
40
0.709420590891595
40
0.767536472713276
40
0.796594413624117
40
0.825652354534957
40
0.854710295445798
40
0.883768236356638
40
0.941884118178319
40
1
40
1
40
1
40
1
41
1
10
39.2117201385268
20
0.645912637767935
30
0
41
1
10
39.1313050983903
20
0.653645828188189
30
0
41
1
10
38.6624165157941
20
0.698704158575197
30
0
41
1
10
37.8050997856969
20
0.780722666974242
30
0
41
1
10
36.6397319458476
20
0.891416147397564
30
0
41
1
10
35.0856340918198
20
1.03794417089304
30
0
41
1
10
33.7255218746072
20
1.16515260562852
30
0
41
1
10
32.5599267683671
20
1.27251318517329
30
0
41
1
10
31.9772493845443
20
1.32566187383156
30
0
41
1
10
31.3945509143464
20
1.37827773951008
30
0
41
1
10
30.6172293686993
20
1.44788557808221
30
0
41
1
10
29.8394889401652
20
1.51693553707023
30
0
41
1
10
29.0620560541824
20
1.58540052823744
30
0
41
1
10
28.5765057696418
20
1.62774312852025
30
0
41
1
10
27.9940770798289
20
1.67802059095447
30
0
41
1
10
27.2171374014496
20
1.74430173566066
30
0
41
1
10
26.1479018416596
20
1.83404755089688
30
0
41
1
10
24.9806194504748
20
1.93075231427511
30
0
41
1
10
24.0083551215683
20
2.01021690177669
30
0
41
1
10
23.2314195929472
20
2.07270907114912
30
0
41
1
10
22.6492438396888
20
2.11888945514519
30
0
41
1
10
22.0673775940731
20
2.16433809495146
30
0
41
1
10
21.2916883123686
20
2.22394425209666
30
0
41
1
10
20.3215660089233
20
2.29671945982716
30
0
41
1
10
19.5436829798784
20
2.35376675711012
30
0
41
1
10
19.1541026986989
20
2.38218487720127
30
0
0
SPLINE
5
1AC
100
AcDbEntity
8
1
62
256
6
ByLayer
370
-1
48
1
60
0
100
AcDbSpline
70
4
71
3
72
8
73
4
40
0
40
0
40
0
40
0
40
1
40
1
40
1
40
1
41
1
10
7.9465615666987
20
1.26013010922338
30
0
41
1
10
8.23043171660686
20
0.833231244434785
30
0
41
1
10
8.52697762233649
20
0.429005169020229
30
0
41
1
10
8.83379423637965
20
0.0426166078471795
30
0
0
SPLINE
5
1AD
100
AcDbEntity
8
1
62
256
6
ByLayer
370
-1
48
1
60
0
100
AcDbSpline
70
4
71
3
72
24
73
20
40
0
40
0
40
0
40
0
40
0.250000000000002
40
0.250000000000002
40
0.312500000000003
40
0.312500000000003
40
0.375000000000003
40
0.375000000000003
40
0.500000000000004
40
0.500000000000004
40
0.562500000000004
40
0.562500000000004
40
0.625000000000003
40
0.625000000000003
40
0.750000000000002
40
0.750000000000002
40
0.875000000000001
40
0.875000000000001
40
1
40
1
40
1
40
1
41
1
10
96.3714682307684
20
3.13957872840865
30
0
41
1
10
96.5514126024586
20
3.01253195432545
30
0
41
1
10
96.7069245950877
20
2.89905561490869
30
0
41
1
10
96.8578561505349
20
2.7654197332138
30
0
41
1
10
96.8858403604686
20
2.73907803237398
30
0
41
1
10
96.9361184878635
20
2.68787289797794
30
0
41
1
10
96.9585430094605
20
2.66289977193628
30
0
41
1
10
97.0173542657832
20
2.58956219118346
30
0
41
1
10
97.0453105712414
20
2.54275504248551
30
0
41
1
10
97.0686005295755
20
2.47485797768917
30
0
41
1
10
97.0732434307443
20
2.45251128398027
30
0
41
1
10
97.075904031573
20
2.40921263253685
30
0
41
1
10
97.0739659532366
20
2.38824082594834
30
0
41
1
10
97.0585262416806
20
2.32726238146384
30
0
41
1
10
97.0354216477187
20
2.28915760856145
30
0
41
1
10
96.9639759708434
20
2.21840754337231
30
0
41
1
10
96.9151226166241
20
2.18566041564685
30
0
41
1
10
96.7966917614954
20
2.12888800098634
30
0
41
1
10
96.726957766648
20
2.10455013157917
30
0
41
1
10
96.6478509743057
20
2.08484254237703
30
0
0
SPLINE
5
1AE
100
AcDbEntity
8
1
62
256
6
ByLayer
370
-1
48
1
60
0
100
AcDbSpline
70
4
71
4
72
10
73
5
40
0
40
0
40
0
40
0
40
0
40
1
40
1
40
1
40
1
40
1
41
0.979649553699231
10
91.6688534273431
20
3.30844327055104
30
0
41
0.982470205666866
10
91.7569909804753
20
3.92538299961492
30
0
41
0.989933269445451
10
91.8167086599427
20
4.63619588012623
30
0
41
1
10
91.8416509258471
20
5.37250494108886
30
0
41
1
10
91.8416509258471
20
6.03999999999988
30
0
0
SPLINE
5
1AF
100
AcDbEntity
8
1
62
256
6
ByLayer
370
-1
48
1
60
0
100
AcDbSpline
70
4
71
2
72
6
73
3
40
0
40
0
40
0
40
1
40
1
40
1
41
0.500001276470971
10
95.2037991945296
20
3.66093079557324
30
0
41
0.499998723529029
10
95.2482589101413
20
3.64045755524625
30
0
41
0.500001276470971
10
95.2925251971546
20
3.62006904263944
30
0
0
SPLINE
5
1B0
100
AcDbEntity
8
1
62
256
6
ByLayer
370
-1
48
1
60
0
100
AcDbSpline
70
4
71
2
72
6
73
3
40
0
40
0
40
0
40
1
40
1
40
1
41
1
10
17.7164168944429
20
-6.59401943694257
30
0
41
1
10
17.7164168944429
20
-7.05407000377471
30
0
41
1
10
17.7164168944429
20
-7.51412057060685
30
0
0
SPLINE
5
1B1
100
AcDbEntity
8
1
62
256
6
ByLayer
370
-1
48
1
60
0
100
AcDbSpline
70
4
71
3
72
22
73
18
40
0
40
0
40
0
40
0
40
0.25
40
0.25
40
0.3125
40
0.3125
40
0.375
40
0.375
40
0.5
40
0.5
40
0.624999999999999
40
0.624999999999999
40
0.687499999999999
40
0.687499999999999
40
0.749999999999999
40
0.749999999999999
40
1
40
1
40
1
40
1
41
1
10
18
20
6.3320785588418
30
0
41
1
10
17.4619200670349
20
6.49801905270036
30
0
41
1
10
16.9213601968908
20
6.67561941263705
30
0
41
1
10
16.2459050838758
20
6.923215137207
30
0
41
1
10
16.1105078010644
20
6.97415934332739
30
0
41
1
10
15.841768678814
20
7.07824403267861
30
0
41
1
10
15.70843738646
20
7.13137204437314
30
0
41
1
10
15.3116977271912
20
7.29438534185169
30
0
41
1
10
15.05153918484
20
7.40789413566316
30
0
41
1
10
14.5407252748959
20
7.64667798974125
30
0
41
1
10
14.290067409625
20
7.7719491412976
30
0
41
1
10
13.9219586269001
20
7.97042412127127
30
0
41
1
10
13.8005702566507
20
8.03834597483606
30
0
41
1
10
13.560571859285
20
8.17804169583653
30
0
41
1
10
13.4423037889768
20
8.24963125068578
30
0
41
1
10
12.8641448908154
20
8.61411658752422
30
0
41
1
10
12.4392274062308
20
8.9290059116768
30
0
41
1
10
12.054102698697
20
9.27324497115296
30
0
0
SPLINE
5
1B2
100
AcDbEntity
8
1
62
256
6
ByLayer
370
-1
48
1
60
0
100
AcDbSpline
70
4
71
3
72
22
73
18
40
0
40
0
40
0
40
0
40
0.125
40
0.125
40
0.25
40
0.25
40
0.375
40
0.375
40
0.5
40
0.5
40
0.625
40
0.625
40
0.75
40
0.75
40
0.875
40
0.875
40
1
40
1
40
1
40
1
41
1
10
97.4101094169777
20
2.8930879297524
30
0
41
1
10
97.4158947526307
20
2.8930879297524
30
0
41
1
10
97.4041345774185
20
2.90465657261825
30
0
41
1
10
97.3628344233499
20
2.94176780497804
30
0
41
1
10
97.3337640442706
20
2.9673266353648
30
0
41
1
10
97.271908937063
20
3.02615434034081
30
0
41
1
10
97.2386819902233
20
3.0596925057537
30
0
41
1
10
97.1712769842552
20
3.13446334112899
30
0
41
1
10
97.1373831755294
20
3.17537934058851
30
0
41
1
10
97.0719613156573
20
3.26287350677634
30
0
41
1
10
97.040223542758
20
3.30965424857948
30
0
41
1
10
96.9796076312024
20
3.40986767427489
30
0
41
1
10
96.9505510133844
20
3.46373866827443
30
0
41
1
10
96.8977891597428
20
3.57552315388378
30
0
41
1
10
96.873868395301
20
3.63369936949644
30
0
41
1
10
96.8313753218132
20
3.75520733587666
30
0
41
1
10
96.8128294582457
20
3.81880266634963
30
0
41
1
10
96.7978538276355
20
3.88238590313566
30
0
0
SPLINE
5
1B3
100
AcDbEntity
8
1
62
256
6
ByLayer
370
-1
48
1
60
0
100
AcDbSpline
70
4
71
3
72
20
73
16
40
0
40
0
40
0
40
0
40
0.140985753986759
40
0.140985753986759
40
0.355739315490069
40
0.355739315490069
40
0.463116096241725
40
0.463116096241725
40
0.57049287699338
40
0.57049287699338
40
0.78524643849669
40
0.78524643849669
40
0.892623219248345
40
0.892623219248345
40
1
40
1
40
1
40
1
41
1
10
74.1738871764389
20
8.39251133163148
30
0
41
1
10
75.0031612832643
20
8.52036307909236
30
0
41
1
10
75.8326052624603
20
8.64169870237532
30
0
41
1
10
77.9260149017977
20
8.93116690392662
30
0
41
1
10
79.1902705466546
20
9.09050563255244
30
0
41
1
10
81.0882425107636
20
9.3046828414692
30
0
41
1
10
81.7211601907616
20
9.3718971503578
30
0
41
1
10
82.9862655231069
20
9.49781455531624
30
0
41
1
10
83.6184639091541
20
9.55670444554883
30
0
41
1
10
85.5153387711857
20
9.71951864735698
30
0
41
1
10
86.7805682500303
20
9.80953824198735
30
0
41
1
10
88.6780568089052
20
9.91841350713352
30
0
41
1
10
89.3105084870543
20
9.95028365176998
30
0
41
1
10
90.5758354621336
20
10.0048384961866
30
0
41
1
10
91.2087192224682
20
10.0275447438269
30
0
41
1
10
91.8416509258833
20
10.0457489308402
30
0
0
SPLINE
5
1B4
100
AcDbEntity
8
1
62
256
6
ByLayer
370
-1
48
1
60
0
100
AcDbSpline
70
4
71
3
72
34
73
30
40
0
40
0
40
0
40
0
40
0.0101256870210704
40
0.0101256870210704
40
0.0926152131026479
40
0.0926152131026479
40
0.175104739184225
40
0.175104739184225
40
0.34008379134738
40
0.34008379134738
40
0.505062843510535
40
0.505062843510535
40
0.587552369592113
40
0.587552369592113
40
0.67004189567369
40
0.67004189567369
40
0.752531421755268
40
0.752531421755268
40
0.793776184796056
40
0.793776184796056
40
0.835020947836845
40
0.835020947836845
40
0.876265710877634
40
0.876265710877634
40
0.917510473918423
40
0.917510473918423
40
0.958755236959211
40
0.958755236959211
40
1
40
1
40
1
40
1
41
1
10
70.7054184497127
20
-7.26773244696872
30
0
41
1
10
70.5265377494534
20
-7.29624062240075
30
0
41
1
10
70.3476605877988
20
-7.32448787761882
30
0
41
1
10
68.7116018192615
20
-7.58044315555009
30
0
41
1
10
67.2548344251902
20
-7.79115640044967
30
0
41
1
10
64.3410494000651
20
-8.17542814099468
30
0
41
1
10
62.8837533028723
20
-8.34882370341577
30
0
41
1
10
58.5115711898489
20
-8.80832756943039
30
0
41
1
10
55.5992194397023
20
-9.03356299242373
30
0
41
1
10
49.7689511234829
20
-9.30356827759508
30
0
41
1
10
46.8562832341347
20
-9.34996019995435
30
0
41
1
10
42.4847249884768
20
-9.28226546613203
30
0
41
1
10
41.0273754185327
20
-9.23676798885424
30
0
41
1
10
38.1140774872066
20
-9.10040161345248
30
0
41
1
10
36.6576907574277
20
-9.00937276048055
30
0
41
1
10
33.7440208236487
20
-8.78365056602414
30
0
41
1
10
32.2865035187654
20
-8.65023512254086
30
0
41
1
10
30.1012427796296
20
-8.41865142568875
30
0
41
1
10
29.3729086752251
20
-8.33587610304605
30
0
41
1
10
27.9161158876712
20
-8.16127080592446
30
0
41
1
10
27.1876651035072
20
-8.06944757994108
30
0
41
1
10
25.7305870236774
20
-7.87520064995942
30
0
41
1
10
25.0019017703371
20
-7.77312999008936
30
0
41
1
10
23.5447993007582
20
-7.56085117178912
30
0
41
1
10
22.8162921211988
20
-7.45065500316159
30
0
41
1
10
21.3592982863919
20
-7.22156252515649
30
0
41
1
10
20.630827622219
20
-7.10244147289987
30
0
41
1
10
19.1737809673268
20
-6.85496048091633
30
0
41
1
10
18.4451921002893
20
-6.72672433424302
30
0
41
1
10
17.7164168944429
20
-6.59502065200942
30
0
0
SPLINE
5
1B5
100
AcDbEntity
8
1
62
256
6
ByLayer
370
-1
48
1
60
0
100
AcDbSpline
70
4
71
3
72
8
73
4
40
0
40
0
40
0
40
0
40
1
40
1
40
1
40
1
41
1
10
16.8055772963111
20
-6.31552099532104
30
0
41
1
10
17.0980807277914
20
-6.44249830686471
30
0
41
1
10
17.4015708494823
20
-6.53590145539292
30
0
41
1
10
17.7164169761319
20
-6.59569020330531
30
0
0
SPLINE
5
1B6
100
AcDbEntity
8
1
62
256
6
ByLayer
370
-1
48
1
60
0
100
AcDbSpline
70
4
71
2
72
6
73
3
40
0
40
0
40
0
40
1
40
1
40
1
41
1
10
7.94656156669862
20
1.2601301092235
30
0
41
1
10
7.94656156669868
20
-0.245074155507496
30
0
41
1
10
7.94656156669873
20
-1.75027842023846
30
0
0
SPLINE
5
1B7
100
AcDbEntity
8
1
62
256
6
ByLayer
370
-1
48
1
60
0
100
AcDbSpline
70
4
71
3
72
12
73
8
40
0
40
0
40
0
40
0
40
0.5
40
0.5
40
0.75
40
0.75
40
1
40
1
40
1
40
1
41
1
10
93.7541026986451
20
-10.0101307545634
30
0
41
1
10
94.0522863531445
20
-10.0161983100933
30
0
41
1
10
94.3418275059792
20
-10.0255234645928
30
0
41
1
10
94.7637440234818
20
-10.0417689070189
30
0
41
1
10
94.9023041004675
20
-10.0475494063428
30
0
41
1
10
95.1752102588331
20
-10.0592470372698
30
0
41
1
10
95.3101878185025
20
-10.0651919549809
30
0
41
1
10
95.4413386811656
20
-10.0707705638326
30
0
0
SPLINE
5
1B8
100
AcDbEntity
8
1
62
256
6
ByLayer
370
-1
48
1
60
0
100
AcDbSpline
70
4
71
3
72
16
73
12
40
0
40
0
40
0
40
0
40
0.125000000000005
40
0.125000000000005
40
0.25000000000001
40
0.25000000000001
40
0.500000000000007
40
0.500000000000007
40
0.750000000000003
40
0.750000000000003
40
1
40
1
40
1
40
1
41
1
10
93.7449337803714
20
4.75900201766649
30
0
41
1
10
93.7735476723491
20
4.68684909549074
30
0
41
1
10
93.8174990513523
20
4.62181864731178
30
0
41
1
10
93.9136005870207
20
4.50226396325829
30
0
41
1
10
93.9667700817006
20
4.4473057454351
30
0
41
1
10
94.1349799267682
20
4.29063306003729
30
0
41
1
10
94.2591238056999
20
4.19692784191008
30
0
41
1
10
94.5152335369314
20
4.02430572119437
30
0
41
1
10
94.6481892242436
20
3.94509469724178
30
0
41
1
10
94.9210308535285
20
3.79624977016746
30
0
41
1
10
95.060973363883
20
3.72670061698258
30
0
41
1
10
95.2037991945292
20
3.66093079557248
30
0
0
SPLINE
5
1B9
100
AcDbEntity
8
1
62
256
6
ByLayer
370
-1
48
1
60
0
100
AcDbSpline
70
4
71
3
72
24
73
20
40
0
40
0
40
0
40
0
40
0.125
40
0.125
40
0.1875
40
0.1875
40
0.249999999999999
40
0.249999999999999
40
0.374999999999999
40
0.374999999999999
40
0.499999999999999
40
0.499999999999999
40
0.562499999999999
40
0.562499999999999
40
0.624999999999999
40
0.624999999999999
40
0.749999999999999
40
0.749999999999999
40
1
40
1
40
1
40
1
41
1
10
23
20
5.02347549884212
30
0
41
1
10
24.6056737371088
20
4.6213120645167
30
0
41
1
10
26.2096708047553
20
4.20690934228145
30
0
41
1
10
28.6142360870546
20
3.57074452793179
30
0
41
1
10
29.4153931261257
20
3.35583023612102
30
0
41
1
10
31.0176864771161
20
2.92270833815843
30
0
41
1
10
31.8187731047563
20
2.70433761860428
30
0
41
1
10
34.2216068139386
20
2.04293760731289
30
0
41
1
10
35.8235164673583
20
1.59564364539349
30
0
41
1
10
39.0299407076027
20
0.697507253819481
30
0
41
1
10
40.6342388670109
20
0.245899851049302
30
0
41
1
10
43.0437327841413
20
-0.430169136530623
30
0
41
1
10
43.8471963234719
20
-0.655239007088653
30
0
41
1
10
45.4527561241257
20
-1.1032438678362
30
0
41
1
10
46.2551631984186
20
-1.32626749622082
30
0
41
1
10
48.6617005514147
20
-1.99084712572389
30
0
41
1
10
50.265149970356
20
-2.42789363740397
30
0
41
1
10
55.07593370238
20
-3.71008516686399
30
0
41
1
10
58.2836947803235
20
-4.52620687513428
30
0
41
1
10
61.5
20
-5.2775610796038
30
0
0
SPLINE
5
1BA
100
AcDbEntity
8
1
62
256
6
ByLayer
370
-1
48
1
60
0
100
AcDbSpline
70
4
71
3
72
8
73
4
40
0
40
0
40
0
40
0
40
1
40
1
40
1
40
1
41
1
10
95.905136886764
20
3.33481789513181
30
0
41
1
10
96.0647684855633
20
3.25959074108033
30
0
41
1
10
96.2206180676146
20
3.19501993404424
30
0
41
1
10
96.3714682307689
20
3.13957872840862
30
0
0
SPLINE
5
1BB
100
AcDbEntity
8
1
62
256
6
ByLayer
370
-1
48
1
60
0
100
AcDbSpline
70
4
71
2
72
6
73
3
40
0
40
0
40
0
40
1
40
1
40
1
41
0.500000833543612
10
102.970824593487
20
0.862692566615282
30
0
41
0.499999166456387
10
102.972535764511
20
0.836706438846143
30
0
41
0.500000833543612
10
102.97426362851
20
0.810709152194176
30
0
0
SPLINE
5
1BC
100
AcDbEntity
8
1
62
256
6
ByLayer
370
-1
48
1
60
0
100
AcDbSpline
70
4
71
3
72
8
73
4
40
0
40
0
40
0
40
0
40
1
40
1
40
1
40
1
41
1
10
18
20
-7.56454742016265
30
0
41
1
10
19.6669397563388
20
-7.88632606826346
30
0
41
1
10
21.333203423577
20
-8.18433218075941
30
0
41
1
10
23
20
-8.45580764991007
30
0
0
SPLINE
5
1BD
100
AcDbEntity
8
1
62
256
6
ByLayer
370
-1
48
1
60
0
100
AcDbSpline
70
4
71
3
72
12
73
8
40
0
40
0
40
0
40
0
40
0.250000000000029
40
0.250000000000029
40
0.500000000000058
40
0.500000000000058
40
1
40
1
40
1
40
1
41
1
10
93.9346951798261
20
5.13500166725817
30
0
41
1
10
93.9131916002899
20
5.12755001660369
30
0
41
1
10
93.8921979869506
20
5.11897663018704
30
0
41
1
10
93.8516187952575
20
5.09872917440572
30
0
41
1
10
93.8318292279777
20
5.0869075222561
30
0
41
1
10
93.7774883983512
20
5.04593592514374
30
0
41
1
10
93.7476337941633
20
5.00993772905156
30
0
41
1
10
93.731898082446
20
4.96856016956988
30
0
0
SPLINE
5
1BE
100
AcDbEntity
8
1
62
256
6
ByLayer
370
-1
48
1
60
0
100
AcDbSpline
70
4
71
3
72
8
73
4
40
0
40
0
40
0
40
0
40
1
40
1
40
1
40
1
41
1
10
14.0465615666988
20
-4.41222117877641
30
0
41
1
10
14.0465615666988
20
-5.06165824773049
30
0
41
1
10
14.0465615666988
20
-5.71109531668458
30
0
41
1
10
14.0465615666988
20
-6.36053238563863
30
0
0
SPLINE
5
1BF
100
AcDbEntity
8
1
62
256
6
ByLayer
370
-1
48
1
60
0
100
AcDbSpline
70
4
71
3
72
8
73
4
40
0
40
0
40
0
40
0
40
1
40
1
40
1
40
1
41
1
10
18
20
6.3320785588418
30
0
41
1
10
18.3881163801358
20
6.21238588894528
30
0
41
1
10
18.7727068905429
20
6.0839990423313
30
0
41
1
10
19.1541026986961
20
5.94688785574545
30
0
0
SPLINE
5
1C0
100
AcDbEntity
8
1
62
256
6
ByLayer
370
-1
48
1
60
0
100
AcDbSpline
70
4
71
3
72
8
73
4
40
0
40
0
40
0
40
0
40
1
40
1
40
1
40
1
41
1
10
12.0541026986975
20
6.85952568097616
30
0
41
1
10
14.4365633476227
20
5.36361819189699
30
0
41
1
10
16.8023655165666
20
3.86843070357128
30
0
41
1
10
19.154102698696
20
2.38218487720175
30
0
0
SPLINE
5
1C1
100
AcDbEntity
8
1
62
256
6
ByLayer
370
-1
48
1
60
0
100
AcDbSpline
70
4
71
3
72
16
73
12
40
0
40
0
40
0
40
0
40
0.294572177346652
40
0.294572177346652
40
0.589144354693304
40
0.589144354693304
40
0.736430443366629
40
0.736430443366629
40
0.883716532039954
40
0.883716532039954
40
1
40
1
40
1
40
1
41
1
10
7.94656156669873
20
1.2601301092233
30
0
41
1
10
7.78190068301211
20
1.55218949545005
30
0
41
1
10
7.63920259664823
20
1.85001703942461
30
0
41
1
10
7.39343308574749
20
2.45028749674475
30
0
41
1
10
7.29029524645918
20
2.75286236609628
30
0
41
1
10
7.16656961852283
20
3.20302569814635
30
0
41
1
10
7.13044996989109
20
3.35287141632327
30
0
41
1
10
7.07023454707775
20
3.6474988478154
30
0
41
1
10
7.04658664448954
20
3.78997848129524
30
0
41
1
10
7.0165046308064
20
4.0337031998904
30
0
41
1
10
7.00749302224102
20
4.13729999858143
30
0
41
1
10
7.00309785330805
20
4.23633290615396
30
0
0
SPLINE
5
1C2
100
AcDbEntity
8
1
62
256
6
ByLayer
370
-1
48
1
60
0
100
AcDbSpline
70
4
71
3
72
8
73
4
40
0
40
0
40
0
40
0
40
1
40
1
40
1
40
1
41
1
10
93.5665557408919
20
6.03999999999991
30
0
41
1
10
93.5268702196579
20
6.20463262779438
30
0
41
1
10
93.5026175193802
20
6.37221828611828
30
0
41
1
10
93.5026175193802
20
6.54426460729596
30
0
0
SPLINE
5
1C3
100
AcDbEntity
8
1
62
256
6
ByLayer
370
-1
48
1
60
0
100
AcDbSpline
70
4
71
3
72
16
73
12
40
0
40
0
40
0
40
0
40
0.418235024347234
40
0.418235024347234
40
0.522793780434043
40
0.522793780434043
40
0.627352536520852
40
0.627352536520852
40
0.836470048694486
40
0.836470048694486
40
1
40
1
40
1
40
1
41
1
10
100.202004855411
20
6.48152966147299
30
0
41
1
10
100.219253135479
20
6.32220909464104
30
0
41
1
10
100.263161898303
20
6.16391516795764
30
0
41
1
10
100.357292174482
20
5.96944143957694
30
0
41
1
10
100.378206018244
20
5.93064155142162
30
0
41
1
10
100.423572822096
20
5.85488578432404
30
0
41
1
10
100.44809377859
20
5.81776626861932
30
0
41
1
10
100.527381831355
20
5.70887462024731
30
0
41
1
10
100.587804524509
20
5.63953183974104
30
0
41
1
10
100.711153598161
20
5.52329525382629
30
0
41
1
10
100.769500447225
20
5.47594686182589
30
0
41
1
10
100.83203845173
20
5.4328511814868
30
0
0
SPLINE
5
1C4
100
AcDbEntity
8
1
62
256
6
ByLayer
370
-1
48
1
60
0
100
AcDbSpline
70
4
71
3
72
8
73
4
40
0
40
0
40
0
40
0
40
1
40
1
40
1
40
1
41
1
10
100.195856237665
20
6.70341189711218
30
0
41
1
10
100.191959362432
20
6.63049335147272
30
0
41
1
10
100.19391111276
20
6.55629071950091
30
0
41
1
10
100.202004855411
20
6.48152966147299
30
0
0
SPLINE
5
1C5
100
AcDbEntity
8
1
62
256
6
ByLayer
370
-1
48
1
60
0
100
AcDbSpline
70
4
71
3
72
10
73
6
40
0
40
0
40
0
40
0
40
0.5
40
0.5
40
1
40
1
40
1
40
1
41
1
10
9.70265061865089
20
-0.875775229930809
30
0
41
1
10
10.4293593672227
20
-1.47094543688905
30
0
41
1
10
11.1557942227028
20
-2.06356180686493
30
0
41
1
10
12.6047739425755
20
-3.2429226679381
30
0
41
1
10
13.3273013363699
20
-3.82967468866184
30
0
41
1
10
14.0465615666988
20
-4.41222117877641
30
0
0
SPLINE
5
1C6
100
AcDbEntity
8
1
62
256
6
ByLayer
370
-1
48
1
60
0
100
AcDbSpline
70
4
71
3
72
8
73
4
40
0
40
0
40
0
40
0
40
1
40
1
40
1
40
1
41
1
10
19.1541026986963
20
5.94688785574536
30
0
41
1
10
20.4361750839881
20
5.64963246919183
30
0
41
1
10
21.7179970919327
20
5.34140613046984
30
0
41
1
10
23
20
5.02347549884212
30
0
0
SPLINE
5
1C7
100
AcDbEntity
8
1
62
256
6
ByLayer
370
-1
48
1
60
0
100
AcDbSpline
70
4
71
3
72
10
73
6
40
0
40
0
40
0
40
0
40
0.602750088918251
40
0.602750088918251
40
1
40
1
40
1
40
1
41
1
10
61.5
20
-9.12559703471661
30
0
41
1
10
63.6148197508081
20
-8.87356241190244
30
0
41
1
10
65.7261504718875
20
-8.5754446711403
30
0
41
1
10
69.227085427858
20
-8.01223207560324
30
0
41
1
10
70.6173352545142
20
-7.77055094730838
30
0
41
1
10
72.0076809206165
20
-7.51231810228293
30
0
0
SPLINE
5
1C8
100
AcDbEntity
8
1
62
256
6
ByLayer
370
-1
48
1
60
0
100
AcDbSpline
70
4
71
3
72
12
73
8
40
0
40
0
40
0
40
0
40
0.216778651934773
40
0.433557303869546
40
0.650335955804319
40
0.867114607739093
40
1
40
1
40
1
40
1
41
1
10
91.8416509258471
20
6.03999999999988
30
0
41
1
10
91.4635971458587
20
6.02911766968973
30
0
41
1
10
90.7073708884677
20
6.00577672930933
30
0
41
1
10
89.5727313217716
20
5.9654647210952
30
0
41
1
10
88.4383736537829
20
5.91936105421019
30
0
41
1
10
87.4510051506058
20
5.87391907807435
30
0
41
1
10
86.8413118592649
20
5.84310443695472
30
0
41
1
10
86.6095477268401
20
5.83099463206437
30
0
0
SPLINE
5
1C9
100
AcDbEntity
8
1
62
256
6
ByLayer
370
-1
48
1
60
0
100
AcDbSpline
70
4
71
3
72
8
73
4
40
0
40
0
40
0
40
0
40
1
40
1
40
1
40
1
41
1
10
95.9778530378931
20
1.94034358045036
30
0
41
1
10
95.8213986978937
20
1.91160246656742
30
0
41
1
10
95.6317343823832
20
1.9068807306997
30
0
41
1
10
95.4193105490472
20
1.9302475460741
30
0
0
SPLINE
5
1CA
100
AcDbEntity
8
1
62
256
6
ByLayer
370
-1
48
1
60
0
100
AcDbSpline
70
4
71
3
72
8
73
4
40
0
40
0
40
0
40
0
40
1
40
1
40
1
40
1
41
1
10
85.9947553785081
20
6.12341806221315
30
0
41
1
10
85.7311391920657
20
6.19015340425747
30
0
41
1
10
85.4624865798041
20
6.26185017813921
30
0
41
1
10
85.18907549592
20
6.33823456848819
30
0
0
SPLINE
5
1CB
100
AcDbEntity
8
1
62
256
6
ByLayer
370
-1
48
1
60
0
100
AcDbSpline
70
4
71
4
72
19
73
14
40
0
40
0
40
0
40
0
40
0
40
0.451010539881664
40
0.451010539881664
40
0.451010539881664
40
0.676515809822496
40
0.676515809822496
40
0.676515809822496
40
0.902021079763328
40
0.902021079763328
40
0.902021079763328
40
1
40
1
40
1
40
1
40
1
41
1
10
19.1541026986989
20
2.38218487720127
30
0
41
1
10
19.1541026986989
20
1.76438094786036
30
0
41
0.974581796258695
10
19.0967863611917
20
0.711906731298212
30
0
41
0.974581796258695
10
18.9485785530113
20
-0.700926887065103
30
0
41
0.987290898129348
10
18.6800493928364
20
-2.7230799614575
30
0
41
0.993645449064674
10
18.5847018443263
20
-3.36832651995518
30
0
41
1
10
18.4888718553292
20
-3.95207318131838
30
0
41
1
10
18.3111281446762
20
-4.9441903204322
30
0
41
0.993645449064674
10
18.215298155679
20
-5.43023762450185
30
0
41
0.987290898129348
10
18.1199506071689
20
-5.84939932778509
30
0
41
0.981213887855796
10
17.9924180194229
20
-6.31272247901733
30
0
41
0.97977311182922
10
17.9549922437197
20
-6.43475836751167
30
0
41
0.978905939420508
10
17.9195096637898
20
-6.53524314662408
30
0
41
0.978635134939078
10
17.8864050073913
20
-6.61299720620569
30
0
0
SPLINE
5
1CC
100
AcDbEntity
8
1
62
256
6
ByLayer
370
-1
48
1
60
0
100
AcDbSpline
70
4
71
3
72
8
73
4
40
0
40
0
40
0
40
0
40
1
40
1
40
1
40
1
41
1
10
96.6478509743589
20
2.08484254240156
30
0
41
1
10
96.4199051244226
20
2.02805521683749
30
0
41
1
10
96.1959589949345
20
1.98041027434914
30
0
41
1
10
95.9778530378935
20
1.9403435804505
30
0
0
SPLINE
5
1CD
100
AcDbEntity
8
1
62
256
6
ByLayer
370
-1
48
1
60
0
100
AcDbSpline
70
4
71
3
72
16
73
12
40
0
40
0
40
0
40
0
40
0.25
40
0.25
40
0.5
40
0.5
40
0.625
40
0.625
40
0.749999999999999
40
0.749999999999999
40
1
40
1
40
1
40
1
41
1
10
14.0465615666988
20
-4.41222117877643
30
0
41
1
10
14.2163830366771
20
-4.5725314529804
30
0
41
1
10
14.4039933536739
20
-4.73154336677135
30
0
41
1
10
14.8116110671049
20
-5.05201252149155
30
0
41
1
10
15.0316174908838
20
-5.21346001940077
30
0
41
1
10
15.3856488730207
20
-5.45810185962549
30
0
41
1
10
15.5068550497511
20
-5.53944088336493
30
0
41
1
10
15.7534598065076
20
-5.70012463191705
30
0
41
1
10
15.8791712361346
20
-5.77968491618014
30
0
41
1
10
16.2635232940392
20
-6.01542698279488
30
0
41
1
10
16.5292980534292
20
-6.16877011554956
30
0
41
1
10
16.8055772928434
20
-6.31552096442388
30
0
0
SPLINE
5
1CE
100
AcDbEntity
8
1
62
256
6
ByLayer
370
-1
48
1
60
0
100
AcDbSpline
70
4
71
3
72
18
73
14
40
0
40
0
40
0
40
0
40
0.0472407296117141
40
0.0472407296117141
40
0.15310287076597
40
0.15310287076597
40
0.364827153074477
40
0.364827153074477
40
0.576551435382985
40
0.576551435382985
40
0.788275717691493
40
0.788275717691493
40
1
40
1
40
1
40
1
41
1
10
93.4288900828818
20
2.49730404686596
30
0
41
1
10
93.4394984860223
20
2.520282616309
30
0
41
1
10
93.4499203302293
20
2.54402076130006
30
0
41
1
10
93.4830788306463
20
2.62342987098896
30
0
41
1
10
93.5051343717756
20
2.68244057548569
30
0
41
1
10
93.5675232776215
20
2.86920433916529
30
0
41
1
10
93.6039959442543
20
3.00601588842324
30
0
41
1
10
93.6662181409997
20
3.30311646824154
30
0
41
1
10
93.6919761960468
20
3.46341068242262
30
0
41
1
10
93.7312034402703
20
3.80786484983261
30
0
41
1
10
93.7442427528539
20
3.98859130224926
30
0
41
1
10
93.7559190356353
20
4.36333017785159
30
0
41
1
10
93.7546197094179
20
4.55775713127977
30
0
41
1
10
93.7449337803719
20
4.75900201766672
30
0
0
SPLINE
5
1CF
100
AcDbEntity
8
1
62
256
6
ByLayer
370
-1
48
1
60
0
100
AcDbSpline
70
4
71
3
72
8
73
4
40
0
40
0
40
0
40
0
40
1
40
1
40
1
40
1
41
1
10
12.0541026986962
20
6.85952568096994
30
0
41
1
10
12.0541026986962
20
7.66409877769664
30
0
41
1
10
12.0541026986962
20
8.46867187442334
30
0
41
1
10
12.0541026986962
20
9.27324497115006
30
0
0
SPLINE
5
1D0
100
AcDbEntity
8
1
62
256
6
ByLayer
370
-1
48
1
60
0
100
AcDbSpline
70
4
71
3
72
52
73
48
40
0
40
0
40
0
40
0
40
0.0312500000000002
40
0.0312500000000002
40
0.0468750000000003
40
0.0468750000000003
40
0.0625000000000003
40
0.0625000000000003
40
0.125
40
0.125
40
0.1875
40
0.1875
40
0.21875
40
0.21875
40
0.25
40
0.25
40
0.3125
40
0.3125
40
0.34375
40
0.34375
40
0.375000000000001
40
0.375000000000001
40
0.437500000000001
40
0.437500000000001
40
0.468750000000001
40
0.468750000000001
40
0.500000000000002
40
0.500000000000002
40
0.562500000000002
40
0.562500000000002
40
0.593750000000002
40
0.593750000000002
40
0.625000000000002
40
0.625000000000002
40
0.687500000000001
40
0.687500000000001
40
0.750000000000001
40
0.750000000000001
40
0.781250000000001
40
0.781250000000001
40
0.812500000000001
40
0.812500000000001
40
0.875
40
0.875
40
0.9375
40
0.9375
40
1
40
1
40
1
40
1
41
1
10
12.0541026986962
20
9.27324497115006
30
0
41
1
10
11.9680484516761
20
9.34748015689101
30
0
41
1
10
11.8845887538762
20
9.42158258055983
30
0
41
1
10
11.7615337299692
20
9.53182388617091
30
0
41
1
10
11.7207603263439
20
9.56834838508189
30
0
41
1
10
11.6377130788836
20
9.6396086822987
30
0
41
1
10
11.5955143214851
20
9.67438868778885
30
0
41
1
10
11.3812023092103
20
9.84389286919756
30
0
41
1
10
11.1991430392332
20
9.96546099214274
30
0
41
1
10
10.8151513201363
20
10.1763813584296
30
0
41
1
10
10.6132253053501
20
10.2657674078601
30
0
41
1
10
10.2962129139236
20
10.3716479709651
30
0
41
1
10
10.1875657205216
20
10.402344101393
30
0
41
1
10
9.96972936347765
20
10.4525626498812
30
0
41
1
10
9.86041015257064
20
10.4722020072053
30
0
41
1
10
9.5319092205134
20
10.5147037883486
30
0
41
1
10
9.31219042768402
20
10.5212387686741
30
0
41
1
10
8.98393737775427
20
10.4969960968871
30
0
41
1
10
8.87429945590682
20
10.4830986643222
30
0
41
1
10
8.65995431387034
20
10.4442924666626
30
0
41
1
10
8.5548429361674
20
10.4194014969799
30
0
41
1
10
8.24604568255756
20
10.3287166152132
30
0
41
1
10
8.048862721521
20
10.2470264451436
30
0
41
1
10
7.76794719591194
20
10.092423807733
30
0
41
1
10
7.67660542065443
20
10.0353076772223
30
0
41
1
10
7.50284779095199
20
9.91271235978638
30
0
41
1
10
7.4199491610558
20
9.84700543927275
30
0
41
1
10
7.18311198111064
20
9.63711978927589
30
0
41
1
10
7.0409589138028
20
9.48027317899235
30
0
41
1
10
6.85227430157067
20
9.21962957892396
30
0
41
1
10
6.79388680170914
20
9.12895886532769
30
0
41
1
10
6.68738807072034
20
8.94265110349366
30
0
41
1
10
6.63902585075644
20
8.84667434699594
30
0
41
1
10
6.50825593310037
20
8.55054337063285
30
0
41
1
10
6.4399866080098
20
8.34181814290747
30
0
41
1
10
6.34212934435854
20
7.90430269409521
30
0
41
1
10
6.31357167850476
20
7.68055388395607
30
0
41
1
10
6.29891456675873
20
7.33789928754237
30
0
41
1
10
6.29875005386918
20
7.22250164282201
30
0
41
1
10
6.3077267824209
20
6.98934189385025
30
0
41
1
10
6.31691557227035
20
6.87120276286768
30
0
41
1
10
6.35812929429156
20
6.51584153332743
30
0
41
1
10
6.40334571979778
20
6.27979053511956
30
0
41
1
10
6.52612685211267
20
5.80886763178111
30
0
41
1
10
6.60371492141925
20
5.57399954921434
30
0
41
1
10
6.79016300443087
20
5.10488919969521
30
0
41
1
10
6.89709264910331
20
4.8754932760352
30
0
41
1
10
7.01617687164557
20
4.65066534225431
30
0
0
SPLINE
5
1D1
100
AcDbEntity
8
1
62
256
6
ByLayer
370
-1
48
1
60
0
100
AcDbSpline
70
4
71
3
72
36
73
32
40
0
40
0
40
0
40
0
40
0.0625
40
0.125
40
0.140625
40
0.15625
40
0.1875
40
0.25
40
0.3125
40
0.34375
40
0.375
40
0.4375
40
0.453125
40
0.46875
40
0.5
40
0.5625
40
0.625
40
0.6875
40
0.75
40
0.78125
40
0.796875
40
0.8125
40
0.875
40
0.9375
40
0.953125
40
0.9609375
40
0.96484375
40
0.96875
40
0.9765625
40
0.984375
40
1
40
1
40
1
40
1
41
1
10
100.910240455143
20
10.3828467843188
30
0
41
1
10
100.911237158113
20
10.3629783550301
30
0
41
1
10
100.913230564053
20
10.3232414964528
30
0
41
1
10
100.915470867859
20
10.2785253803578
30
0
41
1
10
100.916970478069
20
10.248747036816
30
0
41
1
10
100.917958074801
20
10.2288885457417
30
0
41
1
10
100.919590725918
20
10.1939332078803
30
0
41
1
10
100.921658599737
20
10.1434870832985
30
0
41
1
10
100.923356795196
20
10.0929510766645
30
0
41
1
10
100.924452368888
20
10.052829291785
30
0
41
1
10
100.925544439375
20
10.0126143468064
30
0
41
1
10
100.926500670584
20
9.97744138301343
30
0
41
1
10
100.927317346097
20
9.9473071871833
30
0
41
1
10
100.927868947767
20
9.92723779685906
30
0
41
1
10
100.928718071022
20
9.89254088839172
30
0
41
1
10
100.929593277878
20
9.84292089473553
30
0
41
1
10
100.930078010439
20
9.78460745628968
30
0
41
1
10
100.929977097939
20
9.72840126847893
30
0
41
1
10
100.929415553932
20
9.6839773009024
30
0
41
1
10
100.928783347281
20
9.65454828752772
30
0
41
1
10
100.928348461677
20
9.63814450012194
30
0
41
1
10
100.92769788391
20
9.61332139707744
30
0
41
1
10
100.926720009993
20
9.57615796944771
30
0
41
1
10
100.925743953368
20
9.53897640313366
30
0
41
1
10
100.9251457902
20
9.51624092676062
30
0
41
1
10
100.924957002995
20
9.50902388837673
30
0
41
1
10
100.924846556428
20
9.50487150807842
30
0
41
1
10
100.924735242703
20
9.50079040758681
30
0
41
1
10
100.924643004274
20
9.49539561477638
30
0
41
1
10
100.924641991973
20
9.48593180495615
30
0
41
1
10
100.924808145853
20
9.47830457848292
30
0
41
1
10
100.924980891257
20
9.47333890141672
30
0
0
SPLINE
5
1D2
100
AcDbEntity
8
1
62
256
6
ByLayer
370
-1
48
1
60
0
100
AcDbSpline
70
4
71
3
72
41
73
37
40
0
40
0
40
0
40
0
40
0.0080831369865603
40
0.0179214742470091
40
0.0277598115074579
40
0.0671131605492531
40
0.106466509591048
40
0.185173207674639
40
0.224526556716434
40
0.244203231237332
40
0.258960737128005
40
0.263879905758229
40
0.273718243018678
40
0.283556580279127
40
0.293394917539575
40
0.303233254800024
40
0.322909929320922
40
0.342586603841819
40
0.42129330192541
40
0.500000000009001
40
0.578706698092591
40
0.657413396176182
40
0.677090070697079
40
0.696766745217977
40
0.706605082478426
40
0.716443419738874
40
0.726281756999323
40
0.736120094259772
40
0.741039262889996
40
0.75579676878067
40
0.775473443301567
40
0.814826792343362
40
0.893533490426953
40
0.972240188510543
40
0.991916863031441
40
1
40
1
40
1
40
1
41
1
10
97.7601800531493
20
10.2610734821228
30
0
41
1
10
97.7584092412005
20
10.2608472968124
30
0
41
1
10
97.7545102000504
20
10.2603396533648
30
0
41
1
10
97.7485432062834
20
10.2595090717025
30
0
41
1
10
97.7359294083625
20
10.2576008281613
30
0
41
1
10
97.7169346002554
20
10.2540605865866
30
0
41
1
10
97.6830386159214
20
10.2458442885868
30
0
41
1
10
97.6490765297193
20
10.2347526570404
30
0
41
1
10
97.6197324049097
20
10.2223867914437
30
0
41
1
10
97.6041741490979
20
10.2150581779436
30
0
41
1
10
97.5959363952962
20
10.2109318928423
30
0
41
1
10
97.5897868858133
20
10.2077443148549
30
0
41
1
10
97.5846809438758
20
10.2050300497817
30
0
41
1
10
97.5785857184454
20
10.2016804996143
30
0
41
1
10
97.5725244639275
20
10.1982388054222
30
0
41
1
10
97.5644908404769
20
10.1935274052057
30
0
41
1
10
97.5545440685326
20
10.1874092351464
30
0
41
1
10
97.5310096957284
20
10.1719976925539
30
0
41
1
10
97.4970991470619
20
10.1461679077561
30
0
41
1
10
97.4557889358916
20
10.106569483539
30
0
41
1
10
97.4193189430072
20
10.0624402416209
30
0
41
1
10
97.3960156092643
20
10.0266812853899
30
0
41
1
10
97.3823417859884
20
10.0020395077738
30
0
41
1
10
97.3769555959914
20
9.99165228119807
30
0
41
1
10
97.3728339543802
20
9.98327896420076
30
0
41
1
10
97.3698365205064
20
9.97696929753567
30
0
41
1
10
97.3669330261085
20
9.9706320409046
30
0
41
1
10
97.3645918487913
20
9.9653297428664
30
0
41
1
10
97.3618531038298
20
9.95894942617289
30
0
41
1
10
97.3583271703203
20
9.9504125137976
30
0
41
1
10
97.3521295176715
20
9.93432165363873
30
0
41
1
10
97.3418876586
20
9.90407459371895
30
0
41
1
10
97.331070866947
20
9.86059648995794
30
0
41
1
10
97.3256149596884
20
9.82186634536254
30
0
41
1
10
97.3239424344306
20
9.79887397291958
30
0
41
1
10
97.3235823045749
20
9.79277132531911
30
0
41
1
10
97.3234810544447
20
9.79098230135693
30
0
0
SPLINE
5
1D3
100
AcDbEntity
8
1
62
256
6
ByLayer
370
-1
48
1
60
0
100
AcDbSpline
70
4
71
3
72
8
73
4
40
0
40
0
40
0
40
0
40
1
40
1
40
1
40
1
41
1
10
97.9234794552356
20
10.2780824542618
30
0
41
1
10
97.9354827528832
20
10.2785471721604
30
0
41
1
10
97.947486893756
20
10.2789899435063
30
0
41
1
10
97.9594917982051
20
10.2794107653615
30
0
0
SPLINE
5
1D4
100
AcDbEntity
8
1
62
256
6
ByLayer
370
-1
48
1
60
0
100
AcDbSpline
70
4
71
3
72
36
73
32
40
0
40
0
40
0
40
0
40
0.015625
40
0.0234375
40
0.03125
40
0.03515625
40
0.0390625
40
0.046875
40
0.0625
40
0.125
40
0.1875
40
0.203125
40
0.21875
40
0.25
40
0.3125
40
0.375
40
0.4375
40
0.5
40
0.53125
40
0.546875
40
0.5625
40
0.625
40
0.65625
40
0.6875
40
0.75
40
0.8125
40
0.84375
40
0.859375
40
0.875
40
0.9375
40
1
40
1
40
1
40
1
41
1
10
98.3113512579293
20
6.65985811925319
30
0
41
1
10
98.3064044767636
20
6.65968471398898
30
0
41
1
10
98.2989054553904
20
6.65941836537147
30
0
41
1
10
98.289807896457
20
6.65908788185021
30
0
41
1
10
98.2847135443247
20
6.65889949153402
30
0
41
1
10
98.2809012602345
20
6.65875697636449
30
0
41
1
10
98.2770195800935
20
6.65861197204924
30
0
41
1
10
98.2702698574287
20
6.65835994751544
30
0
41
1
10
98.2490099787223
20
6.65756600718572
30
0
41
1
10
98.2142394241879
20
6.65626759827913
30
0
41
1
10
98.1794881255987
20
6.65496982278935
30
0
41
1
10
98.156273602987
20
6.65410298092985
30
0
41
1
10
98.1409377756264
20
6.65353014805106
30
0
41
1
10
98.1132767283282
20
6.65250246425865
30
0
41
1
10
98.0711287672617
20
6.65095114512698
30
0
41
1
10
98.0171926678859
20
6.64898838179843
30
0
41
1
10
97.9606449983331
20
6.64695203165621
30
0
41
1
10
97.9120647915308
20
6.64521926329556
30
0
41
1
10
97.8778578240966
20
6.64400762055288
30
0
41
1
10
97.8580113738425
20
6.64330678199954
30
0
41
1
10
97.8282234771643
20
6.64225447269314
30
0
41
1
10
97.7934517189429
20
6.64102620573218
30
0
41
1
10
97.7536967263829
20
6.63962186890845
30
0
41
1
10
97.714027795371
20
6.63822078530708
30
0
41
1
10
97.6637439388486
20
6.6364560290684
30
0
41
1
10
97.613176817184
20
6.63469441158011
30
0
41
1
10
97.5779378661078
20
6.63347374428415
30
0
41
1
10
97.5578581807673
20
6.63278027049489
30
0
41
1
10
97.5277294682068
20
6.63174038782424
30
0
41
1
10
97.4824987857508
20
6.6301788666415
30
0
41
1
10
97.44230209326
20
6.62879122496281
30
0
41
1
10
97.4222037470146
20
6.62809740412345
30
0
0
SPLINE
5
1D5
100
AcDbEntity
8
1
62
256
6
ByLayer
370
-1
48
1
60
0
100
AcDbSpline
70
4
71
3
72
14
73
10
40
0
40
0
40
0
40
0
40
0.0128443058604268
40
0.0848398580566551
40
0.228830962449112
40
0.372822066841568
40
0.660804275626482
40
0.948786484411395
40
1
40
1
40
1
40
1
41
1
10
104.061089620429
20
10.4819465815369
30
0
41
1
10
104.060702623852
20
10.481968651322
30
0
41
1
10
104.058142676694
20
10.482113298249
30
0
41
1
10
104.051167865765
20
10.4824867376862
30
0
41
1
10
104.039836333955
20
10.4830840711553
30
0
41
1
10
104.021396405561
20
10.4840483048598
30
0
41
1
10
103.998623321271
20
10.4852459936417
30
0
41
1
10
103.978864560245
20
10.4863025044789
30
0
41
1
10
103.968145139542
20
10.4868438452502
30
0
41
1
10
103.966526166416
20
10.4869236750602
30
0
0
SPLINE
5
1D6
100
AcDbEntity
8
1
62
256
6
ByLayer
370
-1
48
1
60
0
100
AcDbSpline
70
4
71
3
72
8
73
4
40
0
40
0
40
0
40
0
40
1
40
1
40
1
40
1
41
1
10
103.86098911208
20
10.4862828032761
30
0
41
1
10
103.872993978072
20
10.4867036237833
30
0
41
1
10
103.884999607635
20
10.4871024949405
30
0
41
1
10
103.897005921111
20
10.4874794141012
30
0
0
SPLINE
5
1D7
100
AcDbEntity
8
1
62
256
6
ByLayer
370
-1
48
1
60
0
100
AcDbSpline
70
4
71
3
72
8
73
4
40
0
40
0
40
0
40
0
40
1
40
1
40
1
40
1
41
1
10
104.546336210205
20
9.87965628432804
30
0
41
1
10
104.546799159711
20
9.86760713603343
30
0
41
1
10
104.547240246178
20
9.85555714129265
30
0
41
1
10
104.54765946668
20
9.84350638005876
30
0
0
SPLINE
5
1D8
100
AcDbEntity
8
1
62
256
6
ByLayer
370
-1
48
1
60
0
100
AcDbSpline
70
4
71
3
72
15
73
11
40
0
40
0
40
0
40
0
40
0.0512135155738014
40
0.195204619948466
40
0.33919572432313
40
0.62717793307246
40
0.771169037447124
40
0.915160141821789
40
0.987155694009121
40
1
40
1
40
1
40
1
41
1
10
97.531971175569
20
3.5603505379654
30
0
41
1
10
97.5321634417373
20
3.55873490807355
30
0
41
1
10
97.5329033618227
20
3.55257921311309
30
0
41
1
10
97.5342049264231
20
3.54190322717781
30
0
41
1
10
97.5364331450193
20
3.52378212380495
30
0
41
1
10
97.5386561809098
20
3.5056054508166
30
0
41
1
10
97.540900709908
20
3.48720743675597
30
0
41
1
10
97.5422847685068
20
3.47590199669307
30
0
41
1
10
97.5431424188921
20
3.46894364812189
30
0
41
1
10
97.5434647372692
20
3.46639027216028
30
0
41
1
10
97.5435136650328
20
3.46600428313093
30
0
0
SPLINE
5
1D9
100
AcDbEntity
8
1
62
256
6
ByLayer
370
-1
48
1
60
0
100
AcDbSpline
70
4
71
3
72
77
73
73
40
0
40
0
40
0
40
0
40
0.125
40
0.25
40
0.375
40
0.40625
40
0.421875
40
0.423828125
40
0.42578125
40
0.427734375
40
0.4296875
40
0.43359375
40
0.435546875
40
0.4375
40
0.44140625
40
0.4453125
40
0.447265625
40
0.44921875
40
0.4501953125
40
0.451171875
40
0.453125
40
0.4609375
40
0.46875
40
0.47265625
40
0.474609375
40
0.47607421875
40
0.4765625
40
0.4775390625
40
0.478515625
40
0.4794921875
40
0.48046875
40
0.482421875
40
0.484375
40
0.4921875
40
0.5
40
0.5078125
40
0.515625
40
0.517578125
40
0.51953125
40
0.5205078125
40
0.521484375
40
0.5224609375
40
0.5234375
40
0.52392578125
40
0.525390625
40
0.52734375
40
0.53125
40
0.5390625
40
0.54296875
40
0.546875
40
0.5478515625
40
0.548828125
40
0.5498046875
40
0.55078125
40
0.552734375
40
0.5546875
40
0.55859375
40
0.560546875
40
0.5625
40
0.5634765625
40
0.564453125
40
0.56640625
40
0.568359375
40
0.5703125
40
0.572265625
40
0.57421875
40
0.578125
40
0.59375
40
0.625
40
0.75
40
0.875
40
1
40
1
40
1
40
1
41
1
10
98.3113512579293
20
6.65985811925319
30
0
41
1
10
98.3035634785061
20
6.88372281608656
30
0
41
1
10
98.2879879196596
20
7.33145220975328
30
0
41
1
10
98.2646245813899
20
8.0030463002534
30
0
41
1
10
98.2471020776877
20
8.50674186812847
30
0
41
1
10
98.2363938809807
20
8.81455582627436
30
0
41
1
10
98.2333517796435
20
8.90200297347488
30
0
41
1
10
98.2321349391086
20
8.93698183235509
30
0
41
1
10
98.2317698869481
20
8.94747549001917
30
0
41
1
10
98.2314048347877
20
8.95796914768323
30
0
41
1
10
98.2309180985737
20
8.9719606912353
30
0
41
1
10
98.2304313623598
20
8.98595223478739
30
0
41
1
10
98.2299446261458
20
8.99994377833949
30
0
41
1
10
98.2294578899318
20
9.01393532189155
30
0
41
1
10
98.2288494696644
20
9.03142475133168
30
0
41
1
10
98.2282405518325
20
9.04891398952432
30
0
41
1
10
98.2277528204896
20
9.06290515058154
30
0
41
1
10
98.2274476774225
20
9.07164950671265
30
0
41
1
10
98.2272033390648
20
9.07864490555616
30
0
41
1
10
98.2269588389986
20
9.08564024224427
30
0
41
1
10
98.226285745458
20
9.1048771420231
30
0
41
1
10
98.2251798415839
20
9.13635398407052
30
0
41
1
10
98.223972554287
20
9.17133651490164
30
0
41
1
10
98.2231542022453
20
9.19583456794589
30
0
41
1
10
98.2226996782769
20
9.20895232851677
30
0
41
1
10
98.2224413832356
20
9.21594236286955
30
0
41
1
10
98.22223736237
20
9.22118092981208
30
0
41
1
10
98.2220601800536
20
9.22554364830103
30
0
41
1
10
98.2219079793952
20
9.2306390772529
30
0
41
1
10
98.2218880788649
20
9.23545924607612
30
0
41
1
10
98.2220572565355
20
9.24177653089427
30
0
41
1
10
98.2226718972195
20
9.24995026119063
30
0
41
1
10
98.2255158765201
20
9.27006082363522
30
0
41
1
10
98.2352101347641
20
9.30060324901851
30
0
41
1
10
98.2604215917783
20
9.33755208574601
30
0
41
1
10
98.2953815016766
20
9.36537561855621
30
0
41
1
10
98.3250573499402
20
9.37721373425586
30
0
41
1
10
98.3448441977517
20
9.3814644647629
30
0
41
1
10
98.3529241143402
20
9.38265012092427
30
0
41
1
10
98.3591902287146
20
9.38326020265612
30
0
41
1
10
98.3639817465227
20
9.38357651275086
30
0
41
1
10
98.3690560378336
20
9.38377954203594
30
0
41
1
10
98.3734039275525
20
9.38390644402546
30
0
41
1
10
98.3786240796157
20
9.38406756667368
30
0
41
1
10
98.3855885699506
20
9.38429651673232
30
0
41
1
10
98.3986562868613
20
9.38475641670382
30
0
41
1
10
98.4230587538297
20
9.38564583756343
30
0
41
1
10
98.4509377429728
20
9.38663088650745
30
0
41
1
10
98.4788127055153
20
9.38760267506029
30
0
41
1
10
98.4944918965828
20
9.38814774065841
30
0
41
1
10
98.5049449236487
20
9.38851188510756
30
0
41
1
10
98.5101714808731
20
9.3886941012166
30
0
41
1
10
98.5153980788762
20
9.38887645161779
30
0
41
1
10
98.5223669267014
20
9.38911975175253
30
0
41
1
10
98.5310780738657
20
9.38942416468984
30
0
41
1
10
98.5450160646759
20
9.38991173697875
30
0
41
1
10
98.5589542419028
20
9.39039992317461
30
0
41
1
10
98.5728925123381
20
9.390888416324
30
0
41
1
10
98.5816039507785
20
9.39119378849102
30
0
41
1
10
98.5885731015309
20
9.39143808622461
30
0
41
1
10
98.5955422522832
20
9.39168238395823
30
0
41
1
10
98.6042536907237
20
9.39198775612525
30
0
41
1
10
98.6147074168522
20
9.39235420272564
30
0
41
1
10
98.6251611429807
20
9.39272064932607
30
0
41
1
10
98.6356148691092
20
9.39308709592649
30
0
41
1
10
98.649553170614
20
9.39357569139369
30
0
41
1
10
98.6878834997519
20
9.39491932892852
30
0
41
1
10
98.7784824595325
20
9.39809519946544
30
0
41
1
10
99.0851250926361
20
9.4088442997442
30
0
41
1
10
99.5869039468055
20
9.42643373656398
30
0
41
1
10
100.255942419031
20
9.44988631899037
30
0
41
1
10
100.701968067182
20
9.46552137394127
30
0
41
1
10
100.924980891257
20
9.47333890141672
30
0
0
SPLINE
5
1DA
100
AcDbEntity
8
1
62
256
6
ByLayer
370
-1
48
1
60
0
100
AcDbSpline
70
4
71
3
72
8
73
4
40
0
40
0
40
0
40
0
40
1
40
1
40
1
40
1
41
1
10
97.5265694171665
20
3.62992746241602
30
0
41
1
10
97.5261064676598
20
3.6419766107106
30
0
41
1
10
97.5256653811927
20
3.65402660545138
30
0
41
1
10
97.5252461606916
20
3.6660773666853
30
0
0
SPLINE
5
1DB
100
AcDbEntity
8
1
62
256
6
ByLayer
370
-1
48
1
60
0
100
AcDbSpline
70
4
71
3
72
8
73
4
40
0
40
0
40
0
40
0
40
1
40
1
40
1
40
1
41
1
10
104.149426172136
20
3.23150129248222
30
0
41
1
10
104.137422874488
20
3.23103657458364
30
0
41
1
10
104.125418733615
20
3.23059380323778
30
0
41
1
10
104.113413829166
20
3.23017298138254
30
0
0
SPLINE
5
1DC
100
AcDbEntity
8
1
62
256
6
ByLayer
370
-1
48
1
60
0
100
AcDbSpline
70
4
71
3
72
14
73
10
40
0
40
0
40
0
40
0
40
0.0868146872097404
40
0.283438438146288
40
0.480062189082836
40
0.676685940019384
40
0.873309690955932
40
0.971621566424206
40
1
40
1
40
1
40
1
41
1
10
104.149427794675
20
3.23145605591293
30
0
41
1
10
104.151438602457
20
3.23153350111994
30
0
41
1
10
104.158003158854
20
3.23179591647158
30
0
41
1
10
104.169117911582
20
3.23232547446477
30
0
41
1
10
104.182764394288
20
3.23324557007393
30
0
41
1
10
104.196391003371
20
3.2344285900248
30
0
41
1
10
104.207722263394
20
3.23562814145407
30
0
41
1
10
104.215169044768
20
3.23649710080531
30
0
41
1
10
104.218085220437
20
3.23684536662086
30
0
41
1
10
104.218738335383
20
3.23692368472428
30
0
0
SPLINE
5
1DD
100
AcDbEntity
8
1
62
256
6
ByLayer
370
-1
48
1
60
0
100
AcDbSpline
70
4
71
3
72
14
73
10
40
0
40
0
40
0
40
0
40
0.0128443058603855
40
0.0848398580566118
40
0.228830962449064
40
0.372822066841517
40
0.660804275626422
40
0.948786484411327
40
1
40
1
40
1
40
1
41
1
10
98.011816006942
20
3.02763716520718
30
0
41
1
10
98.0122030035189
20
3.02761509542208
30
0
41
1
10
98.0147629506766
20
3.02747044849508
30
0
41
1
10
98.0217377616065
20
3.02709700905785
30
0
41
1
10
98.0330692934162
20
3.02649967558875
30
0
41
1
10
98.0515092218103
20
3.02553544188424
30
0
41
1
10
98.0742823061002
20
3.02433775310234
30
0
41
1
10
98.0940410671259
20
3.02328124226511
30
0
41
1
10
98.1047604878295
20
3.02273990149388
30
0
41
1
10
98.1063794609549
20
3.02266007168387
30
0
0
SPLINE
5
1DE
100
AcDbEntity
8
1
62
256
6
ByLayer
370
-1
48
1
60
0
100
AcDbSpline
70
4
71
3
72
41
73
37
40
0
40
0
40
0
40
0
40
0.0080831369865733
40
0.0179214742470217
40
0.02775981150747
40
0.0671131605492633
40
0.106466509591057
40
0.185173207674643
40
0.224526556716437
40
0.244203231237333
40
0.258960737128006
40
0.26387990575823
40
0.273718243018678
40
0.283556580279126
40
0.293394917539575
40
0.303233254800023
40
0.32290992932092
40
0.342586603841816
40
0.421293301925403
40
0.500000000008989
40
0.578706698092576
40
0.657413396176162
40
0.677090070697059
40
0.696766745217956
40
0.706605082478404
40
0.716443419738852
40
0.726281756999301
40
0.736120094259749
40
0.741039262889973
40
0.755796768780646
40
0.775473443301542
40
0.814826792343335
40
0.893533490426922
40
0.972240188510509
40
0.991916863031405
40
1
40
1
40
1
40
1
41
1
10
97.5435136650314
20
3.46600428314281
30
0
41
1
10
97.5437389896384
20
3.46422670698007
30
0
41
1
10
97.5442447013494
20
3.46031277212629
30
0
41
1
10
97.5450721223976
20
3.45432298541249
30
0
41
1
10
97.5469731044961
20
3.44166100483264
30
0
41
1
10
97.5504998743828
20
3.42259363964439
30
0
41
1
10
97.5586849068882
20
3.38856817815685
30
0
41
1
10
97.5697343314279
20
3.35447636230282
30
0
41
1
10
97.5820531411726
20
3.32502014770358
30
0
41
1
10
97.5893538670858
20
3.30940246188217
30
0
41
1
10
97.5934644504265
20
3.30113324119924
30
0
41
1
10
97.5966398987173
20
3.29496024158911
30
0
41
1
10
97.5993438351925
20
3.28983479578287
30
0
41
1
10
97.6026806393102
20
3.28371628758163
30
0
41
1
10
97.6061092368169
20
3.27763188005613
30
0
41
1
10
97.6108027087331
20
3.26956756946907
30
0
41
1
10
97.6168975973083
20
3.25958280247184
30
0
41
1
10
97.6322504943283
20
3.23595853218691
30
0
41
1
10
97.6579819889967
20
3.20191845073342
30
0
41
1
10
97.6974297292546
20
3.16045044126761
30
0
41
1
10
97.7413910460842
20
3.12384113893521
30
0
41
1
10
97.7770139286908
20
3.10044879024318
30
0
41
1
10
97.8015619369035
20
3.08672273518374
30
0
41
1
10
97.8119096369461
20
3.08131597081604
30
0
41
1
10
97.8202510909443
20
3.07717858520346
30
0
41
1
10
97.8265367474228
20
3.07416970161916
30
0
41
1
10
97.8328498888791
20
3.07125511634433
30
0
41
1
10
97.8381320100725
20
3.06890499611018
30
0
41
1
10
97.8444880477347
20
3.06615578958784
30
0
41
1
10
97.852992474581
20
3.06261638758514
30
0
41
1
10
97.869022104159
20
3.05639506091006
30
0
41
1
10
97.899154064884
20
3.04611407960076
30
0
41
1
10
97.9424667213337
20
3.03525596956089
30
0
41
1
10
97.9810494860361
20
3.02977922162299
30
0
41
1
10
98.0039543655603
20
3.02810030759031
30
0
41
1
10
98.0100337907442
20
3.02773880209713
30
0
41
1
10
98.0118160069301
20
3.02763716520783
30
0
0
SPLINE
5
1DF
100
AcDbEntity
8
1
62
256
6
ByLayer
370
-1
48
1
60
0
100
AcDbSpline
70
4
71
3
72
12
73
8
40
0
40
0
40
0
40
0
40
0.0366937705554794
40
0.110794249743519
40
0.40719616649568
40
0.70359808324784
40
1
40
1
40
1
40
1
41
1
10
104.753744907391
20
3.91946632682635
30
0
41
1
10
104.75247615889
20
3.95569608681561
30
0
41
1
10
104.748685765061
20
4.06508672327513
30
0
41
1
10
104.734682521805
20
4.46712886560692
30
0
41
1
10
104.711789725493
20
5.12558929782278
30
0
41
1
10
104.681243848652
20
6.0035379440389
30
0
41
1
10
104.660882536455
20
6.58883687642671
30
0
41
1
10
104.650701880356
20
6.88148634262061
30
0
0
SPLINE
5
1E0
100
AcDbEntity
8
1
62
256
6
ByLayer
370
-1
48
1
60
0
100
AcDbSpline
70
4
71
3
72
12
73
8
40
0
40
0
40
0
40
0
40
0.0366937705554809
40
0.110794249743521
40
0.407196166495681
40
0.70359808324784
40
1
40
1
40
1
40
1
41
1
10
98.2119165368526
20
3.02330032776735
30
0
41
1
10
98.2480084316671
20
3.02457392268164
30
0
41
1
10
98.3569828037289
20
3.02837879519953
30
0
41
1
10
98.7574950543293
20
3.04243552856968
30
0
41
1
10
99.4134498458059
20
3.06541577164461
30
0
41
1
10
100.288057632363
20
3.0960783287727
30
0
41
1
10
100.871129325607
20
3.11651741787438
30
0
41
1
10
101.162665172229
20
3.12673696242521
30
0
0
SPLINE
5
1E1
100
AcDbEntity
8
1
62
256
6
ByLayer
370
-1
48
1
60
0
100
AcDbSpline
70
4
71
3
72
77
73
73
40
0
40
0
40
0
40
0
40
0.125
40
0.25
40
0.375
40
0.40625
40
0.421875
40
0.423828125
40
0.42578125
40
0.427734375
40
0.4296875
40
0.43359375
40
0.435546875
40
0.4375
40
0.44140625
40
0.4453125
40
0.447265625
40
0.44921875
40
0.4501953125
40
0.451171875
40
0.453125
40
0.4609375
40
0.46875
40
0.47265625
40
0.474609375
40
0.47607421875
40
0.4765625
40
0.4775390625
40
0.478515625
40
0.4794921875
40
0.48046875
40
0.482421875
40
0.484375
40
0.4921875
40
0.5
40
0.5078125
40
0.515625
40
0.517578125
40
0.51953125
40
0.5205078125
40
0.521484375
40
0.5224609375
40
0.5234375
40
0.52392578125
40
0.525390625
40
0.52734375
40
0.53125
40
0.5390625
40
0.54296875
40
0.546875
40
0.5478515625
40
0.548828125
40
0.5498046875
40
0.55078125
40
0.552734375
40
0.5546875
40
0.55859375
40
0.560546875
40
0.5625
40
0.5634765625
40
0.564453125
40
0.56640625
40
0.568359375
40
0.5703125
40
0.572265625
40
0.57421875
40
0.578125
40
0.59375
40
0.625
40
0.75
40
0.875
40
1
40
1
40
1
40
1
41
1
10
100.924980891257
20
9.47333890141672
30
0
41
1
10
101.147993715333
20
9.48115642889221
30
0
41
1
10
101.594019363483
20
9.49679148384311
30
0
41
1
10
102.263057835709
20
9.5202440662695
30
0
41
1
10
102.764836689879
20
9.53783350308927
30
0
41
1
10
103.071479322982
20
9.54858260336803
30
0
41
1
10
103.158593707387
20
9.55163632503812
30
0
41
1
10
103.193439461149
20
9.55285781370617
30
0
41
1
10
103.203893187277
20
9.55322426030656
30
0
41
1
10
103.214346913406
20
9.55359070690699
30
0
41
1
10
103.22828521491
20
9.55407930237419
30
0
41
1
10
103.242223516415
20
9.55456789784142
30
0
41
1
10
103.25616181792
20
9.55505649330863
30
0
41
1
10
103.270100119424
20
9.55554508877586
30
0
41
1
10
103.287522996305
20
9.55615583310987
30
0
41
1
10
103.304945682666
20
9.55676707690898
30
0
41
1
10
103.318883603132
20
9.55725667130639
30
0
41
1
10
103.327594684348
20
9.55756297997044
30
0
41
1
10
103.334563463587
20
9.55780825166096
30
0
41
1
10
103.341532180907
20
9.55805368567766
30
0
41
1
10
103.360695878474
20
9.55872935032627
30
0
41
1
10
103.392052941635
20
9.55983947857348
30
0
41
1
10
103.426902353374
20
9.56105137751177
30
0
41
1
10
103.451307183931
20
9.56187285552531
30
0
41
1
10
103.464375027462
20
9.56232911570149
30
0
41
1
10
103.471338462624
20
9.56258839738783
30
0
41
1
10
103.476557095238
20
9.56279319757996
30
0
41
1
10
103.480903212266
20
9.56297105670404
30
0
41
1
10
103.485979251572
20
9.56312383874422
30
0
41
1
10
103.490781078198
20
9.56314381529131
30
0
41
1
10
103.49707432384
20
9.56297399138953
30
0
41
1
10
103.505216950625
20
9.56235700287797
30
0
41
1
10
103.525250986307
20
9.55950216003839
30
0
41
1
10
103.555677188541
20
9.5497708713028
30
0
41
1
10
103.59248542379
20
9.5244631106186
30
0
41
1
10
103.620203079658
20
9.48936965954402
30
0
41
1
10
103.631996147753
20
9.45958045436109
30
0
41
1
10
103.636230702947
20
9.43971802400543
30
0
41
1
10
103.637411847329
20
9.43160724344818
30
0
41
1
10
103.638019607515
20
9.42531719353488
30
0
41
1
10
103.638334713955
20
9.42050737290717
30
0
41
1
10
103.638536970652
20
9.41541369862776
30
0
41
1
10
103.638663389741
20
9.41104920067647
30
0
41
1
10
103.638823899269
20
9.4058091084805
30
0
41
1
10
103.639051978104
20
9.39881801492393
30
0
41
1
10
103.639510128017
20
9.38570038145753
30
0
41
1
10
103.640396164362
20
9.36120470102972
30
0
41
1
10
103.641377464897
20
9.33321921867719
30
0
41
1
10
103.642345555501
20
9.30523777830626
30
0
41
1
10
103.64288854696
20
9.28949869527602
30
0
41
1
10
103.64325130573
20
9.27900573934488
30
0
41
1
10
103.643432828451
20
9.27375921752099
30
0
41
1
10
103.643614484954
20
9.2685126547627
30
0
41
1
10
103.643856859259
20
9.26151718707092
30
0
41
1
10
103.644160113813
20
9.25277276473958
30
0
41
1
10
103.644645830742
20
9.23878153306879
30
0
41
1
10
103.645132159242
20
9.22479011426924
30
0
41
1
10
103.645618793527
20
9.21079860190528
30
0
41
1
10
103.645923003661
20
9.20205388718523
30
0
41
1
10
103.646166371768
20
9.19505811540918
30
0
41
1
10
103.646409739875
20
9.18806234363313
30
0
41
1
10
103.646713950009
20
9.17931762891308
30
0
41
1
10
103.647079002169
20
9.16882397124903
30
0
41
1
10
103.64744405433
20
9.15833031358494
30
0
41
1
10
103.64780910649
20
9.14783665592088
30
0
41
1
10
103.648295842704
20
9.13384511236879
30
0
41
1
10
103.649634367292
20
9.09536836760057
30
0
41
1
10
103.652798152683
20
9.00442333451201
30
0
41
1
10
103.66350634939
20
8.69660937636613
30
0
41
1
10
103.681028853092
20
8.19291380849106
30
0
41
1
10
103.704392191362
20
7.52131971799096
30
0
41
1
10
103.719967750208
20
7.07359032432421
30
0
41
1
10
103.727755529632
20
6.84972562749087
30
0
0
SPLINE
5
1E2
100
AcDbEntity
8
1
62
256
6
ByLayer
370
-1
48
1
60
0
100
AcDbSpline
70
4
71
3
72
77
73
73
40
0
40
0
40
0
40
0
40
0.125
40
0.25
40
0.375
40
0.40625
40
0.421875
40
0.423828125
40
0.42578125
40
0.427734375
40
0.4296875
40
0.43359375
40
0.435546875
40
0.4375
40
0.44140625
40
0.4453125
40
0.447265625
40
0.44921875
40
0.4501953125
40
0.451171875
40
0.453125
40
0.4609375
40
0.46875
40
0.47265625
40
0.474609375
40
0.47607421875
40
0.4765625
40
0.4775390625
40
0.478515625
40
0.4794921875
40
0.48046875
40
0.482421875
40
0.484375
40
0.4921875
40
0.5
40
0.5078125
40
0.515625
40
0.517578125
40
0.51953125
40
0.5205078125
40
0.521484375
40
0.5224609375
40
0.5234375
40
0.52392578125
40
0.525390625
40
0.52734375
40
0.53125
40
0.5390625
40
0.54296875
40
0.546875
40
0.5478515625
40
0.548828125
40
0.5498046875
40
0.55078125
40
0.552734375
40
0.5546875
40
0.55859375
40
0.560546875
40
0.5625
40
0.5634765625
40
0.564453125
40
0.56640625
40
0.568359375
40
0.5703125
40
0.572265625
40
0.57421875
40
0.578125
40
0.59375
40
0.625
40
0.75
40
0.875
40
1
40
1
40
1
40
1
41
1
10
101.114125896304
20
4.0362448453273
30
0
41
1
10
100.891113072228
20
4.02842731785185
30
0
41
1
10
100.445087424078
20
4.01279226290094
30
0
41
1
10
99.7760489518518
20
3.98933968047456
30
0
41
1
10
99.2742700976823
20
3.97175024365478
30
0
41
1
10
98.9676274645788
20
3.96100114337602
30
0
41
1
10
98.8805130801744
20
3.95794742170594
30
0
41
1
10
98.8456673264126
20
3.95672593303789
30
0
41
1
10
98.8352136002841
20
3.95635948643746
30
0
41
1
10
98.8247598741555
20
3.95599303983707
30
0
41
1
10
98.8108215726508
20
3.95550444436984
30
0
41
1
10
98.7968832711461
20
3.95501584890263
30
0
41
1
10
98.7829449696414
20
3.9545272534354
30
0
41
1
10
98.7690066681367
20
3.9540386579682
30
0
41
1
10
98.7515837912558
20
3.95342791363419
30
0
41
1
10
98.7341611048946
20
3.95281666983507
30
0
41
1
10
98.7202231844293
20
3.95232707543766
30
0
41
1
10
98.7115121032132
20
3.95202076677361
30
0
41
1
10
98.7045433239743
20
3.95177549508307
30
0
41
1
10
98.6975746066543
20
3.95153006106639
30
0
41
1
10
98.6784109090868
20
3.95085439641775
30
0
41
1
10
98.6470538459265
20
3.94974426817058
30
0
41
1
10
98.6122044341868
20
3.94853236923228
30
0
41
1
10
98.5877996036305
20
3.94771089121875
30
0
41
1
10
98.5747317600989
20
3.94725463104257
30
0
41
1
10
98.5677683249372
20
3.94699534935623
30
0
41
1
10
98.5625496923235
20
3.94679054916409
30
0
41
1
10
98.5582035752955
20
3.94661269004001
30
0
41
1
10
98.5531275359892
20
3.94645990799981
30
0
41
1
10
98.5483257093636
20
3.94643993145274
30
0
41
1
10
98.5420324637214
20
3.9466097553545
30
0
41
1
10
98.5338898369365
20
3.94722674386608
30
0
41
1
10
98.5138558012536
20
3.95008158670564
30
0
41
1
10
98.4834295990199
20
3.95981287544123
30
0
41
1
10
98.4466213637713
20
3.98512063612546
30
0
41
1
10
98.4189037079036
20
4.02021408720003
30
0
41
1
10
98.4071106398082
20
4.05000329238297
30
0
41
1
10
98.402876084614
20
4.0698657227386
30
0
41
1
10
98.4016949402323
20
4.07797650329584
30
0
41
1
10
98.4010871800457
20
4.08426655320915
30
0
41
1
10
98.4007720736063
20
4.08907637383686
30
0
41
1
10
98.400569816909
20
4.0941700481163
30
0
41
1
10
98.4004433978199
20
4.09853454606758
30
0
41
1
10
98.4002828882919
20
4.10377463826356
30
0
41
1
10
98.4000548094574
20
4.11076573182012
30
0
41
1
10
98.3995966595442
20
4.12388336528653
30
0
41
1
10
98.3987106231995
20
4.14837904571434
30
0
41
1
10
98.3977293226641
20
4.17636452806687
30
0
41
1
10
98.39676123206
20
4.20434596843779
30
0
41
1
10
98.3962182406011
20
4.22008505146803
30
0
41
1
10
98.3958554818315
20
4.23057800739917
30
0
41
1
10
98.3956739591098
20
4.23582452922307
30
0
41
1
10
98.3954923026069
20
4.24107109198135
30
0
41
1
10
98.3952499283026
20
4.24806655967313
30
0
41
1
10
98.3949466737485
20
4.25681098200445
30
0
41
1
10
98.3944609568193
20
4.27080221367527
30
0
41
1
10
98.3939746283193
20
4.28479363247482
30
0
41
1
10
98.3934879940338
20
4.29878514483877
30
0
41
1
10
98.3931837839001
20
4.30752985955883
30
0
41
1
10
98.3929404157931
20
4.31452563133487
30
0
41
1
10
98.3926970476862
20
4.32152140311092
30
0
41
1
10
98.3923928375524
20
4.33026611783097
30
0
41
1
10
98.392027785392
20
4.34075977549503
30
0
41
1
10
98.3916627332315
20
4.35125343315909
30
0
41
1
10
98.391297681071
20
4.36174709082317
30
0
41
1
10
98.3908109448571
20
4.37573863437524
30
0
41
1
10
98.3894724202687
20
4.41421537914349
30
0
41
1
10
98.386308634878
20
4.50516041223204
30
0
41
1
10
98.3756004381711
20
4.8129743703779
30
0
41
1
10
98.3580779344688
20
5.316669938253
30
0
41
1
10
98.3347145961991
20
5.98826402875309
30
0
41
1
10
98.3191390373526
20
6.43599342241981
30
0
41
1
10
98.3113512579293
20
6.65985811925319
30
0
0
SPLINE
5
1E3
100
AcDbEntity
8
1
62
256
6
ByLayer
370
-1
48
1
60
0
100
AcDbSpline
70
4
71
3
72
15
73
11
40
0
40
0
40
0
40
0
40
0.0512135155738398
40
0.195204619948497
40
0.339195724323155
40
0.62717793307247
40
0.771169037447127
40
0.915160141821785
40
0.987155694009113
40
1
40
1
40
1
40
1
41
1
10
104.218738335383
20
3.23692368472428
30
0
41
1
10
104.220347817315
20
3.23711668531811
30
0
41
1
10
104.226480087998
20
3.23785943177805
30
0
41
1
10
104.237115448583
20
3.23916596814365
30
0
41
1
10
104.255167595687
20
3.24140269817298
30
0
41
1
10
104.273275100947
20
3.24363422569948
30
0
41
1
10
104.29160310501
20
3.24588732843375
30
0
41
1
10
104.30286552446
20
3.24727667391153
30
0
41
1
10
104.309797394414
20
3.248137600382
30
0
41
1
10
104.312341054009
20
3.24846114996293
30
0
41
1
10
104.312725574234
20
3.24851026462272
30
0
0
SPLINE
5
1E4
100
AcDbEntity
8
1
62
256
6
ByLayer
370
-1
48
1
60
0
100
AcDbSpline
70
4
71
3
72
12
73
8
40
0
40
0
40
0
40
0
40
0.0366937705554793
40
0.110794249743519
40
0.40719616649568
40
0.70359808324784
40
1
40
1
40
1
40
1
41
1
10
97.3191607199799
20
9.5901174199177
30
0
41
1
10
97.3204294684811
20
9.55388765992845
30
0
41
1
10
97.3242198623103
20
9.44449702346893
30
0
41
1
10
97.3382231055662
20
9.0424548811371
30
0
41
1
10
97.3611159018783
20
8.38399444892127
30
0
41
1
10
97.3916617787193
20
7.50604580270516
30
0
41
1
10
97.4120230909161
20
6.92074687031734
30
0
41
1
10
97.4222037470146
20
6.62809740412342
30
0
0
SPLINE
5
1E5
100
AcDbEntity
8
1
62
256
6
ByLayer
370
-1
48
1
60
0
100
AcDbSpline
70
4
71
3
72
14
73
10
40
0
40
0
40
0
40
0
40
0.086814687209478
40
0.283438438146039
40
0.4800621890826
40
0.676685940019161
40
0.873309690955723
40
0.971621566424003
40
1
40
1
40
1
40
1
41
1
10
97.526524352736
20
3.6299258336785
30
0
41
1
10
97.5266015032406
20
3.627907344938
30
0
41
1
10
97.5268629200226
20
3.62131771300176
30
0
41
1
10
97.5273904628878
20
3.61016050372371
30
0
41
1
10
97.5283070572553
20
3.59646189367058
30
0
41
1
10
97.5294855754582
20
3.58278323315534
30
0
41
1
10
97.5306805622321
20
3.57140868955926
30
0
41
1
10
97.5315462149307
20
3.56393346269013
30
0
41
1
10
97.5318931554896
20
3.56100614770418
30
0
41
1
10
97.531971175569
20
3.5603505379654
30
0
0
SPLINE
5
1E6
100
AcDbEntity
8
1
62
256
6
ByLayer
370
-1
48
1
60
0
100
AcDbSpline
70
4
71
3
72
8
73
4
40
0
40
0
40
0
40
0
40
1
40
1
40
1
40
1
41
1
10
97.3191613333376
20
9.5901174415616
30
0
41
1
10
97.3187421141795
20
9.6021681641912
30
0
41
1
10
97.3183447608475
20
9.61421965330894
30
0
41
1
10
97.317969275978
20
9.62627182895241
30
0
0
SPLINE
5
1E7
100
AcDbEntity
8
1
62
256
6
ByLayer
370
-1
48
1
60
0
100
AcDbSpline
70
4
71
3
72
15
73
11
40
0
40
0
40
0
40
0
40
0.0512135155738165
40
0.195204619948477
40
0.339195724323138
40
0.62717793307246
40
0.771169037447121
40
0.915160141821782
40
0.987155694009113
40
1
40
1
40
1
40
1
41
1
10
104.540934451802
20
9.94923320877865
30
0
41
1
10
104.540742185634
20
9.95084883867051
30
0
41
1
10
104.540002265548
20
9.95700453363096
30
0
41
1
10
104.538700700948
20
9.96768051956624
30
0
41
1
10
104.536472482352
20
9.98580162293911
30
0
41
1
10
104.534249446461
20
10.0039782959274
30
0
41
1
10
104.532004917463
20
10.0223763099881
30
0
41
1
10
104.530620858864
20
10.033681750051
30
0
41
1
10
104.529763208479
20
10.0406400986222
30
0
41
1
10
104.529440890102
20
10.0431934745838
30
0
41
1
10
104.529391962338
20
10.0435794636131
30
0
0
SPLINE
5
1E8
100
AcDbEntity
8
1
62
256
6
ByLayer
370
-1
48
1
60
0
100
AcDbSpline
70
4
71
3
72
12
73
8
40
0
40
0
40
0
40
0
40
0.126690309034424
40
0.323314059973507
40
0.716561561851672
40
0.913185312790755
40
1
40
1
40
1
40
1
41
1
10
98.1063794609549
20
3.02266007168387
30
0
41
1
10
98.1093123668722
20
3.02251545327209
30
0
41
1
10
98.1168013380998
20
3.02216233819448
30
0
41
1
10
98.1334005489704
20
3.02157460809053
30
0
41
1
10
98.1516421856476
20
3.0214452270537
30
0
41
1
10
98.1673230235393
20
3.02179764956165
30
0
41
1
10
98.17388982452
20
3.02199554292778
30
0
41
1
10
98.1759011158219
20
3.02205908903019
30
0
0
SPLINE
5
1E9
100
AcDbEntity
8
1
62
256
6
ByLayer
370
-1
48
1
60
0
100
AcDbSpline
70
4
71
3
72
41
73
37
40
0
40
0
40
0
40
0
40
0.0080831369865558
40
0.0179214742470046
40
0.0277598115074535
40
0.0671131605492487
40
0.106466509591044
40
0.185173207674634
40
0.22452655671643
40
0.244203231237327
40
0.258960737128001
40
0.263879905758225
40
0.273718243018674
40
0.283556580279123
40
0.293394917539571
40
0.30323325480002
40
0.322909929320918
40
0.342586603841815
40
0.421293301925406
40
0.500000000008996
40
0.578706698092586
40
0.657413396176177
40
0.677090070697074
40
0.696766745217972
40
0.706605082478421
40
0.716443419738869
40
0.726281756999318
40
0.736120094259767
40
0.741039262889992
40
0.755796768780665
40
0.775473443301562
40
0.814826792343358
40
0.893533490426948
40
0.972240188510539
40
0.991916863031436
40
1
40
1
40
1
40
1
41
1
10
104.312725574222
20
3.24851026462119
30
0
41
1
10
104.314496386171
20
3.24873644993164
30
0
41
1
10
104.318395427321
20
3.24924409337928
30
0
41
1
10
104.324362421088
20
3.25007467504147
30
0
41
1
10
104.336976219009
20
3.25198291858277
30
0
41
1
10
104.355971027116
20
3.25552316015745
30
0
41
1
10
104.38986701145
20
3.26373945815723
30
0
41
1
10
104.423829097652
20
3.27483108970364
30
0
41
1
10
104.453173222461
20
3.28719695530029
30
0
41
1
10
104.468731478273
20
3.29452556880045
30
0
41
1
10
104.476969232075
20
3.29865185390173
30
0
41
1
10
104.483118741558
20
3.30183943188908
30
0
41
1
10
104.488224683495
20
3.30455369696236
30
0
41
1
10
104.494319908926
20
3.30790324712973
30
0
41
1
10
104.500381163444
20
3.31134494132189
30
0
41
1
10
104.508414786894
20
3.31605634153834
30
0
41
1
10
104.518361558839
20
3.32217451159769
30
0
41
1
10
104.541895931643
20
3.33758605419016
30
0
41
1
10
104.575806480309
20
3.36341583898792
30
0
41
1
10
104.617116691479
20
3.40301426320505
30
0
41
1
10
104.653586684364
20
3.44714350512317
30
0
41
1
10
104.676890018107
20
3.48290246135412
30
0
41
1
10
104.690563841383
20
3.50754423897021
30
0
41
1
10
104.69595003138
20
3.51793146554598
30
0
41
1
10
104.700071672991
20
3.52630478254326
30
0
41
1
10
104.703069106865
20
3.53261444920838
30
0
41
1
10
104.705972601263
20
3.53895170583945
30
0
41
1
10
104.70831377858
20
3.54425400387763
30
0
41
1
10
104.711052523541
20
3.55063432057114
30
0
41
1
10
104.714578457051
20
3.55917123294645
30
0
41
1
10
104.7207761097
20
3.57526209310532
30
0
41
1
10
104.731017968771
20
3.60550915302508
30
0
41
1
10
104.741834760424
20
3.64898725678609
30
0
41
1
10
104.747290667683
20
3.68771740138152
30
0
41
1
10
104.74896319294
20
3.71070977382448
30
0
41
1
10
104.749323322796
20
3.71681242142495
30
0
41
1
10
104.749424572926
20
3.71860144538712
30
0
0
SPLINE
5
1EA
100
AcDbEntity
8
1
62
256
6
ByLayer
370
-1
48
1
60
0
100
AcDbSpline
70
4
71
3
72
12
73
8
40
0
40
0
40
0
40
0
40
0.0366937705554807
40
0.110794249743521
40
0.407196166495681
40
0.70359808324784
40
1
40
1
40
1
40
1
41
1
10
103.860989090518
20
10.4862834189767
30
0
41
1
10
103.824897195704
20
10.4850098240624
30
0
41
1
10
103.715922823642
20
10.4812049515445
30
0
41
1
10
103.315410573042
20
10.4671482181743
30
0
41
1
10
102.659455781565
20
10.4441679750995
30
0
41
1
10
101.784847995008
20
10.4135054179714
30
0
41
1
10
101.201776301764
20
10.3930663288697
30
0
41
1
10
100.910240455143
20
10.3828467843188
30
0
0
SPLINE
5
1EB
100
AcDbEntity
8
1
62
256
6
ByLayer
370
-1
48
1
60
0
100
AcDbSpline
70
4
71
3
72
36
73
32
40
0
40
0
40
0
40
0
40
0.015625
40
0.0234375
40
0.03125
40
0.03515625
40
0.0390625
40
0.046875
40
0.0625
40
0.125
40
0.1875
40
0.203125
40
0.21875
40
0.25
40
0.3125
40
0.375
40
0.4375
40
0.5
40
0.53125
40
0.546875
40
0.5625
40
0.625
40
0.65625
40
0.6875
40
0.75
40
0.8125
40
0.84375
40
0.859375
40
0.875
40
0.9375
40
1
40
1
40
1
40
1
41
1
10
101.114125896304
20
4.0362448453273
30
0
41
1
10
101.114298641709
20
4.03127916826111
30
0
41
1
10
101.11466315799
20
4.0236519417879
30
0
41
1
10
101.115322622155
20
4.01418813196764
30
0
41
1
10
101.115790207452
20
4.00879333915725
30
0
41
1
10
101.11618546689
20
4.0047122386656
30
0
41
1
10
101.116584818517
20
4.00055985836732
30
0
41
1
10
101.11727573673
20
3.99334281998341
30
0
41
1
10
101.119455738192
20
3.9706073436104
30
0
41
1
10
101.123018730955
20
3.93342577729635
30
0
41
1
10
101.126582278996
20
3.89626234966659
30
0
41
1
10
101.128959943292
20
3.87143924662209
30
0
41
1
10
101.13053613505
20
3.85503545921634
30
0
41
1
10
101.133215887991
20
3.82560644584166
30
0
41
1
10
101.136868263787
20
3.78118247826512
30
0
41
1
10
101.140879765129
20
3.72497629045438
30
0
41
1
10
101.144452234999
20
3.6666628520085
30
0
41
1
10
101.14702937745
20
3.61704285835234
30
0
41
1
10
101.148594318348
20
3.582345949885
30
0
41
1
10
101.14943905998
20
3.56227655956076
30
0
41
1
10
101.15071899437
20
3.53214236373063
30
0
41
1
10
101.15220994923
20
3.49696939993766
30
0
41
1
10
101.15391586454
20
3.45675445495905
30
0
41
1
10
101.155611794958
20
3.41663267007954
30
0
41
1
10
101.157429681116
20
3.36609666344558
30
0
41
1
10
101.158871635301
20
3.31565053886376
30
0
41
1
10
101.15967102876
20
3.28069520100237
30
0
41
1
10
101.160065101852
20
3.2608367099281
30
0
41
1
10
101.160637342849
20
3.23105836638624
30
0
41
1
10
101.16150819729
20
3.1863422502912
30
0
41
1
10
101.162279513916
20
3.14660539171388
30
0
41
1
10
101.162665172229
20
3.12673696242521
30
0
0
SPLINE
5
1EC
100
AcDbEntity
8
1
62
256
6
ByLayer
370
-1
48
1
60
0
100
AcDbSpline
70
4
71
3
72
14
73
10
40
0
40
0
40
0
40
0
40
0.012844305860451
40
0.0848398580566773
40
0.22883096244913
40
0.372822066841582
40
0.660804275626487
40
0.948786484411392
40
1
40
1
40
1
40
1
41
1
10
104.749424572927
20
3.71860144539909
30
0
41
1
10
104.74944655873
20
3.71898992024006
30
0
41
1
10
104.749590655232
20
3.72155964598005
30
0
41
1
10
104.749962673619
20
3.72856109955453
30
0
41
1
10
104.750557734054
20
3.739935915975
30
0
41
1
10
104.751518298558
20
3.75844628189978
30
0
41
1
10
104.752711429773
20
3.78130635567203
30
0
41
1
10
104.753763920267
20
3.80114059195495
30
0
41
1
10
104.754303201073
20
3.81190095910412
30
0
41
1
10
104.754382727107
20
3.81352611644391
30
0
0
SPLINE
5
1ED
100
AcDbEntity
8
1
62
256
6
ByLayer
370
-1
48
1
60
0
100
AcDbSpline
70
4
71
3
72
41
73
37
40
0
40
0
40
0
40
0
40
0.0080831369865693
40
0.0179214742470181
40
0.027759811507467
40
0.0671131605492624
40
0.106466509591058
40
0.185173207674649
40
0.224526556716444
40
0.244203231237342
40
0.258960737128015
40
0.263879905758239
40
0.273718243018688
40
0.283556580279137
40
0.293394917539586
40
0.303233254800035
40
0.322909929320932
40
0.34258660384183
40
0.421293301925421
40
0.500000000009012
40
0.578706698092602
40
0.657413396176193
40
0.677090070697091
40
0.696766745217989
40
0.706605082478437
40
0.716443419738886
40
0.726281756999335
40
0.736120094259784
40
0.741039262890008
40
0.755796768780682
40
0.775473443301579
40
0.814826792343375
40
0.893533490426966
40
0.972240188510556
40
0.991916863031454
40
1
40
1
40
1
40
1
41
1
10
104.52939196234
20
10.0435794636012
30
0
41
1
10
104.529166637733
20
10.045357039764
30
0
41
1
10
104.528660926022
20
10.0492709746178
30
0
41
1
10
104.527833504973
20
10.0552607613316
30
0
41
1
10
104.525932522875
20
10.0679227419114
30
0
41
1
10
104.522405752988
20
10.0869901070997
30
0
41
1
10
104.514220720483
20
10.1210155685872
30
0
41
1
10
104.503171295943
20
10.1551073844412
30
0
41
1
10
104.490852486199
20
10.1845635990405
30
0
41
1
10
104.483551760285
20
10.2001812848619
30
0
41
1
10
104.479441176945
20
10.2084505055448
30
0
41
1
10
104.476265728654
20
10.2146235051549
30
0
41
1
10
104.473561792179
20
10.2197489509612
30
0
41
1
10
104.470224988061
20
10.2258674591624
30
0
41
1
10
104.466796390554
20
10.2319518666879
30
0
41
1
10
104.462102918638
20
10.240016177275
30
0
41
1
10
104.456008030063
20
10.2500009442722
30
0
41
1
10
104.440655133043
20
10.2736252145571
30
0
41
1
10
104.414923638374
20
10.3076652960106
30
0
41
1
10
104.375475898117
20
10.3491333054764
30
0
41
1
10
104.331514581287
20
10.3857426078089
30
0
41
1
10
104.29589169868
20
10.4091349565009
30
0
41
1
10
104.271343690468
20
10.4228610115603
30
0
41
1
10
104.260995990425
20
10.428267775928
30
0
41
1
10
104.252654536427
20
10.4324051615406
30
0
41
1
10
104.246368879948
20
10.4354140451249
30
0
41
1
10
104.240055738492
20
10.4383286303997
30
0
41
1
10
104.234773617299
20
10.4406787506339
30
0
41
1
10
104.228417579636
20
10.4434279571562
30
0
41
1
10
104.21991315279
20
10.4469673591589
30
0
41
1
10
104.203883523212
20
10.453188685834
30
0
41
1
10
104.173751562487
20
10.4634696671433
30
0
41
1
10
104.130438906037
20
10.4743277771831
30
0
41
1
10
104.091856141335
20
10.4798045251211
30
0
41
1
10
104.068951261811
20
10.4814834391538
30
0
41
1
10
104.062871836627
20
10.4818449446469
30
0
41
1
10
104.061089620441
20
10.4819465815362
30
0
0
SPLINE
5
1EE
100
AcDbEntity
8
1
62
256
6
ByLayer
370
-1
48
1
60
0
100
AcDbSpline
70
4
71
3
72
12
73
8
40
0
40
0
40
0
40
0
40
0.29640191675216
40
0.59280383350432
40
0.889205750256481
40
0.963306229444521
40
1
40
1
40
1
40
1
41
1
10
100.910240455143
20
10.3828467843188
30
0
41
1
10
100.618704608521
20
10.372627239768
30
0
41
1
10
100.035632915277
20
10.3521881506663
30
0
41
1
10
99.1610248566745
20
10.3215334136578
30
0
41
1
10
98.505071017357
20
10.2985258001642
30
0
41
1
10
98.1045575775988
20
10.2845032498928
30
0
41
1
10
97.9955842571226
20
10.2806681488724
30
0
41
1
10
97.9594917769285
20
10.279411381072
30
0
0
SPLINE
5
1EF
100
AcDbEntity
8
1
62
256
6
ByLayer
370
-1
48
1
60
0
100
AcDbSpline
70
4
71
3
72
12
73
8
40
0
40
0
40
0
40
0
40
0.126690309034461
40
0.323314059973601
40
0.716561561851881
40
0.913185312791021
40
1
40
1
40
1
40
1
41
1
10
103.966526166416
20
10.4869236750602
30
0
41
1
10
103.963593260499
20
10.4870682934719
30
0
41
1
10
103.956104289271
20
10.4874214085496
30
0
41
1
10
103.939505078401
20
10.4880091386535
30
0
41
1
10
103.921263441723
20
10.4881385196904
30
0
41
1
10
103.905582603832
20
10.4877860971824
30
0
41
1
10
103.899015802851
20
10.4875882038163
30
0
41
1
10
103.897004511549
20
10.4875246577138
30
0
0
SPLINE
5
1F0
100
AcDbEntity
8
1
62
256
6
ByLayer
370
-1
48
1
60
0
100
AcDbSpline
70
4
71
3
72
8
73
4
40
0
40
0
40
0
40
0
40
1
40
1
40
1
40
1
41
1
10
104.753744294033
20
3.91946630518245
30
0
41
1
10
104.754163513192
20
3.90741558255286
30
0
41
1
10
104.754560866524
20
3.89536409343509
30
0
41
1
10
104.754936351393
20
3.88331191779164
30
0
0
SPLINE
5
1F1
100
AcDbEntity
8
1
62
256
6
ByLayer
370
-1
48
1
60
0
100
AcDbSpline
70
4
71
3
72
8
73
4
40
0
40
0
40
0
40
0
40
1
40
1
40
1
40
1
41
1
10
98.2119165152911
20
3.02330094346789
30
0
41
1
10
98.1999116492993
20
3.02288012296074
30
0
41
1
10
98.1879060197361
20
3.02248125180355
30
0
41
1
10
98.1758997062597
20
3.02210433264287
30
0
0
SPLINE
5
1F2
100
AcDbEntity
8
1
62
256
6
ByLayer
370
-1
48
1
60
0
100
AcDbSpline
70
4
71
3
72
12
73
8
40
0
40
0
40
0
40
0
40
0.126690309034507
40
0.323314059973642
40
0.716561561851911
40
0.913185312791046
40
1
40
1
40
1
40
1
41
1
10
104.754382727107
20
3.81352611644391
30
0
41
1
10
104.754526795202
20
3.81647022558536
30
0
41
1
10
104.75487856657
20
3.8239878034664
30
0
41
1
10
104.755464060183
20
3.84065042062585
30
0
41
1
10
104.755592948886
20
3.8589617373917
30
0
41
1
10
104.755241867452
20
3.8747024735367
30
0
41
1
10
104.75504472713
20
3.8812943586303
30
0
41
1
10
104.75498142284
20
3.8833133327382
30
0
0
SPLINE
5
1F3
100
AcDbEntity
8
1
62
256
6
ByLayer
370
-1
48
1
60
0
100
AcDbSpline
70
4
71
3
72
36
73
32
40
0
40
0
40
0
40
0
40
0.015625
40
0.0234375
40
0.03125
40
0.03515625
40
0.0390625
40
0.046875
40
0.0625
40
0.125
40
0.1875
40
0.203125
40
0.21875
40
0.25
40
0.3125
40
0.375
40
0.4375
40
0.5
40
0.53125
40
0.546875
40
0.5625
40
0.625
40
0.65625
40
0.6875
40
0.75
40
0.8125
40
0.84375
40
0.859375
40
0.875
40
0.9375
40
1
40
1
40
1
40
1
41
1
10
103.727755529632
20
6.84972562749087
30
0
41
1
10
103.732702310798
20
6.84989903275505
30
0
41
1
10
103.740399694572
20
6.85016538137259
30
0
41
1
10
103.750157729972
20
6.85049586489384
30
0
41
1
10
103.75581190583
20
6.85068425521001
30
0
41
1
10
103.760130763084
20
6.85082677037957
30
0
41
1
10
103.764522241418
20
6.85097177469481
30
0
41
1
10
103.772151669501
20
6.85122379922862
30
0
41
1
10
103.796189712837
20
6.85201773955833
30
0
41
1
10
103.835499316761
20
6.85331614846493
30
0
41
1
10
103.874792037307
20
6.8546139239547
30
0
41
1
10
103.901034801981
20
6.85548076581418
30
0
41
1
10
103.918381706705
20
6.85605359869297
30
0
41
1
10
103.949354713595
20
6.85708128248541
30
0
41
1
10
103.995716594464
20
6.85863260161705
30
0
41
1
10
104.053765107682
20
6.8605953649456
30
0
41
1
10
104.113400514544
20
6.86263171508784
30
0
41
1
10
104.163682656941
20
6.8643644834485
30
0
41
1
10
104.198605442018
20
6.86557612619114
30
0
41
1
10
104.218745032234
20
6.86627696474452
30
0
41
1
10
104.24899618779
20
6.86732927405092
30
0
41
1
10
104.284302669662
20
6.86855754101185
30
0
41
1
10
104.324671507045
20
6.86996187783558
30
0
41
1
10
104.364940794783
20
6.87136296143697
30
0
41
1
10
104.415344342004
20
6.87312771767566
30
0
41
1
10
104.465285544035
20
6.87488933516394
30
0
41
1
10
104.499691237454
20
6.87611000245988
30
0
41
1
10
104.519177399154
20
6.87680347624917
30
0
41
1
10
104.548378742502
20
6.87784335891982
30
0
41
1
10
104.592239975592
20
6.87940488010256
30
0
41
1
10
104.631214578768
20
6.88079252178125
30
0
41
1
10
104.650701880356
20
6.88148634262061
30
0
0
SPLINE
5
1F4
100
AcDbEntity
8
1
62
256
6
ByLayer
370
-1
48
1
60
0
100
AcDbSpline
70
4
71
3
72
12
73
8
40
0
40
0
40
0
40
0
40
0.296401916752159
40
0.592803833504318
40
0.889205750256476
40
0.963306229444516
40
1
40
1
40
1
40
1
41
1
10
101.162665172229
20
3.12673696242521
30
0
41
1
10
101.45420101885
20
3.13695650697608
30
0
41
1
10
102.037272712094
20
3.15739559607775
30
0
41
1
10
102.911880770696
20
3.18805033308621
30
0
41
1
10
103.567834610014
20
3.21105794657984
30
0
41
1
10
103.968348049772
20
3.22508049685129
30
0
41
1
10
104.077321370248
20
3.22891559787163
30
0
41
1
10
104.113413850443
20
3.23017236567199
30
0
0
SPLINE
5
1F5
100
AcDbEntity
8
1
62
256
6
ByLayer
370
-1
48
1
60
0
100
AcDbSpline
70
4
71
3
72
14
73
10
40
0
40
0
40
0
40
0
40
0.0128443058604593
40
0.0848398580566861
40
0.22883096244914
40
0.372822066841594
40
0.660804275626501
40
0.948786484411408
40
1
40
1
40
1
40
1
41
1
10
97.323481054444
20
9.79098230134497
30
0
41
1
10
97.3234590686411
20
9.79059382650399
30
0
41
1
10
97.3233149721393
20
9.78802410076401
30
0
41
1
10
97.3229429537519
20
9.7810226471895
30
0
41
1
10
97.322347893317
20
9.76964783076906
30
0
41
1
10
97.3213873288129
20
9.75113746484428
30
0
41
1
10
97.3201941975984
20
9.72827739107203
30
0
41
1
10
97.3191417071038
20
9.70844315478911
30
0
41
1
10
97.3186024262977
20
9.69768278763991
30
0
41
1
10
97.3185229002642
20
9.69605763030015
30
0
0
SPLINE
5
1F6
100
AcDbEntity
8
1
62
256
6
ByLayer
370
-1
48
1
60
0
100
AcDbSpline
70
4
71
3
72
12
73
8
40
0
40
0
40
0
40
0
40
0.29640191675216
40
0.59280383350432
40
0.88920575025648
40
0.96330622944452
40
1
40
1
40
1
40
1
41
1
10
97.4222037470146
20
6.62809740412345
30
0
41
1
10
97.432384403113
20
6.33544793792953
30
0
41
1
10
97.45274571531
20
5.75014900554174
30
0
41
1
10
97.4832838017892
20
4.87220008624101
30
0
41
1
10
97.5062038643673
20
4.21374060982126
30
0
41
1
10
97.5201730546015
20
3.81169727378935
30
0
41
1
10
97.5239935619045
20
3.70230769293238
30
0
41
1
10
97.5252455473241
20
3.66607734532735
30
0
0
SPLINE
5
1F7
100
AcDbEntity
8
1
62
256
6
ByLayer
370
-1
48
1
60
0
100
AcDbSpline
70
4
71
3
72
14
73
10
40
0
40
0
40
0
40
0
40
0.0868146872097239
40
0.283438438146234
40
0.480062189082745
40
0.676685940019256
40
0.873309690955766
40
0.971621566424022
40
1
40
1
40
1
40
1
41
1
10
97.9234778326959
20
10.2781276908311
30
0
41
1
10
97.9214670249145
20
10.2780502456241
30
0
41
1
10
97.9149024685172
20
10.2777878302725
30
0
41
1
10
97.9037877157889
20
10.2772582722792
30
0
41
1
10
97.8901412330827
20
10.2763381766701
30
0
41
1
10
97.8765146240004
20
10.2751551567193
30
0
41
1
10
97.8651833639768
20
10.27395560529
30
0
41
1
10
97.8577365826028
20
10.2730866459387
30
0
41
1
10
97.8548204069341
20
10.2727383801232
30
0
41
1
10
97.8541672919883
20
10.2726600620198
30
0
0
SPLINE
5
1F8
100
AcDbEntity
8
1
62
256
6
ByLayer
370
-1
48
1
60
0
100
AcDbSpline
70
4
71
3
72
12
73
8
40
0
40
0
40
0
40
0
40
0.29640191675216
40
0.59280383350432
40
0.88920575025648
40
0.963306229444519
40
1
40
1
40
1
40
1
41
1
10
104.650701880356
20
6.88148634262061
30
0
41
1
10
104.640521224258
20
7.1741358088145
30
0
41
1
10
104.620159912061
20
7.75943474120231
30
0
41
1
10
104.589621825582
20
8.63738366050302
30
0
41
1
10
104.566701763004
20
9.2958431369228
30
0
41
1
10
104.55273257277
20
9.69788647295471
30
0
41
1
10
104.548912065466
20
9.80727605381168
30
0
41
1
10
104.547660080047
20
9.8435064014167
30
0
0
SPLINE
5
1F9
100
AcDbEntity
8
1
62
256
6
ByLayer
370
-1
48
1
60
0
100
AcDbSpline
70
4
71
3
72
12
73
8
40
0
40
0
40
0
40
0
40
0.126690309034488
40
0.32331405997362
40
0.716561561851882
40
0.913185312791013
40
1
40
1
40
1
40
1
41
1
10
97.3185229002642
20
9.69605763030015
30
0
41
1
10
97.3183788321691
20
9.69311352115867
30
0
41
1
10
97.318027060801
20
9.68559594327766
30
0
41
1
10
97.3174415671875
20
9.66893332611821
30
0
41
1
10
97.3173126784846
20
9.65062200935233
30
0
41
1
10
97.3176637599185
20
9.63488127320733
30
0
41
1
10
97.3178609002406
20
9.62828938811373
30
0
41
1
10
97.317924204531
20
9.62627041400586
30
0
0
SPLINE
5
1FA
100
AcDbEntity
8
1
62
256
6
ByLayer
370
-1
48
1
60
0
100
AcDbSpline
70
4
71
3
72
77
73
73
40
0
40
0
40
0
40
0
40
0.125
40
0.25
40
0.375
40
0.40625
40
0.421875
40
0.423828125
40
0.42578125
40
0.427734375
40
0.4296875
40
0.43359375
40
0.435546875
40
0.4375
40
0.44140625
40
0.4453125
40
0.447265625
40
0.44921875
40
0.4501953125
40
0.451171875
40
0.453125
40
0.4609375
40
0.46875
40
0.47265625
40
0.474609375
40
0.47607421875
40
0.4765625
40
0.4775390625
40
0.478515625
40
0.4794921875
40
0.48046875
40
0.482421875
40
0.484375
40
0.4921875
40
0.5
40
0.5078125
40
0.515625
40
0.517578125
40
0.51953125
40
0.5205078125
40
0.521484375
40
0.5224609375
40
0.5234375
40
0.52392578125
40
0.525390625
40
0.52734375
40
0.53125
40
0.5390625
40
0.54296875
40
0.546875
40
0.5478515625
40
0.548828125
40
0.5498046875
40
0.55078125
40
0.552734375
40
0.5546875
40
0.55859375
40
0.560546875
40
0.5625
40
0.5634765625
40
0.564453125
40
0.56640625
40
0.568359375
40
0.5703125
40
0.572265625
40
0.57421875
40
0.578125
40
0.59375
40
0.625
40
0.75
40
0.875
40
1
40
1
40
1
40
1
41
1
10
103.727755529632
20
6.84972562749087
30
0
41
1
10
103.735543309055
20
6.6258609306575
30
0
41
1
10
103.751118867901
20
6.17813153699075
30
0
41
1
10
103.774482206171
20
5.50653744649065
30
0
41
1
10
103.792004709873
20
5.00284187861558
30
0
41
1
10
103.80271290658
20
4.6950279204697
30
0
41
1
10
103.805755007918
20
4.60758077326918
30
0
41
1
10
103.806971848453
20
4.57260191438894
30
0
41
1
10
103.807336900613
20
4.56210825672488
30
0
41
1
10
103.807701952773
20
4.55161459906083
30
0
41
1
10
103.808188688987
20
4.53762305550873
30
0
41
1
10
103.808675425201
20
4.52363151195666
30
0
41
1
10
103.809162161415
20
4.50963996840457
30
0
41
1
10
103.809648897629
20
4.49564842485248
30
0
41
1
10
103.810257317897
20
4.47815899541237
30
0
41
1
10
103.810866235729
20
4.4606697572197
30
0
41
1
10
103.811353967071
20
4.44667859616251
30
0
41
1
10
103.811659110139
20
4.43793424003141
30
0
41
1
10
103.811903448496
20
4.43093884118787
30
0
41
1
10
103.812147948562
20
4.42394350449976
30
0
41
1
10
103.812821042103
20
4.40470660472096
30
0
41
1
10
103.813926945977
20
4.3732297626735
30
0
41
1
10
103.815134233274
20
4.33824723184242
30
0
41
1
10
103.815952585316
20
4.31374917879816
30
0
41
1
10
103.816407109284
20
4.30063141822728
30
0
41
1
10
103.816665404326
20
4.2936413838745
30
0
41
1
10
103.816869425191
20
4.28840281693198
30
0
41
1
10
103.817046607508
20
4.28404009844303
30
0
41
1
10
103.817198808166
20
4.27894466949115
30
0
41
1
10
103.817218708696
20
4.27412450066794
30
0
41
1
10
103.817049531026
20
4.26780721584976
30
0
41
1
10
103.816434890342
20
4.25963348555342
30
0
41
1
10
103.813590911041
20
4.23952292310884
30
0
41
1
10
103.803896652797
20
4.20898049772555
30
0
41
1
10
103.778685195783
20
4.17203166099804
30
0
41
1
10
103.743725285885
20
4.14420812818784
30
0
41
1
10
103.714049437621
20
4.1323700124882
30
0
41
1
10
103.694262589809
20
4.12811928198116
30
0
41
1
10
103.686182673221
20
4.12693362581976
30
0
41
1
10
103.679916558847
20
4.12632354408794
30
0
41
1
10
103.675125041038
20
4.12600723399319
30
0
41
1
10
103.670050749727
20
4.12580420470812
30
0
41
1
10
103.665702860009
20
4.1256773027186
30
0
41
1
10
103.660482707945
20
4.12551618007035
30
0
41
1
10
103.653518217611
20
4.12528723001174
30
0
41
1
10
103.6404505007
20
4.12482733004023
30
0
41
1
10
103.616048033732
20
4.12393790918063
30
0
41
1
10
103.588169044588
20
4.12295286023661
30
0
41
1
10
103.560294082046
20
4.12198107168376
30
0
41
1
10
103.544614890978
20
4.12143600608565
30
0
41
1
10
103.534161863912
20
4.12107186163647
30
0
41
1
10
103.528935306688
20
4.12088964552746
30
0
41
1
10
103.523708708685
20
4.12070729512627
30
0
41
1
10
103.51673986086
20
4.12046399499152
30
0
41
1
10
103.508028713695
20
4.12015958205419
30
0
41
1
10
103.494090722885
20
4.11967200976531
30
0
41
1
10
103.480152545658
20
4.11918382356941
30
0
41
1
10
103.466214275223
20
4.11869533042005
30
0
41
1
10
103.457502836783
20
4.11838995825303
30
0
41
1
10
103.45053368603
20
4.11814566051942
30
0
41
1
10
103.443564535278
20
4.11790136278583
30
0
41
1
10
103.434853096838
20
4.11759599061881
30
0
41
1
10
103.424399370709
20
4.11722954401839
30
0
41
1
10
103.41394564458
20
4.11686309741799
30
0
41
1
10
103.403491918452
20
4.11649665081757
30
0
41
1
10
103.389553616947
20
4.11600805535036
30
0
41
1
10
103.351223287809
20
4.1146644178155
30
0
41
1
10
103.260624328029
20
4.11148854727861
30
0
41
1
10
102.953981694925
20
4.10073944699985
30
0
41
1
10
102.452202840756
20
4.08315001018008
30
0
41
1
10
101.78316436853
20
4.05969742775369
30
0
41
1
10
101.337138720379
20
4.04406237280278
30
0
41
1
10
101.114125896304
20
4.0362448453273
30
0
0
SPLINE
5
1FB
100
AcDbEntity
8
1
62
256
6
ByLayer
370
-1
48
1
60
0
100
AcDbSpline
70
4
71
3
72
14
73
10
40
0
40
0
40
0
40
0
40
0.0868146872094513
40
0.283438438146028
40
0.480062189082604
40
0.676685940019181
40
0.873309690955757
40
0.971621566424046
40
1
40
1
40
1
40
1
41
1
10
104.546381274635
20
9.87965791306556
30
0
41
1
10
104.54630412413
20
9.88167640180603
30
0
41
1
10
104.546042707348
20
9.8882660337423
30
0
41
1
10
104.545515164483
20
9.89942324302035
30
0
41
1
10
104.544598570116
20
9.91312185307348
30
0
41
1
10
104.543420051913
20
9.92680051358872
30
0
41
1
10
104.542225065139
20
9.93817505718479
30
0
41
1
10
104.54135941244
20
9.94565028405393
30
0
41
1
10
104.541012471881
20
9.94857759903988
30
0
41
1
10
104.540934451802
20
9.94923320877862
30
0
0
SPLINE
5
1FC
100
AcDbEntity
8
1
62
256
6
ByLayer
370
-1
48
1
60
0
100
AcDbSpline
70
4
71
3
72
15
73
11
40
0
40
0
40
0
40
0
40
0.0512135155735864
40
0.195204619948291
40
0.339195724322996
40
0.627177933072405
40
0.771169037447109
40
0.915160141821814
40
0.987155694009166
40
1
40
1
40
1
40
1
41
1
10
97.8541672919883
20
10.2726600620198
30
0
41
1
10
97.8525578100559
20
10.2724670614259
30
0
41
1
10
97.8464255393733
20
10.271724314966
30
0
41
1
10
97.8357901787876
20
10.2704177786004
30
0
41
1
10
97.817738031684
20
10.2681810485711
30
0
41
1
10
97.7996305264242
20
10.2659495210446
30
0
41
1
10
97.7813025223615
20
10.2636964183103
30
0
41
1
10
97.7700401029113
20
10.2623070728325
30
0
41
1
10
97.7631082329572
20
10.2614461463621
30
0
41
1
10
97.760564573362
20
10.2611225967811
30
0
41
1
10
97.7601800531374
20
10.2610734821213
30
0
0
SPLINE
5
1FD
100
AcDbEntity
8
1
62
256
6
ByLayer
370
-1
48
1
60
0
100
AcDbSpline
70
4
71
3
72
22
73
18
40
0
40
0
40
0
40
0
40
0.124999999999999
40
0.124999999999999
40
0.249999999999998
40
0.249999999999998
40
0.374999999999998
40
0.374999999999998
40
0.437499999999998
40
0.437499999999998
40
0.499999999999999
40
0.499999999999999
40
0.625
40
0.625
40
0.750000000000001
40
0.750000000000001
40
1
40
1
40
1
40
1
41
1
10
104.542785247089
20
-5.48332901652398
30
0
41
1
10
104.559729471808
20
-5.48233762931966
30
0
41
1
10
104.577232225216
20
-5.48035202428017
30
0
41
1
10
104.614009672134
20
-5.4732266441693
30
0
41
1
10
104.633420248623
20
-5.46809750420161
30
0
41
1
10
104.674688305204
20
-5.45210816189217
30
0
41
1
10
104.696820837918
20
-5.44117233993549
30
0
41
1
10
104.730844974075
20
-5.41684066941497
30
0
41
1
10
104.742566681113
20
-5.40712309909495
30
0
41
1
10
104.764475741872
20
-5.38549513218112
30
0
41
1
10
104.774821677608
20
-5.37341472308887
30
0
41
1
10
104.801673955273
20
-5.33662507528058
30
0
41
1
10
104.814152615145
20
-5.31167392748353
30
0
41
1
10
104.832088727004
20
-5.26597318226678
30
0
41
1
10
104.837900080867
20
-5.24456408805318
30
0
41
1
10
104.850446593482
20
-5.18338042119913
30
0
41
1
10
104.852366663573
20
-5.14704757716848
30
0
41
1
10
104.851780922266
20
-5.11244752246711
30
0
0
SPLINE
5
1FE
100
AcDbEntity
8
1
62
256
6
ByLayer
370
-1
48
1
60
0
100
AcDbSpline
70
4
71
3
72
10
73
6
40
0
40
0
40
0
40
0
40
0.5
40
0.5
40
1
40
1
40
1
40
1
41
1
10
104.367836762062
20
-0.454299045445595
30
0
41
1
10
104.36827279973
20
-0.43238092059363
30
0
41
1
10
104.366910887347
20
-0.40958043635203
30
0
41
1
10
104.35941198477
20
-0.361681901993393
30
0
41
1
10
104.353236399843
20
-0.336825020383713
30
0
41
1
10
104.34442403217
20
-0.312053032476769
30
0
0
SPLINE
5
1FF
100
AcDbEntity
8
1
62
256
6
ByLayer
370
-1
48
1
60
0
100
AcDbSpline
70
4
71
3
72
20
73
16
40
0
40
0
40
0
40
0
40
0.191182124272835
40
0.191182124272835
40
0.38236424854567
40
0.38236424854567
40
0.573546372818505
40
0.573546372818505
40
0.669137434954922
40
0.669137434954922
40
0.764728497091339
40
0.764728497091339
40
0.955910621364173
40
0.955910621364173
40
1
40
1
40
1
40
1
41
1
10
104.143602586364
20
0.584521754324982
30
0
41
1
10
104.140805319504
20
0.599625638109472
30
0
41
1
10
104.137054405976
20
0.61532958423814
30
0
41
1
10
104.126527121487
20
0.648641182701738
30
0
41
1
10
104.119744968728
20
0.666367984193982
30
0
41
1
10
104.100770525363
20
0.704596633597362
30
0
41
1
10
104.088479497443
20
0.725349986937744
30
0
41
1
10
104.062847341155
20
0.75805319488623
30
0
41
1
10
104.052820717516
20
0.769461719466591
30
0
41
1
10
104.030975794908
20
0.791153668294385
30
0
41
1
10
104.018987314814
20
0.801595534185225
30
0
41
1
10
103.983002124037
20
0.829274516198097
30
0
41
1
10
103.959242481418
20
0.842972161155359
30
0
41
1
10
103.932806387052
20
0.855729801072329
30
0
41
1
10
103.927939906479
20
0.857963803728666
30
0
41
1
10
103.923154213289
20
0.860058194155272
30
0
0
SPLINE
5
200
100
AcDbEntity
8
1
62
256
6
ByLayer
370
-1
48
1
60
0
100
AcDbSpline
70
4
71
3
72
8
73
4
40
0
40
0
40
0
40
0
40
1
40
1
40
1
40
1
41
1
10
104.766913364991
20
-3.39107080914079
30
0
41
1
10
104.766212639908
20
-3.40397900632561
30
0
41
1
10
104.765632065311
20
-3.41698223830596
30
0
41
1
10
104.765173495486
20
-3.43008197175502
30
0
0
SPLINE
5
201
100
AcDbEntity
8
1
62
256
6
ByLayer
370
-1
48
1
60
0
100
AcDbSpline
70
4
71
3
72
10
73
6
40
0
40
0
40
0
40
0
40
0.5
40
0.5
40
1
40
1
40
1
40
1
41
1
10
104.766913364991
20
-3.39107080914076
30
0
41
1
10
104.77033347702
20
-3.32806824010112
30
0
41
1
10
104.76528416422
20
-3.26476386626004
30
0
41
1
10
104.737492780892
20
-3.13816496415876
30
0
41
1
10
104.715465479376
20
-3.07800393637416
30
0
41
1
10
104.685662982492
20
-3.02084610384404
30
0
0
SPLINE
5
202
100
AcDbEntity
8
1
62
256
6
ByLayer
370
-1
48
1
60
0
100
AcDbSpline
70
4
71
3
72
8
73
4
40
0
40
0
40
0
40
0
40
1
40
1
40
1
40
1
41
1
10
104.851780922266
20
-5.11244752246714
30
0
41
1
10
104.851050972247
20
-5.06932898138527
30
0
41
1
10
104.846268315859
20
-5.02866227265579
30
0
41
1
10
104.839023530545
20
-4.98962769705167
30
0
0
SPLINE
5
203
100
AcDbEntity
8
1
62
256
6
ByLayer
370
-1
48
1
60
0
100
AcDbSpline
70
4
71
3
72
16
73
12
40
0
40
0
40
0
40
0
40
0.25
40
0.25
40
0.5
40
0.5
40
0.75
40
0.75
40
0.875
40
0.875
40
1
40
1
40
1
40
1
41
1
10
104.227261156903
20
0.132806065327316
30
0
41
1
10
104.232311965194
20
0.105534151254176
30
0
41
1
10
104.237875951129
20
0.0770754291546041
30
0
41
1
10
104.250588482663
20
0.0167013297926815
30
0
41
1
10
104.257716189023
20
-0.0151882614053989
30
0
41
1
10
104.274863957907
20
-0.0853507693547044
30
0
41
1
10
104.284857033359
20
-0.123595619023007
30
0
41
1
10
104.303823871835
20
-0.188653967140823
30
0
41
1
10
104.310847506384
20
-0.211704125892965
30
0
41
1
10
104.326382212437
20
-0.259997800233236
30
0
41
1
10
104.335079916149
20
-0.285786274478994
30
0
41
1
10
104.34442403217
20
-0.312053032476769
30
0
0
SPLINE
5
204
100
AcDbEntity
8
1
62
256
6
ByLayer
370
-1
48
1
60
0
100
AcDbSpline
70
4
71
3
72
8
73
4
40
0
40
0
40
0
40
0
40
1
40
1
40
1
40
1
41
1
10
104.672761053375
20
-2.99527239909585
30
0
41
1
10
104.676906875792
20
-3.00377412905553
30
0
41
1
10
104.681256407679
20
-3.01239478964189
30
0
41
1
10
104.685662982492
20
-3.02084610384404
30
0
0
SPLINE
5
205
100
AcDbEntity
8
1
62
256
6
ByLayer
370
-1
48
1
60
0
100
AcDbSpline
70
4
71
3
72
8
73
4
40
0
40
0
40
0
40
0
40
1
40
1
40
1
40
1
41
1
10
104.367836762062
20
-0.454299045443889
30
0
41
1
10
104.366941946905
20
-0.499278348371377
30
0
41
1
10
104.367458135188
20
-0.550774939748663
30
0
41
1
10
104.370339412899
20
-0.60561906981593
30
0
0
SPLINE
5
206
100
AcDbEntity
8
1
62
256
6
ByLayer
370
-1
48
1
60
0
100
AcDbSpline
70
4
71
3
72
20
73
16
40
0
40
0
40
0
40
0
40
0.0625000000000003
40
0.0625000000000003
40
0.125000000000001
40
0.125000000000001
40
0.250000000000001
40
0.250000000000001
40
0.375
40
0.375
40
0.5
40
0.5
40
0.75
40
0.75
40
1
40
1
40
1
40
1
41
1
10
104.742147481438
20
-4.0878545285882
30
0
41
1
10
104.741144594953
20
-4.11650348216929
30
0
41
1
10
104.740747609477
20
-4.14562241289511
30
0
41
1
10
104.741023330193
20
-4.20154638404898
30
0
41
1
10
104.741665692189
20
-4.22814593865766
30
0
41
1
10
104.744624352646
20
-4.30515878596017
30
0
41
1
10
104.747818941362
20
-4.35054638980739
30
0
41
1
10
104.755173048951
20
-4.43560194136259
30
0
41
1
10
104.759367899553
20
-4.47503208665063
30
0
41
1
10
104.768149192879
20
-4.54947710506417
30
0
41
1
10
104.77277174558
20
-4.58470768405584
30
0
41
1
10
104.78705343849
20
-4.68684311672286
30
0
41
1
10
104.797116832478
20
-4.75027567910985
30
0
41
1
10
104.8177395858
20
-4.87288076665394
30
0
41
1
10
104.828318068794
20
-4.93194715332805
30
0
41
1
10
104.839023530545
20
-4.9896276970517
30
0
0
SPLINE
5
207
100
AcDbEntity
8
SK1
62
256
6
ByLayer
370
-1
48
1
60
0
100
AcDbSpline
70
4
71
3
72
20
73
16
40
0
40
0
40
0
40
0
40
0.125000000000007
40
0.125000000000007
40
0.250000000000015
40
0.250000000000015
40
0.312500000000018
40
0.312500000000018
40
0.375000000000022
40
0.375000000000022
40
0.500000000000012
40
0.500000000000012
40
0.750000000000006
40
0.750000000000006
40
1
40
1
40
1
40
1
41
1
10
-53.6338144512145
20
-6.34034179467375
30
0
41
1
10
-53.6736405326374
20
-6.31405714368671
30
0
41
1
10
-53.7174596238936
20
-6.2918915268643
30
0
41
1
10
-53.8100286430816
20
-6.26230917234659
30
0
41
1
10
-53.858409060093
20
-6.25510537770515
30
0
41
1
10
-53.930507607687
20
-6.25719119578449
30
0
41
1
10
-53.9548847131617
20
-6.26004287846277
30
0
41
1
10
-54.0024268232708
20
-6.26975628298462
30
0
41
1
10
-54.025531470073
20
-6.27654559824734
30
0
41
1
10
-54.0930893921825
20
-6.30200607369946
30
0
41
1
10
-54.136092797726
20
-6.32609087475549
30
0
41
1
10
-54.2534188607808
20
-6.41013429612562
30
0
41
1
10
-54.3194596979378
20
-6.48308041368765
30
0
41
1
10
-54.4306544823114
20
-6.63915672058906
30
0
41
1
10
-54.4771151388184
20
-6.72418194167685
30
0
41
1
10
-54.5162227297291
20
-6.81204395564961
30
0
0
SPLINE
5
208
100
AcDbEntity
8
SK1
62
256
6
ByLayer
370
-1
48
1
60
0
100
AcDbSpline
70
4
71
3
72
8
73
4
40
0
40
0
40
0
40
0
40
1
40
1
40
1
40
1
41
1
10
-53.6338144512151
20
6.34034179467457
30
0
41
1
10
-53.292222119692
20
6.56578790669803
30
0
41
1
10
-52.9473802440142
20
6.78469639798695
30
0
41
1
10
-52.6000000000004
20
6.99849805315478
30
0
0
SPLINE
5
209
100
AcDbEntity
8
SK1
62
256
6
ByLayer
370
-1
48
1
60
0
100
AcDbSpline
70
4
71
3
72
8
73
4
40
0
40
0
40
0
40
0
40
1
40
1
40
1
40
1
41
1
10
-55
20
-6.99849805315392
30
0
41
1
10
-55.3648529633576
20
-6.34700451336727
30
0
41
1
10
-55.7026345426883
20
-5.68249326840734
30
0
41
1
10
-56
20
-4.99854728896301
30
0
0
SPLINE
5
20A
100
AcDbEntity
8
SK1
62
256
6
ByLayer
370
-1
48
1
60
0
100
AcDbSpline
70
4
71
3
72
8
73
4
40
0
40
0
40
0
40
0
40
1
40
1
40
1
40
1
41
1
10
-56.0000000000001
20
4.99854728896315
30
0
41
1
10
-55.7019755215914
20
5.68400902895925
30
0
41
1
10
-55.3641473109835
20
6.34826454962635
30
0
41
1
10
-55
20
6.99849805315404
30
0
0
SPLINE
5
20B
100
AcDbEntity
8
SK1
62
256
6
ByLayer
370
-1
48
1
60
0
100
AcDbSpline
70
4
71
3
72
8
73
4
40
0
40
0
40
0
40
0
40
1
40
1
40
1
40
1
41
1
10
-52.6000000000004
20
-6.99849805315466
30
0
41
1
10
-52.9473802440142
20
-6.78469639798683
30
0
41
1
10
-53.292222119692
20
-6.56578790669792
30
0
41
1
10
-53.6338144512151
20
-6.34034179467449
30
0
0
SPLINE
5
20C
100
AcDbEntity
8
SK1
62
256
6
ByLayer
370
-1
48
1
60
0
100
AcDbSpline
70
4
71
3
72
8
73
4
40
0
40
0
40
0
40
0
40
1
40
1
40
1
40
1
41
1
10
-54.516222729729
20
-6.81204395564961
30
0
41
1
10
-54.5439393896427
20
-6.87431425928901
30
0
41
1
10
-54.5718676648179
20
-6.93646419260506
30
0
41
1
10
-54.6
20
-6.99849805315392
30
0
0
SPLINE
5
20D
100
AcDbEntity
8
SK1
62
256
6
ByLayer
370
-1
48
1
60
0
100
AcDbSpline
70
4
71
3
72
20
73
16
40
0
40
0
40
0
40
0
40
0.25
40
0.25
40
0.375
40
0.375
40
0.5
40
0.5
40
0.625
40
0.625
40
0.75
40
0.75
40
0.875
40
0.875
40
1
40
1
40
1
40
1
41
1
10
-54.5162227297291
20
6.81204395564973
30
0
41
1
10
-54.4772709483907
20
6.72453199501689
30
0
41
1
10
-54.4306845518237
20
6.63914767831511
30
0
41
1
10
-54.3469265709005
20
6.52165950363116
30
0
41
1
10
-54.3163253277688
20
6.4838456686486
30
0
41
1
10
-54.2501041764424
20
6.41421731653315
30
0
41
1
10
-54.2145625265326
20
6.38236090680323
30
0
41
1
10
-54.1369222939179
20
6.32662557921188
30
0
41
1
10
-54.0940013611407
20
6.30244517653043
30
0
41
1
10
-54.0037548865671
20
6.26824500575401
30
0
41
1
10
-53.9556146989167
20
6.25796898452336
30
0
41
1
10
-53.8582046255659
20
6.25504848254033
30
0
41
1
10
-53.8099490429817
20
6.26234710426348
30
0
41
1
10
-53.7177558858445
20
6.29178438547694
30
0
41
1
10
-53.6739857261288
20
6.31382932086129
30
0
41
1
10
-53.6338144512151
20
6.3403417946746
30
0
0
SPLINE
5
20E
100
AcDbEntity
8
SK1
62
256
6
ByLayer
370
-1
48
1
60
0
100
AcDbSpline
70
4
71
3
72
68
73
64
40
0
40
0
40
0
40
0
40
0.015625
40
0.015625
40
0.0312499999999999
40
0.0312499999999999
40
0.0468749999999999
40
0.0468749999999999
40
0.0624999999999998
40
0.0624999999999998
40
0.0781249999999998
40
0.0781249999999998
40
0.0937499999999997
40
0.0937499999999997
40
0.125
40
0.125
40
0.15625
40
0.15625
40
0.1875
40
0.1875
40
0.25
40
0.25
40
0.28125
40
0.28125
40
0.3125
40
0.3125
40
0.375
40
0.375
40
0.4375
40
0.4375
40
0.46875
40
0.46875
40
0.5
40
0.5
40
0.5625
40
0.5625
40
0.625
40
0.625
40
0.6875
40
0.6875
40
0.75
40
0.75
40
0.8125
40
0.8125
40
0.84375
40
0.84375
40
0.859375
40
0.859375
40
0.875
40
0.875
40
0.90625
40
0.90625
40
0.921875
40
0.921875
40
0.9375
40
0.9375
40
0.953125
40
0.953125
40
0.96875
40
0.96875
40
0.984375
40
0.984375
40
1
40
1
40
1
40
1
41
1
10
-6.5
20
-6.99849805315398
30
0
41
1
10
-6.4096424095903
20
-6.99849805315398
30
0
41
1
10
-6.31887533751086
20
-6.9924669932976
30
0
41
1
10
-6.13726564177031
20
-6.96792032412691
30
0
41
1
10
-6.04880117468585
20
-6.94974705973743
30
0
41
1
10
-5.87614107362342
20
-6.90252164638767
30
0
41
1
10
-5.79194795071362
20
-6.87346297167917
30
0
41
1
10
-5.62761370230606
20
-6.80484072991021
30
0
41
1
10
-5.54890965383427
20
-6.76585529638666
30
0
41
1
10
-5.39867973784189
20
-6.68016521734489
30
0
41
1
10
-5.32694157755157
20
-6.63336290342139
30
0
41
1
10
-5.18947718430641
20
-6.53250060019133
30
0
41
1
10
-5.12348684568531
20
-6.47818603126365
30
0
41
1
10
-4.93566988154686
20
-6.30674027670506
30
0
41
1
10
-4.82518003213681
20
-6.18267595320251
30
0
41
1
10
-4.62603001440084
20
-5.91868980815966
30
0
41
1
10
-4.53721391214785
20
-5.77825879287735
30
0
41
1
10
-4.37814656673874
20
-5.48542007115435
30
0
41
1
10
-4.30877871567313
20
-5.33483042069352
30
0
41
1
10
-4.12354082750574
20
-4.87237000918773
30
0
41
1
10
-4.03020120532329
20
-4.54989217457512
30
0
41
1
10
-3.91807144557504
20
-4.04887624586692
30
0
41
1
10
-3.88552668802802
20
-3.87909831441809
30
0
41
1
10
-3.82866773565829
20
-3.53847076026688
30
0
41
1
10
-3.80422767364425
20
-3.36705941807358
30
0
41
1
10
-3.74020579920568
20
-2.84975913582008
30
0
41
1
10
-3.70977205452269
20
-2.5008195214777
30
0
41
1
10
-3.66416163751657
20
-1.79552608157809
30
0
41
1
10
-3.64903771748126
20
-1.43916908464092
30
0
41
1
10
-3.63426182330713
20
-0.899256752194447
30
0
41
1
10
-3.63068669313998
20
-0.718167674817778
30
0
41
1
10
-3.62598899859142
20
-0.357375695924361
30
0
41
1
10
-3.62485343662013
20
-0.177302953433326
30
0
41
1
10
-3.62488496014578
20
0.361962578325034
30
0
41
1
10
-3.62938260517049
20
0.720207066315254
30
0
41
1
10
-3.64887950283875
20
1.43414621185846
30
0
41
1
10
-3.66385562324439
20
1.78984138878459
30
0
41
1
10
-3.70956223321124
20
2.49851694715909
30
0
41
1
10
-3.74045671775656
20
2.85271919963691
30
0
41
1
10
-3.82645737175278
20
3.54573152185978
30
0
41
1
10
-3.88145968550236
20
3.88575414429386
30
0
41
1
10
-4.03051920995767
20
4.55084385300148
30
0
41
1
10
-4.12523349261875
20
4.87761469840365
30
0
41
1
10
-4.31105593218689
20
5.33999328729007
30
0
41
1
10
-4.38041029850672
20
5.4899128326384
30
0
41
1
10
-4.49888437250004
20
5.70752713951083
30
0
41
1
10
-4.54079549132547
20
5.77885043055693
30
0
41
1
10
-4.63023926406612
20
5.91883578995851
30
0
41
1
10
-4.67776791395602
20
5.98743717509882
30
0
41
1
10
-4.82792587490127
20
6.18597359029033
30
0
41
1
10
-4.93858588995937
20
6.30966494075429
30
0
41
1
10
-5.12522766477915
20
6.47964028567972
30
0
41
1
10
-5.19131964832849
20
6.53397024553271
30
0
41
1
10
-5.32929892448178
20
6.63497116118225
30
0
41
1
10
-5.40112275258878
20
6.68167605293547
30
0
41
1
10
-5.55102867370906
20
6.76694298534821
30
0
41
1
10
-5.62910582891868
20
6.80551115138627
30
0
41
1
10
-5.79238720600742
20
6.87359848794483
30
0
41
1
10
-5.87738605118548
20
6.90291103819595
30
0
41
1
10
-6.04966564042599
20
6.94993403370722
30
0
41
1
10
-6.13756051826556
20
6.96792637087054
30
0
41
1
10
-6.31709499624006
20
6.99225989008042
30
0
41
1
10
-6.40924253974518
20
6.99849805315398
30
0
41
1
10
-6.5
20
6.99849805315398
30
0
0
SPLINE
5
20F
100
AcDbEntity
8
SK1
62
256
6
ByLayer
370
-1
48
1
60
0
100
AcDbSpline
70
4
71
3
72
8
73
4
40
0
40
0
40
0
40
0
40
1
40
1
40
1
40
1
41
1
10
-54.6
20
6.99849805315404
30
0
41
1
10
-54.5718676648179
20
6.93646419260517
30
0
41
1
10
-54.5439393896427
20
6.87431425928909
30
0
41
1
10
-54.516222729729
20
6.81204395564973
30
0
0
LINE
5
45
100
AcDbEntity
8
80
62
256
6
ByLayer
370
-1
48
1
60
0
100
AcDbLine
10
0
20
0
30
0
11
-7
21
0
31
0
39
0
210
0
220
0
230
1
0
LINE
5
46
100
AcDbEntity
8
81
62
256
6
ByLayer
370
-1
48
1
60
0
100
AcDbLine
10
105
20
0
30
0
11
112
21
0
31
0
39
0
210
0
220
0
230
1
0
LINE
5
47
100
AcDbEntity
8
SK1
62
256
6
ByLayer
370
-1
48
1
60
0
100
AcDbLine
10
-2
20
-12.49675
30
0
11
-1.551212
21
-12.287477
31
0
39
0
210
0
220
0
230
1
0
LINE
5
49
100
AcDbEntity
8
SK1
62
256
6
ByLayer
370
-1
48
1
60
0
100
AcDbLine
10
-1.551212
20
12.287477
30
0
11
-2
21
12.49675
31
0
39
0
210
0
220
0
230
1
0
LINE
5
4A
100
AcDbEntity
8
SK1
62
256
6
ByLayer
370
-1
48
1
60
0
100
AcDbLine
10
-2
20
12.49675
30
0
11
-52.6
21
12.49675
31
0
39
0
210
0
220
0
230
1
0
LINE
5
4B
100
AcDbEntity
8
SK1
62
256
6
ByLayer
370
-1
48
1
60
0
100
AcDbLine
10
-52.6
20
-12.49675
30
0
11
-2
21
-12.49675
31
0
39
0
210
0
220
0
230
1
0
LINE
5
4C
100
AcDbEntity
8
SK1
62
256
6
ByLayer
370
-1
48
1
60
0
100
AcDbLine
10
-0.15
20
12.25
30
0
11
-1.382165
21
12.25
31
0
39
0
210
0
220
0
230
1
0
LINE
5
4D
100
AcDbEntity
8
SK1
62
256
6
ByLayer
370
-1
48
1
60
0
100
AcDbLine
10
-1.382165
20
-12.25
30
0
11
-0.15
21
-12.25
31
0
39
0
210
0
220
0
230
1
0
LINE
5
4E
100
AcDbEntity
8
SK1
62
256
6
ByLayer
370
-1
48
1
60
0
100
AcDbLine
10
-54.6
20
-12.49675
30
0
11
-54.516223
21
-12.393294
31
0
39
0
210
0
220
0
230
1
0
LINE
5
4F
100
AcDbEntity
8
SK1
62
256
6
ByLayer
370
-1
48
1
60
0
100
AcDbLine
10
-54.516223
20
12.393294
30
0
11
-54.6
21
12.49675
31
0
39
0
210
0
220
0
230
1
0
LINE
5
50
100
AcDbEntity
8
SK1
62
256
6
ByLayer
370
-1
48
1
60
0
100
AcDbLine
10
-52.6
20
12.49675
30
0
11
-53.633814
21
12.140417
31
0
39
0
210
0
220
0
230
1
0
LINE
5
51
100
AcDbEntity
8
SK1
62
256
6
ByLayer
370
-1
48
1
60
0
100
AcDbLine
10
-53.633814
20
-12.140417
30
0
11
-52.6
21
-12.49675
31
0
39
0
210
0
220
0
230
1
0
LINE
5
52
100
AcDbEntity
8
SK1
62
256
6
ByLayer
370
-1
48
1
60
0
100
AcDbLine
10
-54.6
20
12.49675
30
0
11
-55
21
12.49675
31
0
39
0
210
0
220
0
230
1
0
LINE
5
53
100
AcDbEntity
8
SK1
62
256
6
ByLayer
370
-1
48
1
60
0
100
AcDbLine
10
-55
20
-12.49675
30
0
11
-54.6
21
-12.49675
31
0
39
0
210
0
220
0
230
1
0
LINE
5
54
100
AcDbEntity
8
SK1
62
256
6
ByLayer
370
-1
48
1
60
0
100
AcDbLine
10
-55
20
12.49675
30
0
11
-56
21
11.49675
31
0
39
0
210
0
220
0
230
1
0
LINE
5
55
100
AcDbEntity
8
SK1
62
256
6
ByLayer
370
-1
48
1
60
0
100
AcDbLine
10
-56
20
-11.49675
30
0
11
-55
21
-12.49675
31
0
39
0
210
0
220
0
230
1
0
LINE
5
56
100
AcDbEntity
8
1
62
256
6
ByLayer
370
-1
48
1
60
0
100
AcDbLine
10
5
20
16
30
0
11
0.2
21
16
31
0
39
0
210
0
220
0
230
1
0
LINE
5
58
100
AcDbEntity
8
1
62
256
6
ByLayer
370
-1
48
1
60
0
100
AcDbLine
10
0.2
20
-16
30
0
11
5
21
-16
31
0
39
0
210
0
220
0
230
1
0
LINE
5
59
100
AcDbEntity
8
1
62
256
6
ByLayer
370
-1
48
1
60
0
100
AcDbLine
10
0.2
20
16
30
0
11
0
21
15.8
31
0
39
0
210
0
220
0
230
1
0
LINE
5
5A
100
AcDbEntity
8
1
62
256
6
ByLayer
370
-1
48
1
60
0
100
AcDbLine
10
0
20
-15.8
30
0
11
0.2
21
-16
31
0
39
0
210
0
220
0
230
1
0
LINE
5
5B
100
AcDbEntity
8
1
62
256
6
ByLayer
370
-1
48
1
60
0
100
AcDbLine
10
52.616128
20
10.150765
30
0
11
23
21
10.32
31
0
39
0
210
0
220
0
230
1
0
LINE
5
5C
100
AcDbEntity
8
1
62
256
6
ByLayer
370
-1
48
1
60
0
100
AcDbLine
10
23
20
10.32
30
0
11
18
21
10.32
31
0
39
0
210
0
220
0
230
1
0
LINE
5
5D
100
AcDbEntity
8
1
62
256
6
ByLayer
370
-1
48
1
60
0
100
AcDbLine
10
18
20
-10.32
30
0
11
23
21
-10.32
31
0
39
0
210
0
220
0
230
1
0
LINE
5
5E
100
AcDbEntity
8
1
62
256
6
ByLayer
370
-1
48
1
60
0
100
AcDbLine
10
23
20
-10.32
30
0
11
45.311494
21
-10.192506
31
0
39
0
210
0
220
0
230
1
0
LINE
5
5F
100
AcDbEntity
8
1
62
256
6
ByLayer
370
-1
48
1
60
0
100
AcDbLine
10
97.037496
20
10.1
30
0
11
94.947477
21
10.1
31
0
39
0
210
0
220
0
230
1
0
LINE
5
60
100
AcDbEntity
8
SK4
62
256
6
ByLayer
370
-1
48
0.05
60
0
100
AcDbLine
10
105
20
0
30
0
11
-56
21
0
31
0
39
0
210
0
220
0
230
1
0
LINE
5
62
100
AcDbEntity
8
4
62
256
6
ByLayer
370
-1
48
0.05
60
0
100
AcDbLine
10
105
20
0
30
0
11
0
21
0
31
0
39
0
210
0
220
0
230
1
0
LINE
5
64
100
AcDbEntity
8
1
62
256
6
ByLayer
370
-1
48
1
60
0
100
AcDbLine
10
103.701943
20
2.973867
30
0
11
103.939367
21
2.961376
31
0
39
0
210
0
220
0
230
1
0
LINE
5
65
100
AcDbEntity
8
1
62
256
6
ByLayer
370
-1
48
1
60
0
100
AcDbLine
10
23
20
10.32
30
0
11
23
21
5.023475
31
0
39
0
210
0
220
0
230
1
0
LINE
5
66
100
AcDbEntity
8
1
62
256
6
ByLayer
370
-1
48
1
60
0
100
AcDbLine
10
97.045851
20
10.09955
30
0
11
97.152389
21
6.758428
31
0
39
0
210
0
220
0
230
1
0
LINE
5
67
100
AcDbEntity
8
1
62
256
6
ByLayer
370
-1
48
1
60
0
100
AcDbLine
10
97.125138
20
6.758428
30
0
11
97.152389
21
6.758428
31
0
39
0
210
0
220
0
230
1
0
LINE
5
68
100
AcDbEntity
8
1
62
256
6
ByLayer
370
-1
48
1
60
0
100
AcDbLine
10
0
20
15.8
30
0
11
0
21
-15.8
31
0
39
0
210
0
220
0
230
1
0
LINE
5
69
100
AcDbEntity
8
1
62
256
6
ByLayer
370
-1
48
1
60
0
100
AcDbLine
10
104.140514
20
-5.064025
30
0
11
103.886836
21
-4.93297
31
0
39
0
210
0
220
0
230
1
0
LINE
5
6A
100
AcDbEntity
8
1
62
256
6
ByLayer
370
-1
48
1
60
0
100
AcDbLine
10
18
20
-10.32
30
0
11
18
21
-7.564547
31
0
39
0
210
0
220
0
230
1
0
LINE
5
6B
100
AcDbEntity
8
1
62
256
6
ByLayer
370
-1
48
1
60
0
100
AcDbLine
10
104.474451
20
-5.925166
30
0
11
104.146563
21
-5.86285
31
0
39
0
210
0
220
0
230
1
0
LINE
5
6C
100
AcDbEntity
8
1
62
256
6
ByLayer
370
-1
48
1
60
0
100
AcDbLine
10
96.754595
20
4.209238
30
0
11
96.9812
21
4.209238
31
0
39
0
210
0
220
0
230
1
0
LINE
5
6D
100
AcDbEntity
8
1
62
256
6
ByLayer
370
-1
48
1
60
0
100
AcDbLine
10
103.940155
20
0.85707
30
0
11
103.866042
21
0.859652
31
0
39
0
210
0
220
0
230
1
0
LINE
5
6E
100
AcDbEntity
8
1
62
256
6
ByLayer
370
-1
48
1
60
0
100
AcDbLine
10
104.104701
20
-10.091472
30
0
11
104.474451
21
-5.925166
31
0
39
0
210
0
220
0
230
1
0
LINE
5
6F
100
AcDbEntity
8
1
62
256
6
ByLayer
370
-1
48
1
60
0
100
AcDbLine
10
97.319748
20
-10.091472
30
0
11
104.104701
21
-10.091472
31
0
39
0
210
0
220
0
230
1
0
LINE
5
70
100
AcDbEntity
8
1
62
256
6
ByLayer
370
-1
48
1
60
0
100
AcDbLine
10
18
20
10.32
30
0
11
18
21
6.332079
31
0
39
0
210
0
220
0
230
1
0
LINE
5
71
100
AcDbEntity
8
1
62
256
6
ByLayer
370
-1
48
1
60
0
100
AcDbLine
10
103.674781
20
-4.823418
30
0
11
103.444351
21
-4.704373
31
0
39
0
210
0
220
0
230
1
0
LINE
5
72
100
AcDbEntity
8
1
62
256
6
ByLayer
370
-1
48
1
60
0
100
AcDbLine
10
95.159319
20
6.234084
30
0
11
95.159319
21
10.099858
31
0
39
0
210
0
220
0
230
1
0
LINE
5
73
100
AcDbEntity
8
1
62
256
6
ByLayer
370
-1
48
1
60
0
100
AcDbLine
10
95.419311
20
1.930248
30
0
11
95.175859
21
1.092724
31
0
39
0
210
0
220
0
230
1
0
LINE
5
74
100
AcDbEntity
8
1
62
256
6
ByLayer
370
-1
48
1
60
0
100
AcDbLine
10
96.709977
20
5.608521
30
0
11
96.754595
21
4.209238
31
0
39
0
210
0
220
0
230
1
0
LINE
5
75
100
AcDbEntity
8
1
62
256
6
ByLayer
370
-1
48
1
60
0
100
AcDbLine
10
103.880904
20
0.887036
30
0
11
103.890818
21
0.886691
31
0
39
0
210
0
220
0
230
1
0
LINE
5
76
100
AcDbEntity
8
1
62
256
6
ByLayer
370
-1
48
1
60
0
100
AcDbLine
10
93.502618
20
10.093412
30
0
11
93.502618
21
6.544265
31
0
39
0
210
0
220
0
230
1
0
LINE
5
77
100
AcDbEntity
8
1
62
256
6
ByLayer
370
-1
48
1
60
0
100
AcDbLine
10
102.970825
20
0.862693
30
0
11
103.730862
21
2.964202
31
0
39
0
210
0
220
0
230
1
0
LINE
5
78
100
AcDbEntity
8
1
62
256
6
ByLayer
370
-1
48
1
60
0
100
AcDbLine
10
96.327349
20
4.065654
30
0
11
93.934695
21
5.135002
31
0
39
0
210
0
220
0
230
1
0
LINE
5
79
100
AcDbEntity
8
1
62
256
6
ByLayer
370
-1
48
1
60
0
100
AcDbLine
10
97.197547
20
6.790111
30
0
11
97.347587
21
6.790111
31
0
39
0
210
0
220
0
230
1
0
LINE
5
7A
100
AcDbEntity
8
1
62
256
6
ByLayer
370
-1
48
1
60
0
100
AcDbLine
10
103.940155
20
0.85707
30
0
11
103.890818
21
0.886691
31
0
39
0
210
0
220
0
230
1
0
LINE
5
7B
100
AcDbEntity
8
1
62
256
6
ByLayer
370
-1
48
1
60
0
100
AcDbLine
10
96.709977
20
5.608521
30
0
11
96.936582
21
5.608521
31
0
39
0
210
0
220
0
230
1
0
LINE
5
7C
100
AcDbEntity
8
1
62
256
6
ByLayer
370
-1
48
1
60
0
100
AcDbLine
10
103.939367
20
2.961376
30
0
11
103.730862
21
2.964202
31
0
39
0
210
0
220
0
230
1
0
LINE
5
7D
100
AcDbEntity
8
1
62
256
6
ByLayer
370
-1
48
1
60
0
100
AcDbLine
10
97.359741
20
2.893088
30
0
11
97.410109
21
2.893088
31
0
39
0
210
0
220
0
230
1
0
LINE
5
7E
100
AcDbEntity
8
1
62
256
6
ByLayer
370
-1
48
1
60
0
100
AcDbLine
10
61.5
20
9.807672
30
0
11
61.5
21
-5.277561
31
0
39
0
210
0
220
0
230
1
0
LINE
5
7F
100
AcDbEntity
8
1
62
256
6
ByLayer
370
-1
48
1
60
0
100
AcDbLine
10
95.933474
20
3.334818
30
0
11
95.905137
21
3.334818
31
0
39
0
210
0
220
0
230
1
0
LINE
5
80
100
AcDbEntity
8
1
62
256
6
ByLayer
370
-1
48
1
60
0
100
AcDbLine
10
95.159319
20
6.234084
30
0
11
93.502618
21
6.544265
31
0
39
0
210
0
220
0
230
1
0
LINE
5
81
100
AcDbEntity
8
1
62
256
6
ByLayer
370
-1
48
1
60
0
100
AcDbLine
10
103.730862
20
2.964202
30
0
11
103.552389
21
2.973866
31
0
39
0
210
0
220
0
230
1
0
LINE
5
82
100
AcDbEntity
8
1
62
256
6
ByLayer
370
-1
48
1
60
0
100
AcDbLine
10
95.203799
20
3.660931
30
0
11
95.933474
21
3.334818
31
0
39
0
210
0
220
0
230
1
0
LINE
5
83
100
AcDbEntity
8
1
62
256
6
ByLayer
370
-1
48
1
60
0
100
AcDbLine
10
0.2
20
16
30
0
11
0.2
21
-16
31
0
39
0
210
0
220
0
230
1
0
LINE
5
84
100
AcDbEntity
8
1
62
256
6
ByLayer
370
-1
48
1
60
0
100
AcDbLine
10
96.936582
20
5.608521
30
0
11
96.9812
21
4.209238
31
0
39
0
210
0
220
0
230
1
0
LINE
5
85
100
AcDbEntity
8
1
62
256
6
ByLayer
370
-1
48
1
60
0
100
AcDbLine
10
103.855867
20
0.355255
30
0
11
102.974264
21
0.810709
31
0
39
0
210
0
220
0
230
1
0
LINE
5
86
100
AcDbEntity
8
1
62
256
6
ByLayer
370
-1
48
1
60
0
100
AcDbLine
10
103.943294
20
0.858073
30
0
11
104.055971
21
3.158336
31
0
39
0
210
0
220
0
230
1
0
LINE
5
87
100
AcDbEntity
8
1
62
256
6
ByLayer
370
-1
48
1
60
0
100
AcDbLine
10
97.926607
20
0.563755
30
0
11
98.530425
21
2.641014
31
0
39
0
210
0
220
0
230
1
0
LINE
5
88
100
AcDbEntity
8
1
62
256
6
ByLayer
370
-1
48
1
60
0
100
AcDbLine
10
103.940155
20
0.85707
30
0
11
103.943294
21
0.858073
31
0
39
0
210
0
220
0
230
1
0
LINE
5
89
100
AcDbEntity
8
1
62
256
6
ByLayer
370
-1
48
1
60
0
100
AcDbLine
10
103.552389
20
2.973866
30
0
11
103.701888
21
2.973866
31
0
39
0
210
0
220
0
230
1
0
LINE
5
8A
100
AcDbEntity
8
1
62
256
6
ByLayer
370
-1
48
1
60
0
100
AcDbLine
10
99.068099
20
2.816673
30
0
11
103.552389
21
2.973866
31
0
39
0
210
0
220
0
230
1
0
LINE
5
8B
100
AcDbEntity
8
1
62
256
6
ByLayer
370
-1
48
1
60
0
100
AcDbLine
10
91.841651
20
6.04
30
0
11
93.566556
21
6.04
31
0
39
0
210
0
220
0
230
1
0
LINE
5
8C
100
AcDbEntity
8
1
62
256
6
ByLayer
370
-1
48
1
60
0
100
AcDbLine
10
23
20
-10.32
30
0
11
23
21
-8.455808
31
0
39
0
210
0
220
0
230
1
0
LINE
5
8D
100
AcDbEntity
8
1
62
256
6
ByLayer
370
-1
48
1
60
0
100
AcDbLine
10
103.857091
20
0.330817
30
0
11
104.140514
21
-5.064025
31
0
39
0
210
0
220
0
230
1
0
LINE
5
8E
100
AcDbEntity
8
1
62
256
6
ByLayer
370
-1
48
1
60
0
100
AcDbLine
10
97.125138
20
6.758428
30
0
11
97.01866
21
10.097687
31
0
39
0
210
0
220
0
230
1
0
LINE
5
8F
100
AcDbEntity
8
1
62
256
6
ByLayer
370
-1
48
1
60
0
100
AcDbLine
10
104.140514
20
-5.064025
30
0
11
104.129306
21
-5.19031
31
0
39
0
210
0
220
0
230
1
0
LINE
5
90
100
AcDbEntity
8
1
62
256
6
ByLayer
370
-1
48
1
60
0
100
AcDbLine
10
5
20
16
30
0
11
5
21
-16
31
0
39
0
210
0
220
0
230
1
0
LINE
5
91
100
AcDbEntity
8
SK1
62
256
6
ByLayer
370
-1
48
1
60
0
100
AcDbLine
10
-0.15
20
12.25
30
0
11
-0.15
21
-12.25
31
0
39
0
210
0
220
0
230
1
0
LINE
5
92
100
AcDbEntity
8
1
62
256
6
ByLayer
370
-1
48
1
60
0
100
AcDbLine
10
97.59258
20
10.320852
30
0
11
97.612359
21
10.254165
31
0
39
0
210
0
220
0
230
1
0
LINE
5
93
100
AcDbEntity
8
1
62
256
6
ByLayer
370
-1
48
1
60
0
100
AcDbLine
10
104.617617
20
9.84594
30
0
11
104.547659
21
9.843506
31
0
39
0
210
0
220
0
230
1
0
LINE
5
94
100
AcDbEntity
8
1
62
256
6
ByLayer
370
-1
48
1
60
0
100
AcDbLine
10
104.11637
20
3.160482
30
0
11
104.113414
21
3.230173
31
0
39
0
210
0
220
0
230
1
0
LINE
5
95
100
AcDbEntity
8
1
62
256
6
ByLayer
370
-1
48
1
60
0
100
AcDbLine
10
97.86701
20
10.345512
30
0
11
97.869534
21
10.275846
31
0
39
0
210
0
220
0
230
1
0
LINE
5
96
100
AcDbEntity
8
1
62
256
6
ByLayer
370
-1
48
1
60
0
100
AcDbLine
10
97.462315
20
3.523767
30
0
11
97.531151
21
3.527518
31
0
39
0
210
0
220
0
230
1
0
LINE
5
97
100
AcDbEntity
8
1
62
256
6
ByLayer
370
-1
48
1
60
0
100
AcDbLine
10
104.225189
20
10.553352
30
0
11
104.209031
21
10.485406
31
0
39
0
210
0
220
0
230
1
0
LINE
5
98
100
AcDbEntity
8
1
62
256
6
ByLayer
370
-1
48
1
60
0
100
AcDbLine
10
98.214873
20
2.95361
30
0
11
98.211917
21
3.023301
31
0
39
0
210
0
220
0
230
1
0
LINE
5
99
100
AcDbEntity
8
1
62
256
6
ByLayer
370
-1
48
1
60
0
100
AcDbLine
10
104.823702
20
3.9219
30
0
11
104.753744
21
3.919466
31
0
39
0
210
0
220
0
230
1
0
LINE
5
9A
100
AcDbEntity
8
1
62
256
6
ByLayer
370
-1
48
1
60
0
100
AcDbLine
10
104.157961
20
10.561041
30
0
11
104.157429
21
10.491308
31
0
39
0
210
0
220
0
230
1
0
LINE
5
9B
100
AcDbEntity
8
1
62
256
6
ByLayer
370
-1
48
1
60
0
100
AcDbLine
10
98.075452
20
2.949823
30
0
11
98.073809
21
3.019548
31
0
39
0
210
0
220
0
230
1
0
LINE
5
9C
100
AcDbEntity
8
1
62
256
6
ByLayer
370
-1
48
1
60
0
100
AcDbLine
10
98.124255
20
2.950848
30
0
11
98.121931
21
3.020558
31
0
39
0
210
0
220
0
230
1
0
LINE
5
9D
100
AcDbEntity
8
1
62
256
6
ByLayer
370
-1
48
1
60
0
100
AcDbLine
10
104.611655
20
9.985816
30
0
11
104.541755
21
9.982066
31
0
39
0
210
0
220
0
230
1
0
LINE
5
9E
100
AcDbEntity
8
1
62
256
6
ByLayer
370
-1
48
1
60
0
100
AcDbLine
10
98.214873
20
2.95361
30
0
11
104.11637
21
3.160482
31
0
39
0
210
0
220
0
230
1
0
LINE
5
9F
100
AcDbEntity
8
1
62
256
6
ByLayer
370
-1
48
1
60
0
100
AcDbLine
10
97.456352
20
3.663644
30
0
11
97.525246
21
3.666077
31
0
39
0
210
0
220
0
230
1
0
LINE
5
A0
100
AcDbEntity
8
1
62
256
6
ByLayer
370
-1
48
1
60
0
100
AcDbLine
10
104.82875
20
3.621894
30
0
11
104.75875
21
3.621894
31
0
39
0
210
0
220
0
230
1
0
LINE
5
A1
100
AcDbEntity
8
1
62
256
6
ByLayer
370
-1
48
1
60
0
100
AcDbLine
10
97.250267
20
9.587684
30
0
11
97.456352
21
3.663644
31
0
39
0
210
0
220
0
230
1
0
LINE
5
A2
100
AcDbEntity
8
1
62
256
6
ByLayer
370
-1
48
1
60
0
100
AcDbLine
10
97.247515
20
9.678648
30
0
11
97.316429
21
9.680447
31
0
39
0
210
0
220
0
230
1
0
LINE
5
A3
100
AcDbEntity
8
1
62
256
6
ByLayer
370
-1
48
1
60
0
100
AcDbLine
10
104.614041
20
9.936875
30
0
11
104.544108
21
9.933807
31
0
39
0
210
0
220
0
230
1
0
LINE
5
A4
100
AcDbEntity
8
1
62
256
6
ByLayer
370
-1
48
1
60
0
100
AcDbLine
10
104.827474
20
3.781947
30
0
11
104.757483
21
3.780831
31
0
39
0
210
0
220
0
230
1
0
LINE
5
A5
100
AcDbEntity
8
1
62
256
6
ByLayer
370
-1
48
1
60
0
100
AcDbLine
10
103.998517
20
10.55976
30
0
11
103.999097
21
10.490036
31
0
39
0
210
0
220
0
230
1
0
LINE
5
A6
100
AcDbEntity
8
1
62
256
6
ByLayer
370
-1
48
1
60
0
100
AcDbLine
10
104.481389
20
3.188732
30
0
11
104.460547
21
3.255419
31
0
39
0
210
0
220
0
230
1
0
LINE
5
A7
100
AcDbEntity
8
1
62
256
6
ByLayer
370
-1
48
1
60
0
100
AcDbLine
10
104.589475
20
10.212353
30
0
11
104.52251
21
10.191965
31
0
39
0
210
0
220
0
230
1
0
LINE
5
A8
100
AcDbEntity
8
1
62
256
6
ByLayer
370
-1
48
1
60
0
100
AcDbLine
10
97.459928
20
3.572709
30
0
11
97.528797
21
3.575776
31
0
39
0
210
0
220
0
230
1
0
LINE
5
A9
100
AcDbEntity
8
1
62
256
6
ByLayer
370
-1
48
1
60
0
100
AcDbLine
10
104.82109
20
3.554409
30
0
11
104.752871
21
3.570095
31
0
39
0
210
0
220
0
230
1
0
LINE
5
AA
100
AcDbEntity
8
1
62
256
6
ByLayer
370
-1
48
1
60
0
100
AcDbLine
10
97.250267
20
9.587684
30
0
11
97.319161
21
9.590117
31
0
39
0
210
0
220
0
230
1
0
LINE
5
AB
100
AcDbEntity
8
1
62
256
6
ByLayer
370
-1
48
1
60
0
100
AcDbLine
10
104.414858
20
3.176354
30
0
11
104.409481
21
3.245918
31
0
39
0
210
0
220
0
230
1
0
LINE
5
AC
100
AcDbEntity
8
1
62
256
6
ByLayer
370
-1
48
1
60
0
100
AcDbLine
10
97.916008
20
2.948542
30
0
11
97.915477
21
3.018276
31
0
39
0
210
0
220
0
230
1
0
LINE
5
AD
100
AcDbEntity
8
1
62
256
6
ByLayer
370
-1
48
1
60
0
100
AcDbLine
10
104.826454
20
3.830936
30
0
11
104.756477
21
3.829137
31
0
39
0
210
0
220
0
230
1
0
LINE
5
AE
100
AcDbEntity
8
1
62
256
6
ByLayer
370
-1
48
1
60
0
100
AcDbLine
10
103.859096
20
10.555974
30
0
11
97.957599
21
10.349102
31
0
39
0
210
0
220
0
230
1
0
LINE
5
AF
100
AcDbEntity
8
1
62
256
6
ByLayer
370
-1
48
1
60
0
100
AcDbLine
10
97.472164
20
3.364015
30
0
11
97.540931
21
3.368879
31
0
39
0
210
0
220
0
230
1
0
LINE
5
B0
100
AcDbEntity
8
1
62
256
6
ByLayer
370
-1
48
1
60
0
100
AcDbLine
10
97.252879
20
9.955175
30
0
11
97.320035
21
9.939488
31
0
39
0
210
0
220
0
230
1
0
LINE
5
B1
100
AcDbEntity
8
1
62
256
6
ByLayer
370
-1
48
1
60
0
100
AcDbLine
10
97.245219
20
9.88769
30
0
11
97.314156
21
9.88769
31
0
39
0
210
0
220
0
230
1
0
LINE
5
B2
100
AcDbEntity
8
1
62
256
6
ByLayer
370
-1
48
1
60
0
100
AcDbLine
10
104.823702
20
3.9219
30
0
11
104.617617
21
9.84594
31
0
39
0
210
0
220
0
230
1
0
LINE
5
B3
100
AcDbEntity
8
1
62
256
6
ByLayer
370
-1
48
1
60
0
100
AcDbLine
10
97.818255
20
10.343117
30
0
11
97.821459
21
10.273484
31
0
39
0
210
0
220
0
230
1
0
LINE
5
B4
100
AcDbEntity
8
1
62
256
6
ByLayer
370
-1
48
1
60
0
100
AcDbLine
10
97.659111
20
10.33323
30
0
11
97.663425
21
10.263666
31
0
39
0
210
0
220
0
230
1
0
LINE
5
B5
100
AcDbEntity
8
1
62
256
6
ByLayer
370
-1
48
1
60
0
100
AcDbLine
10
104.601805
20
10.145569
30
0
11
104.531974
21
10.140704
31
0
39
0
210
0
220
0
230
1
0
LINE
5
B6
100
AcDbEntity
8
1
62
256
6
ByLayer
370
-1
48
1
60
0
100
AcDbLine
10
104.206959
20
3.164072
30
0
11
104.203371
21
3.233738
31
0
39
0
210
0
220
0
230
1
0
LINE
5
B7
100
AcDbEntity
8
1
62
256
6
ByLayer
370
-1
48
1
60
0
100
AcDbLine
10
97.957599
20
10.349102
30
0
11
97.959492
21
10.279411
31
0
39
0
210
0
220
0
230
1
0
LINE
5
B8
100
AcDbEntity
8
1
62
256
6
ByLayer
370
-1
48
1
60
0
100
AcDbLine
10
104.255714
20
3.166467
30
0
11
104.251446
21
3.2361
31
0
39
0
210
0
220
0
230
1
0
LINE
5
B9
100
AcDbEntity
8
1
62
256
6
ByLayer
370
-1
48
1
60
0
100
AcDbLine
10
103.949714
20
10.558736
30
0
11
103.950975
21
10.489026
31
0
39
0
210
0
220
0
230
1
0
LINE
5
BA
100
AcDbEntity
8
1
62
256
6
ByLayer
370
-1
48
1
60
0
100
AcDbLine
10
97.484495
20
3.297231
30
0
11
97.550396
21
3.317619
31
0
39
0
210
0
220
0
230
1
0
LINE
5
BB
100
AcDbEntity
8
1
62
256
6
ByLayer
370
-1
48
1
60
0
100
AcDbLine
10
97.246495
20
9.727637
30
0
11
97.315423
21
9.728753
31
0
39
0
210
0
220
0
230
1
0
LINE
5
BC
100
AcDbEntity
8
1
62
256
6
ByLayer
370
-1
48
1
60
0
100
AcDbLine
10
103.859096
20
10.555974
30
0
11
103.860989
21
10.486283
31
0
39
0
210
0
220
0
230
1
0
LINE
5
BD
100
AcDbEntity
8
1
62
256
6
ByLayer
370
-1
48
1
60
0
100
AcDbLine
10
97.84878
20
2.956231
30
0
11
97.863875
21
3.024178
31
0
39
0
210
0
220
0
230
1
0
LINE
5
BE
100
AcDbEntity
8
1
62
256
6
ByLayer
370
-1
48
1
60
0
100
AcDbLine
10
104.382498
20
-3.080323
30
0
11
104.672761
21
-2.995272
31
0
39
0
210
0
220
0
230
1
0
LINE
5
BF
100
AcDbEntity
8
1
62
256
6
ByLayer
370
-1
48
1
60
0
100
AcDbLine
10
104.128466
20
-2.098356
30
0
11
104.028603
21
-2.103577
31
0
39
0
210
0
220
0
230
1
0
LINE
5
C0
100
AcDbEntity
8
1
62
256
6
ByLayer
370
-1
48
1
60
0
100
AcDbLine
10
104.943856
20
-5.126639
30
0
11
104.999695
21
-3.531509
31
0
39
0
210
0
220
0
230
1
0
LINE
5
C1
100
AcDbEntity
8
1
62
256
6
ByLayer
370
-1
48
1
60
0
100
AcDbLine
10
104.683779
20
-2.257667
30
0
11
104.450808
21
-2.137309
31
0
39
0
210
0
220
0
230
1
0
LINE
5
C2
100
AcDbEntity
8
1
62
256
6
ByLayer
370
-1
48
1
60
0
100
AcDbLine
10
104.106849
20
-4.423384
30
0
11
104.183633
21
-4.342185
31
0
39
0
210
0
220
0
230
1
0
LINE
5
C3
100
AcDbEntity
8
1
62
256
6
ByLayer
370
-1
48
1
60
0
100
AcDbLine
10
104.11572
20
-5.759276
30
0
11
104.615171
21
-5.577934
31
0
39
0
210
0
220
0
230
1
0
LINE
5
C4
100
AcDbEntity
8
1
62
256
6
ByLayer
370
-1
48
1
60
0
100
AcDbLine
10
104.442586
20
-3.363039
30
0
11
104.765173
21
-3.430082
31
0
39
0
210
0
220
0
230
1
0
LINE
5
C5
100
AcDbEntity
8
1
62
256
6
ByLayer
370
-1
48
1
60
0
100
AcDbLine
10
104.31962
20
-4.01733
30
0
11
104.342646
21
-3.359558
31
0
39
0
210
0
220
0
230
1
0
LINE
5
C6
100
AcDbEntity
8
1
62
256
6
ByLayer
370
-1
48
1
60
0
100
AcDbLine
10
104.256375
20
-4.410638
30
0
11
104.851781
21
-5.112448
31
0
39
0
210
0
220
0
230
1
0
LINE
5
C7
100
AcDbEntity
8
1
62
256
6
ByLayer
370
-1
48
1
60
0
100
AcDbLine
10
104.128466
20
-2.098356
30
0
11
104.450808
21
-2.137309
31
0
39
0
210
0
220
0
230
1
0
LINE
5
C8
100
AcDbEntity
8
1
62
256
6
ByLayer
370
-1
48
1
60
0
100
AcDbLine
10
104.028603
20
-2.103577
30
0
11
103.948134
21
-0.571887
31
0
39
0
210
0
220
0
230
1
0
LINE
5
C9
100
AcDbEntity
8
1
62
256
6
ByLayer
370
-1
48
1
60
0
100
AcDbLine
10
103.882105
20
-0.145231
30
0
11
104.227261
21
0.132806
31
0
39
0
210
0
220
0
230
1
0
LINE
5
CA
100
AcDbEntity
8
1
62
256
6
ByLayer
370
-1
48
1
60
0
100
AcDbLine
10
104.999695
20
-3.531509
30
0
11
104.766913
21
-3.391071
31
0
39
0
210
0
220
0
230
1
0
LINE
5
CB
100
AcDbEntity
8
1
62
256
6
ByLayer
370
-1
48
1
60
0
100
AcDbLine
10
104.683779
20
-2.257667
30
0
11
104.593428
21
-0.537866
31
0
39
0
210
0
220
0
230
1
0
LINE
5
CC
100
AcDbEntity
8
1
62
256
6
ByLayer
370
-1
48
1
60
0
100
AcDbLine
10
104.765173
20
-3.430082
30
0
11
104.742147
21
-4.087855
31
0
39
0
210
0
220
0
230
1
0
LINE
5
CD
100
AcDbEntity
8
1
62
256
6
ByLayer
370
-1
48
1
60
0
100
AcDbLine
10
104.893882
20
-3.04888
30
0
11
104.685663
21
-3.020846
31
0
39
0
210
0
220
0
230
1
0
LINE
5
CE
100
AcDbEntity
8
1
62
256
6
ByLayer
370
-1
48
1
60
0
100
AcDbLine
10
104.41956
20
-4.020812
30
0
11
104.442586
21
-3.363039
31
0
39
0
210
0
220
0
230
1
0
LINE
5
CF
100
AcDbEntity
8
1
62
256
6
ByLayer
370
-1
48
1
60
0
100
AcDbLine
10
104.370339
20
-0.605619
30
0
11
104.047997
21
-0.566666
31
0
39
0
210
0
220
0
230
1
0
LINE
5
D0
100
AcDbEntity
8
1
62
256
6
ByLayer
370
-1
48
1
60
0
100
AcDbLine
10
104.128466
20
-2.098356
30
0
11
104.047997
21
-0.566666
31
0
39
0
210
0
220
0
230
1
0
LINE
5
D1
100
AcDbEntity
8
1
62
256
6
ByLayer
370
-1
48
1
60
0
100
AcDbLine
10
104.563959
20
-0.393377
30
0
11
104.196194
21
0.61459
31
0
39
0
210
0
220
0
230
1
0
LINE
5
D2
100
AcDbEntity
8
1
62
256
6
ByLayer
370
-1
48
1
60
0
100
AcDbLine
10
104.143603
20
0.584522
30
0
11
104.227261
21
0.132806
31
0
39
0
210
0
220
0
230
1
0
LINE
5
D3
100
AcDbEntity
8
1
62
256
6
ByLayer
370
-1
48
1
60
0
100
AcDbLine
10
104.41956
20
-4.020812
30
0
11
104.742147
21
-4.087855
31
0
39
0
210
0
220
0
230
1
0
LINE
5
D4
100
AcDbEntity
8
1
62
256
6
ByLayer
370
-1
48
1
60
0
100
AcDbLine
10
104.196194
20
0.61459
30
0
11
104.143603
21
0.584522
31
0
39
0
210
0
220
0
230
1
0
LINE
5
D5
100
AcDbEntity
8
1
62
256
6
ByLayer
370
-1
48
1
60
0
100
AcDbLine
10
104.563959
20
-0.393377
30
0
11
104.344424
21
-0.312053
31
0
39
0
210
0
220
0
230
1
0
LINE
5
D6
100
AcDbEntity
8
1
62
256
6
ByLayer
370
-1
48
1
60
0
100
AcDbLine
10
104.114084
20
-4.561109
30
0
11
104.256375
21
-4.410638
31
0
39
0
210
0
220
0
230
1
0
LINE
5
D7
100
AcDbEntity
8
1
62
256
6
ByLayer
370
-1
48
1
60
0
100
AcDbLine
10
104.943856
20
-5.126639
30
0
11
104.839024
21
-4.989628
31
0
39
0
210
0
220
0
230
1
0
LINE
5
D8
100
AcDbEntity
8
1
62
256
6
ByLayer
370
-1
48
1
60
0
100
AcDbLine
10
104.615171
20
-5.577934
30
0
11
104.542785
21
-5.483329
31
0
39
0
210
0
220
0
230
1
0
LINE
5
D9
100
AcDbEntity
8
1
62
256
6
ByLayer
370
-1
48
1
60
0
100
AcDbLine
10
104.450808
20
-2.137309
30
0
11
104.370339
21
-0.605619
31
0
39
0
210
0
220
0
230
1
0
LINE
5
DA
100
AcDbEntity
8
1
62
256
6
ByLayer
370
-1
48
1
60
0
100
AcDbLine
10
104.169547
20
-3.346552
30
0
11
104.146521
21
-4.004325
31
0
39
0
210
0
220
0
230
1
0
LINE
5
DB
100
AcDbEntity
8
1
62
256
6
ByLayer
370
-1
48
1
60
0
100
AcDbLine
10
104.542785
20
-5.483329
30
0
11
104.110547
21
-5.508619
31
0
39
0
210
0
220
0
230
1
0
LINE
5
DC
100
AcDbEntity
8
1
62
256
6
ByLayer
370
-1
48
1
60
0
100
AcDbLine
10
104.593428
20
-0.537866
30
0
11
104.367837
21
-0.454299
31
0
39
0
210
0
220
0
230
1
0
LINE
5
DD
100
AcDbEntity
8
SK1
62
256
6
ByLayer
370
-1
48
1
60
0
100
AcDbLine
10
-2
20
-12.49675
30
0
11
-2
21
12.49675
31
0
39
0
210
0
220
0
230
1
0
LINE
5
DE
100
AcDbEntity
8
SK1
62
256
6
ByLayer
370
-1
48
1
60
0
100
AcDbLine
10
-52.6
20
6.998498
30
0
11
-52.6
21
12.49675
31
0
39
0
210
0
220
0
230
1
0
LINE
5
DF
100
AcDbEntity
8
SK1
62
256
6
ByLayer
370
-1
48
1
60
0
100
AcDbLine
10
-52.6
20
-12.49675
30
0
11
-52.6
21
-6.998498
31
0
39
0
210
0
220
0
230
1
0
LINE
5
E0
100
AcDbEntity
8
SK1
62
256
6
ByLayer
370
-1
48
1
60
0
100
AcDbLine
10
-6.5
20
6.998498
30
0
11
-6.5
21
-6.998498
31
0
39
0
210
0
220
0
230
1
0
LINE
5
E1
100
AcDbEntity
8
SK1
62
256
6
ByLayer
370
-1
48
1
60
0
100
AcDbLine
10
-6.5
20
-6.998498
30
0
11
-52.6
21
-6.998498
31
0
39
0
210
0
220
0
230
1
0
LINE
5
E2
100
AcDbEntity
8
SK1
62
256
6
ByLayer
370
-1
48
1
60
0
100
AcDbLine
10
-52.6
20
6.998498
30
0
11
-6.5
21
6.998498
31
0
39
0
210
0
220
0
230
1
0
LINE
5
E3
100
AcDbEntity
8
SK1
62
256
6
ByLayer
370
-1
48
1
60
0
100
AcDbLine
10
-55
20
6.998498
30
0
11
-54.6
21
6.998498
31
0
39
0
210
0
220
0
230
1
0
LINE
5
E4
100
AcDbEntity
8
SK1
62
256
6
ByLayer
370
-1
48
1
60
0
100
AcDbLine
10
-54.516223
20
-6.812044
30
0
11
-54.516223
21
-12.393294
31
0
39
0
210
0
220
0
230
1
0
LINE
5
E5
100
AcDbEntity
8
SK1
62
256
6
ByLayer
370
-1
48
1
60
0
100
AcDbLine
10
-54.516223
20
12.393294
30
0
11
-54.516223
21
6.812044
31
0
39
0
210
0
220
0
230
1
0
LINE
5
E6
100
AcDbEntity
8
SK1
62
256
6
ByLayer
370
-1
48
1
60
0
100
AcDbLine
10
-54.6
20
-12.49675
30
0
11
-54.6
21
-6.998498
31
0
39
0
210
0
220
0
230
1
0
LINE
5
E7
100
AcDbEntity
8
SK1
62
256
6
ByLayer
370
-1
48
1
60
0
100
AcDbLine
10
-54.6
20
6.998498
30
0
11
-54.6
21
12.49675
31
0
39
0
210
0
220
0
230
1
0
LINE
5
E8
100
AcDbEntity
8
SK1
62
256
6
ByLayer
370
-1
48
1
60
0
100
AcDbLine
10
-1.382165
20
12.25
30
0
11
-1.382165
21
-12.25
31
0
39
0
210
0
220
0
230
1
0
LINE
5
E9
100
AcDbEntity
8
SK1
62
256
6
ByLayer
370
-1
48
1
60
0
100
AcDbLine
10
-56
20
-4.998547
30
0
11
-56
21
-11.49675
31
0
39
0
210
0
220
0
230
1
0
LINE
5
EA
100
AcDbEntity
8
SK1
62
256
6
ByLayer
370
-1
48
1
60
0
100
AcDbLine
10
-56
20
11.49675
30
0
11
-56
21
4.998547
31
0
39
0
210
0
220
0
230
1
0
LINE
5
EB
100
AcDbEntity
8
SK1
62
256
6
ByLayer
370
-1
48
1
60
0
100
AcDbLine
10
-56
20
4.998547
30
0
11
-56
21
-4.998547
31
0
39
0
210
0
220
0
230
1
0
LINE
5
EC
100
AcDbEntity
8
SK1
62
256
6
ByLayer
370
-1
48
1
60
0
100
AcDbLine
10
-53.633814
20
-6.340342
30
0
11
-53.633814
21
-12.140417
31
0
39
0
210
0
220
0
230
1
0
LINE
5
ED
100
AcDbEntity
8
SK1
62
256
6
ByLayer
370
-1
48
1
60
0
100
AcDbLine
10
-53.633814
20
12.140417
30
0
11
-53.633814
21
6.340342
31
0
39
0
210
0
220
0
230
1
0
LINE
5
EE
100
AcDbEntity
8
SK1
62
256
6
ByLayer
370
-1
48
1
60
0
100
AcDbLine
10
-55
20
-6.998498
30
0
11
-55
21
-12.49675
31
0
39
0
210
0
220
0
230
1
0
LINE
5
EF
100
AcDbEntity
8
SK1
62
256
6
ByLayer
370
-1
48
1
60
0
100
AcDbLine
10
-55
20
12.49675
30
0
11
-55
21
6.998498
31
0
39
0
210
0
220
0
230
1
0
LINE
5
F0
100
AcDbEntity
8
SK1
62
256
6
ByLayer
370
-1
48
1
60
0
100
AcDbLine
10
-1.551212
20
12.287477
30
0
11
-1.551212
21
-12.287477
31
0
39
0
210
0
220
0
230
1
0
LINE
5
F1
100
AcDbEntity
8
SK1
62
256
6
ByLayer
370
-1
48
1
60
0
100
AcDbLine
10
-54.6
20
-6.998498
30
0
11
-55
21
-6.998498
31
0
39
0
210
0
220
0
230
1
0
MTEXT
5
210
100
AcDbEntity
8
SK6
62
256
6
ByLayer
370
-1
48
1
60
0
100
AcDbMText
10
0.79375
20
-80.79375
30
0
210
0
220
0
230
1
1
\W00.728;\fsimplex.shx,bigfont.shx;880-D2100L25-04 
40
3.175
41
0
44
1.084337
50
0
71
7
72
5
7
DEFAULT
0
DIMENSION
5
240
100
AcDbEntity
8
SK2
62
256
6
ByLayer
370
-3
48
1
60
0
100
AcDbDimension
2
DimnDraft3D1
10
105
20
-54.86955
30
0
11
24.5
21
-54.86955
31
0
70
32
71
5
72
1
41
1
210
0
220
0
230
1
3
Standard
100
AcDbAlignedDimension
13
-56
23
-14.0875
33
0
14
105
24
-12.0875
34
0
50
0
100
AcDbRotatedDimension
1001
ACAD
1000
DSTYLE
1002
{
1070
   279
1070
     0
1070
   172
1070
     1
1070
   173
1070
     1
1070
   340
1005
211
1070
   271
1070
     1
1070
   272
1070
     2
1070
    77
1070
     1
1070
    73
1070
     0
1070
   171
1070
     3
1070
   274
1070
     4
1070
   177
1070
   150
1070
   176
1070
     9
1070
   178
1070
    43
1070
    78
1070
     8
1070
    48
1040
-0.005
1070
    41
1041
4.175
1070
   147
1041
2.25
1070
    42
1041
1.5875
1070
    44
1041
3.175
1070
   140
1041
4.5
1070
   343
1005
0
1070
   344
1005
0
1002
}
0
DIMENSION
5
24A
100
AcDbEntity
8
SK2
62
256
6
ByLayer
370
-3
48
1
60
0
100
AcDbDimension
2
DimnDraft3D2
10
0
20
-42.9008
30
0
11
-28
21
-42.9008
31
0
70
32
71
5
72
1
41
1
210
0
220
0
230
1
3
Standard
100
AcDbAlignedDimension
13
-56
23
-14.0875
33
0
14
0
24
-17.5875
34
0
50
0
100
AcDbRotatedDimension
1001
ACAD
1000
DSTYLE
1002
{
1070
   279
1070
     0
1070
   172
1070
     1
1070
   173
1070
     1
1070
   340
1005
211
1070
   271
1070
     1
1070
   272
1070
     2
1070
    77
1070
     1
1070
    73
1070
     0
1070
   171
1070
     3
1070
   274
1070
     4
1070
   177
1070
   150
1070
   176
1070
     9
1070
   178
1070
    43
1070
    78
1070
     8
1070
    48
1040
-0.005
1070
    41
1041
4.175
1070
   147
1041
2.25
1070
    42
1041
1.5875
1070
    44
1041
3.175
1070
   140
1041
4.5
1070
   343
1005
0
1070
   344
1005
0
1002
}
0
DIMENSION
5
255
100
AcDbEntity
8
2
62
256
6
ByLayer
370
-3
48
1
60
0
100
AcDbDimension
2
DimnDraft3D3
10
105
20
-42.9008
30
0
11
52.5
21
-42.9008
31
0
70
32
71
5
72
1
41
1
210
0
220
0
230
1
3
Standard
100
AcDbAlignedDimension
13
0
23
-17.5875
33
0
14
105
24
-12.0875
34
0
50
0
100
AcDbRotatedDimension
1001
ACAD
1000
DSTYLE
1002
{
1070
   279
1070
     0
1070
   172
1070
     1
1070
   173
1070
     1
1070
   340
1005
211
1070
   271
1070
     1
1070
   272
1070
     2
1070
    77
1070
     1
1070
    73
1070
     0
1070
   171
1070
     3
1070
   274
1070
     4
1070
   177
1070
   150
1070
   176
1070
     9
1070
   178
1070
    43
1070
    78
1070
     8
1070
    48
1040
-0.005
1070
    41
1041
4.175
1070
   147
1041
2.25
1070
    42
1041
1.5875
1070
    44
1041
3.175
1070
   140
1041
4.5
1070
   343
1005
0
1070
   344
1005
0
1002
}
0
DIMENSION
5
25F
100
AcDbEntity
8
SK2
62
256
6
ByLayer
370
-3
48
1
60
0
100
AcDbDimension
2
DimnDraft3D4
10
105
20
-32.9008
30
0
11
61.5
21
-32.9008
31
0
70
32
71
5
72
1
41
1
210
0
220
0
230
1
3
Standard
100
AcDbAlignedDimension
13
18
23
-11.5875
33
0
14
105
24
-12.0875
34
0
50
0
100
AcDbRotatedDimension
1001
ACAD
1000
DSTYLE
1002
{
1070
   279
1070
     0
1070
   172
1070
     1
1070
   173
1070
     1
1070
   340
1005
211
1070
   271
1070
     1
1070
   272
1070
     2
1070
    77
1070
     1
1070
    73
1070
     0
1070
   171
1070
     3
1070
   274
1070
     4
1070
   177
1070
   150
1070
   176
1070
     9
1070
   178
1070
    43
1070
    78
1070
     8
1070
    48
1040
-0.005
1070
    41
1041
4.175
1070
   147
1041
2.25
1070
    42
1041
1.5875
1070
    44
1041
3.175
1070
   140
1041
4.5
1070
   343
1005
0
1070
   344
1005
0
1002
}
0
DIMENSION
5
26A
100
AcDbEntity
8
SK2
62
256
6
ByLayer
370
-3
48
1
60
0
100
AcDbDimension
2
DimnDraft3D5
10
-67.9
20
-12.5
30
0
11
-68.1
21
4.121053
31
0
70
33
71
5
72
1
41
1
210
0
220
0
230
1
3
Standard
100
AcDbAlignedDimension
13
-57.5875
23
12.5
33
0
14
-57.5875
24
-12.5
34
0
1001
ACAD
1000
DSTYLE
1002
{
1070
   279
1070
     0
1070
    74
1070
     0
1070
   173
1070
     1
1070
   340
1005
211
1070
   271
1070
     2
1070
   272
1070
     2
1070
    77
1070
     1
1070
    73
1070
     0
1070
   171
1070
     3
1070
   274
1070
     4
1070
   177
1070
   150
1070
   176
1070
     9
1070
   178
1070
    43
1070
    78
1070
     8
1070
    48
1040
-0.005
1070
    41
1041
4.175
1070
   147
1041
2.25
1070
    42
1041
1.5875
1070
    44
1041
3.175
1070
   140
1041
4.5
1070
   343
1005
0
1070
   344
1005
0
1002
}
0
DIMENSION
5
275
100
AcDbEntity
8
SK2
62
256
6
ByLayer
370
-3
48
1
60
0
100
AcDbDimension
2
DimnDraft3D6
10
-77.9
20
16
30
0
11
-78.1
21
4.121053
31
0
70
33
71
5
72
1
41
1
210
0
220
0
230
1
3
Standard
100
AcDbAlignedDimension
13
-1.5875
23
-16
33
0
14
-1.5875
24
16
34
0
1001
ACAD
1000
DSTYLE
1002
{
1070
   279
1070
     0
1070
    74
1070
     0
1070
   173
1070
     1
1070
   340
1005
211
1070
   271
1070
     1
1070
   272
1070
     2
1070
    77
1070
     1
1070
    73
1070
     0
1070
   171
1070
     3
1070
   274
1070
     4
1070
   177
1070
   150
1070
   176
1070
     9
1070
   178
1070
    43
1070
    78
1070
     8
1070
    48
1040
-0.005
1070
    41
1041
4.175
1070
   147
1041
2.25
1070
    42
1041
1.5875
1070
    44
1041
3.175
1070
   140
1041
4.5
1070
   343
1005
0
1070
   344
1005
0
1002
}
0
DIMENSION
5
280
100
AcDbEntity
8
2
62
256
6
ByLayer
370
-3
48
1
60
0
100
AcDbDimension
2
DimnDraft3D7
10
135.15
20
-10.5
30
0
11
128.6
21
4.683553
31
0
70
33
71
5
72
1
41
1
210
0
220
0
230
1
3
Standard
100
AcDbAlignedDimension
13
106.5875
23
10.5
33
0
14
106.5875
24
-10.5
34
0
1001
ACAD
1000
DSTYLE
1002
{
1070
   279
1070
     0
1070
    74
1070
     0
1070
   173
1070
     1
1070
   340
1005
211
1070
   271
1070
     2
1070
   272
1070
     2
1070
    77
1070
     1
1070
    73
1070
     0
1070
   171
1070
     3
1070
   274
1070
     4
1070
   177
1070
   150
1070
   176
1070
     9
1070
   178
1070
    43
1070
    78
1070
     8
1070
    48
1040
-0.005
1070
    41
1041
4.175
1070
   147
1041
2.25
1070
    42
1041
1.5875
1070
    44
1041
3.175
1070
   140
1041
4.5
1070
   343
1005
0
1070
   344
1005
0
1002
}
0
ENDSEC
0
SECTION
2
OBJECTS
0
DICTIONARY
5
2b1
330
0
100
AcDbDictionary
280
0
281
1
3
ACAD_GROUP
350
2b2
3
ACAD_MLINESTYLE
350
2b3
0
DICTIONARY
5
2b2
330
0
100
AcDbDictionary
280
0
281
1
0
DICTIONARY
5
2b3
330
0
100
AcDbDictionary
280
0
281
1
3
Standard
350
18
0
MLINESTYLE
5
18
330
2b3
100
AcDbMlineStyle
2
Standard
70
0
3

62
256
51
90
52
90
71
2
49
-0.5
62
256
6
ByLayer
49
0.5
62
256
6
ByLayer
0
RASTERVARIABLES
5
29f
330

100
AcDbRasterVariables
90
0
70
1
71
1
72
1
0
ENDSEC
0
EOF
