0
SECTION
2
HEADER
9
$ACADVER
1
AC1015
9
$DWGCODEPAGE
3
ANSI_1252
9
$HANDSEED
5
2ba
9
$ANGBASE
50
0
9
$ANGDIR
70
0
9
$ATTMODE
70
1
9
$AUNITS
70
0
9
$AUPREC
70
0
9
$CECOLOR
62
256
9
$CELTSCALE
40
1
9
$CELTYPE
6
ByLayer
9
$CELWEIGHT
370
-1
9
$CLAYER
8
0
9
$CMLJUST
70
0
9
$CMLSCALE
40
1
9
$CMLSTYLE
2
Standard
9
$DIMSTYLE
2
Standard
9
$TEXTSIZE
40
0.2
9
$TEXTSTYLE
7
Standard
9
$LUNITS
70
2
9
$LUPREC
70
4
9
$EXTNAMES
290
1
9
$INSUNITS
70
4
9
$LTSCALE
40
1
9
$LWDISPLAY
290
0
9
$PDMODE
70
0
9
$PDSIZE
40
0
9
$PLINEGEN
70
0
0
ENDSEC
0
SECTION
2
CLASSES
0
CLASS
1
RASTERVARIABLES
2
AcDbRasterVariables
3
ISM
90
0
280
0
281
0
0
ENDSEC
0
SECTION
2
TABLES
0
TABLE
2
VPORT
5
2b0
100
AcDbSymbolTable
0
VPORT
5
1
100
AcDbSymbolTableRecord
100
AcDbViewportTableRecord
2
*Active
70
0
10
0
20
0
11
1
21
1
12
-1
22
1
13
0
23
0
14
0.5
24
0.5
15
10
25
10
16
0
26
0
36
1
17
0
27
0
37
0
0
ENDTAB
0
TABLE
2
LTYPE
5
2b1
100
AcDbSymbolTable
0
LTYPE
5
14
100
AcDbSymbolTableRecord
100
AcDbLinetypeTableRecord
70
0
2
ByBlock
3

72
65
73
0
40
0
0
LTYPE
5
15
100
AcDbSymbolTableRecord
100
AcDbLinetypeTableRecord
70
0
2
ByLayer
3

72
65
73
0
40
0
0
LTYPE
5
16
100
AcDbSymbolTableRecord
100
AcDbLinetypeTableRecord
70
0
2
CONTINUOUS
3
Solid line
72
65
73
0
40
0
0
LTYPE
5
3B
100
AcDbSymbolTableRecord
100
AcDbLinetypeTableRecord
70
0
2
DASHED
3
__ __ __ __ __ __ __ __ __
72
65
73
2
40
25.72
49
12.86
74
0
49
-12.86
74
0
0
LTYPE
5
3C
100
AcDbSymbolTableRecord
100
AcDbLinetypeTableRecord
70
0
2
HIDDEN
3
_ _ _ _ _ _ _ _ _ _ _ _ _ _ _
72
65
73
2
40
0.5
49
0.25
74
0
49
-0.25
74
0
0
LTYPE
5
3D
100
AcDbSymbolTableRecord
100
AcDbLinetypeTableRecord
70
0
2
PHANTOM
3
____ _ _ ____ _ _ _____ _ _ ____
72
65
73
6
40
50.5
49
18
74
0
49
-6.5
74
0
49
6.5
74
0
49
-6.5
74
0
49
6.5
74
0
49
-6.5
74
0
0
LTYPE
5
3E
100
AcDbSymbolTableRecord
100
AcDbLinetypeTableRecord
70
0
2
CENTER
3
____ _ ____ _ ____ _ ____
72
65
73
4
40
47.5
49
22
74
0
49
-8.5
74
0
49
8.5
74
0
49
-8.5
74
0
0
LTYPE
5
3F
100
AcDbSymbolTableRecord
100
AcDbLinetypeTableRecord
70
0
2
DOT
3
.........................
72
65
73
2
40
10
49
0
74
0
49
-10
74
0
0
LTYPE
5
40
100
AcDbSymbolTableRecord
100
AcDbLinetypeTableRecord
70
0
2
DASHDOT
3
_._._._._._._._._._._._._._._._.
72
65
73
4
40
70
49
31
74
0
49
-13
74
0
49
13
74
0
49
-13
74
0
0
ENDTAB
0
TABLE
2
LAYER
5
2b2
100
AcDbSymbolTable
0
LAYER
5
10
100
AcDbSymbolTableRecord
100
AcDbLayerTableRecord
2
0
70
0
62
7
6
CONTINUOUS
290
1
370
-3
390
0
0
LAYER
5
42
100
AcDbSymbolTableRecord
100
AcDbLayerTableRecord
2
81
70
0
62
-3
6
CONTINUOUS
290
1
370
-3
390
0
0
LAYER
5
44
100
AcDbSymbolTableRecord
100
AcDbLayerTableRecord
2
80
70
0
62
-6
6
CONTINUOUS
290
1
370
-3
390
0
0
LAYER
5
48
100
AcDbSymbolTableRecord
100
AcDbLayerTableRecord
2
1
70
0
62
4
6
CONTINUOUS
290
1
370
-3
390
0
0
LAYER
5
63
100
AcDbSymbolTableRecord
100
AcDbLayerTableRecord
2
4
70
0
62
-2
6
CENTER
290
1
370
-3
390
0
0
LAYER
5
249
100
AcDbSymbolTableRecord
100
AcDbLayerTableRecord
2
2
70
0
62
7
6
CONTINUOUS
290
1
370
-3
390
0
0
LAYER
5
29c
100
AcDbSymbolTableRecord
100
AcDbLayerTableRecord
2
SK1
70
0
62
4
6
CONTINUOUS
290
1
370
-3
390
0
0
LAYER
5
29d
100
AcDbSymbolTableRecord
100
AcDbLayerTableRecord
2
SK4
70
0
62
2
6
CENTER
290
1
370
-3
390
0
0
LAYER
5
29e
100
AcDbSymbolTableRecord
100
AcDbLayerTableRecord
2
SK6
70
0
62
5
6
CONTINUOUS
290
1
370
-3
390
0
0
LAYER
5
29f
100
AcDbSymbolTableRecord
100
AcDbLayerTableRecord
2
SK2
70
0
62
7
6
CONTINUOUS
290
1
370
-3
390
0
0
ENDTAB
0
TABLE
2
STYLE
5
2b3
100
AcDbSymbolTable
0
STYLE
5
11
100
AcDbSymbolTableRecord
100
AcDbTextStyleTableRecord
2
Standard
3
txt
70
0
71
0
40
0
41
1
42
0
50
0
0
STYLE
5
20D
100
AcDbSymbolTableRecord
100
AcDbTextStyleTableRecord
2
DEFAULT
3
simplex.shx
70
0
71
0
40
0
41
1
42
0
50
0
0
STYLE
5
230
100
AcDbSymbolTableRecord
100
AcDbTextStyleTableRecord
2
DWGDirectTextStyle
3
SIMPLEX
70
0
71
0
40
0
41
1
42
0
50
0
0
ENDTAB
0
TABLE
2
DIMSTYLE
5
2b4
100
AcDbSymbolTable
100
AcDbDimStyleTable
0
DIMSTYLE
105
27
100
AcDbSymbolTableRecord
100
AcDbDimStyleTableRecord
2
Standard
70
0
3
<>
41
0.18
42
0.0625
44
0.18
140
0.18
147
0.09
73
0
74
0
77
1
271
2
275
0
278
52
280
0
340
11
0
ENDTAB
0
TABLE
2
VIEW
5
2b5
100
AcDbSymbolTable
0
ENDTAB
0
TABLE
2
UCS
5
2b6
100
AcDbSymbolTable
0
ENDTAB
0
TABLE
2
APPID
5
2b7
100
AcDbSymbolTable
0
APPID
5
12
100
AcDbSymbolTableRecord
100
AcDbRegAppTableRecord
2
ACAD
70
0
0
ENDTAB
0
TABLE
2
BLOCK_RECORD
5
2b8
100
AcDbSymbolTable
0
BLOCK_RECORD
5
1F
100
AcDbSymbolTableRecord
100
AcDbBlockTableRecord
2
*Model_Space
340
0
70
0
0
BLOCK_RECORD
5
1B
100
AcDbSymbolTableRecord
100
AcDbBlockTableRecord
2
*Paper_Space
340
0
70
0
0
BLOCK_RECORD
5
23
100
AcDbSymbolTableRecord
100
AcDbBlockTableRecord
2
*Paper_Space0
340
0
70
0
0
BLOCK_RECORD
5
232
100
AcDbSymbolTableRecord
100
AcDbBlockTableRecord
2
DimnDraft3D1
340
0
70
0
0
BLOCK_RECORD
5
23D
100
AcDbSymbolTableRecord
100
AcDbBlockTableRecord
2
DimnDraft3D2
340
0
70
0
0
BLOCK_RECORD
5
247
100
AcDbSymbolTableRecord
100
AcDbBlockTableRecord
2
DimnDraft3D3
340
0
70
0
0
BLOCK_RECORD
5
252
100
AcDbSymbolTableRecord
100
AcDbBlockTableRecord
2
DimnDraft3D4
340
0
70
0
0
BLOCK_RECORD
5
25C
100
AcDbSymbolTableRecord
100
AcDbBlockTableRecord
2
DimnDraft3D5
340
0
70
0
0
BLOCK_RECORD
5
267
100
AcDbSymbolTableRecord
100
AcDbBlockTableRecord
2
DimnDraft3D6
340
0
70
0
0
BLOCK_RECORD
5
272
100
AcDbSymbolTableRecord
100
AcDbBlockTableRecord
2
DimnDraft3D7
340
0
70
0
0
ENDTAB
0
ENDSEC
0
SECTION
2
BLOCKS
0
BLOCK
5
20
100
AcDbEntity
8
0
100
AcDbBlockBegin
2
*Model_Space
70
0
10
0
20
0
30
0
3
*Model_Space
0
ENDBLK
5
21
100
AcDbEntity
8
0
100
AcDbBlockEnd
0
BLOCK
5
1C
100
AcDbEntity
8
0
100
AcDbBlockBegin
2
*Paper_Space
70
0
10
0
20
0
30
0
3
*Paper_Space
0
ENDBLK
5
1D
100
AcDbEntity
8
0
100
AcDbBlockEnd
0
BLOCK
5
24
100
AcDbEntity
8
0
100
AcDbBlockBegin
2
*Paper_Space0
70
0
10
0
20
0
30
0
3
*Paper_Space0
0
ENDBLK
5
25
100
AcDbEntity
8
0
100
AcDbBlockEnd
0
BLOCK
5
23A
100
AcDbEntity
8
0
100
AcDbBlockBegin
2
DimnDraft3D1
70
0
10
0
20
0
30
0
3
DimnDraft3D1
0
MTEXT
5
233
100
AcDbEntity
8
SK2
62
256
6
ByLayer
370
-1
48
1
60
0
100
AcDbMText
10
25.406579
20
-51.7758
30
0
210
0
220
0
230
1
1
\W01.000;\fsimplex.shx,bigfont.shx;(177) 
40
4.5
41
0
44
1.084337
50
0
71
7
72
5
7
DEFAULT
0
LINE
5
235
100
AcDbEntity
8
SK2
62
256
6
ByLayer
370
-1
48
1
60
0
100
AcDbLine
10
-56
20
-14.0875
30
0
11
-56
21
-58.04455
31
0
39
0
210
0
220
0
230
1
0
LINE
5
236
100
AcDbEntity
8
SK2
62
256
6
ByLayer
370
-1
48
1
60
0
100
AcDbLine
10
121
20
-11.5875
30
0
11
121
21
-58.04455
31
0
39
0
210
0
220
0
230
1
0
LINE
5
237
100
AcDbEntity
8
SK2
62
256
6
ByLayer
370
-1
48
1
60
0
100
AcDbLine
10
-56
20
-54.86955
30
0
11
121
21
-54.86955
31
0
39
0
210
0
220
0
230
1
0
SOLID
5
238
100
AcDbEntity
8
SK2
62
256
6
ByLayer
370
-1
48
1
60
0
100
AcDbTrace
10
-56
20
-54.86955
30
0
11
-51.825003
21
-53.943975
31
0
12
-51.824997
22
-55.795125
32
0
13
-56
23
-54.86955
33
0
39
0
210
0
220
0
230
1
0
SOLID
5
239
100
AcDbEntity
8
SK2
62
256
6
ByLayer
370
-1
48
1
60
0
100
AcDbTrace
10
121
20
-54.86955
30
0
11
116.825003
21
-55.795125
31
0
12
116.824997
22
-53.943975
32
0
13
121
23
-54.86955
33
0
39
0
210
0
220
0
230
1
0
ENDBLK
5
23B
100
AcDbEntity
8
0
100
AcDbBlockEnd
0
BLOCK
5
244
100
AcDbEntity
8
0
100
AcDbBlockBegin
2
DimnDraft3D2
70
0
10
0
20
0
30
0
3
DimnDraft3D2
0
MTEXT
5
23E
100
AcDbEntity
8
SK2
62
256
6
ByLayer
370
-1
48
1
60
0
100
AcDbMText
10
-29.503947
20
-41.7758
30
0
210
0
220
0
230
1
1
\W01.000;\fsimplex.shx,bigfont.shx;56 
40
4.5
41
0
44
1.084337
50
0
71
7
72
5
7
DEFAULT
0
LINE
5
23F
100
AcDbEntity
8
SK2
62
256
6
ByLayer
370
-1
48
1
60
0
100
AcDbLine
10
-56
20
-14.0875
30
0
11
-56
21
-46.0758
31
0
39
0
210
0
220
0
230
1
0
LINE
5
240
100
AcDbEntity
8
SK2
62
256
6
ByLayer
370
-1
48
1
60
0
100
AcDbLine
10
0
20
-17.5875
30
0
11
0
21
-46.0758
31
0
39
0
210
0
220
0
230
1
0
LINE
5
241
100
AcDbEntity
8
SK2
62
256
6
ByLayer
370
-1
48
1
60
0
100
AcDbLine
10
-56
20
-42.9008
30
0
11
0
21
-42.9008
31
0
39
0
210
0
220
0
230
1
0
SOLID
5
242
100
AcDbEntity
8
SK2
62
256
6
ByLayer
370
-1
48
1
60
0
100
AcDbTrace
10
-56
20
-42.9008
30
0
11
-51.825003
21
-41.975225
31
0
12
-51.824997
22
-43.826375
32
0
13
-56
23
-42.9008
33
0
39
0
210
0
220
0
230
1
0
SOLID
5
243
100
AcDbEntity
8
SK2
62
256
6
ByLayer
370
-1
48
1
60
0
100
AcDbTrace
10
0
20
-42.9008
30
0
11
-4.174997
21
-43.826375
31
0
12
-4.175003
22
-41.975225
32
0
13
0
23
-42.9008
33
0
39
0
210
0
220
0
230
1
0
ENDBLK
5
245
100
AcDbEntity
8
0
100
AcDbBlockEnd
0
BLOCK
5
24F
100
AcDbEntity
8
0
100
AcDbBlockBegin
2
DimnDraft3D3
70
0
10
0
20
0
30
0
3
DimnDraft3D3
0
MTEXT
5
248
100
AcDbEntity
8
2
62
256
6
ByLayer
370
-1
48
1
60
0
100
AcDbMText
10
58.469079
20
-41.7758
30
0
210
0
220
0
230
1
1
\W01.000;\fsimplex.shx,bigfont.shx;121 
40
4.5
41
0
44
1.084337
50
0
71
7
72
5
7
DEFAULT
0
LINE
5
24A
100
AcDbEntity
8
2
62
256
6
ByLayer
370
-1
48
1
60
0
100
AcDbLine
10
0
20
-17.5875
30
0
11
0
21
-46.0758
31
0
39
0
210
0
220
0
230
1
0
LINE
5
24B
100
AcDbEntity
8
2
62
256
6
ByLayer
370
-1
48
1
60
0
100
AcDbLine
10
121
20
-11.5875
30
0
11
121
21
-46.0758
31
0
39
0
210
0
220
0
230
1
0
LINE
5
24C
100
AcDbEntity
8
2
62
256
6
ByLayer
370
-1
48
1
60
0
100
AcDbLine
10
0
20
-42.9008
30
0
11
121
21
-42.9008
31
0
39
0
210
0
220
0
230
1
0
SOLID
5
24D
100
AcDbEntity
8
2
62
256
6
ByLayer
370
-1
48
1
60
0
100
AcDbTrace
10
0
20
-42.9008
30
0
11
4.174997
21
-41.975225
31
0
12
4.175003
22
-43.826375
32
0
13
0
23
-42.9008
33
0
39
0
210
0
220
0
230
1
0
SOLID
5
24E
100
AcDbEntity
8
2
62
256
6
ByLayer
370
-1
48
1
60
0
100
AcDbTrace
10
121
20
-42.9008
30
0
11
116.825003
21
-43.826375
31
0
12
116.824997
22
-41.975225
32
0
13
121
23
-42.9008
33
0
39
0
210
0
220
0
230
1
0
ENDBLK
5
250
100
AcDbEntity
8
0
100
AcDbBlockEnd
0
BLOCK
5
259
100
AcDbEntity
8
0
100
AcDbBlockBegin
2
DimnDraft3D4
70
0
10
0
20
0
30
0
3
DimnDraft3D4
0
MTEXT
5
253
100
AcDbEntity
8
SK2
62
256
6
ByLayer
370
-1
48
1
60
0
100
AcDbMText
10
66.169737
20
-31.7758
30
0
210
0
220
0
230
1
1
\W01.000;\fsimplex.shx,bigfont.shx;104 
40
4.5
41
0
44
1.084337
50
0
71
7
72
5
7
DEFAULT
0
LINE
5
254
100
AcDbEntity
8
SK2
62
256
6
ByLayer
370
-1
48
1
60
0
100
AcDbLine
10
17
20
-11.5875
30
0
11
17
21
-36.0758
31
0
39
0
210
0
220
0
230
1
0
LINE
5
255
100
AcDbEntity
8
SK2
62
256
6
ByLayer
370
-1
48
1
60
0
100
AcDbLine
10
121
20
-11.5875
30
0
11
121
21
-36.0758
31
0
39
0
210
0
220
0
230
1
0
LINE
5
256
100
AcDbEntity
8
SK2
62
256
6
ByLayer
370
-1
48
1
60
0
100
AcDbLine
10
17
20
-32.9008
30
0
11
121
21
-32.9008
31
0
39
0
210
0
220
0
230
1
0
SOLID
5
257
100
AcDbEntity
8
SK2
62
256
6
ByLayer
370
-1
48
1
60
0
100
AcDbTrace
10
17
20
-32.9008
30
0
11
21.174997
21
-31.975225
31
0
12
21.175003
22
-33.826375
32
0
13
17
23
-32.9008
33
0
39
0
210
0
220
0
230
1
0
SOLID
5
258
100
AcDbEntity
8
SK2
62
256
6
ByLayer
370
-1
48
1
60
0
100
AcDbTrace
10
121
20
-32.9008
30
0
11
116.825003
21
-33.826375
31
0
12
116.824997
22
-31.975225
32
0
13
121
23
-32.9008
33
0
39
0
210
0
220
0
230
1
0
ENDBLK
5
25A
100
AcDbEntity
8
0
100
AcDbBlockEnd
0
BLOCK
5
264
100
AcDbEntity
8
0
100
AcDbBlockBegin
2
DimnDraft3D5
70
0
10
0
20
0
30
0
3
DimnDraft3D5
0
MTEXT
5
25D
100
AcDbEntity
8
SK2
62
256
6
ByLayer
370
-1
48
1
60
0
100
AcDbMText
10
-66.975
20
5.246053
30
0
210
0
220
0
230
1
1
\W01.000;\fsimplex.shx,bigfont.shx;25 
40
4.5
41
0
44
1.084337
50
90
71
7
72
5
7
DEFAULT
0
MTEXT
5
25E
100
AcDbEntity
8
SK2
62
256
6
ByLayer
370
-1
48
1
60
0
100
AcDbMText
10
-66.975
20
-8.253947
30
0
210
0
220
0
230
1
1
\W01.000;\fsimplex.shx,bigfont.shx;%%c 
40
4.5
41
0
44
1.084337
50
90
71
7
72
5
7
DEFAULT
0
LINE
5
25F
100
AcDbEntity
8
SK2
62
256
6
ByLayer
370
-1
48
1
60
0
100
AcDbLine
10
-57.5875
20
12.5
30
0
11
-67.9
21
12.5
31
0
39
0
210
0
220
0
230
1
0
LINE
5
260
100
AcDbEntity
8
SK2
62
256
6
ByLayer
370
-1
48
1
60
0
100
AcDbLine
10
-57.5875
20
-12.5
30
0
11
-67.9
21
-12.5
31
0
39
0
210
0
220
0
230
1
0
LINE
5
261
100
AcDbEntity
8
SK2
62
256
6
ByLayer
370
-1
48
1
60
0
100
AcDbLine
10
-64.725
20
23.75
30
0
11
-64.725
21
-23.75
31
0
39
0
210
0
220
0
230
1
0
SOLID
5
262
100
AcDbEntity
8
SK2
62
256
6
ByLayer
370
-1
48
1
60
0
100
AcDbTrace
10
-64.725
20
12.5
30
0
11
-65.650575
21
16.674997
31
0
12
-63.799425
22
16.675003
32
0
13
-64.725
23
12.5
33
0
39
0
210
0
220
0
230
1
0
SOLID
5
263
100
AcDbEntity
8
SK2
62
256
6
ByLayer
370
-1
48
1
60
0
100
AcDbTrace
10
-64.725
20
-12.5
30
0
11
-63.799425
21
-16.674997
31
0
12
-65.650575
22
-16.675003
32
0
13
-64.725
23
-12.5
33
0
39
0
210
0
220
0
230
1
0
ENDBLK
5
265
100
AcDbEntity
8
0
100
AcDbBlockEnd
0
BLOCK
5
26F
100
AcDbEntity
8
0
100
AcDbBlockBegin
2
DimnDraft3D6
70
0
10
0
20
0
30
0
3
DimnDraft3D6
0
MTEXT
5
268
100
AcDbEntity
8
SK2
62
256
6
ByLayer
370
-1
48
1
60
0
100
AcDbMText
10
-76.975
20
5.246053
30
0
210
0
220
0
230
1
1
\W01.000;\fsimplex.shx,bigfont.shx;32 
40
4.5
41
0
44
1.084337
50
90
71
7
72
5
7
DEFAULT
0
MTEXT
5
269
100
AcDbEntity
8
SK2
62
256
6
ByLayer
370
-1
48
1
60
0
100
AcDbMText
10
-76.975
20
-8.253947
30
0
210
0
220
0
230
1
1
\W01.000;\fsimplex.shx,bigfont.shx;%%c 
40
4.5
41
0
44
1.084337
50
90
71
7
72
5
7
DEFAULT
0
LINE
5
26A
100
AcDbEntity
8
SK2
62
256
6
ByLayer
370
-1
48
1
60
0
100
AcDbLine
10
-1.5875
20
-16
30
0
11
-77.9
21
-16
31
0
39
0
210
0
220
0
230
1
0
LINE
5
26B
100
AcDbEntity
8
SK2
62
256
6
ByLayer
370
-1
48
1
60
0
100
AcDbLine
10
-1.5875
20
16
30
0
11
-77.9
21
16
31
0
39
0
210
0
220
0
230
1
0
LINE
5
26C
100
AcDbEntity
8
SK2
62
256
6
ByLayer
370
-1
48
1
60
0
100
AcDbLine
10
-74.725
20
-16
30
0
11
-74.725
21
16
31
0
39
0
210
0
220
0
230
1
0
SOLID
5
26D
100
AcDbEntity
8
SK2
62
256
6
ByLayer
370
-1
48
1
60
0
100
AcDbTrace
10
-74.725
20
-16
30
0
11
-75.650575
21
-11.825003
31
0
12
-73.799425
22
-11.824997
32
0
13
-74.725
23
-16
33
0
39
0
210
0
220
0
230
1
0
SOLID
5
26E
100
AcDbEntity
8
SK2
62
256
6
ByLayer
370
-1
48
1
60
0
100
AcDbTrace
10
-74.725
20
16
30
0
11
-73.799425
21
11.825003
31
0
12
-75.650575
22
11.824997
32
0
13
-74.725
23
16
33
0
39
0
210
0
220
0
230
1
0
ENDBLK
5
270
100
AcDbEntity
8
0
100
AcDbBlockEnd
0
BLOCK
5
27A
100
AcDbEntity
8
0
100
AcDbBlockBegin
2
DimnDraft3D7
70
0
10
0
20
0
30
0
3
DimnDraft3D7
0
MTEXT
5
273
100
AcDbEntity
8
2
62
256
6
ByLayer
370
-1
48
1
60
0
100
AcDbMText
10
145.725
20
-26.245395
30
0
210
0
220
0
230
1
1
\W01.000;\fsimplex.shx,bigfont.shx;20 
40
4.5
41
0
44
1.084337
50
90
71
7
72
5
7
DEFAULT
0
MTEXT
5
274
100
AcDbEntity
8
2
62
256
6
ByLayer
370
-1
48
1
60
0
100
AcDbMText
10
145.725
20
-39.745395
30
0
210
0
220
0
230
1
1
\W01.000;\fsimplex.shx,bigfont.shx;%%c 
40
4.5
41
0
44
1.084337
50
90
71
7
72
5
7
DEFAULT
0
LINE
5
275
100
AcDbEntity
8
2
62
256
6
ByLayer
370
-1
48
1
60
0
100
AcDbLine
10
122.5875
20
10
30
0
11
151.15
21
10
31
0
39
0
210
0
220
0
230
1
0
LINE
5
276
100
AcDbEntity
8
2
62
256
6
ByLayer
370
-1
48
1
60
0
100
AcDbLine
10
122.5875
20
-10
30
0
11
151.15
21
-10
31
0
39
0
210
0
220
0
230
1
0
LINE
5
277
100
AcDbEntity
8
2
62
256
6
ByLayer
370
-1
48
1
60
0
100
AcDbLine
10
147.975
20
10
30
0
11
147.975
21
-40.870395
31
0
39
0
210
0
220
0
230
1
0
SOLID
5
278
100
AcDbEntity
8
2
62
256
6
ByLayer
370
-1
48
1
60
0
100
AcDbTrace
10
147.975
20
10
30
0
11
148.900575
21
5.825003
31
0
12
147.049425
22
5.824997
32
0
13
147.975
23
10
33
0
39
0
210
0
220
0
230
1
0
SOLID
5
279
100
AcDbEntity
8
2
62
256
6
ByLayer
370
-1
48
1
60
0
100
AcDbTrace
10
147.975
20
-10
30
0
11
147.049425
21
-5.825003
31
0
12
148.900575
22
-5.824997
32
0
13
147.975
23
-10
33
0
39
0
210
0
220
0
230
1
0
ENDBLK
5
27B
100
AcDbEntity
8
0
100
AcDbBlockEnd
0
ENDSEC
0
SECTION
2
ENTITIES
0
ARC
5
F1
100
AcDbEntity
8
SK1
62
256
6
ByLayer
370
-1
48
1
60
0
100
AcDbCircle
39
0
10
1.382165
20
12.65
30
0
40
0.4
210
0
220
0
230
-1
100
AcDbArc
50
270
51
295
0
ARC
5
F2
100
AcDbEntity
8
SK1
62
256
6
ByLayer
370
-1
48
1
60
0
100
AcDbCircle
39
0
10
1.382165
20
-12.65
30
0
40
0.4
210
0
220
0
230
-1
100
AcDbArc
50
65
51
90
0
ARC
5
F3
100
AcDbEntity
8
SK1
62
256
6
ByLayer
370
-1
48
1
60
0
100
AcDbCircle
39
0
10
0.15
20
12.65
30
0
40
0.4
210
0
220
0
230
-1
100
AcDbArc
50
247.975687
51
270
0
ARC
5
F4
100
AcDbEntity
8
SK1
62
256
6
ByLayer
370
-1
48
1
60
0
100
AcDbCircle
39
0
10
0.15
20
-12.65
30
0
40
0.4
210
0
220
0
230
-1
100
AcDbArc
50
90
51
112.024313
0
ARC
5
F5
100
AcDbEntity
8
SK1
62
256
6
ByLayer
370
-1
48
1
60
0
100
AcDbCircle
39
0
10
53.894506
20
12.89675
30
0
40
0.8
210
0
220
0
230
-1
100
AcDbArc
50
250.982048
51
321
0
ARC
5
F6
100
AcDbEntity
8
SK1
62
256
6
ByLayer
370
-1
48
1
60
0
100
AcDbCircle
39
0
10
53.894506
20
-12.89675
30
0
40
0.8
210
0
220
0
230
-1
100
AcDbArc
50
39
51
109.017952
0
ELLIPSE
5
F7
100
AcDbEntity
8
1
62
256
6
ByLayer
370
-1
48
1
60
0
100
AcDbEllipse
10
108.399506
20
4.316116
30
0
11
3.8840575781727
21
-1.72271336400823
31
0
210
0
220
0
230
1
40
0.035449
41
0.50423035591603
42
0.695788138024746
0
ELLIPSE
5
F8
100
AcDbEntity
8
1
62
256
6
ByLayer
370
-1
48
1
60
0
100
AcDbEllipse
10
113.574673
20
5.127272
30
0
11
-0.599695201525335
21
-0.0191223760942029
31
0
210
0
220
0
230
1
40
0.002788
41
0.0872220186676158
42
1.32520647544542
0
ELLIPSE
5
F9
100
AcDbEntity
8
1
62
256
6
ByLayer
370
-1
48
1
60
0
100
AcDbEllipse
10
113.771333
20
6.87766
30
0
11
-0.579980162518649
21
-0.618336926331257
31
0
210
0
220
0
230
-1
40
0.04503
41
-0.791576829799335
42
-0.359511934313234
0
ELLIPSE
5
FA
100
AcDbEntity
8
1
62
256
6
ByLayer
370
-1
48
1
60
0
100
AcDbEllipse
10
114.393537
20
5.160864
30
0
11
1.93289801482185E-15
21
1.65
31
0
210
0
220
0
230
1
40
0.996195
41
0.84340834077205
42
1.60279402974813
0
ELLIPSE
5
FB
100
AcDbEntity
8
1
62
256
6
ByLayer
370
-1
48
1
60
0
100
AcDbEllipse
10
120.940974
20
0
30
0
11
-0.767940300413014
21
-9.59949822002732
31
0
210
0
220
0
230
-1
40
0.127813
41
0.0381024842435029
42
1.0835070232607
0
ELLIPSE
5
FC
100
AcDbEntity
8
1
62
256
6
ByLayer
370
-1
48
1
60
0
100
AcDbEllipse
10
119.930996
20
0.555641
30
0
11
-0.0380393315445409
21
0.601638779545338
31
0
210
0
220
0
230
-1
40
0.11763
41
-1.48074859913973
42
-1.43994474891957
0
ELLIPSE
5
FD
100
AcDbEntity
8
1
62
256
6
ByLayer
370
-1
48
1
60
0
100
AcDbEllipse
10
100.638923
20
7.678017
30
0
11
-12.3789903524479
21
6.19920627560567
31
0
210
0
220
0
230
-1
40
0.085454
41
-2.68608831111483
42
-2.32063352994393
0
ELLIPSE
5
FE
100
AcDbEntity
8
1
62
256
6
ByLayer
370
-1
48
1
60
0
100
AcDbEllipse
10
10.9
20
0.706719
30
0
11
-5
21
5.05319527541181E-15
31
0
210
0
220
0
230
1
40
0.888186
41
-1.68103741787831
42
-0.260036984612567
0
ELLIPSE
5
FF
100
AcDbEntity
8
1
62
256
6
ByLayer
370
-1
48
1
60
0
100
AcDbEllipse
10
117.110593
20
-1.54649
30
0
11
-1.11602540378444
21
1.12789885952862E-15
31
0
210
0
220
0
230
1
40
0.996917
41
0
42
6.28318530717959
0
ELLIPSE
5
100
100
AcDbEntity
8
1
62
256
6
ByLayer
370
-1
48
1
60
0
100
AcDbEllipse
10
110.596462
20
5.8E-05
30
0
11
-65.8440883119567
21
0.769463971194938
31
0
210
0
220
0
230
-1
40
0.145331
41
-1.60270766629937
42
-1.59128255108176
0
ELLIPSE
5
101
100
AcDbEntity
8
1
62
256
6
ByLayer
370
-1
48
1
60
0
100
AcDbEllipse
10
117.446474
20
6.028199
30
0
11
1.46431667789534E-15
21
1.25
31
0
210
0
220
0
230
1
40
0.996195
41
0.0912039921120624
42
1.57079634872777
0
ELLIPSE
5
102
100
AcDbEntity
8
1
62
256
6
ByLayer
370
-1
48
1
60
0
100
AcDbEllipse
10
117.446474
20
6.028199
30
0
11
1.46431667789534E-15
21
1.25
31
0
210
0
220
0
230
1
40
0.996195
41
1.57079634872777
42
2.64306111599982
0
ELLIPSE
5
103
100
AcDbEntity
8
1
62
256
6
ByLayer
370
-1
48
1
60
0
100
AcDbEllipse
10
114.475012
20
8.315646
30
0
11
6.09155738004463E-15
21
5.2
31
0
210
0
220
0
230
1
40
0.996195
41
2.72271363311115
42
2.82017770552679
0
ELLIPSE
5
104
100
AcDbEntity
8
1
62
256
6
ByLayer
370
-1
48
1
60
0
100
AcDbEllipse
10
113.619292
20
3.727988
30
0
11
-0.599695201525335
21
-0.0191223760942029
31
0
210
0
220
0
230
1
40
0.002788
41
0.0872220186670827
42
1.33217642950443
0
ELLIPSE
5
105
100
AcDbEntity
8
1
62
256
6
ByLayer
370
-1
48
1
60
0
100
AcDbEllipse
10
117.219869
20
6.028199
30
0
11
1.75718001347441E-15
21
1.5
31
0
210
0
220
0
230
1
40
0.996195
41
0.03494990326975
42
0.710883060211172
0
ELLIPSE
5
106
100
AcDbEntity
8
1
62
256
6
ByLayer
370
-1
48
1
60
0
100
AcDbEllipse
10
117.219869
20
6.028199
30
0
11
1.46431667789534E-15
21
1.25
31
0
210
0
220
0
230
1
40
0.996195
41
-2.35825588077847
42
0
0
ELLIPSE
5
107
100
AcDbEntity
8
1
62
256
6
ByLayer
370
-1
48
1
60
0
100
AcDbEllipse
10
117.219869
20
6.028199
30
0
11
1.46431667789534E-15
21
1.25
31
0
210
0
220
0
230
1
40
0.996195
41
0
42
1.57079605281728
0
ELLIPSE
5
108
100
AcDbEntity
8
1
62
256
6
ByLayer
370
-1
48
1
60
0
100
AcDbEllipse
10
117.219869
20
6.028199
30
0
11
1.46431667789534E-15
21
1.25
31
0
210
0
220
0
230
1
40
0.996195
41
1.57079634872777
42
1.80887004062054
0
ELLIPSE
5
109
100
AcDbEntity
8
1
62
256
6
ByLayer
370
-1
48
1
60
0
100
AcDbEllipse
10
119.168074
20
0
30
0
11
-21.8448993722636
21
9.30309885873415
31
0
210
0
220
0
230
-1
40
0.108448
41
-1.24659750972865
42
-0.714364957869242
0
ELLIPSE
5
10A
100
AcDbEntity
8
1
62
256
6
ByLayer
370
-1
48
1
60
0
100
AcDbEllipse
10
114.405288
20
8.315646
30
0
11
-6.43121623664089E-15
21
-6
31
0
210
0
220
0
230
1
40
0.996195
41
-0.418879020478637
42
-0.160377198616537
0
ELLIPSE
5
10B
100
AcDbEntity
8
1
62
256
6
ByLayer
370
-1
48
1
60
0
100
AcDbEllipse
10
114.664761
20
3.76158
30
0
11
-1.76858446507625E-15
21
-1.65
31
0
210
0
220
0
230
1
40
0.996195
41
-1.53879862384166
42
-0.123410159232461
0
ELLIPSE
5
10C
100
AcDbEntity
8
1
62
256
6
ByLayer
370
-1
48
1
60
0
100
AcDbEllipse
10
108.255221
20
4.046977
30
0
11
-3.72716323528481
21
1.71033511559192
31
0
210
0
220
0
230
1
40
0.266658
41
1.76907142720665
42
1.80800875581493
0
ELLIPSE
5
10D
100
AcDbEntity
8
1
62
256
6
ByLayer
370
-1
48
1
60
0
100
AcDbEllipse
10
67.092133
20
0
30
0
11
-170.732517802571
21
-9.28378222215467
31
0
210
0
220
0
230
-1
40
0.014313
41
-1.87935990648848
42
-1.84837419185278
0
ELLIPSE
5
10E
100
AcDbEntity
8
1
62
256
6
ByLayer
370
-1
48
1
60
0
100
AcDbEllipse
10
119.931547
20
0.55562
30
0
11
-0.048799247054359
21
0.602007793489717
31
0
210
0
220
0
230
-1
40
0.116003
41
-1.43802199727856
42
0.0919710763051533
0
ELLIPSE
5
10F
100
AcDbEntity
8
1
62
256
6
ByLayer
370
-1
48
1
60
0
100
AcDbEllipse
10
101.026362
20
7.630229
30
0
11
-14.8993562874586
21
6.72541386385722
31
0
210
0
220
0
230
-1
40
0.009719
41
2.37755896232515
42
2.38599169957413
0
ELLIPSE
5
110
100
AcDbEntity
8
1
62
256
6
ByLayer
370
-1
48
1
60
0
100
AcDbEllipse
10
109.897236
20
2.991364
30
0
11
-9.84553253033482
21
0.517931705737207
31
0
210
0
220
0
230
-1
40
0.000334
41
-3.1361936139858
42
-3.13524192234064
0
ELLIPSE
5
111
100
AcDbEntity
8
1
62
256
6
ByLayer
370
-1
48
1
60
0
100
AcDbEllipse
10
119.844111
20
-5.329478
30
0
11
-0.0777673329185192
21
1.26084825373628
31
0
210
0
220
0
230
-1
40
0.116196
41
-0.863172357740662
42
1.01942214655797
0
ELLIPSE
5
112
100
AcDbEntity
8
1
62
256
6
ByLayer
370
-1
48
1
60
0
100
AcDbEllipse
10
114.438156
20
3.76158
30
0
11
1.93289801482185E-15
21
1.65
31
0
210
0
220
0
230
1
40
0.996195
41
1.60279402974813
42
1.80296078808598
0
ELLIPSE
5
113
100
AcDbEntity
8
1
62
256
6
ByLayer
370
-1
48
1
60
0
100
AcDbEllipse
10
117.110593
20
-1.54649
30
0
11
1.35
21
0
31
0
210
0
220
0
230
1
40
0.996917
41
0
42
-3.14159234153351
0
ELLIPSE
5
114
100
AcDbEntity
8
1
62
256
6
ByLayer
370
-1
48
1
60
0
100
AcDbEllipse
10
117.110593
20
-1.946632
30
0
11
-1.25
21
1.26329881885295E-15
31
0
210
0
220
0
230
1
40
0.996917
41
-2.64502473489544
42
-0.496666271476289
0
ELLIPSE
5
115
100
AcDbEntity
8
1
62
256
6
ByLayer
370
-1
48
1
60
0
100
AcDbEllipse
10
114.620142
20
5.160864
30
0
11
-1.76858446507625E-15
21
-1.65
31
0
210
0
220
0
230
1
40
0.996195
41
-2.2954931910143
42
-1.53879862384166
0
ELLIPSE
5
116
100
AcDbEntity
8
1
62
256
6
ByLayer
370
-1
48
1
60
0
100
AcDbEllipse
10
112.298306
20
3.565209
30
0
11
-0.326425640836806
21
-0.730374082922088
31
0
210
0
220
0
230
1
40
0.079621
41
0.035569836570848
42
1.60636616336575
0
ELLIPSE
5
117
100
AcDbEntity
8
1
62
256
6
ByLayer
370
-1
48
1
60
0
100
AcDbEllipse
10
120.204973
20
-4.93188
30
0
11
-0.0569062193964106
21
-0.657991401934526
31
0
210
0
220
0
230
-1
40
0.116725
41
0.0197262659360632
42
1.59052259273939
0
ELLIPSE
5
118
100
AcDbEntity
8
1
62
256
6
ByLayer
370
-1
48
1
60
0
100
AcDbEllipse
10
110.588735
20
1E-06
30
0
11
-109.728498676239
21
-1.24333327885192E-13
31
0
210
0
220
0
230
-1
40
0.087489
41
1.58155704094297
42
1.59331376291786
0
ELLIPSE
5
119
100
AcDbEntity
8
1
62
256
6
ByLayer
370
-1
48
1
60
0
100
AcDbEllipse
10
119.741819
20
-5.320831
30
0
11
-0.0980534344262076
21
-1.24616906170401
31
0
210
0
220
0
230
-1
40
0.127178
41
-2.13850816829327
42
2.26208263458843
0
ELLIPSE
5
11A
100
AcDbEntity
8
1
62
256
6
ByLayer
370
-1
48
1
60
0
100
AcDbEllipse
10
113.38662
20
1E-06
30
0
11
-0.310832053391456
21
9.59996072565762
31
0
210
0
220
0
230
-1
40
0.087398
41
-0.0196876386311272
42
0.0127599801936104
0
ELLIPSE
5
11B
100
AcDbEntity
8
1
62
256
6
ByLayer
370
-1
48
1
60
0
100
AcDbEllipse
10
112.861977
20
5.821101
30
0
11
-0.66421790585457
21
-4.34957636713533
31
0
210
0
220
0
230
1
40
0.19759
41
0.0301645894418313
42
0.672321392778876
0
ELLIPSE
5
11C
100
AcDbEntity
8
1
62
256
6
ByLayer
370
-1
48
1
60
0
100
AcDbEllipse
10
120.234702
20
0
30
0
11
-0.602580047692435
21
9.59973665452232
31
0
210
0
220
0
230
-1
40
0.118004
41
-2.04045421336945
42
-1.51220413696794
0
ELLIPSE
5
11D
100
AcDbEntity
8
1
62
256
6
ByLayer
370
-1
48
1
60
0
100
AcDbEllipse
10
114.794785
20
3.76158
30
0
11
-1.43971234163432
21
-1.28202564683653
31
0
210
0
220
0
230
-1
40
0.721468
41
-1.18428535878548
42
-0.868660261800615
0
ELLIPSE
5
11E
100
AcDbEntity
8
1
62
256
6
ByLayer
370
-1
48
1
60
0
100
AcDbEllipse
10
109.328988
20
5.67
30
0
11
2.86983059280569E-15
21
2.44980358085049
31
0
210
0
220
0
230
1
40
0.996195
41
-2.27179693590144
42
-1.5707963267949
0
ELLIPSE
5
11F
100
AcDbEntity
8
1
62
256
6
ByLayer
370
-1
48
1
60
0
100
AcDbEllipse
10
117.150144
20
6.028199
30
0
11
1.75718001347441E-15
21
1.5
31
0
210
0
220
0
230
1
40
0.996195
41
-1.54046055081385
42
0
0
ELLIPSE
5
120
100
AcDbEntity
8
1
62
256
6
ByLayer
370
-1
48
1
60
0
100
AcDbEllipse
10
117.150144
20
6.028199
30
0
11
1.75718001347441E-15
21
1.5
31
0
210
0
220
0
230
1
40
0.996195
41
0
42
0.510607148495788
0
ELLIPSE
5
121
100
AcDbEntity
8
1
62
256
6
ByLayer
370
-1
48
1
60
0
100
AcDbEllipse
10
119.939489
20
3.063888
30
0
11
-0.0482398519245111
21
0.603297013124167
31
0
210
0
220
0
230
-1
40
0.115075
41
2.32390285013966
42
-3.13085287783117
0
ELLIPSE
5
122
100
AcDbEntity
8
1
62
256
6
ByLayer
370
-1
48
1
60
0
100
AcDbEllipse
10
114.126819
20
4.849908
30
0
11
-5.35934686386771E-15
21
-5.00000000000028
31
0
210
0
220
0
230
1
40
0.996195
41
-3.09758543963167
42
-3.0877854465449
0
ELLIPSE
5
123
100
AcDbEntity
8
1
62
256
6
ByLayer
370
-1
48
1
60
0
100
AcDbEllipse
10
113.584227
20
9.387245
30
0
11
2.69746310087586E-16
21
0.230266371133677
31
0
210
0
220
0
230
1
40
0.996195
41
1.34390352403567
42
1.5707963267949
0
ELLIPSE
5
124
100
AcDbEntity
8
1
62
256
6
ByLayer
370
-1
48
1
60
0
100
AcDbEllipse
10
113.778891
20
9.342254
30
0
11
-5.35934686386747E-16
21
-0.500000000000006
31
0
210
0
220
0
230
1
40
0.996195
41
-2.84488668075078
42
-1.79768912955414
0
ELLIPSE
5
125
100
AcDbEntity
8
1
62
256
6
ByLayer
370
-1
48
1
60
0
100
AcDbEllipse
10
119.808852
20
12.653945
30
0
11
1.16328437305553E-14
21
9.93026637113358
31
0
210
0
220
0
230
1
40
0.996195
41
-3.10304323372875
42
-3.0975854396317
0
ELLIPSE
5
126
100
AcDbEntity
8
1
62
256
6
ByLayer
370
-1
48
1
60
0
100
AcDbEllipse
10
123.450525
20
3.561135
30
0
11
-1.07186937277344E-14
21
-9.99999999999964
31
0
210
0
220
0
230
1
40
0.996195
41
-1.51698911975
42
-1.50098315671511
0
ELLIPSE
5
127
100
AcDbEntity
8
1
62
256
6
ByLayer
370
-1
48
1
60
0
100
AcDbEllipse
10
113.584758
20
9.387245
30
0
11
-3.21560811832046E-16
21
-0.300000000000001
31
0
210
0
220
0
230
1
40
0.996195
41
-1.79768912955412
42
-1.5707963267949
0
ELLIPSE
5
128
100
AcDbEntity
8
1
62
256
6
ByLayer
370
-1
48
1
60
0
100
AcDbEllipse
10
120.246913
20
0.061621
30
0
11
1.16328437305553E-14
21
9.93026637113358
31
0
210
0
220
0
230
1
40
0.996195
41
0.0258059561216836
42
0.0312637618884592
0
ELLIPSE
5
129
100
AcDbEntity
8
1
62
256
6
ByLayer
370
-1
48
1
60
0
100
AcDbEllipse
10
110.906952
20
3.121449
30
0
11
1.1632843730555E-14
21
9.9302663711333
31
0
210
0
220
0
230
1
40
0.996195
41
-1.5707963267949
42
-1.55479036376002
0
ELLIPSE
5
12A
100
AcDbEntity
8
1
62
256
6
ByLayer
370
-1
48
1
60
0
100
AcDbEllipse
10
118.47676
20
3.292229
30
0
11
-5.35934686386771E-15
21
-5.00000000000028
31
0
210
0
220
0
230
1
40
0.996195
41
-1.52678911283678
42
-1.51698911975
0
ELLIPSE
5
12B
100
AcDbEntity
8
1
62
256
6
ByLayer
370
-1
48
1
60
0
100
AcDbEllipse
10
110.704274
20
8.947559
30
0
11
1.1632843730555E-14
21
9.9302663711333
31
0
210
0
220
0
230
1
40
0.996195
41
-1.51698911975
42
-1.50098315671511
0
ELLIPSE
5
12C
100
AcDbEntity
8
1
62
256
6
ByLayer
370
-1
48
1
60
0
100
AcDbEllipse
10
114.126287
20
4.849908
30
0
11
5.77557701897395E-15
21
4.93026637113357
31
0
210
0
220
0
230
1
40
0.996195
41
0.0440072139581178
42
0.0538072070448973
0
ELLIPSE
5
12D
100
AcDbEntity
8
1
62
256
6
ByLayer
370
-1
48
1
60
0
100
AcDbEllipse
10
120.570573
20
3.121449
30
0
11
-3.21560811832046E-16
21
-0.300000000000001
31
0
210
0
220
0
230
1
40
0.996195
41
1.34390352403567
42
1.5707963267949
0
ELLIPSE
5
12E
100
AcDbEntity
8
1
62
256
6
ByLayer
370
-1
48
1
60
0
100
AcDbEllipse
10
120.375909
20
3.166439
30
0
11
5.04036978550836E-16
21
0.430266371133673
31
0
210
0
220
0
230
1
40
0.996195
41
-2.8448866807508
42
-1.79768912955418
0
ELLIPSE
5
12F
100
AcDbEntity
8
1
62
256
6
ByLayer
370
-1
48
1
60
0
100
AcDbEllipse
10
120.570041
20
3.121449
30
0
11
2.69746310087586E-16
21
0.230266371133677
31
0
210
0
220
0
230
1
40
0.996195
41
-1.79768912955418
42
-1.5707963267949
0
ELLIPSE
5
130
100
AcDbEntity
8
1
62
256
6
ByLayer
370
-1
48
1
60
0
100
AcDbEllipse
10
120.153823
20
9.565722
30
0
11
-5.35934686386747E-16
21
-0.500000000000006
31
0
210
0
220
0
230
1
40
0.996195
41
1.8675022996339
42
2.91469985083053
0
ELLIPSE
5
131
100
AcDbEntity
8
1
62
256
6
ByLayer
370
-1
48
1
60
0
100
AcDbEllipse
10
120.37644
20
3.166439
30
0
11
-5.35934686386747E-16
21
-0.500000000000006
31
0
210
0
220
0
230
1
40
0.996195
41
0.296705972839069
42
1.34390352403565
0
ELLIPSE
5
132
100
AcDbEntity
8
1
62
256
6
ByLayer
370
-1
48
1
60
0
100
AcDbEllipse
10
113.956158
20
12.448097
30
0
11
1.1632843730555E-14
21
9.9302663711333
31
0
210
0
220
0
230
1
40
0.996195
41
3.14159265358979
42
-3.12558669055491
0
ELLIPSE
5
133
100
AcDbEntity
8
1
62
256
6
ByLayer
370
-1
48
1
60
0
100
AcDbEllipse
10
120.43416
20
2.975178
30
0
11
2.69746310087586E-16
21
0.230266371133677
31
0
210
0
220
0
230
1
40
0.996195
41
-3.07177948351002
42
-2.84488668075078
0
ELLIPSE
5
134
100
AcDbEntity
8
1
62
256
6
ByLayer
370
-1
48
1
60
0
100
AcDbEllipse
10
113.810975
20
2.884497
30
0
11
-3.21560811832046E-16
21
-0.300000000000001
31
0
210
0
220
0
230
1
40
0.996195
41
-1.50098315671517
42
-1.27409035395594
0
ELLIPSE
5
135
100
AcDbEntity
8
1
62
256
6
ByLayer
370
-1
48
1
60
0
100
AcDbEllipse
10
117.269066
20
6.254347
30
0
11
-1.50061712188287E-15
21
-1.4
31
0
210
0
220
0
230
1
40
0.996195
41
-3.12352863120908
42
0
0
ELLIPSE
5
136
100
AcDbEntity
8
1
62
256
6
ByLayer
370
-1
48
1
60
0
100
AcDbEllipse
10
117.269066
20
6.254347
30
0
11
-1.50061712188287E-15
21
-1.4
31
0
210
0
220
0
230
1
40
0.996195
41
0
42
0.0349500842375337
0
ELLIPSE
5
137
100
AcDbEntity
8
1
62
256
6
ByLayer
370
-1
48
1
60
0
100
AcDbEllipse
10
120.247444
20
0.061621
30
0
11
-1.07186937277348E-14
21
-9.99999999999999
31
0
210
0
220
0
230
1
40
0.996195
41
-3.11578669746811
42
-3.1066860685499
0
ELLIPSE
5
138
100
AcDbEntity
8
1
62
256
6
ByLayer
370
-1
48
1
60
0
100
AcDbEllipse
10
114.001508
20
2.942971
30
0
11
-5.35934686386747E-16
21
-0.500000000000006
31
0
210
0
220
0
230
1
40
0.996195
41
-1.27409035395589
42
-0.226892802759289
0
ELLIPSE
5
139
100
AcDbEntity
8
1
62
256
6
ByLayer
370
-1
48
1
60
0
100
AcDbEllipse
10
113.907887
20
12.447073
30
0
11
-1.07186937277348E-14
21
-9.99999999999999
31
0
210
0
220
0
230
1
40
0.996195
41
0.0258059561216836
42
0.0349065850398896
0
ELLIPSE
5
13A
100
AcDbEntity
8
1
62
256
6
ByLayer
370
-1
48
1
60
0
100
AcDbEllipse
10
117.30427
20
6.254347
30
0
11
1.64003467924279E-15
21
1.4
31
0
210
0
220
0
230
1
40
0.996195
41
0
42
1.57079653853157
0
ELLIPSE
5
13B
100
AcDbEntity
8
1
62
256
6
ByLayer
370
-1
48
1
60
0
100
AcDbEllipse
10
117.30427
20
6.254347
30
0
11
1.64003467924279E-15
21
1.4
31
0
210
0
220
0
230
1
40
0.996195
41
1.57079640587062
42
-3.14159236166655
0
ELLIPSE
5
13C
100
AcDbEntity
8
1
62
256
6
ByLayer
370
-1
48
1
60
0
100
AcDbEllipse
10
123.452911
20
3.512194
30
0
11
-1.07186937277348E-14
21
-9.99999999999999
31
0
210
0
220
0
230
1
40
0.996195
41
-1.53588974175501
42
-1.5267891128368
0
ELLIPSE
5
13D
100
AcDbEntity
8
1
62
256
6
ByLayer
370
-1
48
1
60
0
100
AcDbEllipse
10
117.129471
20
6.254347
30
0
11
-2.01991837106078E-15
21
-1.88448184300126
31
0
210
0
220
0
230
1
40
0.996195
41
2.21551025834039
42
-9.46223865285074E-16
0
ELLIPSE
5
13E
100
AcDbEntity
8
1
62
256
6
ByLayer
370
-1
48
1
60
0
100
AcDbEllipse
10
117.129471
20
6.254347
30
0
11
-2.01991837106078E-15
21
-1.88448184300126
31
0
210
0
220
0
230
1
40
0.996195
41
0
42
0.92608264308836
0
ELLIPSE
5
13F
100
AcDbEntity
8
1
62
256
6
ByLayer
370
-1
48
1
60
0
100
AcDbEllipse
10
120.028512
20
7.658786
30
0
11
-5.35934686386771E-15
21
-5.00000000000028
31
0
210
0
220
0
230
1
40
0.996195
41
0.0440072139581157
42
0.0538072070448959
0
ELLIPSE
5
140
100
AcDbEntity
8
1
62
256
6
ByLayer
370
-1
48
1
60
0
100
AcDbEllipse
10
114.345947
20
-0.145251
30
0
11
-1.07186937277348E-14
21
-9.99999999999999
31
0
210
0
220
0
230
1
40
0.996195
41
-3.10668606854991
42
-3.0975854396317
0
ELLIPSE
5
141
100
AcDbEntity
8
1
62
256
6
ByLayer
370
-1
48
1
60
0
100
AcDbEllipse
10
123.246295
20
9.436234
30
0
11
1.16328437305553E-14
21
9.93026637113358
31
0
210
0
220
0
230
1
40
0.996195
41
1.59660228291658
42
1.60206008868336
0
ELLIPSE
5
142
100
AcDbEntity
8
1
62
256
6
ByLayer
370
-1
48
1
60
0
100
AcDbEllipse
10
114.39417
20
-0.142856
30
0
11
1.1632843730555E-14
21
9.9302663711333
31
0
210
0
220
0
230
1
40
0.996195
41
0.0538072070448951
42
0.0698131700797843
0
ELLIPSE
5
143
100
AcDbEntity
8
1
62
256
6
ByLayer
370
-1
48
1
60
0
100
AcDbEllipse
10
113.956158
20
2.748097
30
0
11
2.69746310087586E-16
21
0.230266371133677
31
0
210
0
220
0
230
1
40
0.996195
41
2.91469985083047
42
3.14159265358973
0
ELLIPSE
5
144
100
AcDbEntity
8
1
62
256
6
ByLayer
370
-1
48
1
60
0
100
AcDbEllipse
10
120.19811
20
0.060596
30
0
11
1.1632843730555E-14
21
9.9302663711333
31
0
210
0
220
0
230
1
40
0.996195
41
0
42
0.0160059630348829
0
ELLIPSE
5
145
100
AcDbEntity
8
1
62
256
6
ByLayer
370
-1
48
1
60
0
100
AcDbEllipse
10
120.434692
20
2.975178
30
0
11
-3.21560811832046E-16
21
-0.300000000000001
31
0
210
0
220
0
230
1
40
0.996195
41
0.0698131700797046
42
0.296705972839008
0
ELLIPSE
5
146
100
AcDbEntity
8
1
62
256
6
ByLayer
370
-1
48
1
60
0
100
AcDbEllipse
10
118.26698
20
9.307218
30
0
11
5.77557701897395E-15
21
4.93026637113357
31
0
210
0
220
0
230
1
40
0.996195
41
1.58680228982978
42
1.59660228291656
0
ELLIPSE
5
147
100
AcDbEntity
8
1
62
256
6
ByLayer
370
-1
48
1
60
0
100
AcDbEllipse
10
120.19811
20
9.760596
30
0
11
2.69746310087586E-16
21
0.230266371133677
31
0
210
0
220
0
230
1
40
0.996195
41
-0.22689280275933
42
-6.19505726264818E-14
0
ELLIPSE
5
148
100
AcDbEntity
8
1
62
256
6
ByLayer
370
-1
48
1
60
0
100
AcDbEllipse
10
120.198642
20
9.760596
30
0
11
-3.21560811832046E-16
21
-0.300000000000001
31
0
210
0
220
0
230
1
40
0.996195
41
2.91469985083062
42
-3.14159265358975
0
ELLIPSE
5
149
100
AcDbEntity
8
1
62
256
6
ByLayer
370
-1
48
1
60
0
100
AcDbEllipse
10
113.720639
20
9.533515
30
0
11
-3.21560811832046E-16
21
-0.300000000000001
31
0
210
0
220
0
230
1
40
0.996195
41
-3.07177948351009
42
-2.84488668075079
0
ELLIPSE
5
14A
100
AcDbEntity
8
1
62
256
6
ByLayer
370
-1
48
1
60
0
100
AcDbEllipse
10
120.153291
20
9.565722
30
0
11
5.04036978550836E-16
21
0.430266371133673
31
0
210
0
220
0
230
1
40
0.996195
41
-1.27409035395586
42
-0.226892802759249
0
ELLIPSE
5
14B
100
AcDbEntity
8
1
62
256
6
ByLayer
370
-1
48
1
60
0
100
AcDbEllipse
10
110.907973
20
3.07246
30
0
11
1.16328437305553E-14
21
9.93026637113358
31
0
210
0
220
0
230
1
40
0.996195
41
-1.54499037067321
42
-1.53953256490644
0
ELLIPSE
5
14C
100
AcDbEntity
8
1
62
256
6
ByLayer
370
-1
48
1
60
0
100
AcDbEllipse
10
110.701888
20
8.9965
30
0
11
1.16328437305553E-14
21
9.93026637113358
31
0
210
0
220
0
230
1
40
0.996195
41
-1.53224690693385
42
-1.5267891128368
0
ELLIPSE
5
14D
100
AcDbEntity
8
1
62
256
6
ByLayer
370
-1
48
1
60
0
100
AcDbEllipse
10
120.02798
20
7.658786
30
0
11
5.77557701897395E-15
21
4.93026637113357
31
0
210
0
220
0
230
1
40
0.996195
41
-3.09758543963168
42
-3.0877854465449
0
ELLIPSE
5
14E
100
AcDbEntity
8
1
62
256
6
ByLayer
370
-1
48
1
60
0
100
AcDbEllipse
10
118.476229
20
3.292229
30
0
11
5.77557701897395E-15
21
4.93026637113357
31
0
210
0
220
0
230
1
40
0.996195
41
1.61480354075301
42
1.62460353383979
0
ELLIPSE
5
14F
100
AcDbEntity
8
1
62
256
6
ByLayer
370
-1
48
1
60
0
100
AcDbEllipse
10
123.247847
20
9.387245
30
0
11
-1.07186937277344E-14
21
-9.99999999999964
31
0
210
0
220
0
230
1
40
0.996195
41
-1.5707963267949
42
-1.55479036376002
0
ELLIPSE
5
150
100
AcDbEntity
8
1
62
256
6
ByLayer
370
-1
48
1
60
0
100
AcDbEllipse
10
120.118388
20
5.059956
30
0
11
5.77557701897395E-15
21
4.93026637113357
31
0
210
0
220
0
230
1
40
0.996195
41
0.0160059630348832
42
0.0258059561216605
0
ELLIPSE
5
151
100
AcDbEntity
8
1
62
256
6
ByLayer
370
-1
48
1
60
0
100
AcDbEllipse
10
123.449993
20
3.561135
30
0
11
1.1632843730555E-14
21
9.9302663711333
31
0
210
0
220
0
230
1
40
0.996195
41
1.62460353383979
42
1.64060949687468
0
ELLIPSE
5
152
100
AcDbEntity
8
1
62
256
6
ByLayer
370
-1
48
1
60
0
100
AcDbEllipse
10
113.720107
20
9.533515
30
0
11
2.69746310087586E-16
21
0.230266371133677
31
0
210
0
220
0
230
1
40
0.996195
41
0.069813170079711
42
0.296705972838969
0
ELLIPSE
5
153
100
AcDbEntity
8
1
62
256
6
ByLayer
370
-1
48
1
60
0
100
AcDbEllipse
10
115.678571
20
9.216465
30
0
11
-5.35934686386771E-15
21
-5.00000000000028
31
0
210
0
220
0
230
1
40
0.996195
41
1.61480354075302
42
1.62460353383979
0
ELLIPSE
5
154
100
AcDbEntity
8
1
62
256
6
ByLayer
370
-1
48
1
60
0
100
AcDbEllipse
10
110.70242
20
8.9965
30
0
11
-1.07186937277348E-14
21
-9.99999999999999
31
0
210
0
220
0
230
1
40
0.996195
41
1.60570291183479
42
1.61480354075299
0
ELLIPSE
5
155
100
AcDbEntity
8
1
62
256
6
ByLayer
370
-1
48
1
60
0
100
AcDbEllipse
10
120.343824
20
9.624197
30
0
11
2.69746310087586E-16
21
0.230266371133677
31
0
210
0
220
0
230
1
40
0.996195
41
-1.50098315671514
42
-1.27409035395591
0
ELLIPSE
5
156
100
AcDbEntity
8
1
62
256
6
ByLayer
370
-1
48
1
60
0
100
AcDbEllipse
10
110.907484
20
3.121449
30
0
11
-1.07186937277344E-14
21
-9.99999999999964
31
0
210
0
220
0
230
1
40
0.996195
41
1.57079632679489
42
1.58680228982978
0
ELLIPSE
5
157
100
AcDbEntity
8
1
62
256
6
ByLayer
370
-1
48
1
60
0
100
AcDbEllipse
10
110.704806
20
8.947559
30
0
11
-1.07186937277344E-14
21
-9.99999999999964
31
0
210
0
220
0
230
1
40
0.996195
41
1.62460353383979
42
1.64060949687468
0
ELLIPSE
5
158
100
AcDbEntity
8
1
62
256
6
ByLayer
370
-1
48
1
60
0
100
AcDbEllipse
10
123.246827
20
9.436234
30
0
11
-1.07186937277348E-14
21
-9.99999999999999
31
0
210
0
220
0
230
1
40
0.996195
41
-1.54499037067321
42
-1.53588974175501
0
ELLIPSE
5
159
100
AcDbEntity
8
1
62
256
6
ByLayer
370
-1
48
1
60
0
100
AcDbEllipse
10
114.345415
20
-0.145251
30
0
11
1.16328437305553E-14
21
9.93026637113358
31
0
210
0
220
0
230
1
40
0.996195
41
0.0385494198610487
42
0.0440072139580949
0
ELLIPSE
5
15A
100
AcDbEntity
8
1
62
256
6
ByLayer
370
-1
48
1
60
0
100
AcDbEllipse
10
120.198642
20
0.060596
30
0
11
-1.07186937277344E-14
21
-9.99999999999964
31
0
210
0
220
0
230
1
40
0.996195
41
3.14159265358979
42
-3.12558669055491
0
ELLIPSE
5
15B
100
AcDbEntity
8
1
62
256
6
ByLayer
370
-1
48
1
60
0
100
AcDbEllipse
10
113.956689
20
2.748097
30
0
11
-3.21560811832046E-16
21
-0.300000000000001
31
0
210
0
220
0
230
1
40
0.996195
41
-0.226892802759223
42
0
0
ELLIPSE
5
15C
100
AcDbEntity
8
1
62
256
6
ByLayer
370
-1
48
1
60
0
100
AcDbEllipse
10
114.036411
20
7.448738
30
0
11
-5.35934686386771E-15
21
-5.00000000000028
31
0
210
0
220
0
230
1
40
0.996195
41
0.0160059630348837
42
0.0258059561216564
0
ELLIPSE
5
15D
100
AcDbEntity
8
1
62
256
6
ByLayer
370
-1
48
1
60
0
100
AcDbEllipse
10
113.956689
20
12.448097
30
0
11
-1.07186937277344E-14
21
-9.99999999999964
31
0
210
0
220
0
230
1
40
0.996195
41
0
42
0.0160059630348837
0
ELLIPSE
5
15E
100
AcDbEntity
8
1
62
256
6
ByLayer
370
-1
48
1
60
0
100
AcDbEllipse
10
118.267511
20
9.307218
30
0
11
-5.35934686386771E-15
21
-5.00000000000028
31
0
210
0
220
0
230
1
40
0.996195
41
-1.55479036376001
42
-1.54499037067324
0
ELLIPSE
5
15F
100
AcDbEntity
8
1
62
256
6
ByLayer
370
-1
48
1
60
0
100
AcDbEllipse
10
114.03588
20
7.448738
30
0
11
5.77557701897395E-15
21
4.93026637113357
31
0
210
0
220
0
230
1
40
0.996195
41
-3.12558669055491
42
-3.11578669746813
0
ELLIPSE
5
160
100
AcDbEntity
8
1
62
256
6
ByLayer
370
-1
48
1
60
0
100
AcDbEllipse
10
114.000977
20
2.942971
30
0
11
5.04036978550836E-16
21
0.430266371133673
31
0
210
0
220
0
230
1
40
0.996195
41
1.86750229963393
42
2.91469985083054
0
ELLIPSE
5
161
100
AcDbEntity
8
1
62
256
6
ByLayer
370
-1
48
1
60
0
100
AcDbEllipse
10
120.344356
20
9.624197
30
0
11
-3.21560811832046E-16
21
-0.300000000000001
31
0
210
0
220
0
230
1
40
0.996195
41
1.64060949687463
42
1.86750229963386
0
ELLIPSE
5
162
100
AcDbEntity
8
1
62
256
6
ByLayer
370
-1
48
1
60
0
100
AcDbEllipse
10
115.887288
20
3.201475
30
0
11
5.77557701897395E-15
21
4.93026637113357
31
0
210
0
220
0
230
1
40
0.996195
41
-1.55479036376002
42
-1.54499037067324
0
ELLIPSE
5
163
100
AcDbEntity
8
1
62
256
6
ByLayer
370
-1
48
1
60
0
100
AcDbEllipse
10
115.88782
20
3.201475
30
0
11
-5.35934686386771E-15
21
-5.00000000000028
31
0
210
0
220
0
230
1
40
0.996195
41
1.58680228982978
42
1.59660228291656
0
ELLIPSE
5
164
100
AcDbEntity
8
1
62
256
6
ByLayer
370
-1
48
1
60
0
100
AcDbEllipse
10
119.760097
20
12.65155
30
0
11
1.1632843730555E-14
21
9.9302663711333
31
0
210
0
220
0
230
1
40
0.996195
41
-3.0877854465449
42
-3.07177948351001
0
ELLIPSE
5
165
100
AcDbEntity
8
1
62
256
6
ByLayer
370
-1
48
1
60
0
100
AcDbEllipse
10
113.778359
20
9.342254
30
0
11
5.04036978550836E-16
21
0.430266371133673
31
0
210
0
220
0
230
1
40
0.996195
41
0.296705972839002
42
1.34390352403561
0
ELLIPSE
5
166
100
AcDbEntity
8
1
62
256
6
ByLayer
370
-1
48
1
60
0
100
AcDbEllipse
10
123.45238
20
3.512194
30
0
11
1.16328437305553E-14
21
9.93026637113358
31
0
210
0
220
0
230
1
40
0.996195
41
1.60934574665594
42
1.61480354075299
0
ELLIPSE
5
167
100
AcDbEntity
8
1
62
256
6
ByLayer
370
-1
48
1
60
0
100
AcDbEllipse
10
113.810443
20
2.884497
30
0
11
2.69746310087586E-16
21
0.230266371133677
31
0
210
0
220
0
230
1
40
0.996195
41
1.64060949687465
42
1.86750229963388
0
ELLIPSE
5
168
100
AcDbEntity
8
1
62
256
6
ByLayer
370
-1
48
1
60
0
100
AcDbEllipse
10
117.150204
20
6.254347
30
0
11
-1.93445608783117E-15
21
-1.80474984822612
31
0
210
0
220
0
230
1
40
0.996195
41
0
42
6.28318530717959
0
ELLIPSE
5
169
100
AcDbEntity
8
1
62
256
6
ByLayer
370
-1
48
1
60
0
100
AcDbEllipse
10
110.908505
20
3.07246
30
0
11
-1.07186937277348E-14
21
-9.99999999999999
31
0
210
0
220
0
230
1
40
0.996195
41
1.59660228291658
42
1.60570291183479
0
ELLIPSE
5
16A
100
AcDbEntity
8
1
62
256
6
ByLayer
370
-1
48
1
60
0
100
AcDbEllipse
10
117.060234
20
6.254347
30
0
11
2.27265689458196E-15
21
1.94003193510747
31
0
210
0
220
0
230
1
40
0.996195
41
0
42
6.28318530717959
0
ELLIPSE
5
16B
100
AcDbEntity
8
1
62
256
6
ByLayer
370
-1
48
1
60
0
100
AcDbEllipse
10
114.394702
20
-0.142856
30
0
11
-1.07186937277344E-14
21
-9.99999999999964
31
0
210
0
220
0
230
1
40
0.996195
41
-3.0877854465449
42
-3.07177948351001
0
ELLIPSE
5
16C
100
AcDbEntity
8
1
62
256
6
ByLayer
370
-1
48
1
60
0
100
AcDbEllipse
10
119.760629
20
12.65155
30
0
11
-1.07186937277344E-14
21
-9.99999999999964
31
0
210
0
220
0
230
1
40
0.996195
41
0.0538072070448963
42
0.0698131700797849
0
ELLIPSE
5
16D
100
AcDbEntity
8
1
62
256
6
ByLayer
370
-1
48
1
60
0
100
AcDbEllipse
10
123.247315
20
9.387245
30
0
11
1.1632843730555E-14
21
9.9302663711333
31
0
210
0
220
0
230
1
40
0.996195
41
1.57079632679489
42
1.58680228982978
0
ELLIPSE
5
16E
100
AcDbEntity
8
1
62
256
6
ByLayer
370
-1
48
1
60
0
100
AcDbEllipse
10
115.678039
20
9.216465
30
0
11
5.77557701897395E-15
21
4.93026637113357
31
0
210
0
220
0
230
1
40
0.996195
41
-1.52678911283678
42
-1.51698911975
0
ELLIPSE
5
16F
100
AcDbEntity
8
1
62
256
6
ByLayer
370
-1
48
1
60
0
100
AcDbEllipse
10
113.907355
20
12.447073
30
0
11
1.16328437305553E-14
21
9.93026637113358
31
0
210
0
220
0
230
1
40
0.996195
41
-3.11578669746811
42
-3.11032889170134
0
ELLIPSE
5
170
100
AcDbEntity
8
1
62
256
6
ByLayer
370
-1
48
1
60
0
100
AcDbEllipse
10
119.809384
20
12.653945
30
0
11
-1.07186937277348E-14
21
-9.99999999999999
31
0
210
0
220
0
230
1
40
0.996195
41
0.0349065850398868
42
0.0440072139580954
0
ELLIPSE
5
171
100
AcDbEntity
8
1
62
256
6
ByLayer
370
-1
48
1
60
0
100
AcDbEllipse
10
120.11892
20
5.059956
30
0
11
-5.35934686386771E-15
21
-5.00000000000028
31
0
210
0
220
0
230
1
40
0.996195
41
-3.12558669055491
42
-3.11578669746813
0
ELLIPSE
5
172
100
AcDbEntity
8
1
62
256
6
ByLayer
370
-1
48
1
60
0
100
AcDbEllipse
10
122.681038
20
-1.901662
30
0
11
2.00000000000005
21
0
31
0
210
0
220
0
230
1
40
0.996917
41
-3.0892327757073
42
-2.67604929468265
0
ELLIPSE
5
173
100
AcDbEntity
8
1
62
256
6
ByLayer
370
-1
48
1
60
0
100
AcDbEllipse
10
120.094113
20
-0.313413
30
0
11
0.49999999999995
21
0
31
0
210
0
220
0
230
1
40
0.996917
41
0.0523598775597009
42
0.349065850398717
0
ELLIPSE
5
174
100
AcDbEntity
8
1
62
256
6
ByLayer
370
-1
48
1
60
0
100
AcDbEllipse
10
119.819925
20
-3.723519
30
0
11
-0.600000000000032
21
6.0638343304945E-16
31
0
210
0
220
0
230
1
40
0.996917
41
2.38534574936595
42
3.10668606854991
0
ELLIPSE
5
175
100
AcDbEntity
8
1
62
256
6
ByLayer
370
-1
48
1
60
0
100
AcDbEllipse
10
119.842951
20
-3.058327
30
0
11
0.326794919243111
21
0
31
0
210
0
220
0
230
1
40
0.996917
41
-0.0349065850398995
42
0.452754376167895
0
ELLIPSE
5
176
100
AcDbEntity
8
1
62
256
6
ByLayer
370
-1
48
1
60
0
100
AcDbEllipse
10
120.028603
20
-1.812711
30
0
11
-0.199724212739865
21
-0.0104994688170929
31
0
210
0
220
0
230
1
40
0.078352
41
1.34725685784644
42
1.56667742100336
0
ELLIPSE
5
177
100
AcDbEntity
8
1
62
256
6
ByLayer
370
-1
48
1
60
0
100
AcDbEllipse
10
120.31962
20
-3.725223
30
0
11
-0.199877411459051
21
0.00700145616490728
31
0
210
0
220
0
230
1
40
0.078411
41
0.526345418649194
42
1.57354296984573
0
ELLIPSE
5
178
100
AcDbEntity
8
1
62
256
6
ByLayer
370
-1
48
1
60
0
100
AcDbEllipse
10
122.681038
20
-1.689823
30
0
11
2.55607522661845
21
0
31
0
210
0
220
0
230
1
40
0.996917
41
-3.0892327757775
42
-2.6888382774219
0
ELLIPSE
5
179
100
AcDbEntity
8
1
62
256
6
ByLayer
370
-1
48
1
60
0
100
AcDbEllipse
10
120.000305
20
-3.244236
30
0
11
0.999999999999949
21
0
31
0
210
0
220
0
230
1
40
0.996917
41
-0.0349065850400198
42
0.465543358906964
0
ELLIPSE
5
17A
100
AcDbEntity
8
1
62
256
6
ByLayer
370
-1
48
1
60
0
100
AcDbEllipse
10
119.448819
20
-0.323793
30
0
11
-0.500000000000031
21
5.05319527541213E-16
31
0
210
0
220
0
230
1
40
0.996917
41
-3.08923277602996
42
-2.66895694207033
0
ELLIPSE
5
17B
100
AcDbEntity
8
1
62
256
6
ByLayer
370
-1
48
1
60
0
100
AcDbEllipse
10
117.30186
20
-2.226875
30
0
11
1.4
21
0
31
0
210
0
220
0
230
1
40
0.996917
41
1.16670922069847
42
2.75488273349296
0
ELLIPSE
5
17C
100
AcDbEntity
8
1
62
256
6
ByLayer
370
-1
48
1
60
0
100
AcDbEllipse
10
122.681038
20
-1.75259
30
0
11
-2.23329066571558
21
2.25705076812306E-15
31
0
210
0
220
0
230
1
40
0.996917
41
0.0523598778487876
42
0.452754376167892
0
ELLIPSE
5
17D
100
AcDbEntity
8
1
62
256
6
ByLayer
370
-1
48
1
60
0
100
AcDbEllipse
10
117.30186
20
-2.258566
30
0
11
1.4
21
0
31
0
210
0
220
0
230
1
40
0.996917
41
1.09337234695239
42
2.74830467620501
0
ELLIPSE
5
17E
100
AcDbEntity
8
1
62
256
6
ByLayer
370
-1
48
1
60
0
100
AcDbEllipse
10
119.726348
20
0.6939
30
0
11
0.499999999999967
21
0
31
0
210
0
220
0
230
1
40
0.996917
41
0.349065850398958
42
1.09190705299544
0
ELLIPSE
5
17F
100
AcDbEntity
8
1
62
256
6
ByLayer
370
-1
48
1
60
0
100
AcDbEllipse
10
120.444161
20
-4.855728
30
0
11
0.499999999999967
21
0
31
0
210
0
220
0
230
1
40
0.996917
41
-1.22173047639592
42
-0.034906585039949
0
ELLIPSE
5
180
100
AcDbEntity
8
1
62
256
6
ByLayer
370
-1
48
1
60
0
100
AcDbEllipse
10
119.819925
20
-3.715673
30
0
11
0.326794919243145
21
0
31
0
210
0
220
0
230
1
40
0.996917
41
-0.57816632073931
42
-0.0349065850399017
0
ELLIPSE
5
181
100
AcDbEntity
8
1
62
256
6
ByLayer
370
-1
48
1
60
0
100
AcDbEllipse
10
119.842951
20
-3.066173
30
0
11
-0.499999999999999
21
5.0531952754118E-16
31
0
210
0
220
0
230
1
40
0.996917
41
3.10668606854992
42
-2.68883827742191
0
ELLIPSE
5
182
100
AcDbEntity
8
1
62
256
6
ByLayer
370
-1
48
1
60
0
100
AcDbEllipse
10
119.948134
20
-0.282013
30
0
11
-0.199724212739865
21
-0.0104994688170929
31
0
210
0
220
0
230
1
40
0.078352
41
1.34725685784651
42
1.56667742100343
0
ELLIPSE
5
183
100
AcDbEntity
8
1
62
256
6
ByLayer
370
-1
48
1
60
0
100
AcDbEllipse
10
122.681038
20
-1.681977
30
0
11
-2.82928030737534
21
2.85938117640895E-15
31
0
210
0
220
0
230
1
40
0.996917
41
0.355821251929456
42
0.452754376167888
0
ELLIPSE
5
184
100
AcDbEntity
8
1
62
256
6
ByLayer
370
-1
48
1
60
0
100
AcDbEllipse
10
117.30186
20
-2.226875
30
0
11
1.5
21
0
31
0
210
0
220
0
230
1
40
0.996917
41
1.50393910937599
42
2.62725484490306
0
ELLIPSE
5
185
100
AcDbEntity
8
1
62
256
6
ByLayer
370
-1
48
1
60
0
100
AcDbEllipse
10
119.842951
20
-3.066173
30
0
11
-0.599999999999998
21
6.06383433049416E-16
31
0
210
0
220
0
230
1
40
0.996917
41
3.10668606854992
42
-2.6888382774219
0
ELLIPSE
5
186
100
AcDbEntity
8
1
62
256
6
ByLayer
370
-1
48
1
60
0
100
AcDbEllipse
10
120.183633
20
-4.049868
30
0
11
-0.145271608052383
21
0.137463303808233
31
0
210
0
220
0
230
1
40
0.057072
41
0.997626912437612
42
1.62474873021365
0
ELLIPSE
5
187
100
AcDbEntity
8
1
62
256
6
ByLayer
370
-1
48
1
60
0
100
AcDbEllipse
10
120.342646
20
-3.067877
30
0
11
-0.199877411459051
21
0.00700145616490728
31
0
210
0
220
0
230
1
40
0.078411
41
0.526345418649194
42
1.57354296984573
0
ELLIPSE
5
188
100
AcDbEntity
8
1
62
256
6
ByLayer
370
-1
48
1
60
0
100
AcDbEllipse
10
120.292574
20
-2.832433
30
0
11
-0.179742636640532
21
-0.0877073803822088
31
0
210
0
220
0
230
1
40
0.070554
41
0.489184774348156
42
1.53638232554492
0
ELLIPSE
5
189
100
AcDbEntity
8
1
62
256
6
ByLayer
370
-1
48
1
60
0
100
AcDbEllipse
10
122.681038
20
-1.689823
30
0
11
2.65607522661845
21
0
31
0
210
0
220
0
230
1
40
0.996917
41
-3.089232775787
42
-2.6888382774219
0
ELLIPSE
5
18A
100
AcDbEntity
8
1
62
256
6
ByLayer
370
-1
48
1
60
0
100
AcDbEllipse
10
119.448819
20
-0.323793
30
0
11
-0.600000000000031
21
6.06383433049449E-16
31
0
210
0
220
0
230
1
40
0.996917
41
-3.08923277602996
42
-2.3830040085598
0
ELLIPSE
5
18B
100
AcDbEntity
8
1
62
256
6
ByLayer
370
-1
48
1
60
0
100
AcDbEllipse
10
119.819925
20
-3.723519
30
0
11
-0.500000000000032
21
5.05319527541214E-16
31
0
210
0
220
0
230
1
40
0.996917
41
2.38534574936597
42
3.10668606854992
0
POINT
5
41
100
AcDbEntity
8
81
62
256
6
ByLayer
370
-1
48
1
60
0
100
AcDbPoint
10
121
20
0
30
0
39
0
210
0
220
0
230
1
50
360
0
POINT
5
43
100
AcDbEntity
8
80
62
256
6
ByLayer
370
-1
48
1
60
0
100
AcDbPoint
10
0
20
0
30
0
39
0
210
0
220
0
230
1
50
360
0
SPLINE
5
18C
100
AcDbEntity
8
1
62
256
6
ByLayer
370
-1
48
1
60
0
100
AcDbSpline
70
4
71
3
72
17
73
13
40
0
40
0
40
0
40
0
40
0.0923681888257288
40
0.187087740680855
40
0.282916937709522
40
0.378524211767056
40
0.472596208425647
40
0.565265937034817
40
0.674644929196138
40
0.782713797768714
40
0.890676421156681
40
1
40
1
40
1
40
1
41
1
10
17
20
9.81999999999996
30
0
41
1
10
16.5649055149528
20
9.82046012815664
30
0
41
1
10
15.6967795526096
20
9.89054188619534
30
0
41
1
10
14.4084875941493
20
10.212180633589
30
0
41
1
10
13.1789350530479
20
10.7478376050988
30
0
41
1
10
12.0628613148471
20
11.4829029392617
30
0
41
1
10
11.0762979506662
20
12.3702573347499
30
0
41
1
10
10.2790322529117
20
13.5028446037797
30
0
41
1
10
9.26049088871648
20
14.5455170037409
30
0
41
1
10
7.96799811585714
20
15.3645485806641
30
0
41
1
10
6.52306223019048
20
15.88293777341
30
0
41
1
10
5.51983711966952
20
15.9980950665467
30
0
41
1
10
5.00000000000003
20
16
30
0
0
SPLINE
5
18D
100
AcDbEntity
8
1
62
256
6
ByLayer
370
-1
48
1
60
0
100
AcDbSpline
70
4
71
3
72
17
73
13
40
0
40
0
40
0
40
0
40
0.0929478512700358
40
0.184729719325414
40
0.276306412769965
40
0.368436308674525
40
0.461859359355032
40
0.554252096443547
40
0.665901624272132
40
0.778844317674355
40
0.890903081099174
40
1
40
1
40
1
40
1
41
1
10
4.99999999999997
20
-16
30
0
41
1
10
5.43968623661206
20
-15.9990111425382
30
0
41
1
10
6.29468615712932
20
-15.9152381688548
30
0
41
1
10
7.54021246576704
20
-15.5408743587493
30
0
41
1
10
8.68130087265436
20
-14.9386443287937
30
0
41
1
10
9.7112752233478
20
-14.1386515271084
30
0
41
1
10
10.5233043922843
20
-13.1226368524944
30
0
41
1
10
11.3929698535455
20
-12.0382623147983
30
0
41
1
10
12.5594833838086
20
-11.1071886864901
30
0
41
1
10
13.9522990117769
20
-10.3660715280886
30
0
41
1
10
15.4603515795667
20
-9.91873360369885
30
0
41
1
10
16.4841392320667
20
-9.82089620533722
30
0
41
1
10
17
20
-9.82000000000002
30
0
0
SPLINE
5
18E
100
AcDbEntity
8
1
62
256
6
ByLayer
370
-1
48
1
60
0
100
AcDbSpline
70
4
71
3
72
20
73
16
40
0
40
0
40
0
40
0
40
0.0553893404808579
40
0.136567403713215
40
0.217471982885397
40
0.297898519492168
40
0.37777737095711
40
0.457177337561977
40
0.536273217725255
40
0.615298749254357
40
0.69442911271797
40
0.773874250405689
40
0.853793010588033
40
0.934241316975723
40
1
40
1
40
1
40
1
41
1
10
117.243883456113
20
7.64458626789309
30
0
41
1
10
117.323989479382
20
7.65039353292434
30
0
41
1
10
117.517967860959
20
7.6457803775686
30
0
41
1
10
117.820259589277
20
7.55386390333962
30
0
41
1
10
118.122849343538
20
7.37579329390979
30
0
41
1
10
118.371886139135
20
7.12560013224933
30
0
41
1
10
118.551324265937
20
6.82165925122285
30
0
41
1
10
118.65035060804
20
6.48283112049882
30
0
41
1
10
118.663301683464
20
6.13056388963412
30
0
41
1
10
118.589898387697
20
5.78665232172119
30
0
41
1
10
118.435124578519
20
5.47212639247417
30
0
41
1
10
118.208535107015
20
5.20596619666179
30
0
41
1
10
117.924289104939
20
5.00429367452494
30
0
41
1
10
117.618002087775
20
4.88712767427455
30
0
41
1
10
117.412244107327
20
4.85870526106316
30
0
41
1
10
117.317074558604
20
4.85518797668271
30
0
0
SPLINE
5
18F
100
AcDbEntity
8
1
62
256
6
ByLayer
370
-1
48
1
60
0
100
AcDbSpline
70
4
71
3
72
12
73
8
40
0
40
0
40
0
40
0
40
0.148093023185746
40
0.374902314336632
40
0.600480274348995
40
0.824869539728542
40
1
40
1
40
1
40
1
41
1
10
116.01658924549
20
-1.71084596614401
30
0
41
1
10
116.046792790837
20
-1.64131217334844
30
0
41
1
10
116.135533951515
20
-1.4714134359478
30
0
41
1
10
116.337221144199
20
-1.2327806553125
30
0
41
1
10
116.623941198702
20
-1.02734171313196
30
0
41
1
10
116.93085771224
20
-0.908191514361363
30
0
41
1
10
117.135684197323
20
-0.877566053070609
30
0
41
1
10
117.228187419936
20
-0.872511981152087
30
0
0
SPLINE
5
190
100
AcDbEntity
8
1
62
256
6
ByLayer
370
-1
48
1
60
0
100
AcDbSpline
70
4
71
3
72
10
73
6
40
0
40
0
40
0
40
0
40
0.149584595526908
40
0.618438453145123
40
1
40
1
40
1
40
1
41
1
10
117.228187419936
20
-0.872511981152087
30
0
41
1
10
117.265271801539
20
-0.870584893268642
30
0
41
1
10
117.417889993865
20
-0.8685771444799
30
0
41
1
10
117.665428037493
20
-0.905877251029267
30
0
41
1
10
117.86203351627
20
-0.983098925169742
30
0
41
1
10
117.945719129457
20
-1.02607691868542
30
0
0
SPLINE
5
191
100
AcDbEntity
8
1
62
256
6
ByLayer
370
-1
48
1
60
0
100
AcDbSpline
70
4
71
3
72
22
73
18
40
0
40
0
40
0
40
0
40
0.125
40
0.125
40
0.25
40
0.25
40
0.375
40
0.375
40
0.5
40
0.5
40
0.625
40
0.625
40
0.75
40
0.75
40
0.875
40
0.875
40
1
40
1
40
1
40
1
41
1
10
113.450790416978
20
2.39264283708937
30
0
41
1
10
113.456575752631
20
2.39264283708937
30
0
41
1
10
113.444815577418
20
2.40421147995525
30
0
41
1
10
113.40351542335
20
2.44132271231504
30
0
41
1
10
113.374445044271
20
2.46688154270177
30
0
41
1
10
113.312589937063
20
2.52570924767781
30
0
41
1
10
113.279362990223
20
2.5592474130907
30
0
41
1
10
113.211957984255
20
2.63401824846596
30
0
41
1
10
113.178064175529
20
2.67493424792551
30
0
41
1
10
113.112642315657
20
2.76242841411332
30
0
41
1
10
113.080904542758
20
2.80920915591645
30
0
41
1
10
113.020288631202
20
2.90942258161186
30
0
41
1
10
112.991232013384
20
2.9632935756114
30
0
41
1
10
112.938470159743
20
3.07507806122078
30
0
41
1
10
112.914549395301
20
3.13325427683341
30
0
41
1
10
112.872056321813
20
3.25476224321363
30
0
41
1
10
112.853510458246
20
3.3183575736866
30
0
41
1
10
112.838534827635
20
3.38194081047263
30
0
0
SPLINE
5
192
100
AcDbEntity
8
1
62
256
6
ByLayer
370
-1
48
1
60
0
100
AcDbSpline
70
4
71
3
72
30
73
26
40
0
40
0
40
0
40
0
40
0.0624999999999981
40
0.0624999999999981
40
0.124999999999996
40
0.124999999999996
40
0.249999999999992
40
0.249999999999992
40
0.374999999999988
40
0.374999999999988
40
0.437499999999989
40
0.437499999999989
40
0.49999999999999
40
0.49999999999999
40
0.562499999999991
40
0.562499999999991
40
0.624999999999992
40
0.624999999999992
40
0.687499999999993
40
0.687499999999993
40
0.749999999999994
40
0.749999999999994
40
0.874999999999997
40
0.874999999999997
40
1
40
1
40
1
40
1
41
1
10
112.877566344777
20
2.33634948502322
30
0
41
1
10
112.94201850503
20
2.31124054138726
30
0
41
1
10
113.005839740223
20
2.28694068379775
30
0
41
1
10
113.131935418983
20
2.23972553681463
30
0
41
1
10
113.194342546577
20
2.21676431039157
30
0
41
1
10
113.376379124189
20
2.15035474101089
30
0
41
1
10
113.491595565029
20
2.1091575291124
30
0
41
1
10
113.705149699028
20
2.02965905807798
30
0
41
1
10
113.80405039015
20
1.99111477555306
30
0
41
1
10
113.927806602926
20
1.9342791459531
30
0
41
1
10
113.965171658862
20
1.91540742832927
30
0
41
1
10
114.030548397134
20
1.87712356303291
30
0
41
1
10
114.058549091201
20
1.85763286188674
30
0
41
1
10
114.101651256423
20
1.81870441187999
30
0
41
1
10
114.117052680194
20
1.79911893823728
30
0
41
1
10
114.134044471056
20
1.75924167779758
30
0
41
1
10
114.135415571196
20
1.73894108739361
30
0
41
1
10
114.123523932466
20
1.69921885642228
30
0
41
1
10
114.110407136424
20
1.67957534285111
30
0
41
1
10
114.070075078752
20
1.64086788142197
30
0
41
1
10
114.042807967659
20
1.62190770337744
30
0
41
1
10
113.944635243717
20
1.5685125029446
30
0
41
1
10
113.855440059352
20
1.53654956580442
30
0
41
1
10
113.652475580698
20
1.48565312221606
30
0
41
1
10
113.537747058915
20
1.46619547081863
30
0
41
1
10
113.414402618983
20
1.45361382452307
30
0
0
SPLINE
5
193
100
AcDbEntity
8
1
62
256
6
ByLayer
370
-1
48
1
60
0
100
AcDbSpline
70
4
71
3
72
10
73
6
40
0
40
0
40
0
40
0
40
0.5
40
0.5
40
1
40
1
40
1
40
1
41
1
10
112.881643752823
20
1.42127478623115
30
0
41
1
10
112.74255638888
20
1.41853173338018
30
0
41
1
10
112.596813782873
20
1.42575179633258
30
0
41
1
10
112.297583750427
20
1.45934897902177
30
0
41
1
10
112.144007124972
20
1.48576009532201
30
0
41
1
10
111.987848845094
20
1.52217151232611
30
0
0
SPLINE
5
194
100
AcDbEntity
8
1
62
256
6
ByLayer
370
-1
48
1
60
0
100
AcDbSpline
70
4
71
3
72
8
73
4
40
0
40
0
40
0
40
0
40
1
40
1
40
1
40
1
41
1
10
111.915824891749
20
2.83437280246881
30
0
41
1
10
111.937684109044
20
2.82423305108165
30
0
41
1
10
111.959646518012
20
2.81422080742672
30
0
41
1
10
111.981711720682
20
2.80433795578256
30
0
0
SPLINE
5
195
100
AcDbEntity
8
1
62
256
6
ByLayer
370
-1
48
1
60
0
100
AcDbSpline
70
4
71
3
72
16
73
12
40
0
40
0
40
0
40
0
40
0.249999999999999
40
0.249999999999999
40
0.499999999999998
40
0.499999999999998
40
0.624999999999998
40
0.624999999999998
40
0.749999999999998
40
0.749999999999998
40
1
40
1
40
1
40
1
41
1
10
13.2289325861157
20
-6.25796056046741
30
0
41
1
10
13.3858215238619
20
-6.34668867009188
30
0
41
1
10
13.5546469499397
20
-6.44045143113806
30
0
41
1
10
13.9142573676929
20
-6.63891850230758
30
0
41
1
10
14.1050458295373
20
-6.74360799069322
30
0
41
1
10
14.407493485266
20
-6.90766396101631
30
0
41
1
10
14.5113791546869
20
-6.96368627059255
30
0
41
1
10
14.7227303743403
20
-7.0765923603453
30
0
41
1
10
14.8301343790547
20
-7.13344522917686
30
0
41
1
10
15.1575728963913
20
-7.30443436920783
30
0
41
1
10
15.3827914076807
20
-7.41903523096968
30
0
41
1
10
15.6155614509503
20
-7.53180156645271
30
0
0
SPLINE
5
196
100
AcDbEntity
8
1
62
256
6
ByLayer
370
-1
48
1
60
0
100
AcDbSpline
70
4
71
3
72
22
73
18
40
0
40
0
40
0
40
0
40
0.136153570680671
40
0.136153570680671
40
0.272307141361341
40
0.272307141361341
40
0.408460712042012
40
0.408460712042012
40
0.544614282722682
40
0.544614282722682
40
0.680767853403353
40
0.680767853403353
40
0.816921424084023
40
0.816921424084023
40
0.953074994764694
40
0.953074994764694
40
1
40
1
40
1
40
1
41
1
10
17.9500896579876
20
1.80272121828639
30
0
41
1
10
17.5479428487133
20
1.70487283912291
30
0
41
1
10
17.1348069998845
20
1.51287245050324
30
0
41
1
10
16.3351464143586
20
0.963148952071151
30
0
41
1
10
15.9488116234995
20
0.605556419771887
30
0
41
1
10
15.2485701459739
20
-0.233033507398375
30
0
41
1
10
14.9348297898189
20
-0.713831709425079
30
0
41
1
10
14.4170090617291
20
-1.7418875832374
30
0
41
1
10
14.2130516893442
20
-2.28890105774971
30
0
41
1
10
13.9390304946942
20
-3.38456445113746
30
0
41
1
10
13.8690317615259
20
-3.93295411371759
30
0
41
1
10
13.8712906226379
20
-4.96635288537618
30
0
41
1
10
13.9435476803639
20
-5.45111652806639
30
0
41
1
10
14.2218188479126
20
-6.2997589418413
30
0
41
1
10
14.4277668591291
20
-6.66343613228361
30
0
41
1
10
14.7782487189689
20
-7.04215211873154
30
0
41
1
10
14.8745638383404
20
-7.12946149257132
30
0
41
1
10
14.9766029437202
20
-7.20653103630713
30
0
0
SPLINE
5
197
100
AcDbEntity
8
1
62
256
6
ByLayer
370
-1
48
1
60
0
100
AcDbSpline
70
4
71
3
72
10
73
6
40
0
40
0
40
0
40
0
40
0.5
40
0.5
40
1
40
1
40
1
40
1
41
1
10
113.193069709553
20
6.25798309682136
30
0
41
1
10
113.195906846755
20
6.25798309682136
30
0
41
1
10
113.201212932054
20
6.26085204689767
30
0
41
1
10
113.216375272827
20
6.27165993390218
30
0
41
1
10
113.226327457542
20
6.27968029350083
30
0
41
1
10
113.238227747935
20
6.28966629284375
30
0
0
SPLINE
5
198
100
AcDbEntity
8
1
62
256
6
ByLayer
370
-1
48
1
60
0
100
AcDbSpline
70
4
71
1
72
4
73
2
40
0
40
0
40
1
40
1
41
1
10
17.9500896579846
20
1.80272121828676
30
0
41
1
10
17.9500896579846
20
3.96068424517594
30
0
0
SPLINE
5
199
100
AcDbEntity
8
1
62
256
6
ByLayer
370
-1
48
1
60
0
100
AcDbSpline
70
4
71
3
72
10
73
6
40
0
40
0
40
0
40
0
40
0.799840130015581
40
0.799840130015581
40
1
40
1
40
1
40
1
41
1
10
69
20
-8.33371811977221
30
0
41
1
10
71.9414941842145
20
-8.05239665619055
30
0
41
1
10
74.8811352339404
20
-7.72729350141449
30
0
41
1
10
78.5562643609701
20
-7.27251074267465
30
0
41
1
10
79.2918705963493
20
-7.17906524212688
30
0
41
1
10
80.0274949189957
20
-7.08329538333916
30
0
0
SPLINE
5
19A
100
AcDbEntity
8
1
62
256
6
ByLayer
370
-1
48
1
60
0
100
AcDbSpline
70
4
71
3
72
8
73
4
40
0
40
0
40
0
40
0
40
1
40
1
40
1
40
1
41
1
10
9.09608626297324
20
-3.87248691363413
30
0
41
1
10
10.4748232785357
20
-4.68653055831359
30
0
41
1
10
11.8543147562637
20
-5.48454943397957
30
0
41
1
10
13.2289325861157
20
-6.25796056046741
30
0
0
SPLINE
5
19B
100
AcDbEntity
8
1
62
256
6
ByLayer
370
-1
48
1
60
0
100
AcDbSpline
70
4
71
3
72
8
73
4
40
0
40
0
40
0
40
0
40
1
40
1
40
1
40
1
41
1
10
111.981711720682
20
2.80433795578256
30
0
41
1
10
112.438483244623
20
2.60887693596314
30
0
41
1
10
112.911375823021
20
2.47161801224053
30
0
41
1
10
113.400422369474
20
2.39264283708937
30
0
0
SPLINE
5
19C
100
AcDbEntity
8
1
62
256
6
ByLayer
370
-1
48
1
60
0
100
AcDbSpline
70
4
71
3
72
22
73
18
40
0
40
0
40
0
40
0
40
0.249999999999999
40
0.249999999999999
40
0.374999999999999
40
0.374999999999999
40
0.5
40
0.5
40
0.625
40
0.625
40
0.75
40
0.75
40
0.875
40
0.875
40
0.9375
40
0.9375
40
1
40
1
40
1
40
1
41
1
10
69
20
-5.48674887779842
30
0
41
1
10
72.3807186996696
20
-6.02199006462615
30
0
41
1
10
75.7588702108659
20
-6.5197046540915
30
0
41
1
10
80.8266895985443
20
-7.1924295299803
30
0
41
1
10
82.516119539309
20
-7.40421116769494
30
0
41
1
10
85.8959069655891
20
-7.80100447202912
30
0
41
1
10
87.5866583948741
20
-7.98610067107495
30
0
41
1
10
90.9670824141404
20
-8.32882941418737
30
0
41
1
10
92.6565813396065
20
-8.48645119905257
30
0
41
1
10
96.0352083298458
20
-8.77147536738957
30
0
41
1
10
97.7242972254339
20
-8.89904996769229
30
0
41
1
10
101.102102600083
20
-9.12390158754994
30
0
41
1
10
102.791142796044
20
-9.22054321341727
30
0
41
1
10
105.325431136422
20
-9.3412574085873
30
0
41
1
10
106.170244390085
20
-9.37755414371267
30
0
41
1
10
107.859961748849
20
-9.44218036623909
30
0
41
1
10
108.704876082034
20
-9.4704775995227
30
0
41
1
10
109.550089657977
20
-9.49455438271707
30
0
0
SPLINE
5
19D
100
AcDbEntity
8
1
62
256
6
ByLayer
370
-1
48
1
60
0
100
AcDbSpline
70
4
71
3
72
16
73
12
40
0
40
0
40
0
40
0
40
0.250000000000001
40
0.250000000000001
40
0.375000000000001
40
0.375000000000001
40
0.500000000000001
40
0.500000000000001
40
0.75
40
0.75
40
1
40
1
40
1
40
1
41
1
10
22
20
3.21822211027825
30
0
41
1
10
25.9181620814464
20
2.48460945492849
30
0
41
1
10
29.8336550228038
20
1.72681952755852
30
0
41
1
10
35.7079203514304
20
0.579418494198819
30
0
41
1
10
37.6662138242678
20
0.195338367734905
30
0
41
1
10
41.5843225763896
20
-0.570312047744011
30
0
41
1
10
43.5438515271097
20
-0.951848101752518
30
0
41
1
10
49.4185674705755
20
-2.08264410114575
30
0
41
1
10
53.3325505684866
20
-2.81775846525127
30
0
41
1
10
61.1627689628714
20
-4.21519297940901
30
0
41
1
10
65.0790015586943
20
-4.87751250036541
30
0
41
1
10
69
20
-5.48674887779842
30
0
0
SPLINE
5
19E
100
AcDbEntity
8
1
62
256
6
ByLayer
370
-1
48
1
60
0
100
AcDbSpline
70
4
71
4
72
10
73
5
40
0
40
0
40
0
40
0
40
0
40
1
40
1
40
1
40
1
40
1
41
1
10
109.603762973406
20
5.66999999999985
30
0
41
1
10
109.60376297342
20
6.64395919152426
30
0
41
1
10
109.60376297343
20
7.6179183830487
30
0
41
1
10
109.603762973437
20
8.59187757457312
30
0
41
1
10
109.603762973442
20
9.56583676609753
30
0
0
SPLINE
5
19F
100
AcDbEntity
8
1
62
256
6
ByLayer
370
-1
48
1
60
0
100
AcDbSpline
70
4
71
3
72
8
73
4
40
0
40
0
40
0
40
0
40
1
40
1
40
1
40
1
41
1
10
7.72893258611558
20
-2.4835033251147
30
0
41
1
10
7.85626434301241
20
-2.6559914628281
30
0
41
1
10
7.9857621008311
20
-2.82219787507188
30
0
41
1
10
8.11720101909788
20
-2.98283935053897
30
0
0
SPLINE
5
1A0
100
AcDbEntity
8
1
62
256
6
ByLayer
370
-1
48
1
60
0
100
AcDbSpline
70
4
71
3
72
8
73
4
40
0
40
0
40
0
40
0
40
1
40
1
40
1
40
1
41
1
10
17.9500896579848
20
3.96068424517583
30
0
41
1
10
19.3000357538771
20
3.71703992653241
30
0
41
1
10
20.6499608788989
20
3.46933296532146
30
0
41
1
10
22
20
3.21822211027828
30
0
0
SPLINE
5
1A1
100
AcDbEntity
8
1
62
256
6
ByLayer
370
-1
48
1
60
0
100
AcDbSpline
70
4
71
3
72
16
73
12
40
0
40
0
40
0
40
0
40
0.0058818482085923
40
0.171568206840493
40
0.337254565472395
40
0.37867615513037
40
0.420097744788346
40
0.502940924104296
40
0.668627282736197
40
0.834313641368099
40
1
40
1
40
1
40
1
41
1
10
35.22815213192
20
0.673171090745285
30
0
41
1
10
35.1942749774356
20
0.675525814912362
30
0
41
1
10
34.2061064470979
20
0.744194402907539
30
0
41
1
10
32.2635039003599
20
0.878214096309847
30
0
41
1
10
30.1160613694794
20
1.02362141604942
30
0
41
1
10
28.6844607694202
20
1.11920961217496
30
0
41
1
10
27.7300651136833
20
1.18253623752798
30
0
41
1
10
26.0598602121771
20
1.29243036625317
30
0
41
1
10
23.6741415843645
20
1.44710257119019
30
0
41
1
10
20.8119180254181
20
1.62765570030584
30
0
41
1
10
18.9039578765784
20
1.7449186096519
30
0
41
1
10
17.9500896579876
20
1.80272121828645
30
0
0
SPLINE
5
1A2
100
AcDbEntity
8
1
62
256
6
ByLayer
370
-1
48
1
60
0
100
AcDbSpline
70
4
71
3
72
8
73
4
40
0
40
0
40
0
40
0
40
1
40
1
40
1
40
1
41
1
10
11.4500896579847
20
5.1206905167258
30
0
41
1
10
11.4500896579847
20
5.45604924850656
30
0
41
1
10
11.4500896579847
20
5.79140798028729
30
0
41
1
10
11.4500896579847
20
6.12676671206802
30
0
0
SPLINE
5
1A3
100
AcDbEntity
8
1
62
256
6
ByLayer
370
-1
48
1
60
0
100
AcDbSpline
70
4
71
3
72
18
73
14
40
0
40
0
40
0
40
0
40
0.249999999999999
40
0.249999999999999
40
0.374999999999999
40
0.374999999999999
40
0.499999999999998
40
0.499999999999998
40
0.749999999999997
40
0.749999999999997
40
0.874999999999999
40
0.874999999999999
40
1
40
1
40
1
40
1
41
1
10
13.2289325861157
20
-7.98878814045116
30
0
41
1
10
13.4542145534538
20
-8.09333026285495
30
0
41
1
10
13.7050800047305
20
-8.1660271788746
30
0
41
1
10
14.1184582868992
20
-8.25023068913274
30
0
41
1
10
14.2624787205189
20
-8.27403606792834
30
0
41
1
10
14.5633216475848
20
-8.31593213923591
30
0
41
1
10
14.7207395208337
20
-8.33405515604215
30
0
41
1
10
15.2031334735072
20
-8.38266789124225
30
0
41
1
10
15.5407074281167
20
-8.40800939222578
30
0
41
1
10
16.0716831951762
20
-8.4484306677567
30
0
41
1
10
16.2531115275995
20
-8.46228384497627
30
0
41
1
10
16.6233837903233
20
-8.49239092473834
30
0
41
1
10
16.8106382030242
20
-8.50851892345142
30
0
41
1
10
17
20
-8.5264179168592
30
0
0
SPLINE
5
1A4
100
AcDbEntity
8
1
62
256
6
ByLayer
370
-1
48
1
60
0
100
AcDbSpline
70
4
71
3
72
24
73
20
40
0
40
0
40
0
40
0
40
0.0302191019261797
40
0.0302191019261797
40
0.118381001751072
40
0.118381001751072
40
0.294704801400857
40
0.294704801400857
40
0.38286670122575
40
0.38286670122575
40
0.471028601050643
40
0.471028601050643
40
0.647352400700429
40
0.647352400700429
40
0.735514300525322
40
0.735514300525322
40
0.823676200350214
40
0.823676200350214
40
1
40
1
40
1
40
1
41
1
10
78.8700043833284
20
-6.93937302287128
30
0
41
1
10
78.2479367492643
20
-7.01361153775275
30
0
41
1
10
77.6258418976178
20
-7.08629437976239
30
0
41
1
10
75.1888214746253
20
-7.36469966435874
30
0
41
1
10
73.3744604293033
20
-7.5579988129312
30
0
41
1
10
67.9320582898545
20
-8.0914546024585
30
0
41
1
10
64.3046469018049
20
-8.38550306525656
30
0
41
1
10
58.8605096916064
20
-8.72069929947492
30
0
41
1
10
57.045087547388
20
-8.81496159896224
30
0
41
1
10
53.4159851825164
20
-8.96851537121611
30
0
41
1
10
51.6019116154864
20
-9.0278208361259
30
0
41
1
10
46.1601628791402
20
-9.15205658750438
30
0
41
1
10
42.533033580402
20
-9.16174010908441
30
0
41
1
10
37.088909100309
20
-9.06353283517831
30
0
41
1
10
35.2740290896927
20
-9.01233934023404
30
0
41
1
10
31.6457542544352
20
-8.8748905446746
30
0
41
1
10
29.8319825651695
20
-8.78856806925282
30
0
41
1
10
24.39066900742
20
-8.47861197116063
30
0
41
1
10
20.7630920746636
20
-8.20490515300554
30
0
41
1
10
17.132801146243
20
-7.86730619528402
30
0
0
SPLINE
5
1A5
100
AcDbEntity
8
1
62
256
6
ByLayer
370
-1
48
1
60
0
100
AcDbSpline
70
4
71
3
72
14
73
10
40
0
40
0
40
0
40
0
40
0.499999999999986
40
0.499999999999986
40
0.624999999999989
40
0.624999999999989
40
0.749999999999993
40
0.749999999999993
40
1
40
1
40
1
40
1
41
1
10
114.005248453101
20
0.193901626893961
30
0
41
1
10
113.530993975028
20
0.166173239835047
30
0
41
1
10
113.062974128226
20
0.196168293977053
30
0
41
1
10
112.485650976638
20
0.304906575778546
30
0
41
1
10
112.370577441579
20
0.330271182494045
30
0
41
1
10
112.141235190553
20
0.38843827223107
30
0
41
1
10
112.026824020886
20
0.421307072435496
30
0
41
1
10
111.688391841654
20
0.530267648294284
30
0
41
1
10
111.468023793196
20
0.616914850484932
30
0
41
1
10
111.253046678441
20
0.717868913258542
30
0
0
SPLINE
5
1A6
100
AcDbEntity
8
1
62
256
6
ByLayer
370
-1
48
1
60
0
100
AcDbSpline
70
4
71
3
72
22
73
18
40
0
40
0
40
0
40
0
40
0.267024231818417
40
0.267024231818417
40
0.534048463636833
40
0.534048463636833
40
0.600804521591437
40
0.600804521591437
40
0.667560579546042
40
0.667560579546042
40
0.801072695455252
40
0.801072695455252
40
0.867828753409856
40
0.867828753409856
40
0.93458481136446
40
0.93458481136446
40
1
40
1
40
1
40
1
41
1
10
7.7289325861156
20
-2.48350332511478
30
0
41
1
10
7.5405729446999
20
-2.2219000001549
30
0
41
1
10
7.37689705051966
20
-1.95338925548089
30
0
41
1
10
7.09292955670082
20
-1.41298066298032
30
0
41
1
10
6.97259859300078
20
-1.14083587290224
30
0
41
1
10
6.8497166367423
20
-0.807980437959543
30
0
41
1
10
6.82653670183871
20
-0.741799881584882
30
0
41
1
10
6.78307799613467
20
-0.610586698039583
30
0
41
1
10
6.76278085204873
20
-0.545465712701002
30
0
41
1
10
6.70711189316157
20
-0.354767284374162
30
0
41
1
10
6.67668553125432
20
-0.233126550136234
30
0
41
1
10
6.64175666335825
20
-0.06214484287338
30
0
41
1
10
6.63190517869742
20
-0.0070698227115713
30
0
41
1
10
6.61598629102315
20
0.09866145128629
30
0
41
1
10
6.60990337893622
20
0.149527027326741
30
0
41
1
10
6.60194990619408
20
0.244265532118277
30
0
41
1
10
6.59999376757176
20
0.28804684209743
30
0
41
1
10
6.59999677996669
20
0.328755701064949
30
0
0
SPLINE
5
1A7
100
AcDbEntity
8
1
62
256
6
ByLayer
370
-1
48
1
60
0
100
AcDbSpline
70
4
71
4
72
13
73
8
40
0
40
0
40
0
40
0
40
0
40
0.566178832418681
40
0.566178832418681
40
0.566178832418681
40
1
40
1
40
1
40
1
40
1
41
1
10
17.9500896579876
20
1.80272121828645
30
0
41
1
10
17.9500896579876
20
1.20169853234776
30
0
41
0.942809041582063
10
17.8528466261321
20
-0.422900182446586
30
0
41
1
10
17.5944860637137
20
-2.91846166777489
30
0
41
1
10
17.2509796438782
20
-5.83691721185164
30
0
41
0.966423022829918
10
17.0685339785318
20
-7.21486877465129
30
0
41
0.976451767342426
10
16.9415170008023
20
-7.84038472994825
30
0
41
0.98899008967789
10
16.883496977616
20
-7.84403227797323
30
0
0
SPLINE
5
1A8
100
AcDbEntity
8
1
62
256
6
ByLayer
370
-1
48
1
60
0
100
AcDbSpline
70
4
71
3
72
8
73
4
40
0
40
0
40
0
40
0
40
1
40
1
40
1
40
1
41
1
10
17
20
4.22353530483684
30
0
41
1
10
17.3183073569975
20
4.14128836862776
30
0
41
1
10
17.6349784605129
20
4.0536597821974
30
0
41
1
10
17.9500896579846
20
3.96068424517585
30
0
0
SPLINE
5
1A9
100
AcDbEntity
8
1
62
256
6
ByLayer
370
-1
48
1
60
0
100
AcDbSpline
70
4
71
3
72
20
73
16
40
0
40
0
40
0
40
0
40
0.0127600791245067
40
0.0127600791245067
40
0.210208063299605
40
0.210208063299605
40
0.407656047474704
40
0.407656047474704
40
0.605104031649803
40
0.605104031649803
40
0.802552015824901
40
0.802552015824901
40
0.901276007912451
40
0.901276007912451
40
1
40
1
40
1
40
1
41
1
10
83.8983518525346
20
7.92165255051699
30
0
41
1
10
84.0076972580446
20
7.93354848386412
30
0
41
1
10
84.1170442067524
20
7.94538695565825
30
0
41
1
10
85.9184399396588
20
8.13946182340536
30
0
41
1
10
87.6112926540674
20
8.30794641128395
30
0
41
1
10
90.996052174814
20
8.61573931609811
30
0
41
1
10
92.6877618436453
20
8.7551584869197
30
0
41
1
10
96.0707536116761
20
9.00297181771703
30
0
41
1
10
97.7620421823705
20
9.11142148060847
30
0
41
1
10
101.144320699666
20
9.29701436384295
30
0
41
1
10
102.835661213517
20
9.37359439370653
30
0
41
1
10
105.373428511832
20
9.46391558786135
30
0
41
1
10
106.219396921953
20
9.49001640141901
30
0
41
1
10
107.911389376923
20
9.53411965153177
30
0
41
1
10
108.757426189132
20
9.55208839719518
30
0
41
1
10
109.603762973442
20
9.56583676609753
30
0
0
SPLINE
5
1AA
100
AcDbEntity
8
1
62
256
6
ByLayer
370
-1
48
1
60
0
100
AcDbSpline
70
4
71
3
72
24
73
20
40
0
40
0
40
0
40
0
40
0.125000000000001
40
0.125000000000001
40
0.187500000000001
40
0.187500000000001
40
0.250000000000001
40
0.250000000000001
40
0.375000000000001
40
0.375000000000001
40
0.500000000000001
40
0.500000000000001
40
0.562500000000001
40
0.562500000000001
40
0.625000000000001
40
0.625000000000001
40
0.750000000000001
40
0.750000000000001
40
1
40
1
40
1
40
1
41
1
10
7.7289325861156
20
-5.58440230560848
30
0
41
1
10
7.58152036693784
20
-5.40086518255077
30
0
41
1
10
7.4570991823812
20
-5.19710735481567
30
0
41
1
10
7.29465675364889
20
-4.869938673262
30
0
41
1
10
7.24462519300064
20
-4.75721266816402
30
0
41
1
10
7.15176771493009
20
-4.52522249708935
30
0
41
1
10
7.10879652661347
20
-4.40546901878864
30
0
41
1
10
6.9907879254167
20
-4.04130065614993
30
0
41
1
10
6.92649611105182
20
-3.79252072524994
30
0
41
1
10
6.81893500233105
20
-3.28554156913867
30
0
41
1
10
6.77573985775572
20
-3.0273128630609
30
0
41
1
10
6.72313339077422
20
-2.63394928581522
30
0
41
1
10
6.70764399891573
20
-2.50181859045119
30
0
41
1
10
6.68027960562654
20
-2.23566354860716
30
0
41
1
10
6.66841613439763
20
-2.10165678125364
30
0
41
1
10
6.6378209633032
20
-1.70032742561668
30
0
41
1
10
6.62392441164045
20
-1.43252957116303
30
0
41
1
10
6.59646168612116
20
-0.628496560104622
30
0
41
1
10
6.59692110207254
20
-0.0916266630192979
30
0
41
1
10
6.60635161246657
20
0.445939758283004
30
0
0
SPLINE
5
1AB
100
AcDbEntity
8
1
62
256
6
ByLayer
370
-1
48
1
60
0
100
AcDbSpline
70
4
71
3
72
32
73
28
40
0
40
0
40
0
40
0
40
0.125
40
0.125
40
0.1875
40
0.1875
40
0.21875
40
0.21875
40
0.25
40
0.25
40
0.375
40
0.375
40
0.4375
40
0.4375
40
0.5
40
0.5
40
0.53125
40
0.53125
40
0.5625
40
0.5625
40
0.625
40
0.625
40
0.75
40
0.75
40
0.875
40
0.875
40
1
40
1
40
1
40
1
41
1
10
7.72893258611558
20
-5.58440230560845
30
0
41
1
10
7.94569927436248
20
-5.85257060268972
30
0
41
1
10
8.1661038667267
20
-6.09716360799007
30
0
41
1
10
8.50366379841398
20
-6.42465072504984
30
0
41
1
10
8.61735100719545
20
-6.52720859580657
30
0
41
1
10
8.78993515140655
20
-6.67013867386186
30
0
41
1
10
8.8478064360298
20
-6.71595996475256
30
0
41
1
10
8.96430134330595
20
-6.80372711246082
30
0
41
1
10
9.02292781374084
20
-6.84565923389951
30
0
41
1
10
9.31505258661718
20
-7.04298525715848
30
0
41
1
10
9.54789002474286
20
-7.163864488721
30
0
41
1
10
9.89690046700193
20
-7.27741240735361
30
0
41
1
10
10.0138938477553
20
-7.30382736036495
30
0
41
1
10
10.242408186481
20
-7.32921578503954
30
0
41
1
10
10.3543240410401
20
-7.32831007602562
30
0
41
1
10
10.5185734678837
20
-7.30500801509271
30
0
41
1
10
10.5731598030207
20
-7.29596885221903
30
0
41
1
10
10.6835402141598
20
-7.28376478725443
30
0
41
1
10
10.7393194013888
20
-7.28017956528745
30
0
41
1
10
10.9075909403234
20
-7.27619606444631
30
0
41
1
10
11.0207446472532
20
-7.28251100552237
30
0
41
1
10
11.362365161784
20
-7.3220532292425
30
0
41
1
10
11.5929523779515
20
-7.37558745030887
30
0
41
1
10
12.0570794310395
20
-7.51368587948096
30
0
41
1
10
12.2906377506577
20
-7.59839750083248
30
0
41
1
10
12.7591035054059
20
-7.78396508612877
30
0
41
1
10
12.9940810833541
20
-7.88492080142572
30
0
41
1
10
13.2289325861157
20
-7.98878814045119
30
0
0
SPLINE
5
1AC
100
AcDbEntity
8
1
62
256
6
ByLayer
370
-1
48
1
60
0
100
AcDbSpline
70
4
71
4
72
10
73
5
40
0
40
0
40
0
40
0
40
0
40
1
40
1
40
1
40
1
40
1
41
0.978623147418885
10
109.412421893124
20
2.38347825409599
30
0
41
0.977724469913229
10
109.507490991294
20
3.04620828609877
30
0
41
0.984525341487517
10
109.576107440877
20
3.90342815464295
30
0
41
1
10
109.603762973406
20
4.8424116471044
30
0
41
1
10
109.603762973406
20
5.66999999999985
30
0
0
SPLINE
5
1AD
100
AcDbEntity
8
1
62
256
6
ByLayer
370
-1
48
1
60
0
100
AcDbSpline
70
4
71
3
72
8
73
4
40
0
40
0
40
0
40
0
40
1
40
1
40
1
40
1
41
1
10
13.2289325861157
20
-6.25796056046741
30
0
41
1
10
13.2289325861157
20
-6.83490308712868
30
0
41
1
10
13.2289325861157
20
-7.41184561378992
30
0
41
1
10
13.2289325861157
20
-7.98878814045119
30
0
0
SPLINE
5
1AE
100
AcDbEntity
8
1
62
256
6
ByLayer
370
-1
48
1
60
0
100
AcDbSpline
70
4
71
3
72
8
73
4
40
0
40
0
40
0
40
0
40
1
40
1
40
1
40
1
41
1
10
17.1328011462429
20
-8.5381618757128
30
0
41
1
10
18.755276939576
20
-8.69610466725737
30
0
41
1
10
20.3775828822285
20
-8.84051169925351
30
0
41
1
10
22
20
-8.97070095458372
30
0
0
SPLINE
5
1AF
100
AcDbEntity
8
1
62
256
6
ByLayer
370
-1
48
1
60
0
100
AcDbSpline
70
4
71
3
72
22
73
18
40
0
40
0
40
0
40
0
40
0.0624999999999987
40
0.0624999999999987
40
0.124999999999997
40
0.124999999999997
40
0.187499999999996
40
0.187499999999996
40
0.249999999999995
40
0.249999999999995
40
0.374999999999993
40
0.374999999999993
40
0.499999999999991
40
0.499999999999991
40
0.749999999999995
40
0.749999999999995
40
1
40
1
40
1
40
1
41
1
10
111.193996955418
20
4.0899191389154
30
0
41
1
10
111.173845508731
20
4.06595182328203
30
0
41
1
10
111.15521549904
20
4.0408512658328
30
0
41
1
10
111.121391649551
20
3.98809073608817
30
0
41
1
10
111.106202729066
20
3.96030176979403
30
0
41
1
10
111.080811064682
20
3.90448579122912
30
0
41
1
10
111.070398721246
20
3.87617280097041
30
0
41
1
10
111.054008517767
20
3.81876942387487
30
0
41
1
10
111.048117692006
20
3.78982043558864
30
0
41
1
10
111.037075132259
20
3.70513391905797
30
0
41
1
10
111.038311936164
20
3.6499339468941
30
0
41
1
10
111.052708416224
20
3.54774443278592
30
0
41
1
10
111.065803486445
20
3.49978647028658
30
0
41
1
10
111.117434498076
20
3.36553811199633
30
0
41
1
10
111.166301772104
20
3.2914784567744
30
0
41
1
10
111.282408905108
20
3.16633091567684
30
0
41
1
10
111.347954953762
20
3.11771820730479
30
0
41
1
10
111.419854111313
20
3.08210594586413
30
0
0
SPLINE
5
1B0
100
AcDbEntity
8
1
62
256
6
ByLayer
370
-1
48
1
60
0
100
AcDbSpline
70
4
71
3
72
8
73
4
40
0
40
0
40
0
40
0
40
1
40
1
40
1
40
1
41
1
10
16.8834969776169
20
-7.84403227797338
30
0
41
1
10
16.9662944031144
20
-7.85178654734204
30
0
41
1
10
17.0493963372077
20
-7.85953455899963
30
0
41
1
10
17.1328011461618
20
-7.86730619527646
30
0
0
SPLINE
5
1B1
100
AcDbEntity
8
1
62
256
6
ByLayer
370
-1
48
1
60
0
100
AcDbSpline
70
4
71
3
72
14
73
10
40
0
40
0
40
0
40
0
40
0.5
40
0.5
40
0.75
40
0.75
40
0.875
40
0.875
40
1
40
1
40
1
40
1
41
1
10
102.606016647643
20
5.35628637164845
30
0
41
1
10
103.579907904571
20
4.89266080998107
30
0
41
1
10
104.561741564418
20
4.44197302326543
30
0
41
1
10
106.046560463165
20
3.78560017452864
30
0
41
1
10
106.543532444383
20
3.5701198181325
30
0
41
1
10
107.292278644523
20
3.2522556421041
30
0
41
1
10
107.542537635616
20
3.14714665857665
30
0
41
1
10
108.042520217448
20
2.93953491134337
30
0
41
1
10
108.292430148308
20
2.83695139613405
30
0
41
1
10
108.54225323378
20
2.73567265130336
30
0
0
SPLINE
5
1B2
100
AcDbEntity
8
1
62
256
6
ByLayer
370
-1
48
1
60
0
100
AcDbSpline
70
4
71
3
72
18
73
14
40
0
40
0
40
0
40
0
40
0.0415764295105877
40
0.0415764295105877
40
0.361050953007059
40
0.361050953007059
40
0.520788214755294
40
0.520788214755294
40
0.68052547650353
40
0.68052547650353
40
0.840262738251765
40
0.840262738251765
40
1
40
1
40
1
40
1
41
1
10
115.550925495321
20
2.49159504169811
30
0
41
1
10
115.545779109819
20
2.48760067801683
30
0
41
1
10
115.540633450698
20
2.48365726672799
30
0
41
1
10
115.495963660378
20
2.4498480317146
30
0
41
1
10
115.456199804375
20
2.42270362132427
30
0
41
1
10
115.399401931643
20
2.38729599755374
30
0
41
1
10
115.381016438798
20
2.37641362358545
30
0
41
1
10
115.346025509952
20
2.35666703060775
30
0
41
1
10
115.329417397826
20
2.34781096695846
30
0
41
1
10
115.300181298242
20
2.3330315690923
30
0
41
1
10
115.287406365494
20
2.32702100283379
30
0
41
1
10
115.267557011854
20
2.31854294384107
30
0
41
1
10
115.260820696332
20
2.31622834806396
30
0
41
1
10
115.258278474227
20
2.31622834806396
30
0
0
SPLINE
5
1B3
100
AcDbEntity
8
1
62
256
6
ByLayer
370
-1
48
1
60
0
100
AcDbSpline
70
4
71
3
72
8
73
4
40
0
40
0
40
0
40
0
40
1
40
1
40
1
40
1
41
1
10
17.1328011461618
20
-8.53816187570587
30
0
41
1
10
17.0884460701276
20
-8.53450730665492
30
0
41
1
10
17.0441731328494
20
-8.5305932818288
30
0
41
1
10
17
20
-8.5264179168592
30
0
0
SPLINE
5
1B4
100
AcDbEntity
8
1
62
256
6
ByLayer
370
-1
48
1
60
0
100
AcDbSpline
70
4
71
3
72
16
73
12
40
0
40
0
40
0
40
0
40
0.25
40
0.25
40
0.5
40
0.5
40
0.625
40
0.625
40
0.75
40
0.75
40
1
40
1
40
1
40
1
41
1
10
69
20
9.1683399717584
30
0
41
1
10
71.7513364208857
20
9.01104060562045
30
0
41
1
10
74.5010903465736
20
8.81164118771298
30
0
41
1
10
80.000336582181
20
8.3345275592998
30
0
41
1
10
82.7498171754654
20
8.05683842351758
30
0
41
1
10
86.8756966357315
20
7.58666674871017
30
0
41
1
10
88.2514946768005
20
7.42099817411642
30
0
41
1
10
91.0023223768934
20
7.07316819233762
30
0
41
1
10
92.3774681147913
20
6.89099826689329
30
0
41
1
10
96.5026265537135
20
6.32164802567101
30
0
41
1
10
99.2523726972057
20
5.91163828627296
30
0
41
1
10
102.003075040527
20
5.47653121808807
30
0
0
SPLINE
5
1B5
100
AcDbEntity
8
1
62
256
6
ByLayer
370
-1
48
1
60
0
100
AcDbSpline
70
4
71
3
72
16
73
12
40
0
40
0
40
0
40
0
40
0.25
40
0.25
40
0.375
40
0.375
40
0.5
40
0.5
40
0.75
40
0.75
40
1
40
1
40
1
40
1
41
1
10
22
20
-8.97070095458372
30
0
41
1
10
25.9177368018385
20
-9.2667800263481
30
0
41
1
10
29.8324376947956
20
-9.4783515975912
30
0
41
1
10
35.7062992643786
20
-9.66121655863358
30
0
41
1
10
37.6645606947448
20
-9.69983888808667
30
0
41
1
10
41.5827216125176
20
-9.7321802451724
30
0
41
1
10
43.5423419217315
20
-9.72588518078078
30
0
41
1
10
49.4174347653774
20
-9.64044715344119
30
0
41
1
10
53.3316602271773
20
-9.49460322066378
30
0
41
1
10
61.1624873311341
20
-9.03582006839054
30
0
41
1
10
65.0789546967308
20
-8.72272333955905
30
0
41
1
10
69
20
-8.33371811977221
30
0
0
SPLINE
5
1B6
100
AcDbEntity
8
1
62
256
6
ByLayer
370
-1
48
1
60
0
100
AcDbSpline
70
4
71
3
72
84
73
80
40
-0.031250000000006
40
-0.031250000000006
40
0
40
0
40
0.0312499999999993
40
0.0312499999999993
40
0.0468749999999992
40
0.0468749999999992
40
0.0624999999999991
40
0.0624999999999991
40
0.0937499999999987
40
0.0937499999999987
40
0.124999999999998
40
0.124999999999998
40
0.156249999999998
40
0.156249999999998
40
0.171874999999998
40
0.171874999999998
40
0.187499999999998
40
0.187499999999998
40
0.218749999999997
40
0.218749999999997
40
0.249999999999997
40
0.249999999999997
40
0.281249999999997
40
0.281249999999997
40
0.312499999999996
40
0.312499999999996
40
0.328124999999994
40
0.328124999999994
40
0.343749999999992
40
0.343749999999992
40
0.374999999999991
40
0.374999999999991
40
0.40624999999999
40
0.40624999999999
40
0.437499999999989
40
0.437499999999989
40
0.468749999999989
40
0.468749999999989
40
0.484374999999989
40
0.484374999999989
40
0.499999999999989
40
0.499999999999989
40
0.531249999999989
40
0.531249999999989
40
0.562499999999989
40
0.562499999999989
40
0.578124999999988
40
0.578124999999988
40
0.593749999999987
40
0.593749999999987
40
0.624999999999986
40
0.624999999999986
40
0.656249999999984
40
0.656249999999984
40
0.687499999999982
40
0.687499999999982
40
0.718749999999981
40
0.718749999999981
40
0.749999999999979
40
0.749999999999979
40
0.781249999999977
40
0.781249999999977
40
0.796874999999976
40
0.796874999999976
40
0.812499999999975
40
0.812499999999975
40
0.843749999999974
40
0.843749999999974
40
0.859374999999975
40
0.859374999999975
40
0.874999999999976
40
0.874999999999976
40
0.906249999999982
40
0.906249999999982
40
0.937499999999988
40
0.937499999999988
40
0.968749999999994
40
0.968749999999994
40
1
40
1
40
1.03125
40
1.03125
41
1
10
115.767043387408
20
-1.66640059679608
30
0
41
1
10
115.757842404946
20
-1.48795343303164
30
0
41
1
10
115.761794027567
20
-1.39951599458132
30
0
41
1
10
115.780293257745
20
-1.26802739603821
30
0
41
1
10
115.788569494534
20
-1.22439408124367
30
0
41
1
10
115.809477798549
20
-1.13753814778494
30
0
41
1
10
115.822185323767
20
-1.09415932883678
30
0
41
1
10
115.866163861903
20
-0.967434233270836
30
0
41
1
10
115.903369451388
20
-0.886641584501376
30
0
41
1
10
115.993601180069
20
-0.732515931948456
30
0
41
1
10
116.047239736579
20
-0.658732862909886
30
0
41
1
10
116.166262863708
20
-0.525310627187451
30
0
41
1
10
116.231976171637
20
-0.464843683281231
30
0
41
1
10
116.34008422608
20
-0.383778847904182
30
0
41
1
10
116.377775631703
20
-0.358378991705109
30
0
41
1
10
116.454670862299
20
-0.311989736639987
30
0
41
1
10
116.494077710487
20
-0.290835984389702
30
0
41
1
10
116.615130154867
20
-0.233403386873419
30
0
41
1
10
116.700235353887
20
-0.202938626611655
30
0
41
1
10
116.875418150664
20
-0.159606119495209
30
0
41
1
10
116.963928638143
20
-0.146978630801726
30
0
41
1
10
117.14274209004
20
-0.139355384024213
30
0
41
1
10
117.233942346605
20
-0.144622656913839
30
0
41
1
10
117.41090553674
20
-0.172862280734279
30
0
41
1
10
117.497307147621
20
-0.195632500171683
30
0
41
1
10
117.623746246322
20
-0.242937930728601
30
0
41
1
10
117.665498935833
20
-0.26100704640578
30
0
41
1
10
117.746115404822
20
-0.30082182110101
30
0
41
1
10
117.785193820233
20
-0.322630590572089
30
0
41
1
10
117.898811529964
20
-0.393645235711972
30
0
41
1
10
117.970104413393
20
-0.448706697602518
30
0
41
1
10
118.101197879796
20
-0.572944934860516
30
0
41
1
10
118.159545004148
20
-0.640614485806452
30
0
41
1
10
118.262374135131
20
-0.786591013803417
30
0
41
1
10
118.307168309087
20
-0.865836908027347
30
0
41
1
10
118.379352766698
20
-1.02925161404011
30
0
41
1
10
118.407154094948
20
-1.11365649046101
30
0
41
1
10
118.436562380768
20
-1.2442245507828
30
0
41
1
10
118.444316774421
20
-1.28863385444072
30
0
41
1
10
118.455388276484
20
-1.37712654696068
30
0
41
1
10
118.458755021629
20
-1.42132899411442
30
0
41
1
10
118.462553081826
20
-1.55380414326922
30
0
41
1
10
118.456739013162
20
-1.64195538237706
30
0
41
1
10
118.428082418384
20
-1.81786169507888
30
0
41
1
10
118.405685756007
20
-1.90291724983024
30
0
41
1
10
118.360570439679
20
-2.02640975423418
30
0
41
1
10
118.343597386243
20
-2.06688725188892
30
0
41
1
10
118.305706398418
20
-2.14645450909899
30
0
41
1
10
118.284676170888
20
-2.18570457100034
30
0
41
1
10
118.216755735377
20
-2.299143284747
30
0
41
1
10
118.164888859939
20
-2.36963988989101
30
0
41
1
10
118.047934366458
20
-2.50050831154675
30
0
41
1
10
117.982014148278
20
-2.56140024841227
30
0
41
1
10
117.841150829092
20
-2.66792258112943
30
0
41
1
10
117.766039159165
20
-2.71403058294828
30
0
41
1
10
117.606027867963
20
-2.79148614531073
30
0
41
1
10
117.52068418917
20
-2.82269684275309
30
0
41
1
10
117.348034423214
20
-2.86655032480692
30
0
41
1
10
117.259768521577
20
-2.87976672674827
30
0
41
1
10
117.079136806676
20
-2.88787510713038
30
0
41
1
10
116.989147386325
20
-2.88255291792262
30
0
41
1
10
116.856914694702
20
-2.86117959927785
30
0
41
1
10
116.813171672306
20
-2.85181285021554
30
0
41
1
10
116.726363112549
20
-2.82852550759483
30
0
41
1
10
116.683285395077
20
-2.8145641877546
30
0
41
1
10
116.558023795312
20
-2.76686229614319
30
0
41
1
10
116.47873691613
20
-2.72712145049141
30
0
41
1
10
116.36590450174
20
-2.6559037481174
30
0
41
1
10
116.329186711549
20
-2.63009168481892
30
0
41
1
10
116.259207376496
20
-2.57558259948846
30
0
41
1
10
116.225784259262
20
-2.5468037526671
30
0
41
1
10
116.130042508286
20
-2.4560252459423
30
0
41
1
10
116.071956327319
20
-2.38926937628926
30
0
41
1
10
115.969054316687
20
-2.2451588849899
30
0
41
1
10
115.925173355204
20
-2.1692631557014
30
0
41
1
10
115.851932309573
20
-2.00997077188458
30
0
41
1
10
115.822421024656
20
-1.92576713491877
30
0
41
1
10
115.780070762777
20
-1.75395913978357
30
0
41
1
10
115.767043387408
20
-1.66640059679608
30
0
41
1
10
115.757842404946
20
-1.48795343303164
30
0
0
SPLINE
5
1B7
100
AcDbEntity
8
1
62
256
6
ByLayer
370
-1
48
1
60
0
100
AcDbSpline
70
4
71
3
72
14
73
10
40
0
40
0
40
0
40
0
40
0.506970915047582
40
0.506970915047582
40
0.633713643809478
40
0.633713643809478
40
0.760456372571374
40
0.760456372571374
40
1
40
1
40
1
40
1
41
1
10
116.221964245262
20
5.98108456880999
30
0
41
1
10
116.238768779751
20
5.8206438890964
30
0
41
1
10
116.282588294218
20
5.66154937617722
30
0
41
1
10
116.376755693144
20
5.46649764086109
30
0
41
1
10
116.397710472811
20
5.4275545081955
30
0
41
1
10
116.443178034069
20
5.35156655115148
30
0
41
1
10
116.467744636158
20
5.31437805855902
30
0
41
1
10
116.54421404546
20
5.20940631729894
30
0
41
1
10
116.600927867602
20
5.14381756008322
30
0
41
1
10
116.665296867718
20
5.08199539712137
30
0
0
SPLINE
5
1B8
100
AcDbEntity
8
1
62
256
6
ByLayer
370
-1
48
1
60
0
100
AcDbSpline
70
4
71
3
72
8
73
4
40
0
40
0
40
0
40
0
40
1
40
1
40
1
40
1
41
1
10
116.214464028664
20
6.11150474046414
30
0
41
1
10
116.214902299722
20
6.068305516377
30
0
41
1
10
116.217385013838
20
6.02480461369356
30
0
41
1
10
116.221964245262
20
5.98108456880999
30
0
0
SPLINE
5
1B9
100
AcDbEntity
8
1
62
256
6
ByLayer
370
-1
48
1
60
0
100
AcDbSpline
70
4
71
3
72
10
73
6
40
0
40
0
40
0
40
0
40
0.229436097291392
40
0.229436097291392
40
1
40
1
40
1
40
1
41
1
10
53.7491668127039
20
9.67137533121252
30
0
41
1
10
54.9150253362138
20
9.66588706741993
30
0
41
1
10
56.0808870722683
20
9.65276192955713
30
0
41
1
10
61.1626752690528
20
9.56244043598053
30
0
41
1
10
65.0791166328924
20
9.40667654564453
30
0
41
1
10
69
20
9.1683399717586
30
0
0
SPLINE
5
1BA
100
AcDbEntity
8
1
62
256
6
ByLayer
370
-1
48
1
60
0
100
AcDbSpline
70
4
71
2
72
6
73
3
40
0
40
0
40
0
40
1
40
1
40
1
41
1
10
17.132801146243
20
-7.86730619528069
30
0
41
1
10
17.132801146243
20
-8.20273403549538
30
0
41
1
10
17.1328011462429
20
-8.5381618757101
30
0
0
SPLINE
5
1BB
100
AcDbEntity
8
1
62
256
6
ByLayer
370
-1
48
1
60
0
100
AcDbSpline
70
4
71
3
72
13
73
9
40
0
40
0
40
0
40
0
40
0.191168030007639
40
0.382336060015278
40
0.573504090022917
40
0.764672120030556
40
0.955840150038195
40
1
40
1
40
1
40
1
41
1
10
109.603762973406
20
5.66999999999985
30
0
41
1
10
109.126652403371
20
5.66224628524782
30
0
41
1
10
108.172427189956
20
5.64525453269223
30
0
41
1
10
106.741262289318
20
5.61525210291339
30
0
41
1
10
105.310227474762
20
5.58071713885047
30
0
41
1
10
103.878938418579
20
5.54161278936365
30
0
41
1
10
102.814199441553
20
5.50910585011749
30
0
41
1
10
102.226677190407
20
5.49001673934222
30
0
41
1
10
102.116427066012
20
5.48639413906199
30
0
0
SPLINE
5
1BC
100
AcDbEntity
8
1
62
256
6
ByLayer
370
-1
48
1
60
0
100
AcDbSpline
70
4
71
3
72
8
73
4
40
0
40
0
40
0
40
0
40
1
40
1
40
1
40
1
41
1
10
113.414402618983
20
1.45361382452316
30
0
41
1
10
113.236915969905
20
1.43550944752724
30
0
41
1
10
113.059057655822
20
1.42477370733098
30
0
41
1
10
112.881643752823
20
1.42127478623115
30
0
0
SPLINE
5
1BD
100
AcDbEntity
8
1
62
256
6
ByLayer
370
-1
48
1
60
0
100
AcDbSpline
70
4
71
3
72
14
73
10
40
0
40
0
40
0
40
0
40
0.25
40
0.25
40
0.5
40
0.5
40
0.75
40
0.75
40
1
40
1
40
1
40
1
41
1
10
113.086518493155
20
9.59952668302034
30
0
41
1
10
113.090704347714
20
9.59905328894331
30
0
41
1
10
113.100441774806
20
9.59823988044283
30
0
41
1
10
113.130611345832
20
9.59605503713954
30
0
41
1
10
113.151342437647
20
9.59466766115989
30
0
41
1
10
113.201645503314
20
9.5916526736743
30
0
41
1
10
113.231655643252
20
9.58999789246568
30
0
41
1
10
113.299902859153
20
9.58672507771311
30
0
41
1
10
113.337517430421
20
9.58513478086783
30
0
41
1
10
113.378671482578
20
9.5837129915611
30
0
0
SPLINE
5
1BE
100
AcDbEntity
8
1
62
256
6
ByLayer
370
-1
48
1
60
0
100
AcDbSpline
70
4
71
3
72
52
73
48
40
0
40
0
40
0
40
0
40
0.0625
40
0.0625
40
0.0937499999999999
40
0.0937499999999999
40
0.125
40
0.125
40
0.187499999999999
40
0.187499999999999
40
0.218749999999999
40
0.218749999999999
40
0.249999999999999
40
0.249999999999999
40
0.312499999999999
40
0.312499999999999
40
0.34375
40
0.34375
40
0.375
40
0.375
40
0.4375
40
0.4375
40
0.5
40
0.5
40
0.53125
40
0.53125
40
0.5625
40
0.5625
40
0.625
40
0.625
40
0.65625
40
0.65625
40
0.6875
40
0.6875
40
0.75
40
0.75
40
0.78125
40
0.78125
40
0.8125
40
0.8125
40
0.875
40
0.875
40
0.90625
40
0.90625
40
0.9375
40
0.9375
40
1
40
1
40
1
40
1
41
1
10
11.4500896579847
20
6.12676671206802
30
0
41
1
10
11.2577287508127
20
6.23040191524677
30
0
41
1
10
11.0762550244403
20
6.32702356872431
30
0
41
1
10
10.819578611978
20
6.46618043795542
30
0
41
1
10
10.7366145679885
20
6.51158861443832
30
0
41
1
10
10.5758150126599
20
6.60111322127378
30
0
41
1
10
10.4990004998616
20
6.645761878229
30
0
41
1
10
10.2611744362939
20
6.77120580668492
30
0
41
1
10
10.0916925899969
20
6.84269266785839
30
0
41
1
10
9.82134909090848
20
6.92662893150668
30
0
41
1
10
9.72842503411738
20
6.95069371145411
30
0
41
1
10
9.53990381371179
20
6.98950125090911
30
0
41
1
10
9.44401307394037
20
7.00435058609122
30
0
41
1
10
9.15197048329077
20
7.03417156111647
30
0
41
1
10
8.9514523563717
20
7.03452262849478
30
0
41
1
10
8.64386826625838
20
7.00005605169213
30
0
41
1
10
8.54070729255488
20
6.98270237566081
30
0
41
1
10
8.33669688110479
20
6.93640169475111
30
0
41
1
10
8.23539892667984
20
6.9074127895872
30
0
41
1
10
7.9343814267358
20
6.80247030496059
30
0
41
1
10
7.7375064004963
20
6.70866339133232
30
0
41
1
10
7.35580201132979
20
6.46854299170087
30
0
41
1
10
7.1773963622332
20
6.32613768690686
30
0
41
1
10
6.93133673101644
20
6.08176166094609
30
0
41
1
10
6.8528287081391
20
5.99509267949122
30
0
41
1
10
6.7031984704349
20
5.81130204965973
30
0
41
1
10
6.63175919224551
20
5.71363152513484
30
0
41
1
10
6.43300313667007
20
5.41063839442327
30
0
41
1
10
6.32012704664814
20
5.19459796085738
30
0
41
1
10
6.17952581906621
20
4.85110220381324
30
0
41
1
10
6.13740682642557
20
4.73314033767869
30
0
41
1
10
6.06320909970239
20
4.4915596941112
30
0
41
1
10
6.03151027899867
20
4.36925054106462
30
0
41
1
10
5.95184088629657
20
3.99806193985782
30
0
41
1
10
5.91920654911766
20
3.74495825350982
30
0
41
1
10
5.8998398228938
20
3.35723070931684
30
0
41
1
10
5.89838144141063
20
3.22622105345593
30
0
41
1
10
5.9052225997518
20
2.96560995228748
30
0
41
1
10
5.91347097779681
20
2.83558792430841
30
0
41
1
10
5.95199842257753
20
2.44629661623611
30
0
41
1
10
5.99600049036772
20
2.18780389138152
30
0
41
1
10
6.08803018331582
20
1.80130131494369
30
0
41
1
10
6.12315300958039
20
1.67248450221581
30
0
41
1
10
6.20072904448412
20
1.41901553972002
30
0
41
1
10
6.24328042933067
20
1.29388518296477
30
0
41
1
10
6.38148087742775
20
0.923007965579274
30
0
41
1
10
6.48764861877379
20
0.681762578708629
30
0
41
1
10
6.60635161246654
20
0.445939758282975
30
0
0
SPLINE
5
1BF
100
AcDbEntity
8
1
62
256
6
ByLayer
370
-1
48
1
60
0
100
AcDbSpline
70
4
71
3
72
16
73
12
40
0
40
0
40
0
40
0
40
0.153803853210675
40
0.153803853210675
40
0.323043082568538
40
0.323043082568538
40
0.661521541284269
40
0.661521541284269
40
0.830760770642135
40
0.830760770642135
40
1
40
1
40
1
40
1
41
1
10
111.194630037053
20
1.74144004652706
30
0
41
1
10
111.23607037961
20
1.76462516973362
30
0
41
1
10
111.276754086094
20
1.79376592459522
30
0
41
1
10
111.359159414142
20
1.86661187736755
30
0
41
1
10
111.400559145191
20
1.91135072393064
30
0
41
1
10
111.519721443858
20
2.06484662232253
30
0
41
1
10
111.592520160126
20
2.19269585858407
30
0
41
1
10
111.691502488324
20
2.42430547272261
30
0
41
1
10
111.722342172807
20
2.50723087301225
30
0
41
1
10
111.779392434057
20
2.68306630872456
30
0
41
1
10
111.805674329639
20
2.77614374713704
30
0
41
1
10
111.829683682541
20
2.87432171445377
30
0
0
SPLINE
5
1C0
100
AcDbEntity
8
1
62
256
6
ByLayer
370
-1
48
1
60
0
100
AcDbSpline
70
4
71
3
72
24
73
20
40
0
40
0
40
0
40
0
40
0.124999999999993
40
0.124999999999993
40
0.249999999999985
40
0.249999999999985
40
0.312499999999994
40
0.312499999999994
40
0.375000000000003
40
0.375000000000003
40
0.437500000000012
40
0.437500000000012
40
0.500000000000022
40
0.500000000000022
40
0.62500000000002
40
0.62500000000002
40
0.750000000000018
40
0.750000000000018
40
1
40
1
40
1
40
1
41
1
10
114.571105774329
20
2.14056889505463
30
0
41
1
10
114.511078845915
20
2.12967364278546
30
0
41
1
10
114.448610497505
20
2.1213035497907
30
0
41
1
10
114.317104553183
20
2.11145073320787
30
0
41
1
10
114.250261415487
20
2.11024748226103
30
0
41
1
10
114.151352763406
20
2.11457938752864
30
0
41
1
10
114.118312196567
20
2.11707182976872
30
0
41
1
10
114.054869661022
20
2.12382578826924
30
0
41
1
10
114.024144503245
20
2.12809067910018
30
0
41
1
10
113.96448019803
20
2.13819723651872
30
0
41
1
10
113.935485144153
20
2.14406585157886
30
0
41
1
10
113.880606881541
20
2.15682885522631
30
0
41
1
10
113.854494255814
20
2.16375698145956
30
0
41
1
10
113.779464023949
20
2.1858784330428
30
0
41
1
10
113.733501598802
20
2.20254183975922
30
0
41
1
10
113.650068049527
20
2.23750231308466
30
0
41
1
10
113.612462211929
20
2.25580113531154
30
0
41
1
10
113.508447332517
20
2.31230242132966
30
0
41
1
10
113.450495656665
20
2.35225823117477
30
0
41
1
10
113.400422369474
20
2.39264283708937
30
0
0
SPLINE
5
1C1
100
AcDbEntity
8
1
62
256
6
ByLayer
370
-1
48
1
60
0
100
AcDbSpline
70
4
71
3
72
12
73
8
40
0
40
0
40
0
40
0
40
0.5
40
0.5
40
0.75
40
0.75
40
1
40
1
40
1
40
1
41
1
10
109.603762973406
20
9.56583676609714
30
0
41
1
10
110.000346297067
20
9.57037883172413
30
0
41
1
10
110.380976971692
20
9.57913793900346
30
0
41
1
10
110.928819066183
20
9.59110146256489
30
0
41
1
10
111.108636789561
20
9.5948466309849
30
0
41
1
10
111.450771092556
20
9.59965762749852
30
0
41
1
10
111.613983046056
20
9.60075068706786
30
0
41
1
10
111.769469302062
20
9.59944419914672
30
0
0
SPLINE
5
1C2
100
AcDbEntity
8
1
62
256
6
ByLayer
370
-1
48
1
60
0
100
AcDbSpline
70
4
71
3
72
8
73
4
40
0
40
0
40
0
40
0
40
1
40
1
40
1
40
1
41
1
10
102.606016647643
20
5.35628637164845
30
0
41
1
10
102.40794139368
20
5.39386713586981
30
0
41
1
10
102.206948543987
20
5.4339593511657
30
0
41
1
10
102.003075040529
20
5.47653121808725
30
0
0
SPLINE
5
1C3
100
AcDbEntity
8
1
62
256
6
ByLayer
370
-1
48
1
60
0
100
AcDbSpline
70
4
71
3
72
22
73
18
40
0
40
0
40
0
40
0
40
0.250000000000001
40
0.250000000000001
40
0.312500000000001
40
0.312500000000001
40
0.375000000000001
40
0.375000000000001
40
0.500000000000001
40
0.500000000000001
40
0.625000000000001
40
0.625000000000001
40
0.687500000000001
40
0.687500000000001
40
0.750000000000001
40
0.750000000000001
40
1
40
1
40
1
40
1
41
1
10
17
20
4.22353530483684
30
0
41
1
10
16.4990024168076
20
4.35298728060778
30
0
41
1
10
15.9978137975748
20
4.48484746467784
30
0
41
1
10
15.3727641957974
20
4.65911186159062
30
0
41
1
10
15.2477294445337
20
4.69447732042482
30
0
41
1
10
15.0000312182553
20
4.765736192167
30
0
41
1
10
14.8771016000938
20
4.80170269153862
30
0
41
1
10
14.5111159176675
20
4.9108658453805
30
0
41
1
10
14.2708587416595
20
4.98532313563354
30
0
41
1
10
13.7981457704167
20
5.13900558379069
30
0
41
1
10
13.5656887510505
20
5.21822869788994
30
0
41
1
10
13.223217956788
20
5.34178063437494
30
0
41
1
10
13.1100981099006
20
5.38375195351099
30
0
41
1
10
12.8860115263463
20
5.46947717320157
30
0
41
1
10
12.7750371331644
20
5.51324284695022
30
0
41
1
10
12.2308459825972
20
5.73493411427614
30
0
41
1
10
11.8251784562406
20
5.92302817982332
30
0
41
1
10
11.4500896579854
20
6.12676671207274
30
0
0
SPLINE
5
1C4
100
AcDbEntity
8
1
62
256
6
ByLayer
370
-1
48
1
60
0
100
AcDbSpline
70
4
71
2
72
6
73
3
40
0
40
0
40
0
40
1
40
1
40
1
41
1
10
7.72893258611549
20
-2.48350332511461
30
0
41
1
10
7.72893258611555
20
-4.03395281536154
30
0
41
1
10
7.7289325861156
20
-5.58440230560845
30
0
0
SPLINE
5
1C5
100
AcDbEntity
8
1
62
256
6
ByLayer
370
-1
48
1
60
0
100
AcDbSpline
70
4
71
3
72
41
73
37
40
0
40
0
40
0
40
0
40
0.0513845295434772
40
0.102769059086954
40
0.128461323858693
40
0.154153588630432
40
0.17984585340217
40
0.205538118173909
40
0.231230382945648
40
0.256922647717386
40
0.282614912489125
40
0.308307177260864
40
0.333999442032603
40
0.359691706804341
40
0.38538397157608
40
0.411076236347818
40
0.436768501119557
40
0.462460765891295
40
0.488153030663035
40
0.513845295434773
40
0.539537560206512
40
0.56522982497825
40
0.590922089749989
40
0.616614354521728
40
0.667998884065205
40
0.719383413608682
40
0.770767943152159
40
0.796460207923898
40
0.809306340309767
40
0.822152472695637
40
0.834998605081506
40
0.847844737467375
40
0.873537002239114
40
0.924921531782591
40
0.976306061326069
40
1
40
1
40
1
40
1
41
1
10
11.4500896579856
20
5.12069051673294
30
0
41
1
10
11.3473610026917
20
5.0825575881093
30
0
41
1
10
11.1366876279305
20
4.99338089427974
30
0
41
1
10
10.8627409325736
20
4.84770251498884
30
0
41
1
10
10.6390811204896
20
4.70993152425487
30
0
41
1
10
10.4696433148034
20
4.5959562555951
30
0
41
1
10
10.2990708437702
20
4.47130107936735
30
0
41
1
10
10.1279988605974
20
4.33609833289918
30
0
41
1
10
9.95706251849202
20
4.19048035351818
30
0
41
1
10
9.7869494926374
20
4.03475810076719
30
0
41
1
10
9.61834745821665
20
3.86924253418908
30
0
41
1
10
9.45196423034358
20
3.69442283269939
30
0
41
1
10
9.28850762413194
20
3.51078817521369
30
0
41
1
10
9.12866876038839
20
3.31899219625979
30
0
41
1
10
8.97313875991969
20
3.11968853036544
30
0
41
1
10
8.82255409804776
20
2.91366613767795
30
0
41
1
10
8.67755125009458
20
2.70171397834449
30
0
41
1
10
8.53867700761759
20
2.48471628688068
30
0
41
1
10
8.40647816217427
20
2.26355729780221
30
0
41
1
10
8.28138445132558
20
2.03916832269209
30
0
41
1
10
8.16382561263259
20
1.81248067313342
30
0
41
1
10
8.05409619346241
20
1.58442255760011
30
0
41
1
10
7.95249074118215
20
1.35592218456617
30
0
41
1
10
7.82805339074386
20
1.05183662742138
30
0
41
1
10
7.69358398272891
20
0.675016350618762
30
0
41
1
10
7.56607771306858
20
0.234405675878804
30
0
41
1
10
7.48733102718489
20
-0.118640867652488
30
0
41
1
10
7.44592177311102
20
-0.35646810186941
30
0
41
1
10
7.42607188701194
20
-0.489210453902928
30
0
41
1
10
7.41298976606171
20
-0.587661165497281
30
0
41
1
10
7.40161195995961
20
-0.685479234560972
30
0
41
1
10
7.3886967105048
20
-0.815647445976879
30
0
41
1
10
7.3719695050676
20
-1.04431269129933
30
0
41
1
10
7.36609050318353
20
-1.37031071380233
30
0
41
1
10
7.38637561826729
20
-1.6854162613426
30
0
41
1
10
7.41055748121195
20
-1.86762820358251
30
0
41
1
10
7.41942258966691
20
-1.92453677505824
30
0
0
SPLINE
5
1C6
100
AcDbEntity
8
1
62
256
6
ByLayer
370
-1
48
1
60
0
100
AcDbSpline
70
4
71
3
72
14
73
10
40
0
40
0
40
0
40
0
40
0.0705200632869171
40
0.0705200632869171
40
0.380346708857945
40
0.380346708857945
40
0.690173354428972
40
0.690173354428972
40
1
40
1
40
1
40
1
41
1
10
119.772757077965
20
2.64063431886379
30
0
41
1
10
119.772284851574
20
2.63321570976728
30
0
41
1
10
119.771783187534
20
2.62600118604905
30
0
41
1
10
119.768945730841
20
2.58818240103827
30
0
41
1
10
119.766104294636
20
2.56125251737467
30
0
41
1
10
119.759978933193
20
2.51820024968384
30
0
41
1
10
119.756632964652
20
2.5015315870692
30
0
41
1
10
119.749695309059
20
2.47911121718235
30
0
41
1
10
119.746163748953
20
2.47345434188242
30
0
41
1
10
119.742624234327
20
2.4734216261885
30
0
0
SPLINE
5
1C7
100
AcDbEntity
8
1
62
256
6
ByLayer
370
-1
48
1
60
0
100
AcDbSpline
70
4
71
3
72
10
73
6
40
0
40
0
40
0
40
0
40
0.5
40
0.5
40
1
40
1
40
1
40
1
41
1
10
111.981711720682
20
2.80433795578256
30
0
41
1
10
112.12037671557
20
2.71366388182309
30
0
41
1
10
112.262895083564
20
2.62881795746617
30
0
41
1
10
112.559643618969
20
2.47208947649585
30
0
41
1
10
112.713787080386
20
2.40015377493691
30
0
41
1
10
112.877566344776
20
2.33634948502339
30
0
0
SPLINE
5
1C8
100
AcDbEntity
8
1
62
256
6
ByLayer
370
-1
48
1
60
0
100
AcDbSpline
70
4
71
3
72
14
73
10
40
0
40
0
40
0
40
0
40
0.499999999999993
40
0.499999999999993
40
0.624999999999991
40
0.624999999999991
40
0.749999999999989
40
0.749999999999989
40
1
40
1
40
1
40
1
41
1
10
109.550089657933
20
-9.49455438271633
30
0
41
1
10
109.96168782087
20
-9.50130491845243
30
0
41
1
10
110.359110550671
20
-9.51540434978915
30
0
41
1
10
110.838826742085
20
-9.53656664391235
30
0
41
1
10
110.933904717875
20
-9.54096123780616
30
0
41
1
10
111.12229736571
20
-9.54986739091441
30
0
41
1
10
111.215819570837
20
-9.55438906630943
30
0
41
1
10
111.489964427336
20
-9.56758839299729
30
0
41
1
10
111.665320400366
20
-9.57596045421522
30
0
41
1
10
111.83346095158
20
-9.58286762994553
30
0
0
SPLINE
5
1C9
100
AcDbEntity
8
1
62
256
6
ByLayer
370
-1
48
1
60
0
100
AcDbSpline
70
4
71
3
72
8
73
4
40
0
40
0
40
0
40
0
40
1
40
1
40
1
40
1
41
1
10
11.4500896579856
20
5.12069051673294
30
0
41
1
10
13.6243818063279
20
4.01088213892737
30
0
41
1
10
15.7915232980778
20
2.90385325780164
30
0
41
1
10
17.9500896579846
20
1.80272121828676
30
0
0
SPLINE
5
1CA
100
AcDbEntity
8
1
62
256
6
ByLayer
370
-1
48
1
60
0
100
AcDbSpline
70
4
71
3
72
8
73
4
40
0
40
0
40
0
40
0
40
1
40
1
40
1
40
1
41
1
10
111.987848845094
20
1.52217151232611
30
0
41
1
10
111.828954370563
20
1.55922092767779
30
0
41
1
10
111.674299552914
20
1.60002986328962
30
0
41
1
10
111.522698787901
20
1.64552844081968
30
0
0
SPLINE
5
1CB
100
AcDbEntity
8
1
62
256
6
ByLayer
370
-1
48
1
60
0
100
AcDbSpline
70
4
71
3
72
10
73
6
40
0
40
0
40
0
40
0
40
0.5
40
0.5
40
1
40
1
40
1
40
1
41
1
10
9.09608624507948
20
-3.87248699857054
30
0
41
1
10
8.92546193287114
20
-3.76661949228955
30
0
41
1
10
8.758886280713
20
-3.63903740365919
30
0
41
1
10
8.43279344364859
20
-3.34252283663665
30
0
41
1
10
8.27327943980447
20
-3.17359463155867
30
0
41
1
10
8.11720101909339
20
-2.98283935053348
30
0
0
SPLINE
5
1CC
100
AcDbEntity
8
1
62
256
6
ByLayer
370
-1
48
1
60
0
100
AcDbSpline
70
4
71
3
72
10
73
6
40
0
40
0
40
0
40
0
40
0.5
40
0.5
40
1
40
1
40
1
40
1
41
1
10
15.6155614644124
20
-7.53180157343056
30
0
41
1
10
15.8166266786164
20
-7.61330996568159
30
0
41
1
10
16.0228177474134
20
-7.67972611388706
30
0
41
1
10
16.4453984501867
20
-7.78370285658605
30
0
41
1
10
16.6617859070623
20
-7.82126395489269
30
0
41
1
10
16.8834969776169
20
-7.84403227797344
30
0
0
SPLINE
5
1CD
100
AcDbEntity
8
1
62
256
6
ByLayer
370
-1
48
1
60
0
100
AcDbSpline
70
4
71
3
72
15
73
11
40
0
40
0
40
0
40
0
40
0.0512135155739762
40
0.195204619948603
40
0.33919572432323
40
0.627177933072483
40
0.77116903744711
40
0.915160141821737
40
0.98715569400905
40
1
40
1
40
1
40
1
41
1
10
120.259419335383
20
2.73647859206125
30
0
41
1
10
120.261028817315
20
2.73667159265511
30
0
41
1
10
120.267161087998
20
2.73741433911505
30
0
41
1
10
120.277796448583
20
2.73872087548065
30
0
41
1
10
120.295848595687
20
2.74095760550998
30
0
41
1
10
120.313956100947
20
2.74318913303645
30
0
41
1
10
120.33228410501
20
2.74544223577075
30
0
41
1
10
120.34354652446
20
2.7468315812485
30
0
41
1
10
120.350478394414
20
2.74769250771897
30
0
41
1
10
120.353022054009
20
2.74801605729993
30
0
41
1
10
120.353406574234
20
2.74806517195969
30
0
0
SPLINE
5
1CE
100
AcDbEntity
8
1
62
256
6
ByLayer
370
-1
48
1
60
0
100
AcDbSpline
70
4
71
3
72
14
73
10
40
0
40
0
40
0
40
0
40
0.0868146872097108
40
0.283438438146217
40
0.480062189082723
40
0.676685940019229
40
0.873309690955736
40
0.971621566423989
40
1
40
1
40
1
40
1
41
1
10
113.964158832696
20
9.77768259816813
30
0
41
1
10
113.962148024914
20
9.77760515296109
30
0
41
1
10
113.955583468517
20
9.77734273760947
30
0
41
1
10
113.944468715789
20
9.77681317961626
30
0
41
1
10
113.930822233083
20
9.77589308400712
30
0
41
1
10
113.917195624
20
9.77471006405625
30
0
41
1
10
113.905864363977
20
9.77351051262698
30
0
41
1
10
113.898417582603
20
9.77264155327572
30
0
41
1
10
113.895501406934
20
9.77229328746017
30
0
41
1
10
113.894848291988
20
9.77221496935678
30
0
0
SPLINE
5
1CF
100
AcDbEntity
8
1
62
256
6
ByLayer
370
-1
48
1
60
0
100
AcDbSpline
70
4
71
3
72
12
73
8
40
0
40
0
40
0
40
0
40
0.126690309034242
40
0.323314059973356
40
0.716561561851583
40
0.913185312790697
40
1
40
1
40
1
40
1
41
1
10
114.147060460955
20
2.52221497902087
30
0
41
1
10
114.149993366872
20
2.52207036060909
30
0
41
1
10
114.1574823381
20
2.52171724553145
30
0
41
1
10
114.17408154897
20
2.52112951542753
30
0
41
1
10
114.192323185648
20
2.52100013439067
30
0
41
1
10
114.208004023539
20
2.52135255689865
30
0
41
1
10
114.21457082452
20
2.52155045026476
30
0
41
1
10
114.216582115822
20
2.52161399636719
30
0
0
SPLINE
5
1D0
100
AcDbEntity
8
1
62
256
6
ByLayer
370
-1
48
1
60
0
100
AcDbSpline
70
4
71
3
72
12
73
8
40
0
40
0
40
0
40
0
40
0.0366937705554812
40
0.110794249743521
40
0.407196166495681
40
0.70359808324784
40
1
40
1
40
1
40
1
41
1
10
119.901670090518
20
9.98583832631371
30
0
41
1
10
119.865578195704
20
9.98456473139942
30
0
41
1
10
119.756603823642
20
9.9807598588815
30
0
41
1
10
119.356091573042
20
9.96670312551134
30
0
41
1
10
118.700136781565
20
9.94372288243642
30
0
41
1
10
117.825528995008
20
9.91306032530835
30
0
41
1
10
117.242457301764
20
9.89262123620665
30
0
41
1
10
116.950921455143
20
9.88240169165582
30
0
0
SPLINE
5
1D1
100
AcDbEntity
8
1
62
256
6
ByLayer
370
-1
48
1
60
0
100
AcDbSpline
70
4
71
3
72
8
73
4
40
0
40
0
40
0
40
0
40
1
40
1
40
1
40
1
41
1
10
114.252597515291
20
2.52285585080489
30
0
41
1
10
114.240592649299
20
2.52243503029774
30
0
41
1
10
114.228587019736
20
2.52203615914055
30
0
41
1
10
114.21658070626
20
2.52165923997987
30
0
0
SPLINE
5
1D2
100
AcDbEntity
8
1
62
256
6
ByLayer
370
-1
48
1
60
0
100
AcDbSpline
70
4
71
3
72
8
73
4
40
0
40
0
40
0
40
0
40
1
40
1
40
1
40
1
41
1
10
120.794425294033
20
3.41902121251945
30
0
41
1
10
120.794844513192
20
3.40697048988986
30
0
41
1
10
120.795241866523
20
3.39491900077209
30
0
41
1
10
120.795617351393
20
3.38286682512862
30
0
0
SPLINE
5
1D3
100
AcDbEntity
8
1
62
256
6
ByLayer
370
-1
48
1
60
0
100
AcDbSpline
70
4
71
3
72
14
73
10
40
0
40
0
40
0
40
0
40
0.0128443058605802
40
0.0848398580567964
40
0.228830962449229
40
0.372822066841661
40
0.660804275626526
40
0.948786484411391
40
1
40
1
40
1
40
1
41
1
10
120.101770620429
20
9.98150148887387
30
0
41
1
10
120.101383623852
20
9.98152355865898
30
0
41
1
10
120.098823676694
20
9.98166820558595
30
0
41
1
10
120.091848865765
20
9.98204164502317
30
0
41
1
10
120.080517333955
20
9.98263897849228
30
0
41
1
10
120.062077405561
20
9.98360321219678
30
0
41
1
10
120.039304321271
20
9.98480090097868
30
0
41
1
10
120.019545560245
20
9.98585741181594
30
0
41
1
10
120.008826139541
20
9.98639875258718
30
0
41
1
10
120.007207166416
20
9.98647858239715
30
0
0
SPLINE
5
1D4
100
AcDbEntity
8
1
62
256
6
ByLayer
370
-1
48
1
60
0
100
AcDbSpline
70
4
71
3
72
8
73
4
40
0
40
0
40
0
40
0
40
1
40
1
40
1
40
1
41
1
10
113.964160455236
20
9.77763736159881
30
0
41
1
10
113.976163752883
20
9.77810207949742
30
0
41
1
10
113.988167893756
20
9.77854485084325
30
0
41
1
10
114.000172798205
20
9.77896567269849
30
0
0
SPLINE
5
1D5
100
AcDbEntity
8
1
62
256
6
ByLayer
370
-1
48
1
60
0
100
AcDbSpline
70
4
71
3
72
41
73
37
40
0
40
0
40
0
40
0
40
0.008083136986568
40
0.0179214742470165
40
0.0277598115074651
40
0.0671131605492595
40
0.106466509591054
40
0.185173207674642
40
0.224526556716437
40
0.244203231237334
40
0.258960737128007
40
0.263879905758231
40
0.27371824301868
40
0.283556580279128
40
0.293394917539577
40
0.303233254800025
40
0.322909929320923
40
0.34258660384182
40
0.421293301925408
40
0.500000000008997
40
0.578706698092586
40
0.657413396176174
40
0.677090070697072
40
0.696766745217969
40
0.706605082478417
40
0.716443419738866
40
0.726281756999315
40
0.736120094259763
40
0.741039262889987
40
0.75579676878066
40
0.775473443301557
40
0.814826792343352
40
0.893533490426941
40
0.972240188510529
40
0.991916863031426
40
1
40
1
40
1
40
1
41
1
10
113.584194665031
20
2.96555919047981
30
0
41
1
10
113.584419989638
20
2.96378161431707
30
0
41
1
10
113.584925701349
20
2.95986767946326
30
0
41
1
10
113.585753122398
20
2.95387789274949
30
0
41
1
10
113.587654104496
20
2.94121591216961
30
0
41
1
10
113.591180874383
20
2.92214854698136
30
0
41
1
10
113.599365906888
20
2.88812308549385
30
0
41
1
10
113.610415331428
20
2.85403126963982
30
0
41
1
10
113.622734141173
20
2.82457505504056
30
0
41
1
10
113.630034867086
20
2.80895736921917
30
0
41
1
10
113.634145450427
20
2.80068814853624
30
0
41
1
10
113.637320898717
20
2.79451514892611
30
0
41
1
10
113.640024835192
20
2.78938970311987
30
0
41
1
10
113.64336163931
20
2.78327119491863
30
0
41
1
10
113.646790236817
20
2.77718678739313
30
0
41
1
10
113.651483708733
20
2.76912247680607
30
0
41
1
10
113.657578597308
20
2.75913770980884
30
0
41
1
10
113.672931494328
20
2.73551343952388
30
0
41
1
10
113.698662988997
20
2.70147335807042
30
0
41
1
10
113.738110729255
20
2.66000534860461
30
0
41
1
10
113.782072046084
20
2.6233960462722
30
0
41
1
10
113.817694928691
20
2.60000369758018
30
0
41
1
10
113.842242936904
20
2.58627764252074
30
0
41
1
10
113.852590636946
20
2.58087087815301
30
0
41
1
10
113.860932090944
20
2.57673349254043
30
0
41
1
10
113.867217747423
20
2.57372460895616
30
0
41
1
10
113.873530888879
20
2.57081002368133
30
0
41
1
10
113.878813010072
20
2.56845990344718
30
0
41
1
10
113.885169047735
20
2.56571069692481
30
0
41
1
10
113.893673474581
20
2.56217129492214
30
0
41
1
10
113.909703104159
20
2.55594996824706
30
0
41
1
10
113.939835064884
20
2.54566898693776
30
0
41
1
10
113.983147721334
20
2.53481087689789
30
0
41
1
10
114.021730486036
20
2.52933412895999
30
0
41
1
10
114.04463536556
20
2.52765521492731
30
0
41
1
10
114.050714790744
20
2.52729370943411
30
0
41
1
10
114.05249700693
20
2.52719207254483
30
0
0
SPLINE
5
1D6
100
AcDbEntity
8
1
62
256
6
ByLayer
370
-1
48
1
60
0
100
AcDbSpline
70
4
71
3
72
8
73
4
40
0
40
0
40
0
40
0
40
1
40
1
40
1
40
1
41
1
10
119.90167011208
20
9.98583771061314
30
0
41
1
10
119.913674978072
20
9.98625853112028
30
0
41
1
10
119.925680607635
20
9.9866574022775
30
0
41
1
10
119.937686921111
20
9.98703432143819
30
0
0
SPLINE
5
1D7
100
AcDbEntity
8
1
62
256
6
ByLayer
370
-1
48
1
60
0
100
AcDbSpline
70
4
71
3
72
15
73
11
40
0
40
0
40
0
40
0
40
0.0512135155738234
40
0.195204619948481
40
0.339195724323138
40
0.627177933072453
40
0.771169037447111
40
0.915160141821768
40
0.987155694009097
40
1
40
1
40
1
40
1
41
1
10
120.581615451802
20
9.44878811611565
30
0
41
1
10
120.581423185634
20
9.45040374600751
30
0
41
1
10
120.580683265548
20
9.45655944096794
30
0
41
1
10
120.579381700948
20
9.46723542690324
30
0
41
1
10
120.577153482352
20
9.48535653027611
30
0
41
1
10
120.574930446461
20
9.50353320326442
30
0
41
1
10
120.572685917463
20
9.52193121732506
30
0
41
1
10
120.571301858864
20
9.53323665738796
30
0
41
1
10
120.570444208479
20
9.54019500595916
30
0
41
1
10
120.570121890102
20
9.54274838192077
30
0
41
1
10
120.570072962338
20
9.54313437095013
30
0
0
SPLINE
5
1D8
100
AcDbEntity
8
1
62
256
6
ByLayer
370
-1
48
1
60
0
100
AcDbSpline
70
4
71
3
72
36
73
32
40
0
40
0
40
0
40
0
40
0.015625
40
0.0234375
40
0.03125
40
0.03515625
40
0.0390625
40
0.046875
40
0.0625
40
0.125
40
0.1875
40
0.203125
40
0.21875
40
0.25
40
0.3125
40
0.375
40
0.4375
40
0.5
40
0.53125
40
0.546875
40
0.5625
40
0.625
40
0.65625
40
0.6875
40
0.75
40
0.8125
40
0.84375
40
0.859375
40
0.875
40
0.9375
40
1
40
1
40
1
40
1
41
1
10
119.768436529632
20
6.34928053482784
30
0
41
1
10
119.773383310797
20
6.34945394009205
30
0
41
1
10
119.781080694572
20
6.34972028870959
30
0
41
1
10
119.790838729972
20
6.35005077223082
30
0
41
1
10
119.79649290583
20
6.35023916254701
30
0
41
1
10
119.800811763084
20
6.35038167771657
30
0
41
1
10
119.805203241418
20
6.35052668203178
30
0
41
1
10
119.812832669501
20
6.35077870656562
30
0
41
1
10
119.836870712837
20
6.35157264689533
30
0
41
1
10
119.876180316761
20
6.35287105580193
30
0
41
1
10
119.915473037307
20
6.3541688312917
30
0
41
1
10
119.941715801981
20
6.35503567315118
30
0
41
1
10
119.959062706705
20
6.35560850602997
30
0
41
1
10
119.990035713595
20
6.35663618982241
30
0
41
1
10
120.036397594464
20
6.35818750895405
30
0
41
1
10
120.094446107683
20
6.3601502722826
30
0
41
1
10
120.154081514544
20
6.36218662242484
30
0
41
1
10
120.204363656941
20
6.36391939078547
30
0
41
1
10
120.239286442018
20
6.36513103352814
30
0
41
1
10
120.259426032234
20
6.36583187208149
30
0
41
1
10
120.28967718779
20
6.36688418138789
30
0
41
1
10
120.324983669662
20
6.36811244834885
30
0
41
1
10
120.365352507045
20
6.36951678517258
30
0
41
1
10
120.405621794783
20
6.37091786877394
30
0
41
1
10
120.456025342004
20
6.37268262501266
30
0
41
1
10
120.505966544035
20
6.37444424250091
30
0
41
1
10
120.540372237453
20
6.37566490979688
30
0
41
1
10
120.559858399153
20
6.37635838358614
30
0
41
1
10
120.589059742502
20
6.37739826625682
30
0
41
1
10
120.632920975592
20
6.37895978743953
30
0
41
1
10
120.671895578768
20
6.38034742911825
30
0
41
1
10
120.691382880356
20
6.3810412499576
30
0
0
SPLINE
5
1D9
100
AcDbEntity
8
1
62
256
6
ByLayer
370
-1
48
1
60
0
100
AcDbSpline
70
4
71
3
72
8
73
4
40
0
40
0
40
0
40
0
40
1
40
1
40
1
40
1
41
1
10
113.359842333338
20
9.08967234889857
30
0
41
1
10
113.35942311418
20
9.10172307152817
30
0
41
1
10
113.359025760848
20
9.11377456064594
30
0
41
1
10
113.358650275978
20
9.12582673628941
30
0
0
SPLINE
5
1DA
100
AcDbEntity
8
1
62
256
6
ByLayer
370
-1
48
1
60
0
100
AcDbSpline
70
4
71
3
72
77
73
73
40
0
40
0
40
0
40
0
40
0.125
40
0.25
40
0.375
40
0.40625
40
0.421875
40
0.423828125
40
0.42578125
40
0.427734375
40
0.4296875
40
0.43359375
40
0.435546875
40
0.4375
40
0.44140625
40
0.4453125
40
0.447265625
40
0.44921875
40
0.4501953125
40
0.451171875
40
0.453125
40
0.4609375
40
0.46875
40
0.47265625
40
0.474609375
40
0.47607421875
40
0.4765625
40
0.4775390625
40
0.478515625
40
0.4794921875
40
0.48046875
40
0.482421875
40
0.484375
40
0.4921875
40
0.5
40
0.5078125
40
0.515625
40
0.517578125
40
0.51953125
40
0.5205078125
40
0.521484375
40
0.5224609375
40
0.5234375
40
0.52392578125
40
0.525390625
40
0.52734375
40
0.53125
40
0.5390625
40
0.54296875
40
0.546875
40
0.5478515625
40
0.548828125
40
0.5498046875
40
0.55078125
40
0.552734375
40
0.5546875
40
0.55859375
40
0.560546875
40
0.5625
40
0.5634765625
40
0.564453125
40
0.56640625
40
0.568359375
40
0.5703125
40
0.572265625
40
0.57421875
40
0.578125
40
0.59375
40
0.625
40
0.75
40
0.875
40
1
40
1
40
1
40
1
41
1
10
114.352032257929
20
6.15941302659019
30
0
41
1
10
114.344244478506
20
6.38327772342356
30
0
41
1
10
114.32866891966
20
6.83100711709028
30
0
41
1
10
114.30530558139
20
7.50260120759037
30
0
41
1
10
114.287783077688
20
8.00629677546547
30
0
41
1
10
114.277074880981
20
8.31411073361133
30
0
41
1
10
114.274032779643
20
8.40155788081188
30
0
41
1
10
114.272815939109
20
8.43653673969209
30
0
41
1
10
114.272450886948
20
8.44703039735614
30
0
41
1
10
114.272085834788
20
8.45752405502023
30
0
41
1
10
114.271599098574
20
8.4715155985723
30
0
41
1
10
114.27111236236
20
8.48550714212439
30
0
41
1
10
114.270625626146
20
8.49949868567646
30
0
41
1
10
114.270138889932
20
8.51349022922855
30
0
41
1
10
114.269530469664
20
8.53097965866866
30
0
41
1
10
114.268921551833
20
8.54846889686132
30
0
41
1
10
114.26843382049
20
8.56246005791854
30
0
41
1
10
114.268128677422
20
8.57120441404962
30
0
41
1
10
114.267884339065
20
8.57819981289316
30
0
41
1
10
114.267639838999
20
8.58519514958127
30
0
41
1
10
114.266966745458
20
8.6044320493601
30
0
41
1
10
114.265860841584
20
8.63590889140752
30
0
41
1
10
114.264653554287
20
8.67089142223864
30
0
41
1
10
114.263835202245
20
8.69538947528289
30
0
41
1
10
114.263380678277
20
8.70850723585377
30
0
41
1
10
114.263122383236
20
8.71549727020656
30
0
41
1
10
114.26291836237
20
8.72073583714908
30
0
41
1
10
114.262741180054
20
8.72509855563803
30
0
41
1
10
114.262588979395
20
8.7301939845899
30
0
41
1
10
114.262569078865
20
8.73501415341312
30
0
41
1
10
114.262738256535
20
8.74133143823127
30
0
41
1
10
114.263352897219
20
8.74950516852761
30
0
41
1
10
114.26619687652
20
8.76961573097219
30
0
41
1
10
114.275891134764
20
8.80015815635548
30
0
41
1
10
114.301102591778
20
8.83710699308298
30
0
41
1
10
114.336062501677
20
8.86493052589321
30
0
41
1
10
114.36573834994
20
8.87676864159286
30
0
41
1
10
114.385525197752
20
8.8810193720999
30
0
41
1
10
114.39360511434
20
8.88220502826127
30
0
41
1
10
114.399871228715
20
8.88281510999312
30
0
41
1
10
114.404662746523
20
8.88313142008784
30
0
41
1
10
114.409737037834
20
8.88333444937291
30
0
41
1
10
114.414084927552
20
8.88346135136246
30
0
41
1
10
114.419305079616
20
8.88362247401068
30
0
41
1
10
114.426269569951
20
8.88385142406932
30
0
41
1
10
114.439337286861
20
8.88431132404082
30
0
41
1
10
114.46373975383
20
8.8852007449004
30
0
41
1
10
114.491618742973
20
8.88618579384445
30
0
41
1
10
114.519493705515
20
8.88715758239726
30
0
41
1
10
114.535172896583
20
8.88770264799541
30
0
41
1
10
114.545625923649
20
8.88806679244456
30
0
41
1
10
114.550852480873
20
8.8882490085536
30
0
41
1
10
114.556079078876
20
8.88843135895479
30
0
41
1
10
114.563047926701
20
8.88867465908953
30
0
41
1
10
114.571759073866
20
8.88897907202684
30
0
41
1
10
114.585697064676
20
8.88946664431572
30
0
41
1
10
114.599635241903
20
8.88995483051161
30
0
41
1
10
114.613573512338
20
8.890443323661
30
0
41
1
10
114.622284950779
20
8.89074869582799
30
0
41
1
10
114.629254101531
20
8.89099299356161
30
0
41
1
10
114.636223252283
20
8.89123729129523
30
0
41
1
10
114.644934690724
20
8.89154266346222
30
0
41
1
10
114.655388416852
20
8.89190911006264
30
0
41
1
10
114.665842142981
20
8.89227555666307
30
0
41
1
10
114.676295869109
20
8.89264200326346
30
0
41
1
10
114.690234170614
20
8.89313059873069
30
0
41
1
10
114.728564499752
20
8.89447423626552
30
0
41
1
10
114.819163459533
20
8.89765010680244
30
0
41
1
10
115.125806092636
20
8.9083992070812
30
0
41
1
10
115.627584946805
20
8.92598864390098
30
0
41
1
10
116.296623419031
20
8.94944122632734
30
0
41
1
10
116.742649067182
20
8.96507628127827
30
0
41
1
10
116.965661891257
20
8.97289380875372
30
0
0
SPLINE
5
1DB
100
AcDbEntity
8
1
62
256
6
ByLayer
370
-1
48
1
60
0
100
AcDbSpline
70
4
71
3
72
14
73
10
40
0
40
0
40
0
40
0
40
0.012844305860451
40
0.0848398580566769
40
0.228830962449129
40
0.372822066841581
40
0.660804275626485
40
0.948786484411389
40
1
40
1
40
1
40
1
41
1
10
120.790105572927
20
3.21815635273606
30
0
41
1
10
120.79012755873
20
3.21854482757706
30
0
41
1
10
120.790271655232
20
3.22111455331705
30
0
41
1
10
120.790643673619
20
3.22811600689153
30
0
41
1
10
120.791238734054
20
3.23949082331197
30
0
41
1
10
120.792199298558
20
3.25800118923678
30
0
41
1
10
120.793392429773
20
3.28086126300903
30
0
41
1
10
120.794444920267
20
3.30069549929195
30
0
41
1
10
120.794984201073
20
3.31145586644112
30
0
41
1
10
120.795063727107
20
3.31308102378091
30
0
0
SPLINE
5
1DC
100
AcDbEntity
8
1
62
256
6
ByLayer
370
-1
48
1
60
0
100
AcDbSpline
70
4
71
3
72
14
73
10
40
0
40
0
40
0
40
0
40
0.0868146872094717
40
0.283438438146044
40
0.480062189082616
40
0.676685940019188
40
0.87330969095576
40
0.971621566424046
40
1
40
1
40
1
40
1
41
1
10
120.587062274635
20
9.37921282040253
30
0
41
1
10
120.58698512413
20
9.38123130914303
30
0
41
1
10
120.586723707348
20
9.3878209410793
30
0
41
1
10
120.586196164483
20
9.39897815035735
30
0
41
1
10
120.585279570116
20
9.41267676041045
30
0
41
1
10
120.584101051913
20
9.42635542092572
30
0
41
1
10
120.582906065139
20
9.43772996452179
30
0
41
1
10
120.58204041244
20
9.4452051913909
30
0
41
1
10
120.581693471881
20
9.44813250637688
30
0
41
1
10
120.581615451802
20
9.44878811611562
30
0
0
SPLINE
5
1DD
100
AcDbEntity
8
1
62
256
6
ByLayer
370
-1
48
1
60
0
100
AcDbSpline
70
4
71
3
72
15
73
11
40
0
40
0
40
0
40
0
40
0.0512135155736845
40
0.195204619948365
40
0.339195724323047
40
0.627177933072409
40
0.77116903744709
40
0.915160141821771
40
0.987155694009111
40
1
40
1
40
1
40
1
41
1
10
113.894848291988
20
9.77221496935678
30
0
41
1
10
113.893238810056
20
9.77202196876291
30
0
41
1
10
113.887106539373
20
9.77127922230298
30
0
41
1
10
113.876471178788
20
9.76997268593738
30
0
41
1
10
113.858419031684
20
9.76773595590808
30
0
41
1
10
113.840311526424
20
9.76550442838158
30
0
41
1
10
113.821983522362
20
9.76325132564727
30
0
41
1
10
113.810721102911
20
9.76186198016953
30
0
41
1
10
113.803789232957
20
9.76100105369906
30
0
41
1
10
113.801245573362
20
9.76067750411809
30
0
41
1
10
113.800861053137
20
9.76062838945833
30
0
0
SPLINE
5
1DE
100
AcDbEntity
8
1
62
256
6
ByLayer
370
-1
48
1
60
0
100
AcDbSpline
70
4
71
3
72
12
73
8
40
0
40
0
40
0
40
0
40
0.0366937705554792
40
0.110794249743519
40
0.40719616649568
40
0.70359808324784
40
1
40
1
40
1
40
1
41
1
10
120.794425907391
20
3.41902123416332
30
0
41
1
10
120.79315715889
20
3.45525099415261
30
0
41
1
10
120.789366765061
20
3.56464163061213
30
0
41
1
10
120.775363521805
20
3.96668377294392
30
0
41
1
10
120.752470725493
20
4.62514420515976
30
0
41
1
10
120.721924848652
20
5.5030928513759
30
0
41
1
10
120.701563536455
20
6.08839178376371
30
0
41
1
10
120.691382880356
20
6.3810412499576
30
0
0
SPLINE
5
1DF
100
AcDbEntity
8
1
62
256
6
ByLayer
370
-1
48
1
60
0
100
AcDbSpline
70
4
71
3
72
12
73
8
40
0
40
0
40
0
40
0
40
0.126690309034605
40
0.323314059973657
40
0.716561561851762
40
0.913185312790814
40
1
40
1
40
1
40
1
41
1
10
120.007207166416
20
9.98647858239715
30
0
41
1
10
120.004274260499
20
9.98662320080894
30
0
41
1
10
119.996785289271
20
9.98697631588658
30
0
41
1
10
119.980186078401
20
9.9875640459905
30
0
41
1
10
119.961944441723
20
9.98769342702735
30
0
41
1
10
119.946263603832
20
9.98734100451938
30
0
41
1
10
119.939696802851
20
9.98714311115327
30
0
41
1
10
119.937685511549
20
9.98707956505083
30
0
0
SPLINE
5
1E0
100
AcDbEntity
8
1
62
256
6
ByLayer
370
-1
48
1
60
0
100
AcDbSpline
70
4
71
3
72
77
73
73
40
0
40
0
40
0
40
0
40
0.125
40
0.25
40
0.375
40
0.40625
40
0.421875
40
0.423828125
40
0.42578125
40
0.427734375
40
0.4296875
40
0.43359375
40
0.435546875
40
0.4375
40
0.44140625
40
0.4453125
40
0.447265625
40
0.44921875
40
0.4501953125
40
0.451171875
40
0.453125
40
0.4609375
40
0.46875
40
0.47265625
40
0.474609375
40
0.47607421875
40
0.4765625
40
0.4775390625
40
0.478515625
40
0.4794921875
40
0.48046875
40
0.482421875
40
0.484375
40
0.4921875
40
0.5
40
0.5078125
40
0.515625
40
0.517578125
40
0.51953125
40
0.5205078125
40
0.521484375
40
0.5224609375
40
0.5234375
40
0.52392578125
40
0.525390625
40
0.52734375
40
0.53125
40
0.5390625
40
0.54296875
40
0.546875
40
0.5478515625
40
0.548828125
40
0.5498046875
40
0.55078125
40
0.552734375
40
0.5546875
40
0.55859375
40
0.560546875
40
0.5625
40
0.5634765625
40
0.564453125
40
0.56640625
40
0.568359375
40
0.5703125
40
0.572265625
40
0.57421875
40
0.578125
40
0.59375
40
0.625
40
0.75
40
0.875
40
1
40
1
40
1
40
1
41
1
10
119.768436529632
20
6.34928053482784
30
0
41
1
10
119.776224309055
20
6.1254158379945
30
0
41
1
10
119.791799867901
20
5.67768644432775
30
0
41
1
10
119.815163206171
20
5.00609235382765
30
0
41
1
10
119.832685709873
20
4.50239678595258
30
0
41
1
10
119.84339390658
20
4.1945828278067
30
0
41
1
10
119.846436007918
20
4.10713568060615
30
0
41
1
10
119.847652848452
20
4.07215682172594
30
0
41
1
10
119.848017900613
20
4.06166316406188
30
0
41
1
10
119.848382952773
20
4.05116950639783
30
0
41
1
10
119.848869688987
20
4.03717796284573
30
0
41
1
10
119.849356425201
20
4.02318641929364
30
0
41
1
10
119.849843161415
20
4.00919487574157
30
0
41
1
10
119.850329897629
20
3.99520333218948
30
0
41
1
10
119.850938317897
20
3.97771390274937
30
0
41
1
10
119.851547235729
20
3.96022466455671
30
0
41
1
10
119.852034967072
20
3.94623350349951
30
0
41
1
10
119.852340110139
20
3.93748914736841
30
0
41
1
10
119.852584448496
20
3.93049374852487
30
0
41
1
10
119.852828948563
20
3.92349841183676
30
0
41
1
10
119.853502042103
20
3.90426151205796
30
0
41
1
10
119.854607945977
20
3.8727846700105
30
0
41
1
10
119.855815233274
20
3.83780213917942
30
0
41
1
10
119.856633585316
20
3.81330408613513
30
0
41
1
10
119.857088109284
20
3.80018632556428
30
0
41
1
10
119.857346404325
20
3.7931962912115
30
0
41
1
10
119.857550425191
20
3.78795772426895
30
0
41
1
10
119.857727607507
20
3.78359500578003
30
0
41
1
10
119.857879808166
20
3.77849957682815
30
0
41
1
10
119.857899708696
20
3.77367940800491
30
0
41
1
10
119.857730531026
20
3.76736212318676
30
0
41
1
10
119.857115890342
20
3.75918839289042
30
0
41
1
10
119.854271911041
20
3.73907783044584
30
0
41
1
10
119.844577652797
20
3.70853540506255
30
0
41
1
10
119.819366195783
20
3.67158656833504
30
0
41
1
10
119.784406285885
20
3.64376303552484
30
0
41
1
10
119.754730437621
20
3.63192491982517
30
0
41
1
10
119.734943589809
20
3.62767418931813
30
0
41
1
10
119.726863673221
20
3.62648853315676
30
0
41
1
10
119.720597558847
20
3.62587845142494
30
0
41
1
10
119.715806041038
20
3.62556214133019
30
0
41
1
10
119.710731749728
20
3.62535911204512
30
0
41
1
10
119.706383860009
20
3.62523221005557
30
0
41
1
10
119.701163707945
20
3.62507108740735
30
0
41
1
10
119.694199217611
20
3.62484213734874
30
0
41
1
10
119.6811315007
20
3.62438223737721
30
0
41
1
10
119.656729033731
20
3.62349281651763
30
0
41
1
10
119.628850044588
20
3.62250776757361
30
0
41
1
10
119.600975082046
20
3.62153597902076
30
0
41
1
10
119.585295890978
20
3.62099091342265
30
0
41
1
10
119.574842863912
20
3.62062676897347
30
0
41
1
10
119.569616306688
20
3.62044455286443
30
0
41
1
10
119.564389708685
20
3.62026220246324
30
0
41
1
10
119.55742086086
20
3.6200189023285
30
0
41
1
10
119.548709713695
20
3.61971448939119
30
0
41
1
10
119.534771722885
20
3.61922691710231
30
0
41
1
10
119.520833545658
20
3.61873873090642
30
0
41
1
10
119.506895275223
20
3.61825023775702
30
0
41
1
10
119.498183836783
20
3.61794486559003
30
0
41
1
10
119.49121468603
20
3.61770056785642
30
0
41
1
10
119.484245535278
20
3.6174562701228
30
0
41
1
10
119.475534096837
20
3.61715089795581
30
0
41
1
10
119.465080370709
20
3.61678445135539
30
0
41
1
10
119.45462664458
20
3.61641800475496
30
0
41
1
10
119.444172918452
20
3.61605155815457
30
0
41
1
10
119.430234616947
20
3.61556296268733
30
0
41
1
10
119.391904287809
20
3.6142193251525
30
0
41
1
10
119.301305328029
20
3.61104345461561
30
0
41
1
10
118.994662694925
20
3.60029435433685
30
0
41
1
10
118.492883840756
20
3.58270491751705
30
0
41
1
10
117.82384536853
20
3.55925233509069
30
0
41
1
10
117.377819720379
20
3.54361728013976
30
0
41
1
10
117.154806896304
20
3.5357997526643
30
0
0
SPLINE
5
1E1
100
AcDbEntity
8
1
62
256
6
ByLayer
370
-1
48
1
60
0
100
AcDbSpline
70
4
71
3
72
12
73
8
40
0
40
0
40
0
40
0
40
0.296401916752161
40
0.592803833504323
40
0.889205750256485
40
0.963306229444525
40
1
40
1
40
1
40
1
41
1
10
116.950921455143
20
9.88240169165582
30
0
41
1
10
116.659385608521
20
9.87218214710498
30
0
41
1
10
116.076313915277
20
9.85174305800331
30
0
41
1
10
115.201705856674
20
9.82108832099485
30
0
41
1
10
114.545752017357
20
9.79808070750121
30
0
41
1
10
114.145238577599
20
9.78405815722977
30
0
41
1
10
114.036265257123
20
9.78022305620939
30
0
41
1
10
114.000172776928
20
9.77896628840904
30
0
0
SPLINE
5
1E2
100
AcDbEntity
8
1
62
256
6
ByLayer
370
-1
48
1
60
0
100
AcDbSpline
70
4
71
3
72
12
73
8
40
0
40
0
40
0
40
0
40
0.29640191675216
40
0.59280383350432
40
0.88920575025648
40
0.96330622944452
40
1
40
1
40
1
40
1
41
1
10
113.462884747015
20
6.12765231146045
30
0
41
1
10
113.473065403113
20
5.83500284526653
30
0
41
1
10
113.49342671531
20
5.24970391287874
30
0
41
1
10
113.523964801789
20
4.37175499357801
30
0
41
1
10
113.546884864367
20
3.71329551715826
30
0
41
1
10
113.560854054601
20
3.31125218112632
30
0
41
1
10
113.564674561905
20
3.20186260026938
30
0
41
1
10
113.565926547324
20
3.16563225266435
30
0
0
SPLINE
5
1E3
100
AcDbEntity
8
1
62
256
6
ByLayer
370
-1
48
1
60
0
100
AcDbSpline
70
4
71
3
72
8
73
4
40
0
40
0
40
0
40
0
40
1
40
1
40
1
40
1
41
1
10
120.587017210204
20
9.37921119166504
30
0
41
1
10
120.587480159711
20
9.36716204337043
30
0
41
1
10
120.587921246178
20
9.35511204862965
30
0
41
1
10
120.588340466679
20
9.34306128739576
30
0
0
SPLINE
5
1E4
100
AcDbEntity
8
1
62
256
6
ByLayer
370
-1
48
1
60
0
100
AcDbSpline
70
4
71
3
72
36
73
32
40
0
40
0
40
0
40
0
40
0.015625
40
0.0234375
40
0.03125
40
0.03515625
40
0.0390625
40
0.046875
40
0.0625
40
0.125
40
0.1875
40
0.203125
40
0.21875
40
0.25
40
0.3125
40
0.375
40
0.4375
40
0.5
40
0.53125
40
0.546875
40
0.5625
40
0.625
40
0.65625
40
0.6875
40
0.75
40
0.8125
40
0.84375
40
0.859375
40
0.875
40
0.9375
40
1
40
1
40
1
40
1
41
1
10
117.154806896304
20
3.5357997526643
30
0
41
1
10
117.154979641708
20
3.53083407559811
30
0
41
1
10
117.15534415799
20
3.5232068491249
30
0
41
1
10
117.156003622155
20
3.51374303930464
30
0
41
1
10
117.156471207452
20
3.50834824649422
30
0
41
1
10
117.15686646689
20
3.5042671460026
30
0
41
1
10
117.157265818517
20
3.50011476570432
30
0
41
1
10
117.15795673673
20
3.49289772732041
30
0
41
1
10
117.160136738192
20
3.4701622509474
30
0
41
1
10
117.163699730955
20
3.43298068463332
30
0
41
1
10
117.167263278996
20
3.39581725700359
30
0
41
1
10
117.169640943292
20
3.37099415395909
30
0
41
1
10
117.17121713505
20
3.35459036655331
30
0
41
1
10
117.173896887991
20
3.32516135317863
30
0
41
1
10
117.177549263787
20
3.28073738560212
30
0
41
1
10
117.181560765129
20
3.22453119779138
30
0
41
1
10
117.185133234999
20
3.1662177593455
30
0
41
1
10
117.18771037745
20
3.11659776568934
30
0
41
1
10
117.189275318347
20
3.081900857222
30
0
41
1
10
117.19012005998
20
3.06183146689776
30
0
41
1
10
117.19139999437
20
3.0316972710676
30
0
41
1
10
117.19289094923
20
2.99652430727466
30
0
41
1
10
117.19459686454
20
2.95630936229605
30
0
41
1
10
117.196292794958
20
2.91618757741651
30
0
41
1
10
117.198110681116
20
2.86565157078258
30
0
41
1
10
117.199552635301
20
2.81520544620076
30
0
41
1
10
117.20035202876
20
2.78025010833935
30
0
41
1
10
117.200746101852
20
2.7603916172651
30
0
41
1
10
117.201318342849
20
2.73061327372324
30
0
41
1
10
117.20218919729
20
2.68589715762818
30
0
41
1
10
117.202960513916
20
2.64616029905088
30
0
41
1
10
117.203346172229
20
2.62629186976221
30
0
0
SPLINE
5
1E5
100
AcDbEntity
8
1
62
256
6
ByLayer
370
-1
48
1
60
0
100
AcDbSpline
70
4
71
3
72
77
73
73
40
0
40
0
40
0
40
0
40
0.125
40
0.25
40
0.375
40
0.40625
40
0.421875
40
0.423828125
40
0.42578125
40
0.427734375
40
0.4296875
40
0.43359375
40
0.435546875
40
0.4375
40
0.44140625
40
0.4453125
40
0.447265625
40
0.44921875
40
0.4501953125
40
0.451171875
40
0.453125
40
0.4609375
40
0.46875
40
0.47265625
40
0.474609375
40
0.47607421875
40
0.4765625
40
0.4775390625
40
0.478515625
40
0.4794921875
40
0.48046875
40
0.482421875
40
0.484375
40
0.4921875
40
0.5
40
0.5078125
40
0.515625
40
0.517578125
40
0.51953125
40
0.5205078125
40
0.521484375
40
0.5224609375
40
0.5234375
40
0.52392578125
40
0.525390625
40
0.52734375
40
0.53125
40
0.5390625
40
0.54296875
40
0.546875
40
0.5478515625
40
0.548828125
40
0.5498046875
40
0.55078125
40
0.552734375
40
0.5546875
40
0.55859375
40
0.560546875
40
0.5625
40
0.5634765625
40
0.564453125
40
0.56640625
40
0.568359375
40
0.5703125
40
0.572265625
40
0.57421875
40
0.578125
40
0.59375
40
0.625
40
0.75
40
0.875
40
1
40
1
40
1
40
1
41
1
10
117.154806896304
20
3.5357997526643
30
0
41
1
10
116.931794072228
20
3.52798222518885
30
0
41
1
10
116.485768424078
20
3.51234717023795
30
0
41
1
10
115.816729951852
20
3.48889458781156
30
0
41
1
10
115.314951097682
20
3.47130515099178
30
0
41
1
10
115.008308464579
20
3.46055605071302
30
0
41
1
10
114.921194080174
20
3.45750232904291
30
0
41
1
10
114.886348326413
20
3.45628084037489
30
0
41
1
10
114.875894600284
20
3.45591439377446
30
0
41
1
10
114.865440874155
20
3.45554794717404
30
0
41
1
10
114.851502572651
20
3.45505935170684
30
0
41
1
10
114.837564271146
20
3.45457075623963
30
0
41
1
10
114.823625969641
20
3.4540821607724
30
0
41
1
10
114.809687668137
20
3.4535935653052
30
0
41
1
10
114.792264791256
20
3.45298282097116
30
0
41
1
10
114.774842104895
20
3.45237157717205
30
0
41
1
10
114.760904184429
20
3.45188198277467
30
0
41
1
10
114.752193103213
20
3.45157567411061
30
0
41
1
10
114.745224323974
20
3.45133040242007
30
0
41
1
10
114.738255606654
20
3.45108496840339
30
0
41
1
10
114.719091909087
20
3.45040930375475
30
0
41
1
10
114.687734845926
20
3.44929917550755
30
0
41
1
10
114.652885434187
20
3.44808727656925
30
0
41
1
10
114.628480603631
20
3.44726579855575
30
0
41
1
10
114.615412760099
20
3.44680953837954
30
0
41
1
10
114.608449324937
20
3.44655025669323
30
0
41
1
10
114.603230692324
20
3.44634545650109
30
0
41
1
10
114.598884575296
20
3.44616759737701
30
0
41
1
10
114.593808535989
20
3.44601481533681
30
0
41
1
10
114.589006709364
20
3.44599483878972
30
0
41
1
10
114.582713463721
20
3.4461646626915
30
0
41
1
10
114.574570836937
20
3.44678165120308
30
0
41
1
10
114.554536801254
20
3.44963649404264
30
0
41
1
10
114.52411059902
20
3.45936778277823
30
0
41
1
10
114.487302363771
20
3.48467554346246
30
0
41
1
10
114.459584707904
20
3.51976899453703
30
0
41
1
10
114.447791639808
20
3.54955819971997
30
0
41
1
10
114.443557084614
20
3.5694206300756
30
0
41
1
10
114.442375940232
20
3.57753141063284
30
0
41
1
10
114.441768180046
20
3.58382146054615
30
0
41
1
10
114.441453073606
20
3.58863128117386
30
0
41
1
10
114.441250816909
20
3.59372495545327
30
0
41
1
10
114.44112439782
20
3.59808945340458
30
0
41
1
10
114.440963888292
20
3.60332954560056
30
0
41
1
10
114.440735809457
20
3.6103206391571
30
0
41
1
10
114.440277659544
20
3.62343827262353
30
0
41
1
10
114.439391623199
20
3.64793395305131
30
0
41
1
10
114.438410322664
20
3.67591943540387
30
0
41
1
10
114.43744223206
20
3.70390087577479
30
0
41
1
10
114.436899240601
20
3.71963995880503
30
0
41
1
10
114.436536481831
20
3.73013291473617
30
0
41
1
10
114.43635495911
20
3.73537943656004
30
0
41
1
10
114.436173302607
20
3.74062599931835
30
0
41
1
10
114.435930928303
20
3.74762146701013
30
0
41
1
10
114.435627673748
20
3.75636588934145
30
0
41
1
10
114.435141956819
20
3.77035712101224
30
0
41
1
10
114.434655628319
20
3.78434853981182
30
0
41
1
10
114.434168994034
20
3.79834005217577
30
0
41
1
10
114.4338647839
20
3.80708476689583
30
0
41
1
10
114.433621415793
20
3.81408053867187
30
0
41
1
10
114.433378047686
20
3.82107631044792
30
0
41
1
10
114.433073837552
20
3.82982102516797
30
0
41
1
10
114.432708785392
20
3.84031468283203
30
0
41
1
10
114.432343733231
20
3.85080834049609
30
0
41
1
10
114.431978681071
20
3.86130199816014
30
0
41
1
10
114.431491944857
20
3.87529354171224
30
0
41
1
10
114.430153420269
20
3.91377028648049
30
0
41
1
10
114.426989634878
20
4.00471531956902
30
0
41
1
10
114.416281438171
20
4.3125292777149
30
0
41
1
10
114.398758934469
20
4.81622484558997
30
0
41
1
10
114.375395596199
20
5.48781893609009
30
0
41
1
10
114.359820037353
20
5.93554832975681
30
0
41
1
10
114.352032257929
20
6.15941302659019
30
0
0
SPLINE
5
1E6
100
AcDbEntity
8
1
62
256
6
ByLayer
370
-1
48
1
60
0
100
AcDbSpline
70
4
71
3
72
12
73
8
40
0
40
0
40
0
40
0
40
0.0366937705554784
40
0.110794249743518
40
0.407196166495679
40
0.703598083247839
40
1
40
1
40
1
40
1
41
1
10
113.35984171998
20
9.0896723272547
30
0
41
1
10
113.361110468481
20
9.05344256726545
30
0
41
1
10
113.36490086231
20
8.9440519308059
30
0
41
1
10
113.378904105566
20
8.5420097884741
30
0
41
1
10
113.401796901878
20
7.88354935625827
30
0
41
1
10
113.432342778719
20
7.00560071004213
30
0
41
1
10
113.452704090916
20
6.42030177765434
30
0
41
1
10
113.462884747015
20
6.12765231146042
30
0
0
SPLINE
5
1E7
100
AcDbEntity
8
1
62
256
6
ByLayer
370
-1
48
1
60
0
100
AcDbSpline
70
4
71
3
72
12
73
8
40
0
40
0
40
0
40
0
40
0.126690309034493
40
0.323314059973632
40
0.71656156185191
40
0.913185312791049
40
1
40
1
40
1
40
1
41
1
10
113.359203900264
20
9.19561253763715
30
0
41
1
10
113.359059832169
20
9.19266842849567
30
0
41
1
10
113.358708060801
20
9.18515085061466
30
0
41
1
10
113.358122567187
20
9.16848823345521
30
0
41
1
10
113.357993678485
20
9.15017691668933
30
0
41
1
10
113.358344759918
20
9.13443618054433
30
0
41
1
10
113.358541900241
20
9.12784429545073
30
0
41
1
10
113.358605204531
20
9.12582532134283
30
0
0
SPLINE
5
1E8
100
AcDbEntity
8
1
62
256
6
ByLayer
370
-1
48
1
60
0
100
AcDbSpline
70
4
71
3
72
14
73
10
40
0
40
0
40
0
40
0
40
0.0128443058604388
40
0.0848398580566653
40
0.228830962449118
40
0.372822066841571
40
0.660804275626478
40
0.948786484411384
40
1
40
1
40
1
40
1
41
1
10
113.364162054444
20
9.29053720868197
30
0
41
1
10
113.364140068641
20
9.29014873384099
30
0
41
1
10
113.363995972139
20
9.28757900810101
30
0
41
1
10
113.363623953752
20
9.2805775545265
30
0
41
1
10
113.363028893317
20
9.26920273810606
30
0
41
1
10
113.362068328813
20
9.25069237218128
30
0
41
1
10
113.360875197598
20
9.227832298409
30
0
41
1
10
113.359822707104
20
9.20799806212611
30
0
41
1
10
113.359283426298
20
9.19723769497691
30
0
41
1
10
113.359203900264
20
9.19561253763715
30
0
0
SPLINE
5
1E9
100
AcDbEntity
8
1
62
256
6
ByLayer
370
-1
48
1
60
0
100
AcDbSpline
70
4
71
3
72
8
73
4
40
0
40
0
40
0
40
0
40
1
40
1
40
1
40
1
41
1
10
113.567250417167
20
3.12948236975302
30
0
41
1
10
113.56678746766
20
3.1415315180476
30
0
41
1
10
113.566346381193
20
3.15358151278838
30
0
41
1
10
113.565927160692
20
3.1656322740223
30
0
0
SPLINE
5
1EA
100
AcDbEntity
8
1
62
256
6
ByLayer
370
-1
48
1
60
0
100
AcDbSpline
70
4
71
3
72
12
73
8
40
0
40
0
40
0
40
0
40
0.296401916752159
40
0.592803833504318
40
0.889205750256476
40
0.963306229444516
40
1
40
1
40
1
40
1
41
1
10
117.203346172229
20
2.62629186976221
30
0
41
1
10
117.49488201885
20
2.63651141431305
30
0
41
1
10
118.077953712094
20
2.65695050341475
30
0
41
1
10
118.952561770696
20
2.68760524042318
30
0
41
1
10
119.608515610014
20
2.71061285391684
30
0
41
1
10
120.009029049772
20
2.72463540418826
30
0
41
1
10
120.118002370248
20
2.72847050520863
30
0
41
1
10
120.154094850443
20
2.72972727300899
30
0
0
SPLINE
5
1EB
100
AcDbEntity
8
1
62
256
6
ByLayer
370
-1
48
1
60
0
100
AcDbSpline
70
4
71
3
72
8
73
4
40
0
40
0
40
0
40
0
40
1
40
1
40
1
40
1
41
1
10
120.190107172135
20
2.73105619981922
30
0
41
1
10
120.178103874488
20
2.73059148192061
30
0
41
1
10
120.166099733615
20
2.73014871057478
30
0
41
1
10
120.154094829166
20
2.72972788871954
30
0
0
SPLINE
5
1EC
100
AcDbEntity
8
1
62
256
6
ByLayer
370
-1
48
1
60
0
100
AcDbSpline
70
4
71
3
72
36
73
32
40
0
40
0
40
0
40
0
40
0.0625
40
0.125
40
0.140625
40
0.15625
40
0.1875
40
0.25
40
0.3125
40
0.34375
40
0.375
40
0.4375
40
0.453125
40
0.46875
40
0.5
40
0.5625
40
0.625
40
0.6875
40
0.75
40
0.78125
40
0.796875
40
0.8125
40
0.875
40
0.9375
40
0.953125
40
0.9609375
40
0.96484375
40
0.96875
40
0.9765625
40
0.984375
40
1
40
1
40
1
40
1
41
1
10
116.950921455143
20
9.88240169165582
30
0
41
1
10
116.951918158113
20
9.86253326236715
30
0
41
1
10
116.953911564053
20
9.82279640378985
30
0
41
1
10
116.956151867859
20
9.77808028769479
30
0
41
1
10
116.957651478068
20
9.74830194415296
30
0
41
1
10
116.958639074801
20
9.72844345307868
30
0
41
1
10
116.960271725918
20
9.69348811521729
30
0
41
1
10
116.962339599737
20
9.64304199063548
30
0
41
1
10
116.964037795196
20
9.59250598400152
30
0
41
1
10
116.965133368888
20
9.55238419912197
30
0
41
1
10
116.966225439375
20
9.51216925414337
30
0
41
1
10
116.967181670584
20
9.47699629035043
30
0
41
1
10
116.967998346096
20
9.4468620945203
30
0
41
1
10
116.968549947767
20
9.42679270419603
30
0
41
1
10
116.969399071022
20
9.39209579572872
30
0
41
1
10
116.970274277878
20
9.34247580207253
30
0
41
1
10
116.970759010439
20
9.28416236362665
30
0
41
1
10
116.970658097939
20
9.2279561758159
30
0
41
1
10
116.970096553932
20
9.1835322082394
30
0
41
1
10
116.969464347281
20
9.15410319486472
30
0
41
1
10
116.969029461676
20
9.13769940745894
30
0
41
1
10
116.96837888391
20
9.11287630441444
30
0
41
1
10
116.967401009993
20
9.07571287678471
30
0
41
1
10
116.966424953368
20
9.03853131047063
30
0
41
1
10
116.9658267902
20
9.01579583409762
30
0
41
1
10
116.965638002995
20
9.0085787957137
30
0
41
1
10
116.965527556428
20
9.00442641541542
30
0
41
1
10
116.965416242703
20
9.00034531492381
30
0
41
1
10
116.965324004274
20
8.99495052211338
30
0
41
1
10
116.965322991972
20
8.98548671229315
30
0
41
1
10
116.965489145853
20
8.97785948581992
30
0
41
1
10
116.965661891257
20
8.97289380875372
30
0
0
SPLINE
5
1ED
100
AcDbEntity
8
1
62
256
6
ByLayer
370
-1
48
1
60
0
100
AcDbSpline
70
4
71
3
72
15
73
11
40
0
40
0
40
0
40
0
40
0.051213515573807
40
0.195204619948464
40
0.339195724323122
40
0.627177933072437
40
0.771169037447094
40
0.915160141821752
40
0.98715569400908
40
1
40
1
40
1
40
1
41
1
10
113.572652175569
20
3.0599054453024
30
0
41
1
10
113.572844441737
20
3.05828981541055
30
0
41
1
10
113.573584361823
20
3.05213412045009
30
0
41
1
10
113.574885926423
20
3.04145813451478
30
0
41
1
10
113.577114145019
20
3.02333703114192
30
0
41
1
10
113.57933718091
20
3.0051603581536
30
0
41
1
10
113.581581709908
20
2.98676234409297
30
0
41
1
10
113.582965768507
20
2.97545690403007
30
0
41
1
10
113.583823418892
20
2.96849855545889
30
0
41
1
10
113.584145737269
20
2.96594517949725
30
0
41
1
10
113.584194665033
20
2.9655591904679
30
0
0
SPLINE
5
1EE
100
AcDbEntity
8
1
62
256
6
ByLayer
370
-1
48
1
60
0
100
AcDbSpline
70
4
71
3
72
12
73
8
40
0
40
0
40
0
40
0
40
0.0366937705554854
40
0.110794249743525
40
0.407196166495683
40
0.703598083247842
40
1
40
1
40
1
40
1
41
1
10
114.252597536853
20
2.52285523510435
30
0
41
1
10
114.288689431667
20
2.52412883001861
30
0
41
1
10
114.397663803729
20
2.52793370253653
30
0
41
1
10
114.798176054329
20
2.54199043590668
30
0
41
1
10
115.454130845806
20
2.56497067898161
30
0
41
1
10
116.328738632363
20
2.59563323610971
30
0
41
1
10
116.911810325607
20
2.61607232521138
30
0
41
1
10
117.203346172229
20
2.62629186976221
30
0
0
SPLINE
5
1EF
100
AcDbEntity
8
1
62
256
6
ByLayer
370
-1
48
1
60
0
100
AcDbSpline
70
4
71
3
72
14
73
10
40
0
40
0
40
0
40
0
40
0.0868146872094761
40
0.283438438146033
40
0.48006218908259
40
0.676685940019146
40
0.873309690955703
40
0.971621566423981
40
1
40
1
40
1
40
1
41
1
10
113.567205352736
20
3.1294807410155
30
0
41
1
10
113.567282503241
20
3.127462252275
30
0
41
1
10
113.567543920023
20
3.12087262033876
30
0
41
1
10
113.568071462888
20
3.10971541106071
30
0
41
1
10
113.568988057255
20
3.09601680100758
30
0
41
1
10
113.570166575458
20
3.08233814049231
30
0
41
1
10
113.571361562232
20
3.07096359689624
30
0
41
1
10
113.572227214931
20
3.06348837002713
30
0
41
1
10
113.57257415549
20
3.06056105504118
30
0
41
1
10
113.572652175569
20
3.0599054453024
30
0
0
SPLINE
5
1F0
100
AcDbEntity
8
1
62
256
6
ByLayer
370
-1
48
1
60
0
100
AcDbSpline
70
4
71
3
72
41
73
37
40
0
40
0
40
0
40
0
40
0.0080831369865603
40
0.0179214742470091
40
0.0277598115074579
40
0.067113160549253
40
0.106466509591048
40
0.185173207674638
40
0.224526556716434
40
0.244203231237331
40
0.258960737128004
40
0.263879905758229
40
0.273718243018677
40
0.283556580279126
40
0.293394917539575
40
0.303233254800024
40
0.322909929320921
40
0.342586603841819
40
0.421293301925409
40
0.500000000008999
40
0.57870669809259
40
0.65741339617618
40
0.677090070697077
40
0.696766745217975
40
0.706605082478424
40
0.716443419738873
40
0.726281756999321
40
0.73612009425977
40
0.741039262889995
40
0.755796768780668
40
0.775473443301565
40
0.81482679234336
40
0.893533490426951
40
0.972240188510541
40
0.991916863031438
40
1
40
1
40
1
40
1
41
1
10
120.353406574222
20
2.74806517195819
30
0
41
1
10
120.355177386171
20
2.74829135726864
30
0
41
1
10
120.359076427321
20
2.74879900071628
30
0
41
1
10
120.365043421088
20
2.74962958237847
30
0
41
1
10
120.377657219008
20
2.75153782591977
30
0
41
1
10
120.396652027116
20
2.75507806749445
30
0
41
1
10
120.43054801145
20
2.76329436549423
30
0
41
1
10
120.464510097652
20
2.77438599704061
30
0
41
1
10
120.493854222461
20
2.78675186263729
30
0
41
1
10
120.509412478273
20
2.79408047613745
30
0
41
1
10
120.517650232075
20
2.79820676123873
30
0
41
1
10
120.523799741558
20
2.80139433922608
30
0
41
1
10
120.528905683495
20
2.80410860429936
30
0
41
1
10
120.535000908926
20
2.8074581544667
30
0
41
1
10
120.541062163443
20
2.81089984865889
30
0
41
1
10
120.549095786894
20
2.81561124887531
30
0
41
1
10
120.559042558838
20
2.82172941893469
30
0
41
1
10
120.582576931643
20
2.83714096152716
30
0
41
1
10
120.616487480309
20
2.86297074632489
30
0
41
1
10
120.657797691479
20
2.90256917054202
30
0
41
1
10
120.694267684364
20
2.94669841246014
30
0
41
1
10
120.717571018107
20
2.98245736869112
30
0
41
1
10
120.731244841383
20
3.00709914630721
30
0
41
1
10
120.73663103138
20
3.01748637288298
30
0
41
1
10
120.740752672991
20
3.02585968988026
30
0
41
1
10
120.743750106865
20
3.03216935654538
30
0
41
1
10
120.746653601263
20
3.03850661317645
30
0
41
1
10
120.74899477858
20
3.04380891121463
30
0
41
1
10
120.751733523541
20
3.05018922790814
30
0
41
1
10
120.755259457051
20
3.05872614028343
30
0
41
1
10
120.7614571097
20
3.07481700044232
30
0
41
1
10
120.771698968771
20
3.10506406036208
30
0
41
1
10
120.782515760424
20
3.14854216412309
30
0
41
1
10
120.787971667682
20
3.18727230871852
30
0
41
1
10
120.78964419294
20
3.21026468116148
30
0
41
1
10
120.790004322796
20
3.21636732876192
30
0
41
1
10
120.790105572926
20
3.21815635272409
30
0
0
SPLINE
5
1F1
100
AcDbEntity
8
1
62
256
6
ByLayer
370
-1
48
1
60
0
100
AcDbSpline
70
4
71
3
72
77
73
73
40
0
40
0
40
0
40
0
40
0.125
40
0.25
40
0.375
40
0.40625
40
0.421875
40
0.423828125
40
0.42578125
40
0.427734375
40
0.4296875
40
0.43359375
40
0.435546875
40
0.4375
40
0.44140625
40
0.4453125
40
0.447265625
40
0.44921875
40
0.4501953125
40
0.451171875
40
0.453125
40
0.4609375
40
0.46875
40
0.47265625
40
0.474609375
40
0.47607421875
40
0.4765625
40
0.4775390625
40
0.478515625
40
0.4794921875
40
0.48046875
40
0.482421875
40
0.484375
40
0.4921875
40
0.5
40
0.5078125
40
0.515625
40
0.517578125
40
0.51953125
40
0.5205078125
40
0.521484375
40
0.5224609375
40
0.5234375
40
0.52392578125
40
0.525390625
40
0.52734375
40
0.53125
40
0.5390625
40
0.54296875
40
0.546875
40
0.5478515625
40
0.548828125
40
0.5498046875
40
0.55078125
40
0.552734375
40
0.5546875
40
0.55859375
40
0.560546875
40
0.5625
40
0.5634765625
40
0.564453125
40
0.56640625
40
0.568359375
40
0.5703125
40
0.572265625
40
0.57421875
40
0.578125
40
0.59375
40
0.625
40
0.75
40
0.875
40
1
40
1
40
1
40
1
41
1
10
116.965661891257
20
8.97289380875372
30
0
41
1
10
117.188674715333
20
8.98071133622918
30
0
41
1
10
117.634700363483
20
8.99634639118011
30
0
41
1
10
118.303738835709
20
9.01979897360647
30
0
41
1
10
118.805517689879
20
9.03738841042625
30
0
41
1
10
119.112160322982
20
9.048137510705
30
0
41
1
10
119.199274707387
20
9.05119123237512
30
0
41
1
10
119.234120461149
20
9.05241272104317
30
0
41
1
10
119.244574187277
20
9.05277916764356
30
0
41
1
10
119.255027913406
20
9.05314561424399
30
0
41
1
10
119.26896621491
20
9.05363420971119
30
0
41
1
10
119.282904516415
20
9.05412280517842
30
0
41
1
10
119.29684281792
20
9.05461140064563
30
0
41
1
10
119.310781119424
20
9.05509999611286
30
0
41
1
10
119.328203996305
20
9.05571074044687
30
0
41
1
10
119.345626682667
20
9.05632198424598
30
0
41
1
10
119.359564603132
20
9.05681157864336
30
0
41
1
10
119.368275684348
20
9.05711788730744
30
0
41
1
10
119.375244463587
20
9.05736315899796
30
0
41
1
10
119.382213180907
20
9.05760859301466
30
0
41
1
10
119.401376878474
20
9.05828425766327
30
0
41
1
10
119.432733941635
20
9.05939438591048
30
0
41
1
10
119.467583353374
20
9.06060628484877
30
0
41
1
10
119.491988183931
20
9.06142776286231
30
0
41
1
10
119.505056027462
20
9.06188402303849
30
0
41
1
10
119.512019462624
20
9.06214330472483
30
0
41
1
10
119.517238095238
20
9.06234810491694
30
0
41
1
10
119.521584212266
20
9.06252596404102
30
0
41
1
10
119.526660251572
20
9.06267874608122
30
0
41
1
10
119.531462078198
20
9.06269872262831
30
0
41
1
10
119.53775532384
20
9.06252889872653
30
0
41
1
10
119.545897950625
20
9.06191191021495
30
0
41
1
10
119.565931986308
20
9.05905706737539
30
0
41
1
10
119.596358188541
20
9.0493257786398
30
0
41
1
10
119.63316642379
20
9.0240180179556
30
0
41
1
10
119.660884079658
20
8.988924566881
30
0
41
1
10
119.672677147753
20
8.95913536169806
30
0
41
1
10
119.676911702947
20
8.93927293134243
30
0
41
1
10
119.678092847329
20
8.93116215078518
30
0
41
1
10
119.678700607515
20
8.92487210087188
30
0
41
1
10
119.679015713955
20
8.92006228024417
30
0
41
1
10
119.679217970652
20
8.91496860596476
30
0
41
1
10
119.679344389741
20
8.91060410801347
30
0
41
1
10
119.679504899269
20
8.9053640158175
30
0
41
1
10
119.679732978104
20
8.89837292226093
30
0
41
1
10
119.680191128017
20
8.8852552887945
30
0
41
1
10
119.681077164362
20
8.86075960836672
30
0
41
1
10
119.682058464897
20
8.83277412601416
30
0
41
1
10
119.683026555501
20
8.80479268564326
30
0
41
1
10
119.68356954696
20
8.789053602613
30
0
41
1
10
119.68393230573
20
8.77856064668185
30
0
41
1
10
119.684113828451
20
8.77331412485799
30
0
41
1
10
119.684295484954
20
8.76806756209967
30
0
41
1
10
119.684537859258
20
8.76107209440792
30
0
41
1
10
119.684841113813
20
8.75232767207658
30
0
41
1
10
119.685326830742
20
8.73833644040579
30
0
41
1
10
119.685813159242
20
8.72434502160621
30
0
41
1
10
119.686299793527
20
8.71035350924225
30
0
41
1
10
119.686604003661
20
8.7016087945222
30
0
41
1
10
119.686847371768
20
8.69461302274618
30
0
41
1
10
119.687090739875
20
8.68761725097013
30
0
41
1
10
119.687394950009
20
8.67887253625008
30
0
41
1
10
119.687760002169
20
8.668378878586
30
0
41
1
10
119.68812505433
20
8.65788522092194
30
0
41
1
10
119.68849010649
20
8.64739156325788
30
0
41
1
10
119.688976842704
20
8.63340001970579
30
0
41
1
10
119.690315367292
20
8.59492327493757
30
0
41
1
10
119.693479152683
20
8.50397824184901
30
0
41
1
10
119.70418734939
20
8.19616428370313
30
0
41
1
10
119.721709853092
20
7.69246871582806
30
0
41
1
10
119.745073191362
20
7.02087462532796
30
0
41
1
10
119.760648750209
20
6.57314523166121
30
0
41
1
10
119.768436529632
20
6.34928053482784
30
0
0
SPLINE
5
1F2
100
AcDbEntity
8
1
62
256
6
ByLayer
370
-1
48
1
60
0
100
AcDbSpline
70
4
71
3
72
41
73
37
40
0
40
0
40
0
40
0
40
0.0080831369865725
40
0.0179214742470211
40
0.0277598115074698
40
0.0671131605492643
40
0.106466509591059
40
0.185173207674648
40
0.224526556716443
40
0.24420323123734
40
0.258960737128013
40
0.263879905758237
40
0.273718243018686
40
0.283556580279134
40
0.293394917539583
40
0.303233254800032
40
0.322909929320929
40
0.342586603841826
40
0.421293301925415
40
0.500000000009004
40
0.578706698092594
40
0.657413396176183
40
0.67709007069708
40
0.696766745217977
40
0.706605082478426
40
0.716443419738874
40
0.726281756999323
40
0.736120094259772
40
0.741039262889996
40
0.755796768780669
40
0.775473443301566
40
0.814826792343361
40
0.89353349042695
40
0.972240188510539
40
0.991916863031436
40
1
40
1
40
1
40
1
41
1
10
120.57007296234
20
9.54313437093822
30
0
41
1
10
120.569847637733
20
9.54491194710096
30
0
41
1
10
120.569341926022
20
9.54882588195477
30
0
41
1
10
120.568514504973
20
9.55481566866857
30
0
41
1
10
120.566613522875
20
9.56747764924842
30
0
41
1
10
120.563086752988
20
9.58654501443667
30
0
41
1
10
120.554901720483
20
9.62057047592418
30
0
41
1
10
120.543852295943
20
9.65466229177821
30
0
41
1
10
120.531533486198
20
9.68411850637747
30
0
41
1
10
120.524232760285
20
9.69973619219886
30
0
41
1
10
120.520122176944
20
9.70800541288182
30
0
41
1
10
120.516946728654
20
9.71417841249192
30
0
41
1
10
120.514242792178
20
9.71930385829819
30
0
41
1
10
120.510905988061
20
9.7254223664994
30
0
41
1
10
120.507477390554
20
9.73150677402489
30
0
41
1
10
120.502783918638
20
9.73957108461198
30
0
41
1
10
120.496689030063
20
9.74955585160922
30
0
41
1
10
120.481336133043
20
9.77318012189414
30
0
41
1
10
120.455604638374
20
9.80722020334761
30
0
41
1
10
120.416156898116
20
9.84868821281341
30
0
41
1
10
120.372195581287
20
9.88529751514585
30
0
41
1
10
120.33657269868
20
9.90868986383785
30
0
41
1
10
120.312024690467
20
9.92241591889729
30
0
41
1
10
120.301676990425
20
9.92782268326502
30
0
41
1
10
120.293335536427
20
9.9319600688776
30
0
41
1
10
120.287049879948
20
9.9349689524619
30
0
41
1
10
120.280736738492
20
9.9378835377367
30
0
41
1
10
120.275454617299
20
9.94023365797085
30
0
41
1
10
120.269098579636
20
9.94298286449322
30
0
41
1
10
120.26059415279
20
9.94652226649592
30
0
41
1
10
120.244564523212
20
9.95274359317099
30
0
41
1
10
120.214432562487
20
9.96302457448027
30
0
41
1
10
120.171119906037
20
9.97388268452013
30
0
41
1
10
120.132537141335
20
9.97935943245804
30
0
41
1
10
120.109632261811
20
9.98103834649072
30
0
41
1
10
120.103552836627
20
9.98139985198392
30
0
41
1
10
120.101770620441
20
9.98150148887319
30
0
0
SPLINE
5
1F3
100
AcDbEntity
8
1
62
256
6
ByLayer
370
-1
48
1
60
0
100
AcDbSpline
70
4
71
3
72
36
73
32
40
0
40
0
40
0
40
0
40
0.015625
40
0.0234375
40
0.03125
40
0.03515625
40
0.0390625
40
0.046875
40
0.0625
40
0.125
40
0.1875
40
0.203125
40
0.21875
40
0.25
40
0.3125
40
0.375
40
0.4375
40
0.5
40
0.53125
40
0.546875
40
0.5625
40
0.625
40
0.65625
40
0.6875
40
0.75
40
0.8125
40
0.84375
40
0.859375
40
0.875
40
0.9375
40
1
40
1
40
1
40
1
41
1
10
114.352032257929
20
6.15941302659019
30
0
41
1
10
114.347085476763
20
6.15923962132598
30
0
41
1
10
114.33958645539
20
6.15897327270847
30
0
41
1
10
114.330488896457
20
6.15864278918721
30
0
41
1
10
114.325394544325
20
6.15845439887102
30
0
41
1
10
114.321582260234
20
6.15831188370149
30
0
41
1
10
114.317700580094
20
6.15816687938624
30
0
41
1
10
114.310950857429
20
6.15791485485241
30
0
41
1
10
114.289690978722
20
6.15712091452272
30
0
41
1
10
114.254920424188
20
6.15582250561613
30
0
41
1
10
114.220169125599
20
6.15452473012633
30
0
41
1
10
114.196954602987
20
6.15365788826685
30
0
41
1
10
114.181618775626
20
6.15308505538806
30
0
41
1
10
114.153957728328
20
6.15205737159565
30
0
41
1
10
114.111809767262
20
6.15050605246398
30
0
41
1
10
114.057873667886
20
6.14854328913543
30
0
41
1
10
114.001325998333
20
6.14650693899321
30
0
41
1
10
113.952745791531
20
6.14477417063256
30
0
41
1
10
113.918538824097
20
6.14356252788988
30
0
41
1
10
113.898692373843
20
6.14286168933654
30
0
41
1
10
113.868904477164
20
6.14180938003014
30
0
41
1
10
113.834132718943
20
6.14058111306918
30
0
41
1
10
113.794377726383
20
6.13917677624545
30
0
41
1
10
113.754708795371
20
6.13777569264408
30
0
41
1
10
113.704424938849
20
6.13601093640537
30
0
41
1
10
113.653857817184
20
6.13424931891711
30
0
41
1
10
113.618618866108
20
6.13302865162115
30
0
41
1
10
113.598539180767
20
6.13233517783189
30
0
41
1
10
113.568410468207
20
6.13129529516121
30
0
41
1
10
113.523179785751
20
6.1297337739785
30
0
41
1
10
113.48298309326
20
6.12834613229978
30
0
41
1
10
113.462884747015
20
6.12765231146045
30
0
0
SPLINE
5
1F4
100
AcDbEntity
8
1
62
256
6
ByLayer
370
-1
48
1
60
0
100
AcDbSpline
70
4
71
3
72
41
73
37
40
0
40
0
40
0
40
0
40
0.0080831369865569
40
0.0179214742470057
40
0.0277598115074545
40
0.0671131605492497
40
0.106466509591045
40
0.185173207674635
40
0.22452655671643
40
0.244203231237328
40
0.258960737128001
40
0.263879905758226
40
0.273718243018674
40
0.283556580279123
40
0.293394917539572
40
0.303233254800021
40
0.322909929320919
40
0.342586603841816
40
0.421293301925406
40
0.500000000008997
40
0.578706698092588
40
0.657413396176178
40
0.677090070697076
40
0.696766745217973
40
0.706605082478422
40
0.716443419738871
40
0.72628175699932
40
0.736120094259769
40
0.741039262889993
40
0.755796768780666
40
0.775473443301564
40
0.814826792343359
40
0.893533490426949
40
0.97224018851054
40
0.991916863031437
40
1
40
1
40
1
40
1
41
1
10
113.800861053149
20
9.76062838945984
30
0
41
1
10
113.799090241201
20
9.76040220414939
30
0
41
1
10
113.79519120005
20
9.75989456070178
30
0
41
1
10
113.789224206283
20
9.75906397903955
30
0
41
1
10
113.776610408362
20
9.75715573549826
30
0
41
1
10
113.757615600255
20
9.75361549392358
30
0
41
1
10
113.723719615921
20
9.7453991959238
30
0
41
1
10
113.689757529719
20
9.73430756437742
30
0
41
1
10
113.66041340491
20
9.72194169878074
30
0
41
1
10
113.644855149098
20
9.71461308528058
30
0
41
1
10
113.636617395296
20
9.7104868001793
30
0
41
1
10
113.630467885813
20
9.70729922219195
30
0
41
1
10
113.625361943876
20
9.7045849571187
30
0
41
1
10
113.619266718445
20
9.70123540695133
30
0
41
1
10
113.613205463928
20
9.69779371275916
30
0
41
1
10
113.605171840477
20
9.69308231254271
30
0
41
1
10
113.595225068533
20
9.68696414248333
30
0
41
1
10
113.571690695728
20
9.67155259989087
30
0
41
1
10
113.537780147062
20
9.64572281509314
30
0
41
1
10
113.496469935892
20
9.606124390876
30
0
41
1
10
113.459999943007
20
9.56199514895789
30
0
41
1
10
113.436696609264
20
9.52623619272691
30
0
41
1
10
113.423022785988
20
9.50159441511084
30
0
41
1
10
113.417636595991
20
9.49120718853507
30
0
41
1
10
113.41351495438
20
9.48283387153776
30
0
41
1
10
113.410517520506
20
9.47652420487265
30
0
41
1
10
113.407614026108
20
9.4701869482416
30
0
41
1
10
113.405272848791
20
9.4648846502034
30
0
41
1
10
113.40253410383
20
9.45850433350989
30
0
41
1
10
113.39900817032
20
9.4499674211346
30
0
41
1
10
113.392810517672
20
9.43387656097573
30
0
41
1
10
113.3825686586
20
9.40362950105595
30
0
41
1
10
113.371751866947
20
9.36015139729494
30
0
41
1
10
113.366295959688
20
9.32142125269954
30
0
41
1
10
113.36462343443
20
9.29842888025655
30
0
41
1
10
113.364263304575
20
9.29232623265611
30
0
41
1
10
113.364162054445
20
9.29053720869393
30
0
0
SPLINE
5
1F5
100
AcDbEntity
8
1
62
256
6
ByLayer
370
-1
48
1
60
0
100
AcDbSpline
70
4
71
3
72
12
73
8
40
0
40
0
40
0
40
0
40
0.29640191675216
40
0.59280383350432
40
0.88920575025648
40
0.96330622944452
40
1
40
1
40
1
40
1
41
1
10
120.691382880356
20
6.3810412499576
30
0
41
1
10
120.681202224258
20
6.6736907161515
30
0
41
1
10
120.660840912061
20
7.25898964853931
30
0
41
1
10
120.630302825582
20
8.13693856784002
30
0
41
1
10
120.607382763004
20
8.79539804425977
30
0
41
1
10
120.59341357277
20
9.19744138029171
30
0
41
1
10
120.589593065466
20
9.30683096114865
30
0
41
1
10
120.588341080047
20
9.34306130875368
30
0
0
SPLINE
5
1F6
100
AcDbEntity
8
1
62
256
6
ByLayer
370
-1
48
1
60
0
100
AcDbSpline
70
4
71
3
72
14
73
10
40
0
40
0
40
0
40
0
40
0.0868146872095616
40
0.28343843814616
40
0.480062189082759
40
0.676685940019357
40
0.873309690955955
40
0.971621566424255
40
1
40
1
40
1
40
1
41
1
10
120.190108794675
20
2.73101096324993
30
0
41
1
10
120.192119602457
20
2.73108840845694
30
0
41
1
10
120.198684158854
20
2.73135082380858
30
0
41
1
10
120.209798911582
20
2.73188038180177
30
0
41
1
10
120.223445394288
20
2.73280047741091
30
0
41
1
10
120.237072003371
20
2.7339834973618
30
0
41
1
10
120.248403263394
20
2.73518304879107
30
0
41
1
10
120.255850044768
20
2.73605200814231
30
0
41
1
10
120.258766220437
20
2.73640027395785
30
0
41
1
10
120.259419335383
20
2.73647859206125
30
0
0
SPLINE
5
1F7
100
AcDbEntity
8
1
62
256
6
ByLayer
370
-1
48
1
60
0
100
AcDbSpline
70
4
71
3
72
12
73
8
40
0
40
0
40
0
40
0
40
0.126690309034501
40
0.323314059973634
40
0.716561561851901
40
0.913185312791035
40
1
40
1
40
1
40
1
41
1
10
120.795063727107
20
3.31308102378091
30
0
41
1
10
120.795207795202
20
3.31602513292236
30
0
41
1
10
120.79555956657
20
3.32354271080337
30
0
41
1
10
120.796145060183
20
3.34020532796282
30
0
41
1
10
120.796273948886
20
3.3585166447287
30
0
41
1
10
120.795922867453
20
3.3742573808737
30
0
41
1
10
120.79572572713
20
3.3808492659673
30
0
41
1
10
120.79566242284
20
3.3828682400752
30
0
0
SPLINE
5
1F8
100
AcDbEntity
8
1
62
256
6
ByLayer
370
-1
48
1
60
0
100
AcDbSpline
70
4
71
3
72
14
73
10
40
0
40
0
40
0
40
0
40
0.0128443058602971
40
0.0848398580565092
40
0.228830962448933
40
0.372822066841358
40
0.660804275626206
40
0.948786484411055
40
1
40
1
40
1
40
1
41
1
10
114.052497006942
20
2.52719207254415
30
0
41
1
10
114.052884003519
20
2.52717000275905
30
0
41
1
10
114.055443950677
20
2.52702535583208
30
0
41
1
10
114.062418761606
20
2.52665191639485
30
0
41
1
10
114.073750293416
20
2.52605458292575
30
0
41
1
10
114.09219022181
20
2.52509034922124
30
0
41
1
10
114.1149633061
20
2.52389266043934
30
0
41
1
10
114.134722067126
20
2.52283614960208
30
0
41
1
10
114.14544148783
20
2.52229480883088
30
0
41
1
10
114.147060460955
20
2.52221497902087
30
0
0
SPLINE
5
1F9
100
AcDbEntity
8
1
62
256
6
ByLayer
370
-1
48
1
60
0
100
AcDbSpline
70
4
71
3
72
16
73
12
40
0
40
0
40
0
40
0
40
0.25
40
0.25
40
0.5
40
0.5
40
0.75
40
0.75
40
0.875
40
0.875
40
1
40
1
40
1
40
1
41
1
10
120.227261156903
20
0.394943792489187
30
0
41
1
10
120.232311965194
20
0.368096930093912
30
0
41
1
10
120.237875951129
20
0.340057364257319
30
0
41
1
10
120.250588482663
20
0.280496932293602
30
0
41
1
10
120.257716189023
20
0.249002785928212
30
0
41
1
10
120.274863957907
20
0.179588467456881
30
0
41
1
10
120.284857033359
20
0.141697736610865
30
0
41
1
10
120.303823871835
20
0.0770781856876113
30
0
41
1
10
120.310847506384
20
0.0541582429061691
30
0
41
1
10
120.326382212437
20
0.0060692883863567
30
0
41
1
10
120.335079916149
20
-0.0196433142875492
30
0
41
1
10
120.34442403217
20
-0.0458731267585222
30
0
0
SPLINE
5
1FA
100
AcDbEntity
8
1
62
256
6
ByLayer
370
-1
48
1
60
0
100
AcDbSpline
70
4
71
3
72
10
73
6
40
0
40
0
40
0
40
0
40
0.500000000000001
40
0.500000000000001
40
1
40
1
40
1
40
1
41
1
10
120.367836762062
20
-0.187591476394488
30
0
41
1
10
120.36827279973
20
-0.165803979741298
30
0
41
1
10
120.366910887347
20
-0.143116941242397
30
0
41
1
10
120.35941198477
20
-0.0954004214075894
30
0
41
1
10
120.353236399843
20
-0.0706102716085866
30
0
41
1
10
120.34442403217
20
-0.0458731267585222
30
0
0
SPLINE
5
1FB
100
AcDbEntity
8
1
62
256
6
ByLayer
370
-1
48
1
60
0
100
AcDbSpline
70
4
71
3
72
20
73
16
40
0
40
0
40
0
40
0
40
0.175721169093823
40
0.175721169093823
40
0.351442338187646
40
0.351442338187646
40
0.527163507281469
40
0.527163507281469
40
0.615024091828381
40
0.615024091828381
40
0.702884676375292
40
0.702884676375292
40
0.878605845469114
40
0.878605845469114
40
1
40
1
40
1
40
1
41
1
10
120.143602586364
20
0.839619179474454
30
0
41
1
10
120.140805319504
20
0.854487658764526
30
0
41
1
10
120.137054405976
20
0.869961190549446
30
0
41
1
10
120.126527121487
20
0.902827791648576
30
0
41
1
10
120.119744968728
20
0.920337875872889
30
0
41
1
10
120.100770525363
20
0.958173190084295
30
0
41
1
10
120.088479497443
20
0.978746893526846
30
0
41
1
10
120.062847341155
20
1.01127364221796
30
0
41
1
10
120.052820717516
20
1.02263907666512
30
0
41
1
10
120.030975794908
20
1.0442964284787
30
0
41
1
10
120.018987314814
20
1.05474671561205
30
0
41
1
10
119.983002124037
20
1.08251962959633
30
0
41
1
10
119.959242481418
20
1.09636507385073
30
0
41
1
10
119.922919940932
20
1.11418363188605
30
0
41
1
10
119.908865412847
20
1.12007019077876
30
0
41
1
10
119.895414077719
20
1.12501830151552
30
0
0
SPLINE
5
1FC
100
AcDbEntity
8
1
62
256
6
ByLayer
370
-1
48
1
60
0
100
AcDbSpline
70
4
71
3
72
22
73
18
40
0
40
0
40
0
40
0
40
0.124999999999982
40
0.124999999999982
40
0.249999999999965
40
0.249999999999965
40
0.374999999999947
40
0.374999999999947
40
0.437499999999939
40
0.437499999999939
40
0.499999999999932
40
0.499999999999932
40
0.624999999999948
40
0.624999999999948
40
0.749999999999964
40
0.749999999999964
40
1
40
1
40
1
40
1
41
1
10
120.542785247089
20
-5.22429782955336
30
0
41
1
10
120.559729471808
20
-5.22353269777204
30
0
41
1
10
120.577232225216
20
-5.22176861353418
30
0
41
1
10
120.614009672134
20
-5.2150712543739
30
0
41
1
10
120.633420248623
20
-5.21015066466379
30
0
41
1
10
120.674688305204
20
-5.19454023989823
30
0
41
1
10
120.696820837918
20
-5.18377770317562
30
0
41
1
10
120.730844974075
20
-5.15961706468039
30
0
41
1
10
120.742566681113
20
-5.14994148825511
30
0
41
1
10
120.764475741872
20
-5.12834807687628
30
0
41
1
10
120.774821677608
20
-5.11626030880208
30
0
41
1
10
120.801673955273
20
-5.07938263542826
30
0
41
1
10
120.814152615145
20
-5.05429098393205
30
0
41
1
10
120.832088727004
20
-5.00826354538125
30
0
41
1
10
120.837900080867
20
-4.98666488709651
30
0
41
1
10
120.850446593482
20
-4.92488223273568
30
0
41
1
10
120.852366663573
20
-4.88811573949491
30
0
41
1
10
120.851780922266
20
-4.85306868884845
30
0
0
SPLINE
5
1FD
100
AcDbEntity
8
1
62
256
6
ByLayer
370
-1
48
1
60
0
100
AcDbSpline
70
4
71
3
72
8
73
4
40
0
40
0
40
0
40
0
40
1
40
1
40
1
40
1
41
1
10
120.766913364991
20
-3.12208601845947
30
0
41
1
10
120.766212639908
20
-3.13496847327141
30
0
41
1
10
120.765632065311
20
-3.14795452176986
30
0
41
1
10
120.765173495486
20
-3.16104576271749
30
0
0
SPLINE
5
1FE
100
AcDbEntity
8
1
62
256
6
ByLayer
370
-1
48
1
60
0
100
AcDbSpline
70
4
71
3
72
8
73
4
40
0
40
0
40
0
40
0
40
1
40
1
40
1
40
1
41
1
10
120.851780922266
20
-4.85306868884848
30
0
41
1
10
120.851050972247
20
-4.80939310202817
30
0
41
1
10
120.846268315859
20
-4.76815811928284
30
0
41
1
10
120.839023530545
20
-4.72854766101878
30
0
0
SPLINE
5
1FF
100
AcDbEntity
8
1
62
256
6
ByLayer
370
-1
48
1
60
0
100
AcDbSpline
70
4
71
3
72
8
73
4
40
0
40
0
40
0
40
0
40
1
40
1
40
1
40
1
41
1
10
120.672761053374
20
-2.7265180752531
30
0
41
1
10
120.676906875792
20
-2.73501429357742
30
0
41
1
10
120.681256407679
20
-2.74363594487937
30
0
41
1
10
120.685662982492
20
-2.75209465269305
30
0
0
SPLINE
5
200
100
AcDbEntity
8
1
62
256
6
ByLayer
370
-1
48
1
60
0
100
AcDbSpline
70
4
71
3
72
20
73
16
40
0
40
0
40
0
40
0
40
0.0625000000000008
40
0.0625000000000008
40
0.125000000000002
40
0.125000000000002
40
0.250000000000002
40
0.250000000000002
40
0.375000000000003
40
0.375000000000003
40
0.500000000000003
40
0.500000000000003
40
0.750000000000002
40
0.750000000000002
40
1
40
1
40
1
40
1
41
1
10
120.742147481438
20
-3.81839188840252
30
0
41
1
10
120.741144594953
20
-3.84702226898898
30
0
41
1
10
120.740747609478
20
-3.8761657712885
30
0
41
1
10
120.741023330193
20
-3.93220941065644
30
0
41
1
10
120.741665692189
20
-3.95890157446434
30
0
41
1
10
120.744624352646
20
-4.03625926589274
30
0
41
1
10
120.747818941362
20
-4.08195139774958
30
0
41
1
10
120.755173048951
20
-4.16767310101579
30
0
41
1
10
120.759367899553
20
-4.20746690966567
30
0
41
1
10
120.768149192879
20
-4.28265866539439
30
0
41
1
10
120.77277174558
20
-4.31827522666714
30
0
41
1
10
120.78705343849
20
-4.42159112598424
30
0
41
1
10
120.797116832478
20
-4.48584016054613
30
0
41
1
10
120.8177395858
20
-4.61010516853855
30
0
41
1
10
120.828318068794
20
-4.6700161480087
30
0
41
1
10
120.839023530545
20
-4.72854766101881
30
0
0
SPLINE
5
201
100
AcDbEntity
8
1
62
256
6
ByLayer
370
-1
48
1
60
0
100
AcDbSpline
70
4
71
3
72
8
73
4
40
0
40
0
40
0
40
0
40
1
40
1
40
1
40
1
41
1
10
120.367836762062
20
-0.187591476392754
30
0
41
1
10
120.366941946905
20
-0.23230271052492
30
0
41
1
10
120.367458135188
20
-0.283605373201453
30
0
41
1
10
120.370339412899
20
-0.338413948052704
30
0
0
SPLINE
5
202
100
AcDbEntity
8
1
62
256
6
ByLayer
370
-1
48
1
60
0
100
AcDbSpline
70
4
71
3
72
10
73
6
40
0
40
0
40
0
40
0
40
0.5
40
0.5
40
1
40
1
40
1
40
1
41
1
10
120.766913364991
20
-3.12208601845944
30
0
41
1
10
120.77033347702
20
-3.05920909327239
30
0
41
1
10
120.76528416422
20
-2.99598818839587
30
0
41
1
10
120.737492780892
20
-2.86946905699227
30
0
41
1
10
120.715465479376
20
-2.80930248961278
30
0
41
1
10
120.685662982492
20
-2.75209465269302
30
0
0
SPLINE
5
203
100
AcDbEntity
8
SK1
62
256
6
ByLayer
370
-1
48
1
60
0
100
AcDbSpline
70
4
71
3
72
8
73
4
40
0
40
0
40
0
40
0
40
1
40
1
40
1
40
1
41
1
10
-54.6
20
6.99849805315404
30
0
41
1
10
-54.5718676648179
20
6.93646419260517
30
0
41
1
10
-54.5439393896427
20
6.87431425928909
30
0
41
1
10
-54.516222729729
20
6.81204395564973
30
0
0
SPLINE
5
204
100
AcDbEntity
8
SK1
62
256
6
ByLayer
370
-1
48
1
60
0
100
AcDbSpline
70
4
71
3
72
8
73
4
40
0
40
0
40
0
40
0
40
1
40
1
40
1
40
1
41
1
10
-55
20
-6.99849805315392
30
0
41
1
10
-55.3648529633576
20
-6.34700451336727
30
0
41
1
10
-55.7026345426883
20
-5.68249326840734
30
0
41
1
10
-56
20
-4.99854728896301
30
0
0
SPLINE
5
205
100
AcDbEntity
8
SK1
62
256
6
ByLayer
370
-1
48
1
60
0
100
AcDbSpline
70
4
71
3
72
8
73
4
40
0
40
0
40
0
40
0
40
1
40
1
40
1
40
1
41
1
10
-56.0000000000001
20
4.99854728896315
30
0
41
1
10
-55.7019755215914
20
5.68400902895925
30
0
41
1
10
-55.3641473109835
20
6.34826454962635
30
0
41
1
10
-55
20
6.99849805315404
30
0
0
SPLINE
5
206
100
AcDbEntity
8
SK1
62
256
6
ByLayer
370
-1
48
1
60
0
100
AcDbSpline
70
4
71
3
72
8
73
4
40
0
40
0
40
0
40
0
40
1
40
1
40
1
40
1
41
1
10
-54.516222729729
20
-6.81204395564961
30
0
41
1
10
-54.5439393896427
20
-6.87431425928901
30
0
41
1
10
-54.5718676648179
20
-6.93646419260506
30
0
41
1
10
-54.6
20
-6.99849805315392
30
0
0
SPLINE
5
207
100
AcDbEntity
8
SK1
62
256
6
ByLayer
370
-1
48
1
60
0
100
AcDbSpline
70
4
71
3
72
8
73
4
40
0
40
0
40
0
40
0
40
1
40
1
40
1
40
1
41
1
10
-52.6000000000004
20
-6.99849805315466
30
0
41
1
10
-52.9473802440142
20
-6.78469639798683
30
0
41
1
10
-53.292222119692
20
-6.56578790669792
30
0
41
1
10
-53.6338144512151
20
-6.34034179467449
30
0
0
SPLINE
5
208
100
AcDbEntity
8
SK1
62
256
6
ByLayer
370
-1
48
1
60
0
100
AcDbSpline
70
4
71
3
72
8
73
4
40
0
40
0
40
0
40
0
40
1
40
1
40
1
40
1
41
1
10
-53.6338144512151
20
6.34034179467457
30
0
41
1
10
-53.2922221196919
20
6.56578790669803
30
0
41
1
10
-52.9473802440142
20
6.78469639798695
30
0
41
1
10
-52.6000000000004
20
6.99849805315478
30
0
0
SPLINE
5
209
100
AcDbEntity
8
SK1
62
256
6
ByLayer
370
-1
48
1
60
0
100
AcDbSpline
70
4
71
3
72
68
73
64
40
0
40
0
40
0
40
0
40
0.015625
40
0.015625
40
0.0312499999999999
40
0.0312499999999999
40
0.0468749999999999
40
0.0468749999999999
40
0.0624999999999998
40
0.0624999999999998
40
0.0781249999999998
40
0.0781249999999998
40
0.0937499999999997
40
0.0937499999999997
40
0.125
40
0.125
40
0.15625
40
0.15625
40
0.1875
40
0.1875
40
0.25
40
0.25
40
0.28125
40
0.28125
40
0.3125
40
0.3125
40
0.375
40
0.375
40
0.4375
40
0.4375
40
0.46875
40
0.46875
40
0.5
40
0.5
40
0.5625
40
0.5625
40
0.625
40
0.625
40
0.6875
40
0.6875
40
0.75
40
0.75
40
0.8125
40
0.8125
40
0.84375
40
0.84375
40
0.859375
40
0.859375
40
0.875
40
0.875
40
0.90625
40
0.90625
40
0.921875
40
0.921875
40
0.9375
40
0.9375
40
0.953125
40
0.953125
40
0.96875
40
0.96875
40
0.984375
40
0.984375
40
1
40
1
40
1
40
1
41
1
10
-6.5
20
-6.99849805315398
30
0
41
1
10
-6.4096424095903
20
-6.99849805315398
30
0
41
1
10
-6.31887533751086
20
-6.9924669932976
30
0
41
1
10
-6.13726564177031
20
-6.96792032412691
30
0
41
1
10
-6.04880117468585
20
-6.94974705973743
30
0
41
1
10
-5.87614107362342
20
-6.90252164638767
30
0
41
1
10
-5.79194795071362
20
-6.87346297167917
30
0
41
1
10
-5.62761370230606
20
-6.80484072991021
30
0
41
1
10
-5.54890965383427
20
-6.76585529638666
30
0
41
1
10
-5.39867973784189
20
-6.68016521734489
30
0
41
1
10
-5.32694157755157
20
-6.63336290342139
30
0
41
1
10
-5.18947718430641
20
-6.53250060019133
30
0
41
1
10
-5.12348684568531
20
-6.47818603126365
30
0
41
1
10
-4.93566988154686
20
-6.30674027670506
30
0
41
1
10
-4.82518003213681
20
-6.18267595320251
30
0
41
1
10
-4.62603001440084
20
-5.91868980815966
30
0
41
1
10
-4.53721391214785
20
-5.77825879287735
30
0
41
1
10
-4.37814656673874
20
-5.48542007115435
30
0
41
1
10
-4.30877871567313
20
-5.33483042069352
30
0
41
1
10
-4.12354082750574
20
-4.87237000918773
30
0
41
1
10
-4.03020120532329
20
-4.54989217457512
30
0
41
1
10
-3.91807144557504
20
-4.04887624586692
30
0
41
1
10
-3.88552668802802
20
-3.87909831441809
30
0
41
1
10
-3.82866773565829
20
-3.53847076026688
30
0
41
1
10
-3.80422767364425
20
-3.36705941807358
30
0
41
1
10
-3.74020579920568
20
-2.84975913582008
30
0
41
1
10
-3.70977205452269
20
-2.5008195214777
30
0
41
1
10
-3.66416163751657
20
-1.79552608157809
30
0
41
1
10
-3.64903771748126
20
-1.43916908464092
30
0
41
1
10
-3.63426182330713
20
-0.899256752194447
30
0
41
1
10
-3.63068669313998
20
-0.718167674817778
30
0
41
1
10
-3.62598899859142
20
-0.357375695924361
30
0
41
1
10
-3.62485343662013
20
-0.177302953433326
30
0
41
1
10
-3.62488496014578
20
0.361962578325034
30
0
41
1
10
-3.62938260517049
20
0.720207066315254
30
0
41
1
10
-3.64887950283875
20
1.43414621185846
30
0
41
1
10
-3.66385562324439
20
1.78984138878459
30
0
41
1
10
-3.70956223321124
20
2.49851694715909
30
0
41
1
10
-3.74045671775656
20
2.85271919963691
30
0
41
1
10
-3.82645737175278
20
3.54573152185978
30
0
41
1
10
-3.88145968550236
20
3.88575414429386
30
0
41
1
10
-4.03051920995767
20
4.55084385300148
30
0
41
1
10
-4.12523349261875
20
4.87761469840365
30
0
41
1
10
-4.31105593218689
20
5.33999328729007
30
0
41
1
10
-4.38041029850672
20
5.4899128326384
30
0
41
1
10
-4.49888437250004
20
5.70752713951083
30
0
41
1
10
-4.54079549132547
20
5.77885043055693
30
0
41
1
10
-4.63023926406612
20
5.91883578995851
30
0
41
1
10
-4.67776791395602
20
5.98743717509882
30
0
41
1
10
-4.82792587490127
20
6.18597359029033
30
0
41
1
10
-4.93858588995937
20
6.30966494075429
30
0
41
1
10
-5.12522766477915
20
6.47964028567972
30
0
41
1
10
-5.19131964832849
20
6.53397024553271
30
0
41
1
10
-5.32929892448178
20
6.63497116118225
30
0
41
1
10
-5.40112275258878
20
6.68167605293547
30
0
41
1
10
-5.55102867370906
20
6.76694298534821
30
0
41
1
10
-5.62910582891868
20
6.80551115138627
30
0
41
1
10
-5.79238720600742
20
6.87359848794483
30
0
41
1
10
-5.87738605118548
20
6.90291103819595
30
0
41
1
10
-6.04966564042599
20
6.94993403370722
30
0
41
1
10
-6.13756051826556
20
6.96792637087054
30
0
41
1
10
-6.31709499624006
20
6.99225989008042
30
0
41
1
10
-6.40924253974518
20
6.99849805315398
30
0
41
1
10
-6.5
20
6.99849805315398
30
0
0
SPLINE
5
20A
100
AcDbEntity
8
SK1
62
256
6
ByLayer
370
-1
48
1
60
0
100
AcDbSpline
70
4
71
3
72
20
73
16
40
0
40
0
40
0
40
0
40
0.25
40
0.25
40
0.375
40
0.375
40
0.5
40
0.5
40
0.625
40
0.625
40
0.75
40
0.75
40
0.875
40
0.875
40
1
40
1
40
1
40
1
41
1
10
-54.5162227297291
20
6.81204395564973
30
0
41
1
10
-54.4772709483907
20
6.72453199501689
30
0
41
1
10
-54.4306845518237
20
6.63914767831511
30
0
41
1
10
-54.3469265709005
20
6.52165950363116
30
0
41
1
10
-54.3163253277688
20
6.4838456686486
30
0
41
1
10
-54.2501041764424
20
6.41421731653315
30
0
41
1
10
-54.2145625265326
20
6.38236090680323
30
0
41
1
10
-54.1369222939179
20
6.32662557921188
30
0
41
1
10
-54.0940013611407
20
6.30244517653043
30
0
41
1
10
-54.0037548865671
20
6.26824500575401
30
0
41
1
10
-53.9556146989167
20
6.25796898452336
30
0
41
1
10
-53.8582046255659
20
6.25504848254033
30
0
41
1
10
-53.8099490429816
20
6.26234710426348
30
0
41
1
10
-53.7177558858445
20
6.29178438547694
30
0
41
1
10
-53.6739857261288
20
6.31382932086129
30
0
41
1
10
-53.6338144512151
20
6.3403417946746
30
0
0
SPLINE
5
20B
100
AcDbEntity
8
SK1
62
256
6
ByLayer
370
-1
48
1
60
0
100
AcDbSpline
70
4
71
3
72
20
73
16
40
0
40
0
40
0
40
0
40
0.125000000000007
40
0.125000000000007
40
0.250000000000015
40
0.250000000000015
40
0.312500000000018
40
0.312500000000018
40
0.375000000000022
40
0.375000000000022
40
0.500000000000012
40
0.500000000000012
40
0.750000000000006
40
0.750000000000006
40
1
40
1
40
1
40
1
41
1
10
-53.6338144512145
20
-6.34034179467375
30
0
41
1
10
-53.6736405326374
20
-6.31405714368671
30
0
41
1
10
-53.7174596238937
20
-6.2918915268643
30
0
41
1
10
-53.8100286430817
20
-6.26230917234659
30
0
41
1
10
-53.858409060093
20
-6.25510537770515
30
0
41
1
10
-53.930507607687
20
-6.25719119578449
30
0
41
1
10
-53.9548847131618
20
-6.26004287846277
30
0
41
1
10
-54.0024268232708
20
-6.26975628298462
30
0
41
1
10
-54.025531470073
20
-6.27654559824734
30
0
41
1
10
-54.0930893921825
20
-6.30200607369946
30
0
41
1
10
-54.136092797726
20
-6.32609087475549
30
0
41
1
10
-54.2534188607808
20
-6.41013429612562
30
0
41
1
10
-54.3194596979378
20
-6.48308041368765
30
0
41
1
10
-54.4306544823114
20
-6.63915672058906
30
0
41
1
10
-54.4771151388184
20
-6.72418194167685
30
0
41
1
10
-54.5162227297291
20
-6.81204395564961
30
0
0
LINE
5
45
100
AcDbEntity
8
80
62
256
6
ByLayer
370
-1
48
1
60
0
100
AcDbLine
10
0
20
0
30
0
11
-7
21
0
31
0
39
0
210
0
220
0
230
1
0
LINE
5
46
100
AcDbEntity
8
81
62
256
6
ByLayer
370
-1
48
1
60
0
100
AcDbLine
10
121
20
0
30
0
11
128
21
0
31
0
39
0
210
0
220
0
230
1
0
LINE
5
47
100
AcDbEntity
8
1
62
256
6
ByLayer
370
-1
48
1
60
0
100
AcDbLine
10
5
20
16
30
0
11
0.2
21
16
31
0
39
0
210
0
220
0
230
1
0
LINE
5
49
100
AcDbEntity
8
1
62
256
6
ByLayer
370
-1
48
1
60
0
100
AcDbLine
10
0.2
20
-16
30
0
11
5
21
-16
31
0
39
0
210
0
220
0
230
1
0
LINE
5
4A
100
AcDbEntity
8
1
62
256
6
ByLayer
370
-1
48
1
60
0
100
AcDbLine
10
0.2
20
16
30
0
11
0
21
15.8
31
0
39
0
210
0
220
0
230
1
0
LINE
5
4B
100
AcDbEntity
8
1
62
256
6
ByLayer
370
-1
48
1
60
0
100
AcDbLine
10
0
20
-15.8
30
0
11
0.2
21
-16
31
0
39
0
210
0
220
0
230
1
0
LINE
5
4C
100
AcDbEntity
8
1
62
256
6
ByLayer
370
-1
48
1
60
0
100
AcDbLine
10
53.746262
20
9.6714
30
0
11
22
21
9.82
31
0
39
0
210
0
220
0
230
1
0
LINE
5
4D
100
AcDbEntity
8
1
62
256
6
ByLayer
370
-1
48
1
60
0
100
AcDbLine
10
22
20
9.82
30
0
11
17
21
9.82
31
0
39
0
210
0
220
0
230
1
0
LINE
5
4E
100
AcDbEntity
8
1
62
256
6
ByLayer
370
-1
48
1
60
0
100
AcDbLine
10
17
20
-9.82
30
0
11
22
21
-9.82
31
0
39
0
210
0
220
0
230
1
0
LINE
5
4F
100
AcDbEntity
8
1
62
256
6
ByLayer
370
-1
48
1
60
0
100
AcDbLine
10
22
20
-9.82
30
0
11
42.954492
21
-9.721915
31
0
39
0
210
0
220
0
230
1
0
LINE
5
50
100
AcDbEntity
8
1
62
256
6
ByLayer
370
-1
48
1
60
0
100
AcDbLine
10
113.078163
20
9.6
30
0
11
111.607349
21
9.6
31
0
39
0
210
0
220
0
230
1
0
LINE
5
51
100
AcDbEntity
8
SK1
62
256
6
ByLayer
370
-1
48
1
60
0
100
AcDbLine
10
-2
20
-12.49675
30
0
11
-1.551212
21
-12.287477
31
0
39
0
210
0
220
0
230
1
0
LINE
5
53
100
AcDbEntity
8
SK1
62
256
6
ByLayer
370
-1
48
1
60
0
100
AcDbLine
10
-1.551212
20
12.287477
30
0
11
-2
21
12.49675
31
0
39
0
210
0
220
0
230
1
0
LINE
5
54
100
AcDbEntity
8
SK1
62
256
6
ByLayer
370
-1
48
1
60
0
100
AcDbLine
10
-2
20
12.49675
30
0
11
-52.6
21
12.49675
31
0
39
0
210
0
220
0
230
1
0
LINE
5
55
100
AcDbEntity
8
SK1
62
256
6
ByLayer
370
-1
48
1
60
0
100
AcDbLine
10
-52.6
20
-12.49675
30
0
11
-2
21
-12.49675
31
0
39
0
210
0
220
0
230
1
0
LINE
5
56
100
AcDbEntity
8
SK1
62
256
6
ByLayer
370
-1
48
1
60
0
100
AcDbLine
10
-0.15
20
12.25
30
0
11
-1.382165
21
12.25
31
0
39
0
210
0
220
0
230
1
0
LINE
5
57
100
AcDbEntity
8
SK1
62
256
6
ByLayer
370
-1
48
1
60
0
100
AcDbLine
10
-1.382165
20
-12.25
30
0
11
-0.15
21
-12.25
31
0
39
0
210
0
220
0
230
1
0
LINE
5
58
100
AcDbEntity
8
SK1
62
256
6
ByLayer
370
-1
48
1
60
0
100
AcDbLine
10
-52.6
20
12.49675
30
0
11
-53.633814
21
12.140417
31
0
39
0
210
0
220
0
230
1
0
LINE
5
59
100
AcDbEntity
8
SK1
62
256
6
ByLayer
370
-1
48
1
60
0
100
AcDbLine
10
-53.633814
20
-12.140417
30
0
11
-52.6
21
-12.49675
31
0
39
0
210
0
220
0
230
1
0
LINE
5
5A
100
AcDbEntity
8
SK1
62
256
6
ByLayer
370
-1
48
1
60
0
100
AcDbLine
10
-55
20
12.49675
30
0
11
-56
21
11.49675
31
0
39
0
210
0
220
0
230
1
0
LINE
5
5B
100
AcDbEntity
8
SK1
62
256
6
ByLayer
370
-1
48
1
60
0
100
AcDbLine
10
-56
20
-11.49675
30
0
11
-55
21
-12.49675
31
0
39
0
210
0
220
0
230
1
0
LINE
5
5C
100
AcDbEntity
8
SK1
62
256
6
ByLayer
370
-1
48
1
60
0
100
AcDbLine
10
-54.6
20
-12.49675
30
0
11
-54.516223
21
-12.393294
31
0
39
0
210
0
220
0
230
1
0
LINE
5
5D
100
AcDbEntity
8
SK1
62
256
6
ByLayer
370
-1
48
1
60
0
100
AcDbLine
10
-54.516223
20
12.393294
30
0
11
-54.6
21
12.49675
31
0
39
0
210
0
220
0
230
1
0
LINE
5
5E
100
AcDbEntity
8
SK1
62
256
6
ByLayer
370
-1
48
1
60
0
100
AcDbLine
10
-54.6
20
12.49675
30
0
11
-55
21
12.49675
31
0
39
0
210
0
220
0
230
1
0
LINE
5
5F
100
AcDbEntity
8
SK1
62
256
6
ByLayer
370
-1
48
1
60
0
100
AcDbLine
10
-55
20
-12.49675
30
0
11
-54.6
21
-12.49675
31
0
39
0
210
0
220
0
230
1
0
LINE
5
60
100
AcDbEntity
8
SK4
62
256
6
ByLayer
370
-1
48
0.05
60
0
100
AcDbLine
10
121
20
0
30
0
11
-56
21
0
31
0
39
0
210
0
220
0
230
1
0
LINE
5
62
100
AcDbEntity
8
4
62
256
6
ByLayer
370
-1
48
0.05
60
0
100
AcDbLine
10
121
20
0
30
0
11
0
21
0
31
0
39
0
210
0
220
0
230
1
0
LINE
5
64
100
AcDbEntity
8
1
62
256
6
ByLayer
370
-1
48
1
60
0
100
AcDbLine
10
119.938715
20
1.122502
30
0
11
119.889368
21
1.155604
31
0
39
0
210
0
220
0
230
1
0
LINE
5
65
100
AcDbEntity
8
1
62
256
6
ByLayer
370
-1
48
1
60
0
100
AcDbLine
10
119.068555
20
0.491163
30
0
11
119.254063
21
0.983343
31
0
39
0
210
0
220
0
230
1
0
LINE
5
66
100
AcDbEntity
8
1
62
256
6
ByLayer
370
-1
48
1
60
0
100
AcDbLine
10
0.2
20
16
30
0
11
0.2
21
-16
31
0
39
0
210
0
220
0
230
1
0
LINE
5
67
100
AcDbEntity
8
1
62
256
6
ByLayer
370
-1
48
1
60
0
100
AcDbLine
10
119.857091
20
0.605288
30
0
11
120.140514
21
-4.786056
31
0
39
0
210
0
220
0
230
1
0
LINE
5
68
100
AcDbEntity
8
1
62
256
6
ByLayer
370
-1
48
1
60
0
100
AcDbLine
10
113.400422
20
2.392643
30
0
11
113.45079
21
2.392643
31
0
39
0
210
0
220
0
230
1
0
LINE
5
69
100
AcDbEntity
8
1
62
256
6
ByLayer
370
-1
48
1
60
0
100
AcDbLine
10
120.140514
20
-4.786056
30
0
11
120.129306
21
-4.91226
31
0
39
0
210
0
220
0
230
1
0
LINE
5
6A
100
AcDbEntity
8
1
62
256
6
ByLayer
370
-1
48
1
60
0
100
AcDbLine
10
113.165819
20
6.257983
30
0
11
113.19307
21
6.257983
31
0
39
0
210
0
220
0
230
1
0
LINE
5
6B
100
AcDbEntity
8
1
62
256
6
ByLayer
370
-1
48
1
60
0
100
AcDbLine
10
120.126853
20
-9.588792
30
0
11
120.474451
21
-5.674632
31
0
39
0
210
0
220
0
230
1
0
LINE
5
6C
100
AcDbEntity
8
1
62
256
6
ByLayer
370
-1
48
1
60
0
100
AcDbLine
10
111.769469
20
9.599444
30
0
11
111.769469
21
5.67
31
0
39
0
210
0
220
0
230
1
0
LINE
5
6D
100
AcDbEntity
8
1
62
256
6
ByLayer
370
-1
48
1
60
0
100
AcDbLine
10
119.855867
20
0.629706
30
0
11
119.254063
21
0.983343
31
0
39
0
210
0
220
0
230
1
0
LINE
5
6E
100
AcDbEntity
8
1
62
256
6
ByLayer
370
-1
48
1
60
0
100
AcDbLine
10
112.795276
20
3.708793
30
0
11
113.021881
21
3.708793
31
0
39
0
210
0
220
0
230
1
0
LINE
5
6F
100
AcDbEntity
8
1
62
256
6
ByLayer
370
-1
48
1
60
0
100
AcDbLine
10
112.750658
20
5.108076
30
0
11
112.977263
21
5.108076
31
0
39
0
210
0
220
0
230
1
0
LINE
5
70
100
AcDbEntity
8
1
62
256
6
ByLayer
370
-1
48
1
60
0
100
AcDbLine
10
17
20
9.82
30
0
11
17
21
4.223535
31
0
39
0
210
0
220
0
230
1
0
LINE
5
71
100
AcDbEntity
8
1
62
256
6
ByLayer
370
-1
48
1
60
0
100
AcDbLine
10
111.419854
20
3.082106
30
0
11
111.974155
21
2.834373
31
0
39
0
210
0
220
0
230
1
0
LINE
5
72
100
AcDbEntity
8
1
62
256
6
ByLayer
370
-1
48
1
60
0
100
AcDbLine
10
114.005248
20
0.193902
30
0
11
114.571106
21
2.140569
31
0
39
0
210
0
220
0
230
1
0
LINE
5
73
100
AcDbEntity
8
1
62
256
6
ByLayer
370
-1
48
1
60
0
100
AcDbLine
10
109.603763
20
5.67
30
0
11
111.769469
21
5.67
31
0
39
0
210
0
220
0
230
1
0
LINE
5
74
100
AcDbEntity
8
1
62
256
6
ByLayer
370
-1
48
1
60
0
100
AcDbLine
10
112.585508
20
-9.588792
30
0
11
120.126853
21
-9.588792
31
0
39
0
210
0
220
0
230
1
0
LINE
5
75
100
AcDbEntity
8
1
62
256
6
ByLayer
370
-1
48
1
60
0
100
AcDbLine
10
22
20
9.82
30
0
11
22
21
3.218222
31
0
39
0
210
0
220
0
230
1
0
LINE
5
76
100
AcDbEntity
8
1
62
256
6
ByLayer
370
-1
48
1
60
0
100
AcDbLine
10
17
20
-9.82
30
0
11
17
21
-8.526418
31
0
39
0
210
0
220
0
230
1
0
LINE
5
77
100
AcDbEntity
8
1
62
256
6
ByLayer
370
-1
48
1
60
0
100
AcDbLine
10
120.140514
20
-4.786056
30
0
11
119.928167
21
-4.661275
31
0
39
0
210
0
220
0
230
1
0
LINE
5
78
100
AcDbEntity
8
1
62
256
6
ByLayer
370
-1
48
1
60
0
100
AcDbLine
10
115.10878
20
2.316228
30
0
11
119.59307
21
2.473421
31
0
39
0
210
0
220
0
230
1
0
LINE
5
79
100
AcDbEntity
8
1
62
256
6
ByLayer
370
-1
48
1
60
0
100
AcDbLine
10
69
20
9.16834
30
0
11
69
21
-5.486749
31
0
39
0
210
0
220
0
230
1
0
LINE
5
7A
100
AcDbEntity
8
1
62
256
6
ByLayer
370
-1
48
1
60
0
100
AcDbLine
10
119.779639
20
2.463319
30
0
11
119.59307
21
2.473421
31
0
39
0
210
0
220
0
230
1
0
LINE
5
7B
100
AcDbEntity
8
1
62
256
6
ByLayer
370
-1
48
1
60
0
100
AcDbLine
10
119.59307
20
2.473421
30
0
11
119.742569
21
2.473421
31
0
39
0
210
0
220
0
230
1
0
LINE
5
7C
100
AcDbEntity
8
1
62
256
6
ByLayer
370
-1
48
1
60
0
100
AcDbLine
10
111.974155
20
2.834373
30
0
11
111.915825
21
2.834373
31
0
39
0
210
0
220
0
230
1
0
LINE
5
7D
100
AcDbEntity
8
1
62
256
6
ByLayer
370
-1
48
1
60
0
100
AcDbLine
10
119.986981
20
2.460567
30
0
11
119.779639
21
2.463319
31
0
39
0
210
0
220
0
230
1
0
LINE
5
7E
100
AcDbEntity
8
1
62
256
6
ByLayer
370
-1
48
1
60
0
100
AcDbLine
10
112.750658
20
5.108076
30
0
11
112.795276
21
3.708793
31
0
39
0
210
0
220
0
230
1
0
LINE
5
7F
100
AcDbEntity
8
1
62
256
6
ByLayer
370
-1
48
1
60
0
100
AcDbLine
10
113.238228
20
6.289666
30
0
11
113.388268
21
6.289666
31
0
39
0
210
0
220
0
230
1
0
LINE
5
80
100
AcDbEntity
8
1
62
256
6
ByLayer
370
-1
48
1
60
0
100
AcDbLine
10
119.742624
20
2.473422
30
0
11
119.986981
21
2.460567
31
0
39
0
210
0
220
0
230
1
0
LINE
5
81
100
AcDbEntity
8
1
62
256
6
ByLayer
370
-1
48
1
60
0
100
AcDbLine
10
119.938715
20
1.122502
30
0
11
119.863214
21
1.12513
31
0
39
0
210
0
220
0
230
1
0
LINE
5
82
100
AcDbEntity
8
1
62
256
6
ByLayer
370
-1
48
1
60
0
100
AcDbLine
10
119.938715
20
1.122502
30
0
11
119.956047
21
1.126736
31
0
39
0
210
0
220
0
230
1
0
LINE
5
83
100
AcDbEntity
8
1
62
256
6
ByLayer
370
-1
48
1
60
0
100
AcDbLine
10
119.956047
20
1.126736
30
0
11
120.067813
21
2.656905
31
0
39
0
210
0
220
0
230
1
0
LINE
5
84
100
AcDbEntity
8
1
62
256
6
ByLayer
370
-1
48
1
60
0
100
AcDbLine
10
0
20
15.8
30
0
11
0
21
-15.8
31
0
39
0
210
0
220
0
230
1
0
LINE
5
85
100
AcDbEntity
8
1
62
256
6
ByLayer
370
-1
48
1
60
0
100
AcDbLine
10
22
20
-9.82
30
0
11
22
21
-8.970701
31
0
39
0
210
0
220
0
230
1
0
LINE
5
86
100
AcDbEntity
8
1
62
256
6
ByLayer
370
-1
48
1
60
0
100
AcDbLine
10
119.254063
20
0.983343
30
0
11
119.779639
21
2.463319
31
0
39
0
210
0
220
0
230
1
0
LINE
5
87
100
AcDbEntity
8
1
62
256
6
ByLayer
370
-1
48
1
60
0
100
AcDbLine
10
5
20
16
30
0
11
5
21
-16
31
0
39
0
210
0
220
0
230
1
0
LINE
5
88
100
AcDbEntity
8
1
62
256
6
ByLayer
370
-1
48
1
60
0
100
AcDbLine
10
120.474451
20
-5.674632
30
0
11
120.146563
21
-5.589612
31
0
39
0
210
0
220
0
230
1
0
LINE
5
89
100
AcDbEntity
8
1
62
256
6
ByLayer
370
-1
48
1
60
0
100
AcDbLine
10
111.522699
20
1.645528
30
0
11
111.253047
21
0.717869
31
0
39
0
210
0
220
0
230
1
0
LINE
5
8A
100
AcDbEntity
8
1
62
256
6
ByLayer
370
-1
48
1
60
0
100
AcDbLine
10
112.36803
20
3.565209
30
0
11
111.193997
21
4.089919
31
0
39
0
210
0
220
0
230
1
0
LINE
5
8B
100
AcDbEntity
8
1
62
256
6
ByLayer
370
-1
48
1
60
0
100
AcDbLine
10
119.68223
20
-4.516755
30
0
11
119.49727
21
-4.408068
31
0
39
0
210
0
220
0
230
1
0
LINE
5
8C
100
AcDbEntity
8
1
62
256
6
ByLayer
370
-1
48
1
60
0
100
AcDbLine
10
113.165819
20
6.257983
30
0
11
113.059331
21
9.597566
31
0
39
0
210
0
220
0
230
1
0
LINE
5
8D
100
AcDbEntity
8
1
62
256
6
ByLayer
370
-1
48
1
60
0
100
AcDbLine
10
119.878289
20
1.155989
30
0
11
119.889368
21
1.155604
31
0
39
0
210
0
220
0
230
1
0
LINE
5
8E
100
AcDbEntity
8
1
62
256
6
ByLayer
370
-1
48
1
60
0
100
AcDbLine
10
113.086518
20
9.599527
30
0
11
113.19307
21
6.257983
31
0
39
0
210
0
220
0
230
1
0
LINE
5
8F
100
AcDbEntity
8
1
62
256
6
ByLayer
370
-1
48
1
60
0
100
AcDbLine
10
112.977263
20
5.108076
30
0
11
113.021881
21
3.708793
31
0
39
0
210
0
220
0
230
1
0
LINE
5
90
100
AcDbEntity
8
1
62
256
6
ByLayer
370
-1
48
1
60
0
100
AcDbLine
10
120.658298
20
9.345495
30
0
11
120.58834
21
9.343061
31
0
39
0
210
0
220
0
230
1
0
LINE
5
91
100
AcDbEntity
8
1
62
256
6
ByLayer
370
-1
48
1
60
0
100
AcDbLine
10
120.654722
20
9.43643
30
0
11
120.584789
21
9.433362
31
0
39
0
210
0
220
0
230
1
0
LINE
5
92
100
AcDbEntity
8
1
62
256
6
ByLayer
370
-1
48
1
60
0
100
AcDbLine
10
120.455539
20
2.675909
30
0
11
120.450162
21
2.745473
31
0
39
0
210
0
220
0
230
1
0
LINE
5
93
100
AcDbEntity
8
1
62
256
6
ByLayer
370
-1
48
1
60
0
100
AcDbLine
10
113.29356
20
9.45473
30
0
11
113.360716
21
9.439043
31
0
39
0
210
0
220
0
230
1
0
LINE
5
94
100
AcDbEntity
8
1
62
256
6
ByLayer
370
-1
48
1
60
0
100
AcDbLine
10
113.287176
20
9.227192
30
0
11
113.356104
21
9.228308
31
0
39
0
210
0
220
0
230
1
0
LINE
5
95
100
AcDbEntity
8
1
62
256
6
ByLayer
370
-1
48
1
60
0
100
AcDbLine
10
120.157051
20
2.660037
30
0
11
120.154095
21
2.729728
31
0
39
0
210
0
220
0
230
1
0
LINE
5
96
100
AcDbEntity
8
1
62
256
6
ByLayer
370
-1
48
1
60
0
100
AcDbLine
10
113.907691
20
9.845067
30
0
11
113.910215
21
9.775401
31
0
39
0
210
0
220
0
230
1
0
LINE
5
97
100
AcDbEntity
8
1
62
256
6
ByLayer
370
-1
48
1
60
0
100
AcDbLine
10
120.869431
20
3.121449
30
0
11
120.799431
21
3.121449
31
0
39
0
210
0
220
0
230
1
0
LINE
5
98
100
AcDbEntity
8
1
62
256
6
ByLayer
370
-1
48
1
60
0
100
AcDbLine
10
113.99828
20
9.848657
30
0
11
114.000173
21
9.778966
31
0
39
0
210
0
220
0
230
1
0
LINE
5
99
100
AcDbEntity
8
1
62
256
6
ByLayer
370
-1
48
1
60
0
100
AcDbLine
10
113.502996
20
3.023322
30
0
11
113.571832
21
3.027073
31
0
39
0
210
0
220
0
230
1
0
LINE
5
9A
100
AcDbEntity
8
1
62
256
6
ByLayer
370
-1
48
1
60
0
100
AcDbLine
10
113.290948
20
9.087239
30
0
11
113.497033
21
3.163199
31
0
39
0
210
0
220
0
230
1
0
LINE
5
9B
100
AcDbEntity
8
1
62
256
6
ByLayer
370
-1
48
1
60
0
100
AcDbLine
10
120.198642
20
10.060596
30
0
11
120.19811
21
9.990863
31
0
39
0
210
0
220
0
230
1
0
LINE
5
9C
100
AcDbEntity
8
1
62
256
6
ByLayer
370
-1
48
1
60
0
100
AcDbLine
10
119.899777
20
10.055529
30
0
11
113.99828
21
9.848657
31
0
39
0
210
0
220
0
230
1
0
LINE
5
9D
100
AcDbEntity
8
1
62
256
6
ByLayer
370
-1
48
1
60
0
100
AcDbLine
10
119.899777
20
10.055529
30
0
11
119.90167
21
9.985838
31
0
39
0
210
0
220
0
230
1
0
LINE
5
9E
100
AcDbEntity
8
1
62
256
6
ByLayer
370
-1
48
1
60
0
100
AcDbLine
10
120.864383
20
3.421455
30
0
11
120.794425
21
3.419021
31
0
39
0
210
0
220
0
230
1
0
LINE
5
9F
100
AcDbEntity
8
1
62
256
6
ByLayer
370
-1
48
1
60
0
100
AcDbLine
10
113.956689
20
2.448097
30
0
11
113.956158
21
2.517831
31
0
39
0
210
0
220
0
230
1
0
LINE
5
A0
100
AcDbEntity
8
1
62
256
6
ByLayer
370
-1
48
1
60
0
100
AcDbLine
10
120.630156
20
9.711908
30
0
11
120.563191
21
9.69152
31
0
39
0
210
0
220
0
230
1
0
LINE
5
A1
100
AcDbEntity
8
1
62
256
6
ByLayer
370
-1
48
1
60
0
100
AcDbLine
10
113.290948
20
9.087239
30
0
11
113.359842
21
9.089672
31
0
39
0
210
0
220
0
230
1
0
LINE
5
A2
100
AcDbEntity
8
1
62
256
6
ByLayer
370
-1
48
1
60
0
100
AcDbLine
10
113.500609
20
3.072263
30
0
11
113.569478
21
3.075331
31
0
39
0
210
0
220
0
230
1
0
LINE
5
A3
100
AcDbEntity
8
1
62
256
6
ByLayer
370
-1
48
1
60
0
100
AcDbLine
10
120.864383
20
3.421455
30
0
11
120.658298
21
9.345495
31
0
39
0
210
0
220
0
230
1
0
LINE
5
A4
100
AcDbEntity
8
1
62
256
6
ByLayer
370
-1
48
1
60
0
100
AcDbLine
10
113.858936
20
9.842671
30
0
11
113.86214
21
9.773039
31
0
39
0
210
0
220
0
230
1
0
LINE
5
A5
100
AcDbEntity
8
1
62
256
6
ByLayer
370
-1
48
1
60
0
100
AcDbLine
10
120.868155
20
3.281502
30
0
11
120.798164
21
3.280386
31
0
39
0
210
0
220
0
230
1
0
LINE
5
A6
100
AcDbEntity
8
1
62
256
6
ByLayer
370
-1
48
1
60
0
100
AcDbLine
10
113.512845
20
2.86357
30
0
11
113.581612
21
2.868434
31
0
39
0
210
0
220
0
230
1
0
LINE
5
A7
100
AcDbEntity
8
1
62
256
6
ByLayer
370
-1
48
1
60
0
100
AcDbLine
10
113.525176
20
2.796785
30
0
11
113.591077
21
2.817174
31
0
39
0
210
0
220
0
230
1
0
LINE
5
A8
100
AcDbEntity
8
1
62
256
6
ByLayer
370
-1
48
1
60
0
100
AcDbLine
10
113.2859
20
9.387245
30
0
11
113.354837
21
9.387245
31
0
39
0
210
0
220
0
230
1
0
LINE
5
A9
100
AcDbEntity
8
1
62
256
6
ByLayer
370
-1
48
1
60
0
100
AcDbLine
10
119.990395
20
10.058291
30
0
11
119.991656
21
9.988581
31
0
39
0
210
0
220
0
230
1
0
LINE
5
AA
100
AcDbEntity
8
1
62
256
6
ByLayer
370
-1
48
1
60
0
100
AcDbLine
10
120.861771
20
3.053964
30
0
11
120.793552
21
3.06965
31
0
39
0
210
0
220
0
230
1
0
LINE
5
AB
100
AcDbEntity
8
1
62
256
6
ByLayer
370
-1
48
1
60
0
100
AcDbLine
10
120.652336
20
9.485371
30
0
11
120.582436
21
9.481621
31
0
39
0
210
0
220
0
230
1
0
LINE
5
AC
100
AcDbEntity
8
1
62
256
6
ByLayer
370
-1
48
1
60
0
100
AcDbLine
10
120.867135
20
3.330491
30
0
11
120.797158
21
3.328691
31
0
39
0
210
0
220
0
230
1
0
LINE
5
AD
100
AcDbEntity
8
1
62
256
6
ByLayer
370
-1
48
1
60
0
100
AcDbLine
10
120.26587
20
10.052907
30
0
11
120.249712
21
9.984961
31
0
39
0
210
0
220
0
230
1
0
LINE
5
AE
100
AcDbEntity
8
1
62
256
6
ByLayer
370
-1
48
1
60
0
100
AcDbLine
10
113.699792
20
9.832785
30
0
11
113.704106
21
9.763221
31
0
39
0
210
0
220
0
230
1
0
LINE
5
AF
100
AcDbEntity
8
1
62
256
6
ByLayer
370
-1
48
1
60
0
100
AcDbLine
10
113.889461
20
2.455786
30
0
11
113.904556
21
2.523733
31
0
39
0
210
0
220
0
230
1
0
LINE
5
B0
100
AcDbEntity
8
1
62
256
6
ByLayer
370
-1
48
1
60
0
100
AcDbLine
10
113.288196
20
9.178203
30
0
11
113.35711
21
9.180002
31
0
39
0
210
0
220
0
230
1
0
LINE
5
B1
100
AcDbEntity
8
1
62
256
6
ByLayer
370
-1
48
1
60
0
100
AcDbLine
10
120.296395
20
2.666022
30
0
11
120.292127
21
2.735655
31
0
39
0
210
0
220
0
230
1
0
LINE
5
B2
100
AcDbEntity
8
1
62
256
6
ByLayer
370
-1
48
1
60
0
100
AcDbLine
10
114.164936
20
2.450403
30
0
11
114.162612
21
2.520113
31
0
39
0
210
0
220
0
230
1
0
LINE
5
B3
100
AcDbEntity
8
1
62
256
6
ByLayer
370
-1
48
1
60
0
100
AcDbLine
10
113.633261
20
9.820407
30
0
11
113.65304
21
9.75372
31
0
39
0
210
0
220
0
230
1
0
LINE
5
B4
100
AcDbEntity
8
1
62
256
6
ByLayer
370
-1
48
1
60
0
100
AcDbLine
10
120.039198
20
10.059315
30
0
11
120.039778
21
9.989591
31
0
39
0
210
0
220
0
230
1
0
LINE
5
B5
100
AcDbEntity
8
1
62
256
6
ByLayer
370
-1
48
1
60
0
100
AcDbLine
10
120.24764
20
2.663627
30
0
11
120.244052
21
2.733293
31
0
39
0
210
0
220
0
230
1
0
LINE
5
B6
100
AcDbEntity
8
1
62
256
6
ByLayer
370
-1
48
1
60
0
100
AcDbLine
10
114.255554
20
2.453165
30
0
11
120.157051
21
2.660037
31
0
39
0
210
0
220
0
230
1
0
LINE
5
B7
100
AcDbEntity
8
1
62
256
6
ByLayer
370
-1
48
1
60
0
100
AcDbLine
10
114.255554
20
2.453165
30
0
11
114.252598
21
2.522856
31
0
39
0
210
0
220
0
230
1
0
LINE
5
B8
100
AcDbEntity
8
1
62
256
6
ByLayer
370
-1
48
1
60
0
100
AcDbLine
10
120.52207
20
2.688287
30
0
11
120.501228
21
2.754973
31
0
39
0
210
0
220
0
230
1
0
LINE
5
B9
100
AcDbEntity
8
1
62
256
6
ByLayer
370
-1
48
1
60
0
100
AcDbLine
10
113.497033
20
3.163199
30
0
11
113.565927
21
3.165632
31
0
39
0
210
0
220
0
230
1
0
LINE
5
BA
100
AcDbEntity
8
1
62
256
6
ByLayer
370
-1
48
1
60
0
100
AcDbLine
10
120.642486
20
9.645124
30
0
11
120.572655
21
9.640259
31
0
39
0
210
0
220
0
230
1
0
LINE
5
BB
100
AcDbEntity
8
1
62
256
6
ByLayer
370
-1
48
1
60
0
100
AcDbLine
10
114.116133
20
2.449378
30
0
11
114.11449
21
2.519103
31
0
39
0
210
0
220
0
230
1
0
LINE
5
BC
100
AcDbEntity
8
1
62
256
6
ByLayer
370
-1
48
1
60
0
100
AcDbLine
10
120.563959
20
-0.14293
30
0
11
120.344424
21
-0.045873
31
0
39
0
210
0
220
0
230
1
0
LINE
5
BD
100
AcDbEntity
8
1
62
256
6
ByLayer
370
-1
48
1
60
0
100
AcDbLine
10
120.196194
20
0.864383
30
0
11
120.143603
21
0.839619
31
0
39
0
210
0
220
0
230
1
0
LINE
5
BE
100
AcDbEntity
8
1
62
256
6
ByLayer
370
-1
48
1
60
0
100
AcDbLine
10
120.143603
20
0.839619
30
0
11
120.227261
21
0.394944
31
0
39
0
210
0
220
0
230
1
0
LINE
5
BF
100
AcDbEntity
8
1
62
256
6
ByLayer
370
-1
48
1
60
0
100
AcDbLine
10
120.128466
20
-1.823185
30
0
11
120.047997
21
-0.292488
31
0
39
0
210
0
220
0
230
1
0
LINE
5
C0
100
AcDbEntity
8
1
62
256
6
ByLayer
370
-1
48
1
60
0
100
AcDbLine
10
120.128466
20
-1.823185
30
0
11
120.028603
21
-1.828402
31
0
39
0
210
0
220
0
230
1
0
LINE
5
C1
100
AcDbEntity
8
1
62
256
6
ByLayer
370
-1
48
1
60
0
100
AcDbLine
10
120.114131
20
-4.284291
30
0
11
120.256375
21
-4.133968
31
0
39
0
210
0
220
0
230
1
0
LINE
5
C2
100
AcDbEntity
8
1
62
256
6
ByLayer
370
-1
48
1
60
0
100
AcDbLine
10
120.028603
20
-1.828402
30
0
11
119.948134
21
-0.297705
31
0
39
0
210
0
220
0
230
1
0
LINE
5
C3
100
AcDbEntity
8
1
62
256
6
ByLayer
370
-1
48
1
60
0
100
AcDbLine
10
120.893882
20
-2.796711
30
0
11
120.685663
21
-2.752095
31
0
39
0
210
0
220
0
230
1
0
LINE
5
C4
100
AcDbEntity
8
1
62
256
6
ByLayer
370
-1
48
1
60
0
100
AcDbLine
10
120.593428
20
-0.287326
30
0
11
120.367837
21
-0.187591
31
0
39
0
210
0
220
0
230
1
0
LINE
5
C5
100
AcDbEntity
8
1
62
256
6
ByLayer
370
-1
48
1
60
0
100
AcDbLine
10
120.683779
20
-2.006011
30
0
11
120.450808
21
-1.869111
31
0
39
0
210
0
220
0
230
1
0
LINE
5
C6
100
AcDbEntity
8
1
62
256
6
ByLayer
370
-1
48
1
60
0
100
AcDbLine
10
120.128466
20
-1.823185
30
0
11
120.450808
21
-1.869111
31
0
39
0
210
0
220
0
230
1
0
LINE
5
C7
100
AcDbEntity
8
1
62
256
6
ByLayer
370
-1
48
1
60
0
100
AcDbLine
10
120.615171
20
-5.324126
30
0
11
120.542785
21
-5.224298
31
0
39
0
210
0
220
0
230
1
0
LINE
5
C8
100
AcDbEntity
8
1
62
256
6
ByLayer
370
-1
48
1
60
0
100
AcDbLine
10
120.169547
20
-3.069697
30
0
11
120.146521
21
-3.727043
31
0
39
0
210
0
220
0
230
1
0
LINE
5
C9
100
AcDbEntity
8
1
62
256
6
ByLayer
370
-1
48
1
60
0
100
AcDbLine
10
119.882185
20
0.128055
30
0
11
120.227261
21
0.394944
31
0
39
0
210
0
220
0
230
1
0
LINE
5
CA
100
AcDbEntity
8
1
62
256
6
ByLayer
370
-1
48
1
60
0
100
AcDbLine
10
120.683779
20
-2.006011
30
0
11
120.593428
21
-0.287326
31
0
39
0
210
0
220
0
230
1
0
LINE
5
CB
100
AcDbEntity
8
1
62
256
6
ByLayer
370
-1
48
1
60
0
100
AcDbLine
10
120.563959
20
-0.14293
30
0
11
120.196194
21
0.864383
31
0
39
0
210
0
220
0
230
1
0
LINE
5
CC
100
AcDbEntity
8
1
62
256
6
ByLayer
370
-1
48
1
60
0
100
AcDbLine
10
120.943856
20
-4.873124
30
0
11
120.999695
21
-3.279028
31
0
39
0
210
0
220
0
230
1
0
LINE
5
CD
100
AcDbEntity
8
1
62
256
6
ByLayer
370
-1
48
1
60
0
100
AcDbLine
10
120.106896
20
-4.146655
30
0
11
120.183633
21
-4.06556
31
0
39
0
210
0
220
0
230
1
0
LINE
5
CE
100
AcDbEntity
8
1
62
256
6
ByLayer
370
-1
48
1
60
0
100
AcDbLine
10
120.999695
20
-3.279028
30
0
11
120.766913
21
-3.122086
31
0
39
0
210
0
220
0
230
1
0
LINE
5
CF
100
AcDbEntity
8
1
62
256
6
ByLayer
370
-1
48
1
60
0
100
AcDbLine
10
120.118009
20
-5.50452
30
0
11
120.615171
21
-5.324126
31
0
39
0
210
0
220
0
230
1
0
LINE
5
D0
100
AcDbEntity
8
1
62
256
6
ByLayer
370
-1
48
1
60
0
100
AcDbLine
10
120.31962
20
-3.740915
30
0
11
120.342646
21
-3.083569
31
0
39
0
210
0
220
0
230
1
0
LINE
5
D1
100
AcDbEntity
8
1
62
256
6
ByLayer
370
-1
48
1
60
0
100
AcDbLine
10
120.442586
20
-3.087048
30
0
11
120.765173
21
-3.161046
31
0
39
0
210
0
220
0
230
1
0
LINE
5
D2
100
AcDbEntity
8
1
62
256
6
ByLayer
370
-1
48
1
60
0
100
AcDbLine
10
120.765173
20
-3.161046
30
0
11
120.742147
21
-3.818392
31
0
39
0
210
0
220
0
230
1
0
LINE
5
D3
100
AcDbEntity
8
1
62
256
6
ByLayer
370
-1
48
1
60
0
100
AcDbLine
10
120.450808
20
-1.869111
30
0
11
120.370339
21
-0.338414
31
0
39
0
210
0
220
0
230
1
0
LINE
5
D4
100
AcDbEntity
8
1
62
256
6
ByLayer
370
-1
48
1
60
0
100
AcDbLine
10
120.41956
20
-3.744394
30
0
11
120.742147
21
-3.818392
31
0
39
0
210
0
220
0
230
1
0
LINE
5
D5
100
AcDbEntity
8
1
62
256
6
ByLayer
370
-1
48
1
60
0
100
AcDbLine
10
120.382498
20
-2.804516
30
0
11
120.672761
21
-2.726518
31
0
39
0
210
0
220
0
230
1
0
LINE
5
D6
100
AcDbEntity
8
1
62
256
6
ByLayer
370
-1
48
1
60
0
100
AcDbLine
10
120.370339
20
-0.338414
30
0
11
120.047997
21
-0.292488
31
0
39
0
210
0
220
0
230
1
0
LINE
5
D7
100
AcDbEntity
8
1
62
256
6
ByLayer
370
-1
48
1
60
0
100
AcDbLine
10
120.41956
20
-3.744394
30
0
11
120.442586
21
-3.087048
31
0
39
0
210
0
220
0
230
1
0
LINE
5
D8
100
AcDbEntity
8
1
62
256
6
ByLayer
370
-1
48
1
60
0
100
AcDbLine
10
120.256375
20
-4.133968
30
0
11
120.851781
21
-4.853069
31
0
39
0
210
0
220
0
230
1
0
LINE
5
D9
100
AcDbEntity
8
1
62
256
6
ByLayer
370
-1
48
1
60
0
100
AcDbLine
10
120.542785
20
-5.224298
30
0
11
120.110238
21
-5.24383
31
0
39
0
210
0
220
0
230
1
0
LINE
5
DA
100
AcDbEntity
8
1
62
256
6
ByLayer
370
-1
48
1
60
0
100
AcDbLine
10
120.943856
20
-4.873124
30
0
11
120.839024
21
-4.728548
31
0
39
0
210
0
220
0
230
1
0
LINE
5
DB
100
AcDbEntity
8
SK1
62
256
6
ByLayer
370
-1
48
1
60
0
100
AcDbLine
10
-55
20
-6.998498
30
0
11
-55
21
-12.49675
31
0
39
0
210
0
220
0
230
1
0
LINE
5
DC
100
AcDbEntity
8
SK1
62
256
6
ByLayer
370
-1
48
1
60
0
100
AcDbLine
10
-55
20
12.49675
30
0
11
-55
21
6.998498
31
0
39
0
210
0
220
0
230
1
0
LINE
5
DD
100
AcDbEntity
8
SK1
62
256
6
ByLayer
370
-1
48
1
60
0
100
AcDbLine
10
-0.15
20
12.25
30
0
11
-0.15
21
-12.25
31
0
39
0
210
0
220
0
230
1
0
LINE
5
DE
100
AcDbEntity
8
SK1
62
256
6
ByLayer
370
-1
48
1
60
0
100
AcDbLine
10
-52.6
20
6.998498
30
0
11
-52.6
21
12.49675
31
0
39
0
210
0
220
0
230
1
0
LINE
5
DF
100
AcDbEntity
8
SK1
62
256
6
ByLayer
370
-1
48
1
60
0
100
AcDbLine
10
-52.6
20
-12.49675
30
0
11
-52.6
21
-6.998498
31
0
39
0
210
0
220
0
230
1
0
LINE
5
E0
100
AcDbEntity
8
SK1
62
256
6
ByLayer
370
-1
48
1
60
0
100
AcDbLine
10
-1.382165
20
12.25
30
0
11
-1.382165
21
-12.25
31
0
39
0
210
0
220
0
230
1
0
LINE
5
E1
100
AcDbEntity
8
SK1
62
256
6
ByLayer
370
-1
48
1
60
0
100
AcDbLine
10
-52.6
20
6.998498
30
0
11
-6.5
21
6.998498
31
0
39
0
210
0
220
0
230
1
0
LINE
5
E2
100
AcDbEntity
8
SK1
62
256
6
ByLayer
370
-1
48
1
60
0
100
AcDbLine
10
-2
20
-12.49675
30
0
11
-2
21
12.49675
31
0
39
0
210
0
220
0
230
1
0
LINE
5
E3
100
AcDbEntity
8
SK1
62
256
6
ByLayer
370
-1
48
1
60
0
100
AcDbLine
10
-53.633814
20
-6.340342
30
0
11
-53.633814
21
-12.140417
31
0
39
0
210
0
220
0
230
1
0
LINE
5
E4
100
AcDbEntity
8
SK1
62
256
6
ByLayer
370
-1
48
1
60
0
100
AcDbLine
10
-53.633814
20
12.140417
30
0
11
-53.633814
21
6.340342
31
0
39
0
210
0
220
0
230
1
0
LINE
5
E5
100
AcDbEntity
8
SK1
62
256
6
ByLayer
370
-1
48
1
60
0
100
AcDbLine
10
-56
20
-4.998547
30
0
11
-56
21
-11.49675
31
0
39
0
210
0
220
0
230
1
0
LINE
5
E6
100
AcDbEntity
8
SK1
62
256
6
ByLayer
370
-1
48
1
60
0
100
AcDbLine
10
-56
20
11.49675
30
0
11
-56
21
4.998547
31
0
39
0
210
0
220
0
230
1
0
LINE
5
E7
100
AcDbEntity
8
SK1
62
256
6
ByLayer
370
-1
48
1
60
0
100
AcDbLine
10
-56
20
4.998547
30
0
11
-56
21
-4.998547
31
0
39
0
210
0
220
0
230
1
0
LINE
5
E8
100
AcDbEntity
8
SK1
62
256
6
ByLayer
370
-1
48
1
60
0
100
AcDbLine
10
-6.5
20
6.998498
30
0
11
-6.5
21
-6.998498
31
0
39
0
210
0
220
0
230
1
0
LINE
5
E9
100
AcDbEntity
8
SK1
62
256
6
ByLayer
370
-1
48
1
60
0
100
AcDbLine
10
-55
20
6.998498
30
0
11
-54.6
21
6.998498
31
0
39
0
210
0
220
0
230
1
0
LINE
5
EA
100
AcDbEntity
8
SK1
62
256
6
ByLayer
370
-1
48
1
60
0
100
AcDbLine
10
-6.5
20
-6.998498
30
0
11
-52.6
21
-6.998498
31
0
39
0
210
0
220
0
230
1
0
LINE
5
EB
100
AcDbEntity
8
SK1
62
256
6
ByLayer
370
-1
48
1
60
0
100
AcDbLine
10
-54.516223
20
-6.812044
30
0
11
-54.516223
21
-12.393294
31
0
39
0
210
0
220
0
230
1
0
LINE
5
EC
100
AcDbEntity
8
SK1
62
256
6
ByLayer
370
-1
48
1
60
0
100
AcDbLine
10
-54.516223
20
12.393294
30
0
11
-54.516223
21
6.812044
31
0
39
0
210
0
220
0
230
1
0
LINE
5
ED
100
AcDbEntity
8
SK1
62
256
6
ByLayer
370
-1
48
1
60
0
100
AcDbLine
10
-54.6
20
-6.998498
30
0
11
-55
21
-6.998498
31
0
39
0
210
0
220
0
230
1
0
LINE
5
EE
100
AcDbEntity
8
SK1
62
256
6
ByLayer
370
-1
48
1
60
0
100
AcDbLine
10
-54.6
20
-12.49675
30
0
11
-54.6
21
-6.998498
31
0
39
0
210
0
220
0
230
1
0
LINE
5
EF
100
AcDbEntity
8
SK1
62
256
6
ByLayer
370
-1
48
1
60
0
100
AcDbLine
10
-54.6
20
6.998498
30
0
11
-54.6
21
12.49675
31
0
39
0
210
0
220
0
230
1
0
LINE
5
F0
100
AcDbEntity
8
SK1
62
256
6
ByLayer
370
-1
48
1
60
0
100
AcDbLine
10
-1.551212
20
12.287477
30
0
11
-1.551212
21
-12.287477
31
0
39
0
210
0
220
0
230
1
0
MTEXT
5
20C
100
AcDbEntity
8
SK6
62
256
6
ByLayer
370
-1
48
1
60
0
100
AcDbMText
10
0.79375
20
-80.79375
30
0
210
0
220
0
230
1
1
\W00.740;\fsimplex.shx,bigfont.shx;880-D2000L25-05 
40
3.175
41
0
44
1.084337
50
0
71
7
72
5
7
DEFAULT
0
DIMENSION
5
23C
100
AcDbEntity
8
SK2
62
256
6
ByLayer
370
-3
48
1
60
0
100
AcDbDimension
2
DimnDraft3D1
10
121
20
-54.86955
30
0
11
32.5
21
-54.86955
31
0
70
32
71
5
72
1
41
1
210
0
220
0
230
1
3
Standard
100
AcDbAlignedDimension
13
-56
23
-14.0875
33
0
14
121
24
-11.5875
34
0
50
0
100
AcDbRotatedDimension
1001
ACAD
1000
DSTYLE
1002
{
1070
   279
1070
     0
1070
   172
1070
     1
1070
   173
1070
     1
1070
   340
1005
20D
1070
   271
1070
     1
1070
   272
1070
     2
1070
    77
1070
     1
1070
    73
1070
     0
1070
   171
1070
     3
1070
   274
1070
     4
1070
   177
1070
   150
1070
   176
1070
     9
1070
   178
1070
    43
1070
    78
1070
     8
1070
    48
1040
-0.005
1070
    41
1041
4.175
1070
   147
1041
2.25
1070
    42
1041
1.5875
1070
    44
1041
3.175
1070
   140
1041
4.5
1070
   343
1005
0
1070
   344
1005
0
1002
}
0
DIMENSION
5
246
100
AcDbEntity
8
SK2
62
256
6
ByLayer
370
-3
48
1
60
0
100
AcDbDimension
2
DimnDraft3D2
10
0
20
-42.9008
30
0
11
-28
21
-42.9008
31
0
70
32
71
5
72
1
41
1
210
0
220
0
230
1
3
Standard
100
AcDbAlignedDimension
13
-56
23
-14.0875
33
0
14
0
24
-17.5875
34
0
50
0
100
AcDbRotatedDimension
1001
ACAD
1000
DSTYLE
1002
{
1070
   279
1070
     0
1070
   172
1070
     1
1070
   173
1070
     1
1070
   340
1005
20D
1070
   271
1070
     1
1070
   272
1070
     2
1070
    77
1070
     1
1070
    73
1070
     0
1070
   171
1070
     3
1070
   274
1070
     4
1070
   177
1070
   150
1070
   176
1070
     9
1070
   178
1070
    43
1070
    78
1070
     8
1070
    48
1040
-0.005
1070
    41
1041
4.175
1070
   147
1041
2.25
1070
    42
1041
1.5875
1070
    44
1041
3.175
1070
   140
1041
4.5
1070
   343
1005
0
1070
   344
1005
0
1002
}
0
DIMENSION
5
251
100
AcDbEntity
8
2
62
256
6
ByLayer
370
-3
48
1
60
0
100
AcDbDimension
2
DimnDraft3D3
10
121
20
-42.9008
30
0
11
60.5
21
-42.9008
31
0
70
32
71
5
72
1
41
1
210
0
220
0
230
1
3
Standard
100
AcDbAlignedDimension
13
0
23
-17.5875
33
0
14
121
24
-11.5875
34
0
50
0
100
AcDbRotatedDimension
1001
ACAD
1000
DSTYLE
1002
{
1070
   279
1070
     0
1070
   172
1070
     1
1070
   173
1070
     1
1070
   340
1005
20D
1070
   271
1070
     1
1070
   272
1070
     2
1070
    77
1070
     1
1070
    73
1070
     0
1070
   171
1070
     3
1070
   274
1070
     4
1070
   177
1070
   150
1070
   176
1070
     9
1070
   178
1070
    43
1070
    78
1070
     8
1070
    48
1040
-0.005
1070
    41
1041
4.175
1070
   147
1041
2.25
1070
    42
1041
1.5875
1070
    44
1041
3.175
1070
   140
1041
4.5
1070
   343
1005
0
1070
   344
1005
0
1002
}
0
DIMENSION
5
25B
100
AcDbEntity
8
SK2
62
256
6
ByLayer
370
-3
48
1
60
0
100
AcDbDimension
2
DimnDraft3D4
10
121
20
-32.9008
30
0
11
69
21
-32.9008
31
0
70
32
71
5
72
1
41
1
210
0
220
0
230
1
3
Standard
100
AcDbAlignedDimension
13
17
23
-11.5875
33
0
14
121
24
-11.5875
34
0
50
0
100
AcDbRotatedDimension
1001
ACAD
1000
DSTYLE
1002
{
1070
   279
1070
     0
1070
   172
1070
     1
1070
   173
1070
     1
1070
   340
1005
20D
1070
   271
1070
     1
1070
   272
1070
     2
1070
    77
1070
     1
1070
    73
1070
     0
1070
   171
1070
     3
1070
   274
1070
     4
1070
   177
1070
   150
1070
   176
1070
     9
1070
   178
1070
    43
1070
    78
1070
     8
1070
    48
1040
-0.005
1070
    41
1041
4.175
1070
   147
1041
2.25
1070
    42
1041
1.5875
1070
    44
1041
3.175
1070
   140
1041
4.5
1070
   343
1005
0
1070
   344
1005
0
1002
}
0
DIMENSION
5
266
100
AcDbEntity
8
SK2
62
256
6
ByLayer
370
-3
48
1
60
0
100
AcDbDimension
2
DimnDraft3D5
10
-67.9
20
-12.5
30
0
11
-68.1
21
4.121053
31
0
70
33
71
5
72
1
41
1
210
0
220
0
230
1
3
Standard
100
AcDbAlignedDimension
13
-57.5875
23
12.5
33
0
14
-57.5875
24
-12.5
34
0
1001
ACAD
1000
DSTYLE
1002
{
1070
   279
1070
     0
1070
    74
1070
     0
1070
   173
1070
     1
1070
   340
1005
20D
1070
   271
1070
     2
1070
   272
1070
     2
1070
    77
1070
     1
1070
    73
1070
     0
1070
   171
1070
     3
1070
   274
1070
     4
1070
   177
1070
   150
1070
   176
1070
     9
1070
   178
1070
    43
1070
    78
1070
     8
1070
    48
1040
-0.005
1070
    41
1041
4.175
1070
   147
1041
2.25
1070
    42
1041
1.5875
1070
    44
1041
3.175
1070
   140
1041
4.5
1070
   343
1005
0
1070
   344
1005
0
1002
}
0
DIMENSION
5
271
100
AcDbEntity
8
SK2
62
256
6
ByLayer
370
-3
48
1
60
0
100
AcDbDimension
2
DimnDraft3D6
10
-77.9
20
16
30
0
11
-78.1
21
4.121053
31
0
70
33
71
5
72
1
41
1
210
0
220
0
230
1
3
Standard
100
AcDbAlignedDimension
13
-1.5875
23
-16
33
0
14
-1.5875
24
16
34
0
1001
ACAD
1000
DSTYLE
1002
{
1070
   279
1070
     0
1070
    74
1070
     0
1070
   173
1070
     1
1070
   340
1005
20D
1070
   271
1070
     1
1070
   272
1070
     2
1070
    77
1070
     1
1070
    73
1070
     0
1070
   171
1070
     3
1070
   274
1070
     4
1070
   177
1070
   150
1070
   176
1070
     9
1070
   178
1070
    43
1070
    78
1070
     8
1070
    48
1040
-0.005
1070
    41
1041
4.175
1070
   147
1041
2.25
1070
    42
1041
1.5875
1070
    44
1041
3.175
1070
   140
1041
4.5
1070
   343
1005
0
1070
   344
1005
0
1002
}
0
DIMENSION
5
27C
100
AcDbEntity
8
2
62
256
6
ByLayer
370
-3
48
1
60
0
100
AcDbDimension
2
DimnDraft3D7
10
151.15
20
-10
30
0
11
144.6
21
-27.370395
31
0
70
33
71
5
72
1
41
1
210
0
220
0
230
1
3
Standard
100
AcDbAlignedDimension
13
122.5875
23
10
33
0
14
122.5875
24
-10
34
0
1001
ACAD
1000
DSTYLE
1002
{
1070
   279
1070
     0
1070
    74
1070
     0
1070
   173
1070
     1
1070
   340
1005
20D
1070
   271
1070
     2
1070
   272
1070
     2
1070
    77
1070
     1
1070
    73
1070
     0
1070
   171
1070
     3
1070
   274
1070
     4
1070
   177
1070
   150
1070
   176
1070
     9
1070
   178
1070
    43
1070
    78
1070
     8
1070
    48
1040
-0.005
1070
    41
1041
4.175
1070
   147
1041
2.25
1070
    42
1041
1.5875
1070
    44
1041
3.175
1070
   140
1041
4.5
1070
   343
1005
0
1070
   344
1005
0
1002
}
0
ENDSEC
0
SECTION
2
OBJECTS
0
DICTIONARY
5
2ad
330
0
100
AcDbDictionary
280
0
281
1
3
ACAD_GROUP
350
2ae
3
ACAD_MLINESTYLE
350
2af
0
DICTIONARY
5
2ae
330
0
100
AcDbDictionary
280
0
281
1
0
DICTIONARY
5
2af
330
0
100
AcDbDictionary
280
0
281
1
3
Standard
350
18
0
MLINESTYLE
5
18
330
2af
100
AcDbMlineStyle
2
Standard
70
0
3

62
256
51
90
52
90
71
2
49
-0.5
62
256
6
ByLayer
49
0.5
62
256
6
ByLayer
0
RASTERVARIABLES
5
29b
330

100
AcDbRasterVariables
90
0
70
1
71
1
72
1
0
ENDSEC
0
EOF
