0
SECTION
2
HEADER
9
$ACADVER
1
AC1015
9
$DWGCODEPAGE
3
ANSI_1252
9
$HANDSEED
5
2c0
9
$ANGBASE
50
0
9
$ANGDIR
70
0
9
$ATTMODE
70
1
9
$AUNITS
70
0
9
$AUPREC
70
0
9
$CECOLOR
62
256
9
$CELTSCALE
40
1
9
$CELTYPE
6
ByLayer
9
$CELWEIGHT
370
-1
9
$CLAYER
8
0
9
$CMLJUST
70
0
9
$CMLSCALE
40
1
9
$CMLSTYLE
2
Standard
9
$DIMSTYLE
2
Standard
9
$TEXTSIZE
40
0.2
9
$TEXTSTYLE
7
Standard
9
$LUNITS
70
2
9
$LUPREC
70
4
9
$EXTNAMES
290
1
9
$INSUNITS
70
4
9
$LTSCALE
40
1
9
$LWDISPLAY
290
0
9
$PDMODE
70
0
9
$PDSIZE
40
0
9
$PLINEGEN
70
0
0
ENDSEC
0
SECTION
2
CLASSES
0
CLASS
1
RASTERVARIABLES
2
AcDbRasterVariables
3
ISM
90
0
280
0
281
0
0
ENDSEC
0
SECTION
2
TABLES
0
TABLE
2
VPORT
5
2b6
100
AcDbSymbolTable
0
VPORT
5
1
100
AcDbSymbolTableRecord
100
AcDbViewportTableRecord
2
*Active
70
0
10
0
20
0
11
1
21
1
12
-1
22
1
13
0
23
0
14
0.5
24
0.5
15
10
25
10
16
0
26
0
36
1
17
0
27
0
37
0
0
ENDTAB
0
TABLE
2
LTYPE
5
2b7
100
AcDbSymbolTable
0
LTYPE
5
14
100
AcDbSymbolTableRecord
100
AcDbLinetypeTableRecord
70
0
2
ByBlock
3

72
65
73
0
40
0
0
LTYPE
5
15
100
AcDbSymbolTableRecord
100
AcDbLinetypeTableRecord
70
0
2
ByLayer
3

72
65
73
0
40
0
0
LTYPE
5
16
100
AcDbSymbolTableRecord
100
AcDbLinetypeTableRecord
70
0
2
CONTINUOUS
3
Solid line
72
65
73
0
40
0
0
LTYPE
5
3B
100
AcDbSymbolTableRecord
100
AcDbLinetypeTableRecord
70
0
2
DASHED
3
__ __ __ __ __ __ __ __ __
72
65
73
2
40
25.72
49
12.86
74
0
49
-12.86
74
0
0
LTYPE
5
3C
100
AcDbSymbolTableRecord
100
AcDbLinetypeTableRecord
70
0
2
HIDDEN
3
_ _ _ _ _ _ _ _ _ _ _ _ _ _ _
72
65
73
2
40
0.5
49
0.25
74
0
49
-0.25
74
0
0
LTYPE
5
3D
100
AcDbSymbolTableRecord
100
AcDbLinetypeTableRecord
70
0
2
PHANTOM
3
____ _ _ ____ _ _ _____ _ _ ____
72
65
73
6
40
50.5
49
18
74
0
49
-6.5
74
0
49
6.5
74
0
49
-6.5
74
0
49
6.5
74
0
49
-6.5
74
0
0
LTYPE
5
3E
100
AcDbSymbolTableRecord
100
AcDbLinetypeTableRecord
70
0
2
CENTER
3
____ _ ____ _ ____ _ ____
72
65
73
4
40
47.5
49
22
74
0
49
-8.5
74
0
49
8.5
74
0
49
-8.5
74
0
0
LTYPE
5
3F
100
AcDbSymbolTableRecord
100
AcDbLinetypeTableRecord
70
0
2
DOT
3
.........................
72
65
73
2
40
10
49
0
74
0
49
-10
74
0
0
LTYPE
5
40
100
AcDbSymbolTableRecord
100
AcDbLinetypeTableRecord
70
0
2
DASHDOT
3
_._._._._._._._._._._._._._._._.
72
65
73
4
40
70
49
31
74
0
49
-13
74
0
49
13
74
0
49
-13
74
0
0
ENDTAB
0
TABLE
2
LAYER
5
2b8
100
AcDbSymbolTable
0
LAYER
5
10
100
AcDbSymbolTableRecord
100
AcDbLayerTableRecord
2
0
70
0
62
7
6
CONTINUOUS
290
1
370
-3
390
0
0
LAYER
5
42
100
AcDbSymbolTableRecord
100
AcDbLayerTableRecord
2
81
70
0
62
-3
6
CONTINUOUS
290
1
370
-3
390
0
0
LAYER
5
44
100
AcDbSymbolTableRecord
100
AcDbLayerTableRecord
2
80
70
0
62
-6
6
CONTINUOUS
290
1
370
-3
390
0
0
LAYER
5
48
100
AcDbSymbolTableRecord
100
AcDbLayerTableRecord
2
1
70
0
62
4
6
CONTINUOUS
290
1
370
-3
390
0
0
LAYER
5
63
100
AcDbSymbolTableRecord
100
AcDbLayerTableRecord
2
4
70
0
62
-2
6
CENTER
290
1
370
-3
390
0
0
LAYER
5
24F
100
AcDbSymbolTableRecord
100
AcDbLayerTableRecord
2
2
70
0
62
7
6
CONTINUOUS
290
1
370
-3
390
0
0
LAYER
5
2a2
100
AcDbSymbolTableRecord
100
AcDbLayerTableRecord
2
SK1
70
0
62
4
6
CONTINUOUS
290
1
370
-3
390
0
0
LAYER
5
2a3
100
AcDbSymbolTableRecord
100
AcDbLayerTableRecord
2
SK4
70
0
62
2
6
CENTER
290
1
370
-3
390
0
0
LAYER
5
2a4
100
AcDbSymbolTableRecord
100
AcDbLayerTableRecord
2
SK6
70
0
62
5
6
CONTINUOUS
290
1
370
-3
390
0
0
LAYER
5
2a5
100
AcDbSymbolTableRecord
100
AcDbLayerTableRecord
2
SK2
70
0
62
7
6
CONTINUOUS
290
1
370
-3
390
0
0
ENDTAB
0
TABLE
2
STYLE
5
2b9
100
AcDbSymbolTable
0
STYLE
5
11
100
AcDbSymbolTableRecord
100
AcDbTextStyleTableRecord
2
Standard
3
txt
70
0
71
0
40
0
41
1
42
0
50
0
0
STYLE
5
213
100
AcDbSymbolTableRecord
100
AcDbTextStyleTableRecord
2
DEFAULT
3
simplex.shx
70
0
71
0
40
0
41
1
42
0
50
0
0
STYLE
5
236
100
AcDbSymbolTableRecord
100
AcDbTextStyleTableRecord
2
DWGDirectTextStyle
3
SIMPLEX
70
0
71
0
40
0
41
1
42
0
50
0
0
ENDTAB
0
TABLE
2
DIMSTYLE
5
2ba
100
AcDbSymbolTable
100
AcDbDimStyleTable
0
DIMSTYLE
105
27
100
AcDbSymbolTableRecord
100
AcDbDimStyleTableRecord
2
Standard
70
0
3
<>
41
0.18
42
0.0625
44
0.18
140
0.18
147
0.09
73
0
74
0
77
1
271
2
275
0
278
52
280
0
340
11
0
ENDTAB
0
TABLE
2
VIEW
5
2bb
100
AcDbSymbolTable
0
ENDTAB
0
TABLE
2
UCS
5
2bc
100
AcDbSymbolTable
0
ENDTAB
0
TABLE
2
APPID
5
2bd
100
AcDbSymbolTable
0
APPID
5
12
100
AcDbSymbolTableRecord
100
AcDbRegAppTableRecord
2
ACAD
70
0
0
ENDTAB
0
TABLE
2
BLOCK_RECORD
5
2be
100
AcDbSymbolTable
0
BLOCK_RECORD
5
1F
100
AcDbSymbolTableRecord
100
AcDbBlockTableRecord
2
*Model_Space
340
0
70
0
0
BLOCK_RECORD
5
1B
100
AcDbSymbolTableRecord
100
AcDbBlockTableRecord
2
*Paper_Space
340
0
70
0
0
BLOCK_RECORD
5
23
100
AcDbSymbolTableRecord
100
AcDbBlockTableRecord
2
*Paper_Space0
340
0
70
0
0
BLOCK_RECORD
5
238
100
AcDbSymbolTableRecord
100
AcDbBlockTableRecord
2
DimnDraft3D1
340
0
70
0
0
BLOCK_RECORD
5
243
100
AcDbSymbolTableRecord
100
AcDbBlockTableRecord
2
DimnDraft3D2
340
0
70
0
0
BLOCK_RECORD
5
24D
100
AcDbSymbolTableRecord
100
AcDbBlockTableRecord
2
DimnDraft3D3
340
0
70
0
0
BLOCK_RECORD
5
258
100
AcDbSymbolTableRecord
100
AcDbBlockTableRecord
2
DimnDraft3D4
340
0
70
0
0
BLOCK_RECORD
5
262
100
AcDbSymbolTableRecord
100
AcDbBlockTableRecord
2
DimnDraft3D5
340
0
70
0
0
BLOCK_RECORD
5
26D
100
AcDbSymbolTableRecord
100
AcDbBlockTableRecord
2
DimnDraft3D6
340
0
70
0
0
BLOCK_RECORD
5
278
100
AcDbSymbolTableRecord
100
AcDbBlockTableRecord
2
DimnDraft3D7
340
0
70
0
0
ENDTAB
0
ENDSEC
0
SECTION
2
BLOCKS
0
BLOCK
5
20
100
AcDbEntity
8
0
100
AcDbBlockBegin
2
*Model_Space
70
0
10
0
20
0
30
0
3
*Model_Space
0
ENDBLK
5
21
100
AcDbEntity
8
0
100
AcDbBlockEnd
0
BLOCK
5
1C
100
AcDbEntity
8
0
100
AcDbBlockBegin
2
*Paper_Space
70
0
10
0
20
0
30
0
3
*Paper_Space
0
ENDBLK
5
1D
100
AcDbEntity
8
0
100
AcDbBlockEnd
0
BLOCK
5
24
100
AcDbEntity
8
0
100
AcDbBlockBegin
2
*Paper_Space0
70
0
10
0
20
0
30
0
3
*Paper_Space0
0
ENDBLK
5
25
100
AcDbEntity
8
0
100
AcDbBlockEnd
0
BLOCK
5
240
100
AcDbEntity
8
0
100
AcDbBlockBegin
2
DimnDraft3D1
70
0
10
0
20
0
30
0
3
DimnDraft3D1
0
MTEXT
5
239
100
AcDbEntity
8
SK2
62
256
6
ByLayer
370
-1
48
1
60
0
100
AcDbMText
10
15.406579
20
-51.7758
30
0
210
0
220
0
230
1
1
\W01.000;\fsimplex.shx,bigfont.shx;(157) 
40
4.5
41
0
44
1.084337
50
0
71
7
72
5
7
DEFAULT
0
LINE
5
23B
100
AcDbEntity
8
SK2
62
256
6
ByLayer
370
-1
48
1
60
0
100
AcDbLine
10
-56
20
-14.0875
30
0
11
-56
21
-58.04455
31
0
39
0
210
0
220
0
230
1
0
LINE
5
23C
100
AcDbEntity
8
SK2
62
256
6
ByLayer
370
-1
48
1
60
0
100
AcDbLine
10
101
20
-11.5875
30
0
11
101
21
-58.04455
31
0
39
0
210
0
220
0
230
1
0
LINE
5
23D
100
AcDbEntity
8
SK2
62
256
6
ByLayer
370
-1
48
1
60
0
100
AcDbLine
10
-56
20
-54.86955
30
0
11
101
21
-54.86955
31
0
39
0
210
0
220
0
230
1
0
SOLID
5
23E
100
AcDbEntity
8
SK2
62
256
6
ByLayer
370
-1
48
1
60
0
100
AcDbTrace
10
-56
20
-54.86955
30
0
11
-51.825003
21
-53.943975
31
0
12
-51.824997
22
-55.795125
32
0
13
-56
23
-54.86955
33
0
39
0
210
0
220
0
230
1
0
SOLID
5
23F
100
AcDbEntity
8
SK2
62
256
6
ByLayer
370
-1
48
1
60
0
100
AcDbTrace
10
101
20
-54.86955
30
0
11
96.825003
21
-55.795125
31
0
12
96.824997
22
-53.943975
32
0
13
101
23
-54.86955
33
0
39
0
210
0
220
0
230
1
0
ENDBLK
5
241
100
AcDbEntity
8
0
100
AcDbBlockEnd
0
BLOCK
5
24A
100
AcDbEntity
8
0
100
AcDbBlockBegin
2
DimnDraft3D2
70
0
10
0
20
0
30
0
3
DimnDraft3D2
0
MTEXT
5
244
100
AcDbEntity
8
SK2
62
256
6
ByLayer
370
-1
48
1
60
0
100
AcDbMText
10
-29.503947
20
-41.7758
30
0
210
0
220
0
230
1
1
\W01.000;\fsimplex.shx,bigfont.shx;56 
40
4.5
41
0
44
1.084337
50
0
71
7
72
5
7
DEFAULT
0
LINE
5
245
100
AcDbEntity
8
SK2
62
256
6
ByLayer
370
-1
48
1
60
0
100
AcDbLine
10
-56
20
-14.0875
30
0
11
-56
21
-46.0758
31
0
39
0
210
0
220
0
230
1
0
LINE
5
246
100
AcDbEntity
8
SK2
62
256
6
ByLayer
370
-1
48
1
60
0
100
AcDbLine
10
0
20
-17.5875
30
0
11
0
21
-46.0758
31
0
39
0
210
0
220
0
230
1
0
LINE
5
247
100
AcDbEntity
8
SK2
62
256
6
ByLayer
370
-1
48
1
60
0
100
AcDbLine
10
-56
20
-42.9008
30
0
11
0
21
-42.9008
31
0
39
0
210
0
220
0
230
1
0
SOLID
5
248
100
AcDbEntity
8
SK2
62
256
6
ByLayer
370
-1
48
1
60
0
100
AcDbTrace
10
-56
20
-42.9008
30
0
11
-51.825003
21
-41.975225
31
0
12
-51.824997
22
-43.826375
32
0
13
-56
23
-42.9008
33
0
39
0
210
0
220
0
230
1
0
SOLID
5
249
100
AcDbEntity
8
SK2
62
256
6
ByLayer
370
-1
48
1
60
0
100
AcDbTrace
10
0
20
-42.9008
30
0
11
-4.174997
21
-43.826375
31
0
12
-4.175003
22
-41.975225
32
0
13
0
23
-42.9008
33
0
39
0
210
0
220
0
230
1
0
ENDBLK
5
24B
100
AcDbEntity
8
0
100
AcDbBlockEnd
0
BLOCK
5
255
100
AcDbEntity
8
0
100
AcDbBlockBegin
2
DimnDraft3D3
70
0
10
0
20
0
30
0
3
DimnDraft3D3
0
MTEXT
5
24E
100
AcDbEntity
8
2
62
256
6
ByLayer
370
-1
48
1
60
0
100
AcDbMText
10
48.469079
20
-41.7758
30
0
210
0
220
0
230
1
1
\W01.000;\fsimplex.shx,bigfont.shx;101 
40
4.5
41
0
44
1.084337
50
0
71
7
72
5
7
DEFAULT
0
LINE
5
250
100
AcDbEntity
8
2
62
256
6
ByLayer
370
-1
48
1
60
0
100
AcDbLine
10
0
20
-17.5875
30
0
11
0
21
-46.0758
31
0
39
0
210
0
220
0
230
1
0
LINE
5
251
100
AcDbEntity
8
2
62
256
6
ByLayer
370
-1
48
1
60
0
100
AcDbLine
10
101
20
-11.5875
30
0
11
101
21
-46.0758
31
0
39
0
210
0
220
0
230
1
0
LINE
5
252
100
AcDbEntity
8
2
62
256
6
ByLayer
370
-1
48
1
60
0
100
AcDbLine
10
0
20
-42.9008
30
0
11
101
21
-42.9008
31
0
39
0
210
0
220
0
230
1
0
SOLID
5
253
100
AcDbEntity
8
2
62
256
6
ByLayer
370
-1
48
1
60
0
100
AcDbTrace
10
0
20
-42.9008
30
0
11
4.174997
21
-41.975225
31
0
12
4.175003
22
-43.826375
32
0
13
0
23
-42.9008
33
0
39
0
210
0
220
0
230
1
0
SOLID
5
254
100
AcDbEntity
8
2
62
256
6
ByLayer
370
-1
48
1
60
0
100
AcDbTrace
10
101
20
-42.9008
30
0
11
96.825003
21
-43.826375
31
0
12
96.824997
22
-41.975225
32
0
13
101
23
-42.9008
33
0
39
0
210
0
220
0
230
1
0
ENDBLK
5
256
100
AcDbEntity
8
0
100
AcDbBlockEnd
0
BLOCK
5
25F
100
AcDbEntity
8
0
100
AcDbBlockBegin
2
DimnDraft3D4
70
0
10
0
20
0
30
0
3
DimnDraft3D4
0
MTEXT
5
259
100
AcDbEntity
8
SK2
62
256
6
ByLayer
370
-1
48
1
60
0
100
AcDbMText
10
57.259211
20
-31.7758
30
0
210
0
220
0
230
1
1
\W01.000;\fsimplex.shx,bigfont.shx;84 
40
4.5
41
0
44
1.084337
50
0
71
7
72
5
7
DEFAULT
0
LINE
5
25A
100
AcDbEntity
8
SK2
62
256
6
ByLayer
370
-1
48
1
60
0
100
AcDbLine
10
17
20
-11.5875
30
0
11
17
21
-36.0758
31
0
39
0
210
0
220
0
230
1
0
LINE
5
25B
100
AcDbEntity
8
SK2
62
256
6
ByLayer
370
-1
48
1
60
0
100
AcDbLine
10
101
20
-11.5875
30
0
11
101
21
-36.0758
31
0
39
0
210
0
220
0
230
1
0
LINE
5
25C
100
AcDbEntity
8
SK2
62
256
6
ByLayer
370
-1
48
1
60
0
100
AcDbLine
10
17
20
-32.9008
30
0
11
101
21
-32.9008
31
0
39
0
210
0
220
0
230
1
0
SOLID
5
25D
100
AcDbEntity
8
SK2
62
256
6
ByLayer
370
-1
48
1
60
0
100
AcDbTrace
10
17
20
-32.9008
30
0
11
21.174997
21
-31.975225
31
0
12
21.175003
22
-33.826375
32
0
13
17
23
-32.9008
33
0
39
0
210
0
220
0
230
1
0
SOLID
5
25E
100
AcDbEntity
8
SK2
62
256
6
ByLayer
370
-1
48
1
60
0
100
AcDbTrace
10
101
20
-32.9008
30
0
11
96.825003
21
-33.826375
31
0
12
96.824997
22
-31.975225
32
0
13
101
23
-32.9008
33
0
39
0
210
0
220
0
230
1
0
ENDBLK
5
260
100
AcDbEntity
8
0
100
AcDbBlockEnd
0
BLOCK
5
26A
100
AcDbEntity
8
0
100
AcDbBlockBegin
2
DimnDraft3D5
70
0
10
0
20
0
30
0
3
DimnDraft3D5
0
MTEXT
5
263
100
AcDbEntity
8
SK2
62
256
6
ByLayer
370
-1
48
1
60
0
100
AcDbMText
10
-66.975
20
5.246053
30
0
210
0
220
0
230
1
1
\W01.000;\fsimplex.shx,bigfont.shx;25 
40
4.5
41
0
44
1.084337
50
90
71
7
72
5
7
DEFAULT
0
MTEXT
5
264
100
AcDbEntity
8
SK2
62
256
6
ByLayer
370
-1
48
1
60
0
100
AcDbMText
10
-66.975
20
-8.253947
30
0
210
0
220
0
230
1
1
\W01.000;\fsimplex.shx,bigfont.shx;%%c 
40
4.5
41
0
44
1.084337
50
90
71
7
72
5
7
DEFAULT
0
LINE
5
265
100
AcDbEntity
8
SK2
62
256
6
ByLayer
370
-1
48
1
60
0
100
AcDbLine
10
-57.5875
20
12.5
30
0
11
-67.9
21
12.5
31
0
39
0
210
0
220
0
230
1
0
LINE
5
266
100
AcDbEntity
8
SK2
62
256
6
ByLayer
370
-1
48
1
60
0
100
AcDbLine
10
-57.5875
20
-12.5
30
0
11
-67.9
21
-12.5
31
0
39
0
210
0
220
0
230
1
0
LINE
5
267
100
AcDbEntity
8
SK2
62
256
6
ByLayer
370
-1
48
1
60
0
100
AcDbLine
10
-64.725
20
23.75
30
0
11
-64.725
21
-23.75
31
0
39
0
210
0
220
0
230
1
0
SOLID
5
268
100
AcDbEntity
8
SK2
62
256
6
ByLayer
370
-1
48
1
60
0
100
AcDbTrace
10
-64.725
20
12.5
30
0
11
-65.650575
21
16.674997
31
0
12
-63.799425
22
16.675003
32
0
13
-64.725
23
12.5
33
0
39
0
210
0
220
0
230
1
0
SOLID
5
269
100
AcDbEntity
8
SK2
62
256
6
ByLayer
370
-1
48
1
60
0
100
AcDbTrace
10
-64.725
20
-12.5
30
0
11
-63.799425
21
-16.674997
31
0
12
-65.650575
22
-16.675003
32
0
13
-64.725
23
-12.5
33
0
39
0
210
0
220
0
230
1
0
ENDBLK
5
26B
100
AcDbEntity
8
0
100
AcDbBlockEnd
0
BLOCK
5
275
100
AcDbEntity
8
0
100
AcDbBlockBegin
2
DimnDraft3D6
70
0
10
0
20
0
30
0
3
DimnDraft3D6
0
MTEXT
5
26E
100
AcDbEntity
8
SK2
62
256
6
ByLayer
370
-1
48
1
60
0
100
AcDbMText
10
-76.975
20
5.246053
30
0
210
0
220
0
230
1
1
\W01.000;\fsimplex.shx,bigfont.shx;32 
40
4.5
41
0
44
1.084337
50
90
71
7
72
5
7
DEFAULT
0
MTEXT
5
26F
100
AcDbEntity
8
SK2
62
256
6
ByLayer
370
-1
48
1
60
0
100
AcDbMText
10
-76.975
20
-8.253947
30
0
210
0
220
0
230
1
1
\W01.000;\fsimplex.shx,bigfont.shx;%%c 
40
4.5
41
0
44
1.084337
50
90
71
7
72
5
7
DEFAULT
0
LINE
5
270
100
AcDbEntity
8
SK2
62
256
6
ByLayer
370
-1
48
1
60
0
100
AcDbLine
10
-1.5875
20
-16
30
0
11
-77.9
21
-16
31
0
39
0
210
0
220
0
230
1
0
LINE
5
271
100
AcDbEntity
8
SK2
62
256
6
ByLayer
370
-1
48
1
60
0
100
AcDbLine
10
-1.5875
20
16
30
0
11
-77.9
21
16
31
0
39
0
210
0
220
0
230
1
0
LINE
5
272
100
AcDbEntity
8
SK2
62
256
6
ByLayer
370
-1
48
1
60
0
100
AcDbLine
10
-74.725
20
-16
30
0
11
-74.725
21
16
31
0
39
0
210
0
220
0
230
1
0
SOLID
5
273
100
AcDbEntity
8
SK2
62
256
6
ByLayer
370
-1
48
1
60
0
100
AcDbTrace
10
-74.725
20
-16
30
0
11
-75.650575
21
-11.825003
31
0
12
-73.799425
22
-11.824997
32
0
13
-74.725
23
-16
33
0
39
0
210
0
220
0
230
1
0
SOLID
5
274
100
AcDbEntity
8
SK2
62
256
6
ByLayer
370
-1
48
1
60
0
100
AcDbTrace
10
-74.725
20
16
30
0
11
-73.799425
21
11.825003
31
0
12
-75.650575
22
11.824997
32
0
13
-74.725
23
16
33
0
39
0
210
0
220
0
230
1
0
ENDBLK
5
276
100
AcDbEntity
8
0
100
AcDbBlockEnd
0
BLOCK
5
280
100
AcDbEntity
8
0
100
AcDbBlockBegin
2
DimnDraft3D7
70
0
10
0
20
0
30
0
3
DimnDraft3D7
0
MTEXT
5
279
100
AcDbEntity
8
2
62
256
6
ByLayer
370
-1
48
1
60
0
100
AcDbMText
10
125.725
20
-26.245395
30
0
210
0
220
0
230
1
1
\W01.000;\fsimplex.shx,bigfont.shx;20 
40
4.5
41
0
44
1.084337
50
90
71
7
72
5
7
DEFAULT
0
MTEXT
5
27A
100
AcDbEntity
8
2
62
256
6
ByLayer
370
-1
48
1
60
0
100
AcDbMText
10
125.725
20
-39.745395
30
0
210
0
220
0
230
1
1
\W01.000;\fsimplex.shx,bigfont.shx;%%c 
40
4.5
41
0
44
1.084337
50
90
71
7
72
5
7
DEFAULT
0
LINE
5
27B
100
AcDbEntity
8
2
62
256
6
ByLayer
370
-1
48
1
60
0
100
AcDbLine
10
102.5875
20
10
30
0
11
131.15
21
10
31
0
39
0
210
0
220
0
230
1
0
LINE
5
27C
100
AcDbEntity
8
2
62
256
6
ByLayer
370
-1
48
1
60
0
100
AcDbLine
10
102.5875
20
-10
30
0
11
131.15
21
-10
31
0
39
0
210
0
220
0
230
1
0
LINE
5
27D
100
AcDbEntity
8
2
62
256
6
ByLayer
370
-1
48
1
60
0
100
AcDbLine
10
127.975
20
10
30
0
11
127.975
21
-40.870395
31
0
39
0
210
0
220
0
230
1
0
SOLID
5
27E
100
AcDbEntity
8
2
62
256
6
ByLayer
370
-1
48
1
60
0
100
AcDbTrace
10
127.975
20
10
30
0
11
128.900575
21
5.825003
31
0
12
127.049425
22
5.824997
32
0
13
127.975
23
10
33
0
39
0
210
0
220
0
230
1
0
SOLID
5
27F
100
AcDbEntity
8
2
62
256
6
ByLayer
370
-1
48
1
60
0
100
AcDbTrace
10
127.975
20
-10
30
0
11
127.049425
21
-5.825003
31
0
12
128.900575
22
-5.824997
32
0
13
127.975
23
-10
33
0
39
0
210
0
220
0
230
1
0
ENDBLK
5
281
100
AcDbEntity
8
0
100
AcDbBlockEnd
0
ENDSEC
0
SECTION
2
ENTITIES
0
ARC
5
F4
100
AcDbEntity
8
SK1
62
256
6
ByLayer
370
-1
48
1
60
0
100
AcDbCircle
39
0
10
1.382165
20
12.65
30
0
40
0.4
210
0
220
0
230
-1
100
AcDbArc
50
270
51
295
0
ARC
5
F5
100
AcDbEntity
8
SK1
62
256
6
ByLayer
370
-1
48
1
60
0
100
AcDbCircle
39
0
10
1.382165
20
-12.65
30
0
40
0.4
210
0
220
0
230
-1
100
AcDbArc
50
65
51
90
0
ARC
5
F6
100
AcDbEntity
8
SK1
62
256
6
ByLayer
370
-1
48
1
60
0
100
AcDbCircle
39
0
10
0.15
20
12.65
30
0
40
0.4
210
0
220
0
230
-1
100
AcDbArc
50
247.975687
51
270
0
ARC
5
F7
100
AcDbEntity
8
SK1
62
256
6
ByLayer
370
-1
48
1
60
0
100
AcDbCircle
39
0
10
0.15
20
-12.65
30
0
40
0.4
210
0
220
0
230
-1
100
AcDbArc
50
90
51
112.024313
0
ARC
5
F8
100
AcDbEntity
8
SK1
62
256
6
ByLayer
370
-1
48
1
60
0
100
AcDbCircle
39
0
10
53.894506
20
12.89675
30
0
40
0.8
210
0
220
0
230
-1
100
AcDbArc
50
250.982048
51
321
0
ARC
5
F9
100
AcDbEntity
8
SK1
62
256
6
ByLayer
370
-1
48
1
60
0
100
AcDbCircle
39
0
10
53.894506
20
-12.89675
30
0
40
0.8
210
0
220
0
230
-1
100
AcDbArc
50
39
51
109.017952
0
ELLIPSE
5
FA
100
AcDbEntity
8
1
62
256
6
ByLayer
370
-1
48
1
60
0
100
AcDbEllipse
10
93.35412
20
1E-06
30
0
11
-0.31083203571003
21
9.59996018169765
31
0
210
0
220
0
230
-1
40
0.087398
41
-0.0196876391895528
42
0.0127599805544969
0
ELLIPSE
5
FB
100
AcDbEntity
8
1
62
256
6
ByLayer
370
-1
48
1
60
0
100
AcDbEllipse
10
93.738833
20
6.87766
30
0
11
-0.579980162185287
21
-0.618336925955227
31
0
210
0
220
0
230
-1
40
0.04503
41
-0.791576830029449
42
-0.359511934384838
0
ELLIPSE
5
FC
100
AcDbEntity
8
1
62
256
6
ByLayer
370
-1
48
1
60
0
100
AcDbEllipse
10
88.39417
20
4.304086
30
0
11
3.87983795022938
21
-1.72084181362496
31
0
210
0
220
0
230
1
40
0.035449
41
0.482940302129904
42
0.695919854278735
0
ELLIPSE
5
FD
100
AcDbEntity
8
1
62
256
6
ByLayer
370
-1
48
1
60
0
100
AcDbEllipse
10
100.204973
20
-4.9553
30
0
11
-0.0575198636740972
21
-0.65828233247013
31
0
210
0
220
0
230
-1
40
0.115977
41
0.0117126501976897
42
1.58250897699481
0
ELLIPSE
5
FE
100
AcDbEntity
8
1
62
256
6
ByLayer
370
-1
48
1
60
0
100
AcDbEllipse
10
94.442512
20
8.315646
30
0
11
6.09155738004463E-15
21
5.2
31
0
210
0
220
0
230
1
40
0.996195
41
2.72271363311116
42
2.82017770552679
0
ELLIPSE
5
FF
100
AcDbEntity
8
1
62
256
6
ByLayer
370
-1
48
1
60
0
100
AcDbEllipse
10
47.059636
20
0
30
0
11
-170.732513120412
21
-9.28378200195189
31
0
210
0
220
0
230
-1
40
0.014313
41
-1.87953074894562
42
-1.84837418443553
0
ELLIPSE
5
100
100
AcDbEntity
8
1
62
256
6
ByLayer
370
-1
48
1
60
0
100
AcDbEllipse
10
89.328741
20
5.67
30
0
11
2.87493691156174E-15
21
2.45416254127307
31
0
210
0
220
0
230
1
40
0.996195
41
-2.27687256656431
42
-1.5707963267949
0
ELLIPSE
5
101
100
AcDbEntity
8
1
62
256
6
ByLayer
370
-1
48
1
60
0
100
AcDbEllipse
10
97.117644
20
6.028199
30
0
11
1.75718001347441E-15
21
1.5
31
0
210
0
220
0
230
1
40
0.996195
41
-1.54046055081385
42
0
0
ELLIPSE
5
102
100
AcDbEntity
8
1
62
256
6
ByLayer
370
-1
48
1
60
0
100
AcDbEllipse
10
97.117644
20
6.028199
30
0
11
1.75718001347441E-15
21
1.5
31
0
210
0
220
0
230
1
40
0.996195
41
0
42
0.510607148495788
0
ELLIPSE
5
103
100
AcDbEntity
8
1
62
256
6
ByLayer
370
-1
48
1
60
0
100
AcDbEllipse
10
97.117644
20
6.028199
30
0
11
1.75718001347441E-15
21
1.5
31
0
210
0
220
0
230
1
40
0.996195
41
1.57079621539443
42
-1.5707965861506
0
ELLIPSE
5
104
100
AcDbEntity
8
1
62
256
6
ByLayer
370
-1
48
1
60
0
100
AcDbEllipse
10
99.135574
20
0
30
0
11
-21.8448993723921
21
9.30309885877723
31
0
210
0
220
0
230
-1
40
0.108448
41
-1.24659750972547
42
-0.671977997658524
0
ELLIPSE
5
105
100
AcDbEntity
8
1
62
256
6
ByLayer
370
-1
48
1
60
0
100
AcDbEllipse
10
97.187369
20
6.028199
30
0
11
1.46431667789534E-15
21
1.25
31
0
210
0
220
0
230
1
40
0.996195
41
-2.35825588077847
42
0
0
ELLIPSE
5
106
100
AcDbEntity
8
1
62
256
6
ByLayer
370
-1
48
1
60
0
100
AcDbEllipse
10
97.187369
20
6.028199
30
0
11
1.46431667789534E-15
21
1.25
31
0
210
0
220
0
230
1
40
0.996195
41
0
42
1.57079605281728
0
ELLIPSE
5
107
100
AcDbEntity
8
1
62
256
6
ByLayer
370
-1
48
1
60
0
100
AcDbEllipse
10
97.187369
20
6.028199
30
0
11
1.46431667789534E-15
21
1.25
31
0
210
0
220
0
230
1
40
0.996195
41
1.57079634872777
42
1.80887004062054
0
ELLIPSE
5
108
100
AcDbEntity
8
1
62
256
6
ByLayer
370
-1
48
1
60
0
100
AcDbEllipse
10
87.103357
20
3.136634
30
0
11
-12.6069119492874
21
0.663201692330162
31
0
210
0
220
0
230
-1
40
0.000295
41
-3.13682140390016
42
-3.13598037553237
0
ELLIPSE
5
109
100
AcDbEntity
8
1
62
256
6
ByLayer
370
-1
48
1
60
0
100
AcDbEllipse
10
97.413974
20
6.028199
30
0
11
1.46431667789534E-15
21
1.25
31
0
210
0
220
0
230
1
40
0.996195
41
0.0912039921120624
42
1.57079634872777
0
ELLIPSE
5
10A
100
AcDbEntity
8
1
62
256
6
ByLayer
370
-1
48
1
60
0
100
AcDbEllipse
10
97.413974
20
6.028199
30
0
11
1.46431667789534E-15
21
1.25
31
0
210
0
220
0
230
1
40
0.996195
41
1.57079634872777
42
2.64306111599982
0
ELLIPSE
5
10B
100
AcDbEntity
8
1
62
256
6
ByLayer
370
-1
48
1
60
0
100
AcDbEllipse
10
94.372788
20
8.315646
30
0
11
-6.43121623664089E-15
21
-6
31
0
210
0
220
0
230
1
40
0.996195
41
-0.418879020478638
42
-0.160377198616537
0
ELLIPSE
5
10C
100
AcDbEntity
8
1
62
256
6
ByLayer
370
-1
48
1
60
0
100
AcDbEllipse
10
93.542173
20
5.127272
30
0
11
-0.599695201525335
21
-0.0191223760942029
31
0
210
0
220
0
230
1
40
0.002788
41
0.0872220186670827
42
1.32520647544537
0
ELLIPSE
5
10D
100
AcDbEntity
8
1
62
256
6
ByLayer
370
-1
48
1
60
0
100
AcDbEllipse
10
97.110593
20
-1.624612
30
0
11
1.35
21
0
31
0
210
0
220
0
230
1
40
0.997564
41
0
42
3.141592621704
0
ELLIPSE
5
10E
100
AcDbEntity
8
1
62
256
6
ByLayer
370
-1
48
1
60
0
100
AcDbEllipse
10
100.234702
20
0
30
0
11
-0.592570157596061
21
9.59974295743135
31
0
210
0
220
0
230
-1
40
0.118552
41
-2.04927003489816
42
-1.51212246315171
0
ELLIPSE
5
10F
100
AcDbEntity
8
1
62
256
6
ByLayer
370
-1
48
1
60
0
100
AcDbEllipse
10
81.477894
20
7.333692
30
0
11
-10.9626396983671
21
5.79281802050503
31
0
210
0
220
0
230
-1
40
0.09679
41
-2.76463962834025
42
-1.69069159357429
0
ELLIPSE
5
110
100
AcDbEntity
8
1
62
256
6
ByLayer
370
-1
48
1
60
0
100
AcDbEllipse
10
99.914499
20
3.063493
30
0
11
-0.0540782317404183
21
0.603593781136163
31
0
210
0
220
0
230
-1
40
0.114848
41
2.32274500403069
42
-3.1297640368716
0
ELLIPSE
5
111
100
AcDbEntity
8
1
62
256
6
ByLayer
370
-1
48
1
60
0
100
AcDbEllipse
10
92.800502
20
5.92
30
0
11
-4.82341217748067E-15
21
-4.5
31
0
210
0
220
0
230
1
40
0.966949
41
-0.129781620527043
42
-1.14564763921394E-06
0
ELLIPSE
5
112
100
AcDbEntity
8
1
62
256
6
ByLayer
370
-1
48
1
60
0
100
AcDbEllipse
10
97.110593
20
-1.98037
30
0
11
-1.25
21
1.26329881885295E-15
31
0
210
0
220
0
230
1
40
0.997564
41
-2.62008802915429
42
-0.521602163786987
0
ELLIPSE
5
113
100
AcDbEntity
8
1
62
256
6
ByLayer
370
-1
48
1
60
0
100
AcDbEllipse
10
97.110593
20
-1.98037
30
0
11
-1.25
21
1.26329881885295E-15
31
0
210
0
220
0
230
1
40
0.997564
41
0
42
6.28318530717959
0
ELLIPSE
5
114
100
AcDbEntity
8
1
62
256
6
ByLayer
370
-1
48
1
60
0
100
AcDbEllipse
10
94.587642
20
5.160864
30
0
11
-1.76858446507625E-15
21
-1.65
31
0
210
0
220
0
230
1
40
0.996195
41
-2.2954931910143
42
-1.53879862384166
0
ELLIPSE
5
115
100
AcDbEntity
8
1
62
256
6
ByLayer
370
-1
48
1
60
0
100
AcDbEllipse
10
97.187369
20
6.028199
30
0
11
1.75718001347441E-15
21
1.5
31
0
210
0
220
0
230
1
40
0.996195
41
0.0349499032697529
42
0.710883060211173
0
ELLIPSE
5
116
100
AcDbEntity
8
1
62
256
6
ByLayer
370
-1
48
1
60
0
100
AcDbEllipse
10
97.187369
20
6.028199
30
0
11
1.75718001347441E-15
21
1.5
31
0
210
0
220
0
230
1
40
0.996195
41
1.57079621539443
42
-1.5707965861506
0
ELLIPSE
5
117
100
AcDbEntity
8
1
62
256
6
ByLayer
370
-1
48
1
60
0
100
AcDbEllipse
10
99.930997
20
0.53578
30
0
11
-0.0374161658010548
21
0.601620668802297
31
0
210
0
220
0
230
-1
40
0.118186
41
-1.48953518481098
42
-1.44873145598715
0
ELLIPSE
5
118
100
AcDbEntity
8
1
62
256
6
ByLayer
370
-1
48
1
60
0
100
AcDbEllipse
10
99.931878
20
0.535748
30
0
11
-0.0546785397468941
21
0.602204793650809
31
0
210
0
220
0
230
-1
40
0.115792
41
-1.4456298672423
42
0.0843632063435032
0
ELLIPSE
5
119
100
AcDbEntity
8
1
62
256
6
ByLayer
370
-1
48
1
60
0
100
AcDbEllipse
10
92.546472
20
5.92
30
0
11
-5.08808301823685E-07
21
-4.50000031071116
31
0
210
0
220
0
230
-1
40
0.966658
41
0.0919661942181201
42
0.129781506751608
0
ELLIPSE
5
11A
100
AcDbEntity
8
1
62
256
6
ByLayer
370
-1
48
1
60
0
100
AcDbEllipse
10
94.632261
20
3.76158
30
0
11
-1.76858446507625E-15
21
-1.65
31
0
210
0
220
0
230
1
40
0.996195
41
-1.53879862384166
42
-0.123410159232466
0
ELLIPSE
5
11B
100
AcDbEntity
8
1
62
256
6
ByLayer
370
-1
48
1
60
0
100
AcDbEllipse
10
90.556237
20
1E-05
30
0
11
-109.728444879753
21
1.62804823561455E-07
31
0
210
0
220
0
230
-1
40
0.087489
41
1.58189055885855
42
1.59331375699469
0
ELLIPSE
5
11C
100
AcDbEntity
8
1
62
256
6
ByLayer
370
-1
48
1
60
0
100
AcDbEllipse
10
92.787988
20
5.820841
30
0
11
-0.588558403316141
21
-4.36045857747622
31
0
210
0
220
0
230
1
40
0.252824
41
0.0341120315466602
42
0.622145823141273
0
ELLIPSE
5
11D
100
AcDbEntity
8
1
62
256
6
ByLayer
370
-1
48
1
60
0
100
AcDbEllipse
10
94.762285
20
3.76158
30
0
11
-1.43971234163371
21
-1.28202564681939
31
0
210
0
220
0
230
-1
40
0.721468
41
-1.18428535879303
42
-0.868660261806615
0
ELLIPSE
5
11E
100
AcDbEntity
8
1
62
256
6
ByLayer
370
-1
48
1
60
0
100
AcDbEllipse
10
93.586792
20
3.727988
30
0
11
-0.599695201525335
21
-0.0191223760942029
31
0
210
0
220
0
230
1
40
0.002788
41
0.0872220186673492
42
1.33217642950445
0
ELLIPSE
5
11F
100
AcDbEntity
8
1
62
256
6
ByLayer
370
-1
48
1
60
0
100
AcDbEllipse
10
94.405656
20
3.76158
30
0
11
1.93289801482185E-15
21
1.65
31
0
210
0
220
0
230
1
40
0.996195
41
1.60279402974813
42
1.80296078808598
0
ELLIPSE
5
120
100
AcDbEntity
8
1
62
256
6
ByLayer
370
-1
48
1
60
0
100
AcDbEllipse
10
99.7413
20
-5.361655
30
0
11
-0.0994360630325166
21
-1.24611396186189
31
0
210
0
220
0
230
-1
40
0.126489
41
-2.1361908800122
42
2.24222315126654
0
ELLIPSE
5
121
100
AcDbEntity
8
1
62
256
6
ByLayer
370
-1
48
1
60
0
100
AcDbEllipse
10
92.265806
20
3.565209
30
0
11
-0.32642564083682
21
-0.730374082922081
31
0
210
0
220
0
230
1
40
0.079621
41
0.035569836570625
42
1.60636616336575
0
ELLIPSE
5
122
100
AcDbEntity
8
1
62
256
6
ByLayer
370
-1
48
1
60
0
100
AcDbEllipse
10
91.631613
20
0
30
0
11
-50.439303245361
21
0.694697843173088
31
0
210
0
220
0
230
-1
40
0.189829
41
-1.60362375216834
42
-1.57106026384638
0
ELLIPSE
5
123
100
AcDbEntity
8
1
62
256
6
ByLayer
370
-1
48
1
60
0
100
AcDbEllipse
10
10.9
20
3.480679
30
0
11
-5
21
5.05319527541181E-15
31
0
210
0
220
0
230
1
40
0.737516
41
-1.72778054907177
42
-0.432661568679625
0
ELLIPSE
5
124
100
AcDbEntity
8
1
62
256
6
ByLayer
370
-1
48
1
60
0
100
AcDbEllipse
10
99.842126
20
-5.370823
30
0
11
-0.076656965106289
21
1.26192731303761
31
0
210
0
220
0
230
-1
40
0.116621
41
-0.882982482312051
42
1.02178879358871
0
ELLIPSE
5
125
100
AcDbEntity
8
1
62
256
6
ByLayer
370
-1
48
1
60
0
100
AcDbEllipse
10
97.110593
20
-1.624612
30
0
11
-1.11602540378444
21
1.12789885952862E-15
31
0
210
0
220
0
230
1
40
0.997564
41
0
42
6.28318530717959
0
ELLIPSE
5
126
100
AcDbEntity
8
1
62
256
6
ByLayer
370
-1
48
1
60
0
100
AcDbEllipse
10
94.361037
20
5.160864
30
0
11
1.93289801482185E-15
21
1.65
31
0
210
0
220
0
230
1
40
0.996195
41
0.843408340772049
42
1.60279402974813
0
ELLIPSE
5
127
100
AcDbEntity
8
1
62
256
6
ByLayer
370
-1
48
1
60
0
100
AcDbEllipse
10
100.940974
20
0
30
0
11
-0.778722891154391
21
-9.59948974515648
31
0
210
0
220
0
230
-1
40
0.127103
41
0.0292898554931897
42
1.07469439450949
0
ELLIPSE
5
128
100
AcDbEntity
8
1
62
256
6
ByLayer
370
-1
48
1
60
0
100
AcDbEllipse
10
97.30186
20
-2.252917
30
0
11
1.5
21
0
31
0
210
0
220
0
230
1
40
0.997564
41
1.53525678255632
42
2.62097185987594
0
ELLIPSE
5
129
100
AcDbEntity
8
1
62
256
6
ByLayer
370
-1
48
1
60
0
100
AcDbEllipse
10
100.292574
20
-2.860619
30
0
11
-0.179765043292579
21
-0.0876614465430335
31
0
210
0
220
0
230
1
40
0.062728
41
0.493019242989907
42
1.54021679418694
0
ELLIPSE
5
12A
100
AcDbEntity
8
1
62
256
6
ByLayer
370
-1
48
1
60
0
100
AcDbEllipse
10
99.448819
20
-0.3486
30
0
11
-0.600000000000031
21
6.06383433049449E-16
31
0
210
0
220
0
230
1
40
0.997564
41
-3.08923277602996
42
-2.38288493715824
0
ELLIPSE
5
12B
100
AcDbEntity
8
1
62
256
6
ByLayer
370
-1
48
1
60
0
100
AcDbEllipse
10
99.948134
20
-0.308545
30
0
11
-0.199724569469276
21
-0.0104926807972083
31
0
210
0
220
0
230
1
40
0.069661
41
1.34748943558499
42
1.56713665656312
0
ELLIPSE
5
12C
100
AcDbEntity
8
1
62
256
6
ByLayer
370
-1
48
1
60
0
100
AcDbEllipse
10
99.726348
20
0.693387
30
0
11
0.499999999999967
21
0
31
0
210
0
220
0
230
1
40
0.997564
41
0.349065850398943
42
1.10134559723865
0
ELLIPSE
5
12D
100
AcDbEntity
8
1
62
256
6
ByLayer
370
-1
48
1
60
0
100
AcDbEllipse
10
102.681038
20
-1.903859
30
0
11
2.00000000000005
21
0
31
0
210
0
220
0
230
1
40
0.997564
41
-3.0892327757073
42
-2.67604929468265
0
ELLIPSE
5
12E
100
AcDbEntity
8
1
62
256
6
ByLayer
370
-1
48
1
60
0
100
AcDbEllipse
10
99.842951
20
-3.085784
30
0
11
0.326794919243111
21
0
31
0
210
0
220
0
230
1
40
0.997564
41
-0.0349065850398927
42
0.452754376167897
0
ELLIPSE
5
12F
100
AcDbEntity
8
1
62
256
6
ByLayer
370
-1
48
1
60
0
100
AcDbEllipse
10
100.342646
20
-3.096215
30
0
11
-0.199877570208915
21
0.00699692270788842
31
0
210
0
220
0
230
1
40
0.069714
41
0.526039181296484
42
1.57323673249303
0
ELLIPSE
5
130
100
AcDbEntity
8
1
62
256
6
ByLayer
370
-1
48
1
60
0
100
AcDbEllipse
10
99.819925
20
-3.743556
30
0
11
0.326794919243145
21
0
31
0
210
0
220
0
230
1
40
0.997564
41
-0.578166151428062
42
-0.0349065850398923
0
ELLIPSE
5
131
100
AcDbEntity
8
1
62
256
6
ByLayer
370
-1
48
1
60
0
100
AcDbEllipse
10
99.448819
20
-0.3486
30
0
11
-0.500000000000031
21
5.05319527541213E-16
31
0
210
0
220
0
230
1
40
0.997564
41
-3.08923277602996
42
-2.66873051811648
0
ELLIPSE
5
132
100
AcDbEntity
8
1
62
256
6
ByLayer
370
-1
48
1
60
0
100
AcDbEllipse
10
100.028603
20
-1.840235
30
0
11
-0.199724569469276
21
-0.0104926807972083
31
0
210
0
220
0
230
1
40
0.069661
41
1.34748943558498
42
1.56713665656312
0
ELLIPSE
5
133
100
AcDbEntity
8
1
62
256
6
ByLayer
370
-1
48
1
60
0
100
AcDbEllipse
10
102.681038
20
-1.715516
30
0
11
2.65607522661845
21
0
31
0
210
0
220
0
230
1
40
0.997564
41
-3.089232775787
42
-2.6888382774219
0
ELLIPSE
5
134
100
AcDbEntity
8
1
62
256
6
ByLayer
370
-1
48
1
60
0
100
AcDbEllipse
10
102.681038
20
-1.771321
30
0
11
-2.23329066571558
21
2.25705076812306E-15
31
0
210
0
220
0
230
1
40
0.997564
41
0.0523598778487812
42
0.452754376167889
0
ELLIPSE
5
135
100
AcDbEntity
8
1
62
256
6
ByLayer
370
-1
48
1
60
0
100
AcDbEllipse
10
100.444161
20
-4.859841
30
0
11
0.499999999999967
21
0
31
0
210
0
220
0
230
1
40
0.997564
41
-1.22173047639592
42
-0.0349065850399474
0
ELLIPSE
5
136
100
AcDbEntity
8
1
62
256
6
ByLayer
370
-1
48
1
60
0
100
AcDbEllipse
10
100.183633
20
-4.078843
30
0
11
-0.145316104585927
21
0.137416264495772
31
0
210
0
220
0
230
1
40
0.050742
41
0.991356938499546
42
1.61874306562627
0
ELLIPSE
5
137
100
AcDbEntity
8
1
62
256
6
ByLayer
370
-1
48
1
60
0
100
AcDbEllipse
10
99.842951
20
-3.09276
30
0
11
-0.599999999999998
21
6.06383433049416E-16
31
0
210
0
220
0
230
1
40
0.997564
41
3.10668606854991
42
-2.6888382774219
0
ELLIPSE
5
138
100
AcDbEntity
8
1
62
256
6
ByLayer
370
-1
48
1
60
0
100
AcDbEllipse
10
97.30186
20
-2.281093
30
0
11
1.4
21
0
31
0
210
0
220
0
230
1
40
0.997564
41
1.11830893008046
42
2.75939816091079
0
ELLIPSE
5
139
100
AcDbEntity
8
1
62
256
6
ByLayer
370
-1
48
1
60
0
100
AcDbEllipse
10
100.094113
20
-0.314579
30
0
11
0.49999999999995
21
0
31
0
210
0
220
0
230
1
40
0.997564
41
0.0523598775597015
42
0.349065850398752
0
ELLIPSE
5
13A
100
AcDbEntity
8
1
62
256
6
ByLayer
370
-1
48
1
60
0
100
AcDbEllipse
10
97.30186
20
-2.252917
30
0
11
1.4
21
0
31
0
210
0
220
0
230
1
40
0.997564
41
1.18693294204111
42
2.7642089817927
0
ELLIPSE
5
13B
100
AcDbEntity
8
1
62
256
6
ByLayer
370
-1
48
1
60
0
100
AcDbEllipse
10
102.681038
20
-1.708541
30
0
11
-2.82928030737534
21
2.85938117640895E-15
31
0
210
0
220
0
230
1
40
0.997564
41
0.355821520526205
42
0.452754376167885
0
ELLIPSE
5
13C
100
AcDbEntity
8
1
62
256
6
ByLayer
370
-1
48
1
60
0
100
AcDbEllipse
10
100.000305
20
-3.247303
30
0
11
0.999999999999949
21
0
31
0
210
0
220
0
230
1
40
0.997564
41
-0.0349065850400208
42
0.465543358906966
0
ELLIPSE
5
13D
100
AcDbEntity
8
1
62
256
6
ByLayer
370
-1
48
1
60
0
100
AcDbEllipse
10
100.31962
20
-3.753988
30
0
11
-0.199877570208915
21
0.00699692270788842
31
0
210
0
220
0
230
1
40
0.069714
41
0.526039181296484
42
1.57323673249303
0
ELLIPSE
5
13E
100
AcDbEntity
8
1
62
256
6
ByLayer
370
-1
48
1
60
0
100
AcDbEllipse
10
99.819925
20
-3.750532
30
0
11
-0.600000000000032
21
6.0638343304945E-16
31
0
210
0
220
0
230
1
40
0.997564
41
2.38534574936601
42
3.10668606854991
0
ELLIPSE
5
13F
100
AcDbEntity
8
1
62
256
6
ByLayer
370
-1
48
1
60
0
100
AcDbEllipse
10
99.842951
20
-3.09276
30
0
11
-0.499999999999999
21
5.0531952754118E-16
31
0
210
0
220
0
230
1
40
0.997564
41
3.10668606854992
42
-2.6888382774219
0
ELLIPSE
5
140
100
AcDbEntity
8
1
62
256
6
ByLayer
370
-1
48
1
60
0
100
AcDbEllipse
10
99.819925
20
-3.750532
30
0
11
-0.500000000000032
21
5.05319527541214E-16
31
0
210
0
220
0
230
1
40
0.997564
41
2.38534574936597
42
3.10668606854992
0
ELLIPSE
5
141
100
AcDbEntity
8
1
62
256
6
ByLayer
370
-1
48
1
60
0
100
AcDbEllipse
10
102.681038
20
-1.715516
30
0
11
2.55607522661845
21
0
31
0
210
0
220
0
230
1
40
0.997564
41
-3.0892327757775
42
-2.6888382774219
0
ELLIPSE
5
142
100
AcDbEntity
8
1
62
256
6
ByLayer
370
-1
48
1
60
0
100
AcDbEllipse
10
93.923658
20
12.448097
30
0
11
1.1632843730555E-14
21
9.9302663711333
31
0
210
0
220
0
230
1
40
0.996195
41
3.14159265358979
42
-3.12558669055491
0
ELLIPSE
5
143
100
AcDbEntity
8
1
62
256
6
ByLayer
370
-1
48
1
60
0
100
AcDbEllipse
10
94.094319
20
4.849908
30
0
11
-5.35934686386771E-15
21
-5.00000000000028
31
0
210
0
220
0
230
1
40
0.996195
41
-3.09758543963167
42
-3.0877854465449
0
ELLIPSE
5
144
100
AcDbEntity
8
1
62
256
6
ByLayer
370
-1
48
1
60
0
100
AcDbEllipse
10
100.16561
20
0.060596
30
0
11
1.1632843730555E-14
21
9.9302663711333
31
0
210
0
220
0
230
1
40
0.996195
41
0
42
0.0160059630348815
0
ELLIPSE
5
145
100
AcDbEntity
8
1
62
256
6
ByLayer
370
-1
48
1
60
0
100
AcDbEllipse
10
93.924189
20
2.748097
30
0
11
-3.21560811832046E-16
21
-0.300000000000001
31
0
210
0
220
0
230
1
40
0.996195
41
-0.226892802759267
42
-4.60644937498919E-14
0
ELLIPSE
5
146
100
AcDbEntity
8
1
62
256
6
ByLayer
370
-1
48
1
60
0
100
AcDbEllipse
10
103.214327
20
9.436234
30
0
11
-1.07186937277348E-14
21
-9.99999999999999
31
0
210
0
220
0
230
1
40
0.996195
41
-1.54499037067321
42
-1.53588974175501
0
ELLIPSE
5
147
100
AcDbEntity
8
1
62
256
6
ByLayer
370
-1
48
1
60
0
100
AcDbEllipse
10
97.096971
20
6.254347
30
0
11
-2.01991837106078E-15
21
-1.88448184300126
31
0
210
0
220
0
230
1
40
0.996195
41
2.21551025834039
42
-9.46223865285074E-16
0
ELLIPSE
5
148
100
AcDbEntity
8
1
62
256
6
ByLayer
370
-1
48
1
60
0
100
AcDbEllipse
10
97.096971
20
6.254347
30
0
11
-2.01991837106078E-15
21
-1.88448184300126
31
0
210
0
220
0
230
1
40
0.996195
41
0
42
0.92608264308836
0
ELLIPSE
5
149
100
AcDbEntity
8
1
62
256
6
ByLayer
370
-1
48
1
60
0
100
AcDbEllipse
10
93.777943
20
2.884497
30
0
11
2.69746310087586E-16
21
0.230266371133677
31
0
210
0
220
0
230
1
40
0.996195
41
1.64060949687465
42
1.86750229963388
0
ELLIPSE
5
14A
100
AcDbEntity
8
1
62
256
6
ByLayer
370
-1
48
1
60
0
100
AcDbEllipse
10
93.924189
20
12.448097
30
0
11
-1.07186937277344E-14
21
-9.99999999999964
31
0
210
0
220
0
230
1
40
0.996195
41
0
42
0.0160059630348823
0
ELLIPSE
5
14B
100
AcDbEntity
8
1
62
256
6
ByLayer
370
-1
48
1
60
0
100
AcDbEllipse
10
99.776884
20
12.653945
30
0
11
-1.07186937277348E-14
21
-9.99999999999999
31
0
210
0
220
0
230
1
40
0.996195
41
0.0349065850398869
42
0.0440072139580926
0
ELLIPSE
5
14C
100
AcDbEntity
8
1
62
256
6
ByLayer
370
-1
48
1
60
0
100
AcDbEllipse
10
98.443729
20
3.292229
30
0
11
5.77557701897395E-15
21
4.93026637113357
31
0
210
0
220
0
230
1
40
0.996195
41
1.61480354075301
42
1.62460353383979
0
ELLIPSE
5
14D
100
AcDbEntity
8
1
62
256
6
ByLayer
370
-1
48
1
60
0
100
AcDbEllipse
10
90.66992
20
8.9965
30
0
11
-1.07186937277348E-14
21
-9.99999999999999
31
0
210
0
220
0
230
1
40
0.996195
41
1.60570291183478
42
1.61480354075299
0
ELLIPSE
5
14E
100
AcDbEntity
8
1
62
256
6
ByLayer
370
-1
48
1
60
0
100
AcDbEllipse
10
90.669388
20
8.9965
30
0
11
1.16328437305553E-14
21
9.93026637113358
31
0
210
0
220
0
230
1
40
0.996195
41
-1.53224690693385
42
-1.5267891128368
0
ELLIPSE
5
14F
100
AcDbEntity
8
1
62
256
6
ByLayer
370
-1
48
1
60
0
100
AcDbEllipse
10
93.745859
20
9.342254
30
0
11
5.04036978550836E-16
21
0.430266371133673
31
0
210
0
220
0
230
1
40
0.996195
41
0.296705972839002
42
1.34390352403561
0
ELLIPSE
5
150
100
AcDbEntity
8
1
62
256
6
ByLayer
370
-1
48
1
60
0
100
AcDbEllipse
10
93.551727
20
9.387245
30
0
11
2.69746310087586E-16
21
0.230266371133677
31
0
210
0
220
0
230
1
40
0.996195
41
1.34390352403567
42
1.5707963267949
0
ELLIPSE
5
151
100
AcDbEntity
8
1
62
256
6
ByLayer
370
-1
48
1
60
0
100
AcDbEllipse
10
100.085888
20
5.059956
30
0
11
5.77557701897395E-15
21
4.93026637113357
31
0
210
0
220
0
230
1
40
0.996195
41
0.0160059630348803
42
0.0258059561216634
0
ELLIPSE
5
152
100
AcDbEntity
8
1
62
256
6
ByLayer
370
-1
48
1
60
0
100
AcDbEllipse
10
99.996012
20
7.658786
30
0
11
-5.35934686386771E-15
21
-5.00000000000028
31
0
210
0
220
0
230
1
40
0.996195
41
0.0440072139581157
42
0.0538072070448928
0
ELLIPSE
5
153
100
AcDbEntity
8
1
62
256
6
ByLayer
370
-1
48
1
60
0
100
AcDbEllipse
10
97.27177
20
6.254347
30
0
11
1.64003467924279E-15
21
1.4
31
0
210
0
220
0
230
1
40
0.996195
41
0
42
1.57079653853157
0
ELLIPSE
5
154
100
AcDbEntity
8
1
62
256
6
ByLayer
370
-1
48
1
60
0
100
AcDbEllipse
10
97.27177
20
6.254347
30
0
11
1.64003467924279E-15
21
1.4
31
0
210
0
220
0
230
1
40
0.996195
41
1.57079640587062
42
-3.14159236166655
0
ELLIPSE
5
155
100
AcDbEntity
8
1
62
256
6
ByLayer
370
-1
48
1
60
0
100
AcDbEllipse
10
93.874855
20
12.447073
30
0
11
1.16328437305553E-14
21
9.93026637113358
31
0
210
0
220
0
230
1
40
0.996195
41
-3.11578669746811
42
-3.11032889170134
0
ELLIPSE
5
156
100
AcDbEntity
8
1
62
256
6
ByLayer
370
-1
48
1
60
0
100
AcDbEllipse
10
93.968477
20
2.942971
30
0
11
5.04036978550836E-16
21
0.430266371133673
31
0
210
0
220
0
230
1
40
0.996195
41
1.8675022996339
42
2.91469985083047
0
ELLIPSE
5
157
100
AcDbEntity
8
1
62
256
6
ByLayer
370
-1
48
1
60
0
100
AcDbEllipse
10
103.420411
20
3.512194
30
0
11
-1.07186937277348E-14
21
-9.99999999999999
31
0
210
0
220
0
230
1
40
0.996195
41
-1.53588974175501
42
-1.52678911283681
0
ELLIPSE
5
158
100
AcDbEntity
8
1
62
256
6
ByLayer
370
-1
48
1
60
0
100
AcDbEllipse
10
97.027734
20
6.254347
30
0
11
2.27265689458196E-15
21
1.94003193510747
31
0
210
0
220
0
230
1
40
0.996195
41
0
42
6.28318530717959
0
ELLIPSE
5
159
100
AcDbEntity
8
1
62
256
6
ByLayer
370
-1
48
1
60
0
100
AcDbEllipse
10
103.41988
20
3.512194
30
0
11
1.16328437305553E-14
21
9.93026637113358
31
0
210
0
220
0
230
1
40
0.996195
41
1.60934574665594
42
1.61480354075299
0
ELLIPSE
5
15A
100
AcDbEntity
8
1
62
256
6
ByLayer
370
-1
48
1
60
0
100
AcDbEllipse
10
103.213795
20
9.436234
30
0
11
1.16328437305553E-14
21
9.93026637113358
31
0
210
0
220
0
230
1
40
0.996195
41
1.59660228291658
42
1.60206008868336
0
ELLIPSE
5
15B
100
AcDbEntity
8
1
62
256
6
ByLayer
370
-1
48
1
60
0
100
AcDbEllipse
10
99.728129
20
12.65155
30
0
11
-1.07186937277344E-14
21
-9.99999999999964
31
0
210
0
220
0
230
1
40
0.996195
41
0.0538072070448933
42
0.069813170079785
0
ELLIPSE
5
15C
100
AcDbEntity
8
1
62
256
6
ByLayer
370
-1
48
1
60
0
100
AcDbEllipse
10
93.552258
20
9.387245
30
0
11
-3.21560811832046E-16
21
-0.300000000000001
31
0
210
0
220
0
230
1
40
0.996195
41
-1.79768912955407
42
-1.5707963267949
0
ELLIPSE
5
15D
100
AcDbEntity
8
1
62
256
6
ByLayer
370
-1
48
1
60
0
100
AcDbEllipse
10
99.727597
20
12.65155
30
0
11
1.1632843730555E-14
21
9.9302663711333
31
0
210
0
220
0
230
1
40
0.996195
41
-3.0877854465449
42
-3.07177948351001
0
ELLIPSE
5
15E
100
AcDbEntity
8
1
62
256
6
ByLayer
370
-1
48
1
60
0
100
AcDbEllipse
10
103.418025
20
3.561135
30
0
11
-1.07186937277344E-14
21
-9.99999999999964
31
0
210
0
220
0
230
1
40
0.996195
41
-1.51698911975
42
-1.50098315671511
0
ELLIPSE
5
15F
100
AcDbEntity
8
1
62
256
6
ByLayer
370
-1
48
1
60
0
100
AcDbEllipse
10
93.746391
20
9.342254
30
0
11
-5.35934686386747E-16
21
-0.500000000000006
31
0
210
0
220
0
230
1
40
0.996195
41
-2.84488668075078
42
-1.79768912955414
0
ELLIPSE
5
160
100
AcDbEntity
8
1
62
256
6
ByLayer
370
-1
48
1
60
0
100
AcDbEllipse
10
95.854788
20
3.201475
30
0
11
5.77557701897395E-15
21
4.93026637113357
31
0
210
0
220
0
230
1
40
0.996195
41
-1.55479036376002
42
-1.54499037067324
0
ELLIPSE
5
161
100
AcDbEntity
8
1
62
256
6
ByLayer
370
-1
48
1
60
0
100
AcDbEllipse
10
97.117704
20
6.254347
30
0
11
-1.93445608783117E-15
21
-1.80474984822612
31
0
210
0
220
0
230
1
40
0.996195
41
0
42
6.28318530717959
0
ELLIPSE
5
162
100
AcDbEntity
8
1
62
256
6
ByLayer
370
-1
48
1
60
0
100
AcDbEllipse
10
100.166142
20
0.060596
30
0
11
-1.07186937277344E-14
21
-9.99999999999964
31
0
210
0
220
0
230
1
40
0.996195
41
3.14159265358979
42
-3.12558669055491
0
ELLIPSE
5
163
100
AcDbEntity
8
1
62
256
6
ByLayer
370
-1
48
1
60
0
100
AcDbEllipse
10
90.874452
20
3.121449
30
0
11
1.1632843730555E-14
21
9.9302663711333
31
0
210
0
220
0
230
1
40
0.996195
41
-1.57079632679491
42
-1.55479036376002
0
ELLIPSE
5
164
100
AcDbEntity
8
1
62
256
6
ByLayer
370
-1
48
1
60
0
100
AcDbEllipse
10
90.672306
20
8.947559
30
0
11
-1.07186937277344E-14
21
-9.99999999999964
31
0
210
0
220
0
230
1
40
0.996195
41
1.62460353383979
42
1.64060949687468
0
ELLIPSE
5
165
100
AcDbEntity
8
1
62
256
6
ByLayer
370
-1
48
1
60
0
100
AcDbEllipse
10
93.778475
20
2.884497
30
0
11
-3.21560811832046E-16
21
-0.300000000000001
31
0
210
0
220
0
230
1
40
0.996195
41
-1.50098315671517
42
-1.27409035395594
0
ELLIPSE
5
166
100
AcDbEntity
8
1
62
256
6
ByLayer
370
-1
48
1
60
0
100
AcDbEllipse
10
103.214815
20
9.387245
30
0
11
1.1632843730555E-14
21
9.9302663711333
31
0
210
0
220
0
230
1
40
0.996195
41
1.57079632679489
42
1.58680228982978
0
ELLIPSE
5
167
100
AcDbEntity
8
1
62
256
6
ByLayer
370
-1
48
1
60
0
100
AcDbEllipse
10
93.923658
20
2.748097
30
0
11
2.69746310087586E-16
21
0.230266371133677
31
0
210
0
220
0
230
1
40
0.996195
41
2.9146998508306
42
3.14159265358979
0
ELLIPSE
5
168
100
AcDbEntity
8
1
62
256
6
ByLayer
370
-1
48
1
60
0
100
AcDbEllipse
10
94.312915
20
-0.145251
30
0
11
1.16328437305553E-14
21
9.93026637113358
31
0
210
0
220
0
230
1
40
0.996195
41
0.0385494198610473
42
0.0440072139580935
0
ELLIPSE
5
169
100
AcDbEntity
8
1
62
256
6
ByLayer
370
-1
48
1
60
0
100
AcDbEllipse
10
100.311856
20
9.624197
30
0
11
-3.21560811832046E-16
21
-0.300000000000001
31
0
210
0
220
0
230
1
40
0.996195
41
1.64060949687463
42
1.86750229963386
0
ELLIPSE
5
16A
100
AcDbEntity
8
1
62
256
6
ByLayer
370
-1
48
1
60
0
100
AcDbEllipse
10
100.311324
20
9.624197
30
0
11
2.69746310087586E-16
21
0.230266371133677
31
0
210
0
220
0
230
1
40
0.996195
41
-1.50098315671514
42
-1.27409035395598
0
ELLIPSE
5
16B
100
AcDbEntity
8
1
62
256
6
ByLayer
370
-1
48
1
60
0
100
AcDbEllipse
10
98.235011
20
9.307218
30
0
11
-5.35934686386771E-15
21
-5.00000000000028
31
0
210
0
220
0
230
1
40
0.996195
41
-1.55479036376001
42
-1.54499037067324
0
ELLIPSE
5
16C
100
AcDbEntity
8
1
62
256
6
ByLayer
370
-1
48
1
60
0
100
AcDbEllipse
10
93.875387
20
12.447073
30
0
11
-1.07186937277348E-14
21
-9.99999999999999
31
0
210
0
220
0
230
1
40
0.996195
41
0.0258059561216837
42
0.0349065850398881
0
ELLIPSE
5
16D
100
AcDbEntity
8
1
62
256
6
ByLayer
370
-1
48
1
60
0
100
AcDbEllipse
10
103.215347
20
9.387245
30
0
11
-1.07186937277344E-14
21
-9.99999999999964
31
0
210
0
220
0
230
1
40
0.996195
41
-1.5707963267949
42
-1.55479036376002
0
ELLIPSE
5
16E
100
AcDbEntity
8
1
62
256
6
ByLayer
370
-1
48
1
60
0
100
AcDbEllipse
10
100.537541
20
3.121449
30
0
11
2.69746310087586E-16
21
0.230266371133677
31
0
210
0
220
0
230
1
40
0.996195
41
-1.79768912955412
42
-1.5707963267949
0
ELLIPSE
5
16F
100
AcDbEntity
8
1
62
256
6
ByLayer
370
-1
48
1
60
0
100
AcDbEllipse
10
100.34394
20
3.166439
30
0
11
-5.35934686386747E-16
21
-0.500000000000006
31
0
210
0
220
0
230
1
40
0.996195
41
0.296705972839008
42
1.34390352403565
0
ELLIPSE
5
170
100
AcDbEntity
8
1
62
256
6
ByLayer
370
-1
48
1
60
0
100
AcDbEllipse
10
100.343409
20
3.166439
30
0
11
5.04036978550836E-16
21
0.430266371133673
31
0
210
0
220
0
230
1
40
0.996195
41
-2.84488668075077
42
-1.79768912955418
0
ELLIPSE
5
171
100
AcDbEntity
8
1
62
256
6
ByLayer
370
-1
48
1
60
0
100
AcDbEllipse
10
97.236566
20
6.254347
30
0
11
-1.50061712188287E-15
21
-1.4
31
0
210
0
220
0
230
1
40
0.996195
41
-3.12352863120908
42
0
0
ELLIPSE
5
172
100
AcDbEntity
8
1
62
256
6
ByLayer
370
-1
48
1
60
0
100
AcDbEllipse
10
97.236566
20
6.254347
30
0
11
-1.50061712188287E-15
21
-1.4
31
0
210
0
220
0
230
1
40
0.996195
41
0
42
0.0349500842375337
0
ELLIPSE
5
173
100
AcDbEntity
8
1
62
256
6
ByLayer
370
-1
48
1
60
0
100
AcDbEllipse
10
100.214944
20
0.061621
30
0
11
-1.07186937277348E-14
21
-9.99999999999999
31
0
210
0
220
0
230
1
40
0.996195
41
-3.11578669746811
42
-3.10668606854991
0
ELLIPSE
5
174
100
AcDbEntity
8
1
62
256
6
ByLayer
370
-1
48
1
60
0
100
AcDbEllipse
10
94.003911
20
7.448738
30
0
11
-5.35934686386771E-15
21
-5.00000000000028
31
0
210
0
220
0
230
1
40
0.996195
41
0.0160059630348808
42
0.0258059561216595
0
ELLIPSE
5
175
100
AcDbEntity
8
1
62
256
6
ByLayer
370
-1
48
1
60
0
100
AcDbEllipse
10
100.214413
20
0.061621
30
0
11
1.16328437305553E-14
21
9.93026637113358
31
0
210
0
220
0
230
1
40
0.996195
41
0.0258059561216822
42
0.0312637618884577
0
ELLIPSE
5
176
100
AcDbEntity
8
1
62
256
6
ByLayer
370
-1
48
1
60
0
100
AcDbEllipse
10
100.08642
20
5.059956
30
0
11
-5.35934686386771E-15
21
-5.00000000000028
31
0
210
0
220
0
230
1
40
0.996195
41
-3.12558669055491
42
-3.11578669746813
0
ELLIPSE
5
177
100
AcDbEntity
8
1
62
256
6
ByLayer
370
-1
48
1
60
0
100
AcDbEllipse
10
100.16561
20
9.760596
30
0
11
2.69746310087586E-16
21
0.230266371133677
31
0
210
0
220
0
230
1
40
0.996195
41
-0.22689280275933
42
-6.19505726264818E-14
0
ELLIPSE
5
178
100
AcDbEntity
8
1
62
256
6
ByLayer
370
-1
48
1
60
0
100
AcDbEllipse
10
94.313447
20
-0.145251
30
0
11
-1.07186937277348E-14
21
-9.99999999999999
31
0
210
0
220
0
230
1
40
0.996195
41
-3.10668606854991
42
-3.0975854396317
0
ELLIPSE
5
179
100
AcDbEntity
8
1
62
256
6
ByLayer
370
-1
48
1
60
0
100
AcDbEllipse
10
94.36167
20
-0.142856
30
0
11
1.1632843730555E-14
21
9.9302663711333
31
0
210
0
220
0
230
1
40
0.996195
41
0.0538072070448951
42
0.0698131700797857
0
ELLIPSE
5
17A
100
AcDbEntity
8
1
62
256
6
ByLayer
370
-1
48
1
60
0
100
AcDbEllipse
10
100.121323
20
9.565722
30
0
11
-5.35934686386747E-16
21
-0.500000000000006
31
0
210
0
220
0
230
1
40
0.996195
41
1.8675022996339
42
2.91469985083053
0
ELLIPSE
5
17B
100
AcDbEntity
8
1
62
256
6
ByLayer
370
-1
48
1
60
0
100
AcDbEllipse
10
94.00338
20
7.448738
30
0
11
5.77557701897395E-15
21
4.93026637113357
31
0
210
0
220
0
230
1
40
0.996195
41
-3.12558669055491
42
-3.11578669746813
0
ELLIPSE
5
17C
100
AcDbEntity
8
1
62
256
6
ByLayer
370
-1
48
1
60
0
100
AcDbEllipse
10
95.646071
20
9.216465
30
0
11
-5.35934686386771E-15
21
-5.00000000000028
31
0
210
0
220
0
230
1
40
0.996195
41
1.61480354075301
42
1.62460353383979
0
ELLIPSE
5
17D
100
AcDbEntity
8
1
62
256
6
ByLayer
370
-1
48
1
60
0
100
AcDbEllipse
10
98.23448
20
9.307218
30
0
11
5.77557701897395E-15
21
4.93026637113357
31
0
210
0
220
0
230
1
40
0.996195
41
1.58680228982978
42
1.59660228291656
0
ELLIPSE
5
17E
100
AcDbEntity
8
1
62
256
6
ByLayer
370
-1
48
1
60
0
100
AcDbEllipse
10
90.874984
20
3.121449
30
0
11
-1.07186937277344E-14
21
-9.99999999999964
31
0
210
0
220
0
230
1
40
0.996195
41
1.57079632679489
42
1.58680228982978
0
ELLIPSE
5
17F
100
AcDbEntity
8
1
62
256
6
ByLayer
370
-1
48
1
60
0
100
AcDbEllipse
10
99.776352
20
12.653945
30
0
11
1.16328437305553E-14
21
9.93026637113358
31
0
210
0
220
0
230
1
40
0.996195
41
-3.10304323372875
42
-3.0975854396317
0
ELLIPSE
5
180
100
AcDbEntity
8
1
62
256
6
ByLayer
370
-1
48
1
60
0
100
AcDbEllipse
10
93.969008
20
2.942971
30
0
11
-5.35934686386747E-16
21
-0.500000000000006
31
0
210
0
220
0
230
1
40
0.996195
41
-1.27409035395589
42
-0.226892802759289
0
ELLIPSE
5
181
100
AcDbEntity
8
1
62
256
6
ByLayer
370
-1
48
1
60
0
100
AcDbEllipse
10
98.44426
20
3.292229
30
0
11
-5.35934686386771E-15
21
-5.00000000000028
31
0
210
0
220
0
230
1
40
0.996195
41
-1.52678911283678
42
-1.51698911975
0
ELLIPSE
5
182
100
AcDbEntity
8
1
62
256
6
ByLayer
370
-1
48
1
60
0
100
AcDbEllipse
10
100.402192
20
2.975178
30
0
11
-3.21560811832046E-16
21
-0.300000000000001
31
0
210
0
220
0
230
1
40
0.996195
41
0.0698131700797553
42
0.296705972839008
0
ELLIPSE
5
183
100
AcDbEntity
8
1
62
256
6
ByLayer
370
-1
48
1
60
0
100
AcDbEllipse
10
90.671774
20
8.947559
30
0
11
1.1632843730555E-14
21
9.9302663711333
31
0
210
0
220
0
230
1
40
0.996195
41
-1.51698911975
42
-1.50098315671511
0
ELLIPSE
5
184
100
AcDbEntity
8
1
62
256
6
ByLayer
370
-1
48
1
60
0
100
AcDbEllipse
10
100.120791
20
9.565722
30
0
11
5.04036978550836E-16
21
0.430266371133673
31
0
210
0
220
0
230
1
40
0.996195
41
-1.27409035395586
42
-0.226892802759293
0
ELLIPSE
5
185
100
AcDbEntity
8
1
62
256
6
ByLayer
370
-1
48
1
60
0
100
AcDbEllipse
10
99.99548
20
7.658786
30
0
11
5.77557701897395E-15
21
4.93026637113357
31
0
210
0
220
0
230
1
40
0.996195
41
-3.09758543963168
42
-3.0877854465449
0
ELLIPSE
5
186
100
AcDbEntity
8
1
62
256
6
ByLayer
370
-1
48
1
60
0
100
AcDbEllipse
10
93.687607
20
9.533515
30
0
11
2.69746310087586E-16
21
0.230266371133677
31
0
210
0
220
0
230
1
40
0.996195
41
0.069813170079711
42
0.296705972839021
0
ELLIPSE
5
187
100
AcDbEntity
8
1
62
256
6
ByLayer
370
-1
48
1
60
0
100
AcDbEllipse
10
94.362202
20
-0.142856
30
0
11
-1.07186937277344E-14
21
-9.99999999999964
31
0
210
0
220
0
230
1
40
0.996195
41
-3.0877854465449
42
-3.07177948351001
0
ELLIPSE
5
188
100
AcDbEntity
8
1
62
256
6
ByLayer
370
-1
48
1
60
0
100
AcDbEllipse
10
100.538073
20
3.121449
30
0
11
-3.21560811832046E-16
21
-0.300000000000001
31
0
210
0
220
0
230
1
40
0.996195
41
1.34390352403567
42
1.5707963267949
0
ELLIPSE
5
189
100
AcDbEntity
8
1
62
256
6
ByLayer
370
-1
48
1
60
0
100
AcDbEllipse
10
100.40166
20
2.975178
30
0
11
2.69746310087586E-16
21
0.230266371133677
31
0
210
0
220
0
230
1
40
0.996195
41
-3.07177948351002
42
-2.84488668075078
0
ELLIPSE
5
18A
100
AcDbEntity
8
1
62
256
6
ByLayer
370
-1
48
1
60
0
100
AcDbEllipse
10
103.417493
20
3.561135
30
0
11
1.1632843730555E-14
21
9.9302663711333
31
0
210
0
220
0
230
1
40
0.996195
41
1.62460353383979
42
1.64060949687468
0
ELLIPSE
5
18B
100
AcDbEntity
8
1
62
256
6
ByLayer
370
-1
48
1
60
0
100
AcDbEllipse
10
100.166142
20
9.760596
30
0
11
-3.21560811832046E-16
21
-0.300000000000001
31
0
210
0
220
0
230
1
40
0.996195
41
2.91469985083057
42
3.14159265358975
0
ELLIPSE
5
18C
100
AcDbEntity
8
1
62
256
6
ByLayer
370
-1
48
1
60
0
100
AcDbEllipse
10
95.85532
20
3.201475
30
0
11
-5.35934686386771E-15
21
-5.00000000000028
31
0
210
0
220
0
230
1
40
0.996195
41
1.58680228982978
42
1.59660228291656
0
ELLIPSE
5
18D
100
AcDbEntity
8
1
62
256
6
ByLayer
370
-1
48
1
60
0
100
AcDbEllipse
10
90.875473
20
3.07246
30
0
11
1.16328437305553E-14
21
9.93026637113358
31
0
210
0
220
0
230
1
40
0.996195
41
-1.54499037067321
42
-1.53953256490644
0
ELLIPSE
5
18E
100
AcDbEntity
8
1
62
256
6
ByLayer
370
-1
48
1
60
0
100
AcDbEllipse
10
95.645539
20
9.216465
30
0
11
5.77557701897395E-15
21
4.93026637113357
31
0
210
0
220
0
230
1
40
0.996195
41
-1.52678911283678
42
-1.51698911975
0
ELLIPSE
5
18F
100
AcDbEntity
8
1
62
256
6
ByLayer
370
-1
48
1
60
0
100
AcDbEllipse
10
90.876005
20
3.07246
30
0
11
-1.07186937277348E-14
21
-9.99999999999999
31
0
210
0
220
0
230
1
40
0.996195
41
1.59660228291658
42
1.60570291183478
0
ELLIPSE
5
190
100
AcDbEntity
8
1
62
256
6
ByLayer
370
-1
48
1
60
0
100
AcDbEllipse
10
94.093787
20
4.849908
30
0
11
5.77557701897395E-15
21
4.93026637113357
31
0
210
0
220
0
230
1
40
0.996195
41
0.0440072139581178
42
0.0538072070448973
0
ELLIPSE
5
191
100
AcDbEntity
8
1
62
256
6
ByLayer
370
-1
48
1
60
0
100
AcDbEllipse
10
93.688139
20
9.533515
30
0
11
-3.21560811832046E-16
21
-0.300000000000001
31
0
210
0
220
0
230
1
40
0.996195
41
-3.07177948350999
42
-2.84488668075071
0
POINT
5
41
100
AcDbEntity
8
81
62
256
6
ByLayer
370
-1
48
1
60
0
100
AcDbPoint
10
101
20
0
30
0
39
0
210
0
220
0
230
1
50
360
0
POINT
5
43
100
AcDbEntity
8
80
62
256
6
ByLayer
370
-1
48
1
60
0
100
AcDbPoint
10
0
20
0
30
0
39
0
210
0
220
0
230
1
50
360
0
SPLINE
5
192
100
AcDbEntity
8
1
62
256
6
ByLayer
370
-1
48
1
60
0
100
AcDbSpline
70
4
71
3
72
17
73
13
40
0
40
0
40
0
40
0
40
0.0923681888257288
40
0.187087740680855
40
0.282916937709522
40
0.378524211767056
40
0.472596208425647
40
0.565265937034817
40
0.674644929196138
40
0.782713797768714
40
0.890676421156681
40
1
40
1
40
1
40
1
41
1
10
17
20
9.81999999999996
30
0
41
1
10
16.5649055149528
20
9.82046012815664
30
0
41
1
10
15.6967795526096
20
9.89054188619534
30
0
41
1
10
14.4084875941493
20
10.212180633589
30
0
41
1
10
13.1789350530479
20
10.7478376050988
30
0
41
1
10
12.0628613148471
20
11.4829029392617
30
0
41
1
10
11.0762979506662
20
12.3702573347499
30
0
41
1
10
10.2790322529117
20
13.5028446037797
30
0
41
1
10
9.26049088871648
20
14.5455170037409
30
0
41
1
10
7.96799811585714
20
15.3645485806641
30
0
41
1
10
6.52306223019048
20
15.88293777341
30
0
41
1
10
5.51983711966952
20
15.9980950665467
30
0
41
1
10
5.00000000000003
20
16
30
0
0
SPLINE
5
193
100
AcDbEntity
8
1
62
256
6
ByLayer
370
-1
48
1
60
0
100
AcDbSpline
70
4
71
3
72
17
73
13
40
0
40
0
40
0
40
0
40
0.0929478512700358
40
0.184729719325414
40
0.276306412769965
40
0.368436308674525
40
0.461859359355032
40
0.554252096443547
40
0.665901624272132
40
0.778844317674355
40
0.890903081099174
40
1
40
1
40
1
40
1
41
1
10
4.99999999999997
20
-16
30
0
41
1
10
5.43968623661206
20
-15.9990111425382
30
0
41
1
10
6.29468615712932
20
-15.9152381688548
30
0
41
1
10
7.54021246576704
20
-15.5408743587493
30
0
41
1
10
8.68130087265436
20
-14.9386443287937
30
0
41
1
10
9.7112752233478
20
-14.1386515271084
30
0
41
1
10
10.5233043922843
20
-13.1226368524944
30
0
41
1
10
11.3929698535455
20
-12.0382623147983
30
0
41
1
10
12.5594833838086
20
-11.1071886864901
30
0
41
1
10
13.9522990117769
20
-10.3660715280886
30
0
41
1
10
15.4603515795667
20
-9.91873360369885
30
0
41
1
10
16.4841392320667
20
-9.82089620533722
30
0
41
1
10
17
20
-9.82000000000002
30
0
0
SPLINE
5
194
100
AcDbEntity
8
1
62
256
6
ByLayer
370
-1
48
1
60
0
100
AcDbSpline
70
4
71
3
72
20
73
16
40
0
40
0
40
0
40
0
40
0.0553893404808947
40
0.136567403713258
40
0.217471982885427
40
0.297898519492196
40
0.37777737095716
40
0.457177337562009
40
0.536273217725282
40
0.615298749254391
40
0.694429112718022
40
0.773874250405757
40
0.853793010588096
40
0.934241316975778
40
1
40
1
40
1
40
1
41
1
10
97.2113834561132
20
7.64458626789312
30
0
41
1
10
97.2914894793818
20
7.6503935329244
30
0
41
1
10
97.4854678609587
20
7.64578037756863
30
0
41
1
10
97.787759589277
20
7.55386390333962
30
0
41
1
10
98.0903493435383
20
7.37579329390974
30
0
41
1
10
98.3393861391353
20
7.12560013224919
30
0
41
1
10
98.5188242659376
20
6.82165925122274
30
0
41
1
10
98.6178506080398
20
6.48283112049867
30
0
41
1
10
98.6308016834644
20
6.130563889634
30
0
41
1
10
98.5573983876973
20
5.78665232172105
30
0
41
1
10
98.402624578519
20
5.472126392474
30
0
41
1
10
98.1760351070146
20
5.20596619666162
30
0
41
1
10
97.8917891049388
20
5.00429367452486
30
0
41
1
10
97.5855020877751
20
4.88712767427455
30
0
41
1
10
97.379744107327
20
4.85870526106319
30
0
41
1
10
97.2845745586041
20
4.85518797668274
30
0
0
SPLINE
5
195
100
AcDbEntity
8
1
62
256
6
ByLayer
370
-1
48
1
60
0
100
AcDbSpline
70
4
71
3
72
12
73
8
40
0
40
0
40
0
40
0
40
0.164204343132839
40
0.387684129788698
40
0.610202846000534
40
0.831791737143896
40
1
40
1
40
1
40
1
41
1
10
96.0080665844374
20
-1.75221457074156
30
0
41
1
10
96.0411148796261
20
-1.67325328169184
30
0
41
1
10
96.1334118506481
20
-1.49388917764583
30
0
41
1
10
96.3426473708853
20
-1.2484233552334
30
0
41
1
10
96.6305479357857
20
-1.04405755294064
30
0
41
1
10
96.9358039210404
20
-0.927203550163995
30
0
41
1
10
97.1383423194259
20
-0.897413725154877
30
0
41
1
10
97.228271806398
20
-0.892515623947958
30
0
0
SPLINE
5
196
100
AcDbEntity
8
1
62
256
6
ByLayer
370
-1
48
1
60
0
100
AcDbSpline
70
4
71
3
72
10
73
6
40
0
40
0
40
0
40
0
40
0.153028599947077
40
0.633930324065701
40
1
40
1
40
1
40
1
41
1
10
97.228271806398
20
-0.892515623947958
30
0
41
1
10
97.2653130949994
20
-0.89058932677159
30
0
41
1
10
97.4180596637344
20
-0.888579299132431
30
0
41
1
10
97.6597508566664
20
-0.925096696065168
30
0
41
1
10
97.851366583616
20
-0.999160571315286
30
0
41
1
10
97.9303187085659
20
-1.03855757811499
30
0
0
SPLINE
5
197
100
AcDbEntity
8
1
62
256
6
ByLayer
370
-1
48
1
60
0
100
AcDbSpline
70
4
71
3
72
14
73
10
40
0
40
0
40
0
40
0
40
0.15467904233261
40
0.30935808466522
40
0.46403712699783
40
0.61871616933044
40
0.77339521166305
40
0.92807425399566
40
1
40
1
40
1
40
1
41
1
10
89.8553745494456
20
5.66999999999985
30
0
41
1
10
89.4825574157888
20
5.66177417364423
30
0
41
1
10
88.7368384786574
20
5.64363055754842
30
0
41
1
10
87.6180490221126
20
5.61095513786981
30
0
41
1
10
86.499244558339
20
5.57251166031412
30
0
41
1
10
85.3806653261069
20
5.52813201514704
30
0
41
1
10
84.2622416697885
20
5.47765351674204
30
0
41
1
10
83.3431666999763
20
5.43119519428669
30
0
41
1
10
82.7969513000607
20
5.40143450249019
30
0
41
1
10
82.6235809486433
20
5.3917761839125
30
0
0
SPLINE
5
198
100
AcDbEntity
8
1
62
256
6
ByLayer
370
-1
48
1
60
0
100
AcDbSpline
70
4
71
3
72
8
73
4
40
0
40
0
40
0
40
0
40
1
40
1
40
1
40
1
41
1
10
7.50357543291634
20
1.25263687966816
30
0
41
1
10
7.66299996089029
20
0.988266316565273
30
0
41
1
10
7.82631948291723
20
0.731260965657469
30
0
41
1
10
7.99293871527351
20
0.48043013359316
30
0
0
SPLINE
5
199
100
AcDbEntity
8
1
62
256
6
ByLayer
370
-1
48
1
60
0
100
AcDbSpline
70
4
71
3
72
14
73
10
40
0
40
0
40
0
40
0
40
0.499999999999999
40
0.499999999999999
40
0.749999999999999
40
0.749999999999999
40
0.874999999999999
40
0.874999999999999
40
1
40
1
40
1
40
1
41
1
10
59
20
9.23036636219533
30
0
41
1
10
62.7402426800462
20
8.94696322024885
30
0
41
1
10
66.4700640647497
20
8.50484474771341
30
0
41
1
10
72.0675975962408
20
7.63465233446732
30
0
41
1
10
73.9339539582339
20
7.31023084834447
30
0
41
1
10
76.7369313065196
20
6.77804028676161
30
0
41
1
10
77.6721409160549
20
6.59299930664184
30
0
41
1
10
79.5421242104334
20
6.20928949739735
30
0
41
1
10
80.4769629293708
20
6.01061631089556
30
0
41
1
10
81.4118558434783
20
5.80571824876165
30
0
0
SPLINE
5
19A
100
AcDbEntity
8
1
62
256
6
ByLayer
370
-1
48
1
60
0
100
AcDbSpline
70
4
71
3
72
20
73
16
40
0
40
0
40
0
40
0
40
0.25
40
0.25
40
0.3125
40
0.3125
40
0.375
40
0.375
40
0.500000000000001
40
0.500000000000001
40
0.625000000000001
40
0.625000000000001
40
0.750000000000001
40
0.750000000000001
40
1
40
1
40
1
40
1
41
1
10
17
20
6.10812699936403
30
0
41
1
10
16.5341855717803
20
6.25250887685269
30
0
41
1
10
16.0647690111465
20
6.40345842661404
30
0
41
1
10
15.4756144813957
20
6.60835575195085
30
0
41
1
10
15.3574466569062
20
6.65023900873805
30
0
41
1
10
15.1226161984805
20
6.7352838724205
30
0
41
1
10
15.0058376937184
20
6.77848261128463
30
0
41
1
10
14.6575183955323
20
6.91039341415561
30
0
41
1
10
14.4279919789175
20
7.00141683305833
30
0
41
1
10
13.9749147617079
20
7.19121915616759
30
0
41
1
10
13.7513628284781
20
7.28999613873972
30
0
41
1
10
13.3109080850758
20
7.49701895287882
30
0
41
1
10
13.0937219521207
20
7.60541277837794
30
0
41
1
10
12.4550876046908
20
7.94671883288859
30
0
41
1
10
12.0549262842905
20
8.19113939909516
30
0
41
1
10
11.6817011429319
20
8.45771236418304
30
0
0
SPLINE
5
19B
100
AcDbEntity
8
1
62
256
6
ByLayer
370
-1
48
1
60
0
100
AcDbSpline
70
4
71
3
72
8
73
4
40
0
40
0
40
0
40
0
40
1
40
1
40
1
40
1
41
1
10
91.880204334968
20
2.83437280246884
30
0
41
1
10
92.3582818090085
20
2.62277493130924
30
0
41
1
10
92.8542033744005
20
2.47560231795819
30
0
41
1
10
93.3679223694737
20
2.3926428370894
30
0
0
SPLINE
5
19C
100
AcDbEntity
8
1
62
256
6
ByLayer
370
-1
48
1
60
0
100
AcDbSpline
70
4
71
3
72
14
73
10
40
0
40
0
40
0
40
0
40
0.0705200632889676
40
0.0705200632889676
40
0.380346708859312
40
0.380346708859312
40
0.690173354429656
40
0.690173354429656
40
1
40
1
40
1
40
1
41
1
10
99.7402570779647
20
2.6406343188645
30
0
41
1
10
99.7397848515744
20
2.63321570976774
30
0
41
1
10
99.7392831875338
20
2.62600118604931
30
0
41
1
10
99.736445730841
20
2.5881824010383
30
0
41
1
10
99.7336042946364
20
2.5612525173747
30
0
41
1
10
99.7274789331929
20
2.51820024968387
30
0
41
1
10
99.7241329646519
20
2.50153158706922
30
0
41
1
10
99.7171953090588
20
2.47911121718238
30
0
41
1
10
99.7136637489526
20
2.47345434188244
30
0
41
1
10
99.7101242343271
20
2.47342162618853
30
0
0
SPLINE
5
19D
100
AcDbEntity
8
1
62
256
6
ByLayer
370
-1
48
1
60
0
100
AcDbSpline
70
4
71
3
72
8
73
4
40
0
40
0
40
0
40
0
40
1
40
1
40
1
40
1
41
1
10
82.2324541038107
20
5.58736655010026
30
0
41
1
10
81.9642087422795
20
5.65487484403039
30
0
41
1
10
81.6905648129892
20
5.72776967160473
30
0
41
1
10
81.4118558434775
20
5.80571824876228
30
0
0
SPLINE
5
19E
100
AcDbEntity
8
1
62
256
6
ByLayer
370
-1
48
1
60
0
100
AcDbSpline
70
4
71
1
72
4
73
2
40
0
40
0
40
1
40
1
41
1
10
18.1817011429303
20
2.3600706836317
30
0
41
1
10
18.1817011429304
20
5.70458714444547
30
0
0
SPLINE
5
19F
100
AcDbEntity
8
1
62
256
6
ByLayer
370
-1
48
1
60
0
100
AcDbSpline
70
4
71
3
72
8
73
4
40
0
40
0
40
0
40
0
40
1
40
1
40
1
40
1
41
1
10
91.912541524708
20
1.46570873914982
30
0
41
1
10
91.7633260023857
20
1.48895368956983
30
0
41
1
10
91.6135617782239
20
1.51952758310398
30
0
41
1
10
91.4644697552875
20
1.55701519949204
30
0
0
SPLINE
5
1A0
100
AcDbEntity
8
1
62
256
6
ByLayer
370
-1
48
1
60
0
100
AcDbSpline
70
4
71
3
72
8
73
4
40
0
40
0
40
0
40
0
40
1
40
1
40
1
40
1
41
1
10
18.1817011429306
20
5.70458714444541
30
0
41
1
10
19.4545741020779
20
5.41277183440263
30
0
41
1
10
20.7272013904948
20
5.10971878904263
30
0
41
1
10
22
20
4.79665554955142
30
0
0
SPLINE
5
1A1
100
AcDbEntity
8
1
62
256
6
ByLayer
370
-1
48
1
60
0
100
AcDbSpline
70
4
71
3
72
42
73
38
40
0
40
0
40
0
40
0
40
0.0621739760728573
40
0.124347952145715
40
0.155434940182143
40
0.186521928218572
40
0.217608916255001
40
0.248695904291429
40
0.279782892327858
40
0.310869880364287
40
0.341956868400716
40
0.373043856437144
40
0.404130844473573
40
0.435217832510002
40
0.450761326528216
40
0.46630482054643
40
0.497391808582859
40
0.512935302601073
40
0.528478796619288
40
0.559565784655716
40
0.575109278673931
40
0.590652772692145
40
0.621739760728574
40
0.652826748765003
40
0.683913736801431
40
0.71500072483786
40
0.746087712874289
40
0.777174700910717
40
0.808261688947146
40
0.870435665020003
40
0.901522653056432
40
0.932609641092861
40
0.948153135111075
40
0.963696629129289
40
0.979240123147504
40
0.994783617165718
40
1
40
1
40
1
40
1
41
1
10
11.6817011429318
20
7.12291339459975
30
0
41
1
10
11.5796160177522
20
7.06394066548083
30
0
41
1
10
11.3696495983554
20
6.93432901212395
30
0
41
1
10
11.0949628205406
20
6.74230727341731
30
0
41
1
10
10.869647163083
20
6.57065181749093
30
0
41
1
10
10.698418679237
20
6.43302194862065
30
0
41
1
10
10.5254898314882
20
6.28663455838
30
0
41
1
10
10.351486018982
20
6.13177253582671
30
0
41
1
10
10.1770326408641
20
5.96871877001846
30
0
41
1
10
10.0028161742103
20
5.79791203786266
30
0
41
1
10
9.82952309609647
20
5.61979111626667
30
0
41
1
10
9.65786943100596
20
5.43494126038513
30
0
41
1
10
9.48857120342208
20
5.24394772537261
30
0
41
1
10
9.35004301445971
20
5.08025881060345
30
0
41
1
10
9.24110714536548
20
4.94694635564312
30
0
41
1
10
9.13353962245668
20
4.81219336944571
30
0
41
1
10
9.02819045602857
20
4.67548011268212
30
0
41
1
10
8.92539132048617
20
4.5372076379312
30
0
41
1
10
8.82438910643802
20
4.39803771943758
30
0
41
1
10
8.72622762598701
20
4.25773468770322
30
0
41
1
10
8.63119758184456
20
4.11672464747471
30
0
41
1
10
8.53833351847436
20
3.97538602582654
30
0
41
1
10
8.42646157177171
20
3.79836432906018
30
0
41
1
10
8.29941838714385
20
3.58623736686906
30
0
41
1
10
8.17991677875494
20
3.37522561731026
30
0
41
1
10
8.06829517142873
20
3.16614521908755
30
0
41
1
10
7.96475194528762
20
2.95973339629722
30
0
41
1
10
7.86948548045407
20
2.75672737303546
30
0
41
1
10
7.75357960509783
20
2.49143163621028
30
0
41
1
10
7.6544684403919
20
2.2354611828994
30
0
41
1
10
7.5718902587214
20
1.99082316969833
30
0
41
1
10
7.52702394864269
20
1.84295268877088
30
0
41
1
10
7.49509171897932
20
1.72785712678939
30
0
41
1
10
7.47310425715779
20
1.6432272782059
30
0
41
1
10
7.45305980698851
20
1.56038066404744
30
0
41
1
10
7.43887016640176
20
1.49695684350198
30
0
41
1
10
7.43125942661362
20
1.46097916894297
30
0
41
1
10
7.42937861534392
20
1.45195512309687
30
0
0
SPLINE
5
1A2
100
AcDbEntity
8
1
62
256
6
ByLayer
370
-1
48
1
60
0
100
AcDbSpline
70
4
71
3
72
8
73
4
40
0
40
0
40
0
40
0
40
1
40
1
40
1
40
1
41
1
10
92.1469862317793
20
1.43901664459923
30
0
41
1
10
92.0715443353228
20
1.44422157162342
30
0
41
1
10
91.9931406042217
20
1.45315293008898
30
0
41
1
10
91.9125415247084
20
1.46570873914973
30
0
0
SPLINE
5
1A3
100
AcDbEntity
8
1
62
256
6
ByLayer
370
-1
48
1
60
0
100
AcDbSpline
70
4
71
3
72
16
73
12
40
0
40
0
40
0
40
0
40
0.25
40
0.25
40
0.5
40
0.5
40
0.625
40
0.625
40
0.75
40
0.75
40
1
40
1
40
1
40
1
41
1
10
22
20
-8.28320679885414
30
0
41
1
10
25.0858345389891
20
-8.73284120527595
30
0
41
1
10
28.1643318344716
20
-9.08188094102897
30
0
41
1
10
34.3227288531087
20
-9.55925009669144
30
0
41
1
10
37.402514534892
20
-9.68785704986956
30
0
41
1
10
42.0342439808684
20
-9.71018307711037
30
0
41
1
10
43.5775631054995
20
-9.68923204570407
30
0
41
1
10
46.6615196537311
20
-9.59152673272254
30
0
41
1
10
48.2027071502842
20
-9.51478851272921
30
0
41
1
10
52.8265828627653
20
-9.20332489499799
30
0
41
1
10
55.9093648334062
20
-8.88674349774314
30
0
41
1
10
59
20
-8.471500741428
30
0
0
SPLINE
5
1A4
100
AcDbEntity
8
1
62
256
6
ByLayer
370
-1
48
1
60
0
100
AcDbSpline
70
4
71
3
72
10
73
6
40
0
40
0
40
0
40
0
40
0.5
40
0.5
40
1
40
1
40
1
40
1
41
1
10
93.1605697095533
20
6.25798309682139
30
0
41
1
10
93.1634068467547
20
6.25798309682139
30
0
41
1
10
93.1687129320544
20
6.2608520468977
30
0
41
1
10
93.1838752728268
20
6.27165993390221
30
0
41
1
10
93.1938274575418
20
6.27968029350086
30
0
41
1
10
93.2057277479355
20
6.28966629284378
30
0
0
SPLINE
5
1A5
100
AcDbEntity
8
1
62
256
6
ByLayer
370
-1
48
1
60
0
100
AcDbSpline
70
4
71
3
72
84
73
80
40
-0.03125
40
-0.03125
40
0
40
0
40
0.0312499999999999
40
0.0312499999999999
40
0.0468750000000002
40
0.0468750000000002
40
0.0625000000000004
40
0.0625000000000004
40
0.0937500000000008
40
0.0937500000000008
40
0.125000000000001
40
0.125000000000001
40
0.156250000000002
40
0.156250000000002
40
0.171875000000002
40
0.171875000000002
40
0.187500000000002
40
0.187500000000002
40
0.218750000000003
40
0.218750000000003
40
0.250000000000003
40
0.250000000000003
40
0.281250000000003
40
0.281250000000003
40
0.312500000000004
40
0.312500000000004
40
0.328125000000002
40
0.328125000000002
40
0.34375
40
0.34375
40
0.375
40
0.375
40
0.40625
40
0.40625
40
0.4375
40
0.4375
40
0.46875
40
0.46875
40
0.484375
40
0.484375
40
0.500000000000001
40
0.500000000000001
40
0.531250000000002
40
0.531250000000002
40
0.562500000000003
40
0.562500000000003
40
0.578125000000002
40
0.578125000000002
40
0.593750000000002
40
0.593750000000002
40
0.625000000000001
40
0.625000000000001
40
0.656250000000001
40
0.656250000000001
40
0.6875
40
0.6875
40
0.718749999999999
40
0.718749999999999
40
0.749999999999999
40
0.749999999999999
40
0.781249999999998
40
0.781249999999998
40
0.796874999999998
40
0.796874999999998
40
0.812499999999997
40
0.812499999999997
40
0.843749999999997
40
0.843749999999997
40
0.859374999999998
40
0.859374999999998
40
0.875
40
0.875
40
0.90625
40
0.90625
40
0.9375
40
0.9375
40
0.96875
40
0.96875
40
1
40
1
40
1.03125
40
1.03125
41
1
10
95.7670433874084
20
-1.74884389222677
30
0
41
1
10
95.7578424049459
20
-1.57066288275448
30
0
41
1
10
95.7617940275672
20
-1.48234604458338
30
0
41
1
10
95.7802932577455
20
-1.35102073725591
30
0
41
1
10
95.7885694945343
20
-1.30743891459545
30
0
41
1
10
95.8094777985494
20
-1.22068024311136
30
0
41
1
10
95.8221853237671
20
-1.17734732609205
30
0
41
1
10
95.8661638619033
20
-1.05074896544792
30
0
41
1
10
95.9033694513881
20
-0.970027226463657
30
0
41
1
10
95.993601180069
20
-0.816021271949808
30
0
41
1
10
96.0472397365789
20
-0.742287099897908
30
0
41
1
10
96.1662628637083
20
-0.608941883402565
30
0
41
1
10
96.231976171637
20
-0.548503788334699
30
0
41
1
10
96.3400842260799
20
-0.467472338919606
30
0
41
1
10
96.3777756317025
20
-0.442081936310956
30
0
41
1
10
96.4546708622989
20
-0.395708590447327
30
0
41
1
10
96.4940777104873
20
-0.374561364254163
30
0
41
1
10
96.6151301548668
20
-0.317145143503467
30
0
41
1
10
96.7002353538873
20
-0.286687133046684
30
0
41
1
10
96.8754181506637
20
-0.243363417466099
30
0
41
1
10
96.9639286381425
20
-0.230737962532544
30
0
41
1
10
97.1427420900403
20
-0.223115998230924
30
0
41
1
10
97.2339423466053
20
-0.228382474681723
30
0
41
1
10
97.4109055367395
20
-0.256616947713042
30
0
41
1
10
97.4973071476205
20
-0.279382847524715
30
0
41
1
10
97.6237462463216
20
-0.326676705516888
30
0
41
1
10
97.6654989358326
20
-0.344741060314277
30
0
41
1
10
97.7461154048224
20
-0.384544147720163
30
0
41
1
10
97.7851938202326
20
-0.40634597849521
30
0
41
1
10
97.8988115299636
20
-0.477335550104868
30
0
41
1
10
97.9701044133932
20
-0.53237455430201
30
0
41
1
10
98.1011978797964
20
-0.656550289341311
30
0
41
1
10
98.1595450041478
20
-0.724180542238713
30
0
41
1
10
98.2623741351309
20
-0.870056557879678
30
0
41
1
10
98.3071683090872
20
-0.949240329389028
30
0
41
1
10
98.3793527666977
20
-1.11250736822331
30
0
41
1
10
98.4071540949475
20
-1.19682674583714
30
0
41
1
10
98.4365623807682
20
-1.32724619746662
30
0
41
1
10
98.4443167744211
20
-1.37160226871035
30
0
41
1
10
98.4553882764835
20
-1.45998332473147
30
0
41
1
10
98.4587550216294
20
-1.50412726063436
30
0
41
1
10
98.4625530818262
20
-1.63641879602741
30
0
41
1
10
98.4567390131616
20
-1.72443683669965
30
0
41
1
10
98.4280824183842
20
-1.90005523328554
30
0
41
1
10
98.4056857560073
20
-1.98496051170343
30
0
41
1
10
98.3605704396787
20
-2.10822053361042
30
0
41
1
10
98.3435973862427
20
-2.14861936297083
30
0
41
1
10
98.305706398418
20
-2.22802741287248
30
0
41
1
10
98.2846761708879
20
-2.26719658094029
30
0
41
1
10
98.216755735377
20
-2.38039528282658
30
0
41
1
10
98.1648888599393
20
-2.45073429718758
30
0
41
1
10
98.0479343664579
20
-2.5812982620875
30
0
41
1
10
97.9820141482782
20
-2.64204193977019
30
0
41
1
10
97.8411508290922
20
-2.74829709057963
30
0
41
1
10
97.7660391591649
20
-2.79428516403044
30
0
41
1
10
97.6060278679628
20
-2.87153546460138
30
0
41
1
10
97.5206841891704
20
-2.9026611681584
30
0
41
1
10
97.3480344232142
20
-2.94639425187628
30
0
41
1
10
97.2597685215765
20
-2.95957373214534
30
0
41
1
10
97.0791368066758
20
-2.96765951895327
30
0
41
1
10
96.9891473863253
20
-2.96235226512857
30
0
41
1
10
96.8569146947018
20
-2.94103815496516
30
0
41
1
10
96.8131716723058
20
-2.93169728230436
30
0
41
1
10
96.7263631125487
20
-2.90847376613453
30
0
41
1
10
96.6832853950771
20
-2.89455050156465
30
0
41
1
10
96.5580237953124
20
-2.84697729181002
30
0
41
1
10
96.4787369161298
20
-2.80734215939037
30
0
41
1
10
96.3659045017397
20
-2.73630782362144
30
0
41
1
10
96.3291867115494
20
-2.71056134000432
30
0
41
1
10
96.2592073764959
20
-2.6561883183505
30
0
41
1
10
96.2257842592622
20
-2.62748017427398
30
0
41
1
10
96.1300425082861
20
-2.53692031183778
30
0
41
1
10
96.0719563273187
20
-2.47031965175603
30
0
41
1
10
95.969054316687
20
-2.32652744827584
30
0
41
1
10
95.9251733552036
20
-2.25079160778424
30
0
41
1
10
95.8519323095725
20
-2.09181529695593
30
0
41
1
10
95.8224210246561
20
-2.00776921995339
30
0
41
1
10
95.7800707627775
20
-1.83626053611348
30
0
41
1
10
95.7670433874084
20
-1.74884389222677
30
0
41
1
10
95.7578424049459
20
-1.57066288275448
30
0
0
SPLINE
5
1A6
100
AcDbEntity
8
1
62
256
6
ByLayer
370
-1
48
1
60
0
100
AcDbSpline
70
4
71
3
72
50
73
46
40
0
40
0
40
0
40
0
40
0.0624999999999998
40
0.0624999999999998
40
0.125
40
0.125
40
0.156249999999999
40
0.156249999999999
40
0.187499999999999
40
0.187499999999999
40
0.218749999999999
40
0.218749999999999
40
0.249999999999999
40
0.249999999999999
40
0.312499999999999
40
0.312499999999999
40
0.343749999999999
40
0.343749999999999
40
0.374999999999999
40
0.374999999999999
40
0.437499999999999
40
0.437499999999999
40
0.499999999999999
40
0.499999999999999
40
0.531249999999999
40
0.531249999999999
40
0.5625
40
0.5625
40
0.625
40
0.625
40
0.656249999999999
40
0.656249999999999
40
0.687499999999999
40
0.687499999999999
40
0.749999999999999
40
0.749999999999999
40
0.781249999999999
40
0.781249999999999
40
0.8125
40
0.8125
40
0.875
40
0.875
40
0.9375
40
0.9375
40
1
40
1
40
1
40
1
41
1
10
11.6817011429308
20
8.45771236417932
30
0
41
1
10
11.4761027140595
20
8.60426734102757
30
0
41
1
10
11.2817835380679
20
8.74643893967922
30
0
41
1
10
10.9147117276703
20
9.02794049663441
30
0
41
1
10
10.7419523195105
20
9.16722973309695
30
0
41
1
10
10.4987465022879
20
9.37751422496868
30
0
41
1
10
10.4191660362733
20
9.44714920107933
30
0
41
1
10
10.2519164709347
20
9.57793351771838
30
0
41
1
10
10.1653809501848
20
9.63977965490571
30
0
41
1
10
9.98651753146271
20
9.75563109595549
30
0
41
1
10
9.89433110548956
20
9.8095062185435
30
0
41
1
10
9.70641114019747
20
9.90753458237666
30
0
41
1
10
9.61045151694429
20
9.95184077194705
30
0
41
1
10
9.31705395806026
20
10.0696517943485
30
0
41
1
10
9.11410676552467
20
10.1281611368275
30
0
41
1
10
8.80035763550413
20
10.1804066876353
30
0
41
1
10
8.69525425230822
20
10.1916624236497
30
0
41
1
10
8.48628945190006
20
10.2014356289153
30
0
41
1
10
8.38215383973088
20
10.2000015733584
30
0
41
1
10
8.07159855053172
20
10.1763147031601
30
0
41
1
10
7.86697606580648
20
10.134807523092
30
0
41
1
10
7.46740773277
20
9.99548371498636
30
0
41
1
10
7.28017873726498
20
9.90035244210242
30
0
41
1
10
7.01990607434476
20
9.72190291744488
30
0
41
1
10
6.93658626668673
20
9.65642893245084
30
0
41
1
10
6.77726623820993
20
9.51351718155786
30
0
41
1
10
6.70099768462632
20
9.43567727154559
30
0
41
1
10
6.48855000899451
20
9.1895756112057
30
0
41
1
10
6.36701628292681
20
9.00772937374722
30
0
41
1
10
6.2144567996387
20
8.71069056257741
30
0
41
1
10
6.16841119784891
20
8.60711606849671
30
0
41
1
10
6.08741482839793
20
8.39431131404388
30
0
41
1
10
6.05254536390046
20
8.28548308886667
30
0
41
1
10
5.96408651891716
20
7.95222029783145
30
0
41
1
10
5.92654621505591
20
7.72107522207622
30
0
41
1
10
5.90155117913537
20
7.3614866869419
30
0
41
1
10
5.89854255430964
20
7.2399302564074
30
0
41
1
10
5.90276587397898
20
6.99659921320853
30
0
41
1
10
5.90996230057453
20
6.87437094370983
30
0
41
1
10
5.94615217608646
20
6.50596812350213
30
0
41
1
10
5.98971520146648
20
6.25796058440548
30
0
41
1
10
6.11397167461547
20
5.75718865808221
30
0
41
1
10
6.19322711346086
20
5.51008762988062
30
0
41
1
10
6.38169585180725
20
5.02072411089893
30
0
41
1
10
6.49094367283115
20
4.77847072548147
30
0
41
1
10
6.61379933207522
20
4.53781773440113
30
0
0
SPLINE
5
1A7
100
AcDbEntity
8
1
62
256
6
ByLayer
370
-1
48
1
60
0
100
AcDbSpline
70
4
71
3
72
10
73
6
40
0
40
0
40
0
40
0
40
0.5
40
0.5
40
1
40
1
40
1
40
1
41
1
10
91.8974318544617
20
2.7810866036827
30
0
41
1
10
92.0603130502612
20
2.66536571916481
30
0
41
1
10
92.227306583421
20
2.55777999259382
30
0
41
1
10
92.5756020757426
20
2.36004424333152
30
0
41
1
10
92.7565519015926
20
2.26974327969643
30
0
41
1
10
92.9521822448128
20
2.1906837005557
30
0
0
SPLINE
5
1A8
100
AcDbEntity
8
1
62
256
6
ByLayer
370
-1
48
1
60
0
100
AcDbSpline
70
4
71
3
72
20
73
16
40
0
40
0
40
0
40
0
40
0.160393617240747
40
0.160393617240747
40
0.320787234481494
40
0.320787234481494
40
0.481180851722241
40
0.481180851722241
40
0.641574468962988
40
0.641574468962988
40
0.801968086203735
40
0.801968086203735
40
0.962361703444482
40
0.962361703444482
40
1
40
1
40
1
40
1
41
1
10
18.1817011429331
20
2.36007068363119
30
0
41
1
10
17.7827775653824
20
2.19766665341797
30
0
41
1
10
17.3682524236227
20
1.95101379558181
30
0
41
1
10
16.5565829888278
20
1.31811910980716
30
0
41
1
10
16.159630142926
20
0.932026561696233
30
0
41
1
10
15.4300126290618
20
0.0658026203547024
30
0
41
1
10
15.0975200547812
20
-0.414124458060968
30
0
41
1
10
14.536136709084
20
-1.41135948900637
30
0
41
1
10
14.3073783502329
20
-1.92843222535112
30
0
41
1
10
13.9805396400014
20
-2.938885181188
30
0
41
1
10
13.8825363795295
20
-3.43202706680495
30
0
41
1
10
13.8288484154962
20
-4.33634348467609
30
0
41
1
10
13.8731763752264
20
-4.74730471730558
30
0
41
1
10
14.0125724328859
20
-5.1741040806603
30
0
41
1
10
14.04283949009
20
-5.2516186113819
30
0
41
1
10
14.0767423595093
20
-5.32531721837549
30
0
0
SPLINE
5
1A9
100
AcDbEntity
8
1
62
256
6
ByLayer
370
-1
48
1
60
0
100
AcDbSpline
70
4
71
3
72
16
73
12
40
0
40
0
40
0
40
0
40
0.25
40
0.25
40
0.500000000000001
40
0.500000000000001
40
0.625000000000001
40
0.625000000000001
40
0.750000000000001
40
0.750000000000001
40
1
40
1
40
1
40
1
41
1
10
59
20
-5.02339558318741
30
0
41
1
10
61.5684635984767
20
-5.6264854404173
30
0
41
1
10
64.131901864294
20
-6.18660339104943
30
0
41
1
10
69.2570896520113
20
-7.19763301654439
30
0
41
1
10
71.8188234092436
20
-7.64861789826534
30
0
41
1
10
75.666177927162
20
-8.22858909830268
30
0
41
1
10
76.949813153483
20
-8.40621037649532
30
0
41
1
10
79.5175420974693
20
-8.7259221129371
30
0
41
1
10
80.8006597543581
20
-8.86815134588002
30
0
41
1
10
84.6489347970571
20
-9.24021587777833
30
0
41
1
10
87.2132364900135
20
-9.41465011051682
30
0
41
1
10
89.7817011429232
20
-9.51086794809427
30
0
0
SPLINE
5
1AA
100
AcDbEntity
8
1
62
256
6
ByLayer
370
-1
48
1
60
0
100
AcDbSpline
70
4
71
4
72
19
73
14
40
0
40
0
40
0
40
0
40
0
40
0.437403020044985
40
0.437403020044985
40
0.437403020044985
40
0.656104530067477
40
0.656104530067477
40
0.656104530067477
40
0.87480604008997
40
0.87480604008997
40
0.87480604008997
40
1
40
1
40
1
40
1
40
1
41
1
10
18.1817011429331
20
2.36007068363119
30
0
41
1
10
18.1817011429331
20
1.73927774441751
30
0
41
0.974581796258695
10
18.1222871577884
20
0.684125001970908
30
0
41
0.974581796258695
10
17.9686552807958
20
-0.729303354555432
30
0
41
0.987290898129347
10
17.69029856389
20
-2.7499326473205
30
0
41
0.993645449064674
10
17.5914615118879
20
-3.39428610036963
30
0
41
1
10
17.4921243631738
20
-3.97682179780844
30
0
41
1
10
17.3078756368313
20
-4.96625450290352
30
0
41
0.993645449064674
10
17.2085384881172
20
-5.45061816178272
30
0
41
0.987290898129347
10
17.1097014361152
20
-5.86779293383827
30
0
41
0.980629455691541
10
16.9647012749055
20
-6.37254558787374
30
0
41
0.978898488144707
10
16.9141697296838
20
-6.52412732370488
30
0
41
0.978258964637378
10
16.8674960313978
20
-6.63670747869025
30
0
41
0.978653317367558
10
16.8255902298726
20
-6.70877770802113
30
0
0
SPLINE
5
1AB
100
AcDbEntity
8
1
62
256
6
ByLayer
370
-1
48
1
60
0
100
AcDbSpline
70
4
71
3
72
12
73
8
40
0
40
0
40
0
40
0
40
0.5
40
0.5
40
0.75
40
0.75
40
1
40
1
40
1
40
1
41
1
10
89.7817011428795
20
-9.51086794809333
30
0
41
1
10
90.0886536631553
20
-9.51748804190464
30
0
41
1
10
90.3862835661806
20
-9.52760456116809
30
0
41
1
10
90.819358513931
20
-9.54492904861257
30
0
41
1
10
90.9614738162672
20
-9.55104914798935
30
0
41
1
10
91.2411475054856
20
-9.5632758835911
30
0
41
1
10
91.379407218266
20
-9.56941220650864
30
0
41
1
10
91.5130517055925
20
-9.5750143479091
30
0
0
SPLINE
5
1AC
100
AcDbEntity
8
1
62
256
6
ByLayer
370
-1
48
1
60
0
100
AcDbSpline
70
4
71
2
72
6
73
3
40
0
40
0
40
0
40
1
40
1
40
1
41
1
10
7.50357543291625
20
1.2526368796683
30
0
41
1
10
7.50357543291631
20
-0.18925809550845
30
0
41
1
10
7.50357543291634
20
-1.63115307068517
30
0
0
SPLINE
5
1AD
100
AcDbEntity
8
1
62
256
6
ByLayer
370
-1
48
1
60
0
100
AcDbSpline
70
4
71
3
72
16
73
12
40
0
40
0
40
0
40
0
40
0.25
40
0.25
40
0.5
40
0.5
40
0.625000000000001
40
0.625000000000001
40
0.750000000000001
40
0.750000000000001
40
1
40
1
40
1
40
1
41
1
10
13.0035754329165
20
-4.40581799002533
30
0
41
1
10
13.1540533632035
20
-4.55236149777122
30
0
41
1
10
13.3188570514198
20
-4.70096155218027
30
0
41
1
10
13.6742961218862
20
-5.00489840978935
30
0
41
1
10
13.8649344367822
20
-5.16021993657745
30
0
41
1
10
14.1697452062425
20
-5.39788288183985
30
0
41
1
10
14.2746419631576
20
-5.47794700320878
30
0
41
1
10
14.4876522930782
20
-5.63693594680552
30
0
41
1
10
14.5961333213122
20
-5.71615176462402
30
0
41
1
10
14.9275042272347
20
-5.95238455538586
30
0
41
1
10
15.1562655851756
20
-6.10803643434292
30
0
41
1
10
15.3935725190743
20
-6.25969409029045
30
0
0
SPLINE
5
1AE
100
AcDbEntity
8
1
62
256
6
ByLayer
370
-1
48
1
60
0
100
AcDbSpline
70
4
71
3
72
8
73
4
40
0
40
0
40
0
40
0
40
1
40
1
40
1
40
1
41
1
10
17
20
-7.44400255099646
30
0
41
1
10
18.6669394421557
20
-7.75017080294344
30
0
41
1
10
20.3331818034315
20
-8.03082898173156
30
0
41
1
10
22.0000000000001
20
-8.28320679885371
30
0
0
SPLINE
5
1AF
100
AcDbEntity
8
1
62
256
6
ByLayer
370
-1
48
1
60
0
100
AcDbSpline
70
4
71
3
72
20
73
16
40
0
40
0
40
0
40
0
40
0.25
40
0.25
40
0.375
40
0.375
40
0.4375
40
0.4375
40
0.5
40
0.5
40
0.750000000000001
40
0.750000000000001
40
0.875000000000001
40
0.875000000000001
40
1
40
1
40
1
40
1
41
1
10
13.0035754329165
20
-6.27509261281955
30
0
41
1
10
13.2127846777078
20
-6.46358568233819
30
0
41
1
10
13.4513097992157
20
-6.61087748264333
30
0
41
1
10
13.851467945454
20
-6.79469671756499
30
0
41
1
10
13.9919705169347
20
-6.84964411260952
30
0
41
1
10
14.2136889722122
20
-6.92476328706383
30
0
41
1
10
14.2896195982692
20
-6.94863340580227
30
0
41
1
10
14.443740091619
20
-6.9938332563836
30
0
41
1
10
14.5220293882261
20
-7.01520581648046
30
0
41
1
10
14.9195732684932
20
-7.11690659358072
30
0
41
1
10
15.2569323784335
20
-7.18206599388046
30
0
41
1
10
15.7933079674023
20
-7.26953816018803
30
0
41
1
10
15.9779020064639
20
-7.29701234707102
30
0
41
1
10
16.3521572954271
20
-7.34943445344564
30
0
41
1
10
16.542236824777
20
-7.37446494189544
30
0
41
1
10
16.7353075938472
20
-7.39909248956749
30
0
0
SPLINE
5
1B0
100
AcDbEntity
8
1
62
256
6
ByLayer
370
-1
48
1
60
0
100
AcDbSpline
70
4
71
3
72
14
73
10
40
0
40
0
40
0
40
0
40
0.500000000000008
40
0.500000000000008
40
0.62500000000001
40
0.62500000000001
40
0.750000000000012
40
0.750000000000012
40
1
40
1
40
1
40
1
41
1
10
89.8553745494456
20
9.56924514531192
30
0
41
1
10
90.2067824559204
20
9.57470433444723
30
0
41
1
10
90.5431203661794
20
9.58286626377472
30
0
41
1
10
90.9454572374934
20
9.59137239308996
30
0
41
1
10
91.0250083408719
20
9.59297767988784
30
0
41
1
10
91.1822485173233
20
9.5958194173046
30
0
41
1
10
91.2601947015407
20
9.5970587065556
30
0
41
1
10
91.4889562710518
20
9.59989342498875
30
0
41
1
10
91.6345904612885
20
9.60061602340298
30
0
41
1
10
91.7735648013149
20
9.59940921134088
30
0
0
SPLINE
5
1B1
100
AcDbEntity
8
1
62
256
6
ByLayer
370
-1
48
1
60
0
100
AcDbSpline
70
4
71
3
72
10
73
6
40
0
40
0
40
0
40
0
40
0.0581587497116973
40
0.0581587497116973
40
1
40
1
40
1
40
1
41
1
10
49.1726043267012
20
9.65843313318081
30
0
41
1
10
49.362973176127
20
9.65729903968941
30
0
41
1
10
49.553340621061
20
9.65574510456369
30
0
41
1
10
52.8265785661609
20
9.62181029467828
30
0
41
1
10
55.9092647081941
20
9.47899682935386
30
0
41
1
10
59.0000000000001
20
9.23036636219544
30
0
0
SPLINE
5
1B2
100
AcDbEntity
8
1
62
256
6
ByLayer
370
-1
48
1
60
0
100
AcDbSpline
70
4
71
3
72
14
73
10
40
0
40
0
40
0
40
0
40
0.506970915048228
40
0.506970915048228
40
0.633713643810284
40
0.633713643810284
40
0.76045637257234
40
0.76045637257234
40
1
40
1
40
1
40
1
41
1
10
96.1894642452618
20
5.98108456881002
30
0
41
1
10
96.2062687797508
20
5.82064388909643
30
0
41
1
10
96.2500882942181
20
5.66154937617725
30
0
41
1
10
96.3442556931442
20
5.46649764086115
30
0
41
1
10
96.3652104728109
20
5.42755450819553
30
0
41
1
10
96.4106780340693
20
5.35156655115151
30
0
41
1
10
96.435244636158
20
5.31437805855904
30
0
41
1
10
96.5117140454602
20
5.20940631729934
30
0
41
1
10
96.5684278676018
20
5.14381756008393
30
0
41
1
10
96.6327968677167
20
5.08199539712243
30
0
0
SPLINE
5
1B3
100
AcDbEntity
8
1
62
256
6
ByLayer
370
-1
48
1
60
0
100
AcDbSpline
70
4
71
3
72
8
73
4
40
0
40
0
40
0
40
0
40
1
40
1
40
1
40
1
41
1
10
96.1819640286664
20
6.11150474020798
30
0
41
1
10
96.1824022997324
20
6.06830551620504
30
0
41
1
10
96.1848850138476
20
6.02480461360716
30
0
41
1
10
96.1894642452618
20
5.98108456880999
30
0
0
SPLINE
5
1B4
100
AcDbEntity
8
1
62
256
6
ByLayer
370
-1
48
1
60
0
100
AcDbSpline
70
4
71
3
72
14
73
10
40
0
40
0
40
0
40
0
40
0.25
40
0.25
40
0.5
40
0.5
40
0.75
40
0.75
40
1
40
1
40
1
40
1
41
1
10
93.0540184931554
20
9.5995266830204
30
0
41
1
10
93.0582043477141
20
9.59905328894334
30
0
41
1
10
93.0679417748064
20
9.59823988044286
30
0
41
1
10
93.0981113458322
20
9.59605503713956
30
0
41
1
10
93.1188424376469
20
9.59466766115992
30
0
41
1
10
93.1691455033141
20
9.59165267367433
30
0
41
1
10
93.199155643252
20
9.5899978924657
30
0
41
1
10
93.2674028591527
20
9.58672507771314
30
0
41
1
10
93.3050174304213
20
9.58513478086786
30
0
41
1
10
93.3461714825775
20
9.58371299156116
30
0
0
SPLINE
5
1B5
100
AcDbEntity
8
1
62
256
6
ByLayer
370
-1
48
1
60
0
100
AcDbSpline
70
4
71
3
72
16
73
12
40
0
40
0
40
0
40
0
40
0.292873795543152
40
0.292873795543152
40
0.585747591086304
40
0.585747591086304
40
0.73218448885788
40
0.73218448885788
40
0.878621386629456
40
0.878621386629456
40
1
40
1
40
1
40
1
41
1
10
7.50357543291636
20
1.25263687966807
30
0
41
1
10
7.34742581531935
20
1.53705261516811
30
0
41
1
10
7.21185238463991
20
1.82635955115322
30
0
41
1
10
6.97811169327116
20
2.40819806425148
30
0
41
1
10
6.87988257497364
20
2.70084829175497
30
0
41
1
10
6.76182157785698
20
3.13534513437116
30
0
41
1
10
6.72739193272355
20
3.27939789958793
30
0
41
1
10
6.66948722431505
20
3.56415765474105
30
0
41
1
10
6.64652126193928
20
3.70257012033522
30
0
41
1
10
6.61651209957856
20
3.9436049906798
30
0
41
1
10
6.60735567752204
20
4.0485737006735
30
0
41
1
10
6.60297599943635
20
4.14861337207074
30
0
0
SPLINE
5
1B6
100
AcDbEntity
8
1
62
256
6
ByLayer
370
-1
48
1
60
0
100
AcDbSpline
70
4
71
3
72
24
73
20
40
0
40
0
40
0
40
0
40
0.0625000000000016
40
0.0625000000000016
40
0.125000000000003
40
0.125000000000003
40
0.187500000000004
40
0.187500000000004
40
0.250000000000005
40
0.250000000000005
40
0.375000000000004
40
0.375000000000004
40
0.500000000000003
40
0.500000000000003
40
0.750000000000002
40
0.750000000000002
40
0.875000000000001
40
0.875000000000001
40
1
40
1
40
1
40
1
41
1
10
91.1890408750334
20
4.07760895181818
30
0
41
1
10
91.1687303247413
20
4.05369967463912
30
0
41
1
10
91.1499837402549
20
4.02871315111716
30
0
41
1
10
91.115972295537
20
3.9763393140133
30
0
41
1
10
91.1006006678539
20
3.94865073230395
30
0
41
1
10
91.0748095258255
20
3.89289669178171
30
0
41
1
10
91.0642373261134
20
3.86467911266476
30
0
41
1
10
91.047544657005
20
3.80760033382344
30
0
41
1
10
91.0414533803323
20
3.77863599538867
30
0
41
1
10
91.0299124743426
20
3.69402675455899
30
0
41
1
10
91.0308688201154
20
3.63892931688707
30
0
41
1
10
91.0448318229988
20
3.53674695644645
30
0
41
1
10
91.0576596560009
20
3.48913105983468
30
0
41
1
10
91.1089522799005
20
3.3546734759181
30
0
41
1
10
91.1577035686697
20
3.28075390885863
30
0
41
1
10
91.2443292095826
20
3.18724293100516
30
0
41
1
10
91.2754302668646
20
3.15934767401808
30
0
41
1
10
91.3406835951091
20
3.11048691230911
30
0
41
1
10
91.3749771341192
20
3.08937574291673
30
0
41
1
10
91.41091559903
20
3.07157562460566
30
0
0
SPLINE
5
1B7
100
AcDbEntity
8
1
62
256
6
ByLayer
370
-1
48
1
60
0
100
AcDbSpline
70
4
71
3
72
8
73
4
40
0
40
0
40
0
40
0
40
1
40
1
40
1
40
1
41
1
10
16.6707046027204
20
-6.70224085350279
30
0
41
1
10
16.6922124757327
20
-6.70596992865305
30
0
41
1
10
16.7137475544527
20
-6.70967628761099
30
0
41
1
10
16.7353075938472
20
-6.71336012448057
30
0
0
SPLINE
5
1B8
100
AcDbEntity
8
1
62
256
6
ByLayer
370
-1
48
1
60
0
100
AcDbSpline
70
4
71
3
72
22
73
18
40
0
40
0
40
0
40
0
40
0.125
40
0.125
40
0.1875
40
0.1875
40
0.25
40
0.25
40
0.375
40
0.375
40
0.5
40
0.5
40
0.625
40
0.625
40
0.750000000000001
40
0.750000000000001
40
1
40
1
40
1
40
1
41
1
10
22
20
4.79665554955142
30
0
41
1
10
23.5430412880418
20
4.41316465549889
30
0
41
1
10
25.0845770034323
20
4.01818036454904
30
0
41
1
10
27.395471600585
20
3.41149573666971
30
0
41
1
10
28.1654239928708
20
3.20651514969211
30
0
41
1
10
29.7053477710204
20
2.79349843210298
30
0
41
1
10
30.4752402395629
20
2.58519694111064
30
0
41
1
10
32.7845053572604
20
1.95418935292247
30
0
41
1
10
34.324114386782
20
1.52763221285593
30
0
41
1
10
37.405803373557
20
0.670957163636956
30
0
41
1
10
38.9476835295628
20
0.240123814369611
30
0
41
1
10
42.0354019043407
20
-0.619624253320694
30
0
41
1
10
43.5785573012128
20
-1.04781316198049
30
0
41
1
10
46.6620545982059
20
-1.89246240948026
30
0
41
1
10
48.2029573257452
20
-2.30903106801623
30
0
41
1
10
52.8261591882936
20
-3.53090436397991
30
0
41
1
10
55.9089547943065
20
-4.30826550858953
30
0
41
1
10
59.0000000000001
20
-5.02339558318732
30
0
0
SPLINE
5
1B9
100
AcDbEntity
8
1
62
256
6
ByLayer
370
-1
48
1
60
0
100
AcDbSpline
70
4
71
3
72
8
73
4
40
0
40
0
40
0
40
0
40
1
40
1
40
1
40
1
41
1
10
93.124532147316
20
1.43249463963235
30
0
41
1
10
92.7901662362092
20
1.41305009743684
30
0
41
1
10
92.4622259265306
20
1.41726746167333
30
0
41
1
10
92.1469862317793
20
1.43901664459923
30
0
0
SPLINE
5
1BA
100
AcDbEntity
8
1
62
256
6
ByLayer
370
-1
48
1
60
0
100
AcDbSpline
70
4
71
3
72
30
73
26
40
0
40
0
40
0
40
0
40
0.125000000000001
40
0.125000000000001
40
0.250000000000003
40
0.250000000000003
40
0.375000000000004
40
0.375000000000004
40
0.406250000000004
40
0.406250000000004
40
0.437500000000004
40
0.437500000000004
40
0.500000000000004
40
0.500000000000004
40
0.531250000000004
40
0.531250000000004
40
0.562500000000004
40
0.562500000000004
40
0.625000000000003
40
0.625000000000003
40
0.750000000000002
40
0.750000000000002
40
0.875000000000001
40
0.875000000000001
40
1
40
1
40
1
40
1
41
1
10
7.50357543291634
20
-1.63115307068514
30
0
41
1
10
7.71331817214437
20
-1.97693070392555
30
0
41
1
10
7.92717012564944
20
-2.30611361940268
30
0
41
1
10
8.36538308751958
20
-2.92759012801847
30
0
41
1
10
8.58981733554819
20
-3.2201638070793
30
0
41
1
10
9.05294317772103
20
-3.75911587306734
30
0
41
1
10
9.28513279709492
20
-3.99802110417571
30
0
41
1
10
9.57785086530038
20
-4.2505108670552
30
0
41
1
10
9.63652158918632
20
-4.2986669230765
30
0
41
1
10
9.75417580649807
20
-4.38992259456762
30
0
41
1
10
9.81332700736328
20
-4.43313567714992
30
0
41
1
10
9.99015315730094
20
-4.55365670640018
30
0
41
1
10
10.1062971458722
20
-4.62134381011029
30
0
41
1
10
10.2778779374602
20
-4.70190620778595
30
0
41
1
10
10.3346306671863
20
-4.72525303452213
30
0
41
1
10
10.4472257954702
20
-4.76440948349511
30
0
41
1
10
10.5029896294112
20
-4.77964862239088
30
0
41
1
10
10.6708193418074
20
-4.82704172228688
30
0
41
1
10
10.7846595747664
20
-4.8684467912646
30
0
41
1
10
11.1281211955206
20
-5.01553886446069
30
0
41
1
10
11.3600562255476
20
-5.14294824452509
30
0
41
1
10
11.8266847372359
20
-5.42949441188955
30
0
41
1
10
12.0614051306131
20
-5.58884995733698
30
0
41
1
10
12.5319059267176
20
-5.92298827349765
30
0
41
1
10
12.7677000602691
20
-6.09786541038483
30
0
41
1
10
13.0035754329165
20
-6.27509261281952
30
0
0
SPLINE
5
1BB
100
AcDbEntity
8
1
62
256
6
ByLayer
370
-1
48
1
60
0
100
AcDbSpline
70
4
71
3
72
18
73
14
40
0
40
0
40
0
40
0
40
0.0415764295007322
40
0.0415764295007322
40
0.361050953000489
40
0.361050953000489
40
0.520788214750367
40
0.520788214750367
40
0.680525476500245
40
0.680525476500245
40
0.840262738250122
40
0.840262738250122
40
1
40
1
40
1
40
1
41
1
10
95.5184254953172
20
2.49159504169521
30
0
41
1
10
95.5132791098166
20
2.48760067801496
30
0
41
1
10
95.5081334506966
20
2.48365726672708
30
0
41
1
10
95.4634636603778
20
2.44984803171462
30
0
41
1
10
95.4236998043752
20
2.4227036213243
30
0
41
1
10
95.3669019316427
20
2.38729599755376
30
0
41
1
10
95.3485164387977
20
2.37641362358548
30
0
41
1
10
95.3135255099524
20
2.35666703060778
30
0
41
1
10
95.2969173978263
20
2.34781096695849
30
0
41
1
10
95.267681298242
20
2.33303156909233
30
0
41
1
10
95.2549063654935
20
2.32702100283382
30
0
41
1
10
95.235057011854
20
2.31854294384109
30
0
41
1
10
95.2283206963319
20
2.31622834806399
30
0
41
1
10
95.2257784742272
20
2.31622834806399
30
0
0
SPLINE
5
1BC
100
AcDbEntity
8
1
62
256
6
ByLayer
370
-1
48
1
60
0
100
AcDbSpline
70
4
71
3
72
20
73
16
40
0
40
0
40
0
40
0
40
0.125
40
0.125
40
0.25
40
0.25
40
0.375
40
0.375
40
0.5
40
0.5
40
0.75
40
0.75
40
0.875
40
0.875
40
1
40
1
40
1
40
1
41
1
10
7.50357543291636
20
-1.6311530706852
30
0
41
1
10
7.37937445311846
20
-1.40229819163343
30
0
41
1
10
7.27573348898548
20
-1.16385033774566
30
0
41
1
10
7.09703734444662
20
-0.673401314468464
30
0
41
1
10
7.02216252587982
20
-0.421313938378176
30
0
41
1
10
6.8945357776945
20
0.0936923291710912
30
0
41
1
10
6.84166159775577
20
0.358132753464702
30
0
41
1
10
6.75527362551762
20
0.885159312116258
30
0
41
1
10
6.72145052452547
20
1.14857175825819
30
0
41
1
10
6.64102085077894
20
1.93819816774564
30
0
41
1
10
6.61519102176928
20
2.46379721730398
30
0
41
1
10
6.60002725581009
20
3.24988924806911
30
0
41
1
10
6.59901666184163
20
3.51185764206406
30
0
41
1
10
6.60268933422347
20
4.02882007129492
30
0
41
1
10
6.607351267871
20
4.28459524501909
30
0
41
1
10
6.61379933207522
20
4.53781773440124
30
0
0
SPLINE
5
1BD
100
AcDbEntity
8
1
62
256
6
ByLayer
370
-1
48
1
60
0
100
AcDbSpline
70
4
71
3
72
8
73
4
40
0
40
0
40
0
40
0
40
1
40
1
40
1
40
1
41
1
10
91.858612586778
20
2.84392159707079
30
0
41
1
10
91.8725286021966
20
2.82251831912671
30
0
41
1
10
91.8854707082102
20
2.8015827355284
30
0
41
1
10
91.8974318544613
20
2.7810866036825
30
0
0
SPLINE
5
1BE
100
AcDbEntity
8
1
62
256
6
ByLayer
370
-1
48
1
60
0
100
AcDbSpline
70
4
71
3
72
8
73
4
40
0
40
0
40
0
40
0
40
1
40
1
40
1
40
1
41
1
10
11.6817011429318
20
7.12291339459975
30
0
41
1
10
13.8684386328503
20
5.53049862179012
30
0
41
1
10
16.0341972475398
20
3.93959204502545
30
0
41
1
10
18.1817011429303
20
2.3600706836317
30
0
0
SPLINE
5
1BF
100
AcDbEntity
8
1
62
256
6
ByLayer
370
-1
48
1
60
0
100
AcDbSpline
70
4
71
3
72
10
73
6
40
0
40
0
40
0
40
0
40
0.5
40
0.5
40
1
40
1
40
1
40
1
41
1
10
8.90626823021023
20
-0.641085455481459
30
0
41
1
10
8.74618649200079
20
-0.485337841114529
30
0
41
1
10
8.59038843125319
20
-0.31360061772952
30
0
41
1
10
8.28618719577116
20
0.0602561296425392
30
0
41
1
10
8.1377876313741
20
0.262372628253985
30
0
41
1
10
7.99293871526925
20
0.480430133599612
30
0
0
SPLINE
5
1C0
100
AcDbEntity
8
1
62
256
6
ByLayer
370
-1
48
1
60
0
100
AcDbSpline
70
4
71
3
72
14
73
10
40
0
40
0
40
0
40
0
40
0.500000000000015
40
0.500000000000015
40
0.625000000000011
40
0.625000000000011
40
0.750000000000007
40
0.750000000000007
40
1
40
1
40
1
40
1
41
1
10
93.9727484531013
20
0.193901626893989
30
0
41
1
10
93.4984939750278
20
0.166173239835103
30
0
41
1
10
93.0304741282255
20
0.196168293977081
30
0
41
1
10
92.4531509766383
20
0.304906575778574
30
0
41
1
10
92.3380774415788
20
0.330271182494073
30
0
41
1
10
92.1087351905526
20
0.388438272231099
30
0
41
1
10
91.994324020886
20
0.421307072435525
30
0
41
1
10
91.6558918416538
20
0.530267648294341
30
0
41
1
10
91.4355237931958
20
0.616914850484989
30
0
41
1
10
91.2205466784408
20
0.717868913258599
30
0
0
SPLINE
5
1C1
100
AcDbEntity
8
1
62
256
6
ByLayer
370
-1
48
1
60
0
100
AcDbSpline
70
4
71
3
72
34
73
30
40
0
40
0
40
0
40
0
40
0.0625000000000008
40
0.0625000000000008
40
0.125000000000002
40
0.125000000000002
40
0.250000000000004
40
0.250000000000004
40
0.312500000000004
40
0.312500000000004
40
0.375000000000005
40
0.375000000000005
40
0.437500000000006
40
0.437500000000006
40
0.500000000000007
40
0.500000000000007
40
0.562500000000007
40
0.562500000000007
40
0.625000000000007
40
0.625000000000007
40
0.687500000000008
40
0.687500000000008
40
0.750000000000008
40
0.750000000000008
40
0.812500000000008
40
0.812500000000008
40
0.875000000000008
40
0.875000000000008
40
1
40
1
40
1
40
1
41
1
10
92.9521822448127
20
2.19068370055572
30
0
41
1
10
93.005686319325
20
2.16906123880654
30
0
41
1
10
93.0583699562156
20
2.14796111404888
30
0
41
1
10
93.1617592467539
20
2.10658107542312
30
0
41
1
10
93.2126069396343
20
2.08624416051652
30
0
41
1
10
93.3594477051897
20
2.02687709242767
30
0
41
1
10
93.4504042647164
20
1.98929689909613
30
0
41
1
10
93.5725612999033
20
1.93380443983983
30
0
41
1
10
93.6110597426624
20
1.91534607775935
30
0
41
1
10
93.6809440418023
20
1.87889940343359
30
0
41
1
10
93.7124027712462
20
1.86089228649024
30
0
41
1
10
93.7673448191333
20
1.82488344789874
30
0
41
1
10
93.790835514222
20
1.80688189260033
30
0
41
1
10
93.8283897662473
20
1.77044692725192
30
0
41
1
10
93.8421233450214
20
1.75225846485418
30
0
41
1
10
93.8583214430883
20
1.71628174742182
30
0
41
1
10
93.8608919411466
20
1.69839659969466
30
0
41
1
10
93.8541403972883
20
1.66271752342874
30
0
41
1
10
93.8447706802357
20
1.64516801957603
30
0
41
1
10
93.8150619777386
20
1.61147974759732
30
0
41
1
10
93.7947041968675
20
1.59521326295223
30
0
41
1
10
93.7435542061696
20
1.56401812424792
30
0
41
1
10
93.7129441067316
20
1.54925413563211
30
0
41
1
10
93.6443795684527
20
1.52215617587956
30
0
41
1
10
93.6062417694895
20
1.50971055167815
30
0
41
1
10
93.52329067691
20
1.48715421637175
30
0
41
1
10
93.4781946211745
20
1.47699868400147
30
0
41
1
10
93.3362944173099
20
1.45075803618306
30
0
41
1
10
93.2333459174688
20
1.43882253932188
30
0
41
1
10
93.1245321473068
20
1.43249463963173
30
0
0
SPLINE
5
1C2
100
AcDbEntity
8
1
62
256
6
ByLayer
370
-1
48
1
60
0
100
AcDbSpline
70
4
71
3
72
16
73
12
40
0
40
0
40
0
40
0
40
0.182610772272319
40
0.182610772272319
40
0.386958079204239
40
0.386958079204239
40
0.591305386136159
40
0.591305386136159
40
0.79565269306808
40
0.79565269306808
40
1
40
1
40
1
40
1
41
1
10
70.9751074432282
20
7.80050596085024
30
0
41
1
10
72.122995435849
20
7.98461710702057
30
0
41
1
10
73.271196134863
20
8.1561064140933
30
0
41
1
10
75.7057243210953
20
8.49100939654804
30
0
41
1
10
76.9926526246144
20
8.65140596640336
30
0
41
1
10
79.5663587045486
20
8.9363279796469
30
0
41
1
10
80.8523433758565
20
9.06074812025551
30
0
41
1
10
83.423870929082
20
9.27184546976378
30
0
41
1
10
84.7095310457067
20
9.35842292773083
30
0
41
1
10
87.2815250953958
20
9.49299612767126
30
0
41
1
10
88.5680825170577
20
9.54087158091917
30
0
41
1
10
89.8553745494814
20
9.56924514531249
30
0
0
SPLINE
5
1C3
100
AcDbEntity
8
1
62
256
6
ByLayer
370
-1
48
1
60
0
100
AcDbSpline
70
4
71
4
72
10
73
5
40
0
40
0
40
0
40
0
40
0
40
1
40
1
40
1
40
1
40
1
41
1
10
89.8553745494456
20
5.66999999999985
30
0
41
1
10
89.8553745494598
20
6.64481128632801
30
0
41
1
10
89.8553745494697
20
7.61962257265617
30
0
41
1
10
89.8553745494766
20
8.59443385898433
30
0
41
1
10
89.8553745494814
20
9.56924514531249
30
0
0
SPLINE
5
1C4
100
AcDbEntity
8
1
62
256
6
ByLayer
370
-1
48
1
60
0
100
AcDbSpline
70
4
71
3
72
30
73
26
40
0
40
0
40
0
40
0
40
0.015975902188643
40
0.0738596726481353
40
0.131743443107627
40
0.189627213567118
40
0.305394754486101
40
0.334336639715846
40
0.363278524945593
40
0.392220410175339
40
0.421162295405085
40
0.479046065864576
40
0.507987951094321
40
0.536929836324068
40
0.551400778938941
40
0.594813606783559
40
0.652697377243051
40
0.710581147702542
40
0.768464918162034
40
0.79740680339178
40
0.826348688621525
40
0.855290573851271
40
0.884232459081017
40
0.942116229540508
40
1
40
1
40
1
40
1
41
1
10
37.5100909605727
20
0.641507448029074
30
0
41
1
10
37.4071848367486
20
0.651691348564668
30
0
41
1
10
36.9314338691577
20
0.698727465502742
30
0
41
1
10
36.0828712770835
20
0.782219899936024
30
0
41
1
10
34.9643563863069
20
0.891457956456833
30
0
41
1
10
33.4727222489255
20
1.03602940905108
30
0
41
1
10
32.1672655318372
20
1.16152281250282
30
0
41
1
10
31.0485361650839
20
1.26740174691079
30
0
41
1
10
30.4892984572991
20
1.31980293267699
30
0
41
1
10
29.9300375852535
20
1.37166599922279
30
0
41
1
10
29.1839453153299
20
1.44027198577265
30
0
41
1
10
28.4374135170137
20
1.50832832267864
30
0
41
1
10
27.6912095981865
20
1.57580078174377
30
0
41
1
10
27.2251970770906
20
1.617515722424
30
0
41
1
10
26.6662257684933
20
1.66703033450292
30
0
41
1
10
25.9205396648789
20
1.73229106399242
30
0
41
1
10
24.8942197088425
20
1.82064839203787
30
0
41
1
10
23.7737084780847
20
1.91588287362532
30
0
41
1
10
22.8404470045547
20
1.99414990949381
30
0
41
1
10
22.0947691435878
20
2.05568422984661
30
0
41
1
10
21.5360738915191
20
2.1011391079563
30
0
41
1
10
20.9777128480809
20
2.14585327755157
30
0
41
1
10
20.2333772586562
20
2.20447110207249
30
0
41
1
10
19.3024084460842
20
2.2760063361977
30
0
41
1
10
18.5557232926697
20
2.33210429763801
30
0
41
1
10
18.1817011429331
20
2.36007068363119
30
0
0
SPLINE
5
1C5
100
AcDbEntity
8
1
62
256
6
ByLayer
370
-1
48
1
60
0
100
AcDbSpline
70
4
71
4
72
10
73
5
40
0
40
0
40
0
40
0
40
0
40
1
40
1
40
1
40
1
40
1
41
0.979204902010973
10
89.5398437598182
20
2.17941558674032
30
0
41
0.976268927246825
10
89.6943190166287
20
2.84062837650638
30
0
41
0.981945622815734
10
89.8095421312394
20
3.74942893794257
30
0
41
1
10
89.8553745494456
20
4.77608733869377
30
0
41
1
10
89.8553745494456
20
5.66999999999985
30
0
0
SPLINE
5
1C6
100
AcDbEntity
8
1
62
256
6
ByLayer
370
-1
48
1
60
0
100
AcDbSpline
70
4
71
3
72
24
73
20
40
0
40
0
40
0
40
0
40
0.125000000000031
40
0.125000000000031
40
0.250000000000062
40
0.250000000000062
40
0.312500000000065
40
0.312500000000065
40
0.375000000000067
40
0.375000000000067
40
0.43750000000007
40
0.43750000000007
40
0.500000000000073
40
0.500000000000073
40
0.625000000000058
40
0.625000000000058
40
0.750000000000043
40
0.750000000000043
40
1
40
1
40
1
40
1
41
1
10
94.5386057743294
20
2.14056889505466
30
0
41
1
10
94.4785788459151
20
2.12967364278549
30
0
41
1
10
94.4161104975046
20
2.12130354979072
30
0
41
1
10
94.2846045531825
20
2.1114507332079
30
0
41
1
10
94.2177614154866
20
2.11024748226106
30
0
41
1
10
94.1188527634059
20
2.11457938752866
30
0
41
1
10
94.0858121965672
20
2.11707182976875
30
0
41
1
10
94.0223696610219
20
2.12382578826927
30
0
41
1
10
93.9916445032451
20
2.12809067910021
30
0
41
1
10
93.93198019803
20
2.13819723651875
30
0
41
1
10
93.9029851441526
20
2.14406585157889
30
0
41
1
10
93.8481068815414
20
2.15682885522634
30
0
41
1
10
93.8219942558135
20
2.16375698145958
30
0
41
1
10
93.7469640239486
20
2.18587843304283
30
0
41
1
10
93.7010015988025
20
2.20254183975925
30
0
41
1
10
93.6175680495267
20
2.23750231308469
30
0
41
1
10
93.5799622119292
20
2.25580113531157
30
0
41
1
10
93.4759473325174
20
2.31230242132969
30
0
41
1
10
93.4179956566655
20
2.3522582311748
30
0
41
1
10
93.3679223694737
20
2.3926428370894
30
0
0
SPLINE
5
1C7
100
AcDbEntity
8
1
62
256
6
ByLayer
370
-1
48
1
60
0
100
AcDbSpline
70
4
71
3
72
8
73
4
40
0
40
0
40
0
40
0
40
1
40
1
40
1
40
1
41
1
10
17
20
-7.44400255099646
30
0
41
1
10
16.9118279836074
20
-7.42780791821806
30
0
41
1
10
16.8235944413987
20
-7.41284049475567
30
0
41
1
10
16.7353075938558
20
-7.39909248956897
30
0
0
SPLINE
5
1C8
100
AcDbEntity
8
1
62
256
6
ByLayer
370
-1
48
1
60
0
100
AcDbSpline
70
4
71
3
72
34
73
30
40
0
40
0
40
0
40
0
40
0.165954253516103
40
0.165954253516103
40
0.249358828164493
40
0.249358828164493
40
0.332763402812883
40
0.332763402812883
40
0.416167977461272
40
0.416167977461272
40
0.499572552109662
40
0.499572552109662
40
0.582977126758052
40
0.582977126758052
40
0.666381701406442
40
0.666381701406442
40
0.749786276054832
40
0.749786276054832
40
0.791488563379026
40
0.791488563379026
40
0.833190850703221
40
0.833190850703221
40
0.874893138027416
40
0.874893138027416
40
0.916595425351611
40
0.916595425351611
40
0.958297712675805
40
0.958297712675805
40
1
40
1
40
1
40
1
41
1
10
67.3781026466955
20
-6.82034643988084
30
0
41
1
10
64.5753510023413
20
-7.29802084659636
30
0
41
1
10
61.7750308785415
20
-7.71125138748639
30
0
41
1
10
57.5641258264672
20
-8.217227724449
30
0
41
1
10
56.155544765496
20
-8.36718322421316
30
0
41
1
10
53.3396126086528
20
-8.62542709318618
30
0
41
1
10
51.9318584255382
20
-8.73360099764255
30
0
41
1
10
49.1154490868359
20
-8.90613873187914
30
0
41
1
10
47.706511493916
20
-8.97070162507683
30
0
41
1
10
44.89036039157
20
-9.05562019802045
30
0
41
1
10
43.4827231690544
20
-9.07593861772204
30
0
41
1
10
40.6670059592565
20
-9.07117522566574
30
0
41
1
10
39.2584136277201
20
-9.04601837007527
30
0
41
1
10
36.4421875889499
20
-8.94996499651398
30
0
41
1
10
35.0346835331551
20
-8.87900470344036
30
0
41
1
10
32.2194239530485
20
-8.69316400912462
30
0
41
1
10
30.8114817504785
20
-8.57953936612137
30
0
41
1
10
28.6989266051517
20
-8.37743178723639
30
0
41
1
10
27.9950304209616
20
-8.30437718836345
30
0
41
1
10
26.5874655189903
20
-8.14909760463186
30
0
41
1
10
25.8837970882813
20
-8.06697089314667
30
0
41
1
10
24.4766822272861
20
-7.89197205562772
30
0
41
1
10
23.7732038933732
20
-7.79942738057821
30
0
41
1
10
22.3661517734204
20
-7.60605231456015
30
0
41
1
10
21.6625817161851
20
-7.50525255755596
30
0
41
1
10
20.2552629500589
20
-7.29483628760985
30
0
41
1
10
19.5515246429809
20
-7.18497429017853
30
0
41
1
10
18.1437225438775
20
-6.95564197706486
30
0
41
1
10
17.43964844663
20
-6.83629686363756
30
0
41
1
10
16.7353075938558
20
-6.71336012448214
30
0
0
SPLINE
5
1C9
100
AcDbEntity
8
1
62
256
6
ByLayer
370
-1
48
1
60
0
100
AcDbSpline
70
4
71
3
72
10
73
6
40
0
40
0
40
0
40
0
40
0.5
40
0.5
40
1
40
1
40
1
40
1
41
1
10
8.90626823832594
20
-0.64108546915088
30
0
41
1
10
9.59124842679662
20
-1.27693456567405
30
0
41
1
10
10.2762666398284
20
-1.90924269347846
30
0
41
1
10
11.6430293710323
20
-3.16506168932935
30
0
41
1
10
12.3247553091154
20
-3.78858909812811
30
0
41
1
10
13.0035754329165
20
-4.4058179900253
30
0
0
SPLINE
5
1CA
100
AcDbEntity
8
1
62
256
6
ByLayer
370
-1
48
1
60
0
100
AcDbSpline
70
4
71
3
72
16
73
12
40
0
40
0
40
0
40
0
40
0.117828213303338
40
0.117828213303338
40
0.26485684441945
40
0.26485684441945
40
0.411885475535562
40
0.411885475535562
40
0.705942737767781
40
0.705942737767781
40
1
40
1
40
1
40
1
41
1
10
91.0025635779833
20
1.66809480001783
30
0
41
1
10
91.045996325701
20
1.67798649469575
30
0
41
1
10
91.0887494489108
20
1.69204020162942
30
0
41
1
10
91.1834408593607
20
1.73311006719186
30
0
41
1
10
91.2352081393997
20
1.76271744655293
30
0
41
1
10
91.3347517772488
20
1.83416484913749
30
0
41
1
10
91.3827673835406
20
1.87605277983565
30
0
41
1
10
91.5218055996386
20
2.01990622957155
30
0
41
1
10
91.607884667534
20
2.13989275640117
30
0
41
1
10
91.766591498986
20
2.43035040511614
30
0
41
1
10
91.8365723922143
20
2.59598229996828
30
0
41
1
10
91.8974318544603
20
2.78108660368156
30
0
0
SPLINE
5
1CB
100
AcDbEntity
8
1
62
256
6
ByLayer
370
-1
48
1
60
0
100
AcDbSpline
70
4
71
3
72
8
73
4
40
0
40
0
40
0
40
0
40
1
40
1
40
1
40
1
41
1
10
11.6817011429306
20
7.12291339459387
30
0
41
1
10
11.6817011429306
20
7.56784638445581
30
0
41
1
10
11.6817011429306
20
8.01277937431774
30
0
41
1
10
11.6817011429306
20
8.45771236417968
30
0
0
SPLINE
5
1CC
100
AcDbEntity
8
1
62
256
6
ByLayer
370
-1
48
1
60
0
100
AcDbSpline
70
4
71
3
72
10
73
6
40
0
40
0
40
0
40
0
40
0.670381711460459
40
0.670381711460459
40
1
40
1
40
1
40
1
41
1
10
59
20
-8.47150074142803
30
0
41
1
10
61.0677756809378
20
-8.20325535382545
30
0
41
1
10
63.1321536615682
20
-7.89054386938247
30
0
41
1
10
66.2099645044038
20
-7.36527736300545
30
0
41
1
10
67.2242059940235
20
-7.18261469996278
30
0
41
1
10
68.2384329647907
20
-6.99104090364565
30
0
0
SPLINE
5
1CD
100
AcDbEntity
8
1
62
256
6
ByLayer
370
-1
48
1
60
0
100
AcDbSpline
70
4
71
3
72
10
73
6
40
0
40
0
40
0
40
0
40
0.5
40
0.5
40
1
40
1
40
1
40
1
41
1
10
15.3935725266538
20
-6.25969412895896
30
0
41
1
10
15.5924053901472
20
-6.36513218936253
30
0
41
1
10
15.7981210944204
20
-6.45470395543302
30
0
41
1
10
16.223618510982
20
-6.60246097210251
30
0
41
1
10
16.4437837126695
20
-6.66072793020732
30
0
41
1
10
16.6707046027204
20
-6.70224085350281
30
0
0
SPLINE
5
1CE
100
AcDbEntity
8
1
62
256
6
ByLayer
370
-1
48
1
60
0
100
AcDbSpline
70
4
71
3
72
8
73
4
40
0
40
0
40
0
40
0
40
1
40
1
40
1
40
1
41
1
10
13.0035754329165
20
-4.4058179900253
30
0
41
1
10
13.0035754329165
20
-5.0289095309567
30
0
41
1
10
13.0035754329165
20
-5.65200107188812
30
0
41
1
10
13.0035754329165
20
-6.27509261281952
30
0
0
SPLINE
5
1CF
100
AcDbEntity
8
1
62
256
6
ByLayer
370
-1
48
1
60
0
100
AcDbSpline
70
4
71
3
72
8
73
4
40
0
40
0
40
0
40
0
40
1
40
1
40
1
40
1
41
1
10
17
20
6.10812699936403
30
0
41
1
10
17.3984821630896
20
5.98461514707446
30
0
41
1
10
17.792215415973
20
5.85011540411912
30
0
41
1
10
18.1817011429304
20
5.70458714444547
30
0
0
SPLINE
5
1D0
100
AcDbEntity
8
1
62
256
6
ByLayer
370
-1
48
1
60
0
100
AcDbSpline
70
4
71
2
72
6
73
3
40
0
40
0
40
0
40
1
40
1
40
1
41
0.500000484277752
10
91.8586125867779
20
2.84392159707084
30
0
41
0.499999515722248
10
91.8694065348351
20
2.83915192645063
30
0
41
0.500000484277752
10
91.880204334968
20
2.83437280246883
30
0
0
SPLINE
5
1D1
100
AcDbEntity
8
1
62
256
6
ByLayer
370
-1
48
1
60
0
100
AcDbSpline
70
4
71
3
72
22
73
18
40
0
40
0
40
0
40
0
40
0.125
40
0.125
40
0.25
40
0.25
40
0.375
40
0.375
40
0.5
40
0.5
40
0.625
40
0.625
40
0.75
40
0.75
40
0.875
40
0.875
40
1
40
1
40
1
40
1
41
1
10
93.4182904169776
20
2.3926428370894
30
0
41
1
10
93.4240757526308
20
2.3926428370894
30
0
41
1
10
93.4123155774184
20
2.40421147995528
30
0
41
1
10
93.3710154233498
20
2.44132271231507
30
0
41
1
10
93.3419450442706
20
2.4668815427018
30
0
41
1
10
93.280089937063
20
2.52570924767784
30
0
41
1
10
93.2468629902232
20
2.55924741309073
30
0
41
1
10
93.1794579842551
20
2.63401824846599
30
0
41
1
10
93.1455641755293
20
2.67493424792554
30
0
41
1
10
93.0801423156573
20
2.76242841411334
30
0
41
1
10
93.048404542758
20
2.80920915591648
30
0
41
1
10
92.9877886312024
20
2.90942258161189
30
0
41
1
10
92.9587320133844
20
2.96329357561143
30
0
41
1
10
92.9059701597428
20
3.07507806122081
30
0
41
1
10
92.882049395301
20
3.13325427683344
30
0
41
1
10
92.8395563218131
20
3.25476224321366
30
0
41
1
10
92.8210104582456
20
3.31835757368663
30
0
41
1
10
92.8060348276355
20
3.38194081047266
30
0
0
SPLINE
5
1D2
100
AcDbEntity
8
1
62
256
6
ByLayer
370
-1
48
1
60
0
100
AcDbSpline
70
4
71
2
72
6
73
3
40
0
40
0
40
0
40
1
40
1
40
1
41
1
10
16.7353075938558
20
-6.71336012448182
30
0
41
1
10
16.7353075938558
20
-7.05622630702527
30
0
41
1
10
16.7353075938558
20
-7.39909248956874
30
0
0
SPLINE
5
1D3
100
AcDbEntity
8
1
62
256
6
ByLayer
370
-1
48
1
60
0
100
AcDbSpline
70
4
71
3
72
8
73
4
40
0
40
0
40
0
40
0
40
1
40
1
40
1
40
1
41
1
10
100.367836762062
20
-0.204908032878961
30
0
41
1
10
100.366941946905
20
-0.24988733580642
30
0
41
1
10
100.367458135188
20
-0.301383927183707
30
0
41
1
10
100.370339412899
20
-0.356228057250974
30
0
0
SPLINE
5
1D4
100
AcDbEntity
8
1
62
256
6
ByLayer
370
-1
48
1
60
0
100
AcDbSpline
70
4
71
3
72
22
73
18
40
0
40
0
40
0
40
0
40
0.124999999999985
40
0.124999999999985
40
0.24999999999997
40
0.24999999999997
40
0.374999999999955
40
0.374999999999955
40
0.437499999999947
40
0.437499999999947
40
0.499999999999939
40
0.499999999999939
40
0.624999999999954
40
0.624999999999954
40
0.749999999999969
40
0.749999999999969
40
1
40
1
40
1
40
1
41
1
10
100.542785247089
20
-5.23393800395903
30
0
41
1
10
100.559729471808
20
-5.2329466167547
30
0
41
1
10
100.577232225216
20
-5.23096101171521
30
0
41
1
10
100.614009672134
20
-5.22383563160437
30
0
41
1
10
100.633420248623
20
-5.21870649163665
30
0
41
1
10
100.674688305204
20
-5.20271714932724
30
0
41
1
10
100.696820837918
20
-5.19178132737056
30
0
41
1
10
100.730844974075
20
-5.16744965685004
30
0
41
1
10
100.742566681113
20
-5.15773208652999
30
0
41
1
10
100.764475741872
20
-5.13610411961616
30
0
41
1
10
100.774821677608
20
-5.12402371052391
30
0
41
1
10
100.801673955273
20
-5.08723406271562
30
0
41
1
10
100.814152615145
20
-5.06228291491857
30
0
41
1
10
100.832088727004
20
-5.01658216970185
30
0
41
1
10
100.837900080867
20
-4.99517307548825
30
0
41
1
10
100.850446593482
20
-4.93398940863418
30
0
41
1
10
100.852366663573
20
-4.89765656460352
30
0
41
1
10
100.851780922266
20
-4.86305650990215
30
0
0
SPLINE
5
1D5
100
AcDbEntity
8
1
62
256
6
ByLayer
370
-1
48
1
60
0
100
AcDbSpline
70
4
71
3
72
8
73
4
40
0
40
0
40
0
40
0
40
1
40
1
40
1
40
1
41
1
10
100.851780922266
20
-4.86305650990218
30
0
41
1
10
100.851050972247
20
-4.81993796882031
30
0
41
1
10
100.846268315859
20
-4.77927126009084
30
0
41
1
10
100.839023530545
20
-4.74023668448675
30
0
0
SPLINE
5
1D6
100
AcDbEntity
8
1
62
256
6
ByLayer
370
-1
48
1
60
0
100
AcDbSpline
70
4
71
3
72
20
73
16
40
0
40
0
40
0
40
0
40
0.0624999999999999
40
0.0624999999999999
40
0.125
40
0.125
40
0.250000000000001
40
0.250000000000001
40
0.375000000000002
40
0.375000000000002
40
0.500000000000002
40
0.500000000000002
40
0.750000000000001
40
0.750000000000001
40
1
40
1
40
1
40
1
41
1
10
100.742147481438
20
-3.83846351602327
30
0
41
1
10
100.741144594953
20
-3.86711246960436
30
0
41
1
10
100.740747609477
20
-3.89623140033015
30
0
41
1
10
100.741023330193
20
-3.95215537148405
30
0
41
1
10
100.741665692189
20
-3.97875492609273
30
0
41
1
10
100.744624352646
20
-4.05576777339522
30
0
41
1
10
100.747818941362
20
-4.10115537724244
30
0
41
1
10
100.755173048951
20
-4.18621092879764
30
0
41
1
10
100.759367899553
20
-4.22564107408567
30
0
41
1
10
100.768149192879
20
-4.30008609249921
30
0
41
1
10
100.77277174558
20
-4.33531667149089
30
0
41
1
10
100.78705343849
20
-4.43745210415793
30
0
41
1
10
100.797116832478
20
-4.50088466654492
30
0
41
1
10
100.8177395858
20
-4.62348975408901
30
0
41
1
10
100.828318068794
20
-4.6825561407631
30
0
41
1
10
100.839023530545
20
-4.74023668448677
30
0
0
SPLINE
5
1D7
100
AcDbEntity
8
1
62
256
6
ByLayer
370
-1
48
1
60
0
100
AcDbSpline
70
4
71
3
72
8
73
4
40
0
40
0
40
0
40
0
40
1
40
1
40
1
40
1
41
1
10
100.672761053374
20
-2.7458813865309
30
0
41
1
10
100.676906875792
20
-2.75438311649057
30
0
41
1
10
100.681256407679
20
-2.76300377707696
30
0
41
1
10
100.685662982492
20
-2.77145509127911
30
0
0
SPLINE
5
1D8
100
AcDbEntity
8
1
62
256
6
ByLayer
370
-1
48
1
60
0
100
AcDbSpline
70
4
71
3
72
20
73
16
40
0
40
0
40
0
40
0
40
0.191182124272969
40
0.191182124272969
40
0.382364248545939
40
0.382364248545939
40
0.573546372818909
40
0.573546372818909
40
0.669137434955394
40
0.669137434955394
40
0.764728497091878
40
0.764728497091878
40
0.955910621364848
40
0.955910621364848
40
1
40
1
40
1
40
1
41
1
10
100.143602586364
20
0.83391276688991
30
0
41
1
10
100.140805319504
20
0.849016650674429
30
0
41
1
10
100.137054405976
20
0.864720596803096
30
0
41
1
10
100.126527121487
20
0.898032195266694
30
0
41
1
10
100.119744968728
20
0.915758996758939
30
0
41
1
10
100.100770525363
20
0.95398764616229
30
0
41
1
10
100.088479497443
20
0.9747409995027
30
0
41
1
10
100.062847341155
20
1.00744420745119
30
0
41
1
10
100.052820717516
20
1.01885273203155
30
0
41
1
10
100.030975794908
20
1.04054468085931
30
0
41
1
10
100.018987314814
20
1.05098654675015
30
0
41
1
10
99.9830021240365
20
1.07866552876305
30
0
41
1
10
99.9592424814182
20
1.09236317372031
30
0
41
1
10
99.9328063870518
20
1.10512081363726
30
0
41
1
10
99.9279399064791
20
1.10735481629354
30
0
41
1
10
99.9231542132894
20
1.10944920672011
30
0
0
SPLINE
5
1D9
100
AcDbEntity
8
1
62
256
6
ByLayer
370
-1
48
1
60
0
100
AcDbSpline
70
4
71
3
72
8
73
4
40
0
40
0
40
0
40
0
40
1
40
1
40
1
40
1
41
1
10
100.766913364991
20
-3.14167979657586
30
0
41
1
10
100.766212639908
20
-3.15458799376069
30
0
41
1
10
100.765632065311
20
-3.16759122574101
30
0
41
1
10
100.765173495486
20
-3.18069095919009
30
0
0
SPLINE
5
1DA
100
AcDbEntity
8
1
62
256
6
ByLayer
370
-1
48
1
60
0
100
AcDbSpline
70
4
71
3
72
10
73
6
40
0
40
0
40
0
40
0
40
0.5
40
0.5
40
1
40
1
40
1
40
1
41
1
10
100.766913364991
20
-3.14167979657583
30
0
41
1
10
100.77033347702
20
-3.07867722753619
30
0
41
1
10
100.76528416422
20
-3.01537285369508
30
0
41
1
10
100.737492780892
20
-2.88877395159381
30
0
41
1
10
100.715465479376
20
-2.8286129238092
30
0
41
1
10
100.685662982492
20
-2.77145509127908
30
0
0
SPLINE
5
1DB
100
AcDbEntity
8
1
62
256
6
ByLayer
370
-1
48
1
60
0
100
AcDbSpline
70
4
71
3
72
16
73
12
40
0
40
0
40
0
40
0
40
0.25
40
0.25
40
0.5
40
0.5
40
0.75
40
0.75
40
0.875
40
0.875
40
1
40
1
40
1
40
1
41
1
10
100.227261156903
20
0.382197077892272
30
0
41
1
10
100.232311965194
20
0.354925163819132
30
0
41
1
10
100.237875951129
20
0.326466441719532
30
0
41
1
10
100.250588482663
20
0.266092342357638
30
0
41
1
10
100.257716189023
20
0.234202751159529
30
0
41
1
10
100.274863957907
20
0.164040243210252
30
0
41
1
10
100.284857033359
20
0.125795393541921
30
0
41
1
10
100.303823871835
20
0.060737045424105
30
0
41
1
10
100.310847506384
20
0.0376868866719917
30
0
41
1
10
100.326382212437
20
-0.01060678766828
30
0
41
1
10
100.335079916149
20
-0.0363952619140662
30
0
41
1
10
100.34442403217
20
-0.0626620199118406
30
0
0
SPLINE
5
1DC
100
AcDbEntity
8
1
62
256
6
ByLayer
370
-1
48
1
60
0
100
AcDbSpline
70
4
71
3
72
10
73
6
40
0
40
0
40
0
40
0
40
0.5
40
0.5
40
1
40
1
40
1
40
1
41
1
10
100.367836762062
20
-0.204908032880667
30
0
41
1
10
100.36827279973
20
-0.182989908028702
30
0
41
1
10
100.366910887347
20
-0.160189423787074
30
0
41
1
10
100.35941198477
20
-0.112290889428436
30
0
41
1
10
100.353236399843
20
-0.0874340078187856
30
0
41
1
10
100.34442403217
20
-0.0626620199118406
30
0
0
SPLINE
5
1DD
100
AcDbEntity
8
1
62
256
6
ByLayer
370
-1
48
1
60
0
100
AcDbSpline
70
4
71
3
72
8
73
4
40
0
40
0
40
0
40
0
40
1
40
1
40
1
40
1
41
1
10
93.9316604552355
20
9.77763736159883
30
0
41
1
10
93.9436637528831
20
9.77810207949744
30
0
41
1
10
93.955667893756
20
9.77854485084328
30
0
41
1
10
93.9676727982051
20
9.77896567269852
30
0
0
SPLINE
5
1DE
100
AcDbEntity
8
1
62
256
6
ByLayer
370
-1
48
1
60
0
100
AcDbSpline
70
4
71
3
72
12
73
8
40
0
40
0
40
0
40
0
40
0.126690309034692
40
0.323314059973871
40
0.716561561852228
40
0.913185312791406
40
1
40
1
40
1
40
1
41
1
10
99.9747071664161
20
9.98647858239718
30
0
41
1
10
99.9717742604988
20
9.98662320080896
30
0
41
1
10
99.9642852892712
20
9.98697631588661
30
0
41
1
10
99.9476860784006
20
9.98756404599052
30
0
41
1
10
99.9294444417234
20
9.98769342702738
30
0
41
1
10
99.9137636038317
20
9.98734100451941
30
0
41
1
10
99.907196802851
20
9.9871431111533
30
0
41
1
10
99.9051855115492
20
9.98707956505086
30
0
0
SPLINE
5
1DF
100
AcDbEntity
8
1
62
256
6
ByLayer
370
-1
48
1
60
0
100
AcDbSpline
70
4
71
3
72
36
73
32
40
0
40
0
40
0
40
0
40
0.0625
40
0.125
40
0.140625
40
0.15625
40
0.1875
40
0.25
40
0.3125
40
0.34375
40
0.375
40
0.4375
40
0.453125
40
0.46875
40
0.5
40
0.5625
40
0.625
40
0.6875
40
0.75
40
0.78125
40
0.796875
40
0.8125
40
0.875
40
0.9375
40
0.953125
40
0.9609375
40
0.96484375
40
0.96875
40
0.9765625
40
0.984375
40
1
40
1
40
1
40
1
41
1
10
96.9184214551425
20
9.88240169165584
30
0
41
1
10
96.9194181581128
20
9.86253326236718
30
0
41
1
10
96.9214115640532
20
9.82279640378988
30
0
41
1
10
96.9236518678592
20
9.77808028769482
30
0
41
1
10
96.9251514780685
20
9.74830194415298
30
0
41
1
10
96.9261390748009
20
9.72844345307871
30
0
41
1
10
96.9277717259179
20
9.69348811521732
30
0
41
1
10
96.9298395997367
20
9.64304199063551
30
0
41
1
10
96.931537795196
20
9.59250598400155
30
0
41
1
10
96.9326333688883
20
9.552384199122
30
0
41
1
10
96.9337254393747
20
9.5121692541434
30
0
41
1
10
96.9346816705836
20
9.47699629035046
30
0
41
1
10
96.9354983460965
20
9.4468620945203
30
0
41
1
10
96.9360499477666
20
9.42679270419606
30
0
41
1
10
96.9368990710217
20
9.39209579572875
30
0
41
1
10
96.9377742778782
20
9.34247580207256
30
0
41
1
10
96.938259010439
20
9.28416236362668
30
0
41
1
10
96.9381580979393
20
9.22795617581593
30
0
41
1
10
96.9375965539319
20
9.18353220823943
30
0
41
1
10
96.9369643472814
20
9.15410319486475
30
0
41
1
10
96.9365294616765
20
9.13769940745897
30
0
41
1
10
96.9358788839097
20
9.11287630441447
30
0
41
1
10
96.9349010099934
20
9.07571287678473
30
0
41
1
10
96.9339249533676
20
9.03853131047066
30
0
41
1
10
96.9333267901998
20
9.01579583409765
30
0
41
1
10
96.933138002995
20
9.00857879571373
30
0
41
1
10
96.9330275564284
20
9.00442641541545
30
0
41
1
10
96.9329162427028
20
9.00034531492383
30
0
41
1
10
96.9328240042742
20
8.99495052211341
30
0
41
1
10
96.9328229919726
20
8.98548671229318
30
0
41
1
10
96.9329891458526
20
8.97785948581995
30
0
41
1
10
96.9331618912574
20
8.97289380875375
30
0
0
SPLINE
5
1E0
100
AcDbEntity
8
1
62
256
6
ByLayer
370
-1
48
1
60
0
100
AcDbSpline
70
4
71
3
72
12
73
8
40
0
40
0
40
0
40
0
40
0.296401916752161
40
0.592803833504321
40
0.889205750256482
40
0.963306229444522
40
1
40
1
40
1
40
1
41
1
10
96.9184214551425
20
9.88240169165584
30
0
41
1
10
96.6268856085208
20
9.87218214710501
30
0
41
1
10
96.0438139152773
20
9.85174305800334
30
0
41
1
10
95.1692058566745
20
9.82108832099487
30
0
41
1
10
94.5132520173569
20
9.79808070750124
30
0
41
1
10
94.1127385775987
20
9.78405815722979
30
0
41
1
10
94.0037652571226
20
9.78022305620942
30
0
41
1
10
93.9676727769285
20
9.77896628840907
30
0
0
SPLINE
5
1E1
100
AcDbEntity
8
1
62
256
6
ByLayer
370
-1
48
1
60
0
100
AcDbSpline
70
4
71
3
72
8
73
4
40
0
40
0
40
0
40
0
40
1
40
1
40
1
40
1
41
1
10
94.2200975152911
20
2.52285585080492
30
0
41
1
10
94.2080926492993
20
2.52243503029777
30
0
41
1
10
94.1960870197361
20
2.52203615914058
30
0
41
1
10
94.1840807062596
20
2.5216592399799
30
0
0
SPLINE
5
1E2
100
AcDbEntity
8
1
62
256
6
ByLayer
370
-1
48
1
60
0
100
AcDbSpline
70
4
71
3
72
12
73
8
40
0
40
0
40
0
40
0
40
0.126690309034469
40
0.323314059973622
40
0.716561561851929
40
0.913185312791082
40
1
40
1
40
1
40
1
41
1
10
94.1145604609549
20
2.5222149790209
30
0
41
1
10
94.1174933668722
20
2.52207036060912
30
0
41
1
10
94.1249823380998
20
2.52171724553151
30
0
41
1
10
94.1415815489704
20
2.52112951542756
30
0
41
1
10
94.1598231856476
20
2.52100013439073
30
0
41
1
10
94.1755040235393
20
2.52135255689868
30
0
41
1
10
94.18207082452
20
2.52155045026478
30
0
41
1
10
94.1840821158219
20
2.52161399636722
30
0
0
SPLINE
5
1E3
100
AcDbEntity
8
1
62
256
6
ByLayer
370
-1
48
1
60
0
100
AcDbSpline
70
4
71
3
72
15
73
11
40
0
40
0
40
0
40
0
40
0.0512135155738425
40
0.195204619948485
40
0.339195724323127
40
0.627177933072411
40
0.771169037447053
40
0.915160141821695
40
0.987155694009016
40
1
40
1
40
1
40
1
41
1
10
100.226919335383
20
2.73647859206128
30
0
41
1
10
100.228528817315
20
2.73667159265514
30
0
41
1
10
100.234661087998
20
2.73741433911508
30
0
41
1
10
100.245296448583
20
2.73872087548068
30
0
41
1
10
100.263348595687
20
2.74095760551001
30
0
41
1
10
100.281456100947
20
2.74318913303648
30
0
41
1
10
100.299784105009
20
2.74544223577078
30
0
41
1
10
100.31104652446
20
2.74683158124853
30
0
41
1
10
100.317978394414
20
2.747692507719
30
0
41
1
10
100.320522054009
20
2.74801605729996
30
0
41
1
10
100.320906574234
20
2.74806517195972
30
0
0
SPLINE
5
1E4
100
AcDbEntity
8
1
62
256
6
ByLayer
370
-1
48
1
60
0
100
AcDbSpline
70
4
71
3
72
14
73
10
40
0
40
0
40
0
40
0
40
0.0868146872094595
40
0.283438438146029
40
0.480062189082599
40
0.676685940019169
40
0.873309690955739
40
0.971621566424024
40
1
40
1
40
1
40
1
41
1
10
93.534705352736
20
3.12948074101553
30
0
41
1
10
93.5347825032406
20
3.12746225227502
30
0
41
1
10
93.5350439200226
20
3.12087262033879
30
0
41
1
10
93.5355714628878
20
3.10971541106073
30
0
41
1
10
93.5364880572553
20
3.09601680100761
30
0
41
1
10
93.5376665754582
20
3.08233814049234
30
0
41
1
10
93.5388615622321
20
3.07096359689629
30
0
41
1
10
93.5397272149306
20
3.06348837002716
30
0
41
1
10
93.5400741554896
20
3.0605610550412
30
0
41
1
10
93.540152175569
20
3.05990544530243
30
0
0
SPLINE
5
1E5
100
AcDbEntity
8
1
62
256
6
ByLayer
370
-1
48
1
60
0
100
AcDbSpline
70
4
71
3
72
36
73
32
40
0
40
0
40
0
40
0
40
0.015625
40
0.0234375
40
0.03125
40
0.03515625
40
0.0390625
40
0.046875
40
0.0625
40
0.125
40
0.1875
40
0.203125
40
0.21875
40
0.25
40
0.3125
40
0.375
40
0.4375
40
0.5
40
0.53125
40
0.546875
40
0.5625
40
0.625
40
0.65625
40
0.6875
40
0.75
40
0.8125
40
0.84375
40
0.859375
40
0.875
40
0.9375
40
1
40
1
40
1
40
1
41
1
10
94.3195322579293
20
6.15941302659022
30
0
41
1
10
94.3145854767636
20
6.15923962132601
30
0
41
1
10
94.3070864553903
20
6.15897327270849
30
0
41
1
10
94.297988896457
20
6.15864278918724
30
0
41
1
10
94.2928945443247
20
6.15845439887104
30
0
41
1
10
94.2890822602345
20
6.15831188370151
30
0
41
1
10
94.2852005800935
20
6.15816687938627
30
0
41
1
10
94.2784508574287
20
6.15791485485246
30
0
41
1
10
94.2571909787222
20
6.15712091452275
30
0
41
1
10
94.2224204241879
20
6.15582250561616
30
0
41
1
10
94.1876691255987
20
6.15452473012635
30
0
41
1
10
94.164454602987
20
6.15365788826688
30
0
41
1
10
94.1491187756263
20
6.15308505538809
30
0
41
1
10
94.1214577283282
20
6.15205737159567
30
0
41
1
10
94.0793097672616
20
6.15050605246401
30
0
41
1
10
94.0253736678859
20
6.14854328913546
30
0
41
1
10
93.968825998333
20
6.14650693899324
30
0
41
1
10
93.9202457915308
20
6.14477417063259
30
0
41
1
10
93.8860388240965
20
6.14356252788991
30
0
41
1
10
93.8661923738425
20
6.14286168933657
30
0
41
1
10
93.8364044771643
20
6.14180938003017
30
0
41
1
10
93.8016327189429
20
6.1405811130692
30
0
41
1
10
93.7618777263829
20
6.13917677624548
30
0
41
1
10
93.7222087953709
20
6.13777569264411
30
0
41
1
10
93.6719249388486
20
6.13601093640543
30
0
41
1
10
93.621357817184
20
6.13424931891714
30
0
41
1
10
93.5861188661078
20
6.13302865162117
30
0
41
1
10
93.5660391807672
20
6.13233517783192
30
0
41
1
10
93.5359104682068
20
6.13129529516124
30
0
41
1
10
93.4906797857508
20
6.12973377397853
30
0
41
1
10
93.45048309326
20
6.12834613229981
30
0
41
1
10
93.4303847470146
20
6.12765231146048
30
0
0
SPLINE
5
1E6
100
AcDbEntity
8
1
62
256
6
ByLayer
370
-1
48
1
60
0
100
AcDbSpline
70
4
71
3
72
41
73
37
40
0
40
0
40
0
40
0
40
0.0080831369865728
40
0.0179214742470219
40
0.027759811507471
40
0.0671131605492674
40
0.106466509591064
40
0.185173207674656
40
0.224526556716453
40
0.244203231237351
40
0.258960737128024
40
0.263879905758249
40
0.273718243018698
40
0.283556580279147
40
0.293394917539596
40
0.303233254800045
40
0.322909929320943
40
0.342586603841842
40
0.421293301925435
40
0.500000000009028
40
0.57870669809262
40
0.657413396176213
40
0.677090070697111
40
0.696766745218009
40
0.706605082478458
40
0.716443419738907
40
0.726281756999357
40
0.736120094259806
40
0.74103926289003
40
0.755796768780704
40
0.775473443301602
40
0.814826792343399
40
0.893533490426991
40
0.972240188510584
40
0.991916863031482
40
1
40
1
40
1
40
1
41
1
10
100.53757296234
20
9.54313437093825
30
0
41
1
10
100.537347637733
20
9.54491194710099
30
0
41
1
10
100.536841926022
20
9.5488258819548
30
0
41
1
10
100.536014504973
20
9.5548156686686
30
0
41
1
10
100.534113522875
20
9.56747764924845
30
0
41
1
10
100.530586752988
20
9.58654501443669
30
0
41
1
10
100.522401720483
20
9.62057047592421
30
0
41
1
10
100.511352295943
20
9.65466229177824
30
0
41
1
10
100.499033486198
20
9.6841185063775
30
0
41
1
10
100.491732760285
20
9.69973619219888
30
0
41
1
10
100.487622176944
20
9.70800541288185
30
0
41
1
10
100.484446728654
20
9.71417841249195
30
0
41
1
10
100.481742792179
20
9.71930385829822
30
0
41
1
10
100.478405988061
20
9.72542236649943
30
0
41
1
10
100.474977390554
20
9.73150677402492
30
0
41
1
10
100.470283918638
20
9.73957108461198
30
0
41
1
10
100.464189030063
20
9.74955585160924
30
0
41
1
10
100.448836133043
20
9.77318012189417
30
0
41
1
10
100.423104638374
20
9.80722020334767
30
0
41
1
10
100.383656898116
20
9.84868821281344
30
0
41
1
10
100.339695581287
20
9.88529751514588
30
0
41
1
10
100.30407269868
20
9.90868986383788
30
0
41
1
10
100.279524690468
20
9.92241591889731
30
0
41
1
10
100.269176990425
20
9.92782268326505
30
0
41
1
10
100.260835536427
20
9.93196006887763
30
0
41
1
10
100.254549879948
20
9.9349689524619
30
0
41
1
10
100.248236738492
20
9.93788353773672
30
0
41
1
10
100.242954617299
20
9.94023365797088
30
0
41
1
10
100.236598579636
20
9.94298286449325
30
0
41
1
10
100.22809415279
20
9.94652226649595
30
0
41
1
10
100.212064523212
20
9.95274359317102
30
0
41
1
10
100.181932562487
20
9.9630245744803
30
0
41
1
10
100.138619906037
20
9.97388268452016
30
0
41
1
10
100.100037141335
20
9.9793594324581
30
0
41
1
10
100.077132261811
20
9.98103834649075
30
0
41
1
10
100.071052836627
20
9.98139985198395
30
0
41
1
10
100.069270620441
20
9.98150148887322
30
0
0
SPLINE
5
1E7
100
AcDbEntity
8
1
62
256
6
ByLayer
370
-1
48
1
60
0
100
AcDbSpline
70
4
71
3
72
12
73
8
40
0
40
0
40
0
40
0
40
0.0366937705554765
40
0.110794249743517
40
0.407196166495678
40
0.703598083247839
40
1
40
1
40
1
40
1
41
1
10
94.2200975368526
20
2.52285523510437
30
0
41
1
10
94.2561894316671
20
2.52412883001867
30
0
41
1
10
94.3651638037289
20
2.52793370253656
30
0
41
1
10
94.7656760543293
20
2.54199043590671
30
0
41
1
10
95.4216308458059
20
2.56497067898164
30
0
41
1
10
96.2962386323633
20
2.59563323610973
30
0
41
1
10
96.8793103256068
20
2.6160723252114
30
0
41
1
10
97.1708461722285
20
2.62629186976224
30
0
0
SPLINE
5
1E8
100
AcDbEntity
8
1
62
256
6
ByLayer
370
-1
48
1
60
0
100
AcDbSpline
70
4
71
3
72
12
73
8
40
0
40
0
40
0
40
0
40
0.29640191675216
40
0.59280383350432
40
0.88920575025648
40
0.96330622944452
40
1
40
1
40
1
40
1
41
1
10
93.4303847470146
20
6.12765231146048
30
0
41
1
10
93.4405654031131
20
5.83500284526656
30
0
41
1
10
93.4609267153099
20
5.24970391287877
30
0
41
1
10
93.4914648017892
20
4.37175499357804
30
0
41
1
10
93.5143848643673
20
3.71329551715829
30
0
41
1
10
93.5283540546014
20
3.31125218112638
30
0
41
1
10
93.5321745619045
20
3.20186260026941
30
0
41
1
10
93.533426547324
20
3.16563225266438
30
0
0
SPLINE
5
1E9
100
AcDbEntity
8
1
62
256
6
ByLayer
370
-1
48
1
60
0
100
AcDbSpline
70
4
71
3
72
41
73
37
40
0
40
0
40
0
40
0
40
0.0080831369865559
40
0.0179214742470047
40
0.0277598115074535
40
0.0671131605492489
40
0.106466509591044
40
0.185173207674635
40
0.22452655671643
40
0.244203231237328
40
0.258960737128001
40
0.263879905758226
40
0.273718243018674
40
0.283556580279123
40
0.293394917539572
40
0.303233254800021
40
0.322909929320919
40
0.342586603841816
40
0.421293301925407
40
0.500000000008998
40
0.578706698092588
40
0.657413396176179
40
0.677090070697077
40
0.696766745217974
40
0.706605082478423
40
0.716443419738872
40
0.726281756999321
40
0.73612009425977
40
0.741039262889994
40
0.755796768780667
40
0.775473443301565
40
0.814826792343361
40
0.893533490426951
40
0.972240188510542
40
0.99191686303144
40
1
40
1
40
1
40
1
41
1
10
100.320906574222
20
2.74806517195822
30
0
41
1
10
100.32267738617
20
2.74829135726867
30
0
41
1
10
100.326576427321
20
2.7487990007163
30
0
41
1
10
100.332543421088
20
2.7496295823785
30
0
41
1
10
100.345157219009
20
2.7515378259198
30
0
41
1
10
100.364152027116
20
2.75507806749448
30
0
41
1
10
100.39804801145
20
2.76329436549426
30
0
41
1
10
100.432010097652
20
2.77438599704064
30
0
41
1
10
100.461354222461
20
2.78675186263732
30
0
41
1
10
100.476912478273
20
2.79408047613748
30
0
41
1
10
100.485150232075
20
2.79820676123876
30
0
41
1
10
100.491299741558
20
2.80139433922611
30
0
41
1
10
100.496405683495
20
2.80410860429939
30
0
41
1
10
100.502500908926
20
2.80745815446673
30
0
41
1
10
100.508562163444
20
2.81089984865892
30
0
41
1
10
100.516595786894
20
2.81561124887534
30
0
41
1
10
100.526542558839
20
2.82172941893472
30
0
41
1
10
100.550076931643
20
2.83714096152718
30
0
41
1
10
100.583987480309
20
2.86297074632492
30
0
41
1
10
100.625297691479
20
2.90256917054205
30
0
41
1
10
100.661767684364
20
2.94669841246017
30
0
41
1
10
100.685071018107
20
2.98245736869114
30
0
41
1
10
100.698744841383
20
3.00709914630724
30
0
41
1
10
100.70413103138
20
3.01748637288301
30
0
41
1
10
100.708252672991
20
3.02585968988029
30
0
41
1
10
100.711250106865
20
3.03216935654541
30
0
41
1
10
100.714153601262
20
3.03850661317648
30
0
41
1
10
100.71649477858
20
3.04380891121465
30
0
41
1
10
100.719233523541
20
3.05018922790816
30
0
41
1
10
100.722759457051
20
3.05872614028345
30
0
41
1
10
100.728957109699
20
3.07481700044235
30
0
41
1
10
100.739198968771
20
3.10506406036211
30
0
41
1
10
100.750015760424
20
3.14854216412311
30
0
41
1
10
100.755471667683
20
3.18727230871855
30
0
41
1
10
100.757144192941
20
3.21026468116151
30
0
41
1
10
100.757504322796
20
3.21636732876195
30
0
41
1
10
100.757605572926
20
3.21815635272412
30
0
0
SPLINE
5
1EA
100
AcDbEntity
8
1
62
256
6
ByLayer
370
-1
48
1
60
0
100
AcDbSpline
70
4
71
3
72
12
73
8
40
0
40
0
40
0
40
0
40
0.126690309034507
40
0.32331405997364
40
0.716561561851907
40
0.91318531279104
40
1
40
1
40
1
40
1
41
1
10
100.762563727107
20
3.31308102378094
30
0
41
1
10
100.762707795202
20
3.31602513292239
30
0
41
1
10
100.76305956657
20
3.3235427108034
30
0
41
1
10
100.763645060184
20
3.34020532796285
30
0
41
1
10
100.763773948886
20
3.35851664472872
30
0
41
1
10
100.763422867453
20
3.37425738087373
30
0
41
1
10
100.76322572713
20
3.38084926596733
30
0
41
1
10
100.76316242284
20
3.38286824007523
30
0
0
SPLINE
5
1EB
100
AcDbEntity
8
1
62
256
6
ByLayer
370
-1
48
1
60
0
100
AcDbSpline
70
4
71
3
72
36
73
32
40
0
40
0
40
0
40
0
40
0.015625
40
0.0234375
40
0.03125
40
0.03515625
40
0.0390625
40
0.046875
40
0.0625
40
0.125
40
0.1875
40
0.203125
40
0.21875
40
0.25
40
0.3125
40
0.375
40
0.4375
40
0.5
40
0.53125
40
0.546875
40
0.5625
40
0.625
40
0.65625
40
0.6875
40
0.75
40
0.8125
40
0.84375
40
0.859375
40
0.875
40
0.9375
40
1
40
1
40
1
40
1
41
1
10
99.7359365296318
20
6.34928053482787
30
0
41
1
10
99.7408833107975
20
6.34945394009208
30
0
41
1
10
99.7485806945718
20
6.34972028870962
30
0
41
1
10
99.7583387299718
20
6.35005077223084
30
0
41
1
10
99.7639929058297
20
6.35023916254704
30
0
41
1
10
99.7683117630837
20
6.3503816777166
30
0
41
1
10
99.772703241418
20
6.35052668203181
30
0
41
1
10
99.7803326695011
20
6.35077870656565
30
0
41
1
10
99.8043707128375
20
6.35157264689533
30
0
41
1
10
99.8436803167607
20
6.35287105580196
30
0
41
1
10
99.8829730373068
20
6.35416883129173
30
0
41
1
10
99.9092158019813
20
6.35503567315121
30
0
41
1
10
99.9265627067052
20
6.35560850602999
30
0
41
1
10
99.957535713595
20
6.35663618982244
30
0
41
1
10
100.003897594464
20
6.35818750895407
30
0
41
1
10
100.061946107683
20
6.36015027228262
30
0
41
1
10
100.121581514544
20
6.36218662242487
30
0
41
1
10
100.171863656941
20
6.3639193907855
30
0
41
1
10
100.206786442018
20
6.36513103352817
30
0
41
1
10
100.226926032233
20
6.36583187208151
30
0
41
1
10
100.25717718779
20
6.36688418138792
30
0
41
1
10
100.292483669662
20
6.36811244834888
30
0
41
1
10
100.332852507045
20
6.36951678517261
30
0
41
1
10
100.373121794783
20
6.37091786877397
30
0
41
1
10
100.423525342004
20
6.37268262501269
30
0
41
1
10
100.473466544035
20
6.37444424250094
30
0
41
1
10
100.507872237453
20
6.37566490979691
30
0
41
1
10
100.527358399153
20
6.37635838358617
30
0
41
1
10
100.556559742502
20
6.37739826625685
30
0
41
1
10
100.600420975592
20
6.37895978743956
30
0
41
1
10
100.639395578768
20
6.38034742911827
30
0
41
1
10
100.658882880356
20
6.38104124995763
30
0
0
SPLINE
5
1EC
100
AcDbEntity
8
1
62
256
6
ByLayer
370
-1
48
1
60
0
100
AcDbSpline
70
4
71
3
72
14
73
10
40
0
40
0
40
0
40
0
40
0.0128443058606167
40
0.0848398580568312
40
0.22883096244926
40
0.372822066841689
40
0.660804275626547
40
0.948786484411405
40
1
40
1
40
1
40
1
41
1
10
100.069270620429
20
9.9815014888739
30
0
41
1
10
100.068883623852
20
9.98152355865901
30
0
41
1
10
100.066323676694
20
9.98166820558598
30
0
41
1
10
100.059348865765
20
9.9820416450232
30
0
41
1
10
100.048017333955
20
9.9826389784923
30
0
41
1
10
100.029577405561
20
9.98360321219681
30
0
41
1
10
100.006804321271
20
9.98480090097871
30
0
41
1
10
99.9870455602451
20
9.98585741181597
30
0
41
1
10
99.9763261395416
20
9.98639875258721
30
0
41
1
10
99.9747071664161
20
9.98647858239718
30
0
0
SPLINE
5
1ED
100
AcDbEntity
8
1
62
256
6
ByLayer
370
-1
48
1
60
0
100
AcDbSpline
70
4
71
3
72
14
73
10
40
0
40
0
40
0
40
0
40
0.0128443058604669
40
0.0848398580566902
40
0.228830962449137
40
0.372822066841583
40
0.660804275626477
40
0.94878648441137
40
1
40
1
40
1
40
1
41
1
10
93.331662054444
20
9.290537208682
30
0
41
1
10
93.3316400686411
20
9.29014873384102
30
0
41
1
10
93.3314959721393
20
9.28757900810103
30
0
41
1
10
93.3311239537519
20
9.28057755452653
30
0
41
1
10
93.330528893317
20
9.26920273810609
30
0
41
1
10
93.3295683288129
20
9.25069237218131
30
0
41
1
10
93.3283751975983
20
9.22783229840903
30
0
41
1
10
93.3273227071038
20
9.20799806212611
30
0
41
1
10
93.3267834262977
20
9.19723769497693
30
0
41
1
10
93.3267039002642
20
9.19561253763717
30
0
0
SPLINE
5
1EE
100
AcDbEntity
8
1
62
256
6
ByLayer
370
-1
48
1
60
0
100
AcDbSpline
70
4
71
3
72
12
73
8
40
0
40
0
40
0
40
0
40
0.0366937705554811
40
0.110794249743521
40
0.407196166495681
40
0.70359808324784
40
1
40
1
40
1
40
1
41
1
10
99.8691700905184
20
9.98583832631374
30
0
41
1
10
99.8330781957039
20
9.98456473139944
30
0
41
1
10
99.7241038236421
20
9.98075985888153
30
0
41
1
10
99.3235915730417
20
9.96670312551137
30
0
41
1
10
98.6676367815651
20
9.94372288243645
30
0
41
1
10
97.7930289950077
20
9.91306032530838
30
0
41
1
10
97.2099573017642
20
9.89262123620668
30
0
41
1
10
96.9184214551425
20
9.88240169165584
30
0
0
SPLINE
5
1EF
100
AcDbEntity
8
1
62
256
6
ByLayer
370
-1
48
1
60
0
100
AcDbSpline
70
4
71
3
72
14
73
10
40
0
40
0
40
0
40
0
40
0.0128443058607605
40
0.0848398580569549
40
0.228830962449344
40
0.372822066841733
40
0.66080427562651
40
0.948786484411288
40
1
40
1
40
1
40
1
41
1
10
94.0199970069419
20
2.52719207254418
30
0
41
1
10
94.0203840035189
20
2.52717000275908
30
0
41
1
10
94.0229439506766
20
2.52702535583211
30
0
41
1
10
94.0299187616064
20
2.52665191639488
30
0
41
1
10
94.0412502934163
20
2.52605458292578
30
0
41
1
10
94.0596902218103
20
2.52509034922127
30
0
41
1
10
94.0824633061002
20
2.52389266043937
30
0
41
1
10
94.1022220671259
20
2.52283614960211
30
0
41
1
10
94.1129414878295
20
2.52229480883091
30
0
41
1
10
94.1145604609549
20
2.5222149790209
30
0
0
SPLINE
5
1F0
100
AcDbEntity
8
1
62
256
6
ByLayer
370
-1
48
1
60
0
100
AcDbSpline
70
4
71
3
72
77
73
73
40
0
40
0
40
0
40
0
40
0.125
40
0.25
40
0.375
40
0.40625
40
0.421875
40
0.423828125
40
0.42578125
40
0.427734375
40
0.4296875
40
0.43359375
40
0.435546875
40
0.4375
40
0.44140625
40
0.4453125
40
0.447265625
40
0.44921875
40
0.4501953125
40
0.451171875
40
0.453125
40
0.4609375
40
0.46875
40
0.47265625
40
0.474609375
40
0.47607421875
40
0.4765625
40
0.4775390625
40
0.478515625
40
0.4794921875
40
0.48046875
40
0.482421875
40
0.484375
40
0.4921875
40
0.5
40
0.5078125
40
0.515625
40
0.517578125
40
0.51953125
40
0.5205078125
40
0.521484375
40
0.5224609375
40
0.5234375
40
0.52392578125
40
0.525390625
40
0.52734375
40
0.53125
40
0.5390625
40
0.54296875
40
0.546875
40
0.5478515625
40
0.548828125
40
0.5498046875
40
0.55078125
40
0.552734375
40
0.5546875
40
0.55859375
40
0.560546875
40
0.5625
40
0.5634765625
40
0.564453125
40
0.56640625
40
0.568359375
40
0.5703125
40
0.572265625
40
0.57421875
40
0.578125
40
0.59375
40
0.625
40
0.75
40
0.875
40
1
40
1
40
1
40
1
41
1
10
94.3195322579293
20
6.15941302659022
30
0
41
1
10
94.3117444785061
20
6.38327772342359
30
0
41
1
10
94.2961689196596
20
6.83100711709031
30
0
41
1
10
94.2728055813899
20
7.5026012075904
30
0
41
1
10
94.2552830776876
20
8.0062967754655
30
0
41
1
10
94.2445748809807
20
8.31411073361136
30
0
41
1
10
94.2415327796435
20
8.40155788081191
30
0
41
1
10
94.2403159391085
20
8.43653673969212
30
0
41
1
10
94.2399508869481
20
8.44703039735617
30
0
41
1
10
94.2395858347876
20
8.45752405502026
30
0
41
1
10
94.2390990985737
20
8.47151559857232
30
0
41
1
10
94.2386123623597
20
8.48550714212442
30
0
41
1
10
94.2381256261458
20
8.49949868567651
30
0
41
1
10
94.2376388899318
20
8.51349022922858
30
0
41
1
10
94.2370304696644
20
8.53097965866868
30
0
41
1
10
94.2364215518325
20
8.54846889686135
30
0
41
1
10
94.2359338204896
20
8.56246005791857
30
0
41
1
10
94.2356286774225
20
8.57120441404967
30
0
41
1
10
94.2353843390648
20
8.57819981289319
30
0
41
1
10
94.2351398389986
20
8.5851951495813
30
0
41
1
10
94.234466745458
20
8.60443204936013
30
0
41
1
10
94.2333608415839
20
8.63590889140755
30
0
41
1
10
94.2321535542869
20
8.67089142223867
30
0
41
1
10
94.2313352022453
20
8.69538947528292
30
0
41
1
10
94.2308806782768
20
8.7085072358538
30
0
41
1
10
94.2306223832356
20
8.71549727020656
30
0
41
1
10
94.23041836237
20
8.72073583714911
30
0
41
1
10
94.2302411800536
20
8.72509855563806
30
0
41
1
10
94.2300889793952
20
8.73019398458993
30
0
41
1
10
94.2300690788649
20
8.73501415341315
30
0
41
1
10
94.2302382565355
20
8.7413314382313
30
0
41
1
10
94.2308528972194
20
8.74950516852763
30
0
41
1
10
94.2336968765201
20
8.76961573097222
30
0
41
1
10
94.2433911347641
20
8.80015815635554
30
0
41
1
10
94.2686025917783
20
8.83710699308301
30
0
41
1
10
94.3035625016765
20
8.86493052589324
30
0
41
1
10
94.3332383499401
20
8.87676864159289
30
0
41
1
10
94.3530251977517
20
8.88101937209993
30
0
41
1
10
94.3611051143401
20
8.8822050282613
30
0
41
1
10
94.3673712287145
20
8.88281510999315
30
0
41
1
10
94.3721627465226
20
8.88313142008786
30
0
41
1
10
94.3772370378336
20
8.88333444937294
30
0
41
1
10
94.3815849275525
20
8.88346135136248
30
0
41
1
10
94.3868050796157
20
8.88362247401071
30
0
41
1
10
94.3937695699506
20
8.88385142406935
30
0
41
1
10
94.4068372868613
20
8.88431132404085
30
0
41
1
10
94.4312397538296
20
8.88520074490043
30
0
41
1
10
94.4591187429728
20
8.88618579384448
30
0
41
1
10
94.4869937055153
20
8.88715758239729
30
0
41
1
10
94.5026728965828
20
8.88770264799544
30
0
41
1
10
94.5131259236487
20
8.88806679244459
30
0
41
1
10
94.5183524808731
20
8.88824900855363
30
0
41
1
10
94.5235790788761
20
8.88843135895482
30
0
41
1
10
94.5305479267013
20
8.88867465908956
30
0
41
1
10
94.5392590738657
20
8.88897907202687
30
0
41
1
10
94.5531970646759
20
8.88946664431577
30
0
41
1
10
94.5671352419028
20
8.88995483051164
30
0
41
1
10
94.5810735123381
20
8.89044332366103
30
0
41
1
10
94.5897849507785
20
8.89074869582805
30
0
41
1
10
94.5967541015308
20
8.89099299356164
30
0
41
1
10
94.6037232522832
20
8.89123729129525
30
0
41
1
10
94.6124346907237
20
8.89154266346227
30
0
41
1
10
94.6228884168522
20
8.89190911006267
30
0
41
1
10
94.6333421429807
20
8.89227555666309
30
0
41
1
10
94.6437958691092
20
8.89264200326349
30
0
41
1
10
94.6577341706139
20
8.89313059873072
30
0
41
1
10
94.6960644997519
20
8.89447423626555
30
0
41
1
10
94.7866634595325
20
8.89765010680247
30
0
41
1
10
95.0933060926361
20
8.90839920708123
30
0
41
1
10
95.5950849468055
20
8.92598864390101
30
0
41
1
10
96.2641234190315
20
8.94944122632737
30
0
41
1
10
96.7101490671821
20
8.9650762812783
30
0
41
1
10
96.9331618912574
20
8.97289380875375
30
0
0
SPLINE
5
1F1
100
AcDbEntity
8
1
62
256
6
ByLayer
370
-1
48
1
60
0
100
AcDbSpline
70
4
71
3
72
8
73
4
40
0
40
0
40
0
40
0
40
1
40
1
40
1
40
1
41
1
10
100.761925294033
20
3.41902121251948
30
0
41
1
10
100.762344513191
20
3.40697048988989
30
0
41
1
10
100.762741866523
20
3.39491900077212
30
0
41
1
10
100.763117351393
20
3.38286682512864
30
0
0
SPLINE
5
1F2
100
AcDbEntity
8
1
62
256
6
ByLayer
370
-1
48
1
60
0
100
AcDbSpline
70
4
71
3
72
15
73
11
40
0
40
0
40
0
40
0
40
0.0512135155737989
40
0.195204619948456
40
0.339195724323114
40
0.627177933072429
40
0.771169037447086
40
0.915160141821744
40
0.987155694009072
40
1
40
1
40
1
40
1
41
1
10
93.540152175569
20
3.05990544530243
30
0
41
1
10
93.5403444417373
20
3.05828981541057
30
0
41
1
10
93.5410843618227
20
3.05213412045012
30
0
41
1
10
93.542385926423
20
3.04145813451481
30
0
41
1
10
93.5446141450193
20
3.02333703114198
30
0
41
1
10
93.5468371809098
20
3.00516035815363
30
0
41
1
10
93.549081709908
20
2.986762344093
30
0
41
1
10
93.5504657685067
20
2.9754569040301
30
0
41
1
10
93.5513234188921
20
2.96849855545892
30
0
41
1
10
93.5516457372692
20
2.96594517949731
30
0
41
1
10
93.5516946650329
20
2.96555919046793
30
0
0
SPLINE
5
1F3
100
AcDbEntity
8
1
62
256
6
ByLayer
370
-1
48
1
60
0
100
AcDbSpline
70
4
71
3
72
8
73
4
40
0
40
0
40
0
40
0
40
1
40
1
40
1
40
1
41
1
10
93.5347504171665
20
3.12948236975305
30
0
41
1
10
93.5342874676599
20
3.14153151804763
30
0
41
1
10
93.5338463811926
20
3.15358151278841
30
0
41
1
10
93.5334271606916
20
3.16563227402233
30
0
0
SPLINE
5
1F4
100
AcDbEntity
8
1
62
256
6
ByLayer
370
-1
48
1
60
0
100
AcDbSpline
70
4
71
3
72
12
73
8
40
0
40
0
40
0
40
0
40
0.29640191675216
40
0.59280383350432
40
0.889205750256481
40
0.963306229444521
40
1
40
1
40
1
40
1
41
1
10
97.1708461722285
20
2.62629186976224
30
0
41
1
10
97.4623820188502
20
2.63651141431308
30
0
41
1
10
98.0454537120937
20
2.65695050341478
30
0
41
1
10
98.9200617706965
20
2.68760524042321
30
0
41
1
10
99.5760156100141
20
2.71061285391687
30
0
41
1
10
99.9765290497722
20
2.72463540418829
30
0
41
1
10
100.085502370248
20
2.72847050520866
30
0
41
1
10
100.121594850443
20
2.72972727300902
30
0
0
SPLINE
5
1F5
100
AcDbEntity
8
1
62
256
6
ByLayer
370
-1
48
1
60
0
100
AcDbSpline
70
4
71
3
72
14
73
10
40
0
40
0
40
0
40
0
40
0.0868146872093963
40
0.283438438146026
40
0.480062189082655
40
0.676685940019284
40
0.873309690955913
40
0.971621566424228
40
1
40
1
40
1
40
1
41
1
10
93.9316588326959
20
9.77768259816816
30
0
41
1
10
93.9296480249144
20
9.77760515296112
30
0
41
1
10
93.9230834685172
20
9.7773427376095
30
0
41
1
10
93.9119687157889
20
9.77681317961628
30
0
41
1
10
93.8983222330827
20
9.77589308400715
30
0
41
1
10
93.8846956240004
20
9.77471006405628
30
0
41
1
10
93.8733643639768
20
9.77351051262701
30
0
41
1
10
93.8659175826028
20
9.77264155327575
30
0
41
1
10
93.8630014069341
20
9.7722932874602
30
0
41
1
10
93.8623482919883
20
9.77221496935681
30
0
0
SPLINE
5
1F6
100
AcDbEntity
8
1
62
256
6
ByLayer
370
-1
48
1
60
0
100
AcDbSpline
70
4
71
3
72
36
73
32
40
0
40
0
40
0
40
0
40
0.015625
40
0.0234375
40
0.03125
40
0.03515625
40
0.0390625
40
0.046875
40
0.0625
40
0.125
40
0.1875
40
0.203125
40
0.21875
40
0.25
40
0.3125
40
0.375
40
0.4375
40
0.5
40
0.53125
40
0.546875
40
0.5625
40
0.625
40
0.65625
40
0.6875
40
0.75
40
0.8125
40
0.84375
40
0.859375
40
0.875
40
0.9375
40
1
40
1
40
1
40
1
41
1
10
97.1223068963037
20
3.53579975266433
30
0
41
1
10
97.1224796417085
20
3.53083407559814
30
0
41
1
10
97.1228441579897
20
3.52320684912493
30
0
41
1
10
97.1235036221546
20
3.51374303930467
30
0
41
1
10
97.1239712074516
20
3.50834824649425
30
0
41
1
10
97.1243664668898
20
3.50426714600263
30
0
41
1
10
97.1247658185165
20
3.50011476570435
30
0
41
1
10
97.12545673673
20
3.49289772732044
30
0
41
1
10
97.127636738192
20
3.47016225094742
30
0
41
1
10
97.1311997309551
20
3.43298068463335
30
0
41
1
10
97.1347632789958
20
3.39581725700361
30
0
41
1
10
97.1371409432917
20
3.37099415395912
30
0
41
1
10
97.1387171350501
20
3.35459036655337
30
0
41
1
10
97.1413968879913
20
3.32516135317866
30
0
41
1
10
97.1450492637866
20
3.28073738560215
30
0
41
1
10
97.1490607651294
20
3.22453119779141
30
0
41
1
10
97.152633234999
20
3.16621775934553
30
0
41
1
10
97.1552103774502
20
3.11659776568936
30
0
41
1
10
97.1567753183475
20
3.08190085722202
30
0
41
1
10
97.1576200599795
20
3.06183146689779
30
0
41
1
10
97.1588999943703
20
3.03169727106763
30
0
41
1
10
97.16039094923
20
2.99652430727468
30
0
41
1
10
97.1620968645399
20
2.95630936229608
30
0
41
1
10
97.1637927949581
20
2.91618757741654
30
0
41
1
10
97.1656106811157
20
2.8656515707826
30
0
41
1
10
97.1670526353007
20
2.81520544620079
30
0
41
1
10
97.1678520287604
20
2.78025010833937
30
0
41
1
10
97.1682461018522
20
2.76039161726513
30
0
41
1
10
97.1688183428493
20
2.73061327372326
30
0
41
1
10
97.1696891972896
20
2.6858971576282
30
0
41
1
10
97.1704605139155
20
2.64616029905091
30
0
41
1
10
97.1708461722285
20
2.62629186976224
30
0
0
SPLINE
5
1F7
100
AcDbEntity
8
1
62
256
6
ByLayer
370
-1
48
1
60
0
100
AcDbSpline
70
4
71
3
72
77
73
73
40
0
40
0
40
0
40
0
40
0.125
40
0.25
40
0.375
40
0.40625
40
0.421875
40
0.423828125
40
0.42578125
40
0.427734375
40
0.4296875
40
0.43359375
40
0.435546875
40
0.4375
40
0.44140625
40
0.4453125
40
0.447265625
40
0.44921875
40
0.4501953125
40
0.451171875
40
0.453125
40
0.4609375
40
0.46875
40
0.47265625
40
0.474609375
40
0.47607421875
40
0.4765625
40
0.4775390625
40
0.478515625
40
0.4794921875
40
0.48046875
40
0.482421875
40
0.484375
40
0.4921875
40
0.5
40
0.5078125
40
0.515625
40
0.517578125
40
0.51953125
40
0.5205078125
40
0.521484375
40
0.5224609375
40
0.5234375
40
0.52392578125
40
0.525390625
40
0.52734375
40
0.53125
40
0.5390625
40
0.54296875
40
0.546875
40
0.5478515625
40
0.548828125
40
0.5498046875
40
0.55078125
40
0.552734375
40
0.5546875
40
0.55859375
40
0.560546875
40
0.5625
40
0.5634765625
40
0.564453125
40
0.56640625
40
0.568359375
40
0.5703125
40
0.572265625
40
0.57421875
40
0.578125
40
0.59375
40
0.625
40
0.75
40
0.875
40
1
40
1
40
1
40
1
41
1
10
99.7359365296318
20
6.34928053482787
30
0
41
1
10
99.743724309055
20
6.12541583799452
30
0
41
1
10
99.7592998679015
20
5.67768644432778
30
0
41
1
10
99.7826632061712
20
5.00609235382768
30
0
41
1
10
99.8001857098735
20
4.50239678595261
30
0
41
1
10
99.8108939065804
20
4.19458282780673
30
0
41
1
10
99.8139360079176
20
4.10713568060618
30
0
41
1
10
99.8151528484525
20
4.07215682172597
30
0
41
1
10
99.815517900613
20
4.06166316406191
30
0
41
1
10
99.8158829527735
20
4.05116950639786
30
0
41
1
10
99.8163696889874
20
4.03717796284576
30
0
41
1
10
99.8168564252013
20
4.02318641929366
30
0
41
1
10
99.8173431614153
20
4.0091948757416
30
0
41
1
10
99.8178298976293
20
3.9952033321895
30
0
41
1
10
99.8184383178967
20
3.9777139027494
30
0
41
1
10
99.8190472357286
20
3.96022466455673
30
0
41
1
10
99.8195349670715
20
3.94623350349954
30
0
41
1
10
99.8198401101386
20
3.93748914736844
30
0
41
1
10
99.8200844484963
20
3.9304937485249
30
0
41
1
10
99.8203289485625
20
3.92349841183679
30
0
41
1
10
99.8210020421031
20
3.90426151205798
30
0
41
1
10
99.8221079459772
20
3.87278467001053
30
0
41
1
10
99.8233152332741
20
3.83780213917944
30
0
41
1
10
99.8241335853158
20
3.81330408613516
30
0
41
1
10
99.8245881092843
20
3.80018632556431
30
0
41
1
10
99.8248464043255
20
3.79319629121153
30
0
41
1
10
99.8250504251911
20
3.78795772426898
30
0
41
1
10
99.8252276075075
20
3.78359500578003
30
0
41
1
10
99.8253798081659
20
3.77849957682818
30
0
41
1
10
99.8253997086962
20
3.77367940800494
30
0
41
1
10
99.8252305310256
20
3.76736212318679
30
0
41
1
10
99.8246158903416
20
3.75918839289045
30
0
41
1
10
99.821771911041
20
3.73907783044586
30
0
41
1
10
99.812077652797
20
3.70853540506258
30
0
41
1
10
99.7868661957828
20
3.67158656833507
30
0
41
1
10
99.7519062858846
20
3.64376303552487
30
0
41
1
10
99.722230437621
20
3.63192491982519
30
0
41
1
10
99.7024435898094
20
3.62767418931816
30
0
41
1
10
99.6943636732209
20
3.62648853315679
30
0
41
1
10
99.6880975588466
20
3.62587845142494
30
0
41
1
10
99.6833060410385
20
3.62556214133022
30
0
41
1
10
99.6782317497275
20
3.62535911204515
30
0
41
1
10
99.6738838600086
20
3.6252322100556
30
0
41
1
10
99.6686637079454
20
3.62507108740738
30
0
41
1
10
99.6616992176105
20
3.62484213734876
30
0
41
1
10
99.6486315006998
20
3.62438223737723
30
0
41
1
10
99.6242290337315
20
3.62349281651765
30
0
41
1
10
99.5963500445883
20
3.62250776757364
30
0
41
1
10
99.5684750820458
20
3.62153597902079
30
0
41
1
10
99.5527958909782
20
3.62099091342267
30
0
41
1
10
99.5423428639124
20
3.62062676897349
30
0
41
1
10
99.537116306688
20
3.62044455286446
30
0
41
1
10
99.531889708685
20
3.62026220246327
30
0
41
1
10
99.5249208608598
20
3.62001890232853
30
0
41
1
10
99.5162097136954
20
3.61971448939121
30
0
41
1
10
99.5022717228852
20
3.61922691710234
30
0
41
1
10
99.4883335456583
20
3.61873873090644
30
0
41
1
10
99.474395275223
20
3.61825023775705
30
0
41
1
10
99.4656838367825
20
3.61794486559006
30
0
41
1
10
99.4587146860302
20
3.61770056785645
30
0
41
1
10
99.4517455352778
20
3.61745627012283
30
0
41
1
10
99.4430340968374
20
3.61715089795584
30
0
41
1
10
99.4325803707089
20
3.61678445135541
30
0
41
1
10
99.4221266445804
20
3.61641800475499
30
0
41
1
10
99.4116729184518
20
3.6160515581546
30
0
41
1
10
99.3977346169471
20
3.61556296268736
30
0
41
1
10
99.3594042878092
20
3.61421932515253
30
0
41
1
10
99.2688053280286
20
3.61104345461564
30
0
41
1
10
98.962162694925
20
3.60029435433688
30
0
41
1
10
98.4603838407555
20
3.58270491751708
30
0
41
1
10
97.7913453685296
20
3.55925233509072
30
0
41
1
10
97.345319720379
20
3.54361728013978
30
0
41
1
10
97.1223068963037
20
3.53579975266433
30
0
0
SPLINE
5
1F8
100
AcDbEntity
8
1
62
256
6
ByLayer
370
-1
48
1
60
0
100
AcDbSpline
70
4
71
3
72
77
73
73
40
0
40
0
40
0
40
0
40
0.125
40
0.25
40
0.375
40
0.40625
40
0.421875
40
0.423828125
40
0.42578125
40
0.427734375
40
0.4296875
40
0.43359375
40
0.435546875
40
0.4375
40
0.44140625
40
0.4453125
40
0.447265625
40
0.44921875
40
0.4501953125
40
0.451171875
40
0.453125
40
0.4609375
40
0.46875
40
0.47265625
40
0.474609375
40
0.47607421875
40
0.4765625
40
0.4775390625
40
0.478515625
40
0.4794921875
40
0.48046875
40
0.482421875
40
0.484375
40
0.4921875
40
0.5
40
0.5078125
40
0.515625
40
0.517578125
40
0.51953125
40
0.5205078125
40
0.521484375
40
0.5224609375
40
0.5234375
40
0.52392578125
40
0.525390625
40
0.52734375
40
0.53125
40
0.5390625
40
0.54296875
40
0.546875
40
0.5478515625
40
0.548828125
40
0.5498046875
40
0.55078125
40
0.552734375
40
0.5546875
40
0.55859375
40
0.560546875
40
0.5625
40
0.5634765625
40
0.564453125
40
0.56640625
40
0.568359375
40
0.5703125
40
0.572265625
40
0.57421875
40
0.578125
40
0.59375
40
0.625
40
0.75
40
0.875
40
1
40
1
40
1
40
1
41
1
10
97.1223068963037
20
3.53579975266433
30
0
41
1
10
96.8992940722284
20
3.52798222518888
30
0
41
1
10
96.4532684240777
20
3.51234717023797
30
0
41
1
10
95.7842299518518
20
3.48889458781159
30
0
41
1
10
95.2824510976823
20
3.47130515099181
30
0
41
1
10
94.9758084645787
20
3.46055605071305
30
0
41
1
10
94.8886940801743
20
3.45750232904294
30
0
41
1
10
94.8538483264126
20
3.45628084037492
30
0
41
1
10
94.843394600284
20
3.45591439377449
30
0
41
1
10
94.8329408741555
20
3.4555479471741
30
0
41
1
10
94.8190025726508
20
3.45505935170686
30
0
41
1
10
94.8050642711461
20
3.45457075623966
30
0
41
1
10
94.7911259696414
20
3.45408216077243
30
0
41
1
10
94.7771876681367
20
3.45359356530523
30
0
41
1
10
94.7597647912558
20
3.45298282097119
30
0
41
1
10
94.7423421048946
20
3.45237157717207
30
0
41
1
10
94.7284041844292
20
3.45188198277469
30
0
41
1
10
94.7196931032132
20
3.45157567411064
30
0
41
1
10
94.7127243239743
20
3.4513304024201
30
0
41
1
10
94.7057556066542
20
3.45108496840342
30
0
41
1
10
94.6865919090868
20
3.45040930375478
30
0
41
1
10
94.6552348459265
20
3.4492991755076
30
0
41
1
10
94.6203854341867
20
3.44808727656928
30
0
41
1
10
94.5959806036304
20
3.44726579855578
30
0
41
1
10
94.5829127600989
20
3.44680953837957
30
0
41
1
10
94.5759493249372
20
3.44655025669326
30
0
41
1
10
94.5707306923234
20
3.44634545650112
30
0
41
1
10
94.5663845752955
20
3.44616759737704
30
0
41
1
10
94.5613085359892
20
3.44601481533684
30
0
41
1
10
94.5565067093635
20
3.44599483878974
30
0
41
1
10
94.5502134637214
20
3.44616466269153
30
0
41
1
10
94.5420708369365
20
3.44678165120311
30
0
41
1
10
94.5220368012535
20
3.44963649404266
30
0
41
1
10
94.4916105990199
20
3.45936778277826
30
0
41
1
10
94.4548023637713
20
3.48467554346249
30
0
41
1
10
94.4270847079035
20
3.51976899453706
30
0
41
1
10
94.4152916398082
20
3.54955819972
30
0
41
1
10
94.4110570846141
20
3.56942063007563
30
0
41
1
10
94.4098759402323
20
3.57753141063287
30
0
41
1
10
94.4092681800457
20
3.58382146054618
30
0
41
1
10
94.4089530736063
20
3.58863128117389
30
0
41
1
10
94.408750816909
20
3.5937249554533
30
0
41
1
10
94.4086243978198
20
3.59808945340461
30
0
41
1
10
94.4084638882919
20
3.60332954560059
30
0
41
1
10
94.4082358094574
20
3.61032063915715
30
0
41
1
10
94.4077776595441
20
3.62343827262356
30
0
41
1
10
94.4068916231994
20
3.64793395305134
30
0
41
1
10
94.405910322664
20
3.6759194354039
30
0
41
1
10
94.40494223206
20
3.70390087577482
30
0
41
1
10
94.404399240601
20
3.71963995880506
30
0
41
1
10
94.4040364818314
20
3.7301329147362
30
0
41
1
10
94.4038549591097
20
3.73537943656007
30
0
41
1
10
94.4036733026069
20
3.74062599931838
30
0
41
1
10
94.4034309283026
20
3.74762146701016
30
0
41
1
10
94.4031276737484
20
3.75636588934148
30
0
41
1
10
94.4026419568193
20
3.77035712101227
30
0
41
1
10
94.4021556283193
20
3.78434853981185
30
0
41
1
10
94.4016689940338
20
3.7983400521758
30
0
41
1
10
94.4013647839001
20
3.80708476689586
30
0
41
1
10
94.4011214157931
20
3.8140805386719
30
0
41
1
10
94.4008780476861
20
3.82107631044795
30
0
41
1
10
94.4005738375524
20
3.829821025168
30
0
41
1
10
94.400208785392
20
3.84031468283206
30
0
41
1
10
94.3998437332315
20
3.85080834049612
30
0
41
1
10
94.399478681071
20
3.86130199816017
30
0
41
1
10
94.3989919448571
20
3.87529354171227
30
0
41
1
10
94.3976534202687
20
3.91377028648051
30
0
41
1
10
94.394489634878
20
4.00471531956904
30
0
41
1
10
94.383781438171
20
4.31252927771493
30
0
41
1
10
94.3662589344688
20
4.81622484559
30
0
41
1
10
94.342895596199
20
5.48781893609012
30
0
41
1
10
94.3273200373526
20
5.93554832975684
30
0
41
1
10
94.3195322579293
20
6.15941302659022
30
0
0
SPLINE
5
1F9
100
AcDbEntity
8
1
62
256
6
ByLayer
370
-1
48
1
60
0
100
AcDbSpline
70
4
71
3
72
8
73
4
40
0
40
0
40
0
40
0
40
1
40
1
40
1
40
1
41
1
10
93.3273423333376
20
9.0896723488986
30
0
41
1
10
93.3269231141795
20
9.1017230715282
30
0
41
1
10
93.3265257608475
20
9.11377456064596
30
0
41
1
10
93.326150275978
20
9.12582673628944
30
0
0
SPLINE
5
1FA
100
AcDbEntity
8
1
62
256
6
ByLayer
370
-1
48
1
60
0
100
AcDbSpline
70
4
71
3
72
15
73
11
40
0
40
0
40
0
40
0
40
0.0512135155738152
40
0.195204619948473
40
0.33919572432313
40
0.627177933072445
40
0.771169037447103
40
0.91516014182176
40
0.987155694009089
40
1
40
1
40
1
40
1
41
1
10
100.549115451802
20
9.44878811611568
30
0
41
1
10
100.548923185634
20
9.45040374600754
30
0
41
1
10
100.548183265548
20
9.45655944096796
30
0
41
1
10
100.546881700948
20
9.46723542690327
30
0
41
1
10
100.544653482352
20
9.48535653027614
30
0
41
1
10
100.542430446461
20
9.50353320326445
30
0
41
1
10
100.540185917463
20
9.52193121732509
30
0
41
1
10
100.538801858864
20
9.53323665738799
30
0
41
1
10
100.537944208479
20
9.54019500595919
30
0
41
1
10
100.537621890102
20
9.5427483819208
30
0
41
1
10
100.537572962338
20
9.54313437095016
30
0
0
SPLINE
5
1FB
100
AcDbEntity
8
1
62
256
6
ByLayer
370
-1
48
1
60
0
100
AcDbSpline
70
4
71
3
72
8
73
4
40
0
40
0
40
0
40
0
40
1
40
1
40
1
40
1
41
1
10
100.157607172135
20
2.73105619981925
30
0
41
1
10
100.145603874488
20
2.73059148192064
30
0
41
1
10
100.133599733615
20
2.73014871057481
30
0
41
1
10
100.121594829166
20
2.72972788871957
30
0
0
SPLINE
5
1FC
100
AcDbEntity
8
1
62
256
6
ByLayer
370
-1
48
1
60
0
100
AcDbSpline
70
4
71
3
72
41
73
37
40
0
40
0
40
0
40
0
40
0.0080831369865707
40
0.0179214742470198
40
0.0277598115074689
40
0.0671131605492655
40
0.106466509591062
40
0.185173207674655
40
0.224526556716452
40
0.24420323123735
40
0.258960737128024
40
0.263879905758248
40
0.273718243018697
40
0.283556580279146
40
0.293394917539596
40
0.303233254800045
40
0.322909929320943
40
0.342586603841841
40
0.421293301925435
40
0.500000000009027
40
0.57870669809262
40
0.657413396176213
40
0.677090070697112
40
0.69676674521801
40
0.706605082478459
40
0.716443419738908
40
0.726281756999357
40
0.736120094259806
40
0.741039262890031
40
0.755796768780705
40
0.775473443301603
40
0.8148267923434
40
0.893533490426993
40
0.972240188510586
40
0.991916863031484
40
1
40
1
40
1
40
1
41
1
10
93.5516946650313
20
2.96555919047984
30
0
41
1
10
93.5519199896384
20
2.9637816143171
30
0
41
1
10
93.5524257013494
20
2.95986767946332
30
0
41
1
10
93.5532531223977
20
2.95387789274952
30
0
41
1
10
93.5551541044962
20
2.94121591216964
30
0
41
1
10
93.5586808743828
20
2.92214854698139
30
0
41
1
10
93.5668659068882
20
2.88812308549387
30
0
41
1
10
93.5779153314278
20
2.85403126963985
30
0
41
1
10
93.5902341411726
20
2.82457505504058
30
0
41
1
10
93.5975348670858
20
2.8089573692192
30
0
41
1
10
93.6016454504265
20
2.80068814853627
30
0
41
1
10
93.6048208987173
20
2.79451514892614
30
0
41
1
10
93.6075248351925
20
2.7893897031199
30
0
41
1
10
93.6108616393102
20
2.78327119491866
30
0
41
1
10
93.6142902368168
20
2.77718678739316
30
0
41
1
10
93.6189837087331
20
2.7691224768061
30
0
41
1
10
93.6250785973082
20
2.75913770980887
30
0
41
1
10
93.6404314943283
20
2.73551343952391
30
0
41
1
10
93.6661629889966
20
2.70147335807044
30
0
41
1
10
93.7056107292545
20
2.66000534860464
30
0
41
1
10
93.7495720460842
20
2.62339604627223
30
0
41
1
10
93.7851949286908
20
2.60000369758021
30
0
41
1
10
93.8097429369034
20
2.58627764252077
30
0
41
1
10
93.8200906369461
20
2.58087087815306
30
0
41
1
10
93.8284320909443
20
2.57673349254048
30
0
41
1
10
93.8347177474228
20
2.57372460895618
30
0
41
1
10
93.8410308888791
20
2.57081002368136
30
0
41
1
10
93.8463130100724
20
2.56845990344721
30
0
41
1
10
93.8526690477347
20
2.56571069692484
30
0
41
1
10
93.861173474581
20
2.56217129492217
30
0
41
1
10
93.877203104159
20
2.55594996824709
30
0
41
1
10
93.9073350648839
20
2.54566898693778
30
0
41
1
10
93.9506477213337
20
2.53481087689792
30
0
41
1
10
93.989230486036
20
2.52933412896002
30
0
41
1
10
94.0121353655602
20
2.52765521492734
30
0
41
1
10
94.0182147907441
20
2.52729370943416
30
0
41
1
10
94.01999700693
20
2.52719207254486
30
0
0
SPLINE
5
1FD
100
AcDbEntity
8
1
62
256
6
ByLayer
370
-1
48
1
60
0
100
AcDbSpline
70
4
71
3
72
15
73
11
40
0
40
0
40
0
40
0
40
0.0512135155740402
40
0.19520461994864
40
0.33919572432324
40
0.627177933072439
40
0.771169037447039
40
0.915160141821638
40
0.987155694008938
40
1
40
1
40
1
40
1
41
1
10
93.8623482919883
20
9.77221496935681
30
0
41
1
10
93.860738810056
20
9.77202196876294
30
0
41
1
10
93.8546065393733
20
9.77127922230304
30
0
41
1
10
93.8439711787877
20
9.7699726859374
30
0
41
1
10
93.8259190316841
20
9.76773595590811
30
0
41
1
10
93.8078115264241
20
9.7655044283816
30
0
41
1
10
93.7894835223615
20
9.7632513256473
30
0
41
1
10
93.7782211029112
20
9.76186198016956
30
0
41
1
10
93.7712892329571
20
9.76100105369909
30
0
41
1
10
93.7687455733619
20
9.76067750411812
30
0
41
1
10
93.7683610531374
20
9.76062838945836
30
0
0
SPLINE
5
1FE
100
AcDbEntity
8
1
62
256
6
ByLayer
370
-1
48
1
60
0
100
AcDbSpline
70
4
71
3
72
14
73
10
40
0
40
0
40
0
40
0
40
0.0128443058604548
40
0.0848398580566796
40
0.228830962449129
40
0.372822066841579
40
0.660804275626478
40
0.948786484411377
40
1
40
1
40
1
40
1
41
1
10
100.757605572927
20
3.21815635273609
30
0
41
1
10
100.75762755873
20
3.21854482757706
30
0
41
1
10
100.757771655232
20
3.22111455331708
30
0
41
1
10
100.758143673619
20
3.22811600689155
30
0
41
1
10
100.758738734054
20
3.239490823312
30
0
41
1
10
100.759699298558
20
3.25800118923681
30
0
41
1
10
100.760892429773
20
3.28086126300906
30
0
41
1
10
100.761944920267
20
3.30069549929198
30
0
41
1
10
100.762484201073
20
3.31145586644115
30
0
41
1
10
100.762563727107
20
3.31308102378094
30
0
0
SPLINE
5
1FF
100
AcDbEntity
8
1
62
256
6
ByLayer
370
-1
48
1
60
0
100
AcDbSpline
70
4
71
3
72
8
73
4
40
0
40
0
40
0
40
0
40
1
40
1
40
1
40
1
41
1
10
100.554517210204
20
9.37921119166506
30
0
41
1
10
100.554980159711
20
9.36716204337046
30
0
41
1
10
100.555421246178
20
9.35511204862968
30
0
41
1
10
100.555840466679
20
9.34306128739578
30
0
0
SPLINE
5
200
100
AcDbEntity
8
1
62
256
6
ByLayer
370
-1
48
1
60
0
100
AcDbSpline
70
4
71
3
72
12
73
8
40
0
40
0
40
0
40
0
40
0.126690309034497
40
0.323314059973641
40
0.71656156185193
40
0.913185312791075
40
1
40
1
40
1
40
1
41
1
10
93.3267039002642
20
9.19561253763717
30
0
41
1
10
93.3265598321691
20
9.19266842849569
30
0
41
1
10
93.326208060801
20
9.18515085061469
30
0
41
1
10
93.3256225671875
20
9.16848823345524
30
0
41
1
10
93.3254936784846
20
9.15017691668936
30
0
41
1
10
93.3258447599185
20
9.13443618054436
30
0
41
1
10
93.3260419002406
20
9.12784429545076
30
0
41
1
10
93.326105204531
20
9.12582532134289
30
0
0
SPLINE
5
201
100
AcDbEntity
8
1
62
256
6
ByLayer
370
-1
48
1
60
0
100
AcDbSpline
70
4
71
3
72
12
73
8
40
0
40
0
40
0
40
0
40
0.29640191675216
40
0.59280383350432
40
0.88920575025648
40
0.96330622944452
40
1
40
1
40
1
40
1
41
1
10
100.658882880356
20
6.38104124995763
30
0
41
1
10
100.648702224258
20
6.67369071615153
30
0
41
1
10
100.628340912061
20
7.25898964853934
30
0
41
1
10
100.597802825582
20
8.13693856784005
30
0
41
1
10
100.574882763004
20
8.7953980442598
30
0
41
1
10
100.56091357277
20
9.19744138029174
30
0
41
1
10
100.557093065467
20
9.30683096114868
30
0
41
1
10
100.555841080047
20
9.3430613087537
30
0
0
SPLINE
5
202
100
AcDbEntity
8
1
62
256
6
ByLayer
370
-1
48
1
60
0
100
AcDbSpline
70
4
71
3
72
77
73
73
40
0
40
0
40
0
40
0
40
0.125
40
0.25
40
0.375
40
0.40625
40
0.421875
40
0.423828125
40
0.42578125
40
0.427734375
40
0.4296875
40
0.43359375
40
0.435546875
40
0.4375
40
0.44140625
40
0.4453125
40
0.447265625
40
0.44921875
40
0.4501953125
40
0.451171875
40
0.453125
40
0.4609375
40
0.46875
40
0.47265625
40
0.474609375
40
0.47607421875
40
0.4765625
40
0.4775390625
40
0.478515625
40
0.4794921875
40
0.48046875
40
0.482421875
40
0.484375
40
0.4921875
40
0.5
40
0.5078125
40
0.515625
40
0.517578125
40
0.51953125
40
0.5205078125
40
0.521484375
40
0.5224609375
40
0.5234375
40
0.52392578125
40
0.525390625
40
0.52734375
40
0.53125
40
0.5390625
40
0.54296875
40
0.546875
40
0.5478515625
40
0.548828125
40
0.5498046875
40
0.55078125
40
0.552734375
40
0.5546875
40
0.55859375
40
0.560546875
40
0.5625
40
0.5634765625
40
0.564453125
40
0.56640625
40
0.568359375
40
0.5703125
40
0.572265625
40
0.57421875
40
0.578125
40
0.59375
40
0.625
40
0.75
40
0.875
40
1
40
1
40
1
40
1
41
1
10
96.9331618912574
20
8.97289380875375
30
0
41
1
10
97.1561747153327
20
8.98071133622921
30
0
41
1
10
97.6022003634833
20
8.99634639118014
30
0
41
1
10
98.2712388357093
20
9.0197989736065
30
0
41
1
10
98.7730176898788
20
9.0373884104263
30
0
41
1
10
99.0796603229824
20
9.04813751070503
30
0
41
1
10
99.1667747073868
20
9.05119123237515
30
0
41
1
10
99.2016204611485
20
9.0524127210432
30
0
41
1
10
99.212074187277
20
9.05277916764359
30
0
41
1
10
99.2225279134055
20
9.05314561424402
30
0
41
1
10
99.2364662149103
20
9.05363420971122
30
0
41
1
10
99.250404516415
20
9.05412280517845
30
0
41
1
10
99.2643428179197
20
9.05461140064565
30
0
41
1
10
99.2782811194244
20
9.05509999611289
30
0
41
1
10
99.2957039963053
20
9.0557107404469
30
0
41
1
10
99.3131266826665
20
9.05632198424601
30
0
41
1
10
99.3270646031318
20
9.05681157864339
30
0
41
1
10
99.3357756843478
20
9.05711788730747
30
0
41
1
10
99.3427444635868
20
9.05736315899799
30
0
41
1
10
99.3497131809069
20
9.05760859301469
30
0
41
1
10
99.3688768784742
20
9.0582842576633
30
0
41
1
10
99.4002339416346
20
9.05939438591051
30
0
41
1
10
99.4350833533744
20
9.0606062848488
30
0
41
1
10
99.4594881839306
20
9.06142776286234
30
0
41
1
10
99.4725560274621
20
9.06188402303852
30
0
41
1
10
99.4795194626239
20
9.06214330472486
30
0
41
1
10
99.4847380952376
20
9.06234810491696
30
0
41
1
10
99.4890842122656
20
9.06252596404104
30
0
41
1
10
99.4941602515719
20
9.06267874608125
30
0
41
1
10
99.4989620781976
20
9.06269872262834
30
0
41
1
10
99.5052553238397
20
9.06252889872655
30
0
41
1
10
99.5133979506246
20
9.06191191021497
30
0
41
1
10
99.5334319863075
20
9.05905706737542
30
0
41
1
10
99.5638581885412
20
9.04932577863983
30
0
41
1
10
99.6006664237898
20
9.02401801795563
30
0
41
1
10
99.6283840796575
20
8.98892456688102
30
0
41
1
10
99.6401771477529
20
8.95913536169809
30
0
41
1
10
99.644411702947
20
8.93927293134246
30
0
41
1
10
99.6455928473288
20
8.93116215078521
30
0
41
1
10
99.6462006075154
20
8.92487210087191
30
0
41
1
10
99.6465157139547
20
8.9200622802442
30
0
41
1
10
99.6467179706521
20
8.91496860596479
30
0
41
1
10
99.6468443897413
20
8.9106041080135
30
0
41
1
10
99.6470048992692
20
8.90536401581753
30
0
41
1
10
99.6472329781037
20
8.89837292226096
30
0
41
1
10
99.647691128017
20
8.88525528879453
30
0
41
1
10
99.6485771643617
20
8.86075960836675
30
0
41
1
10
99.649558464897
20
8.83277412601419
30
0
41
1
10
99.6505265555011
20
8.80479268564329
30
0
41
1
10
99.65106954696
20
8.78905360261302
30
0
41
1
10
99.6514323057296
20
8.77856064668188
30
0
41
1
10
99.6516138284513
20
8.77331412485802
30
0
41
1
10
99.6517954849542
20
8.7680675620997
30
0
41
1
10
99.6520378592585
20
8.76107209440795
30
0
41
1
10
99.6523411138127
20
8.7523276720766
30
0
41
1
10
99.6528268307418
20
8.73833644040582
30
0
41
1
10
99.6533131592418
20
8.72434502160624
30
0
41
1
10
99.6537997935273
20
8.71035350924228
30
0
41
1
10
99.654104003661
20
8.70160879452223
30
0
41
1
10
99.654347371768
20
8.69461302274621
30
0
41
1
10
99.6545907398749
20
8.68761725097016
30
0
41
1
10
99.6548949500087
20
8.67887253625011
30
0
41
1
10
99.6552600021691
20
8.66837887858603
30
0
41
1
10
99.6556250543296
20
8.65788522092197
30
0
41
1
10
99.6559901064901
20
8.64739156325791
30
0
41
1
10
99.656476842704
20
8.63340001970582
30
0
41
1
10
99.6578153672924
20
8.5949232749376
30
0
41
1
10
99.6609791526831
20
8.50397824184904
30
0
41
1
10
99.67168734939
20
8.19616428370315
30
0
41
1
10
99.6892098530923
20
7.69246871582808
30
0
41
1
10
99.712573191362
20
7.02087462532799
30
0
41
1
10
99.7281487502085
20
6.57314523166124
30
0
41
1
10
99.7359365296318
20
6.34928053482787
30
0
0
SPLINE
5
203
100
AcDbEntity
8
1
62
256
6
ByLayer
370
-1
48
1
60
0
100
AcDbSpline
70
4
71
3
72
41
73
37
40
0
40
0
40
0
40
0
40
0.0080831369865736
40
0.0179214742470223
40
0.027759811507471
40
0.0671131605492657
40
0.106466509591061
40
0.18517320767465
40
0.224526556716445
40
0.244203231237342
40
0.258960737128015
40
0.263879905758239
40
0.273718243018688
40
0.283556580279137
40
0.293394917539585
40
0.303233254800034
40
0.322909929320931
40
0.342586603841829
40
0.421293301925418
40
0.500000000009008
40
0.578706698092597
40
0.657413396176187
40
0.677090070697084
40
0.696766745217981
40
0.70660508247843
40
0.716443419738879
40
0.726281756999328
40
0.736120094259776
40
0.74103926289
40
0.755796768780673
40
0.775473443301571
40
0.814826792343366
40
0.893533490426955
40
0.972240188510545
40
0.991916863031442
40
1
40
1
40
1
40
1
41
1
10
93.7683610531492
20
9.76062838945987
30
0
41
1
10
93.7665902412004
20
9.76040220414941
30
0
41
1
10
93.7626912000504
20
9.75989456070181
30
0
41
1
10
93.7567242062835
20
9.75906397903958
30
0
41
1
10
93.7441104083624
20
9.75715573549829
30
0
41
1
10
93.7251156002553
20
9.7536154939236
30
0
41
1
10
93.6912196159213
20
9.74539919592382
30
0
41
1
10
93.6572575297192
20
9.73430756437745
30
0
41
1
10
93.6279134049096
20
9.72194169878077
30
0
41
1
10
93.6123551490979
20
9.7146130852806
30
0
41
1
10
93.6041173952962
20
9.71048680017933
30
0
41
1
10
93.5979678858133
20
9.70729922219198
30
0
41
1
10
93.5928619438757
20
9.70458495711873
30
0
41
1
10
93.5867667184454
20
9.70123540695135
30
0
41
1
10
93.5807054639275
20
9.69779371275919
30
0
41
1
10
93.5726718404769
20
9.69308231254274
30
0
41
1
10
93.5627250685326
20
9.68696414248336
30
0
41
1
10
93.5391906957284
20
9.6715525998909
30
0
41
1
10
93.5052801470619
20
9.64572281509317
30
0
41
1
10
93.4639699358916
20
9.60612439087603
30
0
41
1
10
93.4274999430072
20
9.56199514895792
30
0
41
1
10
93.4041966092643
20
9.52623619272694
30
0
41
1
10
93.3905227859884
20
9.50159441511087
30
0
41
1
10
93.3851365959914
20
9.4912071885351
30
0
41
1
10
93.3810149543802
20
9.48283387153779
30
0
41
1
10
93.3780175205064
20
9.47652420487267
30
0
41
1
10
93.3751140261085
20
9.47018694824163
30
0
41
1
10
93.3727728487913
20
9.46488465020343
30
0
41
1
10
93.3700341038298
20
9.45850433350992
30
0
41
1
10
93.3665081703203
20
9.44996742113463
30
0
41
1
10
93.3603105176715
20
9.43387656097576
30
0
41
1
10
93.3500686586
20
9.40362950105597
30
0
41
1
10
93.3392518669469
20
9.36015139729497
30
0
41
1
10
93.3337959596884
20
9.32142125269957
30
0
41
1
10
93.3321234344305
20
9.29842888025658
30
0
41
1
10
93.3317633045749
20
9.29232623265614
30
0
41
1
10
93.3316620544447
20
9.29053720869396
30
0
0
SPLINE
5
204
100
AcDbEntity
8
1
62
256
6
ByLayer
370
-1
48
1
60
0
100
AcDbSpline
70
4
71
3
72
12
73
8
40
0
40
0
40
0
40
0
40
0.0366937705554803
40
0.11079424974352
40
0.40719616649568
40
0.70359808324784
40
1
40
1
40
1
40
1
41
1
10
93.3273417199799
20
9.08967232725473
30
0
41
1
10
93.3286104684811
20
9.05344256726548
30
0
41
1
10
93.3324008623104
20
8.94405193080596
30
0
41
1
10
93.3464041055662
20
8.54200978847413
30
0
41
1
10
93.3692969018783
20
7.8835493562583
30
0
41
1
10
93.3998427787192
20
7.00560071004216
30
0
41
1
10
93.4202040909161
20
6.42030177765437
30
0
41
1
10
93.4303847470146
20
6.12765231146045
30
0
0
SPLINE
5
205
100
AcDbEntity
8
1
62
256
6
ByLayer
370
-1
48
1
60
0
100
AcDbSpline
70
4
71
3
72
12
73
8
40
0
40
0
40
0
40
0
40
0.0366937705554793
40
0.110794249743519
40
0.40719616649568
40
0.70359808324784
40
1
40
1
40
1
40
1
41
1
10
100.761925907391
20
3.41902123416335
30
0
41
1
10
100.76065715889
20
3.45525099415263
30
0
41
1
10
100.756866765061
20
3.56464163061216
30
0
41
1
10
100.742863521805
20
3.96668377294395
30
0
41
1
10
100.719970725493
20
4.62514420515978
30
0
41
1
10
100.689424848652
20
5.50309285137593
30
0
41
1
10
100.669063536455
20
6.08839178376374
30
0
41
1
10
100.658882880356
20
6.38104124995763
30
0
0
SPLINE
5
206
100
AcDbEntity
8
1
62
256
6
ByLayer
370
-1
48
1
60
0
100
AcDbSpline
70
4
71
3
72
14
73
10
40
0
40
0
40
0
40
0
40
0.0868146872093798
40
0.283438438145972
40
0.480062189082564
40
0.676685940019156
40
0.873309690955748
40
0.971621566424044
40
1
40
1
40
1
40
1
41
1
10
100.157608794675
20
2.73101096324996
30
0
41
1
10
100.159619602457
20
2.73108840845697
30
0
41
1
10
100.166184158854
20
2.73135082380861
30
0
41
1
10
100.177298911582
20
2.7318803818018
30
0
41
1
10
100.190945394288
20
2.73280047741093
30
0
41
1
10
100.204572003371
20
2.73398349736183
30
0
41
1
10
100.215903263394
20
2.73518304879107
30
0
41
1
10
100.223350044768
20
2.73605200814234
30
0
41
1
10
100.226266220437
20
2.73640027395788
30
0
41
1
10
100.226919335383
20
2.73647859206128
30
0
0
SPLINE
5
207
100
AcDbEntity
8
1
62
256
6
ByLayer
370
-1
48
1
60
0
100
AcDbSpline
70
4
71
3
72
14
73
10
40
0
40
0
40
0
40
0
40
0.0868146872094838
40
0.283438438146058
40
0.480062189082632
40
0.676685940019207
40
0.873309690955781
40
0.971621566424068
40
1
40
1
40
1
40
1
41
1
10
100.554562274635
20
9.37921282040256
30
0
41
1
10
100.55448512413
20
9.38123130914306
30
0
41
1
10
100.554223707348
20
9.3878209410793
30
0
41
1
10
100.553696164483
20
9.39897815035738
30
0
41
1
10
100.552779570116
20
9.41267676041048
30
0
41
1
10
100.551601051913
20
9.42635542092575
30
0
41
1
10
100.550406065139
20
9.43772996452182
30
0
41
1
10
100.54954041244
20
9.44520519139093
30
0
41
1
10
100.549193471881
20
9.44813250637688
30
0
41
1
10
100.549115451802
20
9.44878811611565
30
0
0
SPLINE
5
208
100
AcDbEntity
8
1
62
256
6
ByLayer
370
-1
48
1
60
0
100
AcDbSpline
70
4
71
3
72
8
73
4
40
0
40
0
40
0
40
0
40
1
40
1
40
1
40
1
41
1
10
99.8691701120799
20
9.98583771061317
30
0
41
1
10
99.8811749780717
20
9.98625853112034
30
0
41
1
10
99.8931806076349
20
9.98665740227753
30
0
41
1
10
99.9051869211114
20
9.98703432143822
30
0
0
SPLINE
5
209
100
AcDbEntity
8
SK1
62
256
6
ByLayer
370
-1
48
1
60
0
100
AcDbSpline
70
4
71
3
72
20
73
16
40
0
40
0
40
0
40
0
40
0.125000000000007
40
0.125000000000007
40
0.250000000000015
40
0.250000000000015
40
0.312500000000018
40
0.312500000000018
40
0.375000000000022
40
0.375000000000022
40
0.500000000000012
40
0.500000000000012
40
0.750000000000006
40
0.750000000000006
40
1
40
1
40
1
40
1
41
1
10
-53.6338144512145
20
-6.34034179467375
30
0
41
1
10
-53.6736405326374
20
-6.31405714368671
30
0
41
1
10
-53.7174596238936
20
-6.2918915268643
30
0
41
1
10
-53.8100286430816
20
-6.26230917234659
30
0
41
1
10
-53.858409060093
20
-6.25510537770515
30
0
41
1
10
-53.930507607687
20
-6.25719119578449
30
0
41
1
10
-53.9548847131617
20
-6.26004287846277
30
0
41
1
10
-54.0024268232708
20
-6.26975628298462
30
0
41
1
10
-54.025531470073
20
-6.27654559824734
30
0
41
1
10
-54.0930893921825
20
-6.30200607369946
30
0
41
1
10
-54.136092797726
20
-6.32609087475549
30
0
41
1
10
-54.2534188607808
20
-6.41013429612562
30
0
41
1
10
-54.3194596979378
20
-6.48308041368765
30
0
41
1
10
-54.4306544823114
20
-6.63915672058906
30
0
41
1
10
-54.4771151388184
20
-6.72418194167685
30
0
41
1
10
-54.5162227297291
20
-6.81204395564961
30
0
0
SPLINE
5
20A
100
AcDbEntity
8
SK1
62
256
6
ByLayer
370
-1
48
1
60
0
100
AcDbSpline
70
4
71
3
72
68
73
64
40
0
40
0
40
0
40
0
40
0.015625
40
0.015625
40
0.0312499999999999
40
0.0312499999999999
40
0.0468749999999999
40
0.0468749999999999
40
0.0624999999999998
40
0.0624999999999998
40
0.0781249999999998
40
0.0781249999999998
40
0.0937499999999997
40
0.0937499999999997
40
0.125
40
0.125
40
0.15625
40
0.15625
40
0.1875
40
0.1875
40
0.25
40
0.25
40
0.28125
40
0.28125
40
0.3125
40
0.3125
40
0.375
40
0.375
40
0.4375
40
0.4375
40
0.46875
40
0.46875
40
0.5
40
0.5
40
0.5625
40
0.5625
40
0.625
40
0.625
40
0.6875
40
0.6875
40
0.75
40
0.75
40
0.8125
40
0.8125
40
0.84375
40
0.84375
40
0.859375
40
0.859375
40
0.875
40
0.875
40
0.90625
40
0.90625
40
0.921875
40
0.921875
40
0.9375
40
0.9375
40
0.953125
40
0.953125
40
0.96875
40
0.96875
40
0.984375
40
0.984375
40
1
40
1
40
1
40
1
41
1
10
-6.5
20
-6.99849805315398
30
0
41
1
10
-6.4096424095903
20
-6.99849805315398
30
0
41
1
10
-6.31887533751086
20
-6.9924669932976
30
0
41
1
10
-6.13726564177031
20
-6.96792032412691
30
0
41
1
10
-6.04880117468585
20
-6.94974705973743
30
0
41
1
10
-5.87614107362342
20
-6.90252164638767
30
0
41
1
10
-5.79194795071362
20
-6.87346297167917
30
0
41
1
10
-5.62761370230606
20
-6.80484072991021
30
0
41
1
10
-5.54890965383427
20
-6.76585529638666
30
0
41
1
10
-5.39867973784189
20
-6.68016521734489
30
0
41
1
10
-5.32694157755157
20
-6.63336290342139
30
0
41
1
10
-5.18947718430641
20
-6.53250060019133
30
0
41
1
10
-5.12348684568531
20
-6.47818603126365
30
0
41
1
10
-4.93566988154686
20
-6.30674027670506
30
0
41
1
10
-4.82518003213681
20
-6.18267595320251
30
0
41
1
10
-4.62603001440084
20
-5.91868980815966
30
0
41
1
10
-4.53721391214785
20
-5.77825879287735
30
0
41
1
10
-4.37814656673874
20
-5.48542007115435
30
0
41
1
10
-4.30877871567313
20
-5.33483042069352
30
0
41
1
10
-4.12354082750574
20
-4.87237000918773
30
0
41
1
10
-4.03020120532329
20
-4.54989217457512
30
0
41
1
10
-3.91807144557504
20
-4.04887624586692
30
0
41
1
10
-3.88552668802802
20
-3.87909831441809
30
0
41
1
10
-3.82866773565829
20
-3.53847076026688
30
0
41
1
10
-3.80422767364425
20
-3.36705941807358
30
0
41
1
10
-3.74020579920568
20
-2.84975913582008
30
0
41
1
10
-3.70977205452269
20
-2.5008195214777
30
0
41
1
10
-3.66416163751657
20
-1.79552608157809
30
0
41
1
10
-3.64903771748126
20
-1.43916908464092
30
0
41
1
10
-3.63426182330713
20
-0.899256752194447
30
0
41
1
10
-3.63068669313998
20
-0.718167674817778
30
0
41
1
10
-3.62598899859142
20
-0.357375695924361
30
0
41
1
10
-3.62485343662013
20
-0.177302953433326
30
0
41
1
10
-3.62488496014578
20
0.361962578325034
30
0
41
1
10
-3.62938260517049
20
0.720207066315254
30
0
41
1
10
-3.64887950283875
20
1.43414621185846
30
0
41
1
10
-3.66385562324439
20
1.78984138878459
30
0
41
1
10
-3.70956223321124
20
2.49851694715909
30
0
41
1
10
-3.74045671775656
20
2.85271919963691
30
0
41
1
10
-3.82645737175278
20
3.54573152185978
30
0
41
1
10
-3.88145968550236
20
3.88575414429386
30
0
41
1
10
-4.03051920995767
20
4.55084385300148
30
0
41
1
10
-4.12523349261875
20
4.87761469840365
30
0
41
1
10
-4.31105593218689
20
5.33999328729007
30
0
41
1
10
-4.38041029850672
20
5.4899128326384
30
0
41
1
10
-4.49888437250004
20
5.70752713951083
30
0
41
1
10
-4.54079549132547
20
5.77885043055693
30
0
41
1
10
-4.63023926406612
20
5.91883578995851
30
0
41
1
10
-4.67776791395602
20
5.98743717509882
30
0
41
1
10
-4.82792587490127
20
6.18597359029033
30
0
41
1
10
-4.93858588995937
20
6.30966494075429
30
0
41
1
10
-5.12522766477915
20
6.47964028567972
30
0
41
1
10
-5.19131964832849
20
6.53397024553271
30
0
41
1
10
-5.32929892448178
20
6.63497116118225
30
0
41
1
10
-5.40112275258878
20
6.68167605293547
30
0
41
1
10
-5.55102867370906
20
6.76694298534821
30
0
41
1
10
-5.62910582891868
20
6.80551115138627
30
0
41
1
10
-5.79238720600742
20
6.87359848794483
30
0
41
1
10
-5.87738605118548
20
6.90291103819595
30
0
41
1
10
-6.04966564042599
20
6.94993403370722
30
0
41
1
10
-6.13756051826556
20
6.96792637087054
30
0
41
1
10
-6.31709499624006
20
6.99225989008042
30
0
41
1
10
-6.40924253974518
20
6.99849805315398
30
0
41
1
10
-6.5
20
6.99849805315398
30
0
0
SPLINE
5
20B
100
AcDbEntity
8
SK1
62
256
6
ByLayer
370
-1
48
1
60
0
100
AcDbSpline
70
4
71
3
72
8
73
4
40
0
40
0
40
0
40
0
40
1
40
1
40
1
40
1
41
1
10
-53.6338144512151
20
6.34034179467457
30
0
41
1
10
-53.292222119692
20
6.56578790669803
30
0
41
1
10
-52.9473802440142
20
6.78469639798695
30
0
41
1
10
-52.6000000000004
20
6.99849805315478
30
0
0
SPLINE
5
20C
100
AcDbEntity
8
SK1
62
256
6
ByLayer
370
-1
48
1
60
0
100
AcDbSpline
70
4
71
3
72
8
73
4
40
0
40
0
40
0
40
0
40
1
40
1
40
1
40
1
41
1
10
-54.516222729729
20
-6.81204395564961
30
0
41
1
10
-54.5439393896427
20
-6.87431425928901
30
0
41
1
10
-54.5718676648179
20
-6.93646419260506
30
0
41
1
10
-54.6
20
-6.99849805315392
30
0
0
SPLINE
5
20D
100
AcDbEntity
8
SK1
62
256
6
ByLayer
370
-1
48
1
60
0
100
AcDbSpline
70
4
71
3
72
20
73
16
40
0
40
0
40
0
40
0
40
0.25
40
0.25
40
0.375
40
0.375
40
0.5
40
0.5
40
0.625
40
0.625
40
0.75
40
0.75
40
0.875
40
0.875
40
1
40
1
40
1
40
1
41
1
10
-54.5162227297291
20
6.81204395564973
30
0
41
1
10
-54.4772709483907
20
6.72453199501689
30
0
41
1
10
-54.4306845518237
20
6.63914767831511
30
0
41
1
10
-54.3469265709005
20
6.52165950363116
30
0
41
1
10
-54.3163253277688
20
6.4838456686486
30
0
41
1
10
-54.2501041764424
20
6.41421731653315
30
0
41
1
10
-54.2145625265326
20
6.38236090680323
30
0
41
1
10
-54.1369222939179
20
6.32662557921188
30
0
41
1
10
-54.0940013611407
20
6.30244517653043
30
0
41
1
10
-54.0037548865671
20
6.26824500575401
30
0
41
1
10
-53.9556146989167
20
6.25796898452336
30
0
41
1
10
-53.8582046255659
20
6.25504848254033
30
0
41
1
10
-53.8099490429817
20
6.26234710426348
30
0
41
1
10
-53.7177558858445
20
6.29178438547694
30
0
41
1
10
-53.6739857261288
20
6.31382932086129
30
0
41
1
10
-53.6338144512151
20
6.3403417946746
30
0
0
SPLINE
5
20E
100
AcDbEntity
8
SK1
62
256
6
ByLayer
370
-1
48
1
60
0
100
AcDbSpline
70
4
71
3
72
8
73
4
40
0
40
0
40
0
40
0
40
1
40
1
40
1
40
1
41
1
10
-54.6
20
6.99849805315404
30
0
41
1
10
-54.5718676648179
20
6.93646419260517
30
0
41
1
10
-54.5439393896427
20
6.87431425928909
30
0
41
1
10
-54.516222729729
20
6.81204395564973
30
0
0
SPLINE
5
20F
100
AcDbEntity
8
SK1
62
256
6
ByLayer
370
-1
48
1
60
0
100
AcDbSpline
70
4
71
3
72
8
73
4
40
0
40
0
40
0
40
0
40
1
40
1
40
1
40
1
41
1
10
-56.0000000000001
20
4.99854728896315
30
0
41
1
10
-55.7019755215914
20
5.68400902895925
30
0
41
1
10
-55.3641473109836
20
6.34826454962635
30
0
41
1
10
-55
20
6.99849805315404
30
0
0
SPLINE
5
210
100
AcDbEntity
8
SK1
62
256
6
ByLayer
370
-1
48
1
60
0
100
AcDbSpline
70
4
71
3
72
8
73
4
40
0
40
0
40
0
40
0
40
1
40
1
40
1
40
1
41
1
10
-55
20
-6.99849805315392
30
0
41
1
10
-55.3648529633576
20
-6.34700451336727
30
0
41
1
10
-55.7026345426883
20
-5.68249326840734
30
0
41
1
10
-56
20
-4.99854728896301
30
0
0
SPLINE
5
211
100
AcDbEntity
8
SK1
62
256
6
ByLayer
370
-1
48
1
60
0
100
AcDbSpline
70
4
71
3
72
8
73
4
40
0
40
0
40
0
40
0
40
1
40
1
40
1
40
1
41
1
10
-52.6000000000004
20
-6.99849805315466
30
0
41
1
10
-52.9473802440142
20
-6.78469639798683
30
0
41
1
10
-53.292222119692
20
-6.56578790669792
30
0
41
1
10
-53.6338144512151
20
-6.34034179467449
30
0
0
LINE
5
45
100
AcDbEntity
8
80
62
256
6
ByLayer
370
-1
48
1
60
0
100
AcDbLine
10
0
20
0
30
0
11
-7
21
0
31
0
39
0
210
0
220
0
230
1
0
LINE
5
46
100
AcDbEntity
8
81
62
256
6
ByLayer
370
-1
48
1
60
0
100
AcDbLine
10
101
20
0
30
0
11
108
21
0
31
0
39
0
210
0
220
0
230
1
0
LINE
5
47
100
AcDbEntity
8
1
62
256
6
ByLayer
370
-1
48
1
60
0
100
AcDbLine
10
0.2
20
16
30
0
11
0
21
15.8
31
0
39
0
210
0
220
0
230
1
0
LINE
5
49
100
AcDbEntity
8
1
62
256
6
ByLayer
370
-1
48
1
60
0
100
AcDbLine
10
0
20
-15.8
30
0
11
0.2
21
-16
31
0
39
0
210
0
220
0
230
1
0
LINE
5
4A
100
AcDbEntity
8
1
62
256
6
ByLayer
370
-1
48
1
60
0
100
AcDbLine
10
5
20
16
30
0
11
0.2
21
16
31
0
39
0
210
0
220
0
230
1
0
LINE
5
4B
100
AcDbEntity
8
1
62
256
6
ByLayer
370
-1
48
1
60
0
100
AcDbLine
10
0.2
20
-16
30
0
11
5
21
-16
31
0
39
0
210
0
220
0
230
1
0
LINE
5
4C
100
AcDbEntity
8
1
62
256
6
ByLayer
370
-1
48
1
60
0
100
AcDbLine
10
49.173159
20
9.65843
30
0
11
22
21
9.82
31
0
39
0
210
0
220
0
230
1
0
LINE
5
4D
100
AcDbEntity
8
1
62
256
6
ByLayer
370
-1
48
1
60
0
100
AcDbLine
10
22
20
9.82
30
0
11
17
21
9.82
31
0
39
0
210
0
220
0
230
1
0
LINE
5
4E
100
AcDbEntity
8
1
62
256
6
ByLayer
370
-1
48
1
60
0
100
AcDbLine
10
17
20
-9.82
30
0
11
22
21
-9.82
31
0
39
0
210
0
220
0
230
1
0
LINE
5
4F
100
AcDbEntity
8
1
62
256
6
ByLayer
370
-1
48
1
60
0
100
AcDbLine
10
22
20
-9.82
30
0
11
41.851726
21
-9.701963
31
0
39
0
210
0
220
0
230
1
0
LINE
5
50
100
AcDbEntity
8
1
62
256
6
ByLayer
370
-1
48
1
60
0
100
AcDbLine
10
93.045663
20
9.6
30
0
11
91.616512
21
9.6
31
0
39
0
210
0
220
0
230
1
0
LINE
5
51
100
AcDbEntity
8
SK1
62
256
6
ByLayer
370
-1
48
1
60
0
100
AcDbLine
10
-2
20
12.49675
30
0
11
-52.6
21
12.49675
31
0
39
0
210
0
220
0
230
1
0
LINE
5
53
100
AcDbEntity
8
SK1
62
256
6
ByLayer
370
-1
48
1
60
0
100
AcDbLine
10
-52.6
20
-12.49675
30
0
11
-2
21
-12.49675
31
0
39
0
210
0
220
0
230
1
0
LINE
5
54
100
AcDbEntity
8
SK1
62
256
6
ByLayer
370
-1
48
1
60
0
100
AcDbLine
10
-2
20
-12.49675
30
0
11
-1.551212
21
-12.287477
31
0
39
0
210
0
220
0
230
1
0
LINE
5
55
100
AcDbEntity
8
SK1
62
256
6
ByLayer
370
-1
48
1
60
0
100
AcDbLine
10
-1.551212
20
12.287477
30
0
11
-2
21
12.49675
31
0
39
0
210
0
220
0
230
1
0
LINE
5
56
100
AcDbEntity
8
SK1
62
256
6
ByLayer
370
-1
48
1
60
0
100
AcDbLine
10
-0.15
20
12.25
30
0
11
-1.382165
21
12.25
31
0
39
0
210
0
220
0
230
1
0
LINE
5
57
100
AcDbEntity
8
SK1
62
256
6
ByLayer
370
-1
48
1
60
0
100
AcDbLine
10
-1.382165
20
-12.25
30
0
11
-0.15
21
-12.25
31
0
39
0
210
0
220
0
230
1
0
LINE
5
58
100
AcDbEntity
8
SK1
62
256
6
ByLayer
370
-1
48
1
60
0
100
AcDbLine
10
-55
20
12.49675
30
0
11
-56
21
11.49675
31
0
39
0
210
0
220
0
230
1
0
LINE
5
59
100
AcDbEntity
8
SK1
62
256
6
ByLayer
370
-1
48
1
60
0
100
AcDbLine
10
-56
20
-11.49675
30
0
11
-55
21
-12.49675
31
0
39
0
210
0
220
0
230
1
0
LINE
5
5A
100
AcDbEntity
8
SK1
62
256
6
ByLayer
370
-1
48
1
60
0
100
AcDbLine
10
-52.6
20
12.49675
30
0
11
-53.633814
21
12.140417
31
0
39
0
210
0
220
0
230
1
0
LINE
5
5B
100
AcDbEntity
8
SK1
62
256
6
ByLayer
370
-1
48
1
60
0
100
AcDbLine
10
-53.633814
20
-12.140417
30
0
11
-52.6
21
-12.49675
31
0
39
0
210
0
220
0
230
1
0
LINE
5
5C
100
AcDbEntity
8
SK1
62
256
6
ByLayer
370
-1
48
1
60
0
100
AcDbLine
10
-54.6
20
-12.49675
30
0
11
-54.516223
21
-12.393294
31
0
39
0
210
0
220
0
230
1
0
LINE
5
5D
100
AcDbEntity
8
SK1
62
256
6
ByLayer
370
-1
48
1
60
0
100
AcDbLine
10
-54.516223
20
12.393294
30
0
11
-54.6
21
12.49675
31
0
39
0
210
0
220
0
230
1
0
LINE
5
5E
100
AcDbEntity
8
SK1
62
256
6
ByLayer
370
-1
48
1
60
0
100
AcDbLine
10
-54.6
20
12.49675
30
0
11
-55
21
12.49675
31
0
39
0
210
0
220
0
230
1
0
LINE
5
5F
100
AcDbEntity
8
SK1
62
256
6
ByLayer
370
-1
48
1
60
0
100
AcDbLine
10
-55
20
-12.49675
30
0
11
-54.6
21
-12.49675
31
0
39
0
210
0
220
0
230
1
0
LINE
5
60
100
AcDbEntity
8
SK4
62
256
6
ByLayer
370
-1
48
0.05
60
0
100
AcDbLine
10
101
20
0
30
0
11
-56
21
0
31
0
39
0
210
0
220
0
230
1
0
LINE
5
62
100
AcDbEntity
8
4
62
256
6
ByLayer
370
-1
48
0.05
60
0
100
AcDbLine
10
101
20
0
30
0
11
0
21
0
31
0
39
0
210
0
220
0
230
1
0
LINE
5
64
100
AcDbEntity
8
1
62
256
6
ByLayer
370
-1
48
1
60
0
100
AcDbLine
10
22
20
9.82
30
0
11
22
21
4.796656
31
0
39
0
210
0
220
0
230
1
0
LINE
5
65
100
AcDbEntity
8
1
62
256
6
ByLayer
370
-1
48
1
60
0
100
AcDbLine
10
17
20
9.82
30
0
11
17
21
6.108127
31
0
39
0
210
0
220
0
230
1
0
LINE
5
66
100
AcDbEntity
8
1
62
256
6
ByLayer
370
-1
48
1
60
0
100
AcDbLine
10
91.773565
20
9.599409
30
0
11
91.773565
21
5.67
31
0
39
0
210
0
220
0
230
1
0
LINE
5
67
100
AcDbEntity
8
1
62
256
6
ByLayer
370
-1
48
1
60
0
100
AcDbLine
10
93.205728
20
6.289666
30
0
11
93.355768
21
6.289666
31
0
39
0
210
0
220
0
230
1
0
LINE
5
68
100
AcDbEntity
8
1
62
256
6
ByLayer
370
-1
48
1
60
0
100
AcDbLine
10
0.2
20
16
30
0
11
0.2
21
-16
31
0
39
0
210
0
220
0
230
1
0
LINE
5
69
100
AcDbEntity
8
1
62
256
6
ByLayer
370
-1
48
1
60
0
100
AcDbLine
10
22
20
-9.82
30
0
11
22
21
-8.283207
31
0
39
0
210
0
220
0
230
1
0
LINE
5
6A
100
AcDbEntity
8
1
62
256
6
ByLayer
370
-1
48
1
60
0
100
AcDbLine
10
91.983511
20
1.457844
30
0
11
91.884951
21
1.47133
31
0
39
0
210
0
220
0
230
1
0
LINE
5
6B
100
AcDbEntity
8
1
62
256
6
ByLayer
370
-1
48
1
60
0
100
AcDbLine
10
93.367922
20
2.392643
30
0
11
93.41829
21
2.392643
31
0
39
0
210
0
220
0
230
1
0
LINE
5
6C
100
AcDbEntity
8
1
62
256
6
ByLayer
370
-1
48
1
60
0
100
AcDbLine
10
17
20
-9.82
30
0
11
17
21
-7.444003
31
0
39
0
210
0
220
0
230
1
0
LINE
5
6D
100
AcDbEntity
8
1
62
256
6
ByLayer
370
-1
48
1
60
0
100
AcDbLine
10
99.932663
20
1.106722
30
0
11
99.950935
21
1.112633
31
0
39
0
210
0
220
0
230
1
0
LINE
5
6E
100
AcDbEntity
8
1
62
256
6
ByLayer
370
-1
48
1
60
0
100
AcDbLine
10
92.944763
20
5.108076
30
0
11
92.989381
21
3.708793
31
0
39
0
210
0
220
0
230
1
0
LINE
5
6F
100
AcDbEntity
8
1
62
256
6
ByLayer
370
-1
48
1
60
0
100
AcDbLine
10
99.932663
20
1.106722
30
0
11
99.88327
21
1.136345
31
0
39
0
210
0
220
0
230
1
0
LINE
5
70
100
AcDbEntity
8
1
62
256
6
ByLayer
370
-1
48
1
60
0
100
AcDbLine
10
92.762776
20
3.708793
30
0
11
92.989381
21
3.708793
31
0
39
0
210
0
220
0
230
1
0
LINE
5
71
100
AcDbEntity
8
1
62
256
6
ByLayer
370
-1
48
1
60
0
100
AcDbLine
10
91.410916
20
3.071576
30
0
11
91.941655
21
2.834373
31
0
39
0
210
0
220
0
230
1
0
LINE
5
72
100
AcDbEntity
8
1
62
256
6
ByLayer
370
-1
48
1
60
0
100
AcDbLine
10
99.932663
20
1.106722
30
0
11
99.859048
21
1.109286
31
0
39
0
210
0
220
0
230
1
0
LINE
5
73
100
AcDbEntity
8
1
62
256
6
ByLayer
370
-1
48
1
60
0
100
AcDbLine
10
99.855867
20
0.604646
30
0
11
99.229285
21
0.928351
31
0
39
0
210
0
220
0
230
1
0
LINE
5
74
100
AcDbEntity
8
1
62
256
6
ByLayer
370
-1
48
1
60
0
100
AcDbLine
10
99.950935
20
1.112633
30
0
11
100.047747
21
2.657332
31
0
39
0
210
0
220
0
230
1
0
LINE
5
75
100
AcDbEntity
8
1
62
256
6
ByLayer
370
-1
48
1
60
0
100
AcDbLine
10
99.56057
20
2.473421
30
0
11
99.710069
21
2.473421
31
0
39
0
210
0
220
0
230
1
0
LINE
5
76
100
AcDbEntity
8
1
62
256
6
ByLayer
370
-1
48
1
60
0
100
AcDbLine
10
91.46447
20
1.557015
30
0
11
91.220547
21
0.717869
31
0
39
0
210
0
220
0
230
1
0
LINE
5
77
100
AcDbEntity
8
1
62
256
6
ByLayer
370
-1
48
1
60
0
100
AcDbLine
10
99.710124
20
2.473422
30
0
11
99.967753
21
2.459868
31
0
39
0
210
0
220
0
230
1
0
LINE
5
78
100
AcDbEntity
8
1
62
256
6
ByLayer
370
-1
48
1
60
0
100
AcDbLine
10
99.679754
20
-4.576596
30
0
11
99.49727
21
-4.482321
31
0
39
0
210
0
220
0
230
1
0
LINE
5
79
100
AcDbEntity
8
1
62
256
6
ByLayer
370
-1
48
1
60
0
100
AcDbLine
10
5
20
16
30
0
11
5
21
-16
31
0
39
0
210
0
220
0
230
1
0
LINE
5
7A
100
AcDbEntity
8
1
62
256
6
ByLayer
370
-1
48
1
60
0
100
AcDbLine
10
93.133319
20
6.257983
30
0
11
93.026831
21
9.597566
31
0
39
0
210
0
220
0
230
1
0
LINE
5
7B
100
AcDbEntity
8
1
62
256
6
ByLayer
370
-1
48
1
60
0
100
AcDbLine
10
93.054018
20
9.599527
30
0
11
93.16057
21
6.257983
31
0
39
0
210
0
220
0
230
1
0
LINE
5
7C
100
AcDbEntity
8
1
62
256
6
ByLayer
370
-1
48
1
60
0
100
AcDbLine
10
93.972748
20
0.193902
30
0
11
94.538606
21
2.140569
31
0
39
0
210
0
220
0
230
1
0
LINE
5
7D
100
AcDbEntity
8
1
62
256
6
ByLayer
370
-1
48
1
60
0
100
AcDbLine
10
99.967753
20
2.459868
30
0
11
99.75986
21
2.46263
31
0
39
0
210
0
220
0
230
1
0
LINE
5
7E
100
AcDbEntity
8
1
62
256
6
ByLayer
370
-1
48
1
60
0
100
AcDbLine
10
99.063839
20
0.492801
30
0
11
99.229285
21
0.928351
31
0
39
0
210
0
220
0
230
1
0
LINE
5
7F
100
AcDbEntity
8
1
62
256
6
ByLayer
370
-1
48
1
60
0
100
AcDbLine
10
93.155305
20
-9.592474
30
0
11
100.126853
21
-9.592474
31
0
39
0
210
0
220
0
230
1
0
LINE
5
80
100
AcDbEntity
8
1
62
256
6
ByLayer
370
-1
48
1
60
0
100
AcDbLine
10
95.07628
20
2.316228
30
0
11
99.56057
21
2.473421
31
0
39
0
210
0
220
0
230
1
0
LINE
5
81
100
AcDbEntity
8
1
62
256
6
ByLayer
370
-1
48
1
60
0
100
AcDbLine
10
91.941655
20
2.834373
30
0
11
91.880204
21
2.834373
31
0
39
0
210
0
220
0
230
1
0
LINE
5
82
100
AcDbEntity
8
1
62
256
6
ByLayer
370
-1
48
1
60
0
100
AcDbLine
10
92.237371
20
1.457844
30
0
11
91.983511
21
1.457844
31
0
39
0
210
0
220
0
230
1
0
LINE
5
83
100
AcDbEntity
8
1
62
256
6
ByLayer
370
-1
48
1
60
0
100
AcDbLine
10
100.140514
20
-4.814634
30
0
11
100.129306
21
-4.940919
31
0
39
0
210
0
220
0
230
1
0
LINE
5
84
100
AcDbEntity
8
1
62
256
6
ByLayer
370
-1
48
1
60
0
100
AcDbLine
10
89.855375
20
5.67
30
0
11
91.773565
21
5.67
31
0
39
0
210
0
220
0
230
1
0
LINE
5
85
100
AcDbEntity
8
1
62
256
6
ByLayer
370
-1
48
1
60
0
100
AcDbLine
10
92.33553
20
3.565209
30
0
11
91.189041
21
4.077609
31
0
39
0
210
0
220
0
230
1
0
LINE
5
86
100
AcDbEntity
8
1
62
256
6
ByLayer
370
-1
48
1
60
0
100
AcDbLine
10
93.133319
20
6.257983
30
0
11
93.16057
21
6.257983
31
0
39
0
210
0
220
0
230
1
0
LINE
5
87
100
AcDbEntity
8
1
62
256
6
ByLayer
370
-1
48
1
60
0
100
AcDbLine
10
59
20
9.230366
30
0
11
59
21
-5.023396
31
0
39
0
210
0
220
0
230
1
0
LINE
5
88
100
AcDbEntity
8
1
62
256
6
ByLayer
370
-1
48
1
60
0
100
AcDbLine
10
92.718158
20
5.108076
30
0
11
92.762776
21
3.708793
31
0
39
0
210
0
220
0
230
1
0
LINE
5
89
100
AcDbEntity
8
1
62
256
6
ByLayer
370
-1
48
1
60
0
100
AcDbLine
10
100.126853
20
-9.592474
30
0
11
100.474451
21
-5.675775
31
0
39
0
210
0
220
0
230
1
0
LINE
5
8A
100
AcDbEntity
8
1
62
256
6
ByLayer
370
-1
48
1
60
0
100
AcDbLine
10
99.857091
20
0.580208
30
0
11
100.140514
21
-4.814634
31
0
39
0
210
0
220
0
230
1
0
LINE
5
8B
100
AcDbEntity
8
1
62
256
6
ByLayer
370
-1
48
1
60
0
100
AcDbLine
10
100.140514
20
-4.814634
30
0
11
99.927664
21
-4.704671
31
0
39
0
210
0
220
0
230
1
0
LINE
5
8C
100
AcDbEntity
8
1
62
256
6
ByLayer
370
-1
48
1
60
0
100
AcDbLine
10
100.474451
20
-5.675775
30
0
11
100.146563
21
-5.613459
31
0
39
0
210
0
220
0
230
1
0
LINE
5
8D
100
AcDbEntity
8
1
62
256
6
ByLayer
370
-1
48
1
60
0
100
AcDbLine
10
99.229285
20
0.928351
30
0
11
99.75986
21
2.46263
31
0
39
0
210
0
220
0
230
1
0
LINE
5
8E
100
AcDbEntity
8
1
62
256
6
ByLayer
370
-1
48
1
60
0
100
AcDbLine
10
99.75986
20
2.46263
30
0
11
99.56057
21
2.473421
31
0
39
0
210
0
220
0
230
1
0
LINE
5
8F
100
AcDbEntity
8
1
62
256
6
ByLayer
370
-1
48
1
60
0
100
AcDbLine
10
99.873425
20
1.136688
30
0
11
99.88327
21
1.136345
31
0
39
0
210
0
220
0
230
1
0
LINE
5
90
100
AcDbEntity
8
1
62
256
6
ByLayer
370
-1
48
1
60
0
100
AcDbLine
10
0
20
15.8
30
0
11
0
21
-15.8
31
0
39
0
210
0
220
0
230
1
0
LINE
5
91
100
AcDbEntity
8
1
62
256
6
ByLayer
370
-1
48
1
60
0
100
AcDbLine
10
92.718158
20
5.108076
30
0
11
92.944763
21
5.108076
31
0
39
0
210
0
220
0
230
1
0
LINE
5
92
100
AcDbEntity
8
1
62
256
6
ByLayer
370
-1
48
1
60
0
100
AcDbLine
10
91.421476
20
1.567971
30
0
11
92.237371
21
1.457844
31
0
39
0
210
0
220
0
230
1
0
LINE
5
93
100
AcDbEntity
8
1
62
256
6
ByLayer
370
-1
48
1
60
0
100
AcDbLine
10
100.563959
20
-0.143986
30
0
11
100.344424
21
-0.062662
31
0
39
0
210
0
220
0
230
1
0
LINE
5
94
100
AcDbEntity
8
1
62
256
6
ByLayer
370
-1
48
1
60
0
100
AcDbLine
10
100.128466
20
-1.848965
30
0
11
100.047997
21
-0.317275
31
0
39
0
210
0
220
0
230
1
0
LINE
5
95
100
AcDbEntity
8
1
62
256
6
ByLayer
370
-1
48
1
60
0
100
AcDbLine
10
99.882105
20
0.104161
30
0
11
100.227261
21
0.382197
31
0
39
0
210
0
220
0
230
1
0
LINE
5
96
100
AcDbEntity
8
1
62
256
6
ByLayer
370
-1
48
1
60
0
100
AcDbLine
10
100.542785
20
-5.233938
30
0
11
100.110547
21
-5.259228
31
0
39
0
210
0
220
0
230
1
0
LINE
5
97
100
AcDbEntity
8
1
62
256
6
ByLayer
370
-1
48
1
60
0
100
AcDbLine
10
100.382498
20
-2.830932
30
0
11
100.672761
21
-2.745881
31
0
39
0
210
0
220
0
230
1
0
LINE
5
98
100
AcDbEntity
8
1
62
256
6
ByLayer
370
-1
48
1
60
0
100
AcDbLine
10
100.442586
20
-3.113648
30
0
11
100.765173
21
-3.180691
31
0
39
0
210
0
220
0
230
1
0
LINE
5
99
100
AcDbEntity
8
1
62
256
6
ByLayer
370
-1
48
1
60
0
100
AcDbLine
10
100.128466
20
-1.848965
30
0
11
100.450808
21
-1.887918
31
0
39
0
210
0
220
0
230
1
0
LINE
5
9A
100
AcDbEntity
8
1
62
256
6
ByLayer
370
-1
48
1
60
0
100
AcDbLine
10
100.196194
20
0.863981
30
0
11
100.143603
21
0.833913
31
0
39
0
210
0
220
0
230
1
0
LINE
5
9B
100
AcDbEntity
8
1
62
256
6
ByLayer
370
-1
48
1
60
0
100
AcDbLine
10
100.11572
20
-5.509885
30
0
11
100.615171
21
-5.328543
31
0
39
0
210
0
220
0
230
1
0
LINE
5
9C
100
AcDbEntity
8
1
62
256
6
ByLayer
370
-1
48
1
60
0
100
AcDbLine
10
100.593428
20
-0.288475
30
0
11
100.367837
21
-0.204908
31
0
39
0
210
0
220
0
230
1
0
LINE
5
9D
100
AcDbEntity
8
1
62
256
6
ByLayer
370
-1
48
1
60
0
100
AcDbLine
10
100.128466
20
-1.848965
30
0
11
100.028603
21
-1.854186
31
0
39
0
210
0
220
0
230
1
0
LINE
5
9E
100
AcDbEntity
8
1
62
256
6
ByLayer
370
-1
48
1
60
0
100
AcDbLine
10
100.106849
20
-4.173993
30
0
11
100.183633
21
-4.092794
31
0
39
0
210
0
220
0
230
1
0
LINE
5
9F
100
AcDbEntity
8
1
62
256
6
ByLayer
370
-1
48
1
60
0
100
AcDbLine
10
100.943856
20
-4.877248
30
0
11
100.839024
21
-4.740237
31
0
39
0
210
0
220
0
230
1
0
LINE
5
A0
100
AcDbEntity
8
1
62
256
6
ByLayer
370
-1
48
1
60
0
100
AcDbLine
10
100.028603
20
-1.854186
30
0
11
99.948134
21
-0.322496
31
0
39
0
210
0
220
0
230
1
0
LINE
5
A1
100
AcDbEntity
8
1
62
256
6
ByLayer
370
-1
48
1
60
0
100
AcDbLine
10
100.143603
20
0.833913
30
0
11
100.227261
21
0.382197
31
0
39
0
210
0
220
0
230
1
0
LINE
5
A2
100
AcDbEntity
8
1
62
256
6
ByLayer
370
-1
48
1
60
0
100
AcDbLine
10
100.999695
20
-3.282118
30
0
11
100.766913
21
-3.14168
31
0
39
0
210
0
220
0
230
1
0
LINE
5
A3
100
AcDbEntity
8
1
62
256
6
ByLayer
370
-1
48
1
60
0
100
AcDbLine
10
100.114084
20
-4.311718
30
0
11
100.256375
21
-4.161247
31
0
39
0
210
0
220
0
230
1
0
LINE
5
A4
100
AcDbEntity
8
1
62
256
6
ByLayer
370
-1
48
1
60
0
100
AcDbLine
10
100.683779
20
-2.008276
30
0
11
100.593428
21
-0.288475
31
0
39
0
210
0
220
0
230
1
0
LINE
5
A5
100
AcDbEntity
8
1
62
256
6
ByLayer
370
-1
48
1
60
0
100
AcDbLine
10
100.41956
20
-3.771421
30
0
11
100.442586
21
-3.113648
31
0
39
0
210
0
220
0
230
1
0
LINE
5
A6
100
AcDbEntity
8
1
62
256
6
ByLayer
370
-1
48
1
60
0
100
AcDbLine
10
100.683779
20
-2.008276
30
0
11
100.450808
21
-1.887918
31
0
39
0
210
0
220
0
230
1
0
LINE
5
A7
100
AcDbEntity
8
1
62
256
6
ByLayer
370
-1
48
1
60
0
100
AcDbLine
10
100.256375
20
-4.161247
30
0
11
100.851781
21
-4.863057
31
0
39
0
210
0
220
0
230
1
0
LINE
5
A8
100
AcDbEntity
8
1
62
256
6
ByLayer
370
-1
48
1
60
0
100
AcDbLine
10
100.893882
20
-2.799489
30
0
11
100.685663
21
-2.771455
31
0
39
0
210
0
220
0
230
1
0
LINE
5
A9
100
AcDbEntity
8
1
62
256
6
ByLayer
370
-1
48
1
60
0
100
AcDbLine
10
100.41956
20
-3.771421
30
0
11
100.742147
21
-3.838464
31
0
39
0
210
0
220
0
230
1
0
LINE
5
AA
100
AcDbEntity
8
1
62
256
6
ByLayer
370
-1
48
1
60
0
100
AcDbLine
10
100.563959
20
-0.143986
30
0
11
100.196194
21
0.863981
31
0
39
0
210
0
220
0
230
1
0
LINE
5
AB
100
AcDbEntity
8
1
62
256
6
ByLayer
370
-1
48
1
60
0
100
AcDbLine
10
100.169547
20
-3.097161
30
0
11
100.146521
21
-3.754934
31
0
39
0
210
0
220
0
230
1
0
LINE
5
AC
100
AcDbEntity
8
1
62
256
6
ByLayer
370
-1
48
1
60
0
100
AcDbLine
10
100.31962
20
-3.767939
30
0
11
100.342646
21
-3.110167
31
0
39
0
210
0
220
0
230
1
0
LINE
5
AD
100
AcDbEntity
8
1
62
256
6
ByLayer
370
-1
48
1
60
0
100
AcDbLine
10
100.370339
20
-0.356228
30
0
11
100.047997
21
-0.317275
31
0
39
0
210
0
220
0
230
1
0
LINE
5
AE
100
AcDbEntity
8
1
62
256
6
ByLayer
370
-1
48
1
60
0
100
AcDbLine
10
100.615171
20
-5.328543
30
0
11
100.542785
21
-5.233938
31
0
39
0
210
0
220
0
230
1
0
LINE
5
AF
100
AcDbEntity
8
1
62
256
6
ByLayer
370
-1
48
1
60
0
100
AcDbLine
10
100.765173
20
-3.180691
30
0
11
100.742147
21
-3.838464
31
0
39
0
210
0
220
0
230
1
0
LINE
5
B0
100
AcDbEntity
8
1
62
256
6
ByLayer
370
-1
48
1
60
0
100
AcDbLine
10
100.943856
20
-4.877248
30
0
11
100.999695
21
-3.282118
31
0
39
0
210
0
220
0
230
1
0
LINE
5
B1
100
AcDbEntity
8
1
62
256
6
ByLayer
370
-1
48
1
60
0
100
AcDbLine
10
100.450808
20
-1.887918
30
0
11
100.370339
21
-0.356228
31
0
39
0
210
0
220
0
230
1
0
LINE
5
B2
100
AcDbEntity
8
SK1
62
256
6
ByLayer
370
-1
48
1
60
0
100
AcDbLine
10
-0.15
20
12.25
30
0
11
-0.15
21
-12.25
31
0
39
0
210
0
220
0
230
1
0
LINE
5
B3
100
AcDbEntity
8
1
62
256
6
ByLayer
370
-1
48
1
60
0
100
AcDbLine
10
93.480345
20
2.86357
30
0
11
93.549112
21
2.868434
31
0
39
0
210
0
220
0
230
1
0
LINE
5
B4
100
AcDbEntity
8
1
62
256
6
ByLayer
370
-1
48
1
60
0
100
AcDbLine
10
100.006698
20
10.059315
30
0
11
100.007278
21
9.989591
31
0
39
0
210
0
220
0
230
1
0
LINE
5
B5
100
AcDbEntity
8
1
62
256
6
ByLayer
370
-1
48
1
60
0
100
AcDbLine
10
100.423039
20
2.675909
30
0
11
100.417662
21
2.745473
31
0
39
0
210
0
220
0
230
1
0
LINE
5
B6
100
AcDbEntity
8
1
62
256
6
ByLayer
370
-1
48
1
60
0
100
AcDbLine
10
93.826436
20
9.842671
30
0
11
93.82964
21
9.773039
31
0
39
0
210
0
220
0
230
1
0
LINE
5
B7
100
AcDbEntity
8
1
62
256
6
ByLayer
370
-1
48
1
60
0
100
AcDbLine
10
99.867277
20
10.055529
30
0
11
99.86917
21
9.985838
31
0
39
0
210
0
220
0
230
1
0
LINE
5
B8
100
AcDbEntity
8
1
62
256
6
ByLayer
370
-1
48
1
60
0
100
AcDbLine
10
93.470496
20
3.023322
30
0
11
93.539332
21
3.027073
31
0
39
0
210
0
220
0
230
1
0
LINE
5
B9
100
AcDbEntity
8
1
62
256
6
ByLayer
370
-1
48
1
60
0
100
AcDbLine
10
100.23337
20
10.052907
30
0
11
100.217212
21
9.984961
31
0
39
0
210
0
220
0
230
1
0
LINE
5
BA
100
AcDbEntity
8
1
62
256
6
ByLayer
370
-1
48
1
60
0
100
AcDbLine
10
94.083633
20
2.449378
30
0
11
94.08199
21
2.519103
31
0
39
0
210
0
220
0
230
1
0
LINE
5
BB
100
AcDbEntity
8
1
62
256
6
ByLayer
370
-1
48
1
60
0
100
AcDbLine
10
93.96578
20
9.848657
30
0
11
93.967673
21
9.778966
31
0
39
0
210
0
220
0
230
1
0
LINE
5
BC
100
AcDbEntity
8
1
62
256
6
ByLayer
370
-1
48
1
60
0
100
AcDbLine
10
99.957895
20
10.058291
30
0
11
99.959156
21
9.988581
31
0
39
0
210
0
220
0
230
1
0
LINE
5
BD
100
AcDbEntity
8
1
62
256
6
ByLayer
370
-1
48
1
60
0
100
AcDbLine
10
93.667292
20
9.832785
30
0
11
93.671606
21
9.763221
31
0
39
0
210
0
220
0
230
1
0
LINE
5
BE
100
AcDbEntity
8
1
62
256
6
ByLayer
370
-1
48
1
60
0
100
AcDbLine
10
93.924189
20
2.448097
30
0
11
93.923658
21
2.517831
31
0
39
0
210
0
220
0
230
1
0
LINE
5
BF
100
AcDbEntity
8
1
62
256
6
ByLayer
370
-1
48
1
60
0
100
AcDbLine
10
99.867277
20
10.055529
30
0
11
93.96578
21
9.848657
31
0
39
0
210
0
220
0
230
1
0
LINE
5
C0
100
AcDbEntity
8
1
62
256
6
ByLayer
370
-1
48
1
60
0
100
AcDbLine
10
93.258448
20
9.087239
30
0
11
93.327342
21
9.089672
31
0
39
0
210
0
220
0
230
1
0
LINE
5
C1
100
AcDbEntity
8
1
62
256
6
ByLayer
370
-1
48
1
60
0
100
AcDbLine
10
100.263895
20
2.666022
30
0
11
100.259627
21
2.735655
31
0
39
0
210
0
220
0
230
1
0
LINE
5
C2
100
AcDbEntity
8
1
62
256
6
ByLayer
370
-1
48
1
60
0
100
AcDbLine
10
100.625798
20
9.345495
30
0
11
100.55584
21
9.343061
31
0
39
0
210
0
220
0
230
1
0
LINE
5
C3
100
AcDbEntity
8
1
62
256
6
ByLayer
370
-1
48
1
60
0
100
AcDbLine
10
93.600761
20
9.820407
30
0
11
93.62054
21
9.75372
31
0
39
0
210
0
220
0
230
1
0
LINE
5
C4
100
AcDbEntity
8
1
62
256
6
ByLayer
370
-1
48
1
60
0
100
AcDbLine
10
100.609986
20
9.645124
30
0
11
100.540155
21
9.640259
31
0
39
0
210
0
220
0
230
1
0
LINE
5
C5
100
AcDbEntity
8
1
62
256
6
ByLayer
370
-1
48
1
60
0
100
AcDbLine
10
100.21514
20
2.663627
30
0
11
100.211552
21
2.733293
31
0
39
0
210
0
220
0
230
1
0
LINE
5
C6
100
AcDbEntity
8
1
62
256
6
ByLayer
370
-1
48
1
60
0
100
AcDbLine
10
93.258448
20
9.087239
30
0
11
93.464533
21
3.163199
31
0
39
0
210
0
220
0
230
1
0
LINE
5
C7
100
AcDbEntity
8
1
62
256
6
ByLayer
370
-1
48
1
60
0
100
AcDbLine
10
93.255696
20
9.178203
30
0
11
93.32461
21
9.180002
31
0
39
0
210
0
220
0
230
1
0
LINE
5
C8
100
AcDbEntity
8
1
62
256
6
ByLayer
370
-1
48
1
60
0
100
AcDbLine
10
100.124551
20
2.660037
30
0
11
100.121595
21
2.729728
31
0
39
0
210
0
220
0
230
1
0
LINE
5
C9
100
AcDbEntity
8
1
62
256
6
ByLayer
370
-1
48
1
60
0
100
AcDbLine
10
94.223054
20
2.453165
30
0
11
94.220098
21
2.522856
31
0
39
0
210
0
220
0
230
1
0
LINE
5
CA
100
AcDbEntity
8
1
62
256
6
ByLayer
370
-1
48
1
60
0
100
AcDbLine
10
93.26106
20
9.45473
30
0
11
93.328216
21
9.439043
31
0
39
0
210
0
220
0
230
1
0
LINE
5
CB
100
AcDbEntity
8
1
62
256
6
ByLayer
370
-1
48
1
60
0
100
AcDbLine
10
93.254676
20
9.227192
30
0
11
93.323604
21
9.228308
31
0
39
0
210
0
220
0
230
1
0
LINE
5
CC
100
AcDbEntity
8
1
62
256
6
ByLayer
370
-1
48
1
60
0
100
AcDbLine
10
93.492676
20
2.796785
30
0
11
93.558577
21
2.817174
31
0
39
0
210
0
220
0
230
1
0
LINE
5
CD
100
AcDbEntity
8
1
62
256
6
ByLayer
370
-1
48
1
60
0
100
AcDbLine
10
93.856961
20
2.455786
30
0
11
93.872056
21
2.523733
31
0
39
0
210
0
220
0
230
1
0
LINE
5
CE
100
AcDbEntity
8
1
62
256
6
ByLayer
370
-1
48
1
60
0
100
AcDbLine
10
93.468109
20
3.072263
30
0
11
93.536978
21
3.075331
31
0
39
0
210
0
220
0
230
1
0
LINE
5
CF
100
AcDbEntity
8
1
62
256
6
ByLayer
370
-1
48
1
60
0
100
AcDbLine
10
100.622222
20
9.43643
30
0
11
100.552289
21
9.433362
31
0
39
0
210
0
220
0
230
1
0
LINE
5
D0
100
AcDbEntity
8
1
62
256
6
ByLayer
370
-1
48
1
60
0
100
AcDbLine
10
100.166142
20
10.060596
30
0
11
100.16561
21
9.990863
31
0
39
0
210
0
220
0
230
1
0
LINE
5
D1
100
AcDbEntity
8
1
62
256
6
ByLayer
370
-1
48
1
60
0
100
AcDbLine
10
93.2534
20
9.387245
30
0
11
93.322337
21
9.387245
31
0
39
0
210
0
220
0
230
1
0
LINE
5
D2
100
AcDbEntity
8
1
62
256
6
ByLayer
370
-1
48
1
60
0
100
AcDbLine
10
93.875191
20
9.845067
30
0
11
93.877715
21
9.775401
31
0
39
0
210
0
220
0
230
1
0
LINE
5
D3
100
AcDbEntity
8
1
62
256
6
ByLayer
370
-1
48
1
60
0
100
AcDbLine
10
100.834635
20
3.330491
30
0
11
100.764658
21
3.328691
31
0
39
0
210
0
220
0
230
1
0
LINE
5
D4
100
AcDbEntity
8
1
62
256
6
ByLayer
370
-1
48
1
60
0
100
AcDbLine
10
94.132436
20
2.450403
30
0
11
94.130112
21
2.520113
31
0
39
0
210
0
220
0
230
1
0
LINE
5
D5
100
AcDbEntity
8
1
62
256
6
ByLayer
370
-1
48
1
60
0
100
AcDbLine
10
100.597656
20
9.711908
30
0
11
100.530691
21
9.69152
31
0
39
0
210
0
220
0
230
1
0
LINE
5
D6
100
AcDbEntity
8
1
62
256
6
ByLayer
370
-1
48
1
60
0
100
AcDbLine
10
100.835655
20
3.281502
30
0
11
100.765664
21
3.280386
31
0
39
0
210
0
220
0
230
1
0
LINE
5
D7
100
AcDbEntity
8
1
62
256
6
ByLayer
370
-1
48
1
60
0
100
AcDbLine
10
100.619836
20
9.485371
30
0
11
100.549936
21
9.481621
31
0
39
0
210
0
220
0
230
1
0
LINE
5
D8
100
AcDbEntity
8
1
62
256
6
ByLayer
370
-1
48
1
60
0
100
AcDbLine
10
100.831883
20
3.421455
30
0
11
100.761925
21
3.419021
31
0
39
0
210
0
220
0
230
1
0
LINE
5
D9
100
AcDbEntity
8
1
62
256
6
ByLayer
370
-1
48
1
60
0
100
AcDbLine
10
100.831883
20
3.421455
30
0
11
100.625798
21
9.345495
31
0
39
0
210
0
220
0
230
1
0
LINE
5
DA
100
AcDbEntity
8
1
62
256
6
ByLayer
370
-1
48
1
60
0
100
AcDbLine
10
100.829271
20
3.053964
30
0
11
100.761052
21
3.06965
31
0
39
0
210
0
220
0
230
1
0
LINE
5
DB
100
AcDbEntity
8
1
62
256
6
ByLayer
370
-1
48
1
60
0
100
AcDbLine
10
100.48957
20
2.688287
30
0
11
100.468728
21
2.754973
31
0
39
0
210
0
220
0
230
1
0
LINE
5
DC
100
AcDbEntity
8
1
62
256
6
ByLayer
370
-1
48
1
60
0
100
AcDbLine
10
100.836931
20
3.121449
30
0
11
100.766931
21
3.121449
31
0
39
0
210
0
220
0
230
1
0
LINE
5
DD
100
AcDbEntity
8
1
62
256
6
ByLayer
370
-1
48
1
60
0
100
AcDbLine
10
93.464533
20
3.163199
30
0
11
93.533427
21
3.165632
31
0
39
0
210
0
220
0
230
1
0
LINE
5
DE
100
AcDbEntity
8
1
62
256
6
ByLayer
370
-1
48
1
60
0
100
AcDbLine
10
94.223054
20
2.453165
30
0
11
100.124551
21
2.660037
31
0
39
0
210
0
220
0
230
1
0
LINE
5
DF
100
AcDbEntity
8
SK1
62
256
6
ByLayer
370
-1
48
1
60
0
100
AcDbLine
10
-56
20
-4.998547
30
0
11
-56
21
-11.49675
31
0
39
0
210
0
220
0
230
1
0
LINE
5
E0
100
AcDbEntity
8
SK1
62
256
6
ByLayer
370
-1
48
1
60
0
100
AcDbLine
10
-56
20
11.49675
30
0
11
-56
21
4.998547
31
0
39
0
210
0
220
0
230
1
0
LINE
5
E1
100
AcDbEntity
8
SK1
62
256
6
ByLayer
370
-1
48
1
60
0
100
AcDbLine
10
-55
20
6.998498
30
0
11
-54.6
21
6.998498
31
0
39
0
210
0
220
0
230
1
0
LINE
5
E2
100
AcDbEntity
8
SK1
62
256
6
ByLayer
370
-1
48
1
60
0
100
AcDbLine
10
-54.6
20
-12.49675
30
0
11
-54.6
21
-6.998498
31
0
39
0
210
0
220
0
230
1
0
LINE
5
E3
100
AcDbEntity
8
SK1
62
256
6
ByLayer
370
-1
48
1
60
0
100
AcDbLine
10
-54.6
20
6.998498
30
0
11
-54.6
21
12.49675
31
0
39
0
210
0
220
0
230
1
0
LINE
5
E4
100
AcDbEntity
8
SK1
62
256
6
ByLayer
370
-1
48
1
60
0
100
AcDbLine
10
-6.5
20
-6.998498
30
0
11
-52.6
21
-6.998498
31
0
39
0
210
0
220
0
230
1
0
LINE
5
E5
100
AcDbEntity
8
SK1
62
256
6
ByLayer
370
-1
48
1
60
0
100
AcDbLine
10
-1.382165
20
12.25
30
0
11
-1.382165
21
-12.25
31
0
39
0
210
0
220
0
230
1
0
LINE
5
E6
100
AcDbEntity
8
SK1
62
256
6
ByLayer
370
-1
48
1
60
0
100
AcDbLine
10
-1.551212
20
12.287477
30
0
11
-1.551212
21
-12.287477
31
0
39
0
210
0
220
0
230
1
0
LINE
5
E7
100
AcDbEntity
8
SK1
62
256
6
ByLayer
370
-1
48
1
60
0
100
AcDbLine
10
-54.6
20
-6.998498
30
0
11
-55
21
-6.998498
31
0
39
0
210
0
220
0
230
1
0
LINE
5
E8
100
AcDbEntity
8
SK1
62
256
6
ByLayer
370
-1
48
1
60
0
100
AcDbLine
10
-55
20
-6.998498
30
0
11
-55
21
-12.49675
31
0
39
0
210
0
220
0
230
1
0
LINE
5
E9
100
AcDbEntity
8
SK1
62
256
6
ByLayer
370
-1
48
1
60
0
100
AcDbLine
10
-55
20
12.49675
30
0
11
-55
21
6.998498
31
0
39
0
210
0
220
0
230
1
0
LINE
5
EA
100
AcDbEntity
8
SK1
62
256
6
ByLayer
370
-1
48
1
60
0
100
AcDbLine
10
-52.6
20
6.998498
30
0
11
-6.5
21
6.998498
31
0
39
0
210
0
220
0
230
1
0
LINE
5
EB
100
AcDbEntity
8
SK1
62
256
6
ByLayer
370
-1
48
1
60
0
100
AcDbLine
10
-56
20
4.998547
30
0
11
-56
21
-4.998547
31
0
39
0
210
0
220
0
230
1
0
LINE
5
EC
100
AcDbEntity
8
SK1
62
256
6
ByLayer
370
-1
48
1
60
0
100
AcDbLine
10
-54.516223
20
-6.812044
30
0
11
-54.516223
21
-12.393294
31
0
39
0
210
0
220
0
230
1
0
LINE
5
ED
100
AcDbEntity
8
SK1
62
256
6
ByLayer
370
-1
48
1
60
0
100
AcDbLine
10
-54.516223
20
12.393294
30
0
11
-54.516223
21
6.812044
31
0
39
0
210
0
220
0
230
1
0
LINE
5
EE
100
AcDbEntity
8
SK1
62
256
6
ByLayer
370
-1
48
1
60
0
100
AcDbLine
10
-2
20
-12.49675
30
0
11
-2
21
12.49675
31
0
39
0
210
0
220
0
230
1
0
LINE
5
EF
100
AcDbEntity
8
SK1
62
256
6
ByLayer
370
-1
48
1
60
0
100
AcDbLine
10
-53.633814
20
-6.340342
30
0
11
-53.633814
21
-12.140417
31
0
39
0
210
0
220
0
230
1
0
LINE
5
F0
100
AcDbEntity
8
SK1
62
256
6
ByLayer
370
-1
48
1
60
0
100
AcDbLine
10
-53.633814
20
12.140417
30
0
11
-53.633814
21
6.340342
31
0
39
0
210
0
220
0
230
1
0
LINE
5
F1
100
AcDbEntity
8
SK1
62
256
6
ByLayer
370
-1
48
1
60
0
100
AcDbLine
10
-52.6
20
6.998498
30
0
11
-52.6
21
12.49675
31
0
39
0
210
0
220
0
230
1
0
LINE
5
F2
100
AcDbEntity
8
SK1
62
256
6
ByLayer
370
-1
48
1
60
0
100
AcDbLine
10
-52.6
20
-12.49675
30
0
11
-52.6
21
-6.998498
31
0
39
0
210
0
220
0
230
1
0
LINE
5
F3
100
AcDbEntity
8
SK1
62
256
6
ByLayer
370
-1
48
1
60
0
100
AcDbLine
10
-6.5
20
6.998498
30
0
11
-6.5
21
-6.998498
31
0
39
0
210
0
220
0
230
1
0
MTEXT
5
212
100
AcDbEntity
8
SK6
62
256
6
ByLayer
370
-1
48
1
60
0
100
AcDbMText
10
0.79375
20
-80.79375
30
0
210
0
220
0
230
1
1
\W00.745;\fsimplex.shx,bigfont.shx;880-D2000L25-04 
40
3.175
41
0
44
1.084337
50
0
71
7
72
5
7
DEFAULT
0
DIMENSION
5
242
100
AcDbEntity
8
SK2
62
256
6
ByLayer
370
-3
48
1
60
0
100
AcDbDimension
2
DimnDraft3D1
10
101
20
-54.86955
30
0
11
22.5
21
-54.86955
31
0
70
32
71
5
72
1
41
1
210
0
220
0
230
1
3
Standard
100
AcDbAlignedDimension
13
-56
23
-14.0875
33
0
14
101
24
-11.5875
34
0
50
0
100
AcDbRotatedDimension
1001
ACAD
1000
DSTYLE
1002
{
1070
   279
1070
     0
1070
   172
1070
     1
1070
   173
1070
     1
1070
   340
1005
213
1070
   271
1070
     1
1070
   272
1070
     2
1070
    77
1070
     1
1070
    73
1070
     0
1070
   171
1070
     3
1070
   274
1070
     4
1070
   177
1070
   150
1070
   176
1070
     9
1070
   178
1070
    43
1070
    78
1070
     8
1070
    48
1040
-0.005
1070
    41
1041
4.175
1070
   147
1041
2.25
1070
    42
1041
1.5875
1070
    44
1041
3.175
1070
   140
1041
4.5
1070
   343
1005
0
1070
   344
1005
0
1002
}
0
DIMENSION
5
24C
100
AcDbEntity
8
SK2
62
256
6
ByLayer
370
-3
48
1
60
0
100
AcDbDimension
2
DimnDraft3D2
10
0
20
-42.9008
30
0
11
-28
21
-42.9008
31
0
70
32
71
5
72
1
41
1
210
0
220
0
230
1
3
Standard
100
AcDbAlignedDimension
13
-56
23
-14.0875
33
0
14
0
24
-17.5875
34
0
50
0
100
AcDbRotatedDimension
1001
ACAD
1000
DSTYLE
1002
{
1070
   279
1070
     0
1070
   172
1070
     1
1070
   173
1070
     1
1070
   340
1005
213
1070
   271
1070
     1
1070
   272
1070
     2
1070
    77
1070
     1
1070
    73
1070
     0
1070
   171
1070
     3
1070
   274
1070
     4
1070
   177
1070
   150
1070
   176
1070
     9
1070
   178
1070
    43
1070
    78
1070
     8
1070
    48
1040
-0.005
1070
    41
1041
4.175
1070
   147
1041
2.25
1070
    42
1041
1.5875
1070
    44
1041
3.175
1070
   140
1041
4.5
1070
   343
1005
0
1070
   344
1005
0
1002
}
0
DIMENSION
5
257
100
AcDbEntity
8
2
62
256
6
ByLayer
370
-3
48
1
60
0
100
AcDbDimension
2
DimnDraft3D3
10
101
20
-42.9008
30
0
11
50.5
21
-42.9008
31
0
70
32
71
5
72
1
41
1
210
0
220
0
230
1
3
Standard
100
AcDbAlignedDimension
13
0
23
-17.5875
33
0
14
101
24
-11.5875
34
0
50
0
100
AcDbRotatedDimension
1001
ACAD
1000
DSTYLE
1002
{
1070
   279
1070
     0
1070
   172
1070
     1
1070
   173
1070
     1
1070
   340
1005
213
1070
   271
1070
     1
1070
   272
1070
     2
1070
    77
1070
     1
1070
    73
1070
     0
1070
   171
1070
     3
1070
   274
1070
     4
1070
   177
1070
   150
1070
   176
1070
     9
1070
   178
1070
    43
1070
    78
1070
     8
1070
    48
1040
-0.005
1070
    41
1041
4.175
1070
   147
1041
2.25
1070
    42
1041
1.5875
1070
    44
1041
3.175
1070
   140
1041
4.5
1070
   343
1005
0
1070
   344
1005
0
1002
}
0
DIMENSION
5
261
100
AcDbEntity
8
SK2
62
256
6
ByLayer
370
-3
48
1
60
0
100
AcDbDimension
2
DimnDraft3D4
10
101
20
-32.9008
30
0
11
59
21
-32.9008
31
0
70
32
71
5
72
1
41
1
210
0
220
0
230
1
3
Standard
100
AcDbAlignedDimension
13
17
23
-11.5875
33
0
14
101
24
-11.5875
34
0
50
0
100
AcDbRotatedDimension
1001
ACAD
1000
DSTYLE
1002
{
1070
   279
1070
     0
1070
   172
1070
     1
1070
   173
1070
     1
1070
   340
1005
213
1070
   271
1070
     1
1070
   272
1070
     2
1070
    77
1070
     1
1070
    73
1070
     0
1070
   171
1070
     3
1070
   274
1070
     4
1070
   177
1070
   150
1070
   176
1070
     9
1070
   178
1070
    43
1070
    78
1070
     8
1070
    48
1040
-0.005
1070
    41
1041
4.175
1070
   147
1041
2.25
1070
    42
1041
1.5875
1070
    44
1041
3.175
1070
   140
1041
4.5
1070
   343
1005
0
1070
   344
1005
0
1002
}
0
DIMENSION
5
26C
100
AcDbEntity
8
SK2
62
256
6
ByLayer
370
-3
48
1
60
0
100
AcDbDimension
2
DimnDraft3D5
10
-67.9
20
-12.5
30
0
11
-68.1
21
4.121053
31
0
70
33
71
5
72
1
41
1
210
0
220
0
230
1
3
Standard
100
AcDbAlignedDimension
13
-57.5875
23
12.5
33
0
14
-57.5875
24
-12.5
34
0
1001
ACAD
1000
DSTYLE
1002
{
1070
   279
1070
     0
1070
    74
1070
     0
1070
   173
1070
     1
1070
   340
1005
213
1070
   271
1070
     2
1070
   272
1070
     2
1070
    77
1070
     1
1070
    73
1070
     0
1070
   171
1070
     3
1070
   274
1070
     4
1070
   177
1070
   150
1070
   176
1070
     9
1070
   178
1070
    43
1070
    78
1070
     8
1070
    48
1040
-0.005
1070
    41
1041
4.175
1070
   147
1041
2.25
1070
    42
1041
1.5875
1070
    44
1041
3.175
1070
   140
1041
4.5
1070
   343
1005
0
1070
   344
1005
0
1002
}
0
DIMENSION
5
277
100
AcDbEntity
8
SK2
62
256
6
ByLayer
370
-3
48
1
60
0
100
AcDbDimension
2
DimnDraft3D6
10
-77.9
20
16
30
0
11
-78.1
21
4.121053
31
0
70
33
71
5
72
1
41
1
210
0
220
0
230
1
3
Standard
100
AcDbAlignedDimension
13
-1.5875
23
-16
33
0
14
-1.5875
24
16
34
0
1001
ACAD
1000
DSTYLE
1002
{
1070
   279
1070
     0
1070
    74
1070
     0
1070
   173
1070
     1
1070
   340
1005
213
1070
   271
1070
     1
1070
   272
1070
     2
1070
    77
1070
     1
1070
    73
1070
     0
1070
   171
1070
     3
1070
   274
1070
     4
1070
   177
1070
   150
1070
   176
1070
     9
1070
   178
1070
    43
1070
    78
1070
     8
1070
    48
1040
-0.005
1070
    41
1041
4.175
1070
   147
1041
2.25
1070
    42
1041
1.5875
1070
    44
1041
3.175
1070
   140
1041
4.5
1070
   343
1005
0
1070
   344
1005
0
1002
}
0
DIMENSION
5
282
100
AcDbEntity
8
2
62
256
6
ByLayer
370
-3
48
1
60
0
100
AcDbDimension
2
DimnDraft3D7
10
131.15
20
-10
30
0
11
124.6
21
-27.370395
31
0
70
33
71
5
72
1
41
1
210
0
220
0
230
1
3
Standard
100
AcDbAlignedDimension
13
102.5875
23
10
33
0
14
102.5875
24
-10
34
0
1001
ACAD
1000
DSTYLE
1002
{
1070
   279
1070
     0
1070
    74
1070
     0
1070
   173
1070
     1
1070
   340
1005
213
1070
   271
1070
     2
1070
   272
1070
     2
1070
    77
1070
     1
1070
    73
1070
     0
1070
   171
1070
     3
1070
   274
1070
     4
1070
   177
1070
   150
1070
   176
1070
     9
1070
   178
1070
    43
1070
    78
1070
     8
1070
    48
1040
-0.005
1070
    41
1041
4.175
1070
   147
1041
2.25
1070
    42
1041
1.5875
1070
    44
1041
3.175
1070
   140
1041
4.5
1070
   343
1005
0
1070
   344
1005
0
1002
}
0
ENDSEC
0
SECTION
2
OBJECTS
0
DICTIONARY
5
2b3
330
0
100
AcDbDictionary
280
0
281
1
3
ACAD_GROUP
350
2b4
3
ACAD_MLINESTYLE
350
2b5
0
DICTIONARY
5
2b4
330
0
100
AcDbDictionary
280
0
281
1
0
DICTIONARY
5
2b5
330
0
100
AcDbDictionary
280
0
281
1
3
Standard
350
18
0
MLINESTYLE
5
18
330
2b5
100
AcDbMlineStyle
2
Standard
70
0
3

62
256
51
90
52
90
71
2
49
-0.5
62
256
6
ByLayer
49
0.5
62
256
6
ByLayer
0
RASTERVARIABLES
5
2a1
330

100
AcDbRasterVariables
90
0
70
1
71
1
72
1
0
ENDSEC
0
EOF
