0
SECTION
2
HEADER
9
$ACADVER
1
AC1015
9
$DWGCODEPAGE
3
ANSI_1252
9
$HANDSEED
5
2bc
9
$ANGBASE
50
0
9
$ANGDIR
70
0
9
$ATTMODE
70
1
9
$AUNITS
70
0
9
$AUPREC
70
0
9
$CECOLOR
62
256
9
$CELTSCALE
40
1
9
$CELTYPE
6
ByLayer
9
$CELWEIGHT
370
-1
9
$CLAYER
8
0
9
$CMLJUST
70
0
9
$CMLSCALE
40
1
9
$CMLSTYLE
2
Standard
9
$DIMSTYLE
2
Standard
9
$TEXTSIZE
40
0.2
9
$TEXTSTYLE
7
Standard
9
$LUNITS
70
2
9
$LUPREC
70
4
9
$EXTNAMES
290
1
9
$INSUNITS
70
4
9
$LTSCALE
40
1
9
$LWDISPLAY
290
0
9
$PDMODE
70
0
9
$PDSIZE
40
0
9
$PLINEGEN
70
0
0
ENDSEC
0
SECTION
2
CLASSES
0
CLASS
1
RASTERVARIABLES
2
AcDbRasterVariables
3
ISM
90
0
280
0
281
0
0
ENDSEC
0
SECTION
2
TABLES
0
TABLE
2
VPORT
5
2b2
100
AcDbSymbolTable
0
VPORT
5
1
100
AcDbSymbolTableRecord
100
AcDbViewportTableRecord
2
*Active
70
0
10
0
20
0
11
1
21
1
12
-1
22
1
13
0
23
0
14
0.5
24
0.5
15
10
25
10
16
0
26
0
36
1
17
0
27
0
37
0
0
ENDTAB
0
TABLE
2
LTYPE
5
2b3
100
AcDbSymbolTable
0
LTYPE
5
14
100
AcDbSymbolTableRecord
100
AcDbLinetypeTableRecord
70
0
2
ByBlock
3

72
65
73
0
40
0
0
LTYPE
5
15
100
AcDbSymbolTableRecord
100
AcDbLinetypeTableRecord
70
0
2
ByLayer
3

72
65
73
0
40
0
0
LTYPE
5
16
100
AcDbSymbolTableRecord
100
AcDbLinetypeTableRecord
70
0
2
CONTINUOUS
3
Solid line
72
65
73
0
40
0
0
LTYPE
5
3B
100
AcDbSymbolTableRecord
100
AcDbLinetypeTableRecord
70
0
2
DASHED
3
__ __ __ __ __ __ __ __ __
72
65
73
2
40
25.72
49
12.86
74
0
49
-12.86
74
0
0
LTYPE
5
3C
100
AcDbSymbolTableRecord
100
AcDbLinetypeTableRecord
70
0
2
HIDDEN
3
_ _ _ _ _ _ _ _ _ _ _ _ _ _ _
72
65
73
2
40
0.5
49
0.25
74
0
49
-0.25
74
0
0
LTYPE
5
3D
100
AcDbSymbolTableRecord
100
AcDbLinetypeTableRecord
70
0
2
PHANTOM
3
____ _ _ ____ _ _ _____ _ _ ____
72
65
73
6
40
50.5
49
18
74
0
49
-6.5
74
0
49
6.5
74
0
49
-6.5
74
0
49
6.5
74
0
49
-6.5
74
0
0
LTYPE
5
3E
100
AcDbSymbolTableRecord
100
AcDbLinetypeTableRecord
70
0
2
CENTER
3
____ _ ____ _ ____ _ ____
72
65
73
4
40
47.5
49
22
74
0
49
-8.5
74
0
49
8.5
74
0
49
-8.5
74
0
0
LTYPE
5
3F
100
AcDbSymbolTableRecord
100
AcDbLinetypeTableRecord
70
0
2
DOT
3
.........................
72
65
73
2
40
10
49
0
74
0
49
-10
74
0
0
LTYPE
5
40
100
AcDbSymbolTableRecord
100
AcDbLinetypeTableRecord
70
0
2
DASHDOT
3
_._._._._._._._._._._._._._._._.
72
65
73
4
40
70
49
31
74
0
49
-13
74
0
49
13
74
0
49
-13
74
0
0
ENDTAB
0
TABLE
2
LAYER
5
2b4
100
AcDbSymbolTable
0
LAYER
5
10
100
AcDbSymbolTableRecord
100
AcDbLayerTableRecord
2
0
70
0
62
7
6
CONTINUOUS
290
1
370
-3
390
0
0
LAYER
5
42
100
AcDbSymbolTableRecord
100
AcDbLayerTableRecord
2
81
70
0
62
-3
6
CONTINUOUS
290
1
370
-3
390
0
0
LAYER
5
44
100
AcDbSymbolTableRecord
100
AcDbLayerTableRecord
2
80
70
0
62
-6
6
CONTINUOUS
290
1
370
-3
390
0
0
LAYER
5
48
100
AcDbSymbolTableRecord
100
AcDbLayerTableRecord
2
1
70
0
62
4
6
CONTINUOUS
290
1
370
-3
390
0
0
LAYER
5
61
100
AcDbSymbolTableRecord
100
AcDbLayerTableRecord
2
4
70
0
62
-2
6
CENTER
290
1
370
-3
390
0
0
LAYER
5
24B
100
AcDbSymbolTableRecord
100
AcDbLayerTableRecord
2
2
70
0
62
7
6
CONTINUOUS
290
1
370
-3
390
0
0
LAYER
5
29e
100
AcDbSymbolTableRecord
100
AcDbLayerTableRecord
2
SK1
70
0
62
4
6
CONTINUOUS
290
1
370
-3
390
0
0
LAYER
5
29f
100
AcDbSymbolTableRecord
100
AcDbLayerTableRecord
2
SK4
70
0
62
2
6
CENTER
290
1
370
-3
390
0
0
LAYER
5
2a0
100
AcDbSymbolTableRecord
100
AcDbLayerTableRecord
2
SK6
70
0
62
5
6
CONTINUOUS
290
1
370
-3
390
0
0
LAYER
5
2a1
100
AcDbSymbolTableRecord
100
AcDbLayerTableRecord
2
SK2
70
0
62
7
6
CONTINUOUS
290
1
370
-3
390
0
0
ENDTAB
0
TABLE
2
STYLE
5
2b5
100
AcDbSymbolTable
0
STYLE
5
11
100
AcDbSymbolTableRecord
100
AcDbTextStyleTableRecord
2
Standard
3
txt
70
0
71
0
40
0
41
1
42
0
50
0
0
STYLE
5
20F
100
AcDbSymbolTableRecord
100
AcDbTextStyleTableRecord
2
DEFAULT
3
simplex.shx
70
0
71
0
40
0
41
1
42
0
50
0
0
STYLE
5
232
100
AcDbSymbolTableRecord
100
AcDbTextStyleTableRecord
2
DWGDirectTextStyle
3
SIMPLEX
70
0
71
0
40
0
41
1
42
0
50
0
0
ENDTAB
0
TABLE
2
DIMSTYLE
5
2b6
100
AcDbSymbolTable
100
AcDbDimStyleTable
0
DIMSTYLE
105
27
100
AcDbSymbolTableRecord
100
AcDbDimStyleTableRecord
2
Standard
70
0
3
<>
41
0.18
42
0.0625
44
0.18
140
0.18
147
0.09
73
0
74
0
77
1
271
2
275
0
278
52
280
0
340
11
0
ENDTAB
0
TABLE
2
VIEW
5
2b7
100
AcDbSymbolTable
0
ENDTAB
0
TABLE
2
UCS
5
2b8
100
AcDbSymbolTable
0
ENDTAB
0
TABLE
2
APPID
5
2b9
100
AcDbSymbolTable
0
APPID
5
12
100
AcDbSymbolTableRecord
100
AcDbRegAppTableRecord
2
ACAD
70
0
0
ENDTAB
0
TABLE
2
BLOCK_RECORD
5
2ba
100
AcDbSymbolTable
0
BLOCK_RECORD
5
1F
100
AcDbSymbolTableRecord
100
AcDbBlockTableRecord
2
*Model_Space
340
0
70
0
0
BLOCK_RECORD
5
1B
100
AcDbSymbolTableRecord
100
AcDbBlockTableRecord
2
*Paper_Space
340
0
70
0
0
BLOCK_RECORD
5
23
100
AcDbSymbolTableRecord
100
AcDbBlockTableRecord
2
*Paper_Space0
340
0
70
0
0
BLOCK_RECORD
5
234
100
AcDbSymbolTableRecord
100
AcDbBlockTableRecord
2
DimnDraft3D1
340
0
70
0
0
BLOCK_RECORD
5
23F
100
AcDbSymbolTableRecord
100
AcDbBlockTableRecord
2
DimnDraft3D2
340
0
70
0
0
BLOCK_RECORD
5
249
100
AcDbSymbolTableRecord
100
AcDbBlockTableRecord
2
DimnDraft3D3
340
0
70
0
0
BLOCK_RECORD
5
254
100
AcDbSymbolTableRecord
100
AcDbBlockTableRecord
2
DimnDraft3D4
340
0
70
0
0
BLOCK_RECORD
5
25E
100
AcDbSymbolTableRecord
100
AcDbBlockTableRecord
2
DimnDraft3D5
340
0
70
0
0
BLOCK_RECORD
5
269
100
AcDbSymbolTableRecord
100
AcDbBlockTableRecord
2
DimnDraft3D6
340
0
70
0
0
BLOCK_RECORD
5
274
100
AcDbSymbolTableRecord
100
AcDbBlockTableRecord
2
DimnDraft3D7
340
0
70
0
0
ENDTAB
0
ENDSEC
0
SECTION
2
BLOCKS
0
BLOCK
5
20
100
AcDbEntity
8
0
100
AcDbBlockBegin
2
*Model_Space
70
0
10
0
20
0
30
0
3
*Model_Space
0
ENDBLK
5
21
100
AcDbEntity
8
0
100
AcDbBlockEnd
0
BLOCK
5
1C
100
AcDbEntity
8
0
100
AcDbBlockBegin
2
*Paper_Space
70
0
10
0
20
0
30
0
3
*Paper_Space
0
ENDBLK
5
1D
100
AcDbEntity
8
0
100
AcDbBlockEnd
0
BLOCK
5
24
100
AcDbEntity
8
0
100
AcDbBlockBegin
2
*Paper_Space0
70
0
10
0
20
0
30
0
3
*Paper_Space0
0
ENDBLK
5
25
100
AcDbEntity
8
0
100
AcDbBlockEnd
0
BLOCK
5
23C
100
AcDbEntity
8
0
100
AcDbBlockBegin
2
DimnDraft3D1
70
0
10
0
20
0
30
0
3
DimnDraft3D1
0
MTEXT
5
235
100
AcDbEntity
8
SK2
62
256
6
ByLayer
370
-1
48
1
60
0
100
AcDbMText
10
2.906579
20
-51.7758
30
0
210
0
220
0
230
1
1
\W01.000;\fsimplex.shx,bigfont.shx;(132) 
40
4.5
41
0
44
1.084337
50
0
71
7
72
5
7
DEFAULT
0
LINE
5
237
100
AcDbEntity
8
SK2
62
256
6
ByLayer
370
-1
48
1
60
0
100
AcDbLine
10
-56
20
-14.0875
30
0
11
-56
21
-58.04455
31
0
39
0
210
0
220
0
230
1
0
LINE
5
238
100
AcDbEntity
8
SK2
62
256
6
ByLayer
370
-1
48
1
60
0
100
AcDbLine
10
76
20
-11.0875
30
0
11
76
21
-58.04455
31
0
39
0
210
0
220
0
230
1
0
LINE
5
239
100
AcDbEntity
8
SK2
62
256
6
ByLayer
370
-1
48
1
60
0
100
AcDbLine
10
-56
20
-54.86955
30
0
11
76
21
-54.86955
31
0
39
0
210
0
220
0
230
1
0
SOLID
5
23A
100
AcDbEntity
8
SK2
62
256
6
ByLayer
370
-1
48
1
60
0
100
AcDbTrace
10
-56
20
-54.86955
30
0
11
-51.825003
21
-53.943975
31
0
12
-51.824997
22
-55.795125
32
0
13
-56
23
-54.86955
33
0
39
0
210
0
220
0
230
1
0
SOLID
5
23B
100
AcDbEntity
8
SK2
62
256
6
ByLayer
370
-1
48
1
60
0
100
AcDbTrace
10
76
20
-54.86955
30
0
11
71.825003
21
-55.795125
31
0
12
71.824997
22
-53.943975
32
0
13
76
23
-54.86955
33
0
39
0
210
0
220
0
230
1
0
ENDBLK
5
23D
100
AcDbEntity
8
0
100
AcDbBlockEnd
0
BLOCK
5
246
100
AcDbEntity
8
0
100
AcDbBlockBegin
2
DimnDraft3D2
70
0
10
0
20
0
30
0
3
DimnDraft3D2
0
MTEXT
5
240
100
AcDbEntity
8
SK2
62
256
6
ByLayer
370
-1
48
1
60
0
100
AcDbMText
10
-29.503947
20
-41.7758
30
0
210
0
220
0
230
1
1
\W01.000;\fsimplex.shx,bigfont.shx;56 
40
4.5
41
0
44
1.084337
50
0
71
7
72
5
7
DEFAULT
0
LINE
5
241
100
AcDbEntity
8
SK2
62
256
6
ByLayer
370
-1
48
1
60
0
100
AcDbLine
10
-56
20
-14.0875
30
0
11
-56
21
-46.0758
31
0
39
0
210
0
220
0
230
1
0
LINE
5
242
100
AcDbEntity
8
SK2
62
256
6
ByLayer
370
-1
48
1
60
0
100
AcDbLine
10
0
20
-17.5875
30
0
11
0
21
-46.0758
31
0
39
0
210
0
220
0
230
1
0
LINE
5
243
100
AcDbEntity
8
SK2
62
256
6
ByLayer
370
-1
48
1
60
0
100
AcDbLine
10
-56
20
-42.9008
30
0
11
0
21
-42.9008
31
0
39
0
210
0
220
0
230
1
0
SOLID
5
244
100
AcDbEntity
8
SK2
62
256
6
ByLayer
370
-1
48
1
60
0
100
AcDbTrace
10
-56
20
-42.9008
30
0
11
-51.825003
21
-41.975225
31
0
12
-51.824997
22
-43.826375
32
0
13
-56
23
-42.9008
33
0
39
0
210
0
220
0
230
1
0
SOLID
5
245
100
AcDbEntity
8
SK2
62
256
6
ByLayer
370
-1
48
1
60
0
100
AcDbTrace
10
0
20
-42.9008
30
0
11
-4.174997
21
-43.826375
31
0
12
-4.175003
22
-41.975225
32
0
13
0
23
-42.9008
33
0
39
0
210
0
220
0
230
1
0
ENDBLK
5
247
100
AcDbEntity
8
0
100
AcDbBlockEnd
0
BLOCK
5
251
100
AcDbEntity
8
0
100
AcDbBlockBegin
2
DimnDraft3D3
70
0
10
0
20
0
30
0
3
DimnDraft3D3
0
MTEXT
5
24A
100
AcDbEntity
8
2
62
256
6
ByLayer
370
-1
48
1
60
0
100
AcDbMText
10
36.496053
20
-41.7758
30
0
210
0
220
0
230
1
1
\W01.000;\fsimplex.shx,bigfont.shx;76 
40
4.5
41
0
44
1.084337
50
0
71
7
72
5
7
DEFAULT
0
LINE
5
24C
100
AcDbEntity
8
2
62
256
6
ByLayer
370
-1
48
1
60
0
100
AcDbLine
10
0
20
-17.5875
30
0
11
0
21
-46.0758
31
0
39
0
210
0
220
0
230
1
0
LINE
5
24D
100
AcDbEntity
8
2
62
256
6
ByLayer
370
-1
48
1
60
0
100
AcDbLine
10
76
20
-11.0875
30
0
11
76
21
-46.0758
31
0
39
0
210
0
220
0
230
1
0
LINE
5
24E
100
AcDbEntity
8
2
62
256
6
ByLayer
370
-1
48
1
60
0
100
AcDbLine
10
0
20
-42.9008
30
0
11
76
21
-42.9008
31
0
39
0
210
0
220
0
230
1
0
SOLID
5
24F
100
AcDbEntity
8
2
62
256
6
ByLayer
370
-1
48
1
60
0
100
AcDbTrace
10
0
20
-42.9008
30
0
11
4.174997
21
-41.975225
31
0
12
4.175003
22
-43.826375
32
0
13
0
23
-42.9008
33
0
39
0
210
0
220
0
230
1
0
SOLID
5
250
100
AcDbEntity
8
2
62
256
6
ByLayer
370
-1
48
1
60
0
100
AcDbTrace
10
76
20
-42.9008
30
0
11
71.825003
21
-43.826375
31
0
12
71.824997
22
-41.975225
32
0
13
76
23
-42.9008
33
0
39
0
210
0
220
0
230
1
0
ENDBLK
5
252
100
AcDbEntity
8
0
100
AcDbBlockEnd
0
BLOCK
5
25B
100
AcDbEntity
8
0
100
AcDbBlockBegin
2
DimnDraft3D4
70
0
10
0
20
0
30
0
3
DimnDraft3D4
0
MTEXT
5
255
100
AcDbEntity
8
SK2
62
256
6
ByLayer
370
-1
48
1
60
0
100
AcDbMText
10
44.496053
20
-31.7758
30
0
210
0
220
0
230
1
1
\W01.000;\fsimplex.shx,bigfont.shx;60 
40
4.5
41
0
44
1.084337
50
0
71
7
72
5
7
DEFAULT
0
LINE
5
256
100
AcDbEntity
8
SK2
62
256
6
ByLayer
370
-1
48
1
60
0
100
AcDbLine
10
16
20
-11.5875
30
0
11
16
21
-36.0758
31
0
39
0
210
0
220
0
230
1
0
LINE
5
257
100
AcDbEntity
8
SK2
62
256
6
ByLayer
370
-1
48
1
60
0
100
AcDbLine
10
76
20
-11.0875
30
0
11
76
21
-36.0758
31
0
39
0
210
0
220
0
230
1
0
LINE
5
258
100
AcDbEntity
8
SK2
62
256
6
ByLayer
370
-1
48
1
60
0
100
AcDbLine
10
16
20
-32.9008
30
0
11
76
21
-32.9008
31
0
39
0
210
0
220
0
230
1
0
SOLID
5
259
100
AcDbEntity
8
SK2
62
256
6
ByLayer
370
-1
48
1
60
0
100
AcDbTrace
10
16
20
-32.9008
30
0
11
20.174997
21
-31.975225
31
0
12
20.175003
22
-33.826375
32
0
13
16
23
-32.9008
33
0
39
0
210
0
220
0
230
1
0
SOLID
5
25A
100
AcDbEntity
8
SK2
62
256
6
ByLayer
370
-1
48
1
60
0
100
AcDbTrace
10
76
20
-32.9008
30
0
11
71.825003
21
-33.826375
31
0
12
71.824997
22
-31.975225
32
0
13
76
23
-32.9008
33
0
39
0
210
0
220
0
230
1
0
ENDBLK
5
25C
100
AcDbEntity
8
0
100
AcDbBlockEnd
0
BLOCK
5
266
100
AcDbEntity
8
0
100
AcDbBlockBegin
2
DimnDraft3D5
70
0
10
0
20
0
30
0
3
DimnDraft3D5
0
MTEXT
5
25F
100
AcDbEntity
8
SK2
62
256
6
ByLayer
370
-1
48
1
60
0
100
AcDbMText
10
-66.975
20
5.246053
30
0
210
0
220
0
230
1
1
\W01.000;\fsimplex.shx,bigfont.shx;25 
40
4.5
41
0
44
1.084337
50
90
71
7
72
5
7
DEFAULT
0
MTEXT
5
260
100
AcDbEntity
8
SK2
62
256
6
ByLayer
370
-1
48
1
60
0
100
AcDbMText
10
-66.975
20
-8.253947
30
0
210
0
220
0
230
1
1
\W01.000;\fsimplex.shx,bigfont.shx;%%c 
40
4.5
41
0
44
1.084337
50
90
71
7
72
5
7
DEFAULT
0
LINE
5
261
100
AcDbEntity
8
SK2
62
256
6
ByLayer
370
-1
48
1
60
0
100
AcDbLine
10
-57.5875
20
12.5
30
0
11
-67.9
21
12.5
31
0
39
0
210
0
220
0
230
1
0
LINE
5
262
100
AcDbEntity
8
SK2
62
256
6
ByLayer
370
-1
48
1
60
0
100
AcDbLine
10
-57.5875
20
-12.5
30
0
11
-67.9
21
-12.5
31
0
39
0
210
0
220
0
230
1
0
LINE
5
263
100
AcDbEntity
8
SK2
62
256
6
ByLayer
370
-1
48
1
60
0
100
AcDbLine
10
-64.725
20
23.75
30
0
11
-64.725
21
-23.75
31
0
39
0
210
0
220
0
230
1
0
SOLID
5
264
100
AcDbEntity
8
SK2
62
256
6
ByLayer
370
-1
48
1
60
0
100
AcDbTrace
10
-64.725
20
12.5
30
0
11
-65.650575
21
16.674997
31
0
12
-63.799425
22
16.675003
32
0
13
-64.725
23
12.5
33
0
39
0
210
0
220
0
230
1
0
SOLID
5
265
100
AcDbEntity
8
SK2
62
256
6
ByLayer
370
-1
48
1
60
0
100
AcDbTrace
10
-64.725
20
-12.5
30
0
11
-63.799425
21
-16.674997
31
0
12
-65.650575
22
-16.675003
32
0
13
-64.725
23
-12.5
33
0
39
0
210
0
220
0
230
1
0
ENDBLK
5
267
100
AcDbEntity
8
0
100
AcDbBlockEnd
0
BLOCK
5
271
100
AcDbEntity
8
0
100
AcDbBlockBegin
2
DimnDraft3D6
70
0
10
0
20
0
30
0
3
DimnDraft3D6
0
MTEXT
5
26A
100
AcDbEntity
8
SK2
62
256
6
ByLayer
370
-1
48
1
60
0
100
AcDbMText
10
-76.975
20
5.246053
30
0
210
0
220
0
230
1
1
\W01.000;\fsimplex.shx,bigfont.shx;32 
40
4.5
41
0
44
1.084337
50
90
71
7
72
5
7
DEFAULT
0
MTEXT
5
26B
100
AcDbEntity
8
SK2
62
256
6
ByLayer
370
-1
48
1
60
0
100
AcDbMText
10
-76.975
20
-8.253947
30
0
210
0
220
0
230
1
1
\W01.000;\fsimplex.shx,bigfont.shx;%%c 
40
4.5
41
0
44
1.084337
50
90
71
7
72
5
7
DEFAULT
0
LINE
5
26C
100
AcDbEntity
8
SK2
62
256
6
ByLayer
370
-1
48
1
60
0
100
AcDbLine
10
-1.5875
20
-16
30
0
11
-77.9
21
-16
31
0
39
0
210
0
220
0
230
1
0
LINE
5
26D
100
AcDbEntity
8
SK2
62
256
6
ByLayer
370
-1
48
1
60
0
100
AcDbLine
10
-1.5875
20
16
30
0
11
-77.9
21
16
31
0
39
0
210
0
220
0
230
1
0
LINE
5
26E
100
AcDbEntity
8
SK2
62
256
6
ByLayer
370
-1
48
1
60
0
100
AcDbLine
10
-74.725
20
-16
30
0
11
-74.725
21
16
31
0
39
0
210
0
220
0
230
1
0
SOLID
5
26F
100
AcDbEntity
8
SK2
62
256
6
ByLayer
370
-1
48
1
60
0
100
AcDbTrace
10
-74.725
20
-16
30
0
11
-75.650575
21
-11.825003
31
0
12
-73.799425
22
-11.824997
32
0
13
-74.725
23
-16
33
0
39
0
210
0
220
0
230
1
0
SOLID
5
270
100
AcDbEntity
8
SK2
62
256
6
ByLayer
370
-1
48
1
60
0
100
AcDbTrace
10
-74.725
20
16
30
0
11
-73.799425
21
11.825003
31
0
12
-75.650575
22
11.824997
32
0
13
-74.725
23
16
33
0
39
0
210
0
220
0
230
1
0
ENDBLK
5
272
100
AcDbEntity
8
0
100
AcDbBlockEnd
0
BLOCK
5
27C
100
AcDbEntity
8
0
100
AcDbBlockBegin
2
DimnDraft3D7
70
0
10
0
20
0
30
0
3
DimnDraft3D7
0
MTEXT
5
275
100
AcDbEntity
8
2
62
256
6
ByLayer
370
-1
48
1
60
0
100
AcDbMText
10
100.725
20
-24.620395
30
0
210
0
220
0
230
1
1
\W01.000;\fsimplex.shx,bigfont.shx;19 
40
4.5
41
0
44
1.084337
50
90
71
7
72
5
7
DEFAULT
0
MTEXT
5
276
100
AcDbEntity
8
2
62
256
6
ByLayer
370
-1
48
1
60
0
100
AcDbMText
10
100.725
20
-38.120395
30
0
210
0
220
0
230
1
1
\W01.000;\fsimplex.shx,bigfont.shx;%%c 
40
4.5
41
0
44
1.084337
50
90
71
7
72
5
7
DEFAULT
0
LINE
5
277
100
AcDbEntity
8
2
62
256
6
ByLayer
370
-1
48
1
60
0
100
AcDbLine
10
77.5875
20
9.5
30
0
11
106.15
21
9.5
31
0
39
0
210
0
220
0
230
1
0
LINE
5
278
100
AcDbEntity
8
2
62
256
6
ByLayer
370
-1
48
1
60
0
100
AcDbLine
10
77.5875
20
-9.5
30
0
11
106.15
21
-9.5
31
0
39
0
210
0
220
0
230
1
0
LINE
5
279
100
AcDbEntity
8
2
62
256
6
ByLayer
370
-1
48
1
60
0
100
AcDbLine
10
102.975
20
9.5
30
0
11
102.975
21
-39.245395
31
0
39
0
210
0
220
0
230
1
0
SOLID
5
27A
100
AcDbEntity
8
2
62
256
6
ByLayer
370
-1
48
1
60
0
100
AcDbTrace
10
102.975
20
9.5
30
0
11
103.900575
21
5.325003
31
0
12
102.049425
22
5.324997
32
0
13
102.975
23
9.5
33
0
39
0
210
0
220
0
230
1
0
SOLID
5
27B
100
AcDbEntity
8
2
62
256
6
ByLayer
370
-1
48
1
60
0
100
AcDbTrace
10
102.975
20
-9.5
30
0
11
102.049425
21
-5.325003
31
0
12
103.900575
22
-5.324997
32
0
13
102.975
23
-9.5
33
0
39
0
210
0
220
0
230
1
0
ENDBLK
5
27D
100
AcDbEntity
8
0
100
AcDbBlockEnd
0
ENDSEC
0
SECTION
2
ENTITIES
0
ARC
5
F3
100
AcDbEntity
8
SK1
62
256
6
ByLayer
370
-1
48
1
60
0
100
AcDbCircle
39
0
10
1.382165
20
12.65
30
0
40
0.4
210
0
220
0
230
-1
100
AcDbArc
50
270
51
295
0
ARC
5
F4
100
AcDbEntity
8
SK1
62
256
6
ByLayer
370
-1
48
1
60
0
100
AcDbCircle
39
0
10
1.382165
20
-12.65
30
0
40
0.4
210
0
220
0
230
-1
100
AcDbArc
50
65
51
90
0
ARC
5
F5
100
AcDbEntity
8
SK1
62
256
6
ByLayer
370
-1
48
1
60
0
100
AcDbCircle
39
0
10
0.15
20
12.65
30
0
40
0.4
210
0
220
0
230
-1
100
AcDbArc
50
247.975687
51
270
0
ARC
5
F6
100
AcDbEntity
8
SK1
62
256
6
ByLayer
370
-1
48
1
60
0
100
AcDbCircle
39
0
10
0.15
20
-12.65
30
0
40
0.4
210
0
220
0
230
-1
100
AcDbArc
50
90
51
112.024313
0
ARC
5
F7
100
AcDbEntity
8
SK1
62
256
6
ByLayer
370
-1
48
1
60
0
100
AcDbCircle
39
0
10
53.894506
20
12.89675
30
0
40
0.8
210
0
220
0
230
-1
100
AcDbArc
50
250.982048
51
321
0
ARC
5
F8
100
AcDbEntity
8
SK1
62
256
6
ByLayer
370
-1
48
1
60
0
100
AcDbCircle
39
0
10
53.894506
20
-12.89675
30
0
40
0.8
210
0
220
0
230
-1
100
AcDbArc
50
39
51
109.017952
0
ELLIPSE
5
F9
100
AcDbEntity
8
1
62
256
6
ByLayer
370
-1
48
1
60
0
100
AcDbEllipse
10
70.070464
20
4.334641
30
0
11
-0.599637270106163
21
-0.0208601126465925
31
0
210
0
220
0
230
1
40
0.003042
41
0.0872135714661165
42
1.13795433213007
0
ELLIPSE
5
FA
100
AcDbEntity
8
1
62
256
6
ByLayer
370
-1
48
1
60
0
100
AcDbEllipse
10
72.842449
20
6.252878
30
0
11
1.46431667789534E-15
21
1.25
31
0
210
0
220
0
230
1
40
0.996195
41
0
42
1.01581412355465
0
ELLIPSE
5
FB
100
AcDbEntity
8
1
62
256
6
ByLayer
370
-1
48
1
60
0
100
AcDbEllipse
10
67.848181
20
0
30
0
11
-34.9078447026461
21
0.603382542826946
31
0
210
0
220
0
230
-1
40
0.262984
41
-1.58619539768724
42
-1.51187117714165
0
ELLIPSE
5
FC
100
AcDbEntity
8
1
62
256
6
ByLayer
370
-1
48
1
60
0
100
AcDbEllipse
10
67.289253
20
5.710509
30
0
11
-0.41068366341119
21
-3.87831650701785
31
0
210
0
220
0
230
1
40
0.290798
41
0.259661907484746
42
0.908657358490436
0
ELLIPSE
5
FD
100
AcDbEntity
8
1
62
256
6
ByLayer
370
-1
48
1
60
0
100
AcDbEllipse
10
66.65964
20
4.423493
30
0
11
-0.326425640836806
21
-0.730374082922088
31
0
210
0
220
0
230
1
40
0.079621
41
0.788036052731964
42
1.60636616336575
0
ELLIPSE
5
FE
100
AcDbEntity
8
1
62
256
6
ByLayer
370
-1
48
1
60
0
100
AcDbEllipse
10
75.036352
20
-0.23148
30
0
11
-0.0444218402361852
21
0.601863278080026
31
0
210
0
220
0
230
-1
40
0.117805
41
-1.33715144111795
42
0.0738826952181745
0
ELLIPSE
5
FF
100
AcDbEntity
8
1
62
256
6
ByLayer
370
-1
48
1
60
0
100
AcDbEllipse
10
49.257831
20
7.619897
30
0
11
-18.6901868073876
21
1.94302170352599
31
0
210
0
220
0
230
-1
40
0.207539
41
3.12002038964891
42
-2.7886805676311
0
ELLIPSE
5
100
100
AcDbEntity
8
1
62
256
6
ByLayer
370
-1
48
1
60
0
100
AcDbEllipse
10
65.524805
20
2E-06
30
0
11
-105.156468933437
21
-1.19152762398828E-13
31
0
210
0
220
0
230
-1
40
0.087489
41
1.59388361758422
42
1.60819487233014
0
ELLIPSE
5
101
100
AcDbEntity
8
1
62
256
6
ByLayer
370
-1
48
1
60
0
100
AcDbEllipse
10
68.836346
20
9.17393
30
0
11
6.09155738004463E-15
21
5.2
31
0
210
0
220
0
230
1
40
0.996195
41
2.72271363311116
42
-3.10668606854991
0
ELLIPSE
5
102
100
AcDbEntity
8
1
62
256
6
ByLayer
370
-1
48
1
60
0
100
AcDbEllipse
10
10.5
20
5.06992
30
0
11
-5.00000000000001
21
5.05319527541183E-15
31
0
210
0
220
0
230
1
40
0.63429
41
-1.81484965691039
42
-0.49809052869988
0
ELLIPSE
5
103
100
AcDbEntity
8
1
62
256
6
ByLayer
370
-1
48
1
60
0
100
AcDbEllipse
10
75.035072
20
-0.231436
30
0
11
-0.0367903397384979
21
0.601607566648299
31
0
210
0
220
0
230
-1
40
0.118733
41
-1.49832362620496
42
-1.33856144171599
0
ELLIPSE
5
104
100
AcDbEntity
8
1
62
256
6
ByLayer
370
-1
48
1
60
0
100
AcDbEllipse
10
69.78208
20
-1E-06
30
0
11
-0.297880766148633
21
9.19996381947281
31
0
210
0
220
0
230
-1
40
0.087398
41
-0.0345687422952541
42
-0.000610627555041663
0
ELLIPSE
5
105
100
AcDbEntity
8
1
62
256
6
ByLayer
370
-1
48
1
60
0
100
AcDbEllipse
10
72.842449
20
6.252878
30
0
11
1.2885986765479E-15
21
1.1
31
0
210
0
220
0
230
1
40
0.996195
41
-2.42668389129718
42
0
0
ELLIPSE
5
106
100
AcDbEntity
8
1
62
256
6
ByLayer
370
-1
48
1
60
0
100
AcDbEllipse
10
72.842449
20
6.252878
30
0
11
1.2885986765479E-15
21
1.1
31
0
210
0
220
0
230
1
40
0.996195
41
0
42
1.57079634372637
0
ELLIPSE
5
107
100
AcDbEntity
8
1
62
256
6
ByLayer
370
-1
48
1
60
0
100
AcDbEllipse
10
72.842449
20
6.252878
30
0
11
1.2885986765479E-15
21
1.1
31
0
210
0
220
0
230
1
40
0.996195
41
1.5707962760005
42
1.74584211605793
0
ELLIPSE
5
108
100
AcDbEntity
8
1
62
256
6
ByLayer
370
-1
48
1
60
0
100
AcDbEllipse
10
59.483442
20
6.511965
30
0
11
-8.46724130396315
21
4.71976901831335
31
0
210
0
220
0
230
-1
40
0.112219
41
-2.47256273861187
42
-1.35408436443861
0
ELLIPSE
5
109
100
AcDbEntity
8
1
62
256
6
ByLayer
370
-1
48
1
60
0
100
AcDbEllipse
10
70.56713
20
5.5351
30
0
11
1.58146201212697E-15
21
1.35
31
0
210
0
220
0
230
1
40
0.996195
41
0.863056052375929
42
1.60570291183478
0
ELLIPSE
5
10A
100
AcDbEntity
8
1
62
256
6
ByLayer
370
-1
48
1
60
0
100
AcDbEllipse
10
74.922324
20
3.942547
30
0
11
-0.0438793676383751
21
0.603073154805643
31
0
210
0
220
0
230
-1
40
0.116851
41
2.32053996367338
42
-3.13146690600783
0
ELLIPSE
5
10B
100
AcDbEntity
8
1
62
256
6
ByLayer
370
-1
48
1
60
0
100
AcDbEllipse
10
70.029613
20
5.508925
30
0
11
-0.599637270106163
21
-0.0208601126465925
31
0
210
0
220
0
230
1
40
0.003042
41
0.0872135714661165
42
1.13795433213007
0
ELLIPSE
5
10C
100
AcDbEntity
8
1
62
256
6
ByLayer
370
-1
48
1
60
0
100
AcDbEllipse
10
70.817154
20
4.360815
30
0
11
-1.4470236532442E-15
21
-1.35
31
0
210
0
220
0
230
1
40
0.996195
41
-1.53588974175501
42
-0.146913134865279
0
ELLIPSE
5
10D
100
AcDbEntity
8
1
62
256
6
ByLayer
370
-1
48
1
60
0
100
AcDbEllipse
10
72.72822
20
-1.987078
30
0
11
-1.10000000000001
21
1.11170296059061E-15
31
0
210
0
220
0
230
1
40
0.998135
41
0
42
6.28318530717959
0
ELLIPSE
5
10E
100
AcDbEntity
8
1
62
256
6
ByLayer
370
-1
48
1
60
0
100
AcDbEllipse
10
74.964485
20
-5.702879
30
0
11
-0.0775174355513406
21
1.26990280696612
31
0
210
0
220
0
230
-1
40
0.116571
41
-0.287391346027092
42
0.408657706655319
0
ELLIPSE
5
10F
100
AcDbEntity
8
1
62
256
6
ByLayer
370
-1
48
1
60
0
100
AcDbEllipse
10
68.766622
20
9.17393
30
0
11
-6.43121623664089E-15
21
-6
31
0
210
0
220
0
230
1
40
0.996195
41
-0.219616963477619
42
-2.93064771577594E-06
0
ELLIPSE
5
110
100
AcDbEntity
8
1
62
256
6
ByLayer
370
-1
48
1
60
0
100
AcDbEllipse
10
75.264351
20
-4.720232
30
0
11
-0.0581290992922868
21
-0.65856497394445
31
0
210
0
220
0
230
-1
40
0.115224
41
0.00370845515529027
42
1.57450478195639
0
ELLIPSE
5
111
100
AcDbEntity
8
1
62
256
6
ByLayer
370
-1
48
1
60
0
100
AcDbEllipse
10
72.72822
20
-1.987078
30
0
11
1.2
21
0
31
0
210
0
220
0
230
1
40
0.998135
41
0
42
3.14159250110337
0
ELLIPSE
5
112
100
AcDbEntity
8
1
62
256
6
ByLayer
370
-1
48
1
60
0
100
AcDbEllipse
10
75.270798
20
0
30
0
11
-0.558240269668147
21
9.19975978753865
31
0
210
0
220
0
230
-1
40
0.119092
41
-2.05738830035555
42
-1.53533964620068
0
ELLIPSE
5
113
100
AcDbEntity
8
1
62
256
6
ByLayer
370
-1
48
1
60
0
100
AcDbEllipse
10
72.829376
20
6.252878
30
0
11
1.46431667789534E-15
21
1.25
31
0
210
0
220
0
230
1
40
0.996195
41
-1.80160505545351
42
0
0
ELLIPSE
5
114
100
AcDbEntity
8
1
62
256
6
ByLayer
370
-1
48
1
60
0
100
AcDbEllipse
10
72.829376
20
6.252878
30
0
11
1.46431667789534E-15
21
1.25
31
0
210
0
220
0
230
1
40
0.996195
41
0
42
0.963290731159636
0
ELLIPSE
5
115
100
AcDbEntity
8
1
62
256
6
ByLayer
370
-1
48
1
60
0
100
AcDbEllipse
10
75.267755
20
0
30
0
11
-0.674746092485009
21
9.19965419526712
31
0
210
0
220
0
230
-1
40
0.118213
41
-1.5338958936389
42
-1.39733887293566
0
ELLIPSE
5
116
100
AcDbEntity
8
1
62
256
6
ByLayer
370
-1
48
1
60
0
100
AcDbEllipse
10
74.799303
20
-5.681669
30
0
11
-0.100447538909701
21
-1.24734199653733
31
0
210
0
220
0
230
-1
40
0.125921
41
-2.74922297125664
42
2.83791328323782
0
ELLIPSE
5
117
100
AcDbEntity
8
1
62
256
6
ByLayer
370
-1
48
1
60
0
100
AcDbEllipse
10
56.478648
20
4.312002
30
0
11
-18.2308482416158
21
0.95906432112933
31
0
210
0
220
0
230
-1
40
0.000246
41
-3.13762500251732
42
-3.13692562665225
0
ELLIPSE
5
118
100
AcDbEntity
8
1
62
256
6
ByLayer
370
-1
48
1
60
0
100
AcDbEllipse
10
75.366425
20
0
30
0
11
-20.9346952318807
21
8.91546973966324
31
0
210
0
220
0
230
-1
40
0.108448
41
-1.13496368522718
42
-0.439186934888827
0
ELLIPSE
5
119
100
AcDbEntity
8
1
62
256
6
ByLayer
370
-1
48
1
60
0
100
AcDbEllipse
10
72.72822
20
-2.283163
30
0
11
-1.1
21
1.1117029605906E-15
31
0
210
0
220
0
230
1
40
0.998135
41
-3.00640582195795
42
-0.135284433923162
0
ELLIPSE
5
11A
100
AcDbEntity
8
1
62
256
6
ByLayer
370
-1
48
1
60
0
100
AcDbEllipse
10
70.607981
20
4.360815
30
0
11
1.58146201212697E-15
21
1.35
31
0
210
0
220
0
230
1
40
0.996195
41
1.60570291183478
42
1.8509328096783
0
ELLIPSE
5
11B
100
AcDbEntity
8
1
62
256
6
ByLayer
370
-1
48
1
60
0
100
AcDbEllipse
10
70.150808
20
7.033636
30
0
11
-0.579980162587933
21
-0.618336926409604
31
0
210
0
220
0
230
-1
40
0.04503
41
-0.739916138495856
42
-0.421202239123895
0
ELLIPSE
5
11C
100
AcDbEntity
8
1
62
256
6
ByLayer
370
-1
48
1
60
0
100
AcDbEllipse
10
70.859792
20
4.360815
30
0
11
-1.17794646133833
21
-1.04893007471945
31
0
210
0
220
0
230
-1
40
0.721468
41
-1.26712593957039
42
-0.133853100320665
0
ELLIPSE
5
11D
100
AcDbEntity
8
1
62
256
6
ByLayer
370
-1
48
1
60
0
100
AcDbEllipse
10
68.947409
20
3.977098
30
0
11
0.0280261150489236
21
-0.799508934831416
31
0
210
0
220
0
230
1
40
0.087103
41
0.0630727813209352
42
1.56774302595898
0
ELLIPSE
5
11E
100
AcDbEntity
8
1
62
256
6
ByLayer
370
-1
48
1
60
0
100
AcDbEllipse
10
73.073412
20
6.252878
30
0
11
1.2885986765479E-15
21
1.1
31
0
210
0
220
0
230
1
40
0.996195
41
0.105635868485064
42
1.57079627600051
0
ELLIPSE
5
11F
100
AcDbEntity
8
1
62
256
6
ByLayer
370
-1
48
1
60
0
100
AcDbEllipse
10
73.073412
20
6.252878
30
0
11
1.2885986765479E-15
21
1.1
31
0
210
0
220
0
230
1
40
0.996195
41
1.57079627600051
42
2.73328344413441
0
ELLIPSE
5
120
100
AcDbEntity
8
1
62
256
6
ByLayer
370
-1
48
1
60
0
100
AcDbEllipse
10
70.96334
20
5.81
30
0
11
-5.71846823476648
21
-3.46035026467666
31
0
210
0
220
0
230
-1
40
0.350878
41
-1.06898344935731
42
-0.963392865976826
0
ELLIPSE
5
121
100
AcDbEntity
8
1
62
256
6
ByLayer
370
-1
48
1
60
0
100
AcDbEllipse
10
70.776304
20
5.5351
30
0
11
-1.4470236532442E-15
21
-1.35
31
0
210
0
220
0
230
1
40
0.996195
41
-2.26960617922759
42
-1.53588974175501
0
ELLIPSE
5
122
100
AcDbEntity
8
1
62
256
6
ByLayer
370
-1
48
1
60
0
100
AcDbEllipse
10
6.923315
20
0
30
0
11
-163.618664855887
21
-8.8969580433371
31
0
210
0
220
0
230
-1
40
0.014313
41
-1.99296207229929
42
-1.9552007479833
0
ELLIPSE
5
123
100
AcDbEntity
8
1
62
256
6
ByLayer
370
-1
48
1
60
0
100
AcDbEllipse
10
67.257466
20
0
30
0
11
-30.1015781210664
21
-3.41080888514763E-14
31
0
210
0
220
0
230
-1
40
0.305632
41
1.50135209100103
42
1.5938836149039
0
ELLIPSE
5
124
100
AcDbEntity
8
1
62
256
6
ByLayer
370
-1
48
1
60
0
100
AcDbEllipse
10
75.946868
20
0
30
0
11
-0.756547704283293
21
-9.19950312513304
31
0
210
0
220
0
230
-1
40
0.126383
41
0.0148161276793703
42
1.06658485354102
0
ELLIPSE
5
125
100
AcDbEntity
8
1
62
256
6
ByLayer
370
-1
48
1
60
0
100
AcDbEllipse
10
75.344789
20
-3.762212
30
0
11
-0.199877710054841
21
0.00699292665720333
31
0
210
0
220
0
230
1
40
0.061011
41
0.525733317016736
42
1.57293086821336
0
ELLIPSE
5
126
100
AcDbEntity
8
1
62
256
6
ByLayer
370
-1
48
1
60
0
100
AcDbEllipse
10
72.878496
20
-2.49657
30
0
11
1.25
21
0
31
0
210
0
220
0
230
1
40
0.998135
41
1.31249859227146
42
2.92973164042547
0
ELLIPSE
5
127
100
AcDbEntity
8
1
62
256
6
ByLayer
370
-1
48
1
60
0
100
AcDbEllipse
10
72.878496
20
-2.49657
30
0
11
1.25
21
0
31
0
210
0
220
0
230
1
40
0.998135
41
-3.14159236752088
42
-3.55935187003812E-16
0
ELLIPSE
5
128
100
AcDbEntity
8
1
62
256
6
ByLayer
370
-1
48
1
60
0
100
AcDbEllipse
10
75.358667
20
-3.36554
30
0
11
-0.199877710054841
21
0.00699292665720333
31
0
210
0
220
0
230
1
40
0.061011
41
0.525733317016705
42
1.57293086821329
0
ELLIPSE
5
129
100
AcDbEntity
8
1
62
256
6
ByLayer
370
-1
48
1
60
0
100
AcDbEllipse
10
75.000305
20
-3.486324
30
0
11
1.00000000000004
21
0
31
0
210
0
220
0
230
1
40
0.998135
41
-0.034906585040106
42
0.441845940492531
0
ELLIPSE
5
12A
100
AcDbEntity
8
1
62
256
6
ByLayer
370
-1
48
1
60
0
100
AcDbEllipse
10
74.853886
20
-3.757311
30
0
11
-0.49120224503834
21
4.96428172779883E-16
31
0
210
0
220
0
230
1
40
0.998135
41
2.29977787734967
42
3.10668606854989
0
ELLIPSE
5
12B
100
AcDbEntity
8
1
62
256
6
ByLayer
370
-1
48
1
60
0
100
AcDbEllipse
10
74.853886
20
-3.751207
30
0
11
0.317997164281453
21
0
31
0
210
0
220
0
230
1
40
0.998135
41
-0.340738738996755
42
-0.0349065850398988
0
ELLIPSE
5
12C
100
AcDbEntity
8
1
62
256
6
ByLayer
370
-1
48
1
60
0
100
AcDbEllipse
10
77.712196
20
-2.20589
30
0
11
2.00000000000009
21
0
31
0
210
0
220
0
230
1
40
0.998135
41
-3.08923277501295
42
-2.69974671309689
0
ELLIPSE
5
12D
100
AcDbEntity
8
1
62
256
6
ByLayer
370
-1
48
1
60
0
100
AcDbEllipse
10
72.878496
20
-2.53351
30
0
11
1.25
21
0
31
0
210
0
220
0
230
1
40
0.998135
41
1.18231861927854
42
2.91402373555803
0
ELLIPSE
5
12E
100
AcDbEntity
8
1
62
256
6
ByLayer
370
-1
48
1
60
0
100
AcDbEllipse
10
72.878496
20
-2.53351
30
0
11
1.25
21
0
31
0
210
0
220
0
230
1
40
0.998135
41
-3.14159236752088
42
-3.55935187003812E-16
0
ELLIPSE
5
12F
100
AcDbEntity
8
1
62
256
6
ByLayer
370
-1
48
1
60
0
100
AcDbEllipse
10
74.51751
20
-0.932059
30
0
11
-0.49120224503834
21
4.96428172779883E-16
31
0
210
0
220
0
230
1
40
0.998135
41
-3.08923277602998
42
-2.89365829183897
0
ELLIPSE
5
130
100
AcDbEntity
8
1
62
256
6
ByLayer
370
-1
48
1
60
0
100
AcDbEllipse
10
75.313934
20
-3.143359
30
0
11
-0.18160533389647
21
-0.0837824725127621
31
0
210
0
220
0
230
1
40
0.055452
41
0.498021999161618
42
1.54521955035883
0
ELLIPSE
5
131
100
AcDbEntity
8
1
62
256
6
ByLayer
370
-1
48
1
60
0
100
AcDbEllipse
10
77.712196
20
-2.053269
30
0
11
2.64031606939949
21
0
31
0
210
0
220
0
230
1
40
0.998135
41
-3.08923277525973
42
-2.71005519262056
0
ELLIPSE
5
132
100
AcDbEntity
8
1
62
256
6
ByLayer
370
-1
48
1
60
0
100
AcDbEllipse
10
77.712196
20
-2.053269
30
0
11
2.54031606939949
21
0
31
0
210
0
220
0
230
1
40
0.998135
41
-3.0892327752294
42
-2.71005519262056
0
ELLIPSE
5
133
100
AcDbEntity
8
1
62
256
6
ByLayer
370
-1
48
1
60
0
100
AcDbEllipse
10
74.867764
20
-3.360639
30
0
11
-0.49120224503834
21
4.96428172779883E-16
31
0
210
0
220
0
230
1
40
0.998135
41
3.10668606854989
42
-2.71005519262057
0
ELLIPSE
5
134
100
AcDbEntity
8
1
62
256
6
ByLayer
370
-1
48
1
60
0
100
AcDbEllipse
10
74.51751
20
-0.932059
30
0
11
-0.59120224503834
21
5.97492078288119E-16
31
0
210
0
220
0
230
1
40
0.998135
41
-3.08923277602998
42
-2.47119166742836
0
ELLIPSE
5
135
100
AcDbEntity
8
1
62
256
6
ByLayer
370
-1
48
1
60
0
100
AcDbEllipse
10
75.181081
20
-4.110783
30
0
11
-0.133083669611859
21
0.149294128761454
31
0
210
0
220
0
230
1
40
0.040665
41
1.50826161297239
42
1.61638305710823
0
ELLIPSE
5
136
100
AcDbEntity
8
1
62
256
6
ByLayer
370
-1
48
1
60
0
100
AcDbEllipse
10
77.712196
20
-2.111265
30
0
11
2.19031606939965
21
0
31
0
210
0
220
0
230
1
40
0.998135
41
-3.08923277510136
42
-2.71005519262056
0
ELLIPSE
5
137
100
AcDbEntity
8
1
62
256
6
ByLayer
370
-1
48
1
60
0
100
AcDbEllipse
10
72.878496
20
-2.49657
30
0
11
1.35
21
0
31
0
210
0
220
0
230
1
40
0.998135
41
1.91754943129525
42
2.44945998222059
0
ELLIPSE
5
138
100
AcDbEntity
8
1
62
256
6
ByLayer
370
-1
48
1
60
0
100
AcDbEllipse
10
72.878496
20
-2.49657
30
0
11
1.35
21
0
31
0
210
0
220
0
230
1
40
0.998135
41
3.14159243501374
42
-3.29569617596124E-16
0
ELLIPSE
5
139
100
AcDbEntity
8
1
62
256
6
ByLayer
370
-1
48
1
60
0
100
AcDbEllipse
10
74.867764
20
-3.360639
30
0
11
-0.59120224503834
21
5.97492078288119E-16
31
0
210
0
220
0
230
1
40
0.998135
41
3.10668606854989
42
-2.71005519262057
0
ELLIPSE
5
13A
100
AcDbEntity
8
1
62
256
6
ByLayer
370
-1
48
1
60
0
100
AcDbEllipse
10
74.840089
20
-0.06479
30
0
11
0.500000000000144
21
0
31
0
210
0
220
0
230
1
40
0.998135
41
0.34906585039947
42
1.18358818823242
0
ELLIPSE
5
13B
100
AcDbEntity
8
1
62
256
6
ByLayer
370
-1
48
1
60
0
100
AcDbEllipse
10
74.867764
20
-3.354534
30
0
11
0.317997164281453
21
0
31
0
210
0
220
0
230
1
40
0.998135
41
-0.0349065850398988
42
0.43153746096924
0
ELLIPSE
5
13C
100
AcDbEntity
8
1
62
256
6
ByLayer
370
-1
48
1
60
0
100
AcDbEllipse
10
75.13945
20
-0.885744
30
0
11
0.49999999999999
21
0
31
0
210
0
220
0
230
1
40
0.998135
41
0.0523598775598215
42
0.349065850399582
0
ELLIPSE
5
13D
100
AcDbEntity
8
1
62
256
6
ByLayer
370
-1
48
1
60
0
100
AcDbEllipse
10
75.461611
20
-4.601021
30
0
11
0.500000000000144
21
0
31
0
210
0
220
0
230
1
40
0.998135
41
-1.22173047639544
42
-0.0349065850401087
0
ELLIPSE
5
13E
100
AcDbEntity
8
1
62
256
6
ByLayer
370
-1
48
1
60
0
100
AcDbEllipse
10
74.853886
20
-3.757311
30
0
11
-0.591202245038341
21
5.97492078288121E-16
31
0
210
0
220
0
230
1
40
0.998135
41
2.29977787734964
42
3.10668606854989
0
ELLIPSE
5
13F
100
AcDbEntity
8
1
62
256
6
ByLayer
370
-1
48
1
60
0
100
AcDbEllipse
10
77.712196
20
-2.047164
30
0
11
-2.81352115015638
21
2.84345435664829E-15
31
0
210
0
220
0
230
1
40
0.998135
41
0.394970503341746
42
0.431537460969232
0
ELLIPSE
5
140
100
AcDbEntity
8
1
62
256
6
ByLayer
370
-1
48
1
60
0
100
AcDbEllipse
10
74.696459
20
13.529988
30
0
11
1.16445136866418E-14
21
9.94022831811422
31
0
210
0
220
0
230
1
40
0.996195
41
-3.0877854465449
42
-3.07177948351001
0
ELLIPSE
5
141
100
AcDbEntity
8
1
62
256
6
ByLayer
370
-1
48
1
60
0
100
AcDbEllipse
10
70.824106
20
4.079914
30
0
11
-5.35934686386771E-15
21
-5.00000000000028
31
0
210
0
220
0
230
1
40
0.996195
41
1.58680228982978
42
1.59660228291657
0
ELLIPSE
5
142
100
AcDbEntity
8
1
62
256
6
ByLayer
370
-1
48
1
60
0
100
AcDbEllipse
10
75.370978
20
3.853617
30
0
11
-3.21560811832048E-16
21
-0.300000000000003
31
0
210
0
220
0
230
1
40
0.996195
41
0.069813170079752
42
0.296705972839048
0
ELLIPSE
5
143
100
AcDbEntity
8
1
62
256
6
ByLayer
370
-1
48
1
60
0
100
AcDbEllipse
10
70.237996
20
13.374371
30
0
11
-1.07186937277348E-14
21
-9.99999999999999
31
0
210
0
220
0
230
1
40
0.996195
41
0.0258059561216878
42
0.0349065850398881
0
ELLIPSE
5
144
100
AcDbEntity
8
1
62
256
6
ByLayer
370
-1
48
1
60
0
100
AcDbEllipse
10
70.157673
20
8.870405
30
0
11
-5.35934686386747E-16
21
-0.500000000000006
31
0
210
0
220
0
230
1
40
0.996195
41
-2.84488668075078
42
-1.79768912955417
0
ELLIPSE
5
145
100
AcDbEntity
8
1
62
256
6
ByLayer
370
-1
48
1
60
0
100
AcDbEllipse
10
75.138782
20
9.045014
30
0
11
-5.35934686386747E-16
21
-0.500000000000006
31
0
210
0
220
0
230
1
40
0.996195
41
1.8675022996339
42
2.91469985083048
0
ELLIPSE
5
146
100
AcDbEntity
8
1
62
256
6
ByLayer
370
-1
48
1
60
0
100
AcDbEllipse
10
70.23754
20
13.374371
30
0
11
1.16445136866421E-14
21
9.9402283181145
31
0
210
0
220
0
230
1
40
0.996195
41
-3.1157866974681
42
-3.11032524091619
0
ELLIPSE
5
147
100
AcDbEntity
8
1
62
256
6
ByLayer
370
-1
48
1
60
0
100
AcDbEllipse
10
75.138326
20
9.045014
30
0
11
5.15706934637614E-16
21
0.440228318114594
31
0
210
0
220
0
230
1
40
0.996195
41
-1.27409035395587
42
-0.22689280275929
0
ELLIPSE
5
148
100
AcDbEntity
8
1
62
256
6
ByLayer
370
-1
48
1
60
0
100
AcDbEllipse
10
72.781299
20
6.457642
30
0
11
-1.69826236850985E-15
21
-1.58439303486727
31
0
210
0
220
0
230
1
40
0.996195
41
0
42
6.28318530717959
0
ELLIPSE
5
149
100
AcDbEntity
8
1
62
256
6
ByLayer
370
-1
48
1
60
0
100
AcDbEllipse
10
74.806413
20
4.219527
30
0
11
5.78724697506073E-15
21
4.94022831811449
31
0
210
0
220
0
230
1
40
0.996195
41
1.61480354075301
42
1.62460353383979
0
ELLIPSE
5
14A
100
AcDbEntity
8
1
62
256
6
ByLayer
370
-1
48
1
60
0
100
AcDbEllipse
10
74.745214
20
13.532384
30
0
11
1.16445136866421E-14
21
9.9402283181145
31
0
210
0
220
0
230
1
40
0.996195
41
-3.10304688449064
42
-3.0975854396317
0
ELLIPSE
5
14B
100
AcDbEntity
8
1
62
256
6
ByLayer
370
-1
48
1
60
0
100
AcDbEllipse
10
70.141084
20
3.811795
30
0
11
-3.21560811832048E-16
21
-0.300000000000003
31
0
210
0
220
0
230
1
40
0.996195
41
-1.50098315671517
42
-1.27409035395589
0
ELLIPSE
5
14C
100
AcDbEntity
8
1
62
256
6
ByLayer
370
-1
48
1
60
0
100
AcDbEllipse
10
79.626629
20
8.915395
30
0
11
-1.07186937277344E-14
21
-9.99999999999964
31
0
210
0
220
0
230
1
40
0.996195
41
-1.5707963267949
42
-1.55479036376002
0
ELLIPSE
5
14D
100
AcDbEntity
8
1
62
256
6
ByLayer
370
-1
48
1
60
0
100
AcDbEllipse
10
79.626173
20
8.915395
30
0
11
1.16445136866418E-14
21
9.94022831811422
31
0
210
0
220
0
230
1
40
0.996195
41
1.57079632679489
42
1.58680228982978
0
ELLIPSE
5
14E
100
AcDbEntity
8
1
62
256
6
ByLayer
370
-1
48
1
60
0
100
AcDbEllipse
10
72.882921
20
6.457642
30
0
11
-1.33983671596685E-15
21
-1.25
31
0
210
0
220
0
230
1
40
0.996195
41
3.14159240058226
42
0
0
ELLIPSE
5
14F
100
AcDbEntity
8
1
62
256
6
ByLayer
370
-1
48
1
60
0
100
AcDbEllipse
10
72.882921
20
6.457642
30
0
11
-1.33983671596685E-15
21
-1.25
31
0
210
0
220
0
230
1
40
0.996195
41
0
42
0.0349505431244582
0
ELLIPSE
5
150
100
AcDbEntity
8
1
62
256
6
ByLayer
370
-1
48
1
60
0
100
AcDbEllipse
10
70.36652
20
8.376036
30
0
11
-5.35934686386771E-15
21
-5.00000000000028
31
0
210
0
220
0
230
1
40
0.996195
41
0.016005963034881
42
0.0258059561216735
0
ELLIPSE
5
151
100
AcDbEntity
8
1
62
256
6
ByLayer
370
-1
48
1
60
0
100
AcDbEllipse
10
79.625153
20
8.964385
30
0
11
1.16445136866421E-14
21
9.9402283181145
31
0
210
0
220
0
230
1
40
0.996195
41
1.59660228291658
42
1.6020637394685
0
ELLIPSE
5
152
100
AcDbEntity
8
1
62
256
6
ByLayer
370
-1
48
1
60
0
100
AcDbEllipse
10
70.286342
20
13.375395
30
0
11
1.16445136866418E-14
21
9.94022831811422
31
0
210
0
220
0
230
1
40
0.996195
41
3.14159265358979
42
-3.12558669055491
0
ELLIPSE
5
153
100
AcDbEntity
8
1
62
256
6
ByLayer
370
-1
48
1
60
0
100
AcDbEllipse
10
70.505601
20
4.378059
30
0
11
-5.35934686386771E-15
21
-5.00000000000028
31
0
210
0
220
0
230
1
40
0.996195
41
-3.09758543963168
42
-3.0877854465449
0
ELLIPSE
5
154
100
AcDbEntity
8
1
62
256
6
ByLayer
370
-1
48
1
60
0
100
AcDbEllipse
10
74.646294
20
8.835369
30
0
11
-5.35934686386771E-15
21
-5.00000000000028
31
0
210
0
220
0
230
1
40
0.996195
41
-1.55479036376002
42
-1.54499037067323
0
ELLIPSE
5
155
100
AcDbEntity
8
1
62
256
6
ByLayer
370
-1
48
1
60
0
100
AcDbEllipse
10
79.625609
20
8.964385
30
0
11
-1.07186937277348E-14
21
-9.99999999999999
31
0
210
0
220
0
230
1
40
0.996195
41
-1.54499037067321
42
-1.53588974175501
0
ELLIPSE
5
156
100
AcDbEntity
8
1
62
256
6
ByLayer
370
-1
48
1
60
0
100
AcDbEllipse
10
70.286798
20
3.675395
30
0
11
-3.21560811832048E-16
21
-0.300000000000003
31
0
210
0
220
0
230
1
40
0.996195
41
-0.226892802759225
42
4.75504451611787E-14
0
ELLIPSE
5
157
100
AcDbEntity
8
1
62
256
6
ByLayer
370
-1
48
1
60
0
100
AcDbEllipse
10
70.66353
20
8.695757
30
0
11
-5.35934686386771E-15
21
-5.00000000000028
31
0
210
0
220
0
230
1
40
0.996195
41
1.614803540753
42
1.62460353383979
0
ELLIPSE
5
158
100
AcDbEntity
8
1
62
256
6
ByLayer
370
-1
48
1
60
0
100
AcDbEllipse
10
70.773484
20
-0.614705
30
0
11
-1.07186937277344E-14
21
-9.99999999999964
31
0
210
0
220
0
230
1
40
0.996195
41
-3.0877854465449
42
-3.07177948351001
0
ELLIPSE
5
159
100
AcDbEntity
8
1
62
256
6
ByLayer
370
-1
48
1
60
0
100
AcDbEllipse
10
75.329315
20
9.103488
30
0
11
-3.21560811832048E-16
21
-0.300000000000003
31
0
210
0
220
0
230
1
40
0.996195
41
1.64060949687463
42
1.8675022996339
0
ELLIPSE
5
15A
100
AcDbEntity
8
1
62
256
6
ByLayer
370
-1
48
1
60
0
100
AcDbEllipse
10
75.312726
20
4.044878
30
0
11
-5.35934686386747E-16
21
-0.500000000000006
31
0
210
0
220
0
230
1
40
0.996195
41
0.296705972839047
42
1.34390352403562
0
ELLIPSE
5
15B
100
AcDbEntity
8
1
62
256
6
ByLayer
370
-1
48
1
60
0
100
AcDbEllipse
10
70.773029
20
-0.614705
30
0
11
1.16445136866418E-14
21
9.94022831811422
31
0
210
0
220
0
230
1
40
0.996195
41
0.0538072070448956
42
0.0698131700797859
0
ELLIPSE
5
15C
100
AcDbEntity
8
1
62
256
6
ByLayer
370
-1
48
1
60
0
100
AcDbEllipse
10
75.183145
20
9.239888
30
0
11
2.81416266174359E-16
21
0.240228318114594
31
0
210
0
220
0
230
1
40
0.996195
41
-0.226892802759265
42
-5.93815652555542E-14
0
ELLIPSE
5
15D
100
AcDbEntity
8
1
62
256
6
ByLayer
370
-1
48
1
60
0
100
AcDbEllipse
10
70.099421
20
9.061666
30
0
11
-3.21560811832048E-16
21
-0.300000000000003
31
0
210
0
220
0
230
1
40
0.996195
41
-3.07177948351009
42
-2.84488668075079
0
ELLIPSE
5
15E
100
AcDbEntity
8
1
62
256
6
ByLayer
370
-1
48
1
60
0
100
AcDbEllipse
10
75.506859
20
3.999888
30
0
11
-3.21560811832048E-16
21
-0.300000000000003
31
0
210
0
220
0
230
1
40
0.996195
41
1.34390352403567
42
1.5707963267949
0
ELLIPSE
5
15F
100
AcDbEntity
8
1
62
256
6
ByLayer
370
-1
48
1
60
0
100
AcDbEllipse
10
70.331162
20
3.870269
30
0
11
5.15706934637614E-16
21
0.440228318114594
31
0
210
0
220
0
230
1
40
0.996195
41
1.86750229963392
42
2.9146998508305
0
ELLIPSE
5
160
100
AcDbEntity
8
1
62
256
6
ByLayer
370
-1
48
1
60
0
100
AcDbEllipse
10
70.157217
20
8.870405
30
0
11
5.15706934637614E-16
21
0.440228318114594
31
0
210
0
220
0
230
1
40
0.996195
41
0.296705972839016
42
1.34390352403561
0
ELLIPSE
5
161
100
AcDbEntity
8
1
62
256
6
ByLayer
370
-1
48
1
60
0
100
AcDbEllipse
10
70.724729
20
-0.617101
30
0
11
-1.07186937277348E-14
21
-9.99999999999999
31
0
210
0
220
0
230
1
40
0.996195
41
-3.10668606854991
42
-3.09758543963171
0
ELLIPSE
5
162
100
AcDbEntity
8
1
62
256
6
ByLayer
370
-1
48
1
60
0
100
AcDbEllipse
10
65.687379
20
8.475792
30
0
11
-1.07186937277348E-14
21
-9.99999999999999
31
0
210
0
220
0
230
1
40
0.996195
41
1.60570291183478
42
1.61480354075299
0
ELLIPSE
5
163
100
AcDbEntity
8
1
62
256
6
ByLayer
370
-1
48
1
60
0
100
AcDbEllipse
10
65.84377
20
3.999888
30
0
11
-1.07186937277344E-14
21
-9.99999999999964
31
0
210
0
220
0
230
1
40
0.996195
41
1.57079632679489
42
1.58680228982978
0
ELLIPSE
5
164
100
AcDbEntity
8
1
62
256
6
ByLayer
370
-1
48
1
60
0
100
AcDbEllipse
10
69.963541
20
8.915395
30
0
11
-3.21560811832048E-16
21
-0.300000000000003
31
0
210
0
220
0
230
1
40
0.996195
41
-1.79768912955412
42
-1.5707963267949
0
ELLIPSE
5
165
100
AcDbEntity
8
1
62
256
6
ByLayer
370
-1
48
1
60
0
100
AcDbEllipse
10
74.964342
20
8.537225
30
0
11
5.78724697506073E-15
21
4.94022831811449
31
0
210
0
220
0
230
1
40
0.996195
41
-3.09758543963169
42
-3.0877854465449
0
ELLIPSE
5
166
100
AcDbEntity
8
1
62
256
6
ByLayer
370
-1
48
1
60
0
100
AcDbEllipse
10
70.286342
20
3.675395
30
0
11
2.81416266174359E-16
21
0.240228318114594
31
0
210
0
220
0
230
1
40
0.996195
41
2.91469985083058
42
-3.14159265358973
0
ELLIPSE
5
167
100
AcDbEntity
8
1
62
256
6
ByLayer
370
-1
48
1
60
0
100
AcDbEllipse
10
75.231948
20
-0.459088
30
0
11
1.16445136866421E-14
21
9.9402283181145
31
0
210
0
220
0
230
1
40
0.996195
41
0.0258059561216875
42
0.0312674126735999
0
ELLIPSE
5
168
100
AcDbEntity
8
1
62
256
6
ByLayer
370
-1
48
1
60
0
100
AcDbEllipse
10
65.689765
20
8.42685
30
0
11
-1.07186937277344E-14
21
-9.99999999999964
31
0
210
0
220
0
230
1
40
0.996195
41
1.62460353383979
42
1.64060949687468
0
ELLIPSE
5
169
100
AcDbEntity
8
1
62
256
6
ByLayer
370
-1
48
1
60
0
100
AcDbEllipse
10
75.328859
20
9.103488
30
0
11
2.81416266174359E-16
21
0.240228318114594
31
0
210
0
220
0
230
1
40
0.996195
41
-1.50098315671512
42
-1.27409035395586
0
ELLIPSE
5
16A
100
AcDbEntity
8
1
62
256
6
ByLayer
370
-1
48
1
60
0
100
AcDbEllipse
10
70.366064
20
8.376036
30
0
11
5.78724697506073E-15
21
4.94022831811449
31
0
210
0
220
0
230
1
40
0.996195
41
-3.12558669055491
42
-3.11578669746812
0
ELLIPSE
5
16B
100
AcDbEntity
8
1
62
256
6
ByLayer
370
-1
48
1
60
0
100
AcDbEllipse
10
74.696915
20
13.529988
30
0
11
-1.07186937277344E-14
21
-9.99999999999964
31
0
210
0
220
0
230
1
40
0.996195
41
0.0538072070448962
42
0.069813170079785
0
ELLIPSE
5
16C
100
AcDbEntity
8
1
62
256
6
ByLayer
370
-1
48
1
60
0
100
AcDbEllipse
10
74.806869
20
4.219527
30
0
11
-5.35934686386771E-15
21
-5.00000000000028
31
0
210
0
220
0
230
1
40
0.996195
41
-1.52678911283679
42
-1.51698911975
0
ELLIPSE
5
16D
100
AcDbEntity
8
1
62
256
6
ByLayer
370
-1
48
1
60
0
100
AcDbEllipse
10
72.717768
20
6.457642
30
0
11
1.98450509329016E-15
21
1.69405389152441
31
0
210
0
220
0
230
1
40
0.996195
41
0
42
6.28318530717959
0
ELLIPSE
5
16E
100
AcDbEntity
8
1
62
256
6
ByLayer
370
-1
48
1
60
0
100
AcDbEllipse
10
75.103879
20
4.539247
30
0
11
-5.35934686386771E-15
21
-5.00000000000028
31
0
210
0
220
0
230
1
40
0.996195
41
-3.12558669055492
42
-3.11578669746812
0
ELLIPSE
5
16F
100
AcDbEntity
8
1
62
256
6
ByLayer
370
-1
48
1
60
0
100
AcDbEllipse
10
70.82365
20
4.079914
30
0
11
5.78724697506073E-15
21
4.94022831811449
31
0
210
0
220
0
230
1
40
0.996195
41
-1.55479036376002
42
-1.54499037067323
0
ELLIPSE
5
170
100
AcDbEntity
8
1
62
256
6
ByLayer
370
-1
48
1
60
0
100
AcDbEllipse
10
65.84479
20
3.950899
30
0
11
-1.07186937277348E-14
21
-9.99999999999999
31
0
210
0
220
0
230
1
40
0.996195
41
1.59660228291658
42
1.60570291183478
0
ELLIPSE
5
171
100
AcDbEntity
8
1
62
256
6
ByLayer
370
-1
48
1
60
0
100
AcDbEllipse
10
65.844335
20
3.950899
30
0
11
1.16445136866421E-14
21
9.9402283181145
31
0
210
0
220
0
230
1
40
0.996195
41
-1.54499037067321
42
-1.5395289141213
0
ELLIPSE
5
172
100
AcDbEntity
8
1
62
256
6
ByLayer
370
-1
48
1
60
0
100
AcDbEllipse
10
70.663074
20
8.695757
30
0
11
5.78724697506073E-15
21
4.94022831811449
31
0
210
0
220
0
230
1
40
0.996195
41
-1.52678911283679
42
-1.51698911975
0
ELLIPSE
5
173
100
AcDbEntity
8
1
62
256
6
ByLayer
370
-1
48
1
60
0
100
AcDbEllipse
10
72.761243
20
6.457642
30
0
11
-1.77841723412775E-15
21
-1.65917347701247
31
0
210
0
220
0
230
1
40
0.996195
41
2.21551000470675
42
0
0
ELLIPSE
5
174
100
AcDbEntity
8
1
62
256
6
ByLayer
370
-1
48
1
60
0
100
AcDbEllipse
10
72.761243
20
6.457642
30
0
11
-1.77841723412775E-15
21
-1.65917347701247
31
0
210
0
220
0
230
1
40
0.996195
41
0
42
0.926082326066338
0
ELLIPSE
5
175
100
AcDbEntity
8
1
62
256
6
ByLayer
370
-1
48
1
60
0
100
AcDbEllipse
10
75.370522
20
3.853617
30
0
11
2.81416266174359E-16
21
0.240228318114594
31
0
210
0
220
0
230
1
40
0.996195
41
-3.07177948351001
42
-2.84488668075072
0
ELLIPSE
5
176
100
AcDbEntity
8
1
62
256
6
ByLayer
370
-1
48
1
60
0
100
AcDbEllipse
10
70.098966
20
9.061666
30
0
11
2.81416266174359E-16
21
0.240228318114594
31
0
210
0
220
0
230
1
40
0.996195
41
0.0698131700797844
42
0.296705972838989
0
ELLIPSE
5
177
100
AcDbEntity
8
1
62
256
6
ByLayer
370
-1
48
1
60
0
100
AcDbEllipse
10
79.780178
20
4.488433
30
0
11
1.16445136866418E-14
21
9.94022831811422
31
0
210
0
220
0
230
1
40
0.996195
41
1.62460353383979
42
1.64060949687468
0
ELLIPSE
5
178
100
AcDbEntity
8
1
62
256
6
ByLayer
370
-1
48
1
60
0
100
AcDbEllipse
10
75.31227
20
4.044878
30
0
11
5.15706934637614E-16
21
0.440228318114594
31
0
210
0
220
0
230
1
40
0.996195
41
-2.84488668075075
42
-1.79768912955418
0
ELLIPSE
5
179
100
AcDbEntity
8
1
62
256
6
ByLayer
370
-1
48
1
60
0
100
AcDbEllipse
10
69.963085
20
8.915395
30
0
11
2.81416266174359E-16
21
0.240228318114594
31
0
210
0
220
0
230
1
40
0.996195
41
1.34390352403567
42
1.5707963267949
0
ELLIPSE
5
17A
100
AcDbEntity
8
1
62
256
6
ByLayer
370
-1
48
1
60
0
100
AcDbEllipse
10
74.964798
20
8.537225
30
0
11
-5.35934686386771E-15
21
-5.00000000000028
31
0
210
0
220
0
230
1
40
0.996195
41
0.0440072139581043
42
0.0538072070448957
0
ELLIPSE
5
17B
100
AcDbEntity
8
1
62
256
6
ByLayer
370
-1
48
1
60
0
100
AcDbEllipse
10
65.843314
20
3.999888
30
0
11
1.16445136866418E-14
21
9.94022831811422
31
0
210
0
220
0
230
1
40
0.996195
41
-1.5707963267949
42
-1.55479036376002
0
ELLIPSE
5
17C
100
AcDbEntity
8
1
62
256
6
ByLayer
370
-1
48
1
60
0
100
AcDbEllipse
10
75.183601
20
9.239888
30
0
11
-3.21560811832048E-16
21
-0.300000000000003
31
0
210
0
220
0
230
1
40
0.996195
41
2.91469985083052
42
-3.14159265358975
0
ELLIPSE
5
17D
100
AcDbEntity
8
1
62
256
6
ByLayer
370
-1
48
1
60
0
100
AcDbEllipse
10
65.686923
20
8.475792
30
0
11
1.16445136866421E-14
21
9.9402283181145
31
0
210
0
220
0
230
1
40
0.996195
41
-1.53225055769574
42
-1.52678911283681
0
ELLIPSE
5
17E
100
AcDbEntity
8
1
62
256
6
ByLayer
370
-1
48
1
60
0
100
AcDbEllipse
10
75.506403
20
3.999888
30
0
11
2.81416266174359E-16
21
0.240228318114594
31
0
210
0
220
0
230
1
40
0.996195
41
-1.79768912955413
42
-1.5707963267949
0
ELLIPSE
5
17F
100
AcDbEntity
8
1
62
256
6
ByLayer
370
-1
48
1
60
0
100
AcDbEllipse
10
70.286798
20
13.375395
30
0
11
-1.07186937277344E-14
21
-9.99999999999964
31
0
210
0
220
0
230
1
40
0.996195
41
0
42
0.0160059630348794
0
ELLIPSE
5
180
100
AcDbEntity
8
1
62
256
6
ByLayer
370
-1
48
1
60
0
100
AcDbEllipse
10
75.232404
20
-0.459088
30
0
11
-1.07186937277348E-14
21
-9.99999999999999
31
0
210
0
220
0
230
1
40
0.996195
41
-3.11578669746811
42
-3.1066860685499
0
ELLIPSE
5
181
100
AcDbEntity
8
1
62
256
6
ByLayer
370
-1
48
1
60
0
100
AcDbEllipse
10
74.74567
20
13.532384
30
0
11
-1.07186937277348E-14
21
-9.99999999999999
31
0
210
0
220
0
230
1
40
0.996195
41
0.0349065850398898
42
0.0440072139580896
0
ELLIPSE
5
182
100
AcDbEntity
8
1
62
256
6
ByLayer
370
-1
48
1
60
0
100
AcDbEllipse
10
75.183601
20
-0.460112
30
0
11
-1.07186937277344E-14
21
-9.99999999999964
31
0
210
0
220
0
230
1
40
0.996195
41
3.14159265358979
42
-3.12558669055492
0
ELLIPSE
5
183
100
AcDbEntity
8
1
62
256
6
ByLayer
370
-1
48
1
60
0
100
AcDbEllipse
10
72.944373
20
6.457642
30
0
11
1.46431667789534E-15
21
1.25
31
0
210
0
220
0
230
1
40
0.996195
41
0.0349500371117705
42
1.57079634872777
0
ELLIPSE
5
184
100
AcDbEntity
8
1
62
256
6
ByLayer
370
-1
48
1
60
0
100
AcDbEllipse
10
72.944373
20
6.457642
30
0
11
1.46431667789534E-15
21
1.25
31
0
210
0
220
0
230
1
40
0.996195
41
1.57079634872777
42
3.1168526777092
0
ELLIPSE
5
185
100
AcDbEntity
8
1
62
256
6
ByLayer
370
-1
48
1
60
0
100
AcDbEllipse
10
79.78302
20
4.439492
30
0
11
-1.07186937277348E-14
21
-9.99999999999999
31
0
210
0
220
0
230
1
40
0.996195
41
-1.53588974175501
42
-1.52678911283681
0
ELLIPSE
5
186
100
AcDbEntity
8
1
62
256
6
ByLayer
370
-1
48
1
60
0
100
AcDbEllipse
10
70.505146
20
4.378059
30
0
11
5.78724697506073E-15
21
4.94022831811449
31
0
210
0
220
0
230
1
40
0.996195
41
0.0440072139581095
42
0.0538072070448983
0
ELLIPSE
5
187
100
AcDbEntity
8
1
62
256
6
ByLayer
370
-1
48
1
60
0
100
AcDbEllipse
10
79.782565
20
4.439492
30
0
11
1.16445136866421E-14
21
9.9402283181145
31
0
210
0
220
0
230
1
40
0.996195
41
1.60934209589405
42
1.61480354075299
0
ELLIPSE
5
188
100
AcDbEntity
8
1
62
256
6
ByLayer
370
-1
48
1
60
0
100
AcDbEllipse
10
79.780634
20
4.488433
30
0
11
-1.07186937277344E-14
21
-9.99999999999964
31
0
210
0
220
0
230
1
40
0.996195
41
-1.51698911975
42
-1.50098315671511
0
ELLIPSE
5
189
100
AcDbEntity
8
1
62
256
6
ByLayer
370
-1
48
1
60
0
100
AcDbEllipse
10
74.645838
20
8.835369
30
0
11
5.78724697506073E-15
21
4.94022831811449
31
0
210
0
220
0
230
1
40
0.996195
41
1.58680228982978
42
1.59660228291657
0
ELLIPSE
5
18A
100
AcDbEntity
8
1
62
256
6
ByLayer
370
-1
48
1
60
0
100
AcDbEllipse
10
70.724274
20
-0.617101
30
0
11
1.16445136866421E-14
21
9.9402283181145
31
0
210
0
220
0
230
1
40
0.996195
41
0.0385457690991516
42
0.0440072139580895
0
ELLIPSE
5
18B
100
AcDbEntity
8
1
62
256
6
ByLayer
370
-1
48
1
60
0
100
AcDbEllipse
10
70.140628
20
3.811795
30
0
11
2.81416266174359E-16
21
0.240228318114594
31
0
210
0
220
0
230
1
40
0.996195
41
1.64060949687468
42
1.86750229963393
0
ELLIPSE
5
18C
100
AcDbEntity
8
1
62
256
6
ByLayer
370
-1
48
1
60
0
100
AcDbEllipse
10
65.68931
20
8.42685
30
0
11
1.16445136866418E-14
21
9.94022831811422
31
0
210
0
220
0
230
1
40
0.996195
41
-1.51698911975
42
-1.50098315671511
0
ELLIPSE
5
18D
100
AcDbEntity
8
1
62
256
6
ByLayer
370
-1
48
1
60
0
100
AcDbEllipse
10
70.331617
20
3.870269
30
0
11
-5.35934686386747E-16
21
-0.500000000000006
31
0
210
0
220
0
230
1
40
0.996195
41
-1.27409035395586
42
-0.226892802759265
0
ELLIPSE
5
18E
100
AcDbEntity
8
1
62
256
6
ByLayer
370
-1
48
1
60
0
100
AcDbEllipse
10
75.183145
20
-0.460112
30
0
11
1.16445136866418E-14
21
9.94022831811422
31
0
210
0
220
0
230
1
40
0.996195
41
0
42
0.016005963034882
0
ELLIPSE
5
18F
100
AcDbEntity
8
1
62
256
6
ByLayer
370
-1
48
1
60
0
100
AcDbEllipse
10
75.103423
20
4.539247
30
0
11
5.78724697506073E-15
21
4.94022831811449
31
0
210
0
220
0
230
1
40
0.996195
41
0.0160059630348814
42
0.0258059561216742
0
POINT
5
41
100
AcDbEntity
8
81
62
256
6
ByLayer
370
-1
48
1
60
0
100
AcDbPoint
10
76
20
0
30
0
39
0
210
0
220
0
230
1
50
360
0
POINT
5
43
100
AcDbEntity
8
80
62
256
6
ByLayer
370
-1
48
1
60
0
100
AcDbPoint
10
0
20
0
30
0
39
0
210
0
220
0
230
1
50
360
0
SPLINE
5
190
100
AcDbEntity
8
1
62
256
6
ByLayer
370
-1
48
1
60
0
100
AcDbSpline
70
4
71
3
72
13
73
9
40
0
40
0
40
0
40
0
40
0.0903231682067179
40
0.30041449103641
40
0.509918601624678
40
0.71869925429984
40
0.926824337169942
40
1
40
1
40
1
40
1
41
1
10
71.6637140758127
20
-2.22995786837262
30
0
41
1
10
71.6760432078143
20
-2.18395559136869
30
0
41
1
10
71.7276388811697
20
-2.03299461097023
30
0
41
1
10
71.8535146295452
20
-1.79517461076304
30
0
41
1
10
72.0858462577502
20
-1.5531186210726
30
0
41
1
10
72.3722368535961
20
-1.3803232545024
30
0
41
1
10
72.6257731301847
20
-1.30831904520573
30
0
41
1
10
72.7738993528019
20
-1.29371547197189
30
0
41
1
10
72.8128614820956
20
-1.29166023157163
30
0
0
SPLINE
5
191
100
AcDbEntity
8
1
62
256
6
ByLayer
370
-1
48
1
60
0
100
AcDbSpline
70
4
71
3
72
10
73
6
40
0
40
0
40
0
40
0
40
0.17750856199834
40
0.734232776727805
40
1
40
1
40
1
40
1
41
1
10
72.8128614820956
20
-1.29166023157163
30
0
41
1
10
72.8479895995646
20
-1.28983408963975
30
0
41
1
10
72.9925272550131
20
-1.28828136229663
30
0
41
1
10
73.1899729515578
20
-1.32064329909639
30
0
41
1
10
73.3424624490831
20
-1.3775923745032
30
0
41
1
10
73.3903514731781
20
-1.39897983239175
30
0
0
SPLINE
5
192
100
AcDbEntity
8
1
62
256
6
ByLayer
370
-1
48
1
60
0
100
AcDbSpline
70
4
71
3
72
18
73
14
40
0
40
0
40
0
40
0
40
0.113327792981363
40
0.22979015101198
40
0.347227712012244
40
0.463371528044874
40
0.576767439091393
40
0.652537380466363
40
0.727117086489916
40
0.79889449375117
40
0.867214466174596
40
0.933096083071944
40
1
40
1
40
1
40
1
41
1
10
16
20
9.19999999999996
30
0
41
1
10
15.484070365815
20
9.20089688947292
30
0
41
1
10
14.4598421707957
20
9.29874860319268
30
0
41
1
10
12.9511246018428
20
9.74665938232241
30
0
41
1
10
11.5560170701916
20
10.4883642011921
30
0
41
1
10
10.3305816456452
20
11.472428410572
30
0
41
1
10
9.47898330624497
20
12.5546574403911
30
0
41
1
10
8.78775307654394
20
13.5156771481039
30
0
41
1
10
8.15289823251007
20
14.2865699621645
30
0
41
1
10
7.4737841998485
20
14.9742717426939
30
0
41
1
10
6.7311796031891
20
15.5318462404322
30
0
41
1
10
5.8969346695603
20
15.9136037985976
30
0
41
1
10
5.30872055607301
20
15.9961304495914
30
0
41
1
10
5.00000000000003
20
16
30
0
0
SPLINE
5
193
100
AcDbEntity
8
1
62
256
6
ByLayer
370
-1
48
1
60
0
100
AcDbSpline
70
4
71
3
72
18
73
14
40
0
40
0
40
0
40
0
40
0.0713948708751119
40
0.141969029216505
40
0.21561947773063
40
0.293179348064276
40
0.377365283270321
40
0.46145140533115
40
0.544827968910934
40
0.659045857250696
40
0.774396388548389
40
0.888728092075383
40
1
40
1
40
1
40
1
41
1
10
4.99999999999997
20
-16
30
0
41
1
10
5.3304091674317
20
-15.9948089144084
30
0
41
1
10
5.95844118704599
20
-15.9011323298289
30
0
41
1
10
6.84274137684625
20
-15.4666766050752
30
0
41
1
10
7.62299616858252
20
-14.8417645200658
30
0
41
1
10
8.34565587178938
20
-14.0667144535564
30
0
41
1
10
9.03031473526789
20
-13.1996774280016
30
0
41
1
10
9.67102179403102
20
-12.2674893983884
30
0
41
1
10
10.5173988949965
20
-11.3215285044045
30
0
41
1
10
11.6259609916728
20
-10.4422598998809
30
0
41
1
10
13.0048992111719
20
-9.72744936373823
30
0
41
1
10
14.4876491839013
20
-9.29510238772517
30
0
41
1
10
15.4936528654608
20
-9.20083363003999
30
0
41
1
10
16
20
-9.20000000000002
30
0
0
SPLINE
5
194
100
AcDbEntity
8
1
62
256
6
ByLayer
370
-1
48
1
60
0
100
AcDbSpline
70
4
71
3
72
20
73
16
40
0
40
0
40
0
40
0
40
0.0347374990023815
40
0.120502631827179
40
0.206067200958307
40
0.291145710003046
40
0.37562889856496
40
0.459578796341628
40
0.543191442056232
40
0.626736727364868
40
0.710411131649137
40
0.794456105681994
40
0.879037736605698
40
0.964188749141105
40
1
40
1
40
1
40
1
41
1
10
72.8539413402318
20
7.69669804283433
30
0
41
1
10
72.8984578417648
20
7.70228797528833
30
0
41
1
10
73.0515593486994
20
7.71086441051759
30
0
41
1
10
73.3121619356793
20
7.64329084350436
30
0
41
1
10
73.6060202007445
20
7.49066621943831
30
0
41
1
10
73.8492510525923
20
7.26124183709348
30
0
41
1
10
74.0241344911732
20
6.97675952151874
30
0
41
1
10
74.1187917886884
20
6.65628109284864
30
0
41
1
10
74.1271262373661
20
6.3227753683048
30
0
41
1
10
74.0491268923602
20
5.99933053803068
30
0
41
1
10
73.8906668780721
20
5.70809966994051
30
0
41
1
10
73.6627148032614
20
5.46875137421955
30
0
41
1
10
73.3810236133219
20
5.29749006428801
30
0
41
1
10
73.12498676132
20
5.22396759633054
30
0
41
1
10
72.9717243875123
20
5.21002290858465
30
0
41
1
10
72.9257941515957
20
5.20839283554926
30
0
0
SPLINE
5
195
100
AcDbEntity
8
1
62
256
6
ByLayer
370
-1
48
1
60
0
100
AcDbSpline
70
4
71
3
72
15
73
11
40
0
40
0
40
0
40
0
40
0.189429797003918
40
0.378859594007836
40
0.568289391011754
40
0.663004289513713
40
0.757719188015672
40
0.852434086517631
40
0.94714898501959
40
1
40
1
40
1
40
1
41
1
10
63.9998592667699
20
5.20999999999987
30
0
41
1
10
63.757235051193
20
5.19773402715967
30
0
41
1
10
63.2718141173507
20
5.17181681613073
30
0
41
1
10
62.5432307715059
20
5.12823720232984
30
0
41
1
10
61.9364493847667
20
5.08761122048111
30
0
41
1
10
61.4514914820256
20
5.05240713529335
30
0
41
1
10
61.0880047806564
20
5.02461305539447
30
0
41
1
10
60.724387379839
20
4.99539340193945
30
0
41
1
10
60.4138822521563
20
4.96924696242317
30
0
41
1
10
60.2246299501821
20
4.95274264054962
30
0
41
1
10
60.1568319536757
20
4.94675712203048
30
0
0
SPLINE
5
196
100
AcDbEntity
8
1
62
256
6
ByLayer
370
-1
48
1
60
0
100
AcDbSpline
70
4
71
2
72
6
73
3
40
0
40
0
40
0
40
1
40
1
40
1
41
1
10
15.2191822794228
20
-6.48853272237668
30
0
41
1
10
15.2191822794228
20
-6.78642015600769
30
0
41
1
10
15.2191822794228
20
-7.08430758963874
30
0
0
SPLINE
5
197
100
AcDbEntity
8
1
62
256
6
ByLayer
370
-1
48
1
60
0
100
AcDbSpline
70
4
71
3
72
10
73
6
40
0
40
0
40
0
40
0
40
0.5
40
0.5
40
1
40
1
40
1
40
1
41
1
10
69.5725829093475
20
6.41275936952704
30
0
41
1
10
69.5759976318988
20
6.41275936952704
30
0
41
1
10
69.5829651112343
20
6.41708086767892
30
0
41
1
10
69.6033651879932
20
6.43301271414666
30
0
41
1
10
69.6168588050598
20
6.4446718729485
30
0
41
1
10
69.6329033828897
20
6.45866541057185
30
0
0
SPLINE
5
198
100
AcDbEntity
8
1
62
256
6
ByLayer
370
-1
48
1
60
0
100
AcDbSpline
70
4
71
3
72
24
73
20
40
0
40
0
40
0
40
0
40
0.155285531269668
40
0.155285531269668
40
0.310571062539335
40
0.310571062539335
40
0.465856593809003
40
0.465856593809003
40
0.504677976626421
40
0.504677976626421
40
0.543499359443838
40
0.543499359443838
40
0.621142125078672
40
0.621142125078672
40
0.776427656348339
40
0.776427656348339
40
0.931713187618007
40
0.931713187618007
40
1
40
1
40
1
40
1
41
1
10
16
20
-7.24836303021053
30
0
41
1
10
17.7611804379362
20
-7.68571315094826
30
0
41
1
10
19.5117078903052
20
-8.05582442721717
30
0
41
1
10
23.0046185118754
20
-8.64716317988194
30
0
41
1
10
24.7470977935694
20
-8.86835145249083
30
0
41
1
10
28.2365855033861
20
-9.15258217519974
30
0
41
1
10
29.9834161495483
20
-9.21568784492305
30
0
41
1
10
32.1775884129888
20
-9.19194584970711
30
0
41
1
10
32.6169574468356
20
-9.182076209591
30
0
41
1
10
33.4969713147262
20
-9.15204201619341
30
0
41
1
10
33.9371045612478
20
-9.13188628309481
30
0
41
1
10
35.254780664964
20
-9.05633249396664
30
0
41
1
10
36.1309589103471
20
-8.98580371610743
30
0
41
1
10
38.7549782739162
20
-8.71567465510864
30
0
41
1
10
40.4981432614503
20
-8.45728837009213
30
0
41
1
10
43.9849627991125
20
-7.79668509096794
30
0
41
1
10
45.7287370670247
20
-7.39460571983923
30
0
41
1
10
48.2491710327718
20
-6.72472628583151
30
0
41
1
10
49.0203105797932
20
-6.50791499165624
30
0
41
1
10
49.7932472522811
20
-6.27959941809635
30
0
0
SPLINE
5
199
100
AcDbEntity
8
1
62
256
6
ByLayer
370
-1
48
1
60
0
100
AcDbSpline
70
4
71
3
72
22
73
18
40
0
40
0
40
0
40
0
40
0.125
40
0.125
40
0.25
40
0.25
40
0.375
40
0.375
40
0.5
40
0.5
40
0.625
40
0.625
40
0.6875
40
0.6875
40
0.75
40
0.75
40
1
40
1
40
1
40
1
41
1
10
6.84125695141006
20
-0.0502384782161016
30
0
41
1
10
6.73109751991336
20
0.199454829880238
30
0
41
1
10
6.64436043232129
20
0.458864512316325
30
0
41
1
10
6.49983206602442
20
0.989778783257577
30
0
41
1
10
6.44232417201371
20
1.26188981880875
30
0
41
1
10
6.34885617385757
20
1.81337573711193
30
0
41
1
10
6.31369360575047
20
2.08795873665991
30
0
41
1
10
6.25928427634403
20
2.63509128374381
30
0
41
1
10
6.24011357627356
20
2.90763409077113
30
0
41
1
10
6.21330977259788
20
3.45072336082791
30
0
41
1
10
6.20570498421012
20
3.72126722054148
30
0
41
1
10
6.20052358867568
20
4.12554103677701
30
0
41
1
10
6.19984503775703
20
4.26003973082743
30
0
41
1
10
6.20021369971991
20
4.52668466105513
30
0
41
1
10
6.2012570221772
20
4.65907217796547
30
0
41
1
10
6.20989743367076
20
5.31655057827786
30
0
41
1
10
6.22745483743995
20
5.82836351560044
30
0
41
1
10
6.24746595475887
20
6.32775506527366
30
0
0
SPLINE
5
19A
100
AcDbEntity
8
1
62
256
6
ByLayer
370
-1
48
1
60
0
100
AcDbSpline
70
4
71
3
72
8
73
4
40
0
40
0
40
0
40
0
40
1
40
1
40
1
40
1
41
1
10
68.9311133273985
20
3.17758489535549
30
0
41
1
10
68.9399029041596
20
3.17790688943865
30
0
41
1
10
68.9486640152809
20
3.17822802792003
30
0
41
1
10
68.9573966643247
20
3.17854831090671
30
0
0
SPLINE
5
19B
100
AcDbEntity
8
1
62
256
6
ByLayer
370
-1
48
1
60
0
100
AcDbSpline
70
4
71
3
72
8
73
4
40
0
40
0
40
0
40
0
40
1
40
1
40
1
40
1
41
1
10
16
20
-7.24836303021053
30
0
41
1
10
15.7400292925066
20
-7.18380506791354
30
0
41
1
10
15.4796122645819
20
-7.12922283235702
30
0
41
1
10
15.2191822794228
20
-7.08430758965676
30
0
0
SPLINE
5
19C
100
AcDbEntity
8
1
62
256
6
ByLayer
370
-1
48
1
60
0
100
AcDbSpline
70
4
71
3
72
14
73
10
40
0
40
0
40
0
40
0
40
0.25
40
0.25
40
0.5
40
0.5
40
0.75
40
0.75
40
1
40
1
40
1
40
1
41
1
10
69.4837083906071
20
9.19994555203499
30
0
41
1
10
69.4878619569053
20
9.20010909516026
30
0
41
1
10
69.4975374754267
20
9.1998998529784
30
0
41
1
10
69.5275332101771
20
9.19886336618572
30
0
41
1
10
69.5481531135514
20
9.19802226292973
30
0
41
1
10
69.5982023196189
20
9.19598831020417
30
0
41
1
10
69.6280566429235
20
9.19478006721633
30
0
41
1
10
69.6959983416876
20
9.19229037110216
30
0
41
1
10
69.7334509140956
20
9.19103212767843
30
0
41
1
10
69.7744299176194
20
9.18988646180097
30
0
0
SPLINE
5
19D
100
AcDbEntity
8
1
62
256
6
ByLayer
370
-1
48
1
60
0
100
AcDbSpline
70
4
71
3
72
18
73
14
40
0
40
0
40
0
40
0
40
0.0443192370882592
40
0.0443192370882592
40
0.362879491392172
40
0.362879491392172
40
0.522159618544129
40
0.522159618544129
40
0.601799682120107
40
0.601799682120107
40
0.681439745696085
40
0.681439745696085
40
1
40
1
40
1
40
1
41
1
10
40.2956064682091
20
9.19998785857953
30
0
41
1
10
40.5266879758961
20
9.20003315853484
30
0
41
1
10
40.7577323795687
20
9.19865245581661
30
0
41
1
10
42.6493220368015
20
9.17565207325237
30
0
41
1
10
44.3090959004228
20
9.08175208976928
30
0
41
1
10
46.8062506235424
20
8.83372963474855
30
0
41
1
10
47.6398586937248
20
8.73323144491658
30
0
41
1
10
48.8929197014396
20
8.55615092543411
30
0
41
1
10
49.3110410731501
20
8.49272700935359
30
0
41
1
10
50.1483171162339
20
8.35716817976356
30
0
41
1
10
50.5677849577738
20
8.28497608842278
30
0
41
1
10
52.6635351354788
20
7.90341171532177
30
0
41
1
10
54.3349756611177
20
7.53221873374611
30
0
41
1
10
56.0073653263317
20
7.10401816689972
30
0
0
SPLINE
5
19E
100
AcDbEntity
8
1
62
256
6
ByLayer
370
-1
48
1
60
0
100
AcDbSpline
70
4
71
3
72
14
73
10
40
0
40
0
40
0
40
0
40
0.359445398031828
40
0.359445398031828
40
0.718890796063655
40
0.718890796063655
40
0.898613495079568
40
0.898613495079568
40
1
40
1
40
1
40
1
41
1
10
6.84125695141006
20
3.03122343941868
30
0
41
1
10
6.7183232954952
20
3.32289110457842
30
0
41
1
10
6.61236118459718
20
3.6173491634045
30
0
41
1
10
6.43309337033912
20
4.20714370371283
30
0
41
1
10
6.35966615579648
20
4.50255066182498
30
0
41
1
10
6.2771247693241
20
4.94113096071672
30
0
41
1
10
6.25455518740935
20
5.08525743334803
30
0
41
1
10
6.22796662713117
20
5.30354920881697
30
0
41
1
10
6.22011912812707
20
5.38097685853924
30
0
41
1
10
6.21412167207353
20
5.45693437068547
30
0
0
SPLINE
5
19F
100
AcDbEntity
8
1
62
256
6
ByLayer
370
-1
48
1
60
0
100
AcDbSpline
70
4
71
3
72
32
73
28
40
0
40
0
40
0
40
0
40
0.124999999999998
40
0.124999999999998
40
0.187499999999997
40
0.187499999999997
40
0.249999999999996
40
0.249999999999996
40
0.374999999999994
40
0.374999999999994
40
0.437499999999993
40
0.437499999999993
40
0.499999999999992
40
0.499999999999992
40
0.531249999999992
40
0.531249999999992
40
0.546874999999992
40
0.546874999999992
40
0.562499999999992
40
0.562499999999992
40
0.624999999999993
40
0.624999999999993
40
0.749999999999995
40
0.749999999999995
40
0.874999999999998
40
0.874999999999998
40
1
40
1
40
1
40
1
41
1
10
6.84125695141003
20
-0.0502384782160448
30
0
41
1
10
7.02444211799036
20
-0.424516822608098
30
0
41
1
10
7.21226261112807
20
-0.777225865613843
30
0
41
1
10
7.50282658334265
20
-1.27237019319031
30
0
41
1
10
7.60115900146459
20
-1.43175189672925
30
0
41
1
10
7.80114380988809
20
-1.7388384155642
30
0
41
1
10
7.90304904759941
20
-1.88679090298484
30
0
41
1
10
8.20763371007448
20
-2.30409690375703
30
0
41
1
10
8.41129274050533
20
-2.55018879350413
30
0
41
1
10
8.71912731634512
20
-2.87971453633909
30
0
41
1
10
8.82231123052134
20
-2.98314950273363
30
0
41
1
10
9.02870374443435
20
-3.17787238088624
30
0
41
1
10
9.13170245327453
20
-3.2689965201966
30
0
41
1
10
9.28617110242595
20
-3.39844800418487
30
0
41
1
10
9.33765527572524
20
-3.4403940376105
30
0
41
1
10
9.41490246349764
20
-3.50178452794339
30
0
41
1
10
9.44065526540606
20
-3.52199749007124
30
0
41
1
10
9.49218191025
20
-3.5621390675409
30
0
41
1
10
9.51794239118391
20
-3.58181961989891
30
0
41
1
10
9.64698708415702
20
-3.68300846045426
30
0
41
1
10
9.75092870892439
20
-3.77183502111436
30
0
41
1
10
10.0640387695985
20
-4.05446810747296
30
0
41
1
10
10.2742658975956
20
-4.2638999885086
30
0
41
1
10
10.6938302880502
20
-4.69701039914514
30
0
41
1
10
10.9035579390277
20
-4.92125706570573
30
0
41
1
10
11.3225950155482
20
-5.37036023147348
30
0
41
1
10
11.531931414958
20
-5.59534688971189
30
0
41
1
10
11.7412569514101
20
-5.8162767975156
30
0
0
SPLINE
5
1A0
100
AcDbEntity
8
1
62
256
6
ByLayer
370
-1
48
1
60
0
100
AcDbSpline
70
4
71
3
72
14
73
10
40
0
40
0
40
0
40
0
40
0.249999999999997
40
0.249999999999997
40
0.374999999999998
40
0.374999999999998
40
0.499999999999998
40
0.499999999999998
40
1
40
1
40
1
40
1
41
1
10
13.4516396709569
20
-5.60167257107494
30
0
41
1
10
13.5781169162518
20
-5.70561775929295
30
0
41
1
10
13.7103296009857
20
-5.80261156870233
30
0
41
1
10
13.917698081926
20
-5.93758803965835
30
0
41
1
10
13.9883315670884
20
-5.9808240444317
30
0
41
1
10
14.1327280666782
20
-6.06372052175459
30
0
41
1
10
14.2064981527776
20
-6.10336352190444
30
0
41
1
10
14.5788902556762
20
-6.29028309332989
30
0
41
1
10
14.8914448788717
20
-6.40611353351014
30
0
41
1
10
15.2191826218638
20
-6.48853088226653
30
0
0
SPLINE
5
1A1
100
AcDbEntity
8
1
62
256
6
ByLayer
370
-1
48
1
60
0
100
AcDbSpline
70
4
71
3
72
18
73
14
40
0
40
0
40
0
40
0
40
0.125000000000004
40
0.125000000000004
40
0.250000000000008
40
0.250000000000008
40
0.375000000000011
40
0.375000000000011
40
0.500000000000015
40
0.500000000000015
40
0.750000000000008
40
0.750000000000008
40
1
40
1
40
1
40
1
41
1
10
66.6567683018091
20
4.45593870589306
30
0
41
1
10
66.6279637052431
20
4.44343550645817
30
0
41
1
10
66.6001713547471
20
4.42918531381989
30
0
41
1
10
66.5473012581797
20
4.39599652787192
30
0
41
1
10
66.5219171733549
20
4.37674311762038
30
0
41
1
10
66.4772094159044
20
4.33360654306338
30
0
41
1
10
66.4574805084995
20
4.30926112199495
30
0
41
1
10
66.4265482024961
20
4.25725368378335
30
0
41
1
10
66.4153441746452
20
4.2297899870137
30
0
41
1
10
66.394298424829
20
4.14506212922191
30
0
41
1
10
66.3976204725961
20
4.08866169062668
30
0
41
1
10
66.4225279403503
20
3.9846337736665
30
0
41
1
10
66.4442043750724
20
3.93565488091213
30
0
41
1
10
66.4706601203021
20
3.88997885465943
30
0
0
SPLINE
5
1A2
100
AcDbEntity
8
1
62
256
6
ByLayer
370
-1
48
1
60
0
100
AcDbSpline
70
4
71
3
72
8
73
4
40
0
40
0
40
0
40
0
40
1
40
1
40
1
40
1
41
1
10
11.708189082246
20
8.14738901653723
30
0
41
1
10
13.7350180538509
20
6.19118451606593
30
0
41
1
10
15.6878253616065
20
4.2304698215577
30
0
41
1
10
17.6081890822439
20
2.30287872055163
30
0
0
SPLINE
5
1A3
100
AcDbEntity
8
1
62
256
6
ByLayer
370
-1
48
1
60
0
100
AcDbSpline
70
4
71
3
72
38
73
34
40
0
40
0
40
0
40
0
40
0.0624999999999995
40
0.0624999999999995
40
0.124999999999999
40
0.124999999999999
40
0.187499999999999
40
0.187499999999999
40
0.249999999999998
40
0.249999999999998
40
0.312499999999998
40
0.312499999999998
40
0.343749999999998
40
0.343749999999998
40
0.374999999999998
40
0.374999999999998
40
0.499999999999998
40
0.499999999999998
40
0.531249999999998
40
0.531249999999998
40
0.562499999999998
40
0.562499999999998
40
0.624999999999999
40
0.624999999999999
40
0.687499999999999
40
0.687499999999999
40
0.749999999999999
40
0.749999999999999
40
0.812499999999999
40
0.812499999999999
40
0.875
40
0.875
40
1
40
1
40
1
40
1
41
1
10
17.6081890822443
20
5.66139940258998
30
0
41
1
10
18.6129510322721
20
5.34133815265866
30
0
41
1
10
19.6145378390465
20
5.00635233369914
30
0
41
1
10
21.6132978616281
20
4.31114425851439
30
0
41
1
10
22.6108402804084
20
3.95176765814784
30
0
41
1
10
24.6033501859379
20
3.2121886280988
30
0
41
1
10
25.598562215118
20
2.83255259343454
30
0
41
1
10
27.588531126218
20
2.05744013075176
30
0
41
1
10
28.5835672338906
20
1.66263143225004
30
0
41
1
10
30.5763657010857
20
0.864976820620143
30
0
41
1
10
31.5738554315145
20
0.461435788428787
30
0
41
1
10
33.073839299468
20
-0.145653949845979
30
0
41
1
10
33.5744657091313
20
-0.348292502116664
30
0
41
1
10
34.5772596270758
20
-0.753413631751414
30
0
41
1
10
35.0797971892416
20
-0.956053677168427
30
0
41
1
10
37.5893567063711
20
-1.96376035817474
30
0
41
1
10
39.5912535416618
20
-2.75364563211141
30
0
41
1
10
42.0988776348332
20
-3.69096366916264
30
0
41
1
10
42.6005771120452
20
-3.8761323821432
30
0
41
1
10
43.6048299816401
20
-4.24070384939057
30
0
41
1
10
44.1071783359505
20
-4.42003384780608
30
0
41
1
10
45.6126137949721
20
-4.94706848920035
30
0
41
1
10
46.6151791626036
20
-5.28413607801292
30
0
41
1
10
48.6202928563675
20
-5.92560433253402
30
0
41
1
10
49.6230432631551
20
-6.22961257840214
30
0
41
1
10
51.6308004676553
20
-6.8006804903732
30
0
41
1
10
52.636564456685
20
-7.06820471618465
30
0
41
1
10
54.6411018474374
20
-7.55892189273447
30
0
41
1
10
55.6413440715549
20
-7.78234461209246
30
0
41
1
10
57.6388744394888
20
-8.18393172044526
30
0
41
1
10
58.6368188668491
20
-8.36123630612704
30
0
41
1
10
61.6308729450082
20
-8.8199431888626
30
0
41
1
10
63.6266756919135
20
-9.02788905207737
30
0
41
1
10
65.6340165074545
20
-9.12872540386786
30
0
0
SPLINE
5
1A4
100
AcDbEntity
8
1
62
256
6
ByLayer
370
-1
48
1
60
0
100
AcDbSpline
70
4
71
3
72
28
73
24
40
0
40
0
40
0
40
0
40
0.0391630753383508
40
0.0925429044862203
40
0.145922733634089
40
0.199302562781959
40
0.252682391929828
40
0.306062221077698
40
0.359442050225567
40
0.386131964799502
40
0.412821879373437
40
0.466201708521306
40
0.519581537669176
40
0.572961366817045
40
0.626341195964914
40
0.679721025112784
40
0.786480683408522
40
0.839860512556392
40
0.87322290577381
40
0.893240341704261
40
0.913257777634712
40
0.94662017085213
40
1
40
1
40
1
40
1
41
1
10
31.8354339745996
20
0.355350502015767
30
0
41
1
10
31.6497660488498
20
0.383533225580038
30
0
41
1
10
31.2110416408209
20
0.450039064042244
30
0
41
1
10
30.5193104898762
20
0.554460615659167
30
0
41
1
10
29.7602938734907
20
0.668179937442375
30
0
41
1
10
29.0012290428179
20
0.781047925669924
30
0
41
1
10
28.2417075654624
20
0.893234338181202
30
0
41
1
10
27.4820396916636
20
1.00478786722272
30
0
41
1
10
26.8490957556936
20
1.09687231249998
30
0
41
1
10
26.3428368232531
20
1.16976914244793
30
0
41
1
10
25.8365175866159
20
1.24204918972453
30
0
41
1
10
25.2033173824169
20
1.3314647168491
30
0
41
1
10
24.4433915196517
20
1.43738544378763
30
0
41
1
10
23.6837172930205
20
1.54151512131136
30
0
41
1
10
22.9240533267052
20
1.64370184140447
30
0
41
1
10
21.9102908442337
20
1.77747824731498
30
0
41
1
10
20.8967790933592
20
1.90791342557392
30
0
41
1
10
19.979513825299
20
2.02228166009039
30
0
41
1
10
19.4737882539649
20
2.08398264506389
30
0
41
1
10
19.1262764267081
20
2.12578286082055
30
0
41
1
10
18.778740268173
20
2.16713187756528
30
0
41
1
10
18.2728914011687
20
2.22652828402784
30
0
41
1
10
17.861504369121
20
2.27397593683432
30
0
41
1
10
17.6081890822468
20
2.30287872055089
30
0
0
SPLINE
5
1A5
100
AcDbEntity
8
1
62
256
6
ByLayer
370
-1
48
1
60
0
100
AcDbSpline
70
4
71
3
72
8
73
4
40
0
40
0
40
0
40
0
40
1
40
1
40
1
40
1
41
1
10
65.796847106755
20
2.22033962842016
30
0
41
1
10
65.7982820712767
20
2.21978712772506
30
0
41
1
10
65.7997168385725
20
2.21923515132343
30
0
41
1
10
65.8011514086613
20
2.21868369916462
30
0
0
SPLINE
5
1A6
100
AcDbEntity
8
1
62
256
6
ByLayer
370
-1
48
1
60
0
100
AcDbSpline
70
4
71
3
72
8
73
4
40
0
40
0
40
0
40
0
40
1
40
1
40
1
40
1
41
1
10
68.2270468816067
20
-9.18839496592551
30
0
41
1
10
68.4572522785508
20
-9.19144151852205
30
0
41
1
10
68.6819728806441
20
-9.19473712800217
30
0
41
1
10
68.9012014608135
20
-9.19707682303275
30
0
0
SPLINE
5
1A7
100
AcDbEntity
8
1
62
256
6
ByLayer
370
-1
48
1
60
0
100
AcDbSpline
70
4
71
3
72
8
73
4
40
0
40
0
40
0
40
0
40
1
40
1
40
1
40
1
41
1
10
15.3937349015246
20
-6.52917634898216
30
0
41
1
10
15.3354780718822
20
-6.51677816461248
30
0
41
1
10
15.2772967474929
20
-6.50322999397596
30
0
41
1
10
15.2191822794228
20
-6.48853079615171
30
0
0
SPLINE
5
1A8
100
AcDbEntity
8
1
62
256
6
ByLayer
370
-1
48
1
60
0
100
AcDbSpline
70
4
71
3
72
8
73
4
40
0
40
0
40
0
40
0
40
1
40
1
40
1
40
1
41
1
10
68.6965838582189
20
2.18745982383069
30
0
41
1
10
68.4453027971801
20
2.10836100115998
30
0
41
1
10
68.1915666753654
20
2.04282424141223
30
0
41
1
10
67.9386428469177
20
1.99031048649985
30
0
0
SPLINE
5
1A9
100
AcDbEntity
8
1
62
256
6
ByLayer
370
-1
48
1
60
0
100
AcDbSpline
70
4
71
3
72
79
73
75
40
-0.031250000000004
40
-0.031250000000004
40
0
40
0
40
0.0312499999999889
40
0.0312499999999889
40
0.0468749999999837
40
0.0468749999999837
40
0.0624999999999786
40
0.0624999999999786
40
0.0937499999999681
40
0.0937499999999681
40
0.124999999999958
40
0.124999999999958
40
0.156249999999947
40
0.156249999999947
40
0.171874999999942
40
0.171874999999942
40
0.187499999999937
40
0.187499999999937
40
0.218749999999931
40
0.218749999999931
40
0.249999999999926
40
0.249999999999926
40
0.28124999999992
40
0.28124999999992
40
0.312499999999915
40
0.312499999999915
40
0.328124999999915
40
0.328124999999915
40
0.343749999999914
40
0.343749999999914
40
0.374999999999918
40
0.374999999999918
40
0.406249999999923
40
0.406249999999923
40
0.437499999999927
40
0.437499999999927
40
0.468749999999931
40
0.468749999999931
40
0.499999999999935
40
0.499999999999935
40
0.531249999999939
40
0.531249999999939
40
0.562499999999943
40
0.562499999999943
40
0.593749999999948
40
0.593749999999948
40
0.624999999999952
40
0.624999999999952
40
0.656249999999956
40
0.656249999999956
40
0.68749999999996
40
0.68749999999996
40
0.718749999999964
40
0.718749999999964
40
0.749999999999968
40
0.749999999999968
40
0.76562499999997
40
0.76562499999997
40
0.781249999999972
40
0.796874999999974
40
0.796874999999974
40
0.812499999999976
40
0.812499999999976
40
0.84374999999998
40
0.84374999999998
40
0.874999999999984
40
0.874999999999984
40
0.906249999999988
40
0.906249999999988
40
0.937499999999992
40
0.937499999999992
40
0.968749999999996
40
0.968749999999996
40
1
40
1
40
1.03124999999999
40
1.03124999999999
41
1
10
71.5339346379316
20
-2.05675046948247
30
0
41
1
10
71.5257950233192
20
-1.89902349581868
30
0
41
1
10
71.529253977156
20
-1.82079887669261
30
0
41
1
10
71.5455319159911
20
-1.70441693967905
30
0
41
1
10
71.5528187986263
20
-1.66578352780652
30
0
41
1
10
71.5712366290276
20
-1.58885480827297
30
0
41
1
10
71.5824403191116
20
-1.55039431430248
30
0
41
1
10
71.6212700213869
20
-1.43791175717229
30
0
41
1
10
71.6541482746003
20
-1.36613500634661
30
0
41
1
10
71.7339469038448
20
-1.22910557804039
30
0
41
1
10
71.7814741278526
20
-1.16334489045374
30
0
41
1
10
71.8871580322011
20
-1.04424110744449
30
0
41
1
10
71.9455303724136
20
-0.990242793875325
30
0
41
1
10
72.041579018143
20
-0.917825742596591
30
0
41
1
10
72.0751599051634
20
-0.895065793296425
30
0
41
1
10
72.1437228072657
20
-0.853482583284233
30
0
41
1
10
72.1788570039943
20
-0.834525967668014
30
0
41
1
10
72.2867715676576
20
-0.783070360179465
30
0
41
1
10
72.3624575136014
20
-0.755828821273383
30
0
41
1
10
72.5190342991152
20
-0.716930736261133
30
0
41
1
10
72.5980891635739
20
-0.705638196507039
30
0
41
1
10
72.7576861785477
20
-0.698894090685883
30
0
41
1
10
72.8390955888416
20
-0.703674865865338
30
0
41
1
10
72.9971383277857
20
-0.729172996230091
30
0
41
1
10
73.0742177768892
20
-0.749691293184668
30
0
41
1
10
73.1868952613299
20
-0.792218454143892
30
0
41
1
10
73.2241105524128
20
-0.808461174907819
30
0
41
1
10
73.2959541826783
20
-0.844242777056451
30
0
41
1
10
73.3307549318885
20
-0.86382850435453
30
0
41
1
10
73.4318663504037
20
-0.927551120862404
30
0
41
1
10
73.4952061046869
20
-0.976883807126995
30
0
41
1
10
73.6115451719521
20
-1.08803844978283
30
0
41
1
10
73.6632342635427
20
-1.14849575512912
30
0
41
1
10
73.754183290016
20
-1.27869099771615
30
0
41
1
10
73.7937059432685
20
-1.34924497774804
30
0
41
1
10
73.857273626489
20
-1.49448290424766
30
0
41
1
10
73.8816928156234
20
-1.5694062241968
30
0
41
1
10
73.9160221749016
20
-1.72372787117556
30
0
41
1
10
73.925679377432
20
-1.80285448489039
30
0
41
1
10
73.9298716736126
20
-1.95907747697061
30
0
41
1
10
73.9246158210333
20
-2.03697686418562
30
0
41
1
10
73.8991230385153
20
-2.19235112180593
30
0
41
1
10
73.8792623629997
20
-2.26752156282302
30
0
41
1
10
73.8260172061251
20
-2.41296718621746
30
0
41
1
10
73.792260831756
20
-2.48385398935739
30
0
41
1
10
73.7120440204258
20
-2.61772307187914
30
0
41
1
10
73.6661043755413
20
-2.68011909765545
30
0
41
1
10
73.5625166624523
20
-2.79596711857579
30
0
41
1
10
73.5040957010178
20
-2.84993638520106
30
0
41
1
10
73.3788242657075
20
-2.94461684324048
30
0
41
1
10
73.3120317298648
20
-2.98558046476529
30
0
41
1
10
73.1697694494832
20
-3.05439181976212
30
0
41
1
10
73.0936033314318
20
-3.08224177620241
30
0
41
1
10
72.9394594879394
20
-3.12132104883449
30
0
41
1
10
72.8607188190161
20
-3.13305777169006
30
0
41
1
10
72.7399789320871
20
-3.13842410810867
30
0
41
1
10
72.6993851110851
20
-3.13812080213131
30
0
41
1
10
72.6193838423221
20
-3.13341108062144
30
0
41
1
10
72.5400534849044
20
-3.12463261165533
30
0
41
1
10
72.4620385414445
20
-3.10786370193779
30
0
41
1
10
72.384686905355
20
-3.08705301310013
30
0
41
1
10
72.3462572100298
20
-3.07456785358713
30
0
41
1
10
72.2345815326991
20
-3.03193653011479
30
0
41
1
10
72.1640270451024
20
-2.99647662584243
30
0
41
1
10
72.030361585295
20
-2.91193221547829
30
0
41
1
10
71.9676983786766
20
-2.86291321703112
30
0
41
1
10
71.8545481783113
20
-2.75540687495169
30
0
41
1
10
71.8031434547617
20
-2.6961890808906
30
0
41
1
10
71.7121831145799
20
-2.56852577420833
30
0
41
1
10
71.6734324236155
20
-2.5013424195852
30
0
41
1
10
71.6087942134
20
-2.36043482321537
30
0
41
1
10
71.5827775070842
20
-2.28601680374473
30
0
41
1
10
71.5454278711356
20
-2.13415713661601
30
0
41
1
10
71.5339346379316
20
-2.05675046948247
30
0
41
1
10
71.5257950233192
20
-1.89902349581868
30
0
0
SPLINE
5
1AA
100
AcDbEntity
8
1
62
256
6
ByLayer
370
-1
48
1
60
0
100
AcDbSpline
70
4
71
3
72
10
73
6
40
0
40
0
40
0
40
0
40
0.5
40
0.5
40
1
40
1
40
1
40
1
41
1
10
63.9998592667699
20
9.12779510925176
30
0
41
1
10
64.2088005251176
20
9.13459318365176
30
0
41
1
10
64.4104915745162
20
9.14296226102249
30
0
41
1
10
64.8000750976143
20
9.16051560535757
30
0
41
1
10
64.9879667012421
20
9.16971077690241
30
0
41
1
10
65.1687641862645
20
9.17782540490117
30
0
0
SPLINE
5
1AB
100
AcDbEntity
8
1
62
256
6
ByLayer
370
-1
48
1
60
0
100
AcDbSpline
70
4
71
3
72
16
73
12
40
0
40
0
40
0
40
0
40
0.249999999999999
40
0.249999999999999
40
0.374999999999999
40
0.374999999999999
40
0.499999999999999
40
0.499999999999999
40
0.749999999999999
40
0.749999999999999
40
1
40
1
40
1
40
1
41
1
10
16
20
6.40552219184363
30
0
41
1
10
15.6478938381515
20
6.54120752288841
30
0
41
1
10
15.2893959879818
20
6.67707453687078
30
0
41
1
10
14.7431692236355
20
6.88807155357941
30
0
41
1
10
14.5590784050811
20
6.95987246817054
30
0
41
1
10
14.1919129748751
20
7.10595089426468
30
0
41
1
10
14.0089496198778
20
7.1801794276524
30
0
41
1
10
13.4627691580261
20
7.40833735672137
30
0
41
1
10
13.1022542296557
20
7.56772109876655
30
0
41
1
10
12.3931180317031
20
7.91156509839701
30
0
41
1
10
12.0431127997784
20
8.09698013599049
30
0
41
1
10
11.708189082246
20
8.29640466921194
30
0
0
SPLINE
5
1AC
100
AcDbEntity
8
1
62
256
6
ByLayer
370
-1
48
1
60
0
100
AcDbSpline
70
4
71
3
72
56
73
52
40
0
40
0
40
0
40
0
40
0.0624999999999995
40
0.0624999999999995
40
0.124999999999999
40
0.124999999999999
40
0.156249999999999
40
0.156249999999999
40
0.187499999999998
40
0.187499999999998
40
0.203124999999998
40
0.203124999999998
40
0.218749999999998
40
0.218749999999998
40
0.249999999999998
40
0.249999999999998
40
0.312499999999998
40
0.312499999999998
40
0.374999999999999
40
0.374999999999999
40
0.437499999999999
40
0.437499999999999
40
0.468749999999999
40
0.468749999999999
40
0.499999999999999
40
0.499999999999999
40
0.531249999999999
40
0.531249999999999
40
0.546874999999999
40
0.546874999999999
40
0.562499999999999
40
0.562499999999999
40
0.624999999999999
40
0.624999999999999
40
0.656249999999999
40
0.656249999999999
40
0.687499999999999
40
0.687499999999999
40
0.718749999999999
40
0.718749999999999
40
0.749999999999999
40
0.749999999999999
40
0.8125
40
0.8125
40
0.875
40
0.875
40
0.90625
40
0.90625
40
0.9375
40
0.9375
40
1
40
1
40
1
40
1
41
1
10
11.7081890822442
20
8.29640466920844
30
0
41
1
10
11.4606414147375
20
8.45562678956995
30
0
41
1
10
11.2222442268376
20
8.61131416154345
30
0
41
1
10
10.7647823046835
20
8.92259803301798
30
0
41
1
10
10.5456827780226
20
9.07812886797723
30
0
41
1
10
10.2321007156776
20
9.31518194216835
30
0
41
1
10
10.1299269874416
20
9.39496772251374
30
0
41
1
10
9.93341524032363
20
9.55416135262846
30
0
41
1
10
9.83870611217031
20
9.6338375383915
30
0
41
1
10
9.70172510842059
20
9.75396381767374
30
0
41
1
10
9.65691289740306
20
9.79410752402433
30
0
41
1
10
9.56895656425525
20
9.87467744913999
30
0
41
1
10
9.52604907510255
20
9.91528922450692
30
0
41
1
10
9.39796602308576
20
10.0362321708836
30
0
41
1
10
9.31281861192164
20
10.1151805894657
30
0
41
1
10
9.05600981814862
20
10.3450509600713
30
0
41
1
10
8.8833550618543
20
10.4893948715751
30
0
41
1
10
8.52970481872546
20
10.7520757804118
30
0
41
1
10
8.34874358640698
20
10.8705379362789
30
0
41
1
10
7.97253429316027
20
11.0683474703483
30
0
41
1
10
7.78110180887424
20
11.145482541103
30
0
41
1
10
7.48901421493099
20
11.2157829121271
30
0
41
1
10
7.39044785671965
20
11.231649548612
30
0
41
1
10
7.19331472687608
20
11.2453234639421
30
0
41
1
10
7.09600058356421
20
11.2430827649076
30
0
41
1
10
6.90469633938602
20
11.2195525359113
30
0
41
1
10
6.810705137951
20
11.1982655506408
30
0
41
1
10
6.67301670289848
20
11.15139169684
30
0
41
1
10
6.62767237960739
20
11.133276407957
30
0
41
1
10
6.53824945513244
20
11.0919476086386
30
0
41
1
10
6.49399820399228
20
11.0686185068957
30
0
41
1
10
6.27948835344864
20
10.9408997095084
30
0
41
1
10
6.12796809235911
20
10.803345649966
30
0
41
1
10
5.93335819438843
20
10.5526574582984
30
0
41
1
10
5.87404933289005
20
10.4615411709723
30
0
41
1
10
5.76930146935621
20
10.270259782175
30
0
41
1
10
5.7234218466057
20
10.1695810241941
30
0
41
1
10
5.64429993634525
20
9.95935318948065
30
0
41
1
10
5.61099425374599
20
9.84951853260378
30
0
41
1
10
5.55731125941307
20
9.62285050482762
30
0
41
1
10
5.53713906384542
20
9.50706033549469
30
0
41
1
10
5.49548572501033
20
9.15316331958812
30
0
41
1
10
5.49277412895955
20
8.9083510706993
30
0
41
1
10
5.53521268232819
20
8.40318446073852
30
0
41
1
10
5.5798148742827
20
8.1488994995739
30
0
41
1
10
5.6773681234229
20
7.76308408899013
30
0
41
1
10
5.71501916032921
20
7.63372924983557
30
0
41
1
10
5.80003644326635
20
7.37300856334417
30
0
41
1
10
5.84761336492625
20
7.24117584364629
30
0
41
1
10
6.00138713848779
20
6.84834802194496
30
0
41
1
10
6.11902292489563
20
6.58830207717503
30
0
41
1
10
6.24746595475887
20
6.32775506527372
30
0
0
SPLINE
5
1AD
100
AcDbEntity
8
1
62
256
6
ByLayer
370
-1
48
1
60
0
100
AcDbSpline
70
4
71
3
72
12
73
8
40
0
40
0
40
0
40
0
40
0.499999999999993
40
0.499999999999993
40
0.749999999999996
40
0.749999999999996
40
1
40
1
40
1
40
1
41
1
10
68.3995202569023
20
1.16549904405355
30
0
41
1
10
67.9249679725683
20
1.13693810123874
30
0
41
1
10
67.4567036264737
20
1.1677986540704
30
0
41
1
10
66.7637216963886
20
1.30268569689969
30
0
41
1
10
66.5330646093443
20
1.36309915763388
30
0
41
1
10
66.0840416922066
20
1.51277663564247
30
0
41
1
10
65.8651451692394
20
1.60195532319551
30
0
41
1
10
65.652038826381
20
1.70570529929861
30
0
0
SPLINE
5
1AE
100
AcDbEntity
8
1
62
256
6
ByLayer
370
-1
48
1
60
0
100
AcDbSpline
70
4
71
3
72
14
73
10
40
0
40
0
40
0
40
0
40
0.0705200632899579
40
0.0705200632899579
40
0.380346708859972
40
0.380346708859972
40
0.690173354429986
40
0.690173354429986
40
1
40
1
40
1
40
1
41
1
10
74.7394845935373
20
3.52014019180007
30
0
41
1
10
74.7390123671471
20
3.51272158270319
30
0
41
1
10
74.7385107031065
20
3.50550705898465
30
0
41
1
10
74.7356732464136
20
3.46768827397352
30
0
41
1
10
74.732831810209
20
3.44075839030992
30
0
41
1
10
74.7267064487655
20
3.3977061226191
30
0
41
1
10
74.7233604802245
20
3.38103746000445
30
0
41
1
10
74.7164228246314
20
3.35861709011763
30
0
41
1
10
74.7128912645252
20
3.3529602148177
30
0
41
1
10
74.7093517498996
20
3.35292749912375
30
0
0
SPLINE
5
1AF
100
AcDbEntity
8
1
62
256
6
ByLayer
370
-1
48
1
60
0
100
AcDbSpline
70
4
71
3
72
8
73
4
40
0
40
0
40
0
40
0
40
1
40
1
40
1
40
1
41
1
10
68.9573966643247
20
3.17854831090665
30
0
41
1
10
68.9661051491942
20
3.17710725646873
30
0
41
1
10
68.9747809485064
20
3.17567414527073
30
0
41
1
10
68.9834236059186
20
3.17424841365189
30
0
0
SPLINE
5
1B0
100
AcDbEntity
8
1
62
256
6
ByLayer
370
-1
48
1
60
0
100
AcDbSpline
70
4
71
3
72
14
73
10
40
0
40
0
40
0
40
0
40
0.412626376133157
40
0.412626376133157
40
0.618939564199731
40
0.618939564199731
40
0.825252752266304
40
0.825252752266304
40
1
40
1
40
1
40
1
41
1
10
72.0117545853865
20
6.21099812699356
30
0
41
1
10
72.0278495826398
20
6.07118470742338
30
0
41
1
10
72.067056209929
20
5.93153473748492
30
0
41
1
10
72.1677708356358
20
5.72463506817485
30
0
41
1
10
72.2081858500861
20
5.65693319587444
30
0
41
1
10
72.3024537088809
20
5.52760693608013
30
0
41
1
10
72.3564952751408
20
5.46553161810249
30
0
41
1
10
72.4712988625728
20
5.35735107539833
30
0
41
1
10
72.5283504050816
20
5.31159641193926
30
0
41
1
10
72.5901706161982
20
5.2702156228622
30
0
0
SPLINE
5
1B1
100
AcDbEntity
8
1
62
256
6
ByLayer
370
-1
48
1
60
0
100
AcDbSpline
70
4
71
3
72
8
73
4
40
0
40
0
40
0
40
0
40
1
40
1
40
1
40
1
41
1
10
72.0044179699523
20
6.39676743366397
30
0
41
1
10
72.0021732886709
20
6.33561293733223
30
0
41
1
10
72.0045359862763
20
6.27370438349146
30
0
41
1
10
72.0117545853865
20
6.21099812699356
30
0
0
SPLINE
5
1B2
100
AcDbEntity
8
1
62
256
6
ByLayer
370
-1
48
1
60
0
100
AcDbSpline
70
4
71
3
72
14
73
10
40
0
40
0
40
0
40
0
40
0.25
40
0.25
40
0.5
40
0.5
40
0.75
40
0.75
40
1
40
1
40
1
40
1
41
1
10
11.7412569514102
20
-3.65010975295848
30
0
41
1
10
11.8498670430869
20
-3.79669518640512
30
0
41
1
10
11.9688931692997
20
-3.94720001824797
30
0
41
1
10
12.2247494991358
20
-4.25789082752812
30
0
41
1
10
12.361582683346
20
-4.41806291591678
30
0
41
1
10
12.6514223951054
20
-4.74794844944475
30
0
41
1
10
12.8049716118039
20
-4.91817845863335
30
0
41
1
10
13.1206547460734
20
-5.25891557142558
30
0
41
1
10
13.2835605963063
20
-5.43029668782111
30
0
41
1
10
13.4516402488605
20
-5.60167024662695
30
0
0
SPLINE
5
1B3
100
AcDbEntity
8
1
62
256
6
ByLayer
370
-1
48
1
60
0
100
AcDbSpline
70
4
71
3
72
10
73
6
40
0
40
0
40
0
40
0
40
0.5
40
0.5
40
1
40
1
40
1
40
1
41
1
10
67.9262394782767
20
3.23191088216345
30
0
41
1
10
68.0993040003207
20
3.2070546859855
30
0
41
1
10
68.2724595343774
20
3.19031200694906
30
0
41
1
10
68.6085520174689
20
3.17275861385366
30
0
41
1
10
68.772259528527
20
3.17176550442113
30
0
41
1
10
68.9311133273983
20
3.17758489535549
30
0
0
SPLINE
5
1B4
100
AcDbEntity
8
1
62
256
6
ByLayer
370
-1
48
1
60
0
100
AcDbSpline
70
4
71
3
72
52
73
48
40
0
40
0
40
0
40
0
40
0.0310095700127018
40
0.0620191400254037
40
0.0930287100381057
40
0.124038280050808
40
0.15504785006351
40
0.186057420076212
40
0.201562205082562
40
0.217066990088914
40
0.248076560101615
40
0.263581345107967
40
0.279086130114317
40
0.310095700127019
40
0.32560048513337
40
0.341105270139721
40
0.372114840152423
40
0.387619625158775
40
0.403124410165125
40
0.434133980177827
40
0.449638765184178
40
0.465143550190529
40
0.496153120203231
40
0.511657905209582
40
0.527162690215933
40
0.558172260228635
40
0.589181830241337
40
0.620191400254039
40
0.63569618526039
40
0.651200970266741
40
0.658953362769916
40
0.666705755273092
40
0.682210540279442
40
0.713220110292145
40
0.744229680304846
40
0.759734465311197
40
0.775239250317548
40
0.80624882033025
40
0.821753605336601
40
0.837258390342952
40
0.868267960355654
40
0.899277530368356
40
0.930287100381058
40
0.96129667039376
40
0.976801455400111
40
0.992306240406462
40
1
40
1
40
1
40
1
41
1
10
11.708189082246
20
8.14738901653723
30
0
41
1
10
11.6509281738653
20
8.11685125561749
30
0
41
1
10
11.5347961134564
20
8.05313162532485
30
0
41
1
10
11.3562476402576
20
7.94970396873336
30
0
41
1
10
11.1738291328306
20
7.83851221519635
30
0
41
1
10
10.9881210171436
20
7.71976409746276
30
0
41
1
10
10.7997037191649
20
7.59366734828163
30
0
41
1
10
10.6409825323811
20
7.48274090635866
30
0
41
1
10
10.513312047938
20
7.39065908741762
30
0
41
1
10
10.3852981388588
20
7.29642536912587
30
0
41
1
10
10.2569474908877
20
7.19907661818459
30
0
41
1
10
10.1286169001487
20
7.09883846734698
30
0
41
1
10
10.0004217565399
20
6.99676601607757
30
0
41
1
10
9.87261289708962
20
6.89208006340905
30
0
41
1
10
9.74555654872421
20
6.78505650783876
30
0
41
1
10
9.61912097810006
20
6.67657892586297
30
0
41
1
10
9.49379522961482
20
6.56607686757252
30
0
41
1
10
9.36993661432254
20
6.45386345955447
30
0
41
1
10
9.24716625276682
20
6.34062068946363
30
0
41
1
10
9.12619351922774
20
6.2260011828819
30
0
41
1
10
9.00734890852902
20
6.11033955304598
30
0
41
1
10
8.89001914460991
20
5.9940961679925
30
0
41
1
10
8.77510579818926
20
5.87714964054047
30
0
41
1
10
8.66289716392521
20
5.75983895154556
30
0
41
1
10
8.55257058049185
20
5.64239542770031
30
0
41
1
10
8.4183391516197
20
5.49554809413351
30
0
41
1
10
8.26361777400251
20
5.31992224490634
30
0
41
1
10
8.14023971275716
20
5.17452323962968
30
0
41
1
10
8.04502679936903
20
5.05905560277708
30
0
41
1
10
7.98704114407138
20
4.98735548517146
30
0
41
1
10
7.94160713461514
20
4.9303430857575
30
0
41
1
10
7.89666541673705
20
4.87338250127289
30
0
41
1
10
7.81893154036726
20
4.77336504113038
30
0
41
1
10
7.71061547832122
20
4.62957641050826
30
0
41
1
10
7.60645986382843
20
4.48507414089016
30
0
41
1
10
7.52594204308383
20
4.36934119416387
30
0
41
1
10
7.44739339159801
20
4.25362892941689
30
0
41
1
10
7.37194557703899
20
4.13810984163953
30
0
41
1
10
7.29989276548395
20
4.02310823883326
30
0
41
1
10
7.230190045775
20
3.90856360888313
30
0
41
1
10
7.14763073680672
20
3.76644961344209
30
0
41
1
10
7.05639065017402
20
3.59829158336001
30
0
41
1
10
6.97340391160353
20
3.43317546705038
30
0
41
1
10
6.91147797279072
20
3.29866625604052
30
0
41
1
10
6.86642452443363
20
3.19322157655648
30
0
41
1
10
6.84020669204216
20
3.12838261524621
30
0
41
1
10
6.82535690167967
20
3.08997985305274
30
0
41
1
10
6.82052754111291
20
3.07729576929967
30
0
0
SPLINE
5
1B5
100
AcDbEntity
8
1
62
256
6
ByLayer
370
-1
48
1
60
0
100
AcDbSpline
70
4
71
3
72
16
73
12
40
0
40
0
40
0
40
0
40
0.250000000000018
40
0.250000000000018
40
0.37500000000002
40
0.37500000000002
40
0.500000000000022
40
0.500000000000022
40
0.750000000000011
40
0.750000000000011
40
1
40
1
40
1
40
1
41
1
10
67.9386428469177
20
1.99031048649985
30
0
41
1
10
67.7928366345354
20
1.96003721510135
30
0
41
1
10
67.6328855419374
20
1.94072812170103
30
0
41
1
10
67.3784797611524
20
1.92966826886831
30
0
41
1
10
67.2912013179117
20
1.92898376511991
30
0
41
1
10
67.1122820325938
20
1.93404802222881
30
0
41
1
10
67.0202086269526
20
1.93985637004627
30
0
41
1
10
66.7428792463336
20
1.96716816924948
30
0
41
1
10
66.5556859499973
20
1.99840614732312
30
0
41
1
10
66.1790046542753
20
2.08792647387622
30
0
41
1
10
65.9886720105383
20
2.14660033319035
30
0
41
1
10
65.8011514086613
20
2.21868369916459
30
0
0
SPLINE
5
1B6
100
AcDbEntity
8
1
62
256
6
ByLayer
370
-1
48
1
60
0
100
AcDbSpline
70
4
71
3
72
8
73
4
40
0
40
0
40
0
40
0
40
1
40
1
40
1
40
1
41
1
10
16
20
6.40552219184363
30
0
41
1
10
16.5552460527596
20
6.19155619907463
30
0
41
1
10
17.0893724323993
20
5.94322923440978
30
0
41
1
10
17.608189082244
20
5.66139940259004
30
0
0
SPLINE
5
1B7
100
AcDbEntity
8
1
62
256
6
ByLayer
370
-1
48
1
60
0
100
AcDbSpline
70
4
71
2
72
6
73
3
40
0
40
0
40
0
40
1
40
1
40
1
41
0.500000664021511
10
68.9573966643247
20
3.1785483109067
30
0
41
0.499999335978489
10
68.9711860317909
20
3.1790309331251
30
0
41
0.500000664021511
10
68.9849540790118
20
3.17951356047121
30
0
0
SPLINE
5
1B8
100
AcDbEntity
8
1
62
256
6
ByLayer
370
-1
48
1
60
0
100
AcDbSpline
70
4
71
3
72
18
73
14
40
0
40
0
40
0
40
0
40
0.125
40
0.125
40
0.25
40
0.25
40
0.375
40
0.375
40
0.5
40
0.5
40
0.75
40
0.75
40
1
40
1
40
1
40
1
41
1
10
66.4706601202981
20
3.88997885465761
30
0
41
1
10
66.4942487332987
20
3.84925295193514
30
0
41
1
10
66.5225942169677
20
3.81106123267148
30
0
41
1
10
66.58462019543
20
3.7407126311854
30
0
41
1
10
66.6185498863427
20
3.70817880956525
30
0
41
1
10
66.6911459937881
20
3.64723939621041
30
0
41
1
10
66.7300270346029
20
3.61872260023168
30
0
41
1
10
66.8109235636788
20
3.56585378808285
30
0
41
1
10
66.8528303200084
20
3.54153654588998
30
0
41
1
10
66.9822799637061
20
3.47378334203842
30
0
41
1
10
67.0735218116236
20
3.43548880722832
30
0
41
1
10
67.2639829091063
20
3.36922920003028
30
0
41
1
10
67.3633868941232
20
3.34132185910127
30
0
41
1
10
67.464461019317
20
3.31804405154543
30
0
0
SPLINE
5
1B9
100
AcDbEntity
8
1
62
256
6
ByLayer
370
-1
48
1
60
0
100
AcDbSpline
70
4
71
3
72
8
73
4
40
0
40
0
40
0
40
0
40
1
40
1
40
1
40
1
41
1
10
11.7081890822442
20
8.14738901653249
30
0
41
1
10
11.7081890822442
20
8.1970609007578
30
0
41
1
10
11.7081890822442
20
8.24673278498312
30
0
41
1
10
11.7081890822442
20
8.29640466920844
30
0
0
SPLINE
5
1BA
100
AcDbEntity
8
1
62
256
6
ByLayer
370
-1
48
1
60
0
100
AcDbSpline
70
4
71
4
72
10
73
5
40
0
40
0
40
0
40
0
40
0
40
1
40
1
40
1
40
1
40
1
41
0.995578116634896
10
63.8420915476219
20
3.05340197426673
30
0
41
0.995164531772031
10
63.9204823988675
20
3.54329100592383
30
0
41
0.99647484249687
10
63.9752263316699
20
4.09422307427826
30
0
41
1
10
63.99985926677
20
4.66723424874618
30
0
41
1
10
63.9998592667699
20
5.20999999999987
30
0
0
SPLINE
5
1BB
100
AcDbEntity
8
1
62
256
6
ByLayer
370
-1
48
1
60
0
100
AcDbSpline
70
4
71
3
72
16
73
12
40
0
40
0
40
0
40
0
40
0.25
40
0.25
40
0.375
40
0.375
40
0.5
40
0.5
40
0.75
40
0.75
40
1
40
1
40
1
40
1
41
1
10
11.7412569514102
20
-5.81627679751563
30
0
41
1
10
11.9186324248463
20
-6.03505600351676
30
0
41
1
10
12.128141561438
20
-6.20732149460099
30
0
41
1
10
12.4893082509568
20
-6.42129750709756
30
0
41
1
10
12.6175676657734
20
-6.48509000986917
30
0
41
1
10
12.8902727983517
20
-6.60070115885213
30
0
41
1
10
13.0328539253719
20
-6.65172493754915
30
0
41
1
10
13.4771807376403
20
-6.78928278301453
30
0
41
1
10
13.7961090443078
20
-6.8608453569712
30
0
41
1
10
14.4824748225672
20
-6.98486008675246
30
0
41
1
10
14.8426645448376
20
-7.03595376772864
30
0
41
1
10
15.2191822799897
20
-7.08430758972915
30
0
0
SPLINE
5
1BC
100
AcDbEntity
8
1
62
256
6
ByLayer
370
-1
48
1
60
0
100
AcDbSpline
70
4
71
3
72
12
73
8
40
0
40
0
40
0
40
0
40
0.5
40
0.5
40
0.75
40
0.75
40
1
40
1
40
1
40
1
41
1
10
7.75953654344596
20
1.44055990891539
30
0
41
1
10
7.61023774668868
20
1.64325517419687
30
0
41
1
10
7.46652884024257
20
1.86269312279867
30
0
41
1
10
7.25816178717872
20
2.21601281936412
30
0
41
1
10
7.18991865189255
20
2.33784719413131
30
0
41
1
10
7.05581081056059
20
2.58990396104534
30
0
41
1
10
6.99031236907058
20
2.71947721748123
30
0
41
1
10
6.92693813520032
20
2.85142461116465
30
0
0
SPLINE
5
1BD
100
AcDbEntity
8
1
62
256
6
ByLayer
370
-1
48
1
60
0
100
AcDbSpline
70
4
71
3
72
32
73
28
40
0
40
0
40
0
40
0
40
0.0301852536482378
40
0.0301852536482378
40
0.111003149177551
40
0.111003149177551
40
0.191821044706865
40
0.191821044706865
40
0.272638940236178
40
0.272638940236178
40
0.353456835765492
40
0.353456835765492
40
0.434274731294805
40
0.434274731294805
40
0.515092626824119
40
0.515092626824119
40
0.595910522353432
40
0.595910522353432
40
0.676728417882746
40
0.676728417882746
40
0.757546313412059
40
0.757546313412059
40
0.838364208941373
40
0.838364208941373
40
0.919182104470686
40
0.919182104470686
40
1
40
1
40
1
40
1
41
1
10
49.1833469072421
20
-6.09292577403312
30
0
41
1
10
48.8434071733277
20
-6.18251948356402
30
0
41
1
10
48.5035120775075
20
-6.2700946798372
30
0
41
1
10
47.2536088803407
20
-6.58456743453433
30
0
41
1
10
46.3436543133033
20
-6.79891350283694
30
0
41
1
10
44.5225556248001
20
-7.19584488945009
30
0
41
1
10
43.6107166335832
20
-7.3783038275821
30
0
41
1
10
41.7876757128453
20
-7.70810463282371
30
0
41
1
10
40.8773056413324
20
-7.85540688601162
30
0
41
1
10
39.0574131234559
20
-8.11125934991156
30
0
41
1
10
38.1478892656001
20
-8.21941395492487
30
0
41
1
10
36.3279099725754
20
-8.39614207328418
30
0
41
1
10
35.4174976067785
20
-8.46468313273598
30
0
41
1
10
33.5942503112797
20
-8.56028913730432
30
0
41
1
10
32.6834101878615
20
-8.58714073381344
30
0
41
1
10
30.863989394116
20
-8.59832220651583
30
0
41
1
10
29.9550033006199
20
-8.58281216577464
30
0
41
1
10
28.1366988012748
20
-8.50942927686793
30
0
41
1
10
27.2273952872044
20
-8.45098416591136
30
0
41
1
10
25.4066257353217
20
-8.29321287957808
30
0
41
1
10
24.494457720939
20
-8.19460723727988
30
0
41
1
10
22.6736346776123
20
-7.95755229384702
30
0
41
1
10
21.7641489785375
20
-7.82019473648316
30
0
41
1
10
19.9454577811347
20
-7.50931970456767
30
0
41
1
10
19.0361981179057
20
-7.3363590973126
30
0
41
1
10
17.2163263438846
20
-6.95794660268021
30
0
41
1
10
16.3057553224921
20
-6.75125180870324
30
0
41
1
10
15.3937349015246
20
-6.52917634898159
30
0
0
SPLINE
5
1BE
100
AcDbEntity
8
1
62
256
6
ByLayer
370
-1
48
1
60
0
100
AcDbSpline
70
4
71
3
72
8
73
4
40
0
40
0
40
0
40
0
40
1
40
1
40
1
40
1
41
1
10
67.464461019317
20
3.31804405154543
30
0
41
1
10
67.6156449829044
20
3.28322573179079
30
0
41
1
10
67.769485960737
20
3.25442442877332
30
0
41
1
10
67.9262394782768
20
3.23191088216345
30
0
0
SPLINE
5
1BF
100
AcDbEntity
8
1
62
256
6
ByLayer
370
-1
48
1
60
0
100
AcDbSpline
70
4
71
3
72
14
73
10
40
0
40
0
40
0
40
0
40
0.25
40
0.25
40
0.5
40
0.5
40
0.75
40
0.75
40
1
40
1
40
1
40
1
41
1
10
71.6574165583714
20
3.4401174967189
30
0
41
1
10
71.6281001057739
20
3.41097347937608
30
0
41
1
10
71.5988080093656
20
3.3846538299735
30
0
41
1
10
71.5413448543691
20
3.33718201240197
30
0
41
1
10
71.5131336887162
20
3.31601461453698
30
0
41
1
10
71.4599559076215
20
3.27927718344162
30
0
41
1
10
71.4353341600263
20
3.26397994398442
30
0
41
1
10
71.3967349987989
20
3.24229724735309
30
0
41
1
10
71.3833770962844
20
3.23619350250965
30
0
41
1
10
71.3791993914887
20
3.23619350250965
30
0
0
SPLINE
5
1C0
100
AcDbEntity
8
1
62
256
6
ByLayer
370
-1
48
1
60
0
100
AcDbSpline
70
4
71
4
72
10
73
5
40
0
40
0
40
0
40
0
40
0
40
1
40
1
40
1
40
1
40
1
41
1
10
63.9998592667699
20
5.20999999999987
30
0
41
1
10
63.9998592667851
20
6.18944877731315
30
0
41
1
10
63.9998592667952
20
7.16889755462643
30
0
41
1
10
63.9998592668021
20
8.14834633193971
30
0
41
1
10
63.9998592668067
20
9.12779510925296
30
0
0
SPLINE
5
1C1
100
AcDbEntity
8
1
62
256
6
ByLayer
370
-1
48
1
60
0
100
AcDbSpline
70
4
71
3
72
22
73
18
40
0
40
0
40
0
40
0
40
0.0695114683841157
40
0.0695114683841157
40
0.154101334894651
40
0.154101334894651
40
0.323281067915721
40
0.323281067915721
40
0.407870934426256
40
0.407870934426256
40
0.492460800936791
40
0.492460800936791
40
0.66164053395786
40
0.66164053395786
40
0.83082026697893
40
0.83082026697893
40
1
40
1
40
1
40
1
41
1
10
65.6467712794212
20
2.27444664552806
30
0
41
1
10
65.6656089926517
20
2.30939387366729
30
0
41
1
10
65.6832155410183
20
2.34760772958103
30
0
41
1
10
65.719400253682
20
2.43960536686109
30
0
41
1
10
65.7374346688789
20
2.49529644405334
30
0
41
1
10
65.7845950363691
20
2.67433396356998
30
0
41
1
10
65.8070289305963
20
2.80950283092668
30
0
41
1
10
65.8261505938858
20
3.03448787427206
30
0
41
1
10
65.8300845198577
20
3.11320920037983
30
0
41
1
10
65.8326469366456
20
3.27808157768163
30
0
41
1
10
65.8312415385338
20
3.36402719277575
30
0
41
1
10
65.8186353833981
20
3.62770540434772
30
0
41
1
10
65.7992026702883
20
3.81276778406468
30
0
41
1
10
65.7346532518981
20
4.19889596887901
30
0
41
1
10
65.6890637340827
20
4.40128851566399
30
0
41
1
10
65.5686799062649
20
4.80561736150545
30
0
41
1
10
65.4940181701155
20
5.00900668546404
30
0
41
1
10
65.3990761565503
20
5.20999999999992
30
0
0
SPLINE
5
1C2
100
AcDbEntity
8
1
62
256
6
ByLayer
370
-1
48
1
60
0
100
AcDbSpline
70
4
71
3
72
16
73
12
40
0
40
0
40
0
40
0
40
0.439148690863101
40
0.439148690863101
40
0.579361518147325
40
0.579361518147325
40
0.71957434543155
40
0.71957434543155
40
0.859787172715774
40
0.859787172715774
40
1
40
1
40
1
40
1
41
1
10
53.5924296048645
20
7.68181870283769
30
0
41
1
10
55.1183225810637
20
8.02056974445335
30
0
41
1
10
56.6398859137486
20
8.30716185063844
30
0
41
1
10
58.6458906533607
20
8.61077834152724
30
0
41
1
10
59.1312619568522
20
8.67846659567599
30
0
41
1
10
60.1031094773217
20
8.8012381552208
30
0
41
1
10
60.5896139453189
20
8.85635679571314
30
0
41
1
10
61.5627890047651
20
8.95483024398465
30
0
41
1
10
62.0493695847367
20
8.99818728313446
30
0
41
1
10
63.0237121766248
20
9.07235677835928
30
0
41
1
10
63.5116551012793
20
9.10313923403174
30
0
41
1
10
63.9998592668067
20
9.12779510925296
30
0
0
SPLINE
5
1C3
100
AcDbEntity
8
1
62
256
6
ByLayer
370
-1
48
1
60
0
100
AcDbSpline
70
4
71
2
72
6
73
3
40
0
40
0
40
0
40
1
40
1
40
1
41
1
10
6.84125695140995
20
3.03122343941891
30
0
41
1
10
6.84125695141
20
1.49049248060143
30
0
41
1
10
6.84125695141003
20
-0.0502384782160732
30
0
0
SPLINE
5
1C4
100
AcDbEntity
8
1
62
256
6
ByLayer
370
-1
48
1
60
0
100
AcDbSpline
70
4
71
3
72
12
73
8
40
0
40
0
40
0
40
0
40
0.500000000000001
40
0.500000000000001
40
0.750000000000001
40
0.750000000000001
40
1
40
1
40
1
40
1
41
1
10
65.3990761565989
20
5.20999999999992
30
0
41
1
10
65.3377942071996
20
5.33973457870303
30
0
41
1
10
65.2817941645665
20
5.47317437466381
30
0
41
1
10
65.2179505477453
20
5.68475238411773
30
0
41
1
10
65.2000909098832
20
5.75777336842356
30
0
41
1
10
65.1755436096505
20
5.90523080893928
30
0
41
1
10
65.1687641862645
20
5.97991360299065
30
0
41
1
10
65.1687641862645
20
6.05576004175299
30
0
0
SPLINE
5
1C5
100
AcDbEntity
8
1
62
256
6
ByLayer
370
-1
48
1
60
0
100
AcDbSpline
70
4
71
3
72
10
73
6
40
0
40
0
40
0
40
0
40
0.5
40
0.5
40
1
40
1
40
1
40
1
41
1
10
7.7595368506725
20
1.44056096094039
30
0
41
1
10
8.43037064361278
20
0.57741628530755
30
0
41
1
10
9.09980440258494
20
-0.280915331045776
30
0
41
1
10
10.4290046919081
20
-1.98132726626568
30
0
41
1
10
11.0885001499266
20
-2.82326184021758
30
0
41
1
10
11.7412569514102
20
-3.65010975295846
30
0
0
SPLINE
5
1C6
100
AcDbEntity
8
1
62
256
6
ByLayer
370
-1
48
1
60
0
100
AcDbSpline
70
4
71
3
72
8
73
4
40
0
40
0
40
0
40
0
40
1
40
1
40
1
40
1
41
1
10
56.7341293488543
20
6.84169984040975
30
0
41
1
10
56.4943350264181
20
6.92565800093982
30
0
41
1
10
56.2510434457699
20
7.01357558308939
30
0
41
1
10
56.0073653263317
20
7.10401816689972
30
0
0
SPLINE
5
1C7
100
AcDbEntity
8
1
62
256
6
ByLayer
370
-1
48
1
60
0
100
AcDbSpline
70
4
71
1
72
4
73
2
40
0
40
0
40
1
40
1
41
1
10
17.6081890822439
20
2.30287872055163
30
0
41
1
10
17.608189082244
20
5.66139940259004
30
0
0
SPLINE
5
1C8
100
AcDbEntity
8
1
62
256
6
ByLayer
370
-1
48
1
60
0
100
AcDbSpline
70
4
71
3
72
22
73
18
40
0
40
0
40
0
40
0
40
0.125
40
0.125
40
0.25
40
0.25
40
0.375
40
0.375
40
0.5
40
0.5
40
0.625
40
0.625
40
0.75
40
0.75
40
0.875
40
0.875
40
1
40
1
40
1
40
1
41
1
10
69.838663515097
20
3.2078521149717
30
0
41
1
10
69.8437965809761
20
3.2078521149717
30
0
41
1
10
69.8385636032106
20
3.21396119671289
30
0
41
1
10
69.8129690984367
20
3.23663832281375
30
0
41
1
10
69.7934760740784
20
3.25263474083909
30
0
41
1
10
69.7475291232914
20
3.29258524910585
30
0
41
1
10
69.721160085271
20
3.31648103453122
30
0
41
1
10
69.6665993954798
20
3.37044498070801
30
0
41
1
10
69.638135609479
20
3.40070740598594
30
0
41
1
10
69.5805163283335
20
3.46848315525986
30
0
41
1
10
69.5515117992841
20
3.50587547759792
30
0
41
1
10
69.4958160157523
20
3.58619240273168
30
0
41
1
10
69.4688750411925
20
3.62937552831144
30
0
41
1
10
69.4176189859367
20
3.72290533894542
30
0
41
1
10
69.3933996823113
20
3.77328666557571
30
0
41
1
10
69.3506143978616
20
3.87712875922802
30
0
41
1
10
69.3317119314285
20
3.931145345743
30
0
41
1
10
69.3155436283399
20
3.98755808443363
30
0
0
SPLINE
5
1C9
100
AcDbEntity
8
1
62
256
6
ByLayer
370
-1
48
1
60
0
100
AcDbSpline
70
4
71
3
72
27
73
23
40
0
40
0
40
0
40
0
40
0.124999999999998
40
0.124999999999998
40
0.187499999999999
40
0.187499999999999
40
0.250000000000001
40
0.250000000000001
40
0.375000000000002
40
0.375000000000002
40
0.437500000000002
40
0.437500000000002
40
0.500000000000001
40
0.562500000000001
40
0.562500000000001
40
0.625000000000001
40
0.625000000000001
40
0.75
40
0.75
40
0.875
40
0.875
40
1
40
1
40
1
40
1
41
1
10
69.2771359949906
20
2.38640907216521
30
0
41
1
10
69.3687842883452
20
2.42027822063463
30
0
41
1
10
69.4488871887809
20
2.4555161010183
30
0
41
1
10
69.5515580436039
20
2.51044562876669
30
0
41
1
10
69.5829923129737
20
2.52920959883548
30
0
41
1
10
69.6388025724963
20
2.56681566661194
30
0
41
1
10
69.6632378993429
20
2.58566189873699
30
0
41
1
10
69.7263853534524
20
2.64232706639632
30
0
41
1
10
69.7550339768043
20
2.68027129020663
30
0
41
1
10
69.7771163740012
20
2.73744770824456
30
0
41
1
10
69.7808829738779
20
2.75639909680973
30
0
41
1
10
69.7813106280209
20
2.79362128546404
30
0
41
1
10
69.7746934880176
20
2.83031103600033
30
0
41
1
10
69.7541502029968
20
2.86594826317096
30
0
41
1
10
69.7265324071349
20
2.90105080626708
30
0
41
1
10
69.7090571361523
20
2.91842477389415
30
0
41
1
10
69.646766232807
20
2.96881109410791
30
0
41
1
10
69.5922726700014
20
3.00022055198198
30
0
41
1
10
69.4580324171521
20
3.05879093422524
30
0
41
1
10
69.3773267237689
20
3.08614023215037
30
0
41
1
10
69.1958065947324
20
3.13457171154764
30
0
41
1
10
69.0947875511591
20
3.15587731662075
30
0
41
1
10
68.9834236059186
20
3.17424841365189
30
0
0
SPLINE
5
1CA
100
AcDbEntity
8
1
62
256
6
ByLayer
370
-1
48
1
60
0
100
AcDbSpline
70
4
71
3
72
8
73
4
40
0
40
0
40
0
40
0
40
1
40
1
40
1
40
1
41
1
10
11.7412569514101
20
-3.65010975295848
30
0
41
1
10
11.7412569514101
20
-4.37216543447752
30
0
41
1
10
11.7412569514101
20
-5.09422111599656
30
0
41
1
10
11.7412569514101
20
-5.8162767975156
30
0
0
SPLINE
5
1CB
100
AcDbEntity
8
1
62
256
6
ByLayer
370
-1
48
1
60
0
100
AcDbSpline
70
4
71
3
72
8
73
4
40
0
40
0
40
0
40
0
40
1
40
1
40
1
40
1
41
1
10
6.84125695141003
20
3.03122343941877
30
0
41
1
10
6.86967236164676
20
2.97111518262068
30
0
41
1
10
6.89823801415056
20
2.911179277054
30
0
41
1
10
6.92693813520398
20
2.85142461115706
30
0
0
SPLINE
5
1CC
100
AcDbEntity
8
1
62
256
6
ByLayer
370
-1
48
1
60
0
100
AcDbSpline
70
4
71
4
72
19
73
14
40
0
40
0
40
0
40
0
40
0
40
0.415333173121877
40
0.415333173121877
40
0.415333173121877
40
0.622999759682815
40
0.622999759682815
40
0.622999759682815
40
0.830666346243753
40
0.830666346243753
40
0.830666346243753
40
1
40
1
40
1
40
1
40
1
41
1
10
17.6081890822468
20
2.30287872055092
30
0
41
1
10
17.6081890822468
20
1.61371478420372
30
0
41
0.974581796258695
10
17.5163594503809
20
0.497407637700775
30
0
41
0.974581796258695
10
17.2789076337297
20
-0.929328654295474
30
0
41
0.987290898129347
10
16.8486824135463
20
-2.91456613476255
30
0
41
0.993645449064674
10
16.6959209033067
20
-3.53830003389118
30
0
41
1
10
16.5423864488377
20
-4.09294447753985
30
0
41
1
10
16.2576135511676
20
-5.02061788567599
30
0
41
0.993645449064674
10
16.1040790966986
20
-5.46627811855275
30
0
41
0.987290898129347
10
15.9513175864589
20
-5.83781302481592
30
0
41
0.979600149641915
10
15.6923060752541
20
-6.33013329490824
30
0
41
0.977554138946854
10
15.5833633970663
20
-6.48234920120956
30
0
41
0.978064899789098
10
15.4885504911931
20
-6.54907280850307
30
0
41
0.980407995146603
10
15.4108465616169
20
-6.53408342710993
30
0
0
SPLINE
5
1CD
100
AcDbEntity
8
1
62
256
6
ByLayer
370
-1
48
1
60
0
100
AcDbSpline
70
4
71
3
72
20
73
16
40
0
40
0
40
0
40
0
40
0.150488188255042
40
0.150488188255042
40
0.300976376510083
40
0.300976376510083
40
0.451464564765125
40
0.451464564765125
40
0.601952753020166
40
0.601952753020166
40
0.752440941275208
40
0.752440941275208
40
0.902929129530249
40
0.902929129530249
40
1
40
1
40
1
40
1
41
1
10
17.6081890822467
20
2.30287872055092
30
0
41
1
10
17.2126391655952
20
2.17595809349243
30
0
41
1
10
16.7958656980462
20
1.9796880564947
30
0
41
1
10
15.962893810667
20
1.46870947076039
30
0
41
1
10
15.5468472522506
20
1.15409407994613
30
0
41
1
10
14.7585800190473
20
0.439087810844512
30
0
41
1
10
14.3865030554446
20
0.0388272873319409
30
0
41
1
10
13.7248707111672
20
-0.805890964814523
30
0
41
1
10
13.4354359545191
20
-1.25019469052245
30
0
41
1
10
12.9692066668665
20
-2.13682733400529
30
0
41
1
10
12.7924971354157
20
-2.57899460732537
30
0
41
1
10
12.5701294389747
20
-3.41538758884903
30
0
41
1
10
12.5245118144556
20
-3.80946081192982
30
0
41
1
10
12.5612012647
20
-4.38458402484815
30
0
41
1
10
12.6038444508705
20
-4.59154380101768
30
0
41
1
10
12.6734947572412
20
-4.77572542661085
30
0
0
SPLINE
5
1CE
100
AcDbEntity
8
1
62
256
6
ByLayer
370
-1
48
1
60
0
100
AcDbSpline
70
4
71
3
72
16
73
12
40
0
40
0
40
0
40
0
40
0.249999999999999
40
0.249999999999999
40
0.499999999999999
40
0.499999999999999
40
0.749999999999998
40
0.749999999999998
40
0.874999999999999
40
0.874999999999999
40
1
40
1
40
1
40
1
41
1
10
75.8543735090025
20
-4.48640930418918
30
0
41
1
10
75.8593772587967
20
-4.51437514085669
30
0
41
1
10
75.8629918672149
20
-4.54331204222913
30
0
41
1
10
75.8661434239517
20
-4.603917121416
30
0
41
1
10
75.865753343965
20
-4.63554131760731
30
0
41
1
10
75.8579338697389
20
-4.70331744453264
30
0
41
1
10
75.850661667157
20
-4.73943915064115
30
0
41
1
10
75.8287299837152
20
-4.79731003299722
30
0
41
1
10
75.8196340091616
20
-4.81705094793429
30
0
41
1
10
75.7951345424825
20
-4.85805557676346
30
0
41
1
10
75.7798431606282
20
-4.87891587376549
30
0
41
1
10
75.7608681154001
20
-4.89863722382245
30
0
0
SPLINE
5
1CF
100
AcDbEntity
8
1
62
256
6
ByLayer
370
-1
48
1
60
0
100
AcDbSpline
70
4
71
3
72
8
73
4
40
0
40
0
40
0
40
0
40
1
40
1
40
1
40
1
41
1
10
75.732404472027
20
-3.04613025590626
30
0
41
1
10
75.7290650926409
20
-3.03932112280802
30
0
41
1
10
75.7258120871138
20
-3.03248386970404
30
0
41
1
10
75.7226800638671
20
-3.02569495418953
30
0
0
SPLINE
5
1D0
100
AcDbEntity
8
1
62
256
6
ByLayer
370
-1
48
1
60
0
100
AcDbSpline
70
4
71
3
72
8
73
4
40
0
40
0
40
0
40
0
40
1
40
1
40
1
40
1
41
1
10
75.8083925983469
20
-3.45142148957527
30
0
41
1
10
75.8087599223751
20
-3.44092232532452
30
0
41
1
10
75.8092157296039
20
-3.43046338529081
30
0
41
1
10
75.8097600627045
20
-3.42004468887234
30
0
0
SPLINE
5
1D1
100
AcDbEntity
8
1
62
256
6
ByLayer
370
-1
48
1
60
0
100
AcDbSpline
70
4
71
3
72
12
73
8
40
0
40
0
40
0
40
0
40
0.25
40
0.25
40
0.5
40
0.5
40
1
40
1
40
1
40
1
41
1
10
75.1632702490347
20
0.258872172670664
30
0
41
1
10
75.1803660532785
20
0.241951745238936
30
0
41
1
10
75.1956532344049
20
0.222977885300509
30
0
41
1
10
75.219500908543
20
0.186991354969621
30
0
41
1
10
75.2282099890555
20
0.170286333827619
30
0
41
1
10
75.2490536771958
20
0.123472088957698
30
0
41
1
10
75.2559463328968
20
0.0972714433411284
30
0
41
1
10
75.2606314137619
20
0.0727428537933577
30
0
0
SPLINE
5
1D2
100
AcDbEntity
8
1
62
256
6
ByLayer
370
-1
48
1
60
0
100
AcDbSpline
70
4
71
3
72
12
73
8
40
0
40
0
40
0
40
0
40
0.250000000000005
40
0.250000000000005
40
0.500000000000009
40
0.500000000000009
40
1
40
1
40
1
40
1
41
1
10
75.732404472027
20
-3.04613025590629
30
0
41
1
10
75.7465384352053
20
-3.07494999315654
30
0
41
1
10
75.7588891277685
20
-3.10462910451562
30
0
41
1
10
75.7799099896265
20
-3.16575877807631
30
0
41
1
10
75.7885983174828
20
-3.19741857003342
30
0
41
1
10
75.8081994699593
20
-3.29220757951336
30
0
41
1
10
75.8130988621071
20
-3.35613908156003
30
0
41
1
10
75.8097600627044
20
-3.42004468887234
30
0
0
SPLINE
5
1D3
100
AcDbEntity
8
1
62
256
6
ByLayer
370
-1
48
1
60
0
100
AcDbSpline
70
4
71
3
72
8
73
4
40
0
40
0
40
0
40
0
40
1
40
1
40
1
40
1
41
1
10
75.4311710382884
20
-0.661840117620585
30
0
41
1
10
75.4492382357045
20
-0.711481558795725
30
0
41
1
10
75.4561083364013
20
-0.761005781853015
30
0
41
1
10
75.4552129450807
20
-0.804790921874826
30
0
0
SPLINE
5
1D4
100
AcDbEntity
8
1
62
256
6
ByLayer
370
-1
48
1
60
0
100
AcDbSpline
70
4
71
3
72
10
73
6
40
0
40
0
40
0
40
0
40
0.5
40
0.5
40
1
40
1
40
1
40
1
41
1
10
75.457422757584
20
-0.940888054194716
30
0
41
1
10
75.4561273917441
20
-0.916217103829297
30
0
41
1
10
75.4553613262588
20
-0.892585827035333
30
0
41
1
10
75.4546912551613
20
-0.847016566980187
30
0
41
1
10
75.4547970610246
20
-0.825127886512064
30
0
41
1
10
75.4552129450806
20
-0.804790921874314
30
0
0
SPLINE
5
1D5
100
AcDbEntity
8
1
62
256
6
ByLayer
370
-1
48
1
60
0
100
AcDbSpline
70
4
71
3
72
16
73
12
40
0
40
0
40
0
40
0
40
0.249999999999999
40
0.249999999999999
40
0.499999999999998
40
0.499999999999998
40
0.749999999999996
40
0.749999999999996
40
0.874999999999998
40
0.874999999999998
40
1
40
1
40
1
40
1
41
1
10
75.854373509002
20
-4.48640930419262
30
0
41
1
10
75.8472667077286
20
-4.44668956363552
30
0
41
1
10
75.8402932644685
20
-4.40572176732289
30
0
41
1
10
75.8268045127744
20
-4.3194986347718
30
0
41
1
10
75.8202608557821
20
-4.27422395442986
30
0
41
1
10
75.8081720627507
20
-4.17568858282641
30
0
41
1
10
75.8025349534313
20
-4.12245366611339
30
0
41
1
10
75.7964025554553
20
-4.03058218560483
30
0
41
1
10
75.7947334082486
20
-3.99731188066539
30
0
41
1
10
75.7930837578336
20
-3.92557983240471
30
0
41
1
10
75.7931703919203
20
-3.88651539398452
30
0
41
1
10
75.7945146107956
20
-3.8480937997399
30
0
0
SPLINE
5
1D6
100
AcDbEntity
8
1
62
256
6
ByLayer
370
-1
48
1
60
0
100
AcDbSpline
70
4
71
3
72
14
73
10
40
0
40
0
40
0
40
0
40
0.25
40
0.25
40
0.5
40
0.5
40
0.75
40
0.75
40
1
40
1
40
1
40
1
41
1
10
75.4311710382908
20
-0.661840117620727
30
0
41
1
10
75.4160038914697
20
-0.620166856994189
30
0
41
1
10
75.4025480955538
20
-0.579270479577019
30
0
41
1
10
75.3805708989726
20
-0.506669794551271
30
0
41
1
10
75.3716478678564
20
-0.473955142862337
30
0
41
1
10
75.3565500506003
20
-0.414685652405126
30
0
41
1
10
75.3502219078145
20
-0.387514951072376
30
0
41
1
10
75.339078849081
20
-0.336570384789042
30
0
41
1
10
75.3342927253843
20
-0.312908564052179
30
0
41
1
10
75.3299829206569
20
-0.290344720601894
30
0
0
SPLINE
5
1D7
100
AcDbEntity
8
1
62
256
6
ByLayer
370
-1
48
1
60
0
100
AcDbSpline
70
4
71
3
72
12
73
8
40
0
40
0
40
0
40
0
40
0.250000000000024
40
0.250000000000024
40
0.500000000000049
40
0.500000000000049
40
1
40
1
40
1
40
1
41
1
10
75.7608681154001
20
-4.89863722382245
30
0
41
1
10
75.7441884013493
20
-4.91597296535511
30
0
41
1
10
75.7249438439699
20
-4.9309968303449
30
0
41
1
10
75.6877274141914
20
-4.95363954045956
30
0
41
1
10
75.6701227737914
20
-4.96146559372639
30
0
41
1
10
75.6202914473132
20
-4.97934626804718
30
0
41
1
10
75.5917377478849
20
-4.98392627214952
30
0
41
1
10
75.5647601773691
20
-4.98620395203343
30
0
0
SPLINE
5
1D8
100
AcDbEntity
8
1
62
256
6
ByLayer
370
-1
48
1
60
0
100
AcDbSpline
70
4
71
3
72
12
73
8
40
0
40
0
40
0
40
0
40
0.16532145284632
40
0.16532145284632
40
0.58266072642316
40
0.58266072642316
40
1
40
1
40
1
40
1
41
1
10
75.0260765399223
20
0.348060204282234
30
0
41
1
10
75.0330623509805
20
0.34523671594431
30
0
41
1
10
75.0401546277147
20
0.342167938694075
30
0
41
1
10
75.0655396803517
20
0.330386374275122
30
0
41
1
10
75.0842713954786
20
0.320263227312836
30
0
41
1
10
75.1236010482618
20
0.294061123301276
30
0
41
1
10
75.1438218545509
20
0.278121056363716
30
0
41
1
10
75.1632702490347
20
0.258872172670664
30
0
0
SPLINE
5
1D9
100
AcDbEntity
8
1
62
256
6
ByLayer
370
-1
48
1
60
0
100
AcDbSpline
70
4
71
3
72
79
73
75
40
0
40
0
40
0
40
0
40
0.0017245864916226
40
0.0039792263717501
40
0.0084885061320053
40
0.0129977858922604
40
0.0220163454127707
40
0.0310349049332809
40
0.067109143015322
40
0.139257619179404
40
0.211406095343486
40
0.220424654863996
40
0.224933934624252
40
0.228315894444443
40
0.229443214384507
40
0.231697854264634
40
0.233952494144762
40
0.237334453964953
40
0.238461773905017
40
0.240716413785144
40
0.242971053665272
40
0.247480333425527
40
0.249734973305655
40
0.256498892946037
40
0.265517452466548
40
0.283554571507568
40
0.292573131028079
40
0.319628809589609
40
0.35570304767165
40
0.391777285753691
40
0.409814404794712
40
0.427851523835732
40
0.445888642876753
40
0.463925761917773
40
0.481962880958794
40
0.499999999999814
40
0.518037119040835
40
0.536074238081856
40
0.554111357122876
40
0.572148476163897
40
0.590185595204915
40
0.608222714245938
40
0.626259833286958
40
0.644296952327979
40
0.662334071368999
40
0.680371190410022
40
0.716445428492061
40
0.72546398801257
40
0.734482547533082
40
0.751392346634038
40
0.752519666574102
40
0.754774306454229
40
0.757028946334357
40
0.760410906154551
40
0.761538226094612
40
0.763792865974742
40
0.766047505854866
40
0.769429465675061
40
0.770556785615122
40
0.771684105555184
40
0.775066065375379
40
0.779575345135633
40
0.784084624895888
40
0.788593904656143
40
0.824668142738184
40
0.860742380820225
40
0.932890856984307
40
0.968965095066348
40
0.987002214107369
40
0.991511493867624
40
0.994893453687814
40
0.996020773627879
40
0.998275413508006
40
1
40
1
40
1
40
1
41
1
10
69.9138621162695
20
3.83630292615206
30
0
41
1
10
69.9139095117027
20
3.83596659956956
30
0
41
1
10
69.914018465759
20
3.83519616984321
30
0
41
1
10
69.9142506917224
20
3.83357533676306
30
0
41
1
10
69.9145639491039
20
3.83145951085274
30
0
41
1
10
69.9150813273914
20
3.82810432952181
30
0
41
1
10
69.915769280025
20
3.82387646282299
30
0
41
1
10
69.9175473922168
20
3.81367346814972
30
0
41
1
10
69.9220614328151
20
3.79154649884166
30
0
41
1
10
69.9315650533345
20
3.75727296225858
30
0
41
1
10
69.9426567591712
20
3.72835729359267
30
0
41
1
10
69.949814813891
20
3.71240850776314
30
0
41
1
10
69.9512590894839
20
3.70926824435946
30
0
41
1
10
69.9520391595694
20
3.70759587366283
30
0
41
1
10
69.9526284042968
20
3.70634267065202
30
0
41
1
10
69.9531220609527
20
3.70529901311235
30
0
41
1
10
69.9538180671008
20
3.70383918269135
30
0
41
1
10
69.9544198768118
20
3.70258930744202
30
0
41
1
10
69.9550258694809
20
3.70134058938555
30
0
41
1
10
69.9555334770014
20
3.7003007206711
30
0
41
1
10
69.9563512217091
20
3.69863851474241
30
0
41
1
10
69.9571773208262
20
3.69697872592599
30
0
41
1
10
69.9584289873084
20
3.69449279164155
30
0
41
1
10
69.9601201175554
20
3.69118498695315
30
0
41
1
10
69.9633638462131
20
3.68500616015137
30
0
41
1
10
69.9669567575764
20
3.6784606598558
30
0
41
1
10
69.9725446421057
20
3.66871817124826
30
0
41
1
10
69.9803458533404
20
3.65586979986193
30
0
41
1
10
69.9919003510854
20
3.63859404151654
30
0
41
1
10
70.0032423110223
20
3.62336404024057
30
0
41
1
10
70.0127967620218
20
3.61150398828997
30
0
41
1
10
70.020197581897
20
3.60278062609211
30
0
41
1
10
70.0278279234988
20
3.59423864288937
30
0
41
1
10
70.0356804085343
20
3.58588651948452
30
0
41
1
10
70.0437476587107
20
3.57773273668039
30
0
41
1
10
70.0520222957351
20
3.56978577527971
30
0
41
1
10
70.0604969413147
20
3.56205411608528
30
0
41
1
10
70.0691626528153
20
3.55454455594111
30
0
41
1
10
70.0780104876026
20
3.54726389169122
30
0
41
1
10
70.0870315030423
20
3.54021892017954
30
0
41
1
10
70.0962167565002
20
3.53341643825016
30
0
41
1
10
70.105556225347
20
3.52686123651395
30
0
41
1
10
70.1150398869536
20
3.52055810558187
30
0
41
1
10
70.1246577186908
20
3.51451183606488
30
0
41
1
10
70.1343996979293
20
3.50872721857394
30
0
41
1
10
70.1475404585529
20
3.50136674738593
30
0
41
1
10
70.1592189352735
20
3.49539336840078
30
0
41
1
10
70.1693314611932
20
3.49061345467288
30
0
41
1
10
70.1758872205309
20
3.48761436481502
30
0
41
1
10
70.1809883016674
20
3.48539043517215
30
0
41
1
10
70.1848256455019
20
3.48377366881596
30
0
41
1
10
70.1858921685904
20
3.48332723299325
30
0
41
1
10
70.1873863861653
20
3.48270720028478
30
0
41
1
10
70.1886682811333
20
3.48218107774162
30
0
41
1
10
70.189951054872
20
3.48165922375677
30
0
41
1
10
70.1910205757887
20
3.48122701355726
30
0
41
1
10
70.1925188942934
20
3.4806269007874
30
0
41
1
10
70.193804201455
20
3.48011785683397
30
0
41
1
10
70.1948759544727
20
3.47969721357575
30
0
41
1
10
70.1959480350613
20
3.4792783505172
30
0
41
1
10
70.1976643985121
20
3.47861386684335
30
0
41
1
10
70.2000267885134
20
3.47771391492029
30
0
41
1
10
70.2026067566794
20
3.47674925304406
30
0
41
1
10
70.2112154866169
20
3.47359074955182
30
0
41
1
10
70.2259137254258
20
3.468657797493
30
0
41
1
10
70.2536883150972
20
3.4608162228572
30
0
41
1
10
70.281466621954
20
3.45511551647431
30
0
41
1
10
70.3054862690151
20
3.45190978983226
30
0
41
1
10
70.3165983512347
20
3.45081798359735
30
0
41
1
10
70.3214432471642
20
3.45040967056536
30
0
41
1
10
70.3231410391093
20
3.4502756510272
30
0
41
1
10
70.324426582748
20
3.45017821898315
30
0
41
1
10
70.3254053180065
20
3.45010634082263
30
0
41
1
10
70.3261785466793
20
3.45005097946094
30
0
41
1
10
70.326516083419
20
3.45002697983514
30
0
0
SPLINE
5
1DA
100
AcDbEntity
8
1
62
256
6
ByLayer
370
-1
48
1
60
0
100
AcDbSpline
70
4
71
3
72
8
73
4
40
0
40
0
40
0
40
0
40
1
40
1
40
1
40
1
41
1
10
75.7407051729471
20
4.29780764794663
30
0
41
1
10
75.7411243921048
20
4.28575692532593
30
0
41
1
10
75.7415217673503
20
4.27370543698524
30
0
41
1
10
75.7418972960519
20
4.26165326272681
30
0
0
SPLINE
5
1DB
100
AcDbEntity
8
1
62
256
6
ByLayer
370
-1
48
1
60
0
100
AcDbSpline
70
4
71
3
72
13
73
9
40
0
40
0
40
0
40
0
40
0.312317913031034
40
0.624635826062067
40
0.936953739093101
40
0.97599347822198
40
0.994903351862531
40
1
40
1
40
1
40
1
41
1
10
75.6619994447769
20
6.56025410647138
30
0
41
1
10
75.6538057086172
20
6.79578828914802
30
0
41
1
10
75.6374182362978
20
7.26685665450131
30
0
41
1
10
75.6128370278188
20
7.97345920253125
30
0
41
1
10
75.5954253384795
20
8.47396934071912
30
0
41
1
10
75.5857112801808
20
8.75320615494709
30
0
41
1
10
75.5840572462424
20
8.80075241762992
30
0
41
1
10
75.5834275427629
20
8.81885693226366
30
0
41
1
10
75.5832938615379
20
8.82270057007543
30
0
0
SPLINE
5
1DC
100
AcDbEntity
8
1
62
256
6
ByLayer
370
-1
48
1
60
0
100
AcDbSpline
70
4
71
3
72
19
73
15
40
0
40
0
40
0
40
0
40
0.0403657336154786
40
0.106300330648536
40
0.172234927681592
40
0.238169524714649
40
0.370038718780763
40
0.501907912846877
40
0.765646300979105
40
0.831580898012162
40
0.897515495045219
40
0.930482793561747
40
0.963450092078275
40
1
40
1
40
1
40
1
41
1
10
75.5820345135636
20
8.85885283283631
30
0
41
1
10
75.5819938175393
20
8.85997910354934
30
0
41
1
10
75.5818838030526
20
8.86294471981228
30
0
41
1
10
75.5816845922698
20
8.8677483420812
30
0
41
1
10
75.5814129204699
20
8.87326457227951
30
0
41
1
10
75.5809974219789
20
8.88061798988474
30
0
41
1
10
75.5803855072629
20
8.88980519243697
30
0
41
1
10
75.5792055433467
20
8.90449084547944
30
0
41
1
10
75.5779048279337
20
8.91731717488105
30
0
41
1
10
75.5766064266393
20
8.92828775888043
30
0
41
1
10
75.576032336719
20
8.93285398236475
30
0
41
1
10
75.5755517077624
20
8.93650347859679
30
0
41
1
10
75.57516896423
20
8.93933846224277
30
0
41
1
10
75.5749040761462
20
8.94126093464084
30
0
41
1
10
75.57476393223
20
8.94227165693547
30
0
0
SPLINE
5
1DD
100
AcDbEntity
8
1
62
256
6
ByLayer
370
-1
48
1
60
0
100
AcDbSpline
70
4
71
3
72
48
73
44
40
0
40
0
40
0
40
0
40
0.015625
40
0.0234375
40
0.02734375
40
0.029296875
40
0.0302734375
40
0.03125
40
0.03173828125
40
0.046875
40
0.0625
40
0.125
40
0.1875
40
0.25
40
0.3125
40
0.375
40
0.390625
40
0.40625
40
0.4140625
40
0.421875
40
0.4375
40
0.5
40
0.5625
40
0.59375
40
0.6015625
40
0.60546875
40
0.609375
40
0.6171875
40
0.625
40
0.65625
40
0.671875
40
0.6796875
40
0.6875
40
0.71875
40
0.75
40
0.78125
40
0.7890625
40
0.79296875
40
0.796875
40
0.8046875
40
0.8125
40
0.875
40
1
40
1
40
1
40
1
41
1
10
70.6046297511602
20
6.38356731194148
30
0
41
1
10
70.6001376858634
20
6.38340984636062
30
0
41
1
10
70.5933579970497
20
6.38316933036319
30
0
41
1
10
70.5860499768361
20
6.38290487959705
30
0
41
1
10
70.5826163420435
20
6.38277926260091
30
0
41
1
10
70.5809687381472
20
6.3827186292659
30
0
41
1
10
70.5800375263313
20
6.38268425820471
30
0
41
1
10
70.5794555107359
20
6.38266276309483
30
0
41
1
10
70.5754856526742
20
6.38251619593183
30
0
41
1
10
70.5680133464309
20
6.38224031691922
30
0
41
1
10
70.5457131824862
20
6.38141699049095
30
0
41
1
10
70.5120878043916
20
6.38017553493421
30
0
41
1
10
70.467253966932
20
6.37852026085855
30
0
41
1
10
70.4224201294725
20
6.37686498678289
30
0
41
1
10
70.377586292013
20
6.3752097127072
30
0
41
1
10
70.3439703616552
20
6.37396859621319
30
0
41
1
10
70.3215345474518
20
6.3731402810499
30
0
41
1
10
70.3121957392705
20
6.37279548879459
30
0
41
1
10
70.3047549254833
20
6.37252073999107
30
0
41
1
10
70.2972420016425
20
6.37224395583561
30
0
41
1
10
70.2761695672972
20
6.37146991480372
30
0
41
1
10
70.2396182730951
20
6.37014002161231
30
0
41
1
10
70.1963857447481
20
6.36858875025928
30
0
41
1
10
70.1676419424414
20
6.36756719387972
30
0
41
1
10
70.155398440433
20
6.36713372306983
30
0
41
1
10
70.1509630171607
20
6.36697687133417
30
0
41
1
10
70.146494811922
20
6.36681899169844
30
0
41
1
10
70.1408721439939
20
6.36662038643991
30
0
41
1
10
70.1273963931405
20
6.3661443601942
30
0
41
1
10
70.1116782313963
20
6.36558911086513
30
0
41
1
10
70.0959493016891
20
6.36503351361782
30
0
41
1
10
70.0869791572902
20
6.36471660510202
30
0
41
1
10
70.073492939779
20
6.3642409166051
30
0
41
1
10
70.0530830216718
20
6.36352371011765
30
0
41
1
10
70.0256808339489
20
6.36256652774426
30
0
41
1
10
70.0051380279363
20
6.36185327131162
30
0
41
1
10
69.9926355392083
20
6.3614207872462
30
0
41
1
10
69.9881020104394
20
6.36126416146124
30
0
41
1
10
69.9835637341178
20
6.3611074734867
30
0
41
1
10
69.9778820887033
20
6.36091134269813
30
0
41
1
10
69.9551629175821
20
6.36012704760321
30
0
41
1
10
69.8983649897792
20
6.35816630986585
30
0
41
1
10
69.8438389790884
20
6.35628400163799
30
0
41
1
10
69.8074883052946
20
6.3550291294861
30
0
0
SPLINE
5
1DE
100
AcDbEntity
8
1
62
256
6
ByLayer
370
-1
48
1
60
0
100
AcDbSpline
70
4
71
3
72
8
73
4
40
0
40
0
40
0
40
0
40
1
40
1
40
1
40
1
41
1
10
70.5831287253313
20
3.44019803624775
30
0
41
1
10
70.5711238593484
20
3.43977721574092
30
0
41
1
10
70.5591182305593
20
3.43937832258663
30
0
41
1
10
70.5471119184626
20
3.43900135942633
30
0
0
SPLINE
5
1DF
100
AcDbEntity
8
1
62
256
6
ByLayer
370
-1
48
1
60
0
100
AcDbSpline
70
4
71
3
72
153
73
149
40
0
40
0
40
0
40
0
40
0.125
40
0.25
40
0.375
40
0.3828125
40
0.390625
40
0.398193359375
40
0.4019775390625
40
0.405643463134766
40
0.40576171875
40
0.406005859375
40
0.40625
40
0.4072265625
40
0.40771484375
40
0.408203125
40
0.4091796875
40
0.41015625
40
0.412109375
40
0.4140625
40
0.416015625
40
0.4169921875
40
0.41796875
40
0.4189453125
40
0.41943359375
40
0.419921875
40
0.42041015625
40
0.4208984375
40
0.421875
40
0.422119140625
40
0.42236328125
40
0.422477722167969
40
0.426025390625
40
0.4296875
40
0.4375
40
0.439453125
40
0.44140625
40
0.443359375
40
0.4443359375
40
0.4453125
40
0.445556640625
40
0.44580078125
40
0.446044921875
40
0.4462890625
40
0.4464111328125
40
0.44677734375
40
0.447265625
40
0.44921875
40
0.453125
40
0.4609375
40
0.46484375
40
0.46875
40
0.46923828125
40
0.4697265625
40
0.47021484375
40
0.4705810546875
40
0.470703125
40
0.4708251953125
40
0.47119140625
40
0.471435546875
40
0.4716796875
40
0.4718017578125
40
0.47216796875
40
0.472412109375
40
0.47265625
40
0.4727783203125
40
0.474609375
40
0.4755859375
40
0.4765625
40
0.48046875
40
0.482421875
40
0.484375
40
0.486328125
40
0.48828125
40
0.490234375
40
0.4921875
40
0.494140625
40
0.49609375
40
0.498046875
40
0.5
40
0.501953125
40
0.50390625
40
0.505859375
40
0.5078125
40
0.509765625
40
0.51171875
40
0.515625
40
0.51953125
40
0.5224609375
40
0.5234375
40
0.525390625
40
0.5263671875
40
0.527099609375
40
0.52734375
40
0.52783203125
40
0.528076171875
40
0.5283203125
40
0.5284423828125
40
0.52880859375
40
0.529052734375
40
0.529296875
40
0.5294189453125
40
0.52978515625
40
0.5302734375
40
0.53125
40
0.5390625
40
0.546875
40
0.55078125
40
0.5517578125
40
0.552734375
40
0.55322265625
40
0.5537109375
40
0.553955078125
40
0.55419921875
40
0.554443359375
40
0.5545654296875
40
0.5546875
40
0.556640625
40
0.55859375
40
0.5625
40
0.56640625
40
0.5703125
40
0.573974609375
40
0.5758056640625
40
0.57763671875
40
0.577880859375
40
0.578125
40
0.5791015625
40
0.57958984375
40
0.580078125
40
0.5810546875
40
0.58203125
40
0.5859375
40
0.587890625
40
0.58984375
40
0.5908203125
40
0.591796875
40
0.5927734375
40
0.59375
40
0.593994140625
40
0.59423828125
40
0.594380187988281
40
0.601806640625
40
0.609375
40
0.625
40
0.75
40
0.875
40
1
40
1
40
1
40
1
41
1
10
72.791560924835
20
4.33643102853935
30
0
41
1
10
72.6181367168526
20
4.33035178840402
30
0
41
1
10
72.2712883008879
20
4.31819330813334
30
0
41
1
10
71.7510156769409
20
4.29995558772737
30
0
41
1
10
71.3933282479773
20
4.28741715494826
30
0
41
1
10
71.1982260139972
20
4.28057800979602
30
0
41
1
10
71.1660476941567
20
4.27945002578653
30
0
41
1
10
71.1394582403938
20
4.27851795478921
30
0
41
1
10
71.1186217197997
20
4.27778754803833
30
0
41
1
10
71.1081214259571
20
4.27741946904578
30
0
41
1
10
71.1025325598795
20
4.27722355603359
30
0
41
1
10
71.1016910544757
20
4.27719405776756
30
0
41
1
10
71.0996587395385
20
4.27712281667223
30
0
41
1
10
71.097287705445
20
4.27703970206099
30
0
41
1
10
71.0945779521952
20
4.27694471393389
30
0
41
1
10
71.0918681989455
20
4.27684972580675
30
0
41
1
10
71.0884810073833
20
4.27673099064788
30
0
41
1
10
71.0830615008839
20
4.27654101439364
30
0
41
1
10
71.0762871177596
20
4.27630354407586
30
0
41
1
10
71.0681578580104
20
4.27601857969452
30
0
41
1
10
71.0613834748861
20
4.27578110937674
30
0
41
1
10
71.0559639683867
20
4.2755911331225
30
0
41
1
10
71.051899338512
20
4.27544865093182
30
0
41
1
10
71.0485121469499
20
4.27532991577294
30
0
41
1
10
71.0458023937002
20
4.27523492764581
30
0
41
1
10
71.0437700787629
20
4.27516368655049
30
0
41
1
10
71.0417377638256
20
4.27509244545516
30
0
41
1
10
71.0390280105759
20
4.27499745732803
30
0
41
1
10
71.0366569764824
20
4.27491434271681
30
0
41
1
10
71.0346246615451
20
4.27484310162149
30
0
41
1
10
71.0337884486282
20
4.27481378887913
30
0
41
1
10
71.0283689421287
20
4.2746238126249
30
0
41
1
10
71.0182073674422
20
4.2742676071482
30
0
41
1
10
70.9973655543614
20
4.27353701487365
30
0
41
1
10
70.9787360007695
20
4.27288397149974
30
0
41
1
10
70.9624774812712
20
4.27231404273704
30
0
41
1
10
70.9543480240296
20
4.27202906455082
30
0
41
1
10
70.9475731471744
20
4.27179155972084
30
0
41
1
10
70.9421529494517
20
4.27160153514956
30
0
41
1
10
70.9391039586283
20
4.27149463726875
30
0
41
1
10
70.937071236363
20
4.27142336770086
30
0
41
1
10
70.9360548625014
20
4.27138773202714
30
0
41
1
10
70.9350384755249
20
4.2713520954367
30
0
41
1
10
70.9341914751276
20
4.27132239749159
30
0
41
1
10
70.9331750642361
20
4.27128675922944
30
0
41
1
10
70.9318198309421
20
4.27123924023442
30
0
41
1
10
70.9279234368935
20
4.27110261625052
30
0
41
1
10
70.9191135295809
20
4.27079368050812
30
0
41
1
10
70.9001341972603
20
4.27012799054521
30
0
41
1
10
70.8784308922395
20
4.26936631850401
30
0
41
1
10
70.8567604251652
20
4.268606941862
30
0
41
1
10
70.845267672938
20
4.26820489890704
30
0
41
1
10
70.8385164080378
20
4.26796904457191
30
0
41
1
10
70.8364889810366
20
4.26789814514729
30
0
41
1
10
70.8346261916258
20
4.26783285240984
30
0
41
1
10
70.8332618257671
20
4.26778469504112
30
0
41
1
10
70.8324038263563
20
4.26775422825599
30
0
41
1
10
70.8315428851322
20
4.26772355583577
30
0
41
1
10
70.8305079559644
20
4.26768667065926
30
0
41
1
10
70.8293209293993
20
4.26764534053453
30
0
41
1
10
70.8284934729209
20
4.2676174840073
30
0
41
1
10
70.8275267938025
20
4.26758617754427
30
0
41
1
10
70.8265902327634
20
4.26755809497351
30
0
41
1
10
70.8255200331899
20
4.26753176335626
30
0
41
1
10
70.8247602583449
20
4.26751728913268
30
0
41
1
10
70.8220155525646
20
4.26747866322614
30
0
41
1
10
70.8182897385193
20
4.26752319956358
30
0
41
1
10
70.8133951123303
20
4.26776379506046
30
0
41
1
10
70.8057513319164
20
4.26833624974802
30
0
41
1
10
70.7967123772226
20
4.26959517106985
30
0
41
1
10
70.7863230079962
20
4.27190079013366
30
0
41
1
10
70.7785281876237
20
4.27407749501822
30
0
41
1
10
70.770757347991
20
4.27671575515677
30
0
41
1
10
70.7630550055649
20
4.27981514053528
30
0
41
1
10
70.7554656768122
20
4.28337522113972
30
0
41
1
10
70.7480287115918
20
4.28738902756953
30
0
41
1
10
70.7407834597626
20
4.29184959042416
30
0
41
1
10
70.7337684244486
20
4.29674026764414
30
0
41
1
10
70.7270221087732
20
4.30204441716995
30
0
41
1
10
70.7205786997156
20
4.30773673757525
30
0
41
1
10
70.7144723842546
20
4.3137919274337
30
0
41
1
10
70.7087306909015
20
4.32017751771184
30
0
41
1
10
70.7033811481679
20
4.32686103937624
30
0
41
1
10
70.6984429802422
20
4.33380509726877
30
0
41
1
10
70.6939354113132
20
4.34097229623134
30
0
41
1
10
70.688512345903
20
4.35077419255776
30
0
41
1
10
70.6828583660058
20
4.36338982670196
30
0
41
1
10
70.6783146769249
20
4.3774731282183
30
0
41
1
10
70.6760200129288
20
4.38771698993017
30
0
41
1
10
70.6747136382683
20
4.39535882404317
30
0
41
1
10
70.6740470061605
20
4.40042590100865
30
0
41
1
10
70.6736115375693
20
4.4051061447575
30
0
41
1
10
70.67343792906
20
4.4075735497041
30
0
41
1
10
70.6733327538316
20
4.40940957371512
30
0
41
1
10
70.6732751357766
20
4.41062595504599
30
0
41
1
10
70.6732241347574
20
4.41187378936297
30
0
41
1
10
70.6731937908588
20
4.41267493448498
30
0
41
1
10
70.673157653921
20
4.41366276137467
30
0
41
1
10
70.6731218389375
20
4.4146805617377
30
0
41
1
10
70.6730803243707
20
4.4158885330867
30
0
41
1
10
70.6730507489887
20
4.41675427744653
30
0
41
1
10
70.6730152600725
20
4.41778784231553
30
0
41
1
10
70.6729679439742
20
4.4191574428965
30
0
41
1
10
70.6728792315383
20
4.42170731275144
30
0
41
1
10
70.6724297682212
20
4.43458165828645
30
0
41
1
10
70.6716254472649
20
4.4576827584967
30
0
41
1
10
70.6706791713747
20
4.48491559545647
30
0
41
1
10
70.6700640950374
20
4.50260660568591
30
0
41
1
10
70.6697802140824
20
4.51077019687912
30
0
41
1
10
70.669661930417
20
4.51417146550182
30
0
41
1
10
70.6695673035207
20
4.51689235619574
30
0
41
1
10
70.6695081617247
20
4.51859286371524
30
0
41
1
10
70.6694608482961
20
4.51995324178489
30
0
41
1
10
70.6694253632285
20
4.52097351175226
30
0
41
1
10
70.669395792342
20
4.52182372572784
30
0
41
1
10
70.6693721356347
20
4.52250389050403
30
0
41
1
10
70.6692656804572
20
4.52556461307506
30
0
41
1
10
70.6690705127159
20
4.53117564746123
30
0
41
1
10
70.6686920058114
20
4.54205685863616
30
0
41
1
10
70.6682188724683
20
4.55565737897078
30
0
41
1
10
70.6676511124566
20
4.57197800337229
30
0
41
1
10
70.6670951807785
20
4.58795861476546
30
0
41
1
10
70.6666397899358
20
4.6010491155875
30
0
41
1
10
70.6662849399285
20
4.61124950583846
30
0
41
1
10
70.6660956865912
20
4.61668971397231
30
0
41
1
10
70.6659833174223
20
4.61991983755178
30
0
41
1
10
70.6659123474208
20
4.62195991560196
30
0
41
1
10
70.6658295490858
20
4.6243400066605
30
0
41
1
10
70.6657349224172
20
4.62706011072743
30
0
41
1
10
70.6656402957486
20
4.62978021479435
30
0
41
1
10
70.6655220124128
20
4.63318034487801
30
0
41
1
10
70.665238132407
20
4.64134065707876
30
0
41
1
10
70.6649069390668
20
4.65086102131298
30
0
41
1
10
70.6645284323924
20
4.66174143758067
30
0
41
1
10
70.6642918657208
20
4.66854169774797
30
0
41
1
10
70.6641026123836
20
4.67398190588182
30
0
41
1
10
70.6639606723807
20
4.67806206198219
30
0
41
1
10
70.6638187323778
20
4.68214221808259
30
0
41
1
10
70.6637122773756
20
4.68520233515787
30
0
41
1
10
70.6636413073741
20
4.68724241320805
30
0
41
1
10
70.6636107754881
20
4.6881200717859
30
0
41
1
10
70.6632322688137
20
4.69900048805357
30
0
41
1
10
70.6624989121319
20
4.72008129457222
30
0
41
1
10
70.6610154173201
20
4.7627253010651
30
0
41
1
10
70.6538356188391
20
4.96911319714272
30
0
41
1
10
70.6409663919077
20
5.33904735024393
30
0
41
1
10
70.622798071534
20
5.86130733109269
30
0
41
1
10
70.6106858579515
20
6.20948065165854
30
0
41
1
10
70.6046297511602
20
6.38356731194148
30
0
0
SPLINE
5
1E0
100
AcDbEntity
8
1
62
256
6
ByLayer
370
-1
48
1
60
0
100
AcDbSpline
70
4
71
3
72
8
73
4
40
0
40
0
40
0
40
0
40
1
40
1
40
1
40
1
41
1
10
75.126815404473
20
3.5995390239045
30
0
41
1
10
75.1148121050289
20
3.59907434999033
30
0
41
1
10
75.1028079632845
20
3.59863160063787
30
0
41
1
10
75.0908030587289
20
3.59821077877891
30
0
0
SPLINE
5
1E1
100
AcDbEntity
8
1
62
256
6
ByLayer
370
-1
48
1
60
0
100
AcDbSpline
70
4
71
3
72
19
73
15
40
0
40
0
40
0
40
0
40
0.0403657336154939
40
0.106300330648551
40
0.172234927681609
40
0.238169524714666
40
0.370038718780781
40
0.501907912846896
40
0.765646300979125
40
0.831580898012183
40
0.89751549504524
40
0.930482793561769
40
0.963450092078298
40
1
40
1
40
1
40
1
41
1
10
69.8874532365079
20
4.0564304031212
30
0
41
1
10
69.8874939325322
20
4.05530413240817
30
0
41
1
10
69.8876039470189
20
4.0523385161452
30
0
41
1
10
69.8878031578017
20
4.04753489387628
30
0
41
1
10
69.8880748296016
20
4.04201866367796
30
0
41
1
10
69.8884903280925
20
4.03466524607273
30
0
41
1
10
69.8891022428086
20
4.02547804352051
30
0
41
1
10
69.8902822067247
20
4.01079239047803
30
0
41
1
10
69.8915829221378
20
3.99796606107643
30
0
41
1
10
69.8928813234322
20
3.98699547707704
30
0
41
1
10
69.8934554133525
20
3.98242925359273
30
0
41
1
10
69.893936042309
20
3.97877975736068
30
0
41
1
10
69.8943187858414
20
3.9759447737147
30
0
41
1
10
69.8945836739253
20
3.97402230131664
30
0
41
1
10
69.8947238178415
20
3.97301157902203
30
0
0
SPLINE
5
1E2
100
AcDbEntity
8
1
62
256
6
ByLayer
370
-1
48
1
60
0
100
AcDbSpline
70
4
71
3
72
153
73
149
40
0
40
0
40
0
40
0
40
0.125
40
0.25
40
0.375
40
0.3828125
40
0.390625
40
0.398193359375
40
0.4019775390625
40
0.405643463134766
40
0.40576171875
40
0.406005859375
40
0.40625
40
0.4072265625
40
0.40771484375
40
0.408203125
40
0.4091796875
40
0.41015625
40
0.412109375
40
0.4140625
40
0.416015625
40
0.4169921875
40
0.41796875
40
0.4189453125
40
0.41943359375
40
0.419921875
40
0.42041015625
40
0.4208984375
40
0.421875
40
0.422119140625
40
0.42236328125
40
0.422477722167969
40
0.426025390625
40
0.4296875
40
0.4375
40
0.439453125
40
0.44140625
40
0.443359375
40
0.4443359375
40
0.4453125
40
0.445556640625
40
0.44580078125
40
0.446044921875
40
0.4462890625
40
0.4464111328125
40
0.44677734375
40
0.447265625
40
0.44921875
40
0.453125
40
0.4609375
40
0.46484375
40
0.46875
40
0.46923828125
40
0.4697265625
40
0.47021484375
40
0.4705810546875
40
0.470703125
40
0.4708251953125
40
0.47119140625
40
0.471435546875
40
0.4716796875
40
0.4718017578125
40
0.47216796875
40
0.472412109375
40
0.47265625
40
0.4727783203125
40
0.474609375
40
0.4755859375
40
0.4765625
40
0.48046875
40
0.482421875
40
0.484375
40
0.486328125
40
0.48828125
40
0.490234375
40
0.4921875
40
0.494140625
40
0.49609375
40
0.498046875
40
0.5
40
0.501953125
40
0.50390625
40
0.505859375
40
0.5078125
40
0.509765625
40
0.51171875
40
0.515625
40
0.51953125
40
0.5224609375
40
0.5234375
40
0.525390625
40
0.5263671875
40
0.527099609375
40
0.52734375
40
0.52783203125
40
0.528076171875
40
0.5283203125
40
0.5284423828125
40
0.52880859375
40
0.529052734375
40
0.529296875
40
0.5294189453125
40
0.52978515625
40
0.5302734375
40
0.53125
40
0.5390625
40
0.546875
40
0.55078125
40
0.5517578125
40
0.552734375
40
0.55322265625
40
0.5537109375
40
0.553955078125
40
0.55419921875
40
0.554443359375
40
0.5545654296875
40
0.5546875
40
0.556640625
40
0.55859375
40
0.5625
40
0.56640625
40
0.5703125
40
0.573974609375
40
0.5758056640625
40
0.57763671875
40
0.577880859375
40
0.578125
40
0.5791015625
40
0.57958984375
40
0.580078125
40
0.5810546875
40
0.58203125
40
0.5859375
40
0.587890625
40
0.58984375
40
0.5908203125
40
0.591796875
40
0.5927734375
40
0.59375
40
0.593994140625
40
0.59423828125
40
0.594380187988281
40
0.601806640625
40
0.609375
40
0.625
40
0.75
40
0.875
40
1
40
1
40
1
40
1
41
1
10
72.6439760629567
20
8.57885220741812
30
0
41
1
10
72.8174002709391
20
8.58493144755346
30
0
41
1
10
73.1642486869038
20
8.59708992782413
30
0
41
1
10
73.6845213108508
20
8.61532764823011
30
0
41
1
10
74.0422087398144
20
8.62786608100922
30
0
41
1
10
74.2373109737945
20
8.63470522616146
30
0
41
1
10
74.269489293635
20
8.63583321017094
30
0
41
1
10
74.2960787473979
20
8.63676528116827
30
0
41
1
10
74.316915267992
20
8.63749568791914
30
0
41
1
10
74.3274155618346
20
8.63786376691172
30
0
41
1
10
74.3330044279122
20
8.63805967992388
30
0
41
1
10
74.333845933316
20
8.63808917818992
30
0
41
1
10
74.3358782482533
20
8.63816041928527
30
0
41
1
10
74.3382492823467
20
8.63824353389649
30
0
41
1
10
74.3409590355965
20
8.63833852202359
30
0
41
1
10
74.3436687888462
20
8.63843351015072
30
0
41
1
10
74.3470559804083
20
8.6385522453096
30
0
41
1
10
74.3524754869078
20
8.63874222156383
30
0
41
1
10
74.3592498700321
20
8.63897969188162
30
0
41
1
10
74.3673791297813
20
8.63926465626295
30
0
41
1
10
74.3741535129056
20
8.63950212658074
30
0
41
1
10
74.379573019405
20
8.63969210283497
30
0
41
1
10
74.3836376492796
20
8.63983458502565
30
0
41
1
10
74.3870248408418
20
8.63995332018453
30
0
41
1
10
74.3897345940915
20
8.64004830831166
30
0
41
1
10
74.3917669090288
20
8.64011954940699
30
0
41
1
10
74.3937992239661
20
8.64019079050232
30
0
41
1
10
74.3965089772158
20
8.64028577862945
30
0
41
1
10
74.3988800113093
20
8.64036889324066
30
0
41
1
10
74.4009123262466
20
8.64044013433602
30
0
41
1
10
74.4017485391635
20
8.64046944707835
30
0
41
1
10
74.407168045663
20
8.64065942333258
30
0
41
1
10
74.4173296203494
20
8.64101562880927
30
0
41
1
10
74.4381714334303
20
8.64174622108382
30
0
41
1
10
74.4568009870222
20
8.64239926445774
30
0
41
1
10
74.4730595065205
20
8.64296919322044
30
0
41
1
10
74.4811889637621
20
8.64325417140665
30
0
41
1
10
74.4879638406173
20
8.64349167623664
30
0
41
1
10
74.49338403834
20
8.64368170080792
30
0
41
1
10
74.4964330291634
20
8.64378859868873
30
0
41
1
10
74.4984657514287
20
8.64385986825664
30
0
41
1
10
74.4994821252903
20
8.64389550393034
30
0
41
1
10
74.5004985122667
20
8.64393114052078
30
0
41
1
10
74.5013455126641
20
8.64396083846589
30
0
41
1
10
74.5023619235556
20
8.64399647672803
30
0
41
1
10
74.5037171568496
20
8.64404399572305
30
0
41
1
10
74.5076135508982
20
8.64418061970696
30
0
41
1
10
74.5164234582107
20
8.64448955544935
30
0
41
1
10
74.5354027905314
20
8.64515524541227
30
0
41
1
10
74.5571060955522
20
8.64591691745346
30
0
41
1
10
74.5787765626264
20
8.64667629409547
30
0
41
1
10
74.5902693148537
20
8.64707833705046
30
0
41
1
10
74.5970205797539
20
8.64731419138556
30
0
41
1
10
74.5990480067551
20
8.64738509081019
30
0
41
1
10
74.6009107961659
20
8.64745038354764
30
0
41
1
10
74.6022751620246
20
8.64749854091639
30
0
41
1
10
74.6031331614354
20
8.64752900770148
30
0
41
1
10
74.6039941026595
20
8.64755968012173
30
0
41
1
10
74.6050290318273
20
8.64759656529822
30
0
41
1
10
74.6062160583924
20
8.64763789542295
30
0
41
1
10
74.6070435148707
20
8.64766575195017
30
0
41
1
10
74.6080101939892
20
8.6476970584132
30
0
41
1
10
74.6089467550283
20
8.64772514098397
30
0
41
1
10
74.6100169546017
20
8.64775147260121
30
0
41
1
10
74.6107767294468
20
8.64776594682479
30
0
41
1
10
74.6135214352271
20
8.64780457273133
30
0
41
1
10
74.6172472492724
20
8.64776003639389
30
0
41
1
10
74.6221418754614
20
8.64751944089704
30
0
41
1
10
74.6297856558753
20
8.64694698620946
30
0
41
1
10
74.6388246105691
20
8.64568806488762
30
0
41
1
10
74.6492139797955
20
8.64338244582382
30
0
41
1
10
74.657008800168
20
8.64120574093926
30
0
41
1
10
74.6647796398007
20
8.6385674808007
30
0
41
1
10
74.6724819822268
20
8.6354680954222
30
0
41
1
10
74.6800713109795
20
8.63190801481775
30
0
41
1
10
74.6875082761999
20
8.62789420838794
30
0
41
1
10
74.694753528029
20
8.62343364553331
30
0
41
1
10
74.7017685633431
20
8.61854296831334
30
0
41
1
10
74.7085148790185
20
8.61323881878755
30
0
41
1
10
74.7149582880761
20
8.60754649838225
30
0
41
1
10
74.7210646035371
20
8.60149130852378
30
0
41
1
10
74.7268062968902
20
8.59510571824563
30
0
41
1
10
74.7321558396238
20
8.58842219658123
30
0
41
1
10
74.7370940075494
20
8.58147813868871
30
0
41
1
10
74.7416015764785
20
8.57431093972613
30
0
41
1
10
74.7470246418887
20
8.56450904339971
30
0
41
1
10
74.7526786217859
20
8.55189340925554
30
0
41
1
10
74.7572223108668
20
8.53781010773918
30
0
41
1
10
74.7595169748629
20
8.52756624602731
30
0
41
1
10
74.7608233495234
20
8.5199244119143
30
0
41
1
10
74.7614899816311
20
8.51485733494883
30
0
41
1
10
74.7619254502224
20
8.51017709120001
30
0
41
1
10
74.7620990587317
20
8.50770968625338
30
0
41
1
10
74.7622042339601
20
8.50587366224235
30
0
41
1
10
74.7622618520151
20
8.50465728091149
30
0
41
1
10
74.7623128530342
20
8.5034094465945
30
0
41
1
10
74.7623431969329
20
8.50260830147249
30
0
41
1
10
74.7623793338707
20
8.50162047458281
30
0
41
1
10
74.7624151488542
20
8.50060267421978
30
0
41
1
10
74.762456663421
20
8.49939470287077
30
0
41
1
10
74.762486238803
20
8.49852895851095
30
0
41
1
10
74.7625217277191
20
8.49749539364194
30
0
41
1
10
74.7625690438175
20
8.49612579306097
30
0
41
1
10
74.7626577562534
20
8.49357592320604
30
0
41
1
10
74.7631072195705
20
8.48070157767103
30
0
41
1
10
74.7639115405267
20
8.45760047746077
30
0
41
1
10
74.764857816417
20
8.430367640501
30
0
41
1
10
74.7654728927543
20
8.41267663027156
30
0
41
1
10
74.7657567737093
20
8.40451303907835
30
0
41
1
10
74.7658750573747
20
8.40111177045566
30
0
41
1
10
74.765969684271
20
8.39839087976173
30
0
41
1
10
74.766028826067
20
8.39669037224223
30
0
41
1
10
74.7660761394956
20
8.39532999417261
30
0
41
1
10
74.7661116245632
20
8.39430972420521
30
0
41
1
10
74.7661411954497
20
8.39345951022963
30
0
41
1
10
74.766164852157
20
8.39277934545345
30
0
41
1
10
74.7662713073345
20
8.38971862288241
30
0
41
1
10
74.7664664750758
20
8.38410758849625
30
0
41
1
10
74.7668449819803
20
8.37322637732132
30
0
41
1
10
74.7673181153234
20
8.35962585698672
30
0
41
1
10
74.7678858753351
20
8.34330523258518
30
0
41
1
10
74.7684418070132
20
8.32732462119202
30
0
41
1
10
74.7688971978559
20
8.31423412036997
30
0
41
1
10
74.7692520478632
20
8.30403373011902
30
0
41
1
10
74.7694413012004
20
8.29859352198517
30
0
41
1
10
74.7695536703694
20
8.2953633984057
30
0
41
1
10
74.7696246403709
20
8.29332332035551
30
0
41
1
10
74.7697074387059
20
8.29094322929697
30
0
41
1
10
74.7698020653745
20
8.28822312523005
30
0
41
1
10
74.7698966920431
20
8.28550302116312
30
0
41
1
10
74.7700149753789
20
8.28210289107949
30
0
41
1
10
74.7702988553847
20
8.27394257887872
30
0
41
1
10
74.7706300487249
20
8.2644222146445
30
0
41
1
10
74.7710085553993
20
8.2535417983768
30
0
41
1
10
74.7712451220709
20
8.24674153820951
30
0
41
1
10
74.7714343754081
20
8.24130133007566
30
0
41
1
10
74.771576315411
20
8.23722117397529
30
0
41
1
10
74.7717182554139
20
8.23314101787491
30
0
41
1
10
74.7718247104161
20
8.23008090079961
30
0
41
1
10
74.7718956804176
20
8.22804082274942
30
0
41
1
10
74.7719262123036
20
8.22716316417157
30
0
41
1
10
74.772304718978
20
8.2162827479039
30
0
41
1
10
74.7730380756598
20
8.19520194138528
30
0
41
1
10
74.7745215704716
20
8.15255793489237
30
0
41
1
10
74.7817013689526
20
7.94617003881476
30
0
41
1
10
74.794570595884
20
7.57623588571354
30
0
41
1
10
74.8127389162577
20
7.05397590486479
30
0
41
1
10
74.8248511298402
20
6.70580258429894
30
0
41
1
10
74.8309072366314
20
6.531715924016
30
0
0
SPLINE
5
1E3
100
AcDbEntity
8
1
62
256
6
ByLayer
370
-1
48
1
60
0
100
AcDbSpline
70
4
71
3
72
22
73
18
40
0
40
0
40
0
40
0
40
0.0178234039226169
40
0.0278216291117311
40
0.0378198543008453
40
0.112806543219202
40
0.187793232137559
40
0.337766609974272
40
0.4977382130001
40
0.657709816025928
40
0.817681419051756
40
0.89766722056467
40
0.977653022077584
40
0.982652134672141
40
0.987651247266698
40
0.997649472455812
40
1
40
1
40
1
40
1
41
1
10
70.2595686035075
20
9.30851009041129
30
0
41
1
10
70.2587591146324
20
9.30839698983013
30
0
41
1
10
70.2574955865216
20
9.30821955882087
30
0
41
1
10
70.2557779236522
20
9.30797749015494
30
0
41
1
10
70.2514640222504
20
9.30736875898771
30
0
41
1
10
70.244198508611
20
9.30634359097775
30
0
41
1
10
70.2305756817314
20
9.30442155836701
30
0
41
1
10
70.2130930682684
20
9.30195515185676
30
0
41
1
10
70.191750657028
20
9.29894421403904
30
0
41
1
10
70.1699541519314
20
9.29586921371455
30
0
41
1
10
70.1517903976842
20
9.29330671344417
30
0
41
1
10
70.1372088437907
20
9.29124790784866
30
0
41
1
10
70.1297363749441
20
9.29019437417941
30
0
41
1
10
70.1256922612043
20
9.28962525491565
30
0
41
1
10
70.1247963687246
20
9.28949908426256
30
0
41
1
10
70.1240253445283
20
9.28939021849487
30
0
41
1
10
70.1234831452926
20
9.28931330947015
30
0
41
1
10
70.1233801683353
20
9.28929868679248
30
0
0
SPLINE
5
1E4
100
AcDbEntity
8
1
62
256
6
ByLayer
370
-1
48
1
60
0
100
AcDbSpline
70
4
71
3
72
22
73
18
40
0
40
0
40
0
40
0
40
0.0023505275440503
40
0.0123487527331691
40
0.0223469779222879
40
0.0623398786787629
40
0.102332779435229
40
0.182318580948188
40
0.262304382461134
40
0.342290183974088
40
0.662233390025889
40
0.81220676786267
40
0.957493477642038
40
0.962180145699451
40
0.972178370888566
40
0.982176596077689
40
1
40
1
40
1
40
1
41
1
10
75.1429716666527
20
9.4652562561223
30
0
41
1
10
75.1428679243971
20
9.46526363243137
30
0
41
1
10
75.1423217014443
20
9.46530238772931
30
0
41
1
10
75.1413211663333
20
9.46537273617182
30
0
41
1
10
75.1386065504825
20
9.46556230836407
30
0
41
1
10
75.1345157528161
20
9.46584860592714
30
0
41
1
10
75.1272050859679
20
9.46636149798215
30
0
41
1
10
75.1180243969173
20
9.46700696503825
30
0
41
1
10
75.1070330896826
20
9.46777890338765
30
0
41
1
10
75.0850759948393
20
9.46932015796858
30
0
41
1
10
75.0599168236646
20
9.47108617884257
30
0
41
1
10
75.031770000913
20
9.47306191469536
30
0
41
1
10
75.0180467876224
20
9.47402540387429
30
0
41
1
10
75.0107277250604
20
9.47453937413817
30
0
41
1
10
75.0095984163416
20
9.47461867982233
30
0
41
1
10
75.0078681160119
20
9.47473988303062
30
0
41
1
10
75.0065953359286
20
9.4748284058837
30
0
41
1
10
75.0057799594519
20
9.47488454817295
30
0
0
SPLINE
5
1E5
100
AcDbEntity
8
1
62
256
6
ByLayer
370
-1
48
1
60
0
100
AcDbSpline
70
4
71
3
72
13
73
9
40
0
40
0
40
0
40
0
40
0.312317913031035
40
0.624635826062069
40
0.936953739093104
40
0.975993478221983
40
0.994903351862534
40
1
40
1
40
1
40
1
41
1
10
72.8369658920301
20
3.51920440751331
30
0
41
1
10
73.071603796032
20
3.52742944241402
30
0
41
1
10
73.5408796040356
20
3.54387951221537
30
0
41
1
10
74.2447933160412
20
3.5685546169174
30
0
41
1
10
74.7433988620451
20
3.58603281608134
30
0
41
1
10
75.0215730958911
20
3.59578398050462
30
0
41
1
10
75.0689384306897
20
3.59744433258396
30
0
41
1
10
75.0869740521794
20
3.59807644142847
30
0
41
1
10
75.0908030637888
20
3.59821063329403
30
0
0
SPLINE
5
1E6
100
AcDbEntity
8
1
62
256
6
ByLayer
370
-1
48
1
60
0
100
AcDbSpline
70
4
71
3
72
14
73
10
40
0
40
0
40
0
40
0
40
0.0050966481374688
40
0.0240065217780194
40
0.043526391342459
40
0.0630462609068986
40
0.375364173937932
40
0.687682086968966
40
1
40
1
40
1
40
1
41
1
10
74.8863590196779
20
9.47508534519451
30
0
41
1
10
74.8825300102174
20
9.47495109155534
30
0
41
1
10
74.864494396701
20
9.47431875351478
30
0
41
1
10
74.8317939309025
20
9.47317246611672
30
0
41
1
10
74.7882576010583
20
9.47164633659415
30
0
41
1
10
74.5242899590563
20
9.46239317233088
30
0
41
1
10
74.0403492820525
20
9.44542903784821
30
0
41
1
10
73.3364355700469
20
9.42075393314619
30
0
41
1
10
72.8671597620432
20
9.40430386334484
30
0
41
1
10
72.6325218580414
20
9.39607882844416
30
0
0
SPLINE
5
1E7
100
AcDbEntity
8
1
62
256
6
ByLayer
370
-1
48
1
60
0
100
AcDbSpline
70
4
71
3
72
13
73
9
40
0
40
0
40
0
40
0
40
0.312317913031033
40
0.624635826062066
40
0.9369537390931
40
0.975993478221979
40
0.99490335186253
40
1
40
1
40
1
40
1
41
1
10
69.8074883052946
20
6.3550291294861
30
0
41
1
10
69.8156820414543
20
6.11949494680945
30
0
41
1
10
69.8320695137736
20
5.64842658145616
30
0
41
1
10
69.8566507222527
20
4.94182403342623
30
0
41
1
10
69.874062411592
20
4.44131389523835
30
0
41
1
10
69.8837764698907
20
4.16207708101038
30
0
41
1
10
69.8854305038291
20
4.11453081832755
30
0
41
1
10
69.8860602073086
20
4.09642630369382
30
0
41
1
10
69.8861938885336
20
4.09258266588205
30
0
0
SPLINE
5
1E8
100
AcDbEntity
8
1
62
256
6
ByLayer
370
-1
48
1
60
0
100
AcDbSpline
70
4
71
3
72
23
73
19
40
0
40
0
40
0
40
0
40
0.036549907921713
40
0.0695172064382411
40
0.102484504954769
40
0.135451803471297
40
0.168419101987825
40
0.234353699020881
40
0.300288296053923
40
0.366222893086994
40
0.498092087153106
40
0.629961281219211
40
0.761830475285331
40
0.827765072318383
40
0.893699669351443
40
0.926666967867971
40
0.959634266384499
40
1
40
1
40
1
40
1
41
1
10
69.7289824651215
20
8.73735269129241
30
0
41
1
10
69.7289128987214
20
8.73633461777857
30
0
41
1
10
69.7287822504774
20
8.73439828018633
30
0
41
1
10
69.7285974452205
20
8.73154340159363
30
0
41
1
10
69.7284280570313
20
8.72878770562505
30
0
41
1
10
69.7282694423431
20
8.72603102036101
30
0
41
1
10
69.7280718076321
20
8.72235427560975
30
0
41
1
10
69.7278497737655
20
8.7177564514123
30
0
41
1
10
69.7276202695923
20
8.71223696113043
30
0
41
1
10
69.727364021196
20
8.7048753120792
30
0
41
1
10
69.7271379589127
20
8.69566977134468
30
0
41
1
10
69.7270205325846
20
8.68462039329742
30
0
41
1
10
69.7270485366238
20
8.67541272224625
30
0
41
1
10
69.7271450468245
20
8.66804812277408
30
0
41
1
10
69.7272386455689
20
8.66344660927842
30
0
41
1
10
69.7273349336649
20
8.65976664754905
30
0
41
1
10
69.727422325865
20
8.65680055058914
30
0
41
1
10
69.727488785688
20
8.65475434066192
30
0
41
1
10
69.7275264545083
20
8.65362796383278
30
0
0
SPLINE
5
1E9
100
AcDbEntity
8
1
62
256
6
ByLayer
370
-1
48
1
60
0
100
AcDbSpline
70
4
71
3
72
8
73
4
40
0
40
0
40
0
40
0
40
1
40
1
40
1
40
1
41
1
10
69.8875172242167
20
4.05643276390703
30
0
41
1
10
69.8870543185271
20
4.06848191400491
30
0
41
1
10
69.8866132539696
20
4.08053190962062
30
0
41
1
10
69.8861940334648
20
4.09258267096132
30
0
0
SPLINE
5
1EA
100
AcDbEntity
8
1
62
256
6
ByLayer
370
-1
48
1
60
0
100
AcDbSpline
70
4
71
3
72
22
73
18
40
0
40
0
40
0
40
0
40
0.0023505275440183
40
0.0123487527331361
40
0.022346977922254
40
0.0623398786787254
40
0.102332779435188
40
0.18231858094814
40
0.262304382461078
40
0.342290183974025
40
0.662233390025797
40
0.812206767862564
40
0.957493477641919
40
0.962180145699332
40
0.972178370888445
40
0.982176596077568
40
1
40
1
40
1
40
1
41
1
10
75.7309136314575
20
4.04021478743044
30
0
41
1
10
75.7309209796975
20
4.04031892596456
30
0
41
1
10
75.7309595875198
20
4.04086723540033
30
0
41
1
10
75.7310296682653
20
4.04187159239285
30
0
41
1
10
75.7312185190781
20
4.04459657763528
30
0
41
1
10
75.7315037271925
20
4.0487030014842
30
0
41
1
10
75.7320146675384
20
4.05604159389202
30
0
41
1
10
75.7326576783975
20
4.06525735168336
30
0
41
1
10
75.7334266792884
20
4.07629064392609
30
0
41
1
10
75.7349620689303
20
4.09833161130464
30
0
41
1
10
75.7367213695617
20
4.12358688642593
30
0
41
1
10
75.7386895871431
20
4.15184122546788
30
0
41
1
10
75.7396494099548
20
4.16561685920368
30
0
41
1
10
75.7401614244067
20
4.17296387939567
30
0
41
1
10
75.7402404283088
20
4.17409750189026
30
0
41
1
10
75.7403611703022
20
4.1758344116862
30
0
41
1
10
75.7404493562991
20
4.17711205358262
30
0
41
1
10
75.74050528495
20
4.17793054466503
30
0
0
SPLINE
5
1EB
100
AcDbEntity
8
1
62
256
6
ByLayer
370
-1
48
1
60
0
100
AcDbSpline
70
4
71
3
72
19
73
15
40
0
40
0
40
0
40
0
40
0.040365733615499
40
0.106300330648553
40
0.172234927681606
40
0.238169524714659
40
0.370038718780766
40
0.501907912846873
40
0.765646300979087
40
0.831580898012141
40
0.897515495045194
40
0.930482793561721
40
0.963450092078248
40
1
40
1
40
1
40
1
41
1
10
75.1268177562753
20
3.59947479177302
30
0
41
1
10
75.1279397411882
20
3.59951564324953
30
0
41
1
10
75.130894072386
20
3.59962607797368
30
0
41
1
10
75.1356794154219
20
3.59982604970929
30
0
41
1
10
75.1411746546989
20
3.6000987592513
30
0
41
1
10
75.1485000903301
20
3.60051584487905
30
0
41
1
10
75.1576523328029
20
3.60113009700987
30
0
41
1
10
75.1722821025019
20
3.60231456819651
30
0
41
1
10
75.1850596238477
20
3.60362025213118
30
0
41
1
10
75.1959884614628
20
3.60492361310756
30
0
41
1
10
75.2005373090882
20
3.60549989595808
30
0
41
1
10
75.2041729178853
20
3.60598236083914
30
0
41
1
10
75.2069971135626
20
3.60636656638968
30
0
41
1
10
75.2089122703728
20
3.60663246630298
30
0
41
1
10
75.2099191465639
20
3.60677314554618
30
0
0
SPLINE
5
1EC
100
AcDbEntity
8
1
62
256
6
ByLayer
370
-1
48
1
60
0
100
AcDbSpline
70
4
71
3
72
22
73
18
40
0
40
0
40
0
40
0
40
0.0023505275440228
40
0.0123487527331406
40
0.0223469779222584
40
0.0623398786787297
40
0.102332779435192
40
0.182318580948143
40
0.262304382461081
40
0.342290183974028
40
0.662233390025798
40
0.812206767862565
40
0.95749347764192
40
0.962180145699332
40
0.972178370888446
40
0.982176596077568
40
1
40
1
40
1
40
1
41
1
10
69.738574118614
20
8.87506844852703
30
0
41
1
10
69.738566770374
20
8.87496430999292
30
0
41
1
10
69.7385281625517
20
8.87441600055715
30
0
41
1
10
69.7384580818062
20
8.87341164356462
30
0
41
1
10
69.7382692309934
20
8.8706866583222
30
0
41
1
10
69.737984022879
20
8.86658023447328
30
0
41
1
10
69.7374730825331
20
8.85924164206546
30
0
41
1
10
69.736830071674
20
8.85002588427412
30
0
41
1
10
69.7360610707831
20
8.83899259203139
30
0
41
1
10
69.7345256811412
20
8.81695162465283
30
0
41
1
10
69.7327663805098
20
8.79169634953155
30
0
41
1
10
69.7307981629284
20
8.76344201048963
30
0
41
1
10
69.7298383401167
20
8.74966637675379
30
0
41
1
10
69.7293263256648
20
8.74231935656181
30
0
41
1
10
69.7292473217627
20
8.74118573406722
30
0
41
1
10
69.7291265797692
20
8.73944882427128
30
0
41
1
10
69.7290383937723
20
8.73817118237486
30
0
41
1
10
69.7289824651215
20
8.73735269129244
30
0
0
SPLINE
5
1ED
100
AcDbEntity
8
1
62
256
6
ByLayer
370
-1
48
1
60
0
100
AcDbSpline
70
4
71
3
72
23
73
19
40
0
40
0
40
0
40
0
40
0.0365499079217328
40
0.0695172064382652
40
0.102484504954798
40
0.13545180347133
40
0.168419101987862
40
0.234353699020927
40
0.300288296053977
40
0.366222893087057
40
0.498092087153186
40
0.629961281219309
40
0.761830475285446
40
0.827765072318507
40
0.893699669351576
40
0.926666967868108
40
0.95963426638464
40
1
40
1
40
1
40
1
41
1
10
70.4637077906196
20
3.44039868778455
30
0
41
1
10
70.4647219900564
20
3.4403288556521
30
0
41
1
10
70.4666509592995
20
3.44019770835297
30
0
41
1
10
70.4694949742172
20
3.44001219717012
30
0
41
1
10
70.4722401839307
20
3.43984216194553
30
0
41
1
10
70.474986379175
20
3.439682941375
30
0
41
1
10
70.4786491328025
20
3.43948455173148
30
0
41
1
10
70.4832294608907
20
3.43926166973157
30
0
41
1
10
70.4887279478457
20
3.43903128888976
30
0
41
1
10
70.4960615835997
20
3.43877406166612
30
0
41
1
10
70.5052320944725
20
3.43854713586168
30
0
41
1
10
70.5162394263004
20
3.43842926098407
30
0
41
1
10
70.5254120593834
20
3.43845737199419
30
0
41
1
10
70.5327486343311
20
3.43855425084817
30
0
41
1
10
70.5373326376787
20
3.4386482071246
30
0
41
1
10
70.5409985960426
20
3.43874486302548
30
0
41
1
10
70.5439534061081
20
3.43883258904958
30
0
41
1
10
70.5459918295888
20
3.43889930273832
30
0
41
1
10
70.5471139202141
20
3.43893711544737
30
0
0
SPLINE
5
1EE
100
AcDbEntity
8
1
62
256
6
ByLayer
370
-1
48
1
60
0
100
AcDbSpline
70
4
71
3
72
8
73
4
40
0
40
0
40
0
40
0
40
1
40
1
40
1
40
1
41
1
10
74.8863590247402
20
9.47508519970972
30
0
41
1
10
74.8983638907231
20
9.47550602021656
30
0
41
1
10
74.9103695195122
20
9.47590491337084
30
0
41
1
10
74.9223758316089
20
9.47628187653115
30
0
0
SPLINE
5
1EF
100
AcDbEntity
8
1
62
256
6
ByLayer
370
-1
48
1
60
0
100
AcDbSpline
70
4
71
3
72
8
73
4
40
0
40
0
40
0
40
0
40
1
40
1
40
1
40
1
41
1
10
70.3426723455985
20
9.31574421205301
30
0
41
1
10
70.3546756450426
20
9.31620888596714
30
0
41
1
10
70.366679786787
20
9.3166516353196
30
0
41
1
10
70.3786846913425
20
9.3170724571786
30
0
0
SPLINE
5
1F0
100
AcDbEntity
8
1
62
256
6
ByLayer
370
-1
48
1
60
0
100
AcDbSpline
70
4
71
3
72
14
73
10
40
0
40
0
40
0
40
0
40
0.0050966481374707
40
0.0240065217780212
40
0.0435263913424608
40
0.0630462609069004
40
0.375364173937934
40
0.687682086968967
40
1
40
1
40
1
40
1
41
1
10
75.7407053178783
20
4.29780765302823
30
0
41
1
10
75.7405715751147
20
4.30165128868279
30
0
41
1
10
75.7399416433113
20
4.31975579531283
30
0
41
1
10
75.7387997178829
20
4.35258117157838
30
0
41
1
10
75.7372793957439
20
4.39628380312971
30
0
41
1
10
75.7280614425642
20
4.66125975864094
30
0
41
1
10
75.7111618617349
20
5.14704901041151
30
0
41
1
10
75.6865806532559
20
5.85365155844144
30
0
41
1
10
75.6701931809366
20
6.32471992379473
30
0
41
1
10
75.6619994447769
20
6.56025410647138
30
0
0
SPLINE
5
1F1
100
AcDbEntity
8
1
62
256
6
ByLayer
370
-1
48
1
60
0
100
AcDbSpline
70
4
71
3
72
22
73
18
40
0
40
0
40
0
40
0
40
0.0178234039225449
40
0.0278216291116596
40
0.0378198543007743
40
0.112806543219134
40
0.187793232137495
40
0.337766609974215
40
0.49773821300005
40
0.657709816025885
40
0.81768141905172
40
0.897667220564638
40
0.977653022077555
40
0.982652134672113
40
0.98765124726667
40
0.997649472455785
40
1
40
1
40
1
40
1
41
1
10
69.8947238178415
20
3.97301157902203
30
0
41
1
10
69.8948364880408
20
3.97219899803085
30
0
41
1
10
69.8950132438715
20
3.97093064344796
30
0
41
1
10
69.8952543913931
20
3.96920641938539
30
0
41
1
10
69.8958608061545
20
3.96487603958113
30
0
41
1
10
69.8968820730906
20
3.95758277285995
30
0
41
1
10
69.898796791787
20
3.94390790899473
30
0
41
1
10
69.9012538128759
20
3.92635851478857
30
0
41
1
10
69.9042532931662
20
3.90493457900439
30
0
41
1
10
69.907316592186
20
3.88305481479929
30
0
41
1
10
69.9098693413692
20
3.86482167796171
30
0
41
1
10
69.9119203125879
20
3.85018442490124
30
0
41
1
10
69.9129698372435
20
3.84268341243748
30
0
41
1
10
69.9135367908366
20
3.83862385084026
30
0
41
1
10
69.9136624813723
20
3.83772453619679
30
0
41
1
10
69.9137709328728
20
3.83695056681327
30
0
41
1
10
69.9138475492355
20
3.83640629646465
30
0
41
1
10
69.9138621162695
20
3.83630292615206
30
0
0
SPLINE
5
1F2
100
AcDbEntity
8
1
62
256
6
ByLayer
370
-1
48
1
60
0
100
AcDbSpline
70
4
71
3
72
23
73
19
40
0
40
0
40
0
40
0
40
0.0365499079217105
40
0.0695172064382397
40
0.102484504954769
40
0.135451803471298
40
0.168419101987827
40
0.234353699020886
40
0.300288296053929
40
0.366222893087003
40
0.498092087153119
40
0.629961281219229
40
0.761830475285353
40
0.827765072318408
40
0.89369966935147
40
0.926666967867999
40
0.959634266384528
40
1
40
1
40
1
40
1
41
1
10
75.74050528495
20
4.17793054466506
30
0
41
1
10
75.7405748513501
20
4.17894861817891
30
0
41
1
10
75.7407054995941
20
4.18088495577115
30
0
41
1
10
75.740890304851
20
4.18373983436385
30
0
41
1
10
75.7410596930401
20
4.18649553033242
30
0
41
1
10
75.7412183077284
20
4.18925221559647
30
0
41
1
10
75.7414159424394
20
4.19292896034773
30
0
41
1
10
75.741637976306
20
4.19752678454518
30
0
41
1
10
75.7418674804792
20
4.20304627482705
30
0
41
1
10
75.7421237288755
20
4.21040792387828
30
0
41
1
10
75.7423497911588
20
4.21961346461279
30
0
41
1
10
75.7424672174869
20
4.23066284266005
30
0
41
1
10
75.7424392134477
20
4.23987051371122
30
0
41
1
10
75.742342703247
20
4.24723511318342
30
0
41
1
10
75.7422491045025
20
4.25183662667905
30
0
41
1
10
75.7421528164066
20
4.25551658840843
30
0
41
1
10
75.7420654242064
20
4.25848268536834
30
0
41
1
10
75.7419989643835
20
4.26052889529555
30
0
41
1
10
75.7419612955632
20
4.2616552721247
30
0
0
SPLINE
5
1F3
100
AcDbEntity
8
1
62
256
6
ByLayer
370
-1
48
1
60
0
100
AcDbSpline
70
4
71
3
72
48
73
44
40
0
40
0
40
0
40
0
40
0.125
40
0.1875
40
0.1953125
40
0.203125
40
0.20703125
40
0.2109375
40
0.21875
40
0.25
40
0.28125
40
0.3125
40
0.3203125
40
0.328125
40
0.34375
40
0.375
40
0.3828125
40
0.390625
40
0.39453125
40
0.3984375
40
0.40625
40
0.4375
40
0.5
40
0.5625
40
0.578125
40
0.5859375
40
0.59375
40
0.609375
40
0.625
40
0.6875
40
0.75
40
0.8125
40
0.875
40
0.9375
40
0.953125
40
0.96826171875
40
0.96875
40
0.9697265625
40
0.970703125
40
0.97265625
40
0.9765625
40
0.984375
40
1
40
1
40
1
40
1
41
1
10
72.6325218580412
20
9.39607882844413
30
0
41
1
10
72.6343245349429
20
9.36014399166456
30
0
41
1
10
72.6370285502956
20
9.30624173649517
30
0
41
1
10
72.6398452329546
20
9.25009355402707
30
0
41
1
10
72.6409719060182
20
9.22763428103983
30
0
41
1
10
72.6412538572386
20
9.22201783010252
30
0
41
1
10
72.6414783429879
20
9.21753087357661
30
0
41
1
10
72.641699793332
20
9.2130456979277
30
0
41
1
10
72.6422955247662
20
9.20066097468998
30
0
41
1
10
72.6432016044546
20
9.18023598282872
30
0
41
1
10
72.6442515190708
20
9.15282586594648
30
0
41
1
10
72.6449159615439
20
9.13228775931574
30
0
41
1
10
72.6453059567124
20
9.11866582303432
30
0
41
1
10
72.6455512645595
20
9.10959075050852
30
0
41
1
10
72.6459839970051
20
9.09368052701103
30
0
41
1
10
72.6464155400558
20
9.07778026658849
30
0
41
1
10
72.6467857699749
20
9.06414865844766
30
0
41
1
10
72.6469406188548
20
9.05846134796039
30
0
41
1
10
72.6470622257916
20
9.05394026672329
30
0
41
1
10
72.6471793499706
20
9.04944862069345
30
0
41
1
10
72.6474889285347
20
9.03703564079044
30
0
41
1
10
72.6481081712418
20
9.00778209356258
30
0
41
1
10
72.6486325099124
20
8.96335949418679
30
0
41
1
10
72.648570396307
20
8.92527633591823
30
0
41
1
10
72.6483326381175
20
8.90311070087793
30
0
41
1
10
72.6482253927419
20
8.8951846396977
30
0
41
1
10
72.6481020727676
20
8.88731686337047
30
0
41
1
10
72.6479483746829
20
8.87744330501744
30
0
41
1
10
72.6475797704097
20
8.85372346220373
30
0
41
1
10
72.6470264121167
20
8.81818253592721
30
0
41
1
10
72.6462887516871
20
8.7707816882438
30
0
41
1
10
72.6455510912573
20
8.72338084056042
30
0
41
1
10
72.6448134308277
20
8.67597999287702
30
0
41
1
10
72.6442601855055
20
8.6404293571145
30
0
41
1
10
72.6438932762813
20
8.6168523729803
30
0
41
1
10
72.6437703328763
20
8.60895223169973
30
0
41
1
10
72.6437050373297
20
8.60475509729704
30
0
41
1
10
72.6436952691419
20
8.60413955788601
30
0
41
1
10
72.6436802082139
20
8.60315529947275
30
0
41
1
10
72.6436585103677
20
8.60141898793384
30
0
41
1
10
72.6436337724604
20
8.59782178781592
30
0
41
1
10
72.643661175096
20
8.59024890869546
30
0
41
1
10
72.6438191965798
20
8.58336143167463
30
0
41
1
10
72.6439760629566
20
8.57885220741812
30
0
0
SPLINE
5
1F4
100
AcDbEntity
8
1
62
256
6
ByLayer
370
-1
48
1
60
0
100
AcDbSpline
70
4
71
3
72
22
73
18
40
0
40
0
40
0
40
0
40
0.0178234039225756
40
0.0278216291116897
40
0.0378198543008037
40
0.112806543219159
40
0.187793232137515
40
0.337766609974225
40
0.49773821300005
40
0.657709816025875
40
0.8176814190517
40
0.897667220564612
40
0.977653022077525
40
0.982652134672082
40
0.987651247266639
40
0.997649472455753
40
1
40
1
40
1
40
1
41
1
10
75.2099191465639
20
3.60677314554618
30
0
41
1
10
75.2107286354391
20
3.60688624612735
30
0
41
1
10
75.2119921635499
20
3.60706367713661
30
0
41
1
10
75.2137098264193
20
3.60730574580254
30
0
41
1
10
75.218023727821
20
3.60791447696977
30
0
41
1
10
75.2252892414605
20
3.60893964497973
30
0
41
1
10
75.2389120683401
20
3.61086167759046
30
0
41
1
10
75.256394681803
20
3.61332808410074
30
0
41
1
10
75.2777370930435
20
3.61633902191846
30
0
41
1
10
75.2995335981401
20
3.61941402224292
30
0
41
1
10
75.3176973523873
20
3.62197652251334
30
0
41
1
10
75.3322789062807
20
3.62403532810885
30
0
41
1
10
75.3397513751274
20
3.62508886177807
30
0
41
1
10
75.3437954888672
20
3.62565798104183
30
0
41
1
10
75.3446913813469
20
3.62578415169492
30
0
41
1
10
75.3454624055432
20
3.6258930174626
30
0
41
1
10
75.3460046047789
20
3.62596992648733
30
0
41
1
10
75.3461075817362
20
3.625984549165
30
0
0
SPLINE
5
1F5
100
AcDbEntity
8
1
62
256
6
ByLayer
370
-1
48
1
60
0
100
AcDbSpline
70
4
71
3
72
79
73
75
40
0
40
0
40
0
40
0
40
0.0017245864916164
40
0.0039792263717439
40
0.0084885061319988
40
0.0129977858922538
40
0.0220163454127638
40
0.0310349049332737
40
0.0671091430153136
40
0.139257619179393
40
0.211406095343473
40
0.220424654863983
40
0.224933934624238
40
0.228315894444429
40
0.229443214384493
40
0.23169785426462
40
0.233952494144748
40
0.237334453964939
40
0.238461773905003
40
0.24071641378513
40
0.242971053665258
40
0.247480333425513
40
0.24973497330564
40
0.256498892946023
40
0.265517452466533
40
0.283554571507553
40
0.292573131028062
40
0.319628809589592
40
0.355703047671632
40
0.391777285753672
40
0.409814404794692
40
0.427851523835712
40
0.445888642876732
40
0.463925761917752
40
0.481962880958772
40
0.499999999999792
40
0.518037119040812
40
0.536074238081832
40
0.554111357122851
40
0.572148476163872
40
0.59018559520489
40
0.608222714245912
40
0.62625983328693
40
0.644296952327951
40
0.662334071368971
40
0.680371190409992
40
0.716445428492031
40
0.725463988012539
40
0.734482547533051
40
0.751392346634006
40
0.752519666574071
40
0.754774306454198
40
0.757028946334326
40
0.760410906154519
40
0.761538226094581
40
0.76379286597471
40
0.766047505854834
40
0.769429465675029
40
0.770556785615091
40
0.771684105555153
40
0.775066065375347
40
0.779575345135601
40
0.784084624895856
40
0.788593904656111
40
0.824668142738151
40
0.86074238082019
40
0.93289085698427
40
0.96896509506631
40
0.98700221410733
40
0.991511493867585
40
0.994893453687774
40
0.99602077362784
40
0.998275413507967
40
1
40
1
40
1
40
1
41
1
10
75.555625633802
20
9.07898030980542
30
0
41
1
10
75.5555782383688
20
9.07931663638794
30
0
41
1
10
75.5554692843125
20
9.08008706611426
30
0
41
1
10
75.5552370583491
20
9.08170789919441
30
0
41
1
10
75.5549238009676
20
9.08382372510474
30
0
41
1
10
75.5544064226801
20
9.08717890643567
30
0
41
1
10
75.5537184700465
20
9.09140677313448
30
0
41
1
10
75.5519403578547
20
9.10160976780776
30
0
41
1
10
75.5474263172564
20
9.12373673711585
30
0
41
1
10
75.537922696737
20
9.15801027369889
30
0
41
1
10
75.5268309909003
20
9.18692594236484
30
0
41
1
10
75.5196729361805
20
9.20287472819433
30
0
41
1
10
75.5182286605876
20
9.20601499159801
30
0
41
1
10
75.5174485905021
20
9.20768736229465
30
0
41
1
10
75.5168593457746
20
9.20894056530548
30
0
41
1
10
75.5163656891188
20
9.20998422284512
30
0
41
1
10
75.5156696829706
20
9.21144405326612
30
0
41
1
10
75.5150678732597
20
9.21269392851545
30
0
41
1
10
75.5144618805906
20
9.21394264657192
30
0
41
1
10
75.5139542730701
20
9.21498251528638
30
0
41
1
10
75.5131365283624
20
9.21664472121506
30
0
41
1
10
75.5123104292452
20
9.21830451003149
30
0
41
1
10
75.5110587627631
20
9.22079044431592
30
0
41
1
10
75.509367632516
20
9.22409824900436
30
0
41
1
10
75.5061239038584
20
9.2302770758061
30
0
41
1
10
75.502530992495
20
9.23682257610167
30
0
41
1
10
75.4969431079658
20
9.24656506470922
30
0
41
1
10
75.4891418967311
20
9.25941343609554
30
0
41
1
10
75.4775873989861
20
9.27668919444093
30
0
41
1
10
75.4662454390491
20
9.2919191957169
30
0
41
1
10
75.4566909880497
20
9.30377924766751
30
0
41
1
10
75.4492901681745
20
9.31250260986536
30
0
41
1
10
75.4416598265726
20
9.32104459306811
30
0
41
1
10
75.4338073415371
20
9.32939671647296
30
0
41
1
10
75.4257400913608
20
9.33755049927709
30
0
41
1
10
75.4174654543364
20
9.34549746067779
30
0
41
1
10
75.4089908087568
20
9.3532291198722
30
0
41
1
10
75.4003250972562
20
9.36073868001637
30
0
41
1
10
75.3914772624689
20
9.36801934426629
30
0
41
1
10
75.3824562470292
20
9.37506431577793
30
0
41
1
10
75.3732709935713
20
9.38186679770735
30
0
41
1
10
75.3639315247244
20
9.38842199944355
30
0
41
1
10
75.3544478631178
20
9.3947251303756
30
0
41
1
10
75.3448300313807
20
9.40077139989259
30
0
41
1
10
75.3350880521422
20
9.40655601738354
30
0
41
1
10
75.3219472915186
20
9.41391648857154
30
0
41
1
10
75.310268814798
20
9.41988986755669
30
0
41
1
10
75.3001562888783
20
9.42466978128459
30
0
41
1
10
75.2936005295406
20
9.42766887114246
30
0
41
1
10
75.2884994484041
20
9.42989280078532
30
0
41
1
10
75.2846621045696
20
9.43150956714152
30
0
41
1
10
75.2835955814811
20
9.43195600296423
30
0
41
1
10
75.2821013639062
20
9.4325760356727
30
0
41
1
10
75.2808194689381
20
9.43310215821586
30
0
41
1
10
75.2795366951995
20
9.43362401220071
30
0
41
1
10
75.2784671742828
20
9.43405622240022
30
0
41
1
10
75.2769688557781
20
9.43465633517008
30
0
41
1
10
75.2756835486165
20
9.4351653791235
30
0
41
1
10
75.2746117955988
20
9.43558602238173
30
0
41
1
10
75.2735397150101
20
9.4360048854403
30
0
41
1
10
75.2718233515594
20
9.43666936911413
30
0
41
1
10
75.2694609615581
20
9.43756932103719
30
0
41
1
10
75.2668809933921
20
9.43853398291344
30
0
41
1
10
75.2582722634546
20
9.44169248640566
30
0
41
1
10
75.2435740246457
20
9.44662543846448
30
0
41
1
10
75.2157994349743
20
9.4544670131003
30
0
41
1
10
75.1880211281175
20
9.46016771948317
30
0
41
1
10
75.1640014810564
20
9.46337344612522
30
0
41
1
10
75.1528893988368
20
9.46446525236013
30
0
41
1
10
75.1480445029073
20
9.46487356539211
30
0
41
1
10
75.1463467109622
20
9.46500758493028
30
0
41
1
10
75.1450611673235
20
9.46510501697432
30
0
41
1
10
75.144082432065
20
9.46517689513485
30
0
41
1
10
75.1433092033921
20
9.46523225649653
30
0
41
1
10
75.1429716666524
20
9.46525625612233
30
0
0
SPLINE
5
1F6
100
AcDbEntity
8
1
62
256
6
ByLayer
370
-1
48
1
60
0
100
AcDbSpline
70
4
71
3
72
14
73
10
40
0
40
0
40
0
40
0
40
0.0050966481374697
40
0.0240065217780203
40
0.0435263913424599
40
0.0630462609068995
40
0.375364173937933
40
0.687682086968966
40
1
40
1
40
1
40
1
41
1
10
70.5831287303936
20
3.44019789076296
30
0
41
1
10
70.586957739854
20
3.44033214440216
30
0
41
1
10
70.6049933533704
20
3.44096448244269
30
0
41
1
10
70.637693819169
20
3.44211076984075
30
0
41
1
10
70.6812301490131
20
3.44363689936336
30
0
41
1
10
70.9451977910152
20
3.4528900636266
30
0
41
1
10
71.429138468019
20
3.46985419810926
30
0
41
1
10
72.1330521800245
20
3.49452930281129
30
0
41
1
10
72.6023279880283
20
3.51097937261264
30
0
41
1
10
72.8369658920301
20
3.51920440751334
30
0
0
SPLINE
5
1F7
100
AcDbEntity
8
1
62
256
6
ByLayer
370
-1
48
1
60
0
100
AcDbSpline
70
4
71
3
72
153
73
149
40
0
40
0
40
0
40
0
40
0.125
40
0.25
40
0.375
40
0.3828125
40
0.390625
40
0.398193359375
40
0.4019775390625
40
0.405643463134766
40
0.40576171875
40
0.406005859375
40
0.40625
40
0.4072265625
40
0.40771484375
40
0.408203125
40
0.4091796875
40
0.41015625
40
0.412109375
40
0.4140625
40
0.416015625
40
0.4169921875
40
0.41796875
40
0.4189453125
40
0.41943359375
40
0.419921875
40
0.42041015625
40
0.4208984375
40
0.421875
40
0.422119140625
40
0.42236328125
40
0.422477722167969
40
0.426025390625
40
0.4296875
40
0.4375
40
0.439453125
40
0.44140625
40
0.443359375
40
0.4443359375
40
0.4453125
40
0.445556640625
40
0.44580078125
40
0.446044921875
40
0.4462890625
40
0.4464111328125
40
0.44677734375
40
0.447265625
40
0.44921875
40
0.453125
40
0.4609375
40
0.46484375
40
0.46875
40
0.46923828125
40
0.4697265625
40
0.47021484375
40
0.4705810546875
40
0.470703125
40
0.4708251953125
40
0.47119140625
40
0.471435546875
40
0.4716796875
40
0.4718017578125
40
0.47216796875
40
0.472412109375
40
0.47265625
40
0.4727783203125
40
0.474609375
40
0.4755859375
40
0.4765625
40
0.48046875
40
0.482421875
40
0.484375
40
0.486328125
40
0.48828125
40
0.490234375
40
0.4921875
40
0.494140625
40
0.49609375
40
0.498046875
40
0.5
40
0.501953125
40
0.50390625
40
0.505859375
40
0.5078125
40
0.509765625
40
0.51171875
40
0.515625
40
0.51953125
40
0.5224609375
40
0.5234375
40
0.525390625
40
0.5263671875
40
0.527099609375
40
0.52734375
40
0.52783203125
40
0.528076171875
40
0.5283203125
40
0.5284423828125
40
0.52880859375
40
0.529052734375
40
0.529296875
40
0.5294189453125
40
0.52978515625
40
0.5302734375
40
0.53125
40
0.5390625
40
0.546875
40
0.55078125
40
0.5517578125
40
0.552734375
40
0.55322265625
40
0.5537109375
40
0.553955078125
40
0.55419921875
40
0.554443359375
40
0.5545654296875
40
0.5546875
40
0.556640625
40
0.55859375
40
0.5625
40
0.56640625
40
0.5703125
40
0.573974609375
40
0.5758056640625
40
0.57763671875
40
0.577880859375
40
0.578125
40
0.5791015625
40
0.57958984375
40
0.580078125
40
0.5810546875
40
0.58203125
40
0.5859375
40
0.587890625
40
0.58984375
40
0.5908203125
40
0.591796875
40
0.5927734375
40
0.59375
40
0.593994140625
40
0.59423828125
40
0.594380187988281
40
0.601806640625
40
0.609375
40
0.625
40
0.75
40
0.875
40
1
40
1
40
1
40
1
41
1
10
74.8309072366314
20
6.531715924016
30
0
41
1
10
74.8369633434227
20
6.35762926373309
30
0
41
1
10
74.8490755570052
20
6.00945594316724
30
0
41
1
10
74.8672438773789
20
5.48719596231848
30
0
41
1
10
74.8797345976358
20
5.12814222548494
30
0
41
1
10
74.886547717776
20
4.93229473266663
30
0
41
1
10
74.8876714094657
20
4.89999349687196
30
0
41
1
10
74.8885999336515
20
4.87330247571529
30
0
41
1
10
74.8893275609842
20
4.85238636299761
30
0
41
1
10
74.8896942393251
20
4.84184595973827
30
0
41
1
10
74.8898894068291
20
4.83623574510025
30
0
41
1
10
74.8899187928453
20
4.8353910252826
30
0
41
1
10
74.8899897628468
20
4.83335094723242
30
0
41
1
10
74.8900725611818
20
4.83097085617385
30
0
41
1
10
74.8901671878504
20
4.82825075210692
30
0
41
1
10
74.890261814519
20
4.82553064804
30
0
41
1
10
74.8903800978548
20
4.82213051795637
30
0
41
1
10
74.890569351192
20
4.81669030982252
30
0
41
1
10
74.8908059178635
20
4.80989004965522
30
0
41
1
10
74.8910897978694
20
4.80172973745445
30
0
41
1
10
74.8913263645409
20
4.79492947728716
30
0
41
1
10
74.8915156178782
20
4.78948926915331
30
0
41
1
10
74.8916575578811
20
4.78540911305293
30
0
41
1
10
74.8917758412168
20
4.78200898296927
30
0
41
1
10
74.8918704678854
20
4.77928887890235
30
0
41
1
10
74.8919414378869
20
4.77724880085216
30
0
41
1
10
74.8920124078884
20
4.77520872280198
30
0
41
1
10
74.892107034557
20
4.77248861873505
30
0
41
1
10
74.892189832892
20
4.77010852767651
30
0
41
1
10
74.8922608028935
20
4.7680684496263
30
0
41
1
10
74.892290004092
20
4.7672290425119
30
0
41
1
10
74.8924792574292
20
4.76178883437808
30
0
41
1
10
74.8928341074366
20
4.75158844412712
30
0
41
1
10
74.8935619195869
20
4.73066701870616
30
0
41
1
10
74.8942124779336
20
4.71196630324607
30
0
41
1
10
74.8947802379453
20
4.69564567884456
30
0
41
1
10
74.8950641317035
20
4.68748516839702
30
0
41
1
10
74.8953007327559
20
4.68068441261283
30
0
41
1
10
74.8954900342263
20
4.67524351061536
30
0
41
1
10
74.8955965253284
20
4.67218287314233
30
0
41
1
10
74.8956675236941
20
4.6701423862082
30
0
41
1
10
74.8957030237633
20
4.66912212996351
30
0
41
1
10
74.8957385247458
20
4.668101860554
30
0
41
1
10
74.8957681096812
20
4.66725162475274
30
0
41
1
10
74.895803612329
20
4.66623133133677
30
0
41
1
10
74.8958509504999
20
4.66487092127176
30
0
41
1
10
74.8959870545883
20
4.66095964363086
30
0
41
1
10
74.896294814737
20
4.65211608390359
30
0
41
1
10
74.8969579715485
20
4.63306425361682
30
0
41
1
10
74.8977167451977
20
4.61127804549673
30
0
41
1
10
74.8984732321823
20
4.58952480075877
30
0
41
1
10
74.8988737452424
20
4.57798814808504
30
0
41
1
10
74.8991087020806
20
4.57121109444972
30
0
41
1
10
74.8991793317115
20
4.56917592300672
30
0
41
1
10
74.8992443759904
20
4.56730601804307
30
0
41
1
10
74.8992923501058
20
4.56593644052833
30
0
41
1
10
74.8993227009556
20
4.56507516369925
30
0
41
1
10
74.8993532566581
20
4.56421093381954
30
0
41
1
10
74.8993900014753
20
4.56317205139047
30
0
41
1
10
74.8994311743264
20
4.56198049057667
30
0
41
1
10
74.8994589248512
20
4.561149873349
30
0
41
1
10
74.8994901121836
20
4.56017950167333
30
0
41
1
10
74.8995180878917
20
4.55923936312317
30
0
41
1
10
74.8995443193093
20
4.5581650755613
30
0
41
1
10
74.899558738454
20
4.55740239849973
30
0
41
1
10
74.8995972173773
20
4.55464720838927
30
0
41
1
10
74.8995528505141
20
4.55090716233963
30
0
41
1
10
74.8993131705557
20
4.54599383947379
30
0
41
1
10
74.8987428942311
20
4.5383208610605
30
0
41
1
10
74.8974887634849
20
4.52924737902813
30
0
41
1
10
74.8951919179977
20
4.51881832409913
30
0
41
1
10
74.8930234961325
20
4.51099372877911
30
0
41
1
10
74.8903952753702
20
4.50319320580144
30
0
41
1
10
74.8873076840889
20
4.49546144167857
30
0
41
1
10
74.8837611506659
20
4.48784312292295
30
0
41
1
10
74.8797626179813
20
4.48037774970359
30
0
41
1
10
74.8753190289151
20
4.47310482218953
30
0
41
1
10
74.8704469621985
20
4.46606299058016
30
0
41
1
10
74.865162996563
20
4.45929090507497
30
0
41
1
10
74.8594923371554
20
4.45282288324151
30
0
41
1
10
74.8534601891224
20
4.4466932426474
30
0
41
1
10
74.8470988979432
20
4.44092961695853
30
0
41
1
10
74.8404408090965
20
4.4355596398407
30
0
41
1
10
74.8335231754407
20
4.43060260891582
30
0
41
1
10
74.8263832498341
20
4.42607782180576
30
0
41
1
10
74.8166186526825
20
4.42063404116672
30
0
41
1
10
74.8040510248349
20
4.41495846398482
30
0
41
1
10
74.7900213145327
20
4.41039741874982
30
0
41
1
10
74.7798164338074
20
4.40809398951001
30
0
41
1
10
74.7722036791803
20
4.40678262471059
30
0
41
1
10
74.7671558839725
20
4.40611344617645
30
0
41
1
10
74.7624934499641
20
4.4056763141659
30
0
41
1
10
74.7600354342383
20
4.40550204250033
30
0
41
1
10
74.7582063968529
20
4.40539646551966
30
0
41
1
10
74.7569946442202
20
4.405338627373
30
0
41
1
10
74.7557515582895
20
4.40528743153826
30
0
41
1
10
74.7549534617666
20
4.40525697173089
30
0
41
1
10
74.7539693938564
20
4.40522069675581
30
0
41
1
10
74.7529554665311
20
4.40518474496491
30
0
41
1
10
74.7517520918777
20
4.4051430718192
30
0
41
1
10
74.7508896419366
20
4.40511338346397
30
0
41
1
10
74.7498600100939
20
4.40507775898601
30
0
41
1
10
74.7484956212567
20
4.40503026214788
30
0
41
1
10
74.7459554544264
20
4.40494121084487
30
0
41
1
10
74.733130099663
20
4.40449003065086
30
0
41
1
10
74.7101169061135
20
4.40368263731926
30
0
41
1
10
74.6829876983201
20
4.40273274680885
30
0
41
1
10
74.6653640077257
20
4.40211532097982
30
0
41
1
10
74.6572314814616
20
4.40183035564567
30
0
41
1
10
74.6538431556929
20
4.40171162015597
30
0
41
1
10
74.6511326188095
20
4.40161663180027
30
0
41
1
10
74.6494385822346
20
4.40155726409225
30
0
41
1
10
74.6480833808142
20
4.40150976993397
30
0
41
1
10
74.647066993282
20
4.40147414931917
30
0
41
1
10
74.6462200146273
20
4.40144446547671
30
0
41
1
10
74.6455424380835
20
4.40142071840464
30
0
41
1
10
74.6424933624859
20
4.40131385658569
30
0
41
1
10
74.6369036797796
20
4.40111794333529
30
0
41
1
10
74.6260638748983
20
4.40073799059587
30
0
41
1
10
74.6125151086496
20
4.4002630499603
30
0
41
1
10
74.5962565891513
20
4.3996931211976
30
0
41
1
10
74.5803367888092
20
4.39913506595082
30
0
41
1
10
74.5672961012949
20
4.39867793558906
30
0
41
1
10
74.5571345266084
20
4.3983217301124
30
0
41
1
10
74.551715020109
20
4.39813175385817
30
0
41
1
10
74.5484971881249
20
4.39801895545722
30
0
41
1
10
74.5464648731876
20
4.39794771436189
30
0
41
1
10
74.5440938390941
20
4.39786459975065
30
0
41
1
10
74.5413840858444
20
4.39776961162355
30
0
41
1
10
74.5386743325947
20
4.39767462349641
30
0
41
1
10
74.5352871410325
20
4.39755588833754
30
0
41
1
10
74.5271578812833
20
4.3972709239562
30
0
41
1
10
74.5176737449093
20
4.39693846551128
30
0
41
1
10
74.5068347319104
20
4.39655851300282
30
0
41
1
10
74.5000603487861
20
4.39632104268503
30
0
41
1
10
74.4946408422866
20
4.39613106643083
30
0
41
1
10
74.4905762124121
20
4.39598858424014
30
0
41
1
10
74.4865115825375
20
4.39584610204946
30
0
41
1
10
74.4834631101315
20
4.39573924040647
30
0
41
1
10
74.4814307951942
20
4.39566799931114
30
0
41
1
10
74.4805564763723
20
4.39563735079824
30
0
41
1
10
74.4697174633734
20
4.39525739828977
30
0
41
1
10
74.448716875688
20
4.39452124030464
30
0
41
1
10
74.4062351425144
20
4.3930320787837
30
0
41
1
10
74.2006326146916
20
4.38582485463888
30
0
41
1
10
73.8321061727291
20
4.37290646935131
30
0
41
1
10
73.311833548782
20
4.35466874894533
30
0
41
1
10
72.9649851328173
20
4.34251026867469
30
0
41
1
10
72.791560924835
20
4.33643102853935
30
0
0
SPLINE
5
1F8
100
AcDbEntity
8
1
62
256
6
ByLayer
370
-1
48
1
60
0
100
AcDbSpline
70
4
71
3
72
79
73
75
40
0
40
0
40
0
40
0
40
0.0017245864916563
40
0.0039792263717837
40
0.0084885061320384
40
0.0129977858922932
40
0.0220163454128027
40
0.0310349049333122
40
0.0671091430153504
40
0.139257619179427
40
0.211406095343503
40
0.220424654864012
40
0.224933934624267
40
0.228315894444458
40
0.229443214384522
40
0.231697854264649
40
0.233952494144777
40
0.237334453964968
40
0.238461773905032
40
0.240716413785159
40
0.242971053665286
40
0.247480333425541
40
0.249734973305668
40
0.25649889294605
40
0.26551745246656
40
0.283554571507579
40
0.292573131028089
40
0.319628809589617
40
0.355703047671655
40
0.391777285753694
40
0.409814404794712
40
0.427851523835732
40
0.445888642876751
40
0.46392576191777
40
0.481962880958789
40
0.499999999999808
40
0.518037119040827
40
0.536074238081846
40
0.554111357122864
40
0.572148476163884
40
0.590185595204902
40
0.608222714245922
40
0.62625983328694
40
0.64429695232796
40
0.662334071368979
40
0.680371190409999
40
0.716445428492037
40
0.725463988012545
40
0.734482547533057
40
0.75139234663401
40
0.752519666574075
40
0.754774306454202
40
0.757028946334329
40
0.760410906154524
40
0.761538226094584
40
0.763792865974714
40
0.766047505854838
40
0.769429465675032
40
0.770556785615094
40
0.771684105555156
40
0.77506606537535
40
0.779575345135603
40
0.784084624895858
40
0.788593904656113
40
0.824668142738151
40
0.860742380820189
40
0.932890856984265
40
0.968965095066303
40
0.987002214107322
40
0.991511493867578
40
0.994893453687767
40
0.996020773627832
40
0.998275413507959
40
1
40
1
40
1
40
1
41
1
10
70.1233801683353
20
9.28929868679248
30
0
41
1
10
70.1230451215769
20
9.28925111031637
30
0
41
1
10
70.1222776235683
20
9.28914174007329
30
0
41
1
10
70.1206629582474
20
9.28890862704446
30
0
41
1
10
70.1185551836934
20
9.28859417307061
30
0
41
1
10
70.1152127698404
20
9.28807481848219
30
0
41
1
10
70.1110009914509
20
9.28738423798129
30
0
41
1
10
70.1008368222526
20
9.28559933368973
30
0
41
1
10
70.0787940527431
20
9.28106805018967
30
0
41
1
10
70.0446509373142
20
9.27152812738382
30
0
41
1
10
70.0158453014974
20
9.26039405303274
30
0
41
1
10
69.999957205613
20
9.25320865570686
30
0
41
1
10
69.9968288918597
20
9.25175886321574
30
0
41
1
10
69.9951628850384
20
9.25097581338929
30
0
41
1
10
69.9939144508435
20
9.25038431784267
30
0
41
1
10
69.9928747647358
20
9.24988877549862
30
0
41
1
10
69.9914204894103
20
9.24919011072006
30
0
41
1
10
69.9901753703136
20
9.24858600219375
30
0
41
1
10
69.9889314040064
20
9.24797769473111
30
0
41
1
10
69.9878954923063
20
9.24746814823231
30
0
41
1
10
69.9862396115731
20
9.24664727987275
30
0
41
1
10
69.9845861387541
20
9.24581802519114
30
0
41
1
10
69.9821096642002
20
9.24456157754636
30
0
41
1
10
69.9788144467072
20
9.24286398745647
30
0
41
1
10
69.972659132207
20
9.23960786828238
30
0
41
1
10
69.9661385395161
20
9.23600123258126
30
0
41
1
10
69.9564331240191
20
9.23039200324098
30
0
41
1
10
69.9436336445649
20
9.22256099264666
30
0
41
1
10
69.9264236256957
20
9.21096235859739
30
0
41
1
10
69.9112515791727
20
9.19957707421608
30
0
41
1
10
69.8994366583004
20
9.18998612676603
30
0
41
1
10
69.8907464911293
20
9.18255703696113
30
0
41
1
10
69.8822370127516
20
9.17489754869402
30
0
41
1
10
69.8739166716979
20
9.16701506844137
30
0
41
1
10
69.865793916499
20
9.15891700267994
30
0
41
1
10
69.8578771956857
20
9.15061075788637
30
0
41
1
10
69.8501749577887
20
9.14210374053741
30
0
41
1
10
69.8426939737881
20
9.13340492742668
30
0
41
1
10
69.8354410146638
20
9.1245232953479
30
0
41
1
10
69.8284228513957
20
9.11546782109474
30
0
41
1
10
69.8216462549638
20
9.10624748146083
30
0
41
1
10
69.8151159977492
20
9.09687233736022
30
0
41
1
10
69.8088368521333
20
9.08735244970697
30
0
41
1
10
69.8028135904972
20
9.07769787941507
30
0
41
1
10
69.7970509852223
20
9.06791868739853
30
0
41
1
10
69.7897185228493
20
9.05472773120414
30
0
41
1
10
69.7837678743746
20
9.04300464459965
30
0
41
1
10
69.7790061496615
20
9.03285349047385
30
0
41
1
10
69.7760184722461
20
9.02627268920051
30
0
41
1
10
69.7738030053269
20
9.02115212276277
30
0
41
1
10
69.7721923912548
20
9.01730012089826
30
0
41
1
10
69.7717476542552
20
9.01622952386481
30
0
41
1
10
69.7711299809583
20
9.0147295986215
30
0
41
1
10
69.7706058604704
20
9.01344280702293
30
0
41
1
10
69.7700859922974
20
9.01215513329694
30
0
41
1
10
69.7696554267882
20
9.01108152698413
30
0
41
1
10
69.7690575976286
20
9.0095774851462
30
0
41
1
10
69.7685504907411
20
9.00828726831998
30
0
41
1
10
69.7681314481575
20
9.00721142137994
30
0
41
1
10
69.7677141789993
20
9.00613524561757
30
0
41
1
10
69.7670522238865
20
9.00441232593724
30
0
41
1
10
69.7661556965522
20
9.00204091199001
30
0
41
1
10
69.7651947055057
20
8.99945108876463
30
0
41
1
10
69.7620482210727
20
8.99080947487738
30
0
41
1
10
69.7571340403858
20
8.97605509118404
30
0
41
1
10
69.749322305309
20
8.94817440709227
30
0
41
1
10
69.743643291835
20
8.92028999161607
30
0
41
1
10
69.7404497639506
20
8.8961785934053
30
0
41
1
10
69.739362112368
20
8.88502406483693
30
0
41
1
10
69.7389553530904
20
8.880160662192
30
0
41
1
10
69.738821843537
20
8.8784563849575
30
0
41
1
10
69.7387247822514
20
8.87716593075095
30
0
41
1
10
69.738653177609
20
8.87618345688279
30
0
41
1
10
69.738598026914
20
8.87540727460197
30
0
41
1
10
69.738574118614
20
8.8750684485268
30
0
0
SPLINE
5
1F9
100
AcDbEntity
8
1
62
256
6
ByLayer
370
-1
48
1
60
0
100
AcDbSpline
70
4
71
3
72
153
73
149
40
0
40
0
40
0
40
0
40
0.125
40
0.25
40
0.375
40
0.3828125
40
0.390625
40
0.398193359375
40
0.4019775390625
40
0.405643463134766
40
0.40576171875
40
0.406005859375
40
0.40625
40
0.4072265625
40
0.40771484375
40
0.408203125
40
0.4091796875
40
0.41015625
40
0.412109375
40
0.4140625
40
0.416015625
40
0.4169921875
40
0.41796875
40
0.4189453125
40
0.41943359375
40
0.419921875
40
0.42041015625
40
0.4208984375
40
0.421875
40
0.422119140625
40
0.42236328125
40
0.422477722167969
40
0.426025390625
40
0.4296875
40
0.4375
40
0.439453125
40
0.44140625
40
0.443359375
40
0.4443359375
40
0.4453125
40
0.445556640625
40
0.44580078125
40
0.446044921875
40
0.4462890625
40
0.4464111328125
40
0.44677734375
40
0.447265625
40
0.44921875
40
0.453125
40
0.4609375
40
0.46484375
40
0.46875
40
0.46923828125
40
0.4697265625
40
0.47021484375
40
0.4705810546875
40
0.470703125
40
0.4708251953125
40
0.47119140625
40
0.471435546875
40
0.4716796875
40
0.4718017578125
40
0.47216796875
40
0.472412109375
40
0.47265625
40
0.4727783203125
40
0.474609375
40
0.4755859375
40
0.4765625
40
0.48046875
40
0.482421875
40
0.484375
40
0.486328125
40
0.48828125
40
0.490234375
40
0.4921875
40
0.494140625
40
0.49609375
40
0.498046875
40
0.5
40
0.501953125
40
0.50390625
40
0.505859375
40
0.5078125
40
0.509765625
40
0.51171875
40
0.515625
40
0.51953125
40
0.5224609375
40
0.5234375
40
0.525390625
40
0.5263671875
40
0.527099609375
40
0.52734375
40
0.52783203125
40
0.528076171875
40
0.5283203125
40
0.5284423828125
40
0.52880859375
40
0.529052734375
40
0.529296875
40
0.5294189453125
40
0.52978515625
40
0.5302734375
40
0.53125
40
0.5390625
40
0.546875
40
0.55078125
40
0.5517578125
40
0.552734375
40
0.55322265625
40
0.5537109375
40
0.553955078125
40
0.55419921875
40
0.554443359375
40
0.5545654296875
40
0.5546875
40
0.556640625
40
0.55859375
40
0.5625
40
0.56640625
40
0.5703125
40
0.573974609375
40
0.5758056640625
40
0.57763671875
40
0.577880859375
40
0.578125
40
0.5791015625
40
0.57958984375
40
0.580078125
40
0.5810546875
40
0.58203125
40
0.5859375
40
0.587890625
40
0.58984375
40
0.5908203125
40
0.591796875
40
0.5927734375
40
0.59375
40
0.593994140625
40
0.59423828125
40
0.594380187988281
40
0.601806640625
40
0.609375
40
0.625
40
0.75
40
0.875
40
1
40
1
40
1
40
1
41
1
10
70.6046297511602
20
6.38356731194148
30
0
41
1
10
70.598573644369
20
6.55765397222439
30
0
41
1
10
70.5864614307865
20
6.90582729279024
30
0
41
1
10
70.5682931104128
20
7.42808727363902
30
0
41
1
10
70.5558023901559
20
7.78714101047254
30
0
41
1
10
70.5489892700157
20
7.98298850329084
30
0
41
1
10
70.547865578326
20
8.01528973908552
30
0
41
1
10
70.5469370541402
20
8.04198076024218
30
0
41
1
10
70.5462094268075
20
8.06289687295987
30
0
41
1
10
70.5458427484666
20
8.07343727621921
30
0
41
1
10
70.5456475809626
20
8.07904749085722
30
0
41
1
10
70.5456181949464
20
8.07989221067487
30
0
41
1
10
70.5455472249449
20
8.08193228872506
30
0
41
1
10
70.5454644266099
20
8.08431237978363
30
0
41
1
10
70.5453697999413
20
8.08703248385055
30
0
41
1
10
70.5452751732727
20
8.08975258791747
30
0
41
1
10
70.5451568899369
20
8.09315271800111
30
0
41
1
10
70.5449676365997
20
8.09859292613496
30
0
41
1
10
70.5447310699282
20
8.10539318630225
30
0
41
1
10
70.5444471899223
20
8.11355349850302
30
0
41
1
10
70.5442106232508
20
8.12035375867032
30
0
41
1
10
70.5440213699135
20
8.12579396680417
30
0
41
1
10
70.5438794299106
20
8.12987412290454
30
0
41
1
10
70.5437611465749
20
8.1332742529882
30
0
41
1
10
70.5436665199063
20
8.13599435705513
30
0
41
1
10
70.5435955499048
20
8.13803443510531
30
0
41
1
10
70.5435245799033
20
8.1400745131555
30
0
41
1
10
70.5434299532347
20
8.14279461722242
30
0
41
1
10
70.5433471548997
20
8.14517470828099
30
0
41
1
10
70.5432761848982
20
8.14721478633118
30
0
41
1
10
70.5432469836997
20
8.14805419344557
30
0
41
1
10
70.5430577303625
20
8.15349440157942
30
0
41
1
10
70.5427028803551
20
8.16369479183035
30
0
41
1
10
70.5419750682048
20
8.18461621725132
30
0
41
1
10
70.541324509858
20
8.2033169327114
30
0
41
1
10
70.5407567498464
20
8.21963755711295
30
0
41
1
10
70.5404728560882
20
8.22779806756046
30
0
41
1
10
70.5402362550358
20
8.23459882334464
30
0
41
1
10
70.5400469535654
20
8.24003972534211
30
0
41
1
10
70.5399404624633
20
8.24310036281514
30
0
41
1
10
70.5398694640976
20
8.24514084974928
30
0
41
1
10
70.5398339640284
20
8.24616110599396
30
0
41
1
10
70.5397984630459
20
8.24718137540347
30
0
41
1
10
70.5397688781105
20
8.24803161120474
30
0
41
1
10
70.5397333754627
20
8.2490519046207
30
0
41
1
10
70.5396860372917
20
8.25041231468572
30
0
41
1
10
70.5395499332034
20
8.25432359232661
30
0
41
1
10
70.5392421730547
20
8.26316715205388
30
0
41
1
10
70.5385790162431
20
8.28221898234065
30
0
41
1
10
70.537820242594
20
8.30400519046074
30
0
41
1
10
70.5370637556094
20
8.32575843519871
30
0
41
1
10
70.5366632425492
20
8.33729508787246
30
0
41
1
10
70.5364282857111
20
8.34407214150775
30
0
41
1
10
70.5363576560802
20
8.34610731295075
30
0
41
1
10
70.5362926118013
20
8.3479772179144
30
0
41
1
10
70.5362446376859
20
8.34934679542914
30
0
41
1
10
70.5362142868361
20
8.35020807225823
30
0
41
1
10
70.5361837311336
20
8.35107230213794
30
0
41
1
10
70.5361469863164
20
8.35211118456701
30
0
41
1
10
70.5361058134653
20
8.3533027453808
30
0
41
1
10
70.5360780629405
20
8.35413336260848
30
0
41
1
10
70.5360468756081
20
8.35510373428417
30
0
41
1
10
70.5360188998999
20
8.35604387283431
30
0
41
1
10
70.5359926684824
20
8.35711816039617
30
0
41
1
10
70.5359782493376
20
8.35788083745774
30
0
41
1
10
70.5359397704144
20
8.36063602756821
30
0
41
1
10
70.5359841372776
20
8.36437607361785
30
0
41
1
10
70.536223817236
20
8.36928939648368
30
0
41
1
10
70.5367940935606
20
8.37696237489698
30
0
41
1
10
70.5380482243067
20
8.38603585692934
30
0
41
1
10
70.5403450697939
20
8.39646491185835
30
0
41
1
10
70.5425134916592
20
8.40428950717836
30
0
41
1
10
70.5451417124215
20
8.41209003015604
30
0
41
1
10
70.5482293037028
20
8.4198217942789
30
0
41
1
10
70.5517758371258
20
8.42744011303452
30
0
41
1
10
70.5557743698103
20
8.43490548625388
30
0
41
1
10
70.5602179588766
20
8.44217841376795
30
0
41
1
10
70.5650900255932
20
8.44922024537732
30
0
41
1
10
70.5703739912287
20
8.45599233088251
30
0
41
1
10
70.5760446506363
20
8.46246035271597
30
0
41
1
10
70.5820767986693
20
8.46858999331008
30
0
41
1
10
70.5884380898485
20
8.47435361899895
30
0
41
1
10
70.5950961786951
20
8.47972359611677
30
0
41
1
10
70.6020138123509
20
8.48468062704166
30
0
41
1
10
70.6091537379576
20
8.48920541415171
30
0
41
1
10
70.6189183351092
20
8.49464919479075
30
0
41
1
10
70.6314859629567
20
8.50032477197266
30
0
41
1
10
70.645515673259
20
8.50488581720765
30
0
41
1
10
70.6557205539843
20
8.50718924644747
30
0
41
1
10
70.6633333086114
20
8.50850061124692
30
0
41
1
10
70.6683811038192
20
8.50916978978103
30
0
41
1
10
70.6730435378276
20
8.50960692179157
30
0
41
1
10
70.6755015535534
20
8.50978119345714
30
0
41
1
10
70.6773305909388
20
8.50988677043782
30
0
41
1
10
70.6785423435715
20
8.50994460858448
30
0
41
1
10
70.6797854295021
20
8.50999580441922
30
0
41
1
10
70.6805835260251
20
8.51002626422661
30
0
41
1
10
70.6815675939353
20
8.51006253920167
30
0
41
1
10
70.6825815212606
20
8.51009849099256
30
0
41
1
10
70.683784895914
20
8.51014016413828
30
0
41
1
10
70.6846473458551
20
8.5101698524935
30
0
41
1
10
70.6856769776977
20
8.51020547697146
30
0
41
1
10
70.687041366535
20
8.5102529738096
30
0
41
1
10
70.6895815333653
20
8.51034202511261
30
0
41
1
10
70.7024068881287
20
8.51079320530664
30
0
41
1
10
70.7254200816782
20
8.51160059863821
30
0
41
1
10
70.7525492894716
20
8.51255048914865
30
0
41
1
10
70.770172980066
20
8.51316791497766
30
0
41
1
10
70.7783055063301
20
8.5134528803118
30
0
41
1
10
70.7816938320988
20
8.51357161580151
30
0
41
1
10
70.7844043689822
20
8.51366660415721
30
0
41
1
10
70.7860984055571
20
8.51372597186523
30
0
41
1
10
70.7874536069775
20
8.51377346602354
30
0
41
1
10
70.7884699945097
20
8.5138090866383
30
0
41
1
10
70.7893169731644
20
8.51383877048076
30
0
41
1
10
70.7899945497082
20
8.51386251755284
30
0
41
1
10
70.7930436253058
20
8.51396937937179
30
0
41
1
10
70.7986333080121
20
8.51416529262218
30
0
41
1
10
70.8094731128934
20
8.5145452453616
30
0
41
1
10
70.8230218791421
20
8.51502018599717
30
0
41
1
10
70.8392803986404
20
8.51559011475987
30
0
41
1
10
70.8552001989825
20
8.51614817000666
30
0
41
1
10
70.8682408864968
20
8.51660530036841
30
0
41
1
10
70.8784024611833
20
8.51696150584507
30
0
41
1
10
70.8838219676827
20
8.51715148209931
30
0
41
1
10
70.8870397996668
20
8.51726428050026
30
0
41
1
10
70.8890721146041
20
8.51733552159561
30
0
41
1
10
70.8914431486976
20
8.51741863620683
30
0
41
1
10
70.8941529019473
20
8.51751362433393
30
0
41
1
10
70.896862655197
20
8.51760861246106
30
0
41
1
10
70.9002498467592
20
8.51772734761994
30
0
41
1
10
70.9083791065083
20
8.5180123120013
30
0
41
1
10
70.9178632428824
20
8.51834477044619
30
0
41
1
10
70.9287022558813
20
8.51872472295466
30
0
41
1
10
70.9354766390056
20
8.51896219327244
30
0
41
1
10
70.940896145505
20
8.51915216952665
30
0
41
1
10
70.9449607753796
20
8.51929465171733
30
0
41
1
10
70.9490254052542
20
8.51943713390801
30
0
41
1
10
70.9520738776602
20
8.519543995551
30
0
41
1
10
70.9541061925975
20
8.51961523664636
30
0
41
1
10
70.9549805114194
20
8.51964588515924
30
0
41
1
10
70.9658195244183
20
8.5200258376677
30
0
41
1
10
70.9868201121037
20
8.52076199565283
30
0
41
1
10
71.0293018452773
20
8.52225115717377
30
0
41
1
10
71.2349043731001
20
8.52945838131859
30
0
41
1
10
71.6034308150626
20
8.54237676660617
30
0
41
1
10
72.1237034390097
20
8.56061448701215
30
0
41
1
10
72.4705518549744
20
8.57277296728282
30
0
41
1
10
72.6439760629567
20
8.57885220741812
30
0
0
SPLINE
5
1FA
100
AcDbEntity
8
1
62
256
6
ByLayer
370
-1
48
1
60
0
100
AcDbSpline
70
4
71
3
72
8
73
4
40
0
40
0
40
0
40
0
40
1
40
1
40
1
40
1
41
1
10
75.5819705258548
20
8.85885047205045
30
0
41
1
10
75.5824334315444
20
8.84680132195257
30
0
41
1
10
75.5828744961019
20
8.83475132633686
30
0
41
1
10
75.5832937166066
20
8.82270056499615
30
0
0
SPLINE
5
1FB
100
AcDbEntity
8
1
62
256
6
ByLayer
370
-1
48
1
60
0
100
AcDbSpline
70
4
71
3
72
14
73
10
40
0
40
0
40
0
40
0
40
0.0050966481374712
40
0.0240065217780218
40
0.0435263913424613
40
0.0630462609069009
40
0.375364173937934
40
0.687682086968967
40
1
40
1
40
1
40
1
41
1
10
69.7287824321932
20
8.61747558292925
30
0
41
1
10
69.7289161749567
20
8.61363194727468
30
0
41
1
10
69.7295461067602
20
8.59552744064464
30
0
41
1
10
69.7306880321886
20
8.5627020643791
30
0
41
1
10
69.7322083543276
20
8.51899943282777
30
0
41
1
10
69.7414263075072
20
8.25402347731654
30
0
41
1
10
69.7583258883366
20
7.76823422554597
30
0
41
1
10
69.7829070968156
20
7.06163167751603
30
0
41
1
10
69.7992945691349
20
6.59056331216274
30
0
41
1
10
69.8074883052946
20
6.3550291294861
30
0
0
SPLINE
5
1FC
100
AcDbEntity
8
1
62
256
6
ByLayer
370
-1
48
1
60
0
100
AcDbSpline
70
4
71
3
72
19
73
15
40
0
40
0
40
0
40
0
40
0.0403657336156169
40
0.106300330648679
40
0.172234927681742
40
0.238169524714804
40
0.370038718780929
40
0.501907912847053
40
0.765646300979303
40
0.831580898012365
40
0.897515495045428
40
0.930482793561959
40
0.96345009207849
40
1
40
1
40
1
40
1
41
1
10
70.3426699937962
20
9.31580844418448
30
0
41
1
10
70.3415480088833
20
9.31576759270797
30
0
41
1
10
70.3385936776855
20
9.31565715798379
30
0
41
1
10
70.3338083346496
20
9.31545718624821
30
0
41
1
10
70.3283130953726
20
9.31518447670618
30
0
41
1
10
70.3209876597414
20
9.31476739107842
30
0
41
1
10
70.3118354172686
20
9.3141531389476
30
0
41
1
10
70.2972056475696
20
9.31296866776097
30
0
41
1
10
70.2844281262238
20
9.3116629838263
30
0
41
1
10
70.2734992886086
20
9.31035962284992
30
0
41
1
10
70.2689504409832
20
9.3097833399994
30
0
41
1
10
70.2653148321862
20
9.30930087511834
30
0
41
1
10
70.2624906365089
20
9.30891666956779
30
0
41
1
10
70.2605754796987
20
9.30865076965452
30
0
41
1
10
70.2595686035076
20
9.30851009041129
30
0
0
SPLINE
5
1FD
100
AcDbEntity
8
1
62
256
6
ByLayer
370
-1
48
1
60
0
100
AcDbSpline
70
4
71
3
72
48
73
44
40
0
40
0
40
0
40
0
40
0.015625
40
0.0234375
40
0.02734375
40
0.029296875
40
0.0302734375
40
0.03125
40
0.03173828125
40
0.046875
40
0.0625
40
0.125
40
0.1875
40
0.25
40
0.3125
40
0.375
40
0.390625
40
0.40625
40
0.4140625
40
0.421875
40
0.4375
40
0.5
40
0.5625
40
0.59375
40
0.6015625
40
0.60546875
40
0.609375
40
0.6171875
40
0.625
40
0.65625
40
0.671875
40
0.6796875
40
0.6875
40
0.71875
40
0.75
40
0.78125
40
0.7890625
40
0.79296875
40
0.796875
40
0.8046875
40
0.8125
40
0.875
40
1
40
1
40
1
40
1
41
1
10
72.7915609248355
20
4.33643102853935
30
0
41
1
10
72.7917177912123
20
4.33192180428284
30
0
41
1
10
72.7920389712513
20
4.32503432726202
30
0
41
1
10
72.7925384575179
20
4.31746144814156
30
0
41
1
10
72.7928134733963
20
4.31386424802366
30
0
41
1
10
72.7929559764563
20
4.31212793648473
30
0
41
1
10
72.7930395179221
20
4.31114367807149
30
0
41
1
10
72.7930921127389
20
4.31052813866046
30
0
41
1
10
72.793449427147
20
4.30633100425774
30
0
41
1
10
72.7941220289713
20
4.2984308629772
30
0
41
1
10
72.7961293250407
20
4.274853878843
30
0
41
1
10
72.79915603325
20
4.23930324308046
30
0
41
1
10
72.8031916441959
20
4.19190239539708
30
0
41
1
10
72.8072272551417
20
4.14450154771367
30
0
41
1
10
72.8112628660875
20
4.0971007000303
30
0
41
1
10
72.8142890117227
20
4.06155977375374
30
0
41
1
10
72.8163079423439
20
4.03783993094004
30
0
41
1
10
72.817148600862
20
4.027966372587
30
0
41
1
10
72.8178193274391
20
4.0200985962598
30
0
41
1
10
72.818478034631
20
4.01217253507957
30
0
41
1
10
72.8202579839647
20
3.99000690003925
30
0
41
1
10
72.8229697626626
20
3.95192374177069
30
0
41
1
10
72.8255361605864
20
3.90750114239492
30
0
41
1
10
72.8269522559776
20
3.87824759516704
30
0
41
1
10
72.8275063200587
20
3.86583461526405
30
0
41
1
10
72.8277017056145
20
3.86134296923419
30
0
41
1
10
72.8278946563898
20
3.85682188799711
30
0
41
1
10
72.8281355065212
20
3.85113457750984
30
0
41
1
10
72.8287137062463
20
3.83750296936901
30
0
41
1
10
72.829388436071
20
3.82160270894644
30
0
41
1
10
72.8300626696895
20
3.80569248544899
30
0
41
1
10
72.8304487670088
20
3.79661741292318
30
0
41
1
10
72.8310065285576
20
3.78299547664173
30
0
41
1
10
72.8317710406849
20
3.76245737001102
30
0
41
1
10
72.8326282060797
20
3.73504725312878
30
0
41
1
10
72.8331432109445
20
3.71462226126749
30
0
41
1
10
72.8334091561762
20
3.70223753802978
30
0
41
1
10
72.8334997653852
20
3.6977523623809
30
0
41
1
10
72.8335874630948
20
3.69326540585499
30
0
41
1
10
72.8336962807779
20
3.68764895491765
30
0
41
1
10
72.8341322289449
20
3.66518968193043
30
0
41
1
10
72.8352220993626
20
3.60904149946231
30
0
41
1
10
72.8362683749635
20
3.55513924429295
30
0
41
1
10
72.8369658920308
20
3.51920440751334
30
0
0
SPLINE
5
1FE
100
AcDbEntity
8
1
62
256
6
ByLayer
370
-1
48
1
60
0
100
AcDbSpline
70
4
71
3
72
79
73
75
40
0
40
0
40
0
40
0
40
0.0017245864916163
40
0.0039792263717438
40
0.0084885061319987
40
0.0129977858922536
40
0.0220163454127635
40
0.0310349049332733
40
0.0671091430153127
40
0.139257619179392
40
0.21140609534347
40
0.22042465486398
40
0.224933934624235
40
0.228315894444426
40
0.22944321438449
40
0.231697854264617
40
0.233952494144745
40
0.237334453964936
40
0.238461773905
40
0.240716413785127
40
0.242971053665255
40
0.24748033342551
40
0.249734973305637
40
0.25649889294602
40
0.265517452466529
40
0.283554571507549
40
0.292573131028059
40
0.319628809589588
40
0.355703047671628
40
0.391777285753667
40
0.409814404794687
40
0.427851523835707
40
0.445888642876726
40
0.463925761917746
40
0.481962880958765
40
0.499999999999785
40
0.518037119040805
40
0.536074238081825
40
0.554111357122843
40
0.572148476163864
40
0.590185595204883
40
0.608222714245903
40
0.626259833286922
40
0.644296952327943
40
0.662334071368962
40
0.680371190409983
40
0.716445428492022
40
0.72546398801253
40
0.734482547533042
40
0.751392346633996
40
0.752519666574061
40
0.754774306454188
40
0.757028946334316
40
0.76041090615451
40
0.761538226094571
40
0.7637928659747
40
0.766047505854825
40
0.769429465675019
40
0.770556785615081
40
0.771684105555143
40
0.775066065375337
40
0.77957534513559
40
0.784084624895845
40
0.7885939046561
40
0.82466814273814
40
0.860742380820179
40
0.932890856984258
40
0.968965095066297
40
0.987002214107317
40
0.991511493867573
40
0.994893453687762
40
0.996020773627827
40
0.998275413507954
40
1
40
1
40
1
40
1
41
1
10
75.3461075817362
20
3.625984549165
30
0
41
1
10
75.3464426284945
20
3.62603212564113
30
0
41
1
10
75.3472101265032
20
3.62614149588418
30
0
41
1
10
75.3488247918241
20
3.62637460891301
30
0
41
1
10
75.3509325663781
20
3.62668906288687
30
0
41
1
10
75.3542749802311
20
3.62720841747529
30
0
41
1
10
75.3584867586206
20
3.62789899797619
30
0
41
1
10
75.3686509278189
20
3.62968390226774
30
0
41
1
10
75.3906936973284
20
3.6342151857678
30
0
41
1
10
75.4248368127573
20
3.64375510857366
30
0
41
1
10
75.4536424485741
20
3.65488918292473
30
0
41
1
10
75.4695305444585
20
3.66207458025062
30
0
41
1
10
75.4726588582118
20
3.66352437274173
30
0
41
1
10
75.474324865033
20
3.66430742256819
30
0
41
1
10
75.475573299228
20
3.6648989181148
30
0
41
1
10
75.4766129853357
20
3.66539446045886
30
0
41
1
10
75.4780672606612
20
3.66609312523741
30
0
41
1
10
75.4793123797579
20
3.66669723376373
30
0
41
1
10
75.4805563460651
20
3.66730554122637
30
0
41
1
10
75.4815922577652
20
3.66781508772516
30
0
41
1
10
75.4832481384984
20
3.66863595608476
30
0
41
1
10
75.4849016113173
20
3.66946521076636
30
0
41
1
10
75.4873780858713
20
3.67072165841111
30
0
41
1
10
75.4906733033642
20
3.672419248501
30
0
41
1
10
75.4968286178645
20
3.6756753676751
30
0
41
1
10
75.5033492105554
20
3.67928200337622
30
0
41
1
10
75.5130546260524
20
3.68489123271652
30
0
41
1
10
75.5258541055066
20
3.69272224331081
30
0
41
1
10
75.5430641243757
20
3.70432087736009
30
0
41
1
10
75.5582361708988
20
3.71570616174139
30
0
41
1
10
75.5700510917711
20
3.72529710919145
30
0
41
1
10
75.5787412589422
20
3.73272619899635
30
0
41
1
10
75.5872507373199
20
3.74038568726348
30
0
41
1
10
75.5955710783736
20
3.7482681675161
30
0
41
1
10
75.6036938335725
20
3.75636623327756
30
0
41
1
10
75.6116105543858
20
3.7646724780711
30
0
41
1
10
75.6193127922827
20
3.77317949542007
30
0
41
1
10
75.6267937762833
20
3.78187830853079
30
0
41
1
10
75.6340467354077
20
3.79075994060958
30
0
41
1
10
75.6410648986758
20
3.79981541486274
30
0
41
1
10
75.6478414951077
20
3.80903575449665
30
0
41
1
10
75.6543717523223
20
3.81841089859725
30
0
41
1
10
75.6606508979382
20
3.82793078625051
30
0
41
1
10
75.6666741595742
20
3.83758535654241
30
0
41
1
10
75.6724367648492
20
3.84736454855894
30
0
41
1
10
75.6797692272222
20
3.86055550475334
30
0
41
1
10
75.6857198756969
20
3.87227859135783
30
0
41
1
10
75.69048160041
20
3.88242974548362
30
0
41
1
10
75.6934692778254
20
3.88901054675696
30
0
41
1
10
75.6956847447446
20
3.8941311131947
30
0
41
1
10
75.6972953588167
20
3.89798311505922
30
0
41
1
10
75.6977400958163
20
3.89905371209267
30
0
41
1
10
75.6983577691132
20
3.90055363733598
30
0
41
1
10
75.6988818896011
20
3.90184042893455
30
0
41
1
10
75.6994017577741
20
3.90312810266053
30
0
41
1
10
75.6998323232833
20
3.90420170897338
30
0
41
1
10
75.7004301524428
20
3.90570575081128
30
0
41
1
10
75.7009372593304
20
3.9069959676375
30
0
41
1
10
75.701356301914
20
3.90807181457754
30
0
41
1
10
75.7017735710721
20
3.9091479903399
30
0
41
1
10
75.702435526185
20
3.91087091002024
30
0
41
1
10
75.7033320535193
20
3.91324232396747
30
0
41
1
10
75.7042930445658
20
3.91583214719285
30
0
41
1
10
75.7074395289987
20
3.92447376108012
30
0
41
1
10
75.7123537096857
20
3.93922814477344
30
0
41
1
10
75.7201654447625
20
3.96710882886521
30
0
41
1
10
75.7258444582365
20
3.9949932443414
30
0
41
1
10
75.7290379861209
20
4.01910464255218
30
0
41
1
10
75.7301256377035
20
4.03025917112055
30
0
41
1
10
75.7305323969811
20
4.03512257376548
30
0
41
1
10
75.7306659065345
20
4.03682685099997
30
0
41
1
10
75.7307629678201
20
4.03811730520653
30
0
41
1
10
75.7308345724625
20
4.03909977907469
30
0
41
1
10
75.7308897231575
20
4.03987596135551
30
0
41
1
10
75.7309136314575
20
4.04021478743067
30
0
0
SPLINE
5
1FF
100
AcDbEntity
8
1
62
256
6
ByLayer
370
-1
48
1
60
0
100
AcDbSpline
70
4
71
3
72
23
73
19
40
0
40
0
40
0
40
0
40
0.0365499079216967
40
0.0695172064382202
40
0.102484504954744
40
0.135451803471267
40
0.168419101987791
40
0.234353699020838
40
0.30028829605387
40
0.366222893086932
40
0.498092087153026
40
0.629961281219112
40
0.761830475285214
40
0.827765072318257
40
0.893699669351308
40
0.926666967867832
40
0.959634266384355
40
1
40
1
40
1
40
1
41
1
10
75.0057799594518
20
9.47488454817295
30
0
41
1
10
75.0047657600151
20
9.47495438030541
30
0
41
1
10
75.002836790772
20
9.47508552760451
30
0
41
1
10
74.9999927758543
20
9.47527103878735
30
0
41
1
10
74.9972475661408
20
9.47544107401194
30
0
41
1
10
74.9945013708964
20
9.47560029458248
30
0
41
1
10
74.990838617269
20
9.47579868422599
30
0
41
1
10
74.9862582891808
20
9.47602156622591
30
0
41
1
10
74.9807598022258
20
9.47625194706771
30
0
41
1
10
74.9734261664718
20
9.47650917429135
30
0
41
1
10
74.9642556555989
20
9.47673610009579
30
0
41
1
10
74.953248323771
20
9.47685397497341
30
0
41
1
10
74.9440756906881
20
9.47682586396328
30
0
41
1
10
74.9367391157404
20
9.4767289851093
30
0
41
1
10
74.9321551123928
20
9.4766350288329
30
0
41
1
10
74.9284891540289
20
9.476538372932
30
0
41
1
10
74.9255343439634
20
9.47645064690789
30
0
41
1
10
74.9234959204827
20
9.47638393321915
30
0
41
1
10
74.9223738298574
20
9.4763461205101
30
0
0
SPLINE
5
200
100
AcDbEntity
8
1
62
256
6
ByLayer
370
-1
48
1
60
0
100
AcDbSpline
70
4
71
3
72
8
73
4
40
0
40
0
40
0
40
0
40
1
40
1
40
1
40
1
41
1
10
69.7287825771244
20
8.61747558801088
30
0
41
1
10
69.7283633579666
20
8.62952631063155
30
0
41
1
10
69.7279659827212
20
8.64157779897224
30
0
41
1
10
69.7275904540195
20
8.65362997323066
30
0
0
SPLINE
5
201
100
AcDbEntity
8
1
62
256
6
ByLayer
370
-1
48
1
60
0
100
AcDbSpline
70
4
71
3
72
22
73
18
40
0
40
0
40
0
40
0
40
0.017823403922509
40
0.0278216291116239
40
0.0378198543007388
40
0.112806543219101
40
0.187793232137463
40
0.337766609974186
40
0.497738213000025
40
0.657709816025864
40
0.817681419051703
40
0.897667220564622
40
0.977653022077541
40
0.982652134672099
40
0.987651247266656
40
0.997649472455771
40
1
40
1
40
1
40
1
41
1
10
75.57476393223
20
8.94227165693547
30
0
41
1
10
75.5746512620307
20
8.94308423792663
30
0
41
1
10
75.5744745062
20
8.94435259250952
30
0
41
1
10
75.5742333586784
20
8.94607681657209
30
0
41
1
10
75.573626943917
20
8.95040719637635
30
0
41
1
10
75.5726056769809
20
8.95770046309752
30
0
41
1
10
75.5706909582844
20
8.97137532696274
30
0
41
1
10
75.5682339371956
20
8.98892472116893
30
0
41
1
10
75.5652344569053
20
9.01034865695308
30
0
41
1
10
75.5621711578855
20
9.03222842115818
30
0
41
1
10
75.5596184087022
20
9.05046155799576
30
0
41
1
10
75.5575674374836
20
9.06509881105623
30
0
41
1
10
75.556517912828
20
9.07259982351999
30
0
41
1
10
75.5559509592349
20
9.07665938511721
30
0
41
1
10
75.5558252686992
20
9.07755869976069
30
0
41
1
10
75.5557168171986
20
9.0783326691442
30
0
41
1
10
75.555640200836
20
9.07887693949283
30
0
41
1
10
75.555625633802
20
9.07898030980542
30
0
0
SPLINE
5
202
100
AcDbEntity
8
1
62
256
6
ByLayer
370
-1
48
1
60
0
100
AcDbSpline
70
4
71
3
72
13
73
9
40
0
40
0
40
0
40
0
40
0.312317913031032
40
0.624635826062064
40
0.936953739093096
40
0.975993478221975
40
0.994903351862526
40
1
40
1
40
1
40
1
41
1
10
72.6325218580414
20
9.39607882844416
30
0
41
1
10
72.3978839540395
20
9.38785379354348
30
0
41
1
10
71.9286081460358
20
9.37140372374211
30
0
41
1
10
71.2246944340303
20
9.34672861904008
30
0
41
1
10
70.7260888880264
20
9.32925041987613
30
0
41
1
10
70.4479146541804
20
9.31949925545285
30
0
41
1
10
70.4005493193817
20
9.31783890337351
30
0
41
1
10
70.382513697892
20
9.317206794529
30
0
41
1
10
70.3786846862826
20
9.31707260266344
30
0
0
SPLINE
5
203
100
AcDbEntity
8
1
62
256
6
ByLayer
370
-1
48
1
60
0
100
AcDbSpline
70
4
71
3
72
22
73
18
40
0
40
0
40
0
40
0
40
0.0023505275442223
40
0.0123487527333376
40
0.0223469779224529
40
0.0623398786789141
40
0.102332779435366
40
0.182318580948298
40
0.262304382461216
40
0.342290183974143
40
0.662233390025832
40
0.812206767862562
40
0.95749347764188
40
0.962180145699292
40
0.972178370888402
40
0.982176596077522
40
1
40
1
40
1
40
1
41
1
10
70.3265160834188
20
3.45002697983517
30
0
41
1
10
70.3266198256744
20
3.4500196035261
30
0
41
1
10
70.3271660486272
20
3.44998084822817
30
0
41
1
10
70.3281665837381
20
3.44991049978566
30
0
41
1
10
70.330881199589
20
3.4497209275934
30
0
41
1
10
70.3349719972554
20
3.44943463003034
30
0
41
1
10
70.3422826641036
20
3.44892173797533
30
0
41
1
10
70.3514633531541
20
3.44827627091922
30
0
41
1
10
70.3624546603889
20
3.44750433256982
30
0
41
1
10
70.3844117552322
20
3.44596307798889
30
0
41
1
10
70.4095709264069
20
3.44419705711491
30
0
41
1
10
70.4377177491585
20
3.44222132126211
30
0
41
1
10
70.451440962449
20
3.44125783208318
30
0
41
1
10
70.4587600250111
20
3.4407438618193
30
0
41
1
10
70.4598893337298
20
3.44066455613515
30
0
41
1
10
70.4616196340596
20
3.44054335292685
30
0
41
1
10
70.4628924141429
20
3.44045483007378
30
0
41
1
10
70.4637077906196
20
3.44039868778455
30
0
0
SPLINE
5
204
100
AcDbEntity
8
1
62
256
6
ByLayer
370
-1
48
1
60
0
100
AcDbSpline
70
4
71
3
72
48
73
44
40
0
40
0
40
0
40
0
40
0.015625
40
0.0234375
40
0.02734375
40
0.029296875
40
0.0302734375
40
0.03125
40
0.03173828125
40
0.046875
40
0.0625
40
0.125
40
0.1875
40
0.25
40
0.3125
40
0.375
40
0.390625
40
0.40625
40
0.4140625
40
0.421875
40
0.4375
40
0.5
40
0.5625
40
0.59375
40
0.6015625
40
0.60546875
40
0.609375
40
0.6171875
40
0.625
40
0.65625
40
0.671875
40
0.6796875
40
0.6875
40
0.71875
40
0.75
40
0.78125
40
0.7890625
40
0.79296875
40
0.796875
40
0.8046875
40
0.8125
40
0.875
40
1
40
1
40
1
40
1
41
1
10
74.8309072366314
20
6.531715924016
30
0
41
1
10
74.8353993019283
20
6.53187338959685
30
0
41
1
10
74.8423421492973
20
6.53211390559426
30
0
41
1
10
74.8501222531419
20
6.53237835636043
30
0
41
1
10
74.8538556417202
20
6.53250397335657
30
0
41
1
10
74.8556674465225
20
6.53256460669158
30
0
41
1
10
74.8566972607323
20
6.53259897775274
30
0
41
1
10
74.8573416393323
20
6.53262047286262
30
0
41
1
10
74.8617341073489
20
6.53276704002562
30
0
41
1
10
74.8700019588214
20
6.53304291903825
30
0
41
1
10
74.8946763280596
20
6.5338662454665
30
0
41
1
10
74.9318816596858
20
6.53510770102326
30
0
41
1
10
74.9814887685208
20
6.53676297509892
30
0
41
1
10
75.0310958773558
20
6.53841824917458
30
0
41
1
10
75.0807029861908
20
6.54007352325024
30
0
41
1
10
75.1178984204769
20
6.54131463974426
30
0
41
1
10
75.1427217695747
20
6.54214295490755
30
0
41
1
10
75.1530549343586
20
6.54248774716285
30
0
41
1
10
75.1612897946973
20
6.5427624959664
30
0
41
1
10
75.1695686711055
20
6.54303928012183
30
0
41
1
10
75.1926588129741
20
6.54381332115372
30
0
41
1
10
75.2319839994795
20
6.54514321434513
30
0
41
1
10
75.2772585870797
20
6.54669448569817
30
0
41
1
10
75.3067992420705
20
6.54771604207772
30
0
41
1
10
75.3192872295958
20
6.54814951288762
30
0
41
1
10
75.3238009142449
20
6.54830636462327
30
0
41
1
10
75.3283404633222
20
6.54846424425901
30
0
41
1
10
75.3340491325018
20
6.54866284951757
30
0
41
1
10
75.3477328531611
20
6.54913887576325
30
0
41
1
10
75.3636942016794
20
6.54969412509232
30
0
41
1
10
75.3796646325595
20
6.55024972233963
30
0
41
1
10
75.3887755664306
20
6.55056663085543
30
0
41
1
10
75.402429550322
20
6.55104231935235
30
0
41
1
10
75.4229395380835
20
6.5517595258398
30
0
41
1
10
75.4501489765849
20
6.55271670821318
30
0
41
1
10
75.4703007077739
20
6.55342996464583
30
0
41
1
10
75.4824734102994
20
6.55386244871124
30
0
41
1
10
75.4868760979333
20
6.55401907449621
30
0
41
1
10
75.4912775862151
20
6.55417576247078
30
0
41
1
10
75.4967860980923
20
6.55437189325932
30
0
41
1
10
75.5188145443169
20
6.55515618835426
30
0
41
1
10
75.5738856598784
20
6.5571169260916
30
0
41
1
10
75.6267539308175
20
6.55899923431946
30
0
41
1
10
75.6619994447769
20
6.56025410647135
30
0
0
SPLINE
5
205
100
AcDbEntity
8
SK1
62
256
6
ByLayer
370
-1
48
1
60
0
100
AcDbSpline
70
4
71
3
72
8
73
4
40
0
40
0
40
0
40
0
40
1
40
1
40
1
40
1
41
1
10
-55
20
-6.99849805315392
30
0
41
1
10
-55.3648529633576
20
-6.34700451336727
30
0
41
1
10
-55.7026345426883
20
-5.68249326840734
30
0
41
1
10
-56
20
-4.99854728896301
30
0
0
SPLINE
5
206
100
AcDbEntity
8
SK1
62
256
6
ByLayer
370
-1
48
1
60
0
100
AcDbSpline
70
4
71
3
72
8
73
4
40
0
40
0
40
0
40
0
40
1
40
1
40
1
40
1
41
1
10
-56.0000000000001
20
4.99854728896315
30
0
41
1
10
-55.7019755215914
20
5.68400902895925
30
0
41
1
10
-55.3641473109836
20
6.34826454962635
30
0
41
1
10
-55
20
6.99849805315404
30
0
0
SPLINE
5
207
100
AcDbEntity
8
SK1
62
256
6
ByLayer
370
-1
48
1
60
0
100
AcDbSpline
70
4
71
3
72
68
73
64
40
0
40
0
40
0
40
0
40
0.015625
40
0.015625
40
0.0312499999999999
40
0.0312499999999999
40
0.0468749999999999
40
0.0468749999999999
40
0.0624999999999998
40
0.0624999999999998
40
0.0781249999999998
40
0.0781249999999998
40
0.0937499999999997
40
0.0937499999999997
40
0.125
40
0.125
40
0.15625
40
0.15625
40
0.1875
40
0.1875
40
0.25
40
0.25
40
0.28125
40
0.28125
40
0.3125
40
0.3125
40
0.375
40
0.375
40
0.4375
40
0.4375
40
0.46875
40
0.46875
40
0.5
40
0.5
40
0.5625
40
0.5625
40
0.625
40
0.625
40
0.6875
40
0.6875
40
0.75
40
0.75
40
0.8125
40
0.8125
40
0.84375
40
0.84375
40
0.859375
40
0.859375
40
0.875
40
0.875
40
0.90625
40
0.90625
40
0.921875
40
0.921875
40
0.9375
40
0.9375
40
0.953125
40
0.953125
40
0.96875
40
0.96875
40
0.984375
40
0.984375
40
1
40
1
40
1
40
1
41
1
10
-6.5
20
-6.99849805315398
30
0
41
1
10
-6.4096424095903
20
-6.99849805315398
30
0
41
1
10
-6.31887533751086
20
-6.9924669932976
30
0
41
1
10
-6.13726564177031
20
-6.96792032412691
30
0
41
1
10
-6.04880117468585
20
-6.94974705973743
30
0
41
1
10
-5.87614107362342
20
-6.90252164638767
30
0
41
1
10
-5.79194795071362
20
-6.87346297167917
30
0
41
1
10
-5.62761370230606
20
-6.80484072991021
30
0
41
1
10
-5.54890965383427
20
-6.76585529638666
30
0
41
1
10
-5.39867973784189
20
-6.68016521734489
30
0
41
1
10
-5.32694157755157
20
-6.63336290342139
30
0
41
1
10
-5.18947718430641
20
-6.53250060019133
30
0
41
1
10
-5.12348684568531
20
-6.47818603126365
30
0
41
1
10
-4.93566988154686
20
-6.30674027670506
30
0
41
1
10
-4.82518003213681
20
-6.18267595320251
30
0
41
1
10
-4.62603001440084
20
-5.91868980815966
30
0
41
1
10
-4.53721391214785
20
-5.77825879287735
30
0
41
1
10
-4.37814656673874
20
-5.48542007115435
30
0
41
1
10
-4.30877871567313
20
-5.33483042069352
30
0
41
1
10
-4.12354082750574
20
-4.87237000918773
30
0
41
1
10
-4.03020120532329
20
-4.54989217457512
30
0
41
1
10
-3.91807144557504
20
-4.04887624586692
30
0
41
1
10
-3.88552668802802
20
-3.87909831441809
30
0
41
1
10
-3.82866773565829
20
-3.53847076026688
30
0
41
1
10
-3.80422767364425
20
-3.36705941807358
30
0
41
1
10
-3.74020579920568
20
-2.84975913582008
30
0
41
1
10
-3.70977205452269
20
-2.5008195214777
30
0
41
1
10
-3.66416163751657
20
-1.79552608157809
30
0
41
1
10
-3.64903771748126
20
-1.43916908464092
30
0
41
1
10
-3.63426182330713
20
-0.899256752194447
30
0
41
1
10
-3.63068669313998
20
-0.718167674817778
30
0
41
1
10
-3.62598899859142
20
-0.357375695924361
30
0
41
1
10
-3.62485343662013
20
-0.177302953433326
30
0
41
1
10
-3.62488496014578
20
0.361962578325034
30
0
41
1
10
-3.62938260517049
20
0.720207066315254
30
0
41
1
10
-3.64887950283875
20
1.43414621185846
30
0
41
1
10
-3.66385562324439
20
1.78984138878459
30
0
41
1
10
-3.70956223321124
20
2.49851694715909
30
0
41
1
10
-3.74045671775656
20
2.85271919963691
30
0
41
1
10
-3.82645737175278
20
3.54573152185978
30
0
41
1
10
-3.88145968550236
20
3.88575414429386
30
0
41
1
10
-4.03051920995767
20
4.55084385300148
30
0
41
1
10
-4.12523349261875
20
4.87761469840365
30
0
41
1
10
-4.31105593218689
20
5.33999328729007
30
0
41
1
10
-4.38041029850672
20
5.4899128326384
30
0
41
1
10
-4.49888437250004
20
5.70752713951083
30
0
41
1
10
-4.54079549132547
20
5.77885043055693
30
0
41
1
10
-4.63023926406612
20
5.91883578995851
30
0
41
1
10
-4.67776791395602
20
5.98743717509882
30
0
41
1
10
-4.82792587490127
20
6.18597359029033
30
0
41
1
10
-4.93858588995937
20
6.30966494075429
30
0
41
1
10
-5.12522766477915
20
6.47964028567972
30
0
41
1
10
-5.19131964832849
20
6.53397024553271
30
0
41
1
10
-5.32929892448178
20
6.63497116118225
30
0
41
1
10
-5.40112275258878
20
6.68167605293547
30
0
41
1
10
-5.55102867370906
20
6.76694298534821
30
0
41
1
10
-5.62910582891868
20
6.80551115138627
30
0
41
1
10
-5.79238720600742
20
6.87359848794483
30
0
41
1
10
-5.87738605118548
20
6.90291103819595
30
0
41
1
10
-6.04966564042599
20
6.94993403370722
30
0
41
1
10
-6.13756051826556
20
6.96792637087054
30
0
41
1
10
-6.31709499624006
20
6.99225989008042
30
0
41
1
10
-6.40924253974518
20
6.99849805315398
30
0
41
1
10
-6.5
20
6.99849805315398
30
0
0
SPLINE
5
208
100
AcDbEntity
8
SK1
62
256
6
ByLayer
370
-1
48
1
60
0
100
AcDbSpline
70
4
71
3
72
20
73
16
40
0
40
0
40
0
40
0
40
0.125000000000007
40
0.125000000000007
40
0.250000000000015
40
0.250000000000015
40
0.312500000000018
40
0.312500000000018
40
0.375000000000022
40
0.375000000000022
40
0.500000000000012
40
0.500000000000012
40
0.750000000000006
40
0.750000000000006
40
1
40
1
40
1
40
1
41
1
10
-53.6338144512145
20
-6.34034179467375
30
0
41
1
10
-53.6736405326374
20
-6.31405714368668
30
0
41
1
10
-53.7174596238936
20
-6.2918915268643
30
0
41
1
10
-53.8100286430816
20
-6.26230917234659
30
0
41
1
10
-53.858409060093
20
-6.25510537770515
30
0
41
1
10
-53.930507607687
20
-6.25719119578446
30
0
41
1
10
-53.9548847131617
20
-6.26004287846277
30
0
41
1
10
-54.0024268232708
20
-6.26975628298462
30
0
41
1
10
-54.025531470073
20
-6.27654559824734
30
0
41
1
10
-54.0930893921825
20
-6.30200607369946
30
0
41
1
10
-54.136092797726
20
-6.32609087475549
30
0
41
1
10
-54.2534188607808
20
-6.41013429612562
30
0
41
1
10
-54.3194596979378
20
-6.48308041368765
30
0
41
1
10
-54.4306544823114
20
-6.63915672058906
30
0
41
1
10
-54.4771151388184
20
-6.72418194167685
30
0
41
1
10
-54.5162227297291
20
-6.81204395564961
30
0
0
SPLINE
5
209
100
AcDbEntity
8
SK1
62
256
6
ByLayer
370
-1
48
1
60
0
100
AcDbSpline
70
4
71
3
72
20
73
16
40
0
40
0
40
0
40
0
40
0.25
40
0.25
40
0.375
40
0.375
40
0.5
40
0.5
40
0.625
40
0.625
40
0.75
40
0.75
40
0.875
40
0.875
40
1
40
1
40
1
40
1
41
1
10
-54.5162227297291
20
6.8120439556497
30
0
41
1
10
-54.4772709483907
20
6.72453199501689
30
0
41
1
10
-54.4306845518237
20
6.63914767831511
30
0
41
1
10
-54.3469265709005
20
6.52165950363116
30
0
41
1
10
-54.3163253277688
20
6.4838456686486
30
0
41
1
10
-54.2501041764424
20
6.41421731653315
30
0
41
1
10
-54.2145625265326
20
6.38236090680323
30
0
41
1
10
-54.1369222939179
20
6.32662557921188
30
0
41
1
10
-54.0940013611407
20
6.30244517653043
30
0
41
1
10
-54.0037548865671
20
6.26824500575401
30
0
41
1
10
-53.9556146989167
20
6.25796898452336
30
0
41
1
10
-53.8582046255659
20
6.25504848254036
30
0
41
1
10
-53.8099490429817
20
6.26234710426348
30
0
41
1
10
-53.7177558858445
20
6.29178438547694
30
0
41
1
10
-53.6739857261288
20
6.31382932086129
30
0
41
1
10
-53.6338144512151
20
6.3403417946746
30
0
0
SPLINE
5
20A
100
AcDbEntity
8
SK1
62
256
6
ByLayer
370
-1
48
1
60
0
100
AcDbSpline
70
4
71
3
72
8
73
4
40
0
40
0
40
0
40
0
40
1
40
1
40
1
40
1
41
1
10
-53.6338144512151
20
6.3403417946746
30
0
41
1
10
-53.292222119692
20
6.56578790669803
30
0
41
1
10
-52.9473802440142
20
6.78469639798695
30
0
41
1
10
-52.6000000000004
20
6.99849805315478
30
0
0
SPLINE
5
20B
100
AcDbEntity
8
SK1
62
256
6
ByLayer
370
-1
48
1
60
0
100
AcDbSpline
70
4
71
3
72
8
73
4
40
0
40
0
40
0
40
0
40
1
40
1
40
1
40
1
41
1
10
-54.516222729729
20
-6.81204395564961
30
0
41
1
10
-54.5439393896427
20
-6.87431425928901
30
0
41
1
10
-54.5718676648179
20
-6.93646419260506
30
0
41
1
10
-54.6
20
-6.99849805315392
30
0
0
SPLINE
5
20C
100
AcDbEntity
8
SK1
62
256
6
ByLayer
370
-1
48
1
60
0
100
AcDbSpline
70
4
71
3
72
8
73
4
40
0
40
0
40
0
40
0
40
1
40
1
40
1
40
1
41
1
10
-54.6
20
6.99849805315404
30
0
41
1
10
-54.5718676648179
20
6.93646419260517
30
0
41
1
10
-54.5439393896427
20
6.87431425928909
30
0
41
1
10
-54.516222729729
20
6.81204395564973
30
0
0
SPLINE
5
20D
100
AcDbEntity
8
SK1
62
256
6
ByLayer
370
-1
48
1
60
0
100
AcDbSpline
70
4
71
3
72
8
73
4
40
0
40
0
40
0
40
0
40
1
40
1
40
1
40
1
41
1
10
-52.6000000000004
20
-6.99849805315466
30
0
41
1
10
-52.9473802440142
20
-6.78469639798683
30
0
41
1
10
-53.292222119692
20
-6.56578790669792
30
0
41
1
10
-53.6338144512151
20
-6.34034179467449
30
0
0
LINE
5
45
100
AcDbEntity
8
80
62
256
6
ByLayer
370
-1
48
1
60
0
100
AcDbLine
10
0
20
0
30
0
11
-7
21
0
31
0
39
0
210
0
220
0
230
1
0
LINE
5
46
100
AcDbEntity
8
81
62
256
6
ByLayer
370
-1
48
1
60
0
100
AcDbLine
10
76
20
0
30
0
11
83
21
0
31
0
39
0
210
0
220
0
230
1
0
LINE
5
47
100
AcDbEntity
8
1
62
256
6
ByLayer
370
-1
48
1
60
0
100
AcDbLine
10
0.2
20
16
30
0
11
0
21
15.8
31
0
39
0
210
0
220
0
230
1
0
LINE
5
49
100
AcDbEntity
8
1
62
256
6
ByLayer
370
-1
48
1
60
0
100
AcDbLine
10
0
20
-15.8
30
0
11
0.2
21
-16
31
0
39
0
210
0
220
0
230
1
0
LINE
5
4A
100
AcDbEntity
8
1
62
256
6
ByLayer
370
-1
48
1
60
0
100
AcDbLine
10
5
20
16
30
0
11
0.2
21
16
31
0
39
0
210
0
220
0
230
1
0
LINE
5
4B
100
AcDbEntity
8
1
62
256
6
ByLayer
370
-1
48
1
60
0
100
AcDbLine
10
0.2
20
-16
30
0
11
5
21
-16
31
0
39
0
210
0
220
0
230
1
0
LINE
5
4C
100
AcDbEntity
8
1
62
256
6
ByLayer
370
-1
48
1
60
0
100
AcDbLine
10
40.305432
20
9.2
30
0
11
16
21
9.2
31
0
39
0
210
0
220
0
230
1
0
LINE
5
4D
100
AcDbEntity
8
1
62
256
6
ByLayer
370
-1
48
1
60
0
100
AcDbLine
10
69.491984
20
9.2
30
0
11
67.257466
21
9.2
31
0
39
0
210
0
220
0
230
1
0
LINE
5
4E
100
AcDbEntity
8
1
62
256
6
ByLayer
370
-1
48
1
60
0
100
AcDbLine
10
16
20
-9.2
30
0
11
31.127302
21
-9.2
31
0
39
0
210
0
220
0
230
1
0
LINE
5
4F
100
AcDbEntity
8
SK1
62
256
6
ByLayer
370
-1
48
1
60
0
100
AcDbLine
10
-2
20
12.49675
30
0
11
-52.6
21
12.49675
31
0
39
0
210
0
220
0
230
1
0
LINE
5
51
100
AcDbEntity
8
SK1
62
256
6
ByLayer
370
-1
48
1
60
0
100
AcDbLine
10
-52.6
20
-12.49675
30
0
11
-2
21
-12.49675
31
0
39
0
210
0
220
0
230
1
0
LINE
5
52
100
AcDbEntity
8
SK1
62
256
6
ByLayer
370
-1
48
1
60
0
100
AcDbLine
10
-2
20
-12.49675
30
0
11
-1.551212
21
-12.287477
31
0
39
0
210
0
220
0
230
1
0
LINE
5
53
100
AcDbEntity
8
SK1
62
256
6
ByLayer
370
-1
48
1
60
0
100
AcDbLine
10
-1.551212
20
12.287477
30
0
11
-2
21
12.49675
31
0
39
0
210
0
220
0
230
1
0
LINE
5
54
100
AcDbEntity
8
SK1
62
256
6
ByLayer
370
-1
48
1
60
0
100
AcDbLine
10
-0.15
20
12.25
30
0
11
-1.382165
21
12.25
31
0
39
0
210
0
220
0
230
1
0
LINE
5
55
100
AcDbEntity
8
SK1
62
256
6
ByLayer
370
-1
48
1
60
0
100
AcDbLine
10
-1.382165
20
-12.25
30
0
11
-0.15
21
-12.25
31
0
39
0
210
0
220
0
230
1
0
LINE
5
56
100
AcDbEntity
8
SK1
62
256
6
ByLayer
370
-1
48
1
60
0
100
AcDbLine
10
-52.6
20
12.49675
30
0
11
-53.633814
21
12.140417
31
0
39
0
210
0
220
0
230
1
0
LINE
5
57
100
AcDbEntity
8
SK1
62
256
6
ByLayer
370
-1
48
1
60
0
100
AcDbLine
10
-53.633814
20
-12.140417
30
0
11
-52.6
21
-12.49675
31
0
39
0
210
0
220
0
230
1
0
LINE
5
58
100
AcDbEntity
8
SK1
62
256
6
ByLayer
370
-1
48
1
60
0
100
AcDbLine
10
-54.6
20
12.49675
30
0
11
-55
21
12.49675
31
0
39
0
210
0
220
0
230
1
0
LINE
5
59
100
AcDbEntity
8
SK1
62
256
6
ByLayer
370
-1
48
1
60
0
100
AcDbLine
10
-55
20
-12.49675
30
0
11
-54.6
21
-12.49675
31
0
39
0
210
0
220
0
230
1
0
LINE
5
5A
100
AcDbEntity
8
SK1
62
256
6
ByLayer
370
-1
48
1
60
0
100
AcDbLine
10
-54.6
20
-12.49675
30
0
11
-54.516223
21
-12.393294
31
0
39
0
210
0
220
0
230
1
0
LINE
5
5B
100
AcDbEntity
8
SK1
62
256
6
ByLayer
370
-1
48
1
60
0
100
AcDbLine
10
-54.516223
20
12.393294
30
0
11
-54.6
21
12.49675
31
0
39
0
210
0
220
0
230
1
0
LINE
5
5C
100
AcDbEntity
8
SK1
62
256
6
ByLayer
370
-1
48
1
60
0
100
AcDbLine
10
-55
20
12.49675
30
0
11
-56
21
11.49675
31
0
39
0
210
0
220
0
230
1
0
LINE
5
5D
100
AcDbEntity
8
SK1
62
256
6
ByLayer
370
-1
48
1
60
0
100
AcDbLine
10
-56
20
-11.49675
30
0
11
-55
21
-12.49675
31
0
39
0
210
0
220
0
230
1
0
LINE
5
5E
100
AcDbEntity
8
SK4
62
256
6
ByLayer
370
-1
48
0.05
60
0
100
AcDbLine
10
76
20
0
30
0
11
-56
21
0
31
0
39
0
210
0
220
0
230
1
0
LINE
5
60
100
AcDbEntity
8
4
62
256
6
ByLayer
370
-1
48
0.05
60
0
100
AcDbLine
10
76
20
0
30
0
11
0
21
0
31
0
39
0
210
0
220
0
230
1
0
LINE
5
62
100
AcDbEntity
8
1
62
256
6
ByLayer
370
-1
48
1
60
0
100
AcDbLine
10
74.965488
20
3.339453
30
0
11
74.754925
21
3.342361
31
0
39
0
210
0
220
0
230
1
0
LINE
5
63
100
AcDbEntity
8
1
62
256
6
ByLayer
370
-1
48
1
60
0
100
AcDbLine
10
74.997285
20
0.369127
30
0
11
75.02791
21
0.352898
31
0
39
0
210
0
220
0
230
1
0
LINE
5
64
100
AcDbEntity
8
1
62
256
6
ByLayer
370
-1
48
1
60
0
100
AcDbLine
10
74.709352
20
3.352927
30
0
11
74.965488
21
3.339453
31
0
39
0
210
0
220
0
230
1
0
LINE
5
65
100
AcDbEntity
8
1
62
256
6
ByLayer
370
-1
48
1
60
0
100
AcDbLine
10
75.024972
20
0.343743
30
0
11
74.974068
21
0.345517
31
0
39
0
210
0
220
0
230
1
0
LINE
5
66
100
AcDbEntity
8
1
62
256
6
ByLayer
370
-1
48
1
60
0
100
AcDbLine
10
63.999859
20
5.21
30
0
11
65.399076
21
5.21
31
0
39
0
210
0
220
0
230
1
0
LINE
5
67
100
AcDbEntity
8
1
62
256
6
ByLayer
370
-1
48
1
60
0
100
AcDbLine
10
16
20
9.2
30
0
11
16
21
6.405522
31
0
39
0
210
0
220
0
230
1
0
LINE
5
68
100
AcDbEntity
8
1
62
256
6
ByLayer
370
-1
48
1
60
0
100
AcDbLine
10
69.793376
20
3.207852
30
0
11
69.838664
21
3.207852
31
0
39
0
210
0
220
0
230
1
0
LINE
5
69
100
AcDbEntity
8
1
62
256
6
ByLayer
370
-1
48
1
60
0
100
AcDbLine
10
69.483708
20
9.199946
30
0
11
69.572583
21
6.412759
31
0
39
0
210
0
220
0
230
1
0
LINE
5
6A
100
AcDbEntity
8
1
62
256
6
ByLayer
370
-1
48
1
60
0
100
AcDbLine
10
16
20
-9.2
30
0
11
16
21
-7.248363
31
0
39
0
210
0
220
0
230
1
0
LINE
5
6B
100
AcDbEntity
8
1
62
256
6
ByLayer
370
-1
48
1
60
0
100
AcDbLine
10
0.2
20
16
30
0
11
0.2
21
-16
31
0
39
0
210
0
220
0
230
1
0
LINE
5
6C
100
AcDbEntity
8
1
62
256
6
ByLayer
370
-1
48
1
60
0
100
AcDbLine
10
5
20
16
30
0
11
5
21
-16
31
0
39
0
210
0
220
0
230
1
0
LINE
5
6D
100
AcDbEntity
8
1
62
256
6
ByLayer
370
-1
48
1
60
0
100
AcDbLine
10
68.901201
20
-9.197077
30
0
11
75.173177
21
-9.197077
31
0
39
0
210
0
220
0
230
1
0
LINE
5
6E
100
AcDbEntity
8
1
62
256
6
ByLayer
370
-1
48
1
60
0
100
AcDbLine
10
67.952368
20
5.760998
30
0
11
65.168764
21
6.05576
31
0
39
0
210
0
220
0
230
1
0
LINE
5
6F
100
AcDbEntity
8
1
62
256
6
ByLayer
370
-1
48
1
60
0
100
AcDbLine
10
69.793376
20
3.207852
30
0
11
68.984954
21
3.179514
31
0
39
0
210
0
220
0
230
1
0
LINE
5
70
100
AcDbEntity
8
1
62
256
6
ByLayer
370
-1
48
1
60
0
100
AcDbLine
10
75.173177
20
-9.197077
30
0
11
75.508607
21
-5.415328
31
0
39
0
210
0
220
0
230
1
0
LINE
5
71
100
AcDbEntity
8
1
62
256
6
ByLayer
370
-1
48
1
60
0
100
AcDbLine
10
74.080097
20
1.509191
30
0
11
74.754925
21
3.342361
31
0
39
0
210
0
220
0
230
1
0
LINE
5
72
100
AcDbEntity
8
1
62
256
6
ByLayer
370
-1
48
1
60
0
100
AcDbLine
10
69.545259
20
6.412759
30
0
11
69.572583
21
6.412759
31
0
39
0
210
0
220
0
230
1
0
LINE
5
73
100
AcDbEntity
8
1
62
256
6
ByLayer
370
-1
48
1
60
0
100
AcDbLine
10
69.263937
20
4.313701
30
0
11
69.473111
21
4.313701
31
0
39
0
210
0
220
0
230
1
0
LINE
5
74
100
AcDbEntity
8
1
62
256
6
ByLayer
370
-1
48
1
60
0
100
AcDbLine
10
75.194807
20
-4.642064
30
0
11
74.952176
21
-4.533955
31
0
39
0
210
0
220
0
230
1
0
LINE
5
75
100
AcDbEntity
8
1
62
256
6
ByLayer
370
-1
48
1
60
0
100
AcDbLine
10
69.43226
20
5.487985
30
0
11
69.473111
21
4.313701
31
0
39
0
210
0
220
0
230
1
0
LINE
5
76
100
AcDbEntity
8
1
62
256
6
ByLayer
370
-1
48
1
60
0
100
AcDbLine
10
69.315544
20
3.987558
30
0
11
69.017133
21
3.977098
31
0
39
0
210
0
220
0
230
1
0
LINE
5
77
100
AcDbEntity
8
1
62
256
6
ByLayer
370
-1
48
1
60
0
100
AcDbLine
10
65.168764
20
9.177825
30
0
11
65.168764
21
6.05576
31
0
39
0
210
0
220
0
230
1
0
LINE
5
78
100
AcDbEntity
8
1
62
256
6
ByLayer
370
-1
48
1
60
0
100
AcDbLine
10
75.024972
20
0.343743
30
0
11
75.02791
21
0.352898
31
0
39
0
210
0
220
0
230
1
0
LINE
5
79
100
AcDbEntity
8
1
62
256
6
ByLayer
370
-1
48
1
60
0
100
AcDbLine
10
71.229701
20
3.236194
30
0
11
74.559798
21
3.352927
31
0
39
0
210
0
220
0
230
1
0
LINE
5
7A
100
AcDbEntity
8
1
62
256
6
ByLayer
370
-1
48
1
60
0
100
AcDbLine
10
67.952368
20
5.760998
30
0
11
67.952368
21
9.197548
31
0
39
0
210
0
220
0
230
1
0
LINE
5
7B
100
AcDbEntity
8
1
62
256
6
ByLayer
370
-1
48
1
60
0
100
AcDbLine
10
69.223086
20
5.487985
30
0
11
69.43226
21
5.487985
31
0
39
0
210
0
220
0
230
1
0
LINE
5
7C
100
AcDbEntity
8
1
62
256
6
ByLayer
370
-1
48
1
60
0
100
AcDbLine
10
75.508607
20
-5.415328
30
0
11
75.205941
21
-5.378768
31
0
39
0
210
0
220
0
230
1
0
LINE
5
7D
100
AcDbEntity
8
1
62
256
6
ByLayer
370
-1
48
1
60
0
100
AcDbLine
10
69.223086
20
5.487985
30
0
11
69.263937
21
4.313701
31
0
39
0
210
0
220
0
230
1
0
LINE
5
7E
100
AcDbEntity
8
1
62
256
6
ByLayer
370
-1
48
1
60
0
100
AcDbLine
10
75.188684
20
-4.711092
30
0
11
75.194807
21
-4.642064
31
0
39
0
210
0
220
0
230
1
0
LINE
5
7F
100
AcDbEntity
8
1
62
256
6
ByLayer
370
-1
48
1
60
0
100
AcDbLine
10
68.983424
20
3.174248
30
0
11
68.984954
21
3.179514
31
0
39
0
210
0
220
0
230
1
0
LINE
5
80
100
AcDbEntity
8
1
62
256
6
ByLayer
370
-1
48
1
60
0
100
AcDbLine
10
69.77443
20
9.189886
30
0
11
69.774434
21
9.189768
31
0
39
0
210
0
220
0
230
1
0
LINE
5
81
100
AcDbEntity
8
1
62
256
6
ByLayer
370
-1
48
1
60
0
100
AcDbLine
10
65.801151
20
2.218684
30
0
11
65.652039
21
1.705705
31
0
39
0
210
0
220
0
230
1
0
LINE
5
82
100
AcDbEntity
8
1
62
256
6
ByLayer
370
-1
48
1
60
0
100
AcDbLine
10
75.194807
20
-4.642064
30
0
11
74.961165
21
-0.192231
31
0
39
0
210
0
220
0
230
1
0
LINE
5
83
100
AcDbEntity
8
1
62
256
6
ByLayer
370
-1
48
1
60
0
100
AcDbLine
10
68.39952
20
1.165499
30
0
11
68.696584
21
2.18746
31
0
39
0
210
0
220
0
230
1
0
LINE
5
84
100
AcDbEntity
8
1
62
256
6
ByLayer
370
-1
48
1
60
0
100
AcDbLine
10
74.559798
20
3.352927
30
0
11
74.709297
21
3.352927
31
0
39
0
210
0
220
0
230
1
0
LINE
5
85
100
AcDbEntity
8
1
62
256
6
ByLayer
370
-1
48
1
60
0
100
AcDbLine
10
75.02791
20
0.352898
30
0
11
75.097683
21
3.538619
31
0
39
0
210
0
220
0
230
1
0
LINE
5
86
100
AcDbEntity
8
1
62
256
6
ByLayer
370
-1
48
1
60
0
100
AcDbLine
10
0
20
15.8
30
0
11
0
21
-15.8
31
0
39
0
210
0
220
0
230
1
0
LINE
5
87
100
AcDbEntity
8
1
62
256
6
ByLayer
370
-1
48
1
60
0
100
AcDbLine
10
74.957091
20
-0.097225
30
0
11
74.156079
21
0.259684
31
0
39
0
210
0
220
0
230
1
0
LINE
5
88
100
AcDbEntity
8
1
62
256
6
ByLayer
370
-1
48
1
60
0
100
AcDbLine
10
74.848187
20
-4.48762
30
0
11
74.563388
21
-4.360722
31
0
39
0
210
0
220
0
230
1
0
LINE
5
89
100
AcDbEntity
8
1
62
256
6
ByLayer
370
-1
48
1
60
0
100
AcDbLine
10
74.98855
20
0.369432
30
0
11
74.997285
21
0.369127
31
0
39
0
210
0
220
0
230
1
0
LINE
5
8A
100
AcDbEntity
8
1
62
256
6
ByLayer
370
-1
48
1
60
0
100
AcDbLine
10
66.729364
20
4.423493
30
0
11
66.656768
21
4.455939
31
0
39
0
210
0
220
0
230
1
0
LINE
5
8B
100
AcDbEntity
8
1
62
256
6
ByLayer
370
-1
48
1
60
0
100
AcDbLine
10
69.632903
20
6.458665
30
0
11
69.744758
21
6.458665
31
0
39
0
210
0
220
0
230
1
0
LINE
5
8C
100
AcDbEntity
8
1
62
256
6
ByLayer
370
-1
48
1
60
0
100
AcDbLine
10
56.734129
20
6.8417
30
0
11
57.145561
21
6.598852
31
0
39
0
210
0
220
0
230
1
0
LINE
5
8D
100
AcDbEntity
8
1
62
256
6
ByLayer
370
-1
48
1
60
0
100
AcDbLine
10
74.754925
20
3.342361
30
0
11
74.559798
21
3.352927
31
0
39
0
210
0
220
0
230
1
0
LINE
5
8E
100
AcDbEntity
8
1
62
256
6
ByLayer
370
-1
48
1
60
0
100
AcDbLine
10
69.545259
20
6.412759
30
0
11
69.456588
21
9.193567
31
0
39
0
210
0
220
0
230
1
0
LINE
5
8F
100
AcDbEntity
8
1
62
256
6
ByLayer
370
-1
48
1
60
0
100
AcDbLine
10
75.904268
20
-3.059513
30
0
11
75.732404
21
-3.04613
31
0
39
0
210
0
220
0
230
1
0
LINE
5
90
100
AcDbEntity
8
1
62
256
6
ByLayer
370
-1
48
1
60
0
100
AcDbLine
10
75.175362
20
-2.185971
30
0
11
75.075499
21
-2.191195
31
0
39
0
210
0
220
0
230
1
0
LINE
5
91
100
AcDbEntity
8
1
62
256
6
ByLayer
370
-1
48
1
60
0
100
AcDbLine
10
75.309935
20
0.105902
30
0
11
75.260631
21
0.072743
31
0
39
0
210
0
220
0
230
1
0
LINE
5
92
100
AcDbEntity
8
1
62
256
6
ByLayer
370
-1
48
1
60
0
100
AcDbLine
10
75.632621
20
-5.069991
30
0
11
75.56476
21
-4.986204
31
0
39
0
210
0
220
0
230
1
0
LINE
5
93
100
AcDbEntity
8
1
62
256
6
ByLayer
370
-1
48
1
60
0
100
AcDbLine
10
75.999695
20
-3.521159
30
0
11
75.80976
21
-3.420045
31
0
39
0
210
0
220
0
230
1
0
LINE
5
94
100
AcDbEntity
8
1
62
256
6
ByLayer
370
-1
48
1
60
0
100
AcDbLine
10
75.638765
20
-0.859625
30
0
11
75.455213
21
-0.804791
31
0
39
0
210
0
220
0
230
1
0
LINE
5
95
100
AcDbEntity
8
1
62
256
6
ByLayer
370
-1
48
1
60
0
100
AcDbLine
10
75.714937
20
-2.310367
30
0
11
75.524882
21
-2.225684
31
0
39
0
210
0
220
0
230
1
0
LINE
5
96
100
AcDbEntity
8
1
62
256
6
ByLayer
370
-1
48
1
60
0
100
AcDbLine
10
75.066146
20
-2.191671
30
0
11
75.075499
21
-2.191195
31
0
39
0
210
0
220
0
230
1
0
LINE
5
97
100
AcDbEntity
8
1
62
256
6
ByLayer
370
-1
48
1
60
0
100
AcDbLine
10
75.329983
20
-0.290345
30
0
11
74.978662
21
-0.525467
31
0
39
0
210
0
220
0
230
1
0
LINE
5
98
100
AcDbEntity
8
1
62
256
6
ByLayer
370
-1
48
1
60
0
100
AcDbLine
10
75.329983
20
-0.290345
30
0
11
75.260631
21
0.072743
31
0
39
0
210
0
220
0
230
1
0
LINE
5
99
100
AcDbEntity
8
1
62
256
6
ByLayer
370
-1
48
1
60
0
100
AcDbLine
10
75.16327
20
0.258872
30
0
11
74.952873
21
0.118063
31
0
39
0
210
0
220
0
230
1
0
LINE
5
9A
100
AcDbEntity
8
1
62
256
6
ByLayer
370
-1
48
1
60
0
100
AcDbLine
10
75.344789
20
-3.774422
30
0
11
75.358667
21
-3.37775
31
0
39
0
210
0
220
0
230
1
0
LINE
5
9B
100
AcDbEntity
8
1
62
256
6
ByLayer
370
-1
48
1
60
0
100
AcDbLine
10
75.075499
20
-2.191195
30
0
11
75.008039
21
-0.906399
31
0
39
0
210
0
220
0
230
1
0
LINE
5
9C
100
AcDbEntity
8
1
62
256
6
ByLayer
370
-1
48
1
60
0
100
AcDbLine
10
75.185567
20
-3.365612
30
0
11
75.171689
21
-3.762284
31
0
39
0
210
0
220
0
230
1
0
LINE
5
9D
100
AcDbEntity
8
1
62
256
6
ByLayer
370
-1
48
1
60
0
100
AcDbLine
10
75.457423
20
-0.940888
30
0
11
75.107902
21
-0.901175
31
0
39
0
210
0
220
0
230
1
0
LINE
5
9E
100
AcDbEntity
8
1
62
256
6
ByLayer
370
-1
48
1
60
0
100
AcDbLine
10
75.609296
20
-0.715053
30
0
11
75.431171
21
-0.66184
31
0
39
0
210
0
220
0
230
1
0
LINE
5
9F
100
AcDbEntity
8
1
62
256
6
ByLayer
370
-1
48
1
60
0
100
AcDbLine
10
75.760868
20
-4.898637
30
0
11
75.247692
21
-4.197439
31
0
39
0
210
0
220
0
230
1
0
LINE
5
A0
100
AcDbEntity
8
1
62
256
6
ByLayer
370
-1
48
1
60
0
100
AcDbLine
10
74.998687
20
-0.906875
30
0
11
75.008039
21
-0.906399
31
0
39
0
210
0
220
0
230
1
0
LINE
5
A1
100
AcDbEntity
8
1
62
256
6
ByLayer
370
-1
48
1
60
0
100
AcDbLine
10
75.794515
20
-3.848094
30
0
11
75.808393
21
-3.451421
31
0
39
0
210
0
220
0
230
1
0
LINE
5
A2
100
AcDbEntity
8
1
62
256
6
ByLayer
370
-1
48
1
60
0
100
AcDbLine
10
75.808393
20
-3.451421
30
0
11
75.458606
21
-3.381233
31
0
39
0
210
0
220
0
230
1
0
LINE
5
A3
100
AcDbEntity
8
1
62
256
6
ByLayer
370
-1
48
1
60
0
100
AcDbLine
10
75.17017
20
-5.019519
30
0
11
75.56476
21
-4.986204
31
0
39
0
210
0
220
0
230
1
0
LINE
5
A4
100
AcDbEntity
8
1
62
256
6
ByLayer
370
-1
48
1
60
0
100
AcDbLine
10
75.794515
20
-3.848094
30
0
11
75.444728
21
-3.777906
31
0
39
0
210
0
220
0
230
1
0
LINE
5
A5
100
AcDbEntity
8
1
62
256
6
ByLayer
370
-1
48
1
60
0
100
AcDbLine
10
75.961306
20
-4.618438
30
0
11
75.999695
21
-3.521159
31
0
39
0
210
0
220
0
230
1
0
LINE
5
A6
100
AcDbEntity
8
1
62
256
6
ByLayer
370
-1
48
1
60
0
100
AcDbLine
10
75.444728
20
-3.777906
30
0
11
75.458606
21
-3.381233
31
0
39
0
210
0
220
0
230
1
0
LINE
5
A7
100
AcDbEntity
8
1
62
256
6
ByLayer
370
-1
48
1
60
0
100
AcDbLine
10
75.174867
20
-4.262357
30
0
11
75.247692
21
-4.197439
31
0
39
0
210
0
220
0
230
1
0
LINE
5
A8
100
AcDbEntity
8
1
62
256
6
ByLayer
370
-1
48
1
60
0
100
AcDbLine
10
75.72268
20
-3.025695
30
0
11
75.404767
21
-3.11382
31
0
39
0
210
0
220
0
230
1
0
LINE
5
A9
100
AcDbEntity
8
1
62
256
6
ByLayer
370
-1
48
1
60
0
100
AcDbLine
10
75.609296
20
-0.715053
30
0
11
75.309935
21
0.105902
31
0
39
0
210
0
220
0
230
1
0
LINE
5
AA
100
AcDbEntity
8
1
62
256
6
ByLayer
370
-1
48
1
60
0
100
AcDbLine
10
75.168154
20
-4.134516
30
0
11
75.181081
21
-4.122993
31
0
39
0
210
0
220
0
230
1
0
LINE
5
AB
100
AcDbEntity
8
1
62
256
6
ByLayer
370
-1
48
1
60
0
100
AcDbLine
10
75.714937
20
-2.310367
30
0
11
75.638765
21
-0.859625
31
0
39
0
210
0
220
0
230
1
0
LINE
5
AC
100
AcDbEntity
8
1
62
256
6
ByLayer
370
-1
48
1
60
0
100
AcDbLine
10
75.171963
20
-5.237344
30
0
11
75.632621
21
-5.069991
31
0
39
0
210
0
220
0
230
1
0
LINE
5
AD
100
AcDbEntity
8
1
62
256
6
ByLayer
370
-1
48
1
60
0
100
AcDbLine
10
75.961306
20
-4.618438
30
0
11
75.854374
21
-4.486409
31
0
39
0
210
0
220
0
230
1
0
LINE
5
AE
100
AcDbEntity
8
1
62
256
6
ByLayer
370
-1
48
1
60
0
100
AcDbLine
10
75.524882
20
-2.225684
30
0
11
75.175362
21
-2.185971
31
0
39
0
210
0
220
0
230
1
0
LINE
5
AF
100
AcDbEntity
8
1
62
256
6
ByLayer
370
-1
48
1
60
0
100
AcDbLine
10
75.524882
20
-2.225684
30
0
11
75.457423
21
-0.940888
31
0
39
0
210
0
220
0
230
1
0
LINE
5
B0
100
AcDbEntity
8
1
62
256
6
ByLayer
370
-1
48
1
60
0
100
AcDbLine
10
75.175362
20
-2.185971
30
0
11
75.107902
21
-0.901175
31
0
39
0
210
0
220
0
230
1
0
LINE
5
B1
100
AcDbEntity
8
SK1
62
256
6
ByLayer
370
-1
48
1
60
0
100
AcDbLine
10
-1.382165
20
12.25
30
0
11
-1.382165
21
-12.25
31
0
39
0
210
0
220
0
230
1
0
LINE
5
B2
100
AcDbEntity
8
1
62
256
6
ByLayer
370
-1
48
1
60
0
100
AcDbLine
10
75.093337
20
3.538476
30
0
11
75.090803
21
3.598211
31
0
39
0
210
0
220
0
230
1
0
LINE
5
B3
100
AcDbEntity
8
1
62
256
6
ByLayer
370
-1
48
1
60
0
100
AcDbLine
10
69.672342
20
8.982881
30
0
11
69.729904
21
8.969435
31
0
39
0
210
0
220
0
230
1
0
LINE
5
B4
100
AcDbEntity
8
1
62
256
6
ByLayer
370
-1
48
1
60
0
100
AcDbLine
10
75.798057
20
3.932402
30
0
11
75.739583
21
3.945848
31
0
39
0
210
0
220
0
230
1
0
LINE
5
B5
100
AcDbEntity
8
1
62
256
6
ByLayer
370
-1
48
1
60
0
100
AcDbLine
10
74.975355
20
9.537583
30
0
11
74.976435
21
9.477831
31
0
39
0
210
0
220
0
230
1
0
LINE
5
B6
100
AcDbEntity
8
1
62
256
6
ByLayer
370
-1
48
1
60
0
100
AcDbLine
10
75.643257
20
8.824787
30
0
11
75.583294
21
8.822701
31
0
39
0
210
0
220
0
230
1
0
LINE
5
B7
100
AcDbEntity
8
1
62
256
6
ByLayer
370
-1
48
1
60
0
100
AcDbLine
10
75.800669
20
4.299894
30
0
11
75.643257
21
8.824787
31
0
39
0
210
0
220
0
230
1
0
LINE
5
B8
100
AcDbEntity
8
1
62
256
6
ByLayer
370
-1
48
1
60
0
100
AcDbLine
10
75.803421
20
4.20893
30
0
11
75.74344
21
4.207387
31
0
39
0
210
0
220
0
230
1
0
LINE
5
B9
100
AcDbEntity
8
1
62
256
6
ByLayer
370
-1
48
1
60
0
100
AcDbLine
10
69.66973
20
8.61539
30
0
11
69.827142
21
4.090497
31
0
39
0
210
0
220
0
230
1
0
LINE
5
BA
100
AcDbEntity
8
1
62
256
6
ByLayer
370
-1
48
1
60
0
100
AcDbLine
10
75.639681
20
8.915722
30
0
11
75.579739
21
8.913092
31
0
39
0
210
0
220
0
230
1
0
LINE
5
BB
100
AcDbEntity
8
1
62
256
6
ByLayer
370
-1
48
1
60
0
100
AcDbLine
10
75.232681
20
3.544461
30
0
11
75.229023
21
3.604146
31
0
39
0
210
0
220
0
230
1
0
LINE
5
BC
100
AcDbEntity
8
1
62
256
6
ByLayer
370
-1
48
1
60
0
100
AcDbLine
10
74.884737
20
9.53482
30
0
11
74.886359
21
9.475085
31
0
39
0
210
0
220
0
230
1
0
LINE
5
BD
100
AcDbEntity
8
1
62
256
6
ByLayer
370
-1
48
1
60
0
100
AcDbLine
10
69.665958
20
8.755343
30
0
11
69.725039
21
8.756299
31
0
39
0
210
0
220
0
230
1
0
LINE
5
BE
100
AcDbEntity
8
1
62
256
6
ByLayer
370
-1
48
1
60
0
100
AcDbLine
10
70.237718
20
9.370822
30
0
11
70.240465
21
9.311137
31
0
39
0
210
0
220
0
230
1
0
LINE
5
BF
100
AcDbEntity
8
1
62
256
6
ByLayer
370
-1
48
1
60
0
100
AcDbLine
10
69.855284
20
3.724084
30
0
11
69.911771
21
3.741559
31
0
39
0
210
0
220
0
230
1
0
LINE
5
C0
100
AcDbEntity
8
1
62
256
6
ByLayer
370
-1
48
1
60
0
100
AcDbLine
10
69.827142
20
4.090497
30
0
11
69.886194
21
4.092583
31
0
39
0
210
0
220
0
230
1
0
LINE
5
C1
100
AcDbEntity
8
1
62
256
6
ByLayer
370
-1
48
1
60
0
100
AcDbLine
10
69.833104
20
3.95062
30
0
11
69.892107
21
3.953835
31
0
39
0
210
0
220
0
230
1
0
LINE
5
C2
100
AcDbEntity
8
1
62
256
6
ByLayer
370
-1
48
1
60
0
100
AcDbLine
10
70.012044
20
9.348558
30
0
11
70.028997
21
9.291398
31
0
39
0
210
0
220
0
230
1
0
LINE
5
C3
100
AcDbEntity
8
1
62
256
6
ByLayer
370
-1
48
1
60
0
100
AcDbLine
10
69.66973
20
8.61539
30
0
11
69.728783
21
8.617476
31
0
39
0
210
0
220
0
230
1
0
LINE
5
C4
100
AcDbEntity
8
1
62
256
6
ByLayer
370
-1
48
1
60
0
100
AcDbLine
10
75.391825
20
3.554348
30
0
11
75.387216
21
3.613974
31
0
39
0
210
0
220
0
230
1
0
LINE
5
C5
100
AcDbEntity
8
1
62
256
6
ByLayer
370
-1
48
1
60
0
100
AcDbLine
10
69.830718
20
3.999562
30
0
11
69.889749
21
4.002191
31
0
39
0
210
0
220
0
230
1
0
LINE
5
C6
100
AcDbEntity
8
1
62
256
6
ByLayer
370
-1
48
1
60
0
100
AcDbLine
10
69.842954
20
3.790868
30
0
11
69.901897
21
3.795038
31
0
39
0
210
0
220
0
230
1
0
LINE
5
C7
100
AcDbEntity
8
1
62
256
6
ByLayer
370
-1
48
1
60
0
100
AcDbLine
10
70.585663
20
3.380463
30
0
11
75.093337
21
3.538476
31
0
39
0
210
0
220
0
230
1
0
LINE
5
C8
100
AcDbEntity
8
1
62
256
6
ByLayer
370
-1
48
1
60
0
100
AcDbLine
10
75.458356
20
3.566726
30
0
11
75.440491
21
3.623886
31
0
39
0
210
0
220
0
230
1
0
LINE
5
C9
100
AcDbEntity
8
1
62
256
6
ByLayer
370
-1
48
1
60
0
100
AcDbLine
10
70.377062
20
9.376808
30
0
11
70.378685
21
9.317072
31
0
39
0
210
0
220
0
230
1
0
LINE
5
CA
100
AcDbEntity
8
1
62
256
6
ByLayer
370
-1
48
1
60
0
100
AcDbLine
10
75.804441
20
4.159941
30
0
11
75.744449
21
4.158984
31
0
39
0
210
0
220
0
230
1
0
LINE
5
CB
100
AcDbEntity
8
1
62
256
6
ByLayer
370
-1
48
1
60
0
100
AcDbLine
10
75.627446
20
9.124415
30
0
11
75.567591
21
9.120246
31
0
39
0
210
0
220
0
230
1
0
LINE
5
CC
100
AcDbEntity
8
1
62
256
6
ByLayer
370
-1
48
1
60
0
100
AcDbLine
10
70.286798
20
3.375395
30
0
11
70.286342
21
3.435167
31
0
39
0
210
0
220
0
230
1
0
LINE
5
CD
100
AcDbEntity
8
1
62
256
6
ByLayer
370
-1
48
1
60
0
100
AcDbLine
10
69.666979
20
8.706354
30
0
11
69.726047
21
8.707896
31
0
39
0
210
0
220
0
230
1
0
LINE
5
CE
100
AcDbEntity
8
1
62
256
6
ByLayer
370
-1
48
1
60
0
100
AcDbLine
10
70.078574
20
9.360935
30
0
11
70.082272
21
9.301309
31
0
39
0
210
0
220
0
230
1
0
LINE
5
CF
100
AcDbEntity
8
1
62
256
6
ByLayer
370
-1
48
1
60
0
100
AcDbLine
10
75.024157
20
9.538607
30
0
11
75.024655
21
9.478843
31
0
39
0
210
0
220
0
230
1
0
LINE
5
D0
100
AcDbEntity
8
1
62
256
6
ByLayer
370
-1
48
1
60
0
100
AcDbLine
10
75.637295
20
8.964663
30
0
11
75.577381
21
8.961448
31
0
39
0
210
0
220
0
230
1
0
LINE
5
D1
100
AcDbEntity
8
1
62
256
6
ByLayer
370
-1
48
1
60
0
100
AcDbLine
10
75.183926
20
3.542065
30
0
11
75.180851
21
3.601779
31
0
39
0
210
0
220
0
230
1
0
LINE
5
D2
100
AcDbEntity
8
1
62
256
6
ByLayer
370
-1
48
1
60
0
100
AcDbLine
10
75.800669
20
4.299894
30
0
11
75.740705
21
4.297808
31
0
39
0
210
0
220
0
230
1
0
LINE
5
D3
100
AcDbEntity
8
1
62
256
6
ByLayer
370
-1
48
1
60
0
100
AcDbLine
10
75.183601
20
9.539888
30
0
11
75.183145
21
9.480116
31
0
39
0
210
0
220
0
230
1
0
LINE
5
D4
100
AcDbEntity
8
1
62
256
6
ByLayer
370
-1
48
1
60
0
100
AcDbLine
10
74.884737
20
9.53482
30
0
11
70.377062
21
9.376808
31
0
39
0
210
0
220
0
230
1
0
LINE
5
D5
100
AcDbEntity
8
1
62
256
6
ByLayer
370
-1
48
1
60
0
100
AcDbLine
10
75.805717
20
3.999888
30
0
11
75.745717
21
3.999888
31
0
39
0
210
0
220
0
230
1
0
LINE
5
D6
100
AcDbEntity
8
1
62
256
6
ByLayer
370
-1
48
1
60
0
100
AcDbLine
10
75.25083
20
9.532199
30
0
11
75.236979
21
9.473959
31
0
39
0
210
0
220
0
230
1
0
LINE
5
D7
100
AcDbEntity
8
1
62
256
6
ByLayer
370
-1
48
1
60
0
100
AcDbLine
10
70.495045
20
3.377701
30
0
11
70.493052
21
3.437452
31
0
39
0
210
0
220
0
230
1
0
LINE
5
D8
100
AcDbEntity
8
1
62
256
6
ByLayer
370
-1
48
1
60
0
100
AcDbLine
10
75.615115
20
9.1912
30
0
11
75.557717
21
9.173724
31
0
39
0
210
0
220
0
230
1
0
LINE
5
D9
100
AcDbEntity
8
1
62
256
6
ByLayer
370
-1
48
1
60
0
100
AcDbLine
10
69.664682
20
8.915395
30
0
11
69.723771
21
8.915395
31
0
39
0
210
0
220
0
230
1
0
LINE
5
DA
100
AcDbEntity
8
1
62
256
6
ByLayer
370
-1
48
1
60
0
100
AcDbLine
10
70.286473
20
9.373218
30
0
11
70.288637
21
9.313504
31
0
39
0
210
0
220
0
230
1
0
LINE
5
DB
100
AcDbEntity
8
1
62
256
6
ByLayer
370
-1
48
1
60
0
100
AcDbLine
10
70.446242
20
3.376676
30
0
11
70.444833
21
3.43644
31
0
39
0
210
0
220
0
230
1
0
LINE
5
DC
100
AcDbEntity
8
1
62
256
6
ByLayer
370
-1
48
1
60
0
100
AcDbLine
10
70.585663
20
3.380463
30
0
11
70.583129
21
3.440198
31
0
39
0
210
0
220
0
230
1
0
LINE
5
DD
100
AcDbEntity
8
1
62
256
6
ByLayer
370
-1
48
1
60
0
100
AcDbLine
10
70.21957
20
3.383084
30
0
11
70.232509
21
3.441324
31
0
39
0
210
0
220
0
230
1
0
LINE
5
DE
100
AcDbEntity
8
SK1
62
256
6
ByLayer
370
-1
48
1
60
0
100
AcDbLine
10
-55
20
-6.998498
30
0
11
-55
21
-12.49675
31
0
39
0
210
0
220
0
230
1
0
LINE
5
DF
100
AcDbEntity
8
SK1
62
256
6
ByLayer
370
-1
48
1
60
0
100
AcDbLine
10
-55
20
12.49675
30
0
11
-55
21
6.998498
31
0
39
0
210
0
220
0
230
1
0
LINE
5
E0
100
AcDbEntity
8
SK1
62
256
6
ByLayer
370
-1
48
1
60
0
100
AcDbLine
10
-6.5
20
6.998498
30
0
11
-6.5
21
-6.998498
31
0
39
0
210
0
220
0
230
1
0
LINE
5
E1
100
AcDbEntity
8
SK1
62
256
6
ByLayer
370
-1
48
1
60
0
100
AcDbLine
10
-52.6
20
6.998498
30
0
11
-6.5
21
6.998498
31
0
39
0
210
0
220
0
230
1
0
LINE
5
E2
100
AcDbEntity
8
SK1
62
256
6
ByLayer
370
-1
48
1
60
0
100
AcDbLine
10
-54.6
20
-12.49675
30
0
11
-54.6
21
-6.998498
31
0
39
0
210
0
220
0
230
1
0
LINE
5
E3
100
AcDbEntity
8
SK1
62
256
6
ByLayer
370
-1
48
1
60
0
100
AcDbLine
10
-54.6
20
6.998498
30
0
11
-54.6
21
12.49675
31
0
39
0
210
0
220
0
230
1
0
LINE
5
E4
100
AcDbEntity
8
SK1
62
256
6
ByLayer
370
-1
48
1
60
0
100
AcDbLine
10
-1.551212
20
12.287477
30
0
11
-1.551212
21
-12.287477
31
0
39
0
210
0
220
0
230
1
0
LINE
5
E5
100
AcDbEntity
8
SK1
62
256
6
ByLayer
370
-1
48
1
60
0
100
AcDbLine
10
-56
20
-4.998547
30
0
11
-56
21
-11.49675
31
0
39
0
210
0
220
0
230
1
0
LINE
5
E6
100
AcDbEntity
8
SK1
62
256
6
ByLayer
370
-1
48
1
60
0
100
AcDbLine
10
-56
20
11.49675
30
0
11
-56
21
4.998547
31
0
39
0
210
0
220
0
230
1
0
LINE
5
E7
100
AcDbEntity
8
SK1
62
256
6
ByLayer
370
-1
48
1
60
0
100
AcDbLine
10
-54.6
20
-6.998498
30
0
11
-55
21
-6.998498
31
0
39
0
210
0
220
0
230
1
0
LINE
5
E8
100
AcDbEntity
8
SK1
62
256
6
ByLayer
370
-1
48
1
60
0
100
AcDbLine
10
-53.633814
20
-6.340342
30
0
11
-53.633814
21
-12.140417
31
0
39
0
210
0
220
0
230
1
0
LINE
5
E9
100
AcDbEntity
8
SK1
62
256
6
ByLayer
370
-1
48
1
60
0
100
AcDbLine
10
-53.633814
20
12.140417
30
0
11
-53.633814
21
6.340342
31
0
39
0
210
0
220
0
230
1
0
LINE
5
EA
100
AcDbEntity
8
SK1
62
256
6
ByLayer
370
-1
48
1
60
0
100
AcDbLine
10
-55
20
6.998498
30
0
11
-54.6
21
6.998498
31
0
39
0
210
0
220
0
230
1
0
LINE
5
EB
100
AcDbEntity
8
SK1
62
256
6
ByLayer
370
-1
48
1
60
0
100
AcDbLine
10
-2
20
-12.49675
30
0
11
-2
21
12.49675
31
0
39
0
210
0
220
0
230
1
0
LINE
5
EC
100
AcDbEntity
8
SK1
62
256
6
ByLayer
370
-1
48
1
60
0
100
AcDbLine
10
-54.516223
20
-6.812044
30
0
11
-54.516223
21
-12.393294
31
0
39
0
210
0
220
0
230
1
0
LINE
5
ED
100
AcDbEntity
8
SK1
62
256
6
ByLayer
370
-1
48
1
60
0
100
AcDbLine
10
-54.516223
20
12.393294
30
0
11
-54.516223
21
6.812044
31
0
39
0
210
0
220
0
230
1
0
LINE
5
EE
100
AcDbEntity
8
SK1
62
256
6
ByLayer
370
-1
48
1
60
0
100
AcDbLine
10
-0.15
20
12.25
30
0
11
-0.15
21
-12.25
31
0
39
0
210
0
220
0
230
1
0
LINE
5
EF
100
AcDbEntity
8
SK1
62
256
6
ByLayer
370
-1
48
1
60
0
100
AcDbLine
10
-56
20
4.998547
30
0
11
-56
21
-4.998547
31
0
39
0
210
0
220
0
230
1
0
LINE
5
F0
100
AcDbEntity
8
SK1
62
256
6
ByLayer
370
-1
48
1
60
0
100
AcDbLine
10
-52.6
20
6.998498
30
0
11
-52.6
21
12.49675
31
0
39
0
210
0
220
0
230
1
0
LINE
5
F1
100
AcDbEntity
8
SK1
62
256
6
ByLayer
370
-1
48
1
60
0
100
AcDbLine
10
-52.6
20
-12.49675
30
0
11
-52.6
21
-6.998498
31
0
39
0
210
0
220
0
230
1
0
LINE
5
F2
100
AcDbEntity
8
SK1
62
256
6
ByLayer
370
-1
48
1
60
0
100
AcDbLine
10
-6.5
20
-6.998498
30
0
11
-52.6
21
-6.998498
31
0
39
0
210
0
220
0
230
1
0
MTEXT
5
20E
100
AcDbEntity
8
SK6
62
256
6
ByLayer
370
-1
48
1
60
0
100
AcDbMText
10
0.79375
20
-80.79375
30
0
210
0
220
0
230
1
1
\W00.723;\fsimplex.shx,bigfont.shx;880-D1900L25-03 
40
3.175
41
0
44
1.084337
50
0
71
7
72
5
7
DEFAULT
0
DIMENSION
5
23E
100
AcDbEntity
8
SK2
62
256
6
ByLayer
370
-3
48
1
60
0
100
AcDbDimension
2
DimnDraft3D1
10
76
20
-54.86955
30
0
11
10
21
-54.86955
31
0
70
32
71
5
72
1
41
1
210
0
220
0
230
1
3
Standard
100
AcDbAlignedDimension
13
-56
23
-14.0875
33
0
14
76
24
-11.0875
34
0
50
0
100
AcDbRotatedDimension
1001
ACAD
1000
DSTYLE
1002
{
1070
   279
1070
     0
1070
   172
1070
     1
1070
   173
1070
     1
1070
   340
1005
20F
1070
   271
1070
     1
1070
   272
1070
     2
1070
    77
1070
     1
1070
    73
1070
     0
1070
   171
1070
     3
1070
   274
1070
     4
1070
   177
1070
   150
1070
   176
1070
     9
1070
   178
1070
    43
1070
    78
1070
     8
1070
    48
1040
-0.005
1070
    41
1041
4.175
1070
   147
1041
2.25
1070
    42
1041
1.5875
1070
    44
1041
3.175
1070
   140
1041
4.5
1070
   343
1005
0
1070
   344
1005
0
1002
}
0
DIMENSION
5
248
100
AcDbEntity
8
SK2
62
256
6
ByLayer
370
-3
48
1
60
0
100
AcDbDimension
2
DimnDraft3D2
10
0
20
-42.9008
30
0
11
-28
21
-42.9008
31
0
70
32
71
5
72
1
41
1
210
0
220
0
230
1
3
Standard
100
AcDbAlignedDimension
13
-56
23
-14.0875
33
0
14
0
24
-17.5875
34
0
50
0
100
AcDbRotatedDimension
1001
ACAD
1000
DSTYLE
1002
{
1070
   279
1070
     0
1070
   172
1070
     1
1070
   173
1070
     1
1070
   340
1005
20F
1070
   271
1070
     1
1070
   272
1070
     2
1070
    77
1070
     1
1070
    73
1070
     0
1070
   171
1070
     3
1070
   274
1070
     4
1070
   177
1070
   150
1070
   176
1070
     9
1070
   178
1070
    43
1070
    78
1070
     8
1070
    48
1040
-0.005
1070
    41
1041
4.175
1070
   147
1041
2.25
1070
    42
1041
1.5875
1070
    44
1041
3.175
1070
   140
1041
4.5
1070
   343
1005
0
1070
   344
1005
0
1002
}
0
DIMENSION
5
253
100
AcDbEntity
8
2
62
256
6
ByLayer
370
-3
48
1
60
0
100
AcDbDimension
2
DimnDraft3D3
10
76
20
-42.9008
30
0
11
38
21
-42.9008
31
0
70
32
71
5
72
1
41
1
210
0
220
0
230
1
3
Standard
100
AcDbAlignedDimension
13
0
23
-17.5875
33
0
14
76
24
-11.0875
34
0
50
0
100
AcDbRotatedDimension
1001
ACAD
1000
DSTYLE
1002
{
1070
   279
1070
     0
1070
   172
1070
     1
1070
   173
1070
     1
1070
   340
1005
20F
1070
   271
1070
     1
1070
   272
1070
     2
1070
    77
1070
     1
1070
    73
1070
     0
1070
   171
1070
     3
1070
   274
1070
     4
1070
   177
1070
   150
1070
   176
1070
     9
1070
   178
1070
    43
1070
    78
1070
     8
1070
    48
1040
-0.005
1070
    41
1041
4.175
1070
   147
1041
2.25
1070
    42
1041
1.5875
1070
    44
1041
3.175
1070
   140
1041
4.5
1070
   343
1005
0
1070
   344
1005
0
1002
}
0
DIMENSION
5
25D
100
AcDbEntity
8
SK2
62
256
6
ByLayer
370
-3
48
1
60
0
100
AcDbDimension
2
DimnDraft3D4
10
76
20
-32.9008
30
0
11
46
21
-32.9008
31
0
70
32
71
5
72
1
41
1
210
0
220
0
230
1
3
Standard
100
AcDbAlignedDimension
13
16
23
-11.5875
33
0
14
76
24
-11.0875
34
0
50
0
100
AcDbRotatedDimension
1001
ACAD
1000
DSTYLE
1002
{
1070
   279
1070
     0
1070
   172
1070
     1
1070
   173
1070
     1
1070
   340
1005
20F
1070
   271
1070
     1
1070
   272
1070
     2
1070
    77
1070
     1
1070
    73
1070
     0
1070
   171
1070
     3
1070
   274
1070
     4
1070
   177
1070
   150
1070
   176
1070
     9
1070
   178
1070
    43
1070
    78
1070
     8
1070
    48
1040
-0.005
1070
    41
1041
4.175
1070
   147
1041
2.25
1070
    42
1041
1.5875
1070
    44
1041
3.175
1070
   140
1041
4.5
1070
   343
1005
0
1070
   344
1005
0
1002
}
0
DIMENSION
5
268
100
AcDbEntity
8
SK2
62
256
6
ByLayer
370
-3
48
1
60
0
100
AcDbDimension
2
DimnDraft3D5
10
-67.9
20
-12.5
30
0
11
-68.1
21
4.121053
31
0
70
33
71
5
72
1
41
1
210
0
220
0
230
1
3
Standard
100
AcDbAlignedDimension
13
-57.5875
23
12.5
33
0
14
-57.5875
24
-12.5
34
0
1001
ACAD
1000
DSTYLE
1002
{
1070
   279
1070
     0
1070
    74
1070
     0
1070
   173
1070
     1
1070
   340
1005
20F
1070
   271
1070
     2
1070
   272
1070
     2
1070
    77
1070
     1
1070
    73
1070
     0
1070
   171
1070
     3
1070
   274
1070
     4
1070
   177
1070
   150
1070
   176
1070
     9
1070
   178
1070
    43
1070
    78
1070
     8
1070
    48
1040
-0.005
1070
    41
1041
4.175
1070
   147
1041
2.25
1070
    42
1041
1.5875
1070
    44
1041
3.175
1070
   140
1041
4.5
1070
   343
1005
0
1070
   344
1005
0
1002
}
0
DIMENSION
5
273
100
AcDbEntity
8
SK2
62
256
6
ByLayer
370
-3
48
1
60
0
100
AcDbDimension
2
DimnDraft3D6
10
-77.9
20
16
30
0
11
-78.1
21
4.121053
31
0
70
33
71
5
72
1
41
1
210
0
220
0
230
1
3
Standard
100
AcDbAlignedDimension
13
-1.5875
23
-16
33
0
14
-1.5875
24
16
34
0
1001
ACAD
1000
DSTYLE
1002
{
1070
   279
1070
     0
1070
    74
1070
     0
1070
   173
1070
     1
1070
   340
1005
20F
1070
   271
1070
     1
1070
   272
1070
     2
1070
    77
1070
     1
1070
    73
1070
     0
1070
   171
1070
     3
1070
   274
1070
     4
1070
   177
1070
   150
1070
   176
1070
     9
1070
   178
1070
    43
1070
    78
1070
     8
1070
    48
1040
-0.005
1070
    41
1041
4.175
1070
   147
1041
2.25
1070
    42
1041
1.5875
1070
    44
1041
3.175
1070
   140
1041
4.5
1070
   343
1005
0
1070
   344
1005
0
1002
}
0
DIMENSION
5
27E
100
AcDbEntity
8
2
62
256
6
ByLayer
370
-3
48
1
60
0
100
AcDbDimension
2
DimnDraft3D7
10
106.15
20
-9.5
30
0
11
99.6
21
-25.745395
31
0
70
33
71
5
72
1
41
1
210
0
220
0
230
1
3
Standard
100
AcDbAlignedDimension
13
77.5875
23
9.5
33
0
14
77.5875
24
-9.5
34
0
1001
ACAD
1000
DSTYLE
1002
{
1070
   279
1070
     0
1070
    74
1070
     0
1070
   173
1070
     1
1070
   340
1005
20F
1070
   271
1070
     2
1070
   272
1070
     2
1070
    77
1070
     1
1070
    73
1070
     0
1070
   171
1070
     3
1070
   274
1070
     4
1070
   177
1070
   150
1070
   176
1070
     9
1070
   178
1070
    43
1070
    78
1070
     8
1070
    48
1040
-0.005
1070
    41
1041
4.175
1070
   147
1041
2.25
1070
    42
1041
1.5875
1070
    44
1041
3.175
1070
   140
1041
4.5
1070
   343
1005
0
1070
   344
1005
0
1002
}
0
ENDSEC
0
SECTION
2
OBJECTS
0
DICTIONARY
5
2af
330
0
100
AcDbDictionary
280
0
281
1
3
ACAD_GROUP
350
2b0
3
ACAD_MLINESTYLE
350
2b1
0
DICTIONARY
5
2b0
330
0
100
AcDbDictionary
280
0
281
1
0
DICTIONARY
5
2b1
330
0
100
AcDbDictionary
280
0
281
1
3
Standard
350
18
0
MLINESTYLE
5
18
330
2b1
100
AcDbMlineStyle
2
Standard
70
0
3

62
256
51
90
52
90
71
2
49
-0.5
62
256
6
ByLayer
49
0.5
62
256
6
ByLayer
0
RASTERVARIABLES
5
29d
330

100
AcDbRasterVariables
90
0
70
1
71
1
72
1
0
ENDSEC
0
EOF
