0
SECTION
2
HEADER
9
$ACADVER
1
AC1015
9
$DWGCODEPAGE
3
ANSI_1252
9
$HANDSEED
5
2ca
9
$ANGBASE
50
0
9
$ANGDIR
70
0
9
$ATTMODE
70
1
9
$AUNITS
70
0
9
$AUPREC
70
0
9
$CECOLOR
62
256
9
$CELTSCALE
40
1
9
$CELTYPE
6
ByLayer
9
$CELWEIGHT
370
-1
9
$CLAYER
8
0
9
$CMLJUST
70
0
9
$CMLSCALE
40
1
9
$CMLSTYLE
2
Standard
9
$DIMSTYLE
2
Standard
9
$TEXTSIZE
40
0.2
9
$TEXTSTYLE
7
Standard
9
$LUNITS
70
2
9
$LUPREC
70
4
9
$EXTNAMES
290
1
9
$INSUNITS
70
4
9
$LTSCALE
40
1
9
$LWDISPLAY
290
0
9
$PDMODE
70
0
9
$PDSIZE
40
0
9
$PLINEGEN
70
0
0
ENDSEC
0
SECTION
2
CLASSES
0
CLASS
1
RASTERVARIABLES
2
AcDbRasterVariables
3
ISM
90
0
280
0
281
0
0
ENDSEC
0
SECTION
2
TABLES
0
TABLE
2
VPORT
5
2c0
100
AcDbSymbolTable
0
VPORT
5
1
100
AcDbSymbolTableRecord
100
AcDbViewportTableRecord
2
*Active
70
0
10
0
20
0
11
1
21
1
12
-1
22
1
13
0
23
0
14
0.5
24
0.5
15
10
25
10
16
0
26
0
36
1
17
0
27
0
37
0
0
ENDTAB
0
TABLE
2
LTYPE
5
2c1
100
AcDbSymbolTable
0
LTYPE
5
14
100
AcDbSymbolTableRecord
100
AcDbLinetypeTableRecord
70
0
2
ByBlock
3

72
65
73
0
40
0
0
LTYPE
5
15
100
AcDbSymbolTableRecord
100
AcDbLinetypeTableRecord
70
0
2
ByLayer
3

72
65
73
0
40
0
0
LTYPE
5
16
100
AcDbSymbolTableRecord
100
AcDbLinetypeTableRecord
70
0
2
CONTINUOUS
3
Solid line
72
65
73
0
40
0
0
LTYPE
5
3B
100
AcDbSymbolTableRecord
100
AcDbLinetypeTableRecord
70
0
2
DASHED
3
__ __ __ __ __ __ __ __ __
72
65
73
2
40
25.72
49
12.86
74
0
49
-12.86
74
0
0
LTYPE
5
3C
100
AcDbSymbolTableRecord
100
AcDbLinetypeTableRecord
70
0
2
HIDDEN
3
_ _ _ _ _ _ _ _ _ _ _ _ _ _ _
72
65
73
2
40
0.5
49
0.25
74
0
49
-0.25
74
0
0
LTYPE
5
3D
100
AcDbSymbolTableRecord
100
AcDbLinetypeTableRecord
70
0
2
PHANTOM
3
____ _ _ ____ _ _ _____ _ _ ____
72
65
73
6
40
50.5
49
18
74
0
49
-6.5
74
0
49
6.5
74
0
49
-6.5
74
0
49
6.5
74
0
49
-6.5
74
0
0
LTYPE
5
3E
100
AcDbSymbolTableRecord
100
AcDbLinetypeTableRecord
70
0
2
CENTER
3
____ _ ____ _ ____ _ ____
72
65
73
4
40
47.5
49
22
74
0
49
-8.5
74
0
49
8.5
74
0
49
-8.5
74
0
0
LTYPE
5
3F
100
AcDbSymbolTableRecord
100
AcDbLinetypeTableRecord
70
0
2
DOT
3
.........................
72
65
73
2
40
10
49
0
74
0
49
-10
74
0
0
LTYPE
5
40
100
AcDbSymbolTableRecord
100
AcDbLinetypeTableRecord
70
0
2
DASHDOT
3
_._._._._._._._._._._._._._._._.
72
65
73
4
40
70
49
31
74
0
49
-13
74
0
49
13
74
0
49
-13
74
0
0
ENDTAB
0
TABLE
2
LAYER
5
2c2
100
AcDbSymbolTable
0
LAYER
5
10
100
AcDbSymbolTableRecord
100
AcDbLayerTableRecord
2
0
70
0
62
7
6
CONTINUOUS
290
1
370
-3
390
0
0
LAYER
5
42
100
AcDbSymbolTableRecord
100
AcDbLayerTableRecord
2
81
70
0
62
-3
6
CONTINUOUS
290
1
370
-3
390
0
0
LAYER
5
44
100
AcDbSymbolTableRecord
100
AcDbLayerTableRecord
2
80
70
0
62
-6
6
CONTINUOUS
290
1
370
-3
390
0
0
LAYER
5
48
100
AcDbSymbolTableRecord
100
AcDbLayerTableRecord
2
1
70
0
62
4
6
CONTINUOUS
290
1
370
-3
390
0
0
LAYER
5
63
100
AcDbSymbolTableRecord
100
AcDbLayerTableRecord
2
4
70
0
62
-2
6
CENTER
290
1
370
-3
390
0
0
LAYER
5
259
100
AcDbSymbolTableRecord
100
AcDbLayerTableRecord
2
2
70
0
62
7
6
CONTINUOUS
290
1
370
-3
390
0
0
LAYER
5
2ac
100
AcDbSymbolTableRecord
100
AcDbLayerTableRecord
2
SK1
70
0
62
4
6
CONTINUOUS
290
1
370
-3
390
0
0
LAYER
5
2ad
100
AcDbSymbolTableRecord
100
AcDbLayerTableRecord
2
SK4
70
0
62
2
6
CENTER
290
1
370
-3
390
0
0
LAYER
5
2ae
100
AcDbSymbolTableRecord
100
AcDbLayerTableRecord
2
SK6
70
0
62
5
6
CONTINUOUS
290
1
370
-3
390
0
0
LAYER
5
2af
100
AcDbSymbolTableRecord
100
AcDbLayerTableRecord
2
SK2
70
0
62
7
6
CONTINUOUS
290
1
370
-3
390
0
0
ENDTAB
0
TABLE
2
STYLE
5
2c3
100
AcDbSymbolTable
0
STYLE
5
11
100
AcDbSymbolTableRecord
100
AcDbTextStyleTableRecord
2
Standard
3
txt
70
0
71
0
40
0
41
1
42
0
50
0
0
STYLE
5
21D
100
AcDbSymbolTableRecord
100
AcDbTextStyleTableRecord
2
DEFAULT
3
simplex.shx
70
0
71
0
40
0
41
1
42
0
50
0
0
STYLE
5
240
100
AcDbSymbolTableRecord
100
AcDbTextStyleTableRecord
2
DWGDirectTextStyle
3
SIMPLEX
70
0
71
0
40
0
41
1
42
0
50
0
0
ENDTAB
0
TABLE
2
DIMSTYLE
5
2c4
100
AcDbSymbolTable
100
AcDbDimStyleTable
0
DIMSTYLE
105
27
100
AcDbSymbolTableRecord
100
AcDbDimStyleTableRecord
2
Standard
70
0
3
<>
41
0.18
42
0.0625
44
0.18
140
0.18
147
0.09
73
0
74
0
77
1
271
2
275
0
278
52
280
0
340
11
0
ENDTAB
0
TABLE
2
VIEW
5
2c5
100
AcDbSymbolTable
0
ENDTAB
0
TABLE
2
UCS
5
2c6
100
AcDbSymbolTable
0
ENDTAB
0
TABLE
2
APPID
5
2c7
100
AcDbSymbolTable
0
APPID
5
12
100
AcDbSymbolTableRecord
100
AcDbRegAppTableRecord
2
ACAD
70
0
0
ENDTAB
0
TABLE
2
BLOCK_RECORD
5
2c8
100
AcDbSymbolTable
0
BLOCK_RECORD
5
1F
100
AcDbSymbolTableRecord
100
AcDbBlockTableRecord
2
*Model_Space
340
0
70
0
0
BLOCK_RECORD
5
1B
100
AcDbSymbolTableRecord
100
AcDbBlockTableRecord
2
*Paper_Space
340
0
70
0
0
BLOCK_RECORD
5
23
100
AcDbSymbolTableRecord
100
AcDbBlockTableRecord
2
*Paper_Space0
340
0
70
0
0
BLOCK_RECORD
5
242
100
AcDbSymbolTableRecord
100
AcDbBlockTableRecord
2
DimnDraft3D1
340
0
70
0
0
BLOCK_RECORD
5
24D
100
AcDbSymbolTableRecord
100
AcDbBlockTableRecord
2
DimnDraft3D2
340
0
70
0
0
BLOCK_RECORD
5
257
100
AcDbSymbolTableRecord
100
AcDbBlockTableRecord
2
DimnDraft3D3
340
0
70
0
0
BLOCK_RECORD
5
262
100
AcDbSymbolTableRecord
100
AcDbBlockTableRecord
2
DimnDraft3D4
340
0
70
0
0
BLOCK_RECORD
5
26C
100
AcDbSymbolTableRecord
100
AcDbBlockTableRecord
2
DimnDraft3D5
340
0
70
0
0
BLOCK_RECORD
5
277
100
AcDbSymbolTableRecord
100
AcDbBlockTableRecord
2
DimnDraft3D6
340
0
70
0
0
BLOCK_RECORD
5
282
100
AcDbSymbolTableRecord
100
AcDbBlockTableRecord
2
DimnDraft3D7
340
0
70
0
0
ENDTAB
0
ENDSEC
0
SECTION
2
BLOCKS
0
BLOCK
5
20
100
AcDbEntity
8
0
100
AcDbBlockBegin
2
*Model_Space
70
0
10
0
20
0
30
0
3
*Model_Space
0
ENDBLK
5
21
100
AcDbEntity
8
0
100
AcDbBlockEnd
0
BLOCK
5
1C
100
AcDbEntity
8
0
100
AcDbBlockBegin
2
*Paper_Space
70
0
10
0
20
0
30
0
3
*Paper_Space
0
ENDBLK
5
1D
100
AcDbEntity
8
0
100
AcDbBlockEnd
0
BLOCK
5
24
100
AcDbEntity
8
0
100
AcDbBlockBegin
2
*Paper_Space0
70
0
10
0
20
0
30
0
3
*Paper_Space0
0
ENDBLK
5
25
100
AcDbEntity
8
0
100
AcDbBlockEnd
0
BLOCK
5
24A
100
AcDbEntity
8
0
100
AcDbBlockBegin
2
DimnDraft3D1
70
0
10
0
20
0
30
0
3
DimnDraft3D1
0
MTEXT
5
243
100
AcDbEntity
8
SK2
62
256
6
ByLayer
370
-1
48
1
60
0
100
AcDbMText
10
19.406579
20
-51.7758
30
0
210
0
220
0
230
1
1
\W01.000;\fsimplex.shx,bigfont.shx;(165) 
40
4.5
41
0
44
1.084337
50
0
71
7
72
5
7
DEFAULT
0
LINE
5
245
100
AcDbEntity
8
SK2
62
256
6
ByLayer
370
-1
48
1
60
0
100
AcDbLine
10
-56
20
-14.0875
30
0
11
-56
21
-58.04455
31
0
39
0
210
0
220
0
230
1
0
LINE
5
246
100
AcDbEntity
8
SK2
62
256
6
ByLayer
370
-1
48
1
60
0
100
AcDbLine
10
109
20
-10.5875
30
0
11
109
21
-58.04455
31
0
39
0
210
0
220
0
230
1
0
LINE
5
247
100
AcDbEntity
8
SK2
62
256
6
ByLayer
370
-1
48
1
60
0
100
AcDbLine
10
-56
20
-54.86955
30
0
11
109
21
-54.86955
31
0
39
0
210
0
220
0
230
1
0
SOLID
5
248
100
AcDbEntity
8
SK2
62
256
6
ByLayer
370
-1
48
1
60
0
100
AcDbTrace
10
-56
20
-54.86955
30
0
11
-51.825003
21
-53.943975
31
0
12
-51.824997
22
-55.795125
32
0
13
-56
23
-54.86955
33
0
39
0
210
0
220
0
230
1
0
SOLID
5
249
100
AcDbEntity
8
SK2
62
256
6
ByLayer
370
-1
48
1
60
0
100
AcDbTrace
10
109
20
-54.86955
30
0
11
104.825003
21
-55.795125
31
0
12
104.824997
22
-53.943975
32
0
13
109
23
-54.86955
33
0
39
0
210
0
220
0
230
1
0
ENDBLK
5
24B
100
AcDbEntity
8
0
100
AcDbBlockEnd
0
BLOCK
5
254
100
AcDbEntity
8
0
100
AcDbBlockBegin
2
DimnDraft3D2
70
0
10
0
20
0
30
0
3
DimnDraft3D2
0
MTEXT
5
24E
100
AcDbEntity
8
SK2
62
256
6
ByLayer
370
-1
48
1
60
0
100
AcDbMText
10
-29.503947
20
-41.7758
30
0
210
0
220
0
230
1
1
\W01.000;\fsimplex.shx,bigfont.shx;56 
40
4.5
41
0
44
1.084337
50
0
71
7
72
5
7
DEFAULT
0
LINE
5
24F
100
AcDbEntity
8
SK2
62
256
6
ByLayer
370
-1
48
1
60
0
100
AcDbLine
10
-56
20
-14.0875
30
0
11
-56
21
-46.0758
31
0
39
0
210
0
220
0
230
1
0
LINE
5
250
100
AcDbEntity
8
SK2
62
256
6
ByLayer
370
-1
48
1
60
0
100
AcDbLine
10
0
20
-17.5875
30
0
11
0
21
-46.0758
31
0
39
0
210
0
220
0
230
1
0
LINE
5
251
100
AcDbEntity
8
SK2
62
256
6
ByLayer
370
-1
48
1
60
0
100
AcDbLine
10
-56
20
-42.9008
30
0
11
0
21
-42.9008
31
0
39
0
210
0
220
0
230
1
0
SOLID
5
252
100
AcDbEntity
8
SK2
62
256
6
ByLayer
370
-1
48
1
60
0
100
AcDbTrace
10
-56
20
-42.9008
30
0
11
-51.825003
21
-41.975225
31
0
12
-51.824997
22
-43.826375
32
0
13
-56
23
-42.9008
33
0
39
0
210
0
220
0
230
1
0
SOLID
5
253
100
AcDbEntity
8
SK2
62
256
6
ByLayer
370
-1
48
1
60
0
100
AcDbTrace
10
0
20
-42.9008
30
0
11
-4.174997
21
-43.826375
31
0
12
-4.175003
22
-41.975225
32
0
13
0
23
-42.9008
33
0
39
0
210
0
220
0
230
1
0
ENDBLK
5
255
100
AcDbEntity
8
0
100
AcDbBlockEnd
0
BLOCK
5
25F
100
AcDbEntity
8
0
100
AcDbBlockBegin
2
DimnDraft3D3
70
0
10
0
20
0
30
0
3
DimnDraft3D3
0
MTEXT
5
258
100
AcDbEntity
8
2
62
256
6
ByLayer
370
-1
48
1
60
0
100
AcDbMText
10
51.906579
20
-41.7758
30
0
210
0
220
0
230
1
1
\W01.000;\fsimplex.shx,bigfont.shx;109 
40
4.5
41
0
44
1.084337
50
0
71
7
72
5
7
DEFAULT
0
LINE
5
25A
100
AcDbEntity
8
2
62
256
6
ByLayer
370
-1
48
1
60
0
100
AcDbLine
10
0
20
-17.5875
30
0
11
0
21
-46.0758
31
0
39
0
210
0
220
0
230
1
0
LINE
5
25B
100
AcDbEntity
8
2
62
256
6
ByLayer
370
-1
48
1
60
0
100
AcDbLine
10
109
20
-10.5875
30
0
11
109
21
-46.0758
31
0
39
0
210
0
220
0
230
1
0
LINE
5
25C
100
AcDbEntity
8
2
62
256
6
ByLayer
370
-1
48
1
60
0
100
AcDbLine
10
0
20
-42.9008
30
0
11
109
21
-42.9008
31
0
39
0
210
0
220
0
230
1
0
SOLID
5
25D
100
AcDbEntity
8
2
62
256
6
ByLayer
370
-1
48
1
60
0
100
AcDbTrace
10
0
20
-42.9008
30
0
11
4.174997
21
-41.975225
31
0
12
4.175003
22
-43.826375
32
0
13
0
23
-42.9008
33
0
39
0
210
0
220
0
230
1
0
SOLID
5
25E
100
AcDbEntity
8
2
62
256
6
ByLayer
370
-1
48
1
60
0
100
AcDbTrace
10
109
20
-42.9008
30
0
11
104.825003
21
-43.826375
31
0
12
104.824997
22
-41.975225
32
0
13
109
23
-42.9008
33
0
39
0
210
0
220
0
230
1
0
ENDBLK
5
260
100
AcDbEntity
8
0
100
AcDbBlockEnd
0
BLOCK
5
269
100
AcDbEntity
8
0
100
AcDbBlockBegin
2
DimnDraft3D4
70
0
10
0
20
0
30
0
3
DimnDraft3D4
0
MTEXT
5
263
100
AcDbEntity
8
SK2
62
256
6
ByLayer
370
-1
48
1
60
0
100
AcDbMText
10
60.996053
20
-31.7758
30
0
210
0
220
0
230
1
1
\W01.000;\fsimplex.shx,bigfont.shx;93 
40
4.5
41
0
44
1.084337
50
0
71
7
72
5
7
DEFAULT
0
LINE
5
264
100
AcDbEntity
8
SK2
62
256
6
ByLayer
370
-1
48
1
60
0
100
AcDbLine
10
16
20
-11.5875
30
0
11
16
21
-36.0758
31
0
39
0
210
0
220
0
230
1
0
LINE
5
265
100
AcDbEntity
8
SK2
62
256
6
ByLayer
370
-1
48
1
60
0
100
AcDbLine
10
109
20
-10.5875
30
0
11
109
21
-36.0758
31
0
39
0
210
0
220
0
230
1
0
LINE
5
266
100
AcDbEntity
8
SK2
62
256
6
ByLayer
370
-1
48
1
60
0
100
AcDbLine
10
16
20
-32.9008
30
0
11
109
21
-32.9008
31
0
39
0
210
0
220
0
230
1
0
SOLID
5
267
100
AcDbEntity
8
SK2
62
256
6
ByLayer
370
-1
48
1
60
0
100
AcDbTrace
10
16
20
-32.9008
30
0
11
20.174997
21
-31.975225
31
0
12
20.175003
22
-33.826375
32
0
13
16
23
-32.9008
33
0
39
0
210
0
220
0
230
1
0
SOLID
5
268
100
AcDbEntity
8
SK2
62
256
6
ByLayer
370
-1
48
1
60
0
100
AcDbTrace
10
109
20
-32.9008
30
0
11
104.825003
21
-33.826375
31
0
12
104.824997
22
-31.975225
32
0
13
109
23
-32.9008
33
0
39
0
210
0
220
0
230
1
0
ENDBLK
5
26A
100
AcDbEntity
8
0
100
AcDbBlockEnd
0
BLOCK
5
274
100
AcDbEntity
8
0
100
AcDbBlockBegin
2
DimnDraft3D5
70
0
10
0
20
0
30
0
3
DimnDraft3D5
0
MTEXT
5
26D
100
AcDbEntity
8
SK2
62
256
6
ByLayer
370
-1
48
1
60
0
100
AcDbMText
10
-66.975
20
5.246053
30
0
210
0
220
0
230
1
1
\W01.000;\fsimplex.shx,bigfont.shx;25 
40
4.5
41
0
44
1.084337
50
90
71
7
72
5
7
DEFAULT
0
MTEXT
5
26E
100
AcDbEntity
8
SK2
62
256
6
ByLayer
370
-1
48
1
60
0
100
AcDbMText
10
-66.975
20
-8.253947
30
0
210
0
220
0
230
1
1
\W01.000;\fsimplex.shx,bigfont.shx;%%c 
40
4.5
41
0
44
1.084337
50
90
71
7
72
5
7
DEFAULT
0
LINE
5
26F
100
AcDbEntity
8
SK2
62
256
6
ByLayer
370
-1
48
1
60
0
100
AcDbLine
10
-57.5875
20
12.5
30
0
11
-67.9
21
12.5
31
0
39
0
210
0
220
0
230
1
0
LINE
5
270
100
AcDbEntity
8
SK2
62
256
6
ByLayer
370
-1
48
1
60
0
100
AcDbLine
10
-57.5875
20
-12.5
30
0
11
-67.9
21
-12.5
31
0
39
0
210
0
220
0
230
1
0
LINE
5
271
100
AcDbEntity
8
SK2
62
256
6
ByLayer
370
-1
48
1
60
0
100
AcDbLine
10
-64.725
20
23.75
30
0
11
-64.725
21
-23.75
31
0
39
0
210
0
220
0
230
1
0
SOLID
5
272
100
AcDbEntity
8
SK2
62
256
6
ByLayer
370
-1
48
1
60
0
100
AcDbTrace
10
-64.725
20
12.5
30
0
11
-65.650575
21
16.674997
31
0
12
-63.799425
22
16.675003
32
0
13
-64.725
23
12.5
33
0
39
0
210
0
220
0
230
1
0
SOLID
5
273
100
AcDbEntity
8
SK2
62
256
6
ByLayer
370
-1
48
1
60
0
100
AcDbTrace
10
-64.725
20
-12.5
30
0
11
-63.799425
21
-16.674997
31
0
12
-65.650575
22
-16.675003
32
0
13
-64.725
23
-12.5
33
0
39
0
210
0
220
0
230
1
0
ENDBLK
5
275
100
AcDbEntity
8
0
100
AcDbBlockEnd
0
BLOCK
5
27F
100
AcDbEntity
8
0
100
AcDbBlockBegin
2
DimnDraft3D6
70
0
10
0
20
0
30
0
3
DimnDraft3D6
0
MTEXT
5
278
100
AcDbEntity
8
SK2
62
256
6
ByLayer
370
-1
48
1
60
0
100
AcDbMText
10
-76.975
20
5.246053
30
0
210
0
220
0
230
1
1
\W01.000;\fsimplex.shx,bigfont.shx;32 
40
4.5
41
0
44
1.084337
50
90
71
7
72
5
7
DEFAULT
0
MTEXT
5
279
100
AcDbEntity
8
SK2
62
256
6
ByLayer
370
-1
48
1
60
0
100
AcDbMText
10
-76.975
20
-8.253947
30
0
210
0
220
0
230
1
1
\W01.000;\fsimplex.shx,bigfont.shx;%%c 
40
4.5
41
0
44
1.084337
50
90
71
7
72
5
7
DEFAULT
0
LINE
5
27A
100
AcDbEntity
8
SK2
62
256
6
ByLayer
370
-1
48
1
60
0
100
AcDbLine
10
-1.5875
20
-16
30
0
11
-77.9
21
-16
31
0
39
0
210
0
220
0
230
1
0
LINE
5
27B
100
AcDbEntity
8
SK2
62
256
6
ByLayer
370
-1
48
1
60
0
100
AcDbLine
10
-1.5875
20
16
30
0
11
-77.9
21
16
31
0
39
0
210
0
220
0
230
1
0
LINE
5
27C
100
AcDbEntity
8
SK2
62
256
6
ByLayer
370
-1
48
1
60
0
100
AcDbLine
10
-74.725
20
-16
30
0
11
-74.725
21
16
31
0
39
0
210
0
220
0
230
1
0
SOLID
5
27D
100
AcDbEntity
8
SK2
62
256
6
ByLayer
370
-1
48
1
60
0
100
AcDbTrace
10
-74.725
20
-16
30
0
11
-75.650575
21
-11.825003
31
0
12
-73.799425
22
-11.824997
32
0
13
-74.725
23
-16
33
0
39
0
210
0
220
0
230
1
0
SOLID
5
27E
100
AcDbEntity
8
SK2
62
256
6
ByLayer
370
-1
48
1
60
0
100
AcDbTrace
10
-74.725
20
16
30
0
11
-73.799425
21
11.825003
31
0
12
-75.650575
22
11.824997
32
0
13
-74.725
23
16
33
0
39
0
210
0
220
0
230
1
0
ENDBLK
5
280
100
AcDbEntity
8
0
100
AcDbBlockEnd
0
BLOCK
5
28A
100
AcDbEntity
8
0
100
AcDbBlockBegin
2
DimnDraft3D7
70
0
10
0
20
0
30
0
3
DimnDraft3D7
0
MTEXT
5
283
100
AcDbEntity
8
2
62
256
6
ByLayer
370
-1
48
1
60
0
100
AcDbMText
10
133.725
20
-24.120395
30
0
210
0
220
0
230
1
1
\W01.000;\fsimplex.shx,bigfont.shx;18 
40
4.5
41
0
44
1.084337
50
90
71
7
72
5
7
DEFAULT
0
MTEXT
5
284
100
AcDbEntity
8
2
62
256
6
ByLayer
370
-1
48
1
60
0
100
AcDbMText
10
133.725
20
-37.620395
30
0
210
0
220
0
230
1
1
\W01.000;\fsimplex.shx,bigfont.shx;%%c 
40
4.5
41
0
44
1.084337
50
90
71
7
72
5
7
DEFAULT
0
LINE
5
285
100
AcDbEntity
8
2
62
256
6
ByLayer
370
-1
48
1
60
0
100
AcDbLine
10
110.5875
20
9
30
0
11
139.15
21
9
31
0
39
0
210
0
220
0
230
1
0
LINE
5
286
100
AcDbEntity
8
2
62
256
6
ByLayer
370
-1
48
1
60
0
100
AcDbLine
10
110.5875
20
-9
30
0
11
139.15
21
-9
31
0
39
0
210
0
220
0
230
1
0
LINE
5
287
100
AcDbEntity
8
2
62
256
6
ByLayer
370
-1
48
1
60
0
100
AcDbLine
10
135.975
20
9
30
0
11
135.975
21
-38.745395
31
0
39
0
210
0
220
0
230
1
0
SOLID
5
288
100
AcDbEntity
8
2
62
256
6
ByLayer
370
-1
48
1
60
0
100
AcDbTrace
10
135.975
20
9
30
0
11
136.900575
21
4.825003
31
0
12
135.049425
22
4.824997
32
0
13
135.975
23
9
33
0
39
0
210
0
220
0
230
1
0
SOLID
5
289
100
AcDbEntity
8
2
62
256
6
ByLayer
370
-1
48
1
60
0
100
AcDbTrace
10
135.975
20
-9
30
0
11
135.049425
21
-4.825003
31
0
12
136.900575
22
-4.824997
32
0
13
135.975
23
-9
33
0
39
0
210
0
220
0
230
1
0
ENDBLK
5
28B
100
AcDbEntity
8
0
100
AcDbBlockEnd
0
ENDSEC
0
SECTION
2
ENTITIES
0
ARC
5
F5
100
AcDbEntity
8
SK1
62
256
6
ByLayer
370
-1
48
1
60
0
100
AcDbCircle
39
0
10
1.382165
20
12.65
30
0
40
0.4
210
0
220
0
230
-1
100
AcDbArc
50
270
51
295
0
ARC
5
F6
100
AcDbEntity
8
SK1
62
256
6
ByLayer
370
-1
48
1
60
0
100
AcDbCircle
39
0
10
1.382165
20
-12.65
30
0
40
0.4
210
0
220
0
230
-1
100
AcDbArc
50
65
51
90
0
ARC
5
F7
100
AcDbEntity
8
SK1
62
256
6
ByLayer
370
-1
48
1
60
0
100
AcDbCircle
39
0
10
0.15
20
12.65
30
0
40
0.4
210
0
220
0
230
-1
100
AcDbArc
50
247.975687
51
270
0
ARC
5
F8
100
AcDbEntity
8
SK1
62
256
6
ByLayer
370
-1
48
1
60
0
100
AcDbCircle
39
0
10
0.15
20
-12.65
30
0
40
0.4
210
0
220
0
230
-1
100
AcDbArc
50
90
51
112.024313
0
ARC
5
F9
100
AcDbEntity
8
SK1
62
256
6
ByLayer
370
-1
48
1
60
0
100
AcDbCircle
39
0
10
53.894506
20
12.89675
30
0
40
0.8
210
0
220
0
230
-1
100
AcDbArc
50
250.982048
51
321
0
ARC
5
FA
100
AcDbEntity
8
SK1
62
256
6
ByLayer
370
-1
48
1
60
0
100
AcDbCircle
39
0
10
53.894506
20
-12.89675
30
0
40
0.8
210
0
220
0
230
-1
100
AcDbArc
50
39
51
109.017952
0
ELLIPSE
5
FB
100
AcDbEntity
8
1
62
256
6
ByLayer
370
-1
48
1
60
0
100
AcDbEllipse
10
100.637789
20
3.247929
30
0
11
-7.13860853241836
21
0.375526691124406
31
0
210
0
220
0
230
-1
40
0.000392
41
-3.13525207636767
42
-3.13413441445405
0
ELLIPSE
5
FC
100
AcDbEntity
8
1
62
256
6
ByLayer
370
-1
48
1
60
0
100
AcDbEllipse
10
105.72822
20
-1.978703
30
0
11
-1.1
21
1.1117029605906E-15
31
0
210
0
220
0
230
1
40
0.996917
41
-2.96723467011757
42
-0.174456906816537
0
ELLIPSE
5
FD
100
AcDbEntity
8
1
62
256
6
ByLayer
370
-1
48
1
60
0
100
AcDbEllipse
10
103.096514
20
5.028389
30
0
11
-0.599637270106163
21
-0.0208601126465927
31
0
210
0
220
0
230
1
40
0.003042
41
0.0872135714661165
42
1.13795433213009
0
ELLIPSE
5
FE
100
AcDbEntity
8
1
62
256
6
ByLayer
370
-1
48
1
60
0
100
AcDbEllipse
10
101.903247
20
8.693394
30
0
11
6.09155738004463E-15
21
5.2
31
0
210
0
220
0
230
1
40
0.996195
41
2.72271363311116
42
-3.10668606854991
0
ELLIPSE
5
FF
100
AcDbEntity
8
1
62
256
6
ByLayer
370
-1
48
1
60
0
100
AcDbEllipse
10
100.14015
20
0
30
0
11
-40.530045514584
21
-4.59245820270913E-14
31
0
210
0
220
0
230
-1
40
0.214656
41
1.53226127314969
42
1.59708363082606
0
ELLIPSE
5
100
100
AcDbEntity
8
1
62
256
6
ByLayer
370
-1
48
1
60
0
100
AcDbEllipse
10
105.90935
20
5.772342
30
0
11
1.2885986765479E-15
21
1.1
31
0
210
0
220
0
230
1
40
0.996195
41
-2.42668389129718
42
0
0
ELLIPSE
5
101
100
AcDbEntity
8
1
62
256
6
ByLayer
370
-1
48
1
60
0
100
AcDbEllipse
10
105.90935
20
5.772342
30
0
11
1.2885986765479E-15
21
1.1
31
0
210
0
220
0
230
1
40
0.996195
41
0
42
1.57079634372637
0
ELLIPSE
5
102
100
AcDbEntity
8
1
62
256
6
ByLayer
370
-1
48
1
60
0
100
AcDbEllipse
10
105.90935
20
5.772342
30
0
11
1.2885986765479E-15
21
1.1
31
0
210
0
220
0
230
1
40
0.996195
41
1.5707962760005
42
1.74584211605793
0
ELLIPSE
5
103
100
AcDbEntity
8
1
62
256
6
ByLayer
370
-1
48
1
60
0
100
AcDbEllipse
10
103.843205
20
5.054564
30
0
11
-1.4470236532442E-15
21
-1.35
31
0
210
0
220
0
230
1
40
0.996195
41
-2.26960617922759
42
-1.53588974175501
0
ELLIPSE
5
104
100
AcDbEntity
8
1
62
256
6
ByLayer
370
-1
48
1
60
0
100
AcDbEllipse
10
105.72822
20
-1.598176
30
0
11
-1.10000000000001
21
1.11170296059061E-15
31
0
210
0
220
0
230
1
40
0.996917
41
0
42
6.28318530717959
0
ELLIPSE
5
105
100
AcDbEntity
8
1
62
256
6
ByLayer
370
-1
48
1
60
0
100
AcDbEllipse
10
69.8385
20
9.755848
30
0
11
-31.3624919359916
21
4.29401649015333
31
0
210
0
220
0
230
-1
40
0.123194
41
-3.09880730738823
42
-2.77076756229882
0
ELLIPSE
5
106
100
AcDbEntity
8
1
62
256
6
ByLayer
370
-1
48
1
60
0
100
AcDbEllipse
10
11.1
20
0.755238
30
0
11
-4.99999999999999
21
5.0531952754118E-15
31
0
210
0
220
0
230
1
40
0.895993
41
-1.51860334719161
42
-0.185639560739763
0
ELLIPSE
5
107
100
AcDbEntity
8
1
62
256
6
ByLayer
370
-1
48
1
60
0
100
AcDbEllipse
10
105.90935
20
5.772342
30
0
11
1.46431667789534E-15
21
1.25
31
0
210
0
220
0
230
1
40
0.996195
41
0
42
1.01581412355465
0
ELLIPSE
5
108
100
AcDbEntity
8
1
62
256
6
ByLayer
370
-1
48
1
60
0
100
AcDbEllipse
10
90.825419
20
6.836327
30
0
11
-10.0243755705979
21
5.21625655769669
31
0
210
0
220
0
230
-1
40
0.093677
41
-2.55997377519176
42
-1.76260955744143
0
ELLIPSE
5
109
100
AcDbEntity
8
1
62
256
6
ByLayer
370
-1
48
1
60
0
100
AcDbEllipse
10
108.035837
20
0.057382
30
0
11
-0.0425960270103437
21
0.601800376881298
31
0
210
0
220
0
230
-1
40
0.11695
41
-1.32016290187612
42
0.0908712344587158
0
ELLIPSE
5
10A
100
AcDbEntity
8
1
62
256
6
ByLayer
370
-1
48
1
60
0
100
AcDbEllipse
10
107.988888
20
3.462029
30
0
11
-0.0420755298973703
21
0.602982202129596
31
0
210
0
220
0
230
-1
40
0.116024
41
2.32047133585948
42
-3.13192027092646
0
ELLIPSE
5
10B
100
AcDbEntity
8
1
62
256
6
ByLayer
370
-1
48
1
60
0
100
AcDbEllipse
10
107.80097
20
-5.398696
30
0
11
-0.0783579726659154
21
-0.997108380747255
31
0
210
0
220
0
230
-1
40
0.127255
41
0
42
6.28318530717959
0
ELLIPSE
5
10C
100
AcDbEntity
8
1
62
256
6
ByLayer
370
-1
48
1
60
0
100
AcDbEllipse
10
101.194717
20
5.63
30
0
11
1.1714533423163E-16
21
0.100000000000002
31
0
210
0
220
0
230
1
40
0.977728
41
3.00708130828945
42
-3.03156588553987
0
ELLIPSE
5
10D
100
AcDbEntity
8
1
62
256
6
ByLayer
370
-1
48
1
60
0
100
AcDbEllipse
10
103.926693
20
3.88028
30
0
11
-1.17794646133824
21
-1.04893007472015
31
0
210
0
220
0
230
-1
40
0.721468
41
-1.26712593956994
42
-0.133853100320434
0
ELLIPSE
5
10E
100
AcDbEntity
8
1
62
256
6
ByLayer
370
-1
48
1
60
0
100
AcDbEllipse
10
100.031047
20
2.698978
30
0
11
-6.30657209970236
21
-0.198395529099215
31
0
210
0
220
0
230
-1
40
0.01063
41
-1.89664411026522
42
-1.88743420782844
0
ELLIPSE
5
10F
100
AcDbEntity
8
1
62
256
6
ByLayer
370
-1
48
1
60
0
100
AcDbEllipse
10
101.833523
20
8.693394
30
0
11
-6.43121623664089E-15
21
-6
31
0
210
0
220
0
230
1
40
0.996195
41
-0.373603457253639
42
-1.89347331509302E-06
0
ELLIPSE
5
110
100
AcDbEntity
8
1
62
256
6
ByLayer
370
-1
48
1
60
0
100
AcDbEllipse
10
105.72822
20
-1.598176
30
0
11
1.2
21
0
31
0
210
0
220
0
230
1
40
0.996917
41
0
42
-3.14159243441242
0
ELLIPSE
5
111
100
AcDbEntity
8
1
62
256
6
ByLayer
370
-1
48
1
60
0
100
AcDbEllipse
10
105.896277
20
5.772342
30
0
11
1.46431667789534E-15
21
1.25
31
0
210
0
220
0
230
1
40
0.996195
41
-1.80160505545351
42
0
0
ELLIPSE
5
112
100
AcDbEntity
8
1
62
256
6
ByLayer
370
-1
48
1
60
0
100
AcDbEllipse
10
105.896277
20
5.772342
30
0
11
1.46431667789534E-15
21
1.25
31
0
210
0
220
0
230
1
40
0.996195
41
0
42
0.963290731159637
0
ELLIPSE
5
113
100
AcDbEntity
8
1
62
256
6
ByLayer
370
-1
48
1
60
0
100
AcDbEllipse
10
108.288818
20
0
30
0
11
-0.54608816822348
21
8.69976134329235
31
0
210
0
220
0
230
-1
40
0.118004
41
-2.04116164917637
42
-1.49045684670457
0
ELLIPSE
5
114
100
AcDbEntity
8
1
62
256
6
ByLayer
370
-1
48
1
60
0
100
AcDbEllipse
10
103.674882
20
3.88028
30
0
11
1.58146201212697E-15
21
1.35
31
0
210
0
220
0
230
1
40
0.996195
41
1.60570291183478
42
1.8509328096783
0
ELLIPSE
5
115
100
AcDbEntity
8
1
62
256
6
ByLayer
370
-1
48
1
60
0
100
AcDbEllipse
10
107.386142
20
0
30
0
11
-19.7969400568234
21
8.43093334096583
31
0
210
0
220
0
230
-1
40
0.108448
41
-1.16625956732529
42
-0.704221302426093
0
ELLIPSE
5
116
100
AcDbEntity
8
1
62
256
6
ByLayer
370
-1
48
1
60
0
100
AcDbEllipse
10
102.01431
20
3.496562
30
0
11
0.0280261150489236
21
-0.799508934831416
31
0
210
0
220
0
230
1
40
0.087103
41
0.0630727813209288
42
1.56774302595898
0
ELLIPSE
5
117
100
AcDbEntity
8
1
62
256
6
ByLayer
370
-1
48
1
60
0
100
AcDbEllipse
10
101.629867
20
-2E-06
30
0
11
-68.5566321718351
21
0.693695031018178
31
0
210
0
220
0
230
-1
40
0.126498
41
-1.55707009470304
42
-1.54242825787129
0
ELLIPSE
5
118
100
AcDbEntity
8
1
62
256
6
ByLayer
370
-1
48
1
60
0
100
AcDbEllipse
10
108.035072
20
0.057408
30
0
11
-0.0380401255532861
21
0.601647666588897
31
0
210
0
220
0
230
-1
40
0.117632
41
-1.4807466355509
42
-1.32098444297207
0
ELLIPSE
5
119
100
AcDbEntity
8
1
62
256
6
ByLayer
370
-1
48
1
60
0
100
AcDbEllipse
10
103.634031
20
5.054564
30
0
11
1.58146201212697E-15
21
1.35
31
0
210
0
220
0
230
1
40
0.996195
41
0.86305605237593
42
1.60570291183478
0
ELLIPSE
5
11A
100
AcDbEntity
8
1
62
256
6
ByLayer
370
-1
48
1
60
0
100
AcDbEllipse
10
106.140313
20
5.772342
30
0
11
1.2885986765479E-15
21
1.1
31
0
210
0
220
0
230
1
40
0.996195
41
0.105635868485064
42
1.57079627600051
0
ELLIPSE
5
11B
100
AcDbEntity
8
1
62
256
6
ByLayer
370
-1
48
1
60
0
100
AcDbEllipse
10
106.140313
20
5.772342
30
0
11
1.2885986765479E-15
21
1.1
31
0
210
0
220
0
230
1
40
0.996195
41
1.57079627600051
42
2.71855746899424
0
ELLIPSE
5
11C
100
AcDbEntity
8
1
62
256
6
ByLayer
370
-1
48
1
60
0
100
AcDbEllipse
10
108.288871
20
0
30
0
11
-0.611876111096901
21
8.69970410344702
31
0
210
0
220
0
230
-1
40
0.11735
41
-1.48961044331788
42
-1.42990425732616
0
ELLIPSE
5
11D
100
AcDbEntity
8
1
62
256
6
ByLayer
370
-1
48
1
60
0
100
AcDbEllipse
10
102.833541
20
0
30
0
11
-0.281691569992273
21
8.69996507438229
31
0
210
0
220
0
230
-1
40
0.087398
41
-0.0367255417381454
42
-0.000814596582754958
0
ELLIPSE
5
11E
100
AcDbEntity
8
1
62
256
6
ByLayer
370
-1
48
1
60
0
100
AcDbEllipse
10
108.264351
20
-4.425913
30
0
11
-0.0569062193972639
21
-0.657991401938945
31
0
210
0
220
0
230
-1
40
0.116725
41
0.0197262659369087
42
1.59052259273241
0
ELLIPSE
5
11F
100
AcDbEntity
8
1
62
256
6
ByLayer
370
-1
48
1
60
0
100
AcDbEllipse
10
103.221433
20
5.630005
30
0
11
-4.74304240306649
21
-3.33875592168656
31
0
210
0
220
0
230
-1
40
0.464448
41
-0.996611458244832
42
-0.971766734459955
0
ELLIPSE
5
120
100
AcDbEntity
8
1
62
256
6
ByLayer
370
-1
48
1
60
0
100
AcDbEllipse
10
103.884055
20
3.88028
30
0
11
-1.4470236532442E-15
21
-1.35
31
0
210
0
220
0
230
1
40
0.996195
41
-1.53588974175501
42
-0.146913134865279
0
ELLIPSE
5
121
100
AcDbEntity
8
1
62
256
6
ByLayer
370
-1
48
1
60
0
100
AcDbEllipse
10
100.363093
20
5.530903
30
0
11
-0.534705998732867
21
-3.86317091194773
31
0
210
0
220
0
230
1
40
0.207979
41
1.53992401537689
42
1.59957499750349
0
ELLIPSE
5
122
100
AcDbEntity
8
1
62
256
6
ByLayer
370
-1
48
1
60
0
100
AcDbEllipse
10
99.726541
20
3.942958
30
0
11
-0.326425640836806
21
-0.730374082922088
31
0
210
0
220
0
230
1
40
0.079621
41
0.155445993421813
42
1.60636616336575
0
ELLIPSE
5
123
100
AcDbEntity
8
1
62
256
6
ByLayer
370
-1
48
1
60
0
100
AcDbEllipse
10
100.363093
20
5.530903
30
0
11
-0.534705998732867
21
-3.86317091194773
31
0
210
0
220
0
230
1
40
0.207979
41
0.167192030326604
42
0.822260717614659
0
ELLIPSE
5
124
100
AcDbEntity
8
1
62
256
6
ByLayer
370
-1
48
1
60
0
100
AcDbEllipse
10
103.217709
20
6.553101
30
0
11
-0.579980162235485
21
-0.618336926011868
31
0
210
0
220
0
230
-1
40
0.04503
41
-0.739916138713082
42
-0.421202239214794
0
ELLIPSE
5
125
100
AcDbEntity
8
1
62
256
6
ByLayer
370
-1
48
1
60
0
100
AcDbEllipse
10
98.591706
20
-2E-06
30
0
11
-99.4414665233307
21
-1.12677094936932E-13
31
0
210
0
220
0
230
-1
40
0.087489
41
1.59708362774749
42
1.61035166141752
0
ELLIPSE
5
126
100
AcDbEntity
8
1
62
256
6
ByLayer
370
-1
48
1
60
0
100
AcDbEllipse
10
48.25317
20
0
30
0
11
-154.726344471496
21
-8.41342764258622
31
0
210
0
220
0
230
-1
40
0.014313
41
-1.96081338705675
42
-1.92135386834478
0
ELLIPSE
5
127
100
AcDbEntity
8
1
62
256
6
ByLayer
370
-1
48
1
60
0
100
AcDbEllipse
10
103.137365
20
3.854105
30
0
11
-0.599637270106163
21
-0.0208601126465927
31
0
210
0
220
0
230
1
40
0.003042
41
0.0872135714661165
42
1.13795433213007
0
ELLIPSE
5
128
100
AcDbEntity
8
1
62
256
6
ByLayer
370
-1
48
1
60
0
100
AcDbEllipse
10
108.929617
20
0
30
0
11
-0.695945897251043
21
-8.69954526191151
31
0
210
0
220
0
230
-1
40
0.127813
41
0.0349759046057576
42
1.08279958745136
0
ELLIPSE
5
129
100
AcDbEntity
8
1
62
256
6
ByLayer
370
-1
48
1
60
0
100
AcDbEllipse
10
108.181081
20
-3.804968
30
0
11
-0.132993144458099
21
0.149374775404507
31
0
210
0
220
0
230
1
40
0.052262
41
1.5220261892079
42
1.62942896444692
0
ELLIPSE
5
12A
100
AcDbEntity
8
1
62
256
6
ByLayer
370
-1
48
1
60
0
100
AcDbEllipse
10
112.849466
20
3.958956
30
0
11
1.16445136866421E-14
21
9.9402283181145
31
0
210
0
220
0
230
1
40
0.996195
41
1.60934209589405
42
1.61480354075299
0
ELLIPSE
5
12B
100
AcDbEntity
8
1
62
256
6
ByLayer
370
-1
48
1
60
0
100
AcDbEllipse
10
107.812571
20
13.051848
30
0
11
-1.07186937277348E-14
21
-9.99999999999999
31
0
210
0
220
0
230
1
40
0.996195
41
0.0349065850398881
42
0.0440072139580882
0
ELLIPSE
5
12C
100
AcDbEntity
8
1
62
256
6
ByLayer
370
-1
48
1
60
0
100
AcDbEllipse
10
98.910215
20
3.519352
30
0
11
1.16445136866418E-14
21
9.94022831811422
31
0
210
0
220
0
230
1
40
0.996195
41
-1.5707963267949
42
-1.55479036376002
0
ELLIPSE
5
12D
100
AcDbEntity
8
1
62
256
6
ByLayer
370
-1
48
1
60
0
100
AcDbEllipse
10
103.433421
20
7.8955
30
0
11
-5.35934686386771E-15
21
-5.00000000000028
31
0
210
0
220
0
230
1
40
0.996195
41
0.0160059630348808
42
0.0258059561216707
0
ELLIPSE
5
12E
100
AcDbEntity
8
1
62
256
6
ByLayer
370
-1
48
1
60
0
100
AcDbEllipse
10
106.011274
20
5.977106
30
0
11
1.46431667789534E-15
21
1.25
31
0
210
0
220
0
230
1
40
0.996195
41
0.0349500371117705
42
1.57079634872777
0
ELLIPSE
5
12F
100
AcDbEntity
8
1
62
256
6
ByLayer
370
-1
48
1
60
0
100
AcDbEllipse
10
106.011274
20
5.977106
30
0
11
1.46431667789534E-15
21
1.25
31
0
210
0
220
0
230
1
40
0.996195
41
1.57079634872777
42
3.1168526777092
0
ELLIPSE
5
130
100
AcDbEntity
8
1
62
256
6
ByLayer
370
-1
48
1
60
0
100
AcDbEllipse
10
98.911236
20
3.470363
30
0
11
1.16445136866421E-14
21
9.9402283181145
31
0
210
0
220
0
230
1
40
0.996195
41
-1.54499037067321
42
-1.5395289141213
0
ELLIPSE
5
131
100
AcDbEntity
8
1
62
256
6
ByLayer
370
-1
48
1
60
0
100
AcDbEllipse
10
107.763816
20
13.049453
30
0
11
-1.07186937277344E-14
21
-9.99999999999964
31
0
210
0
220
0
230
1
40
0.996195
41
0.0538072070448962
42
0.069813170079785
0
ELLIPSE
5
132
100
AcDbEntity
8
1
62
256
6
ByLayer
370
-1
48
1
60
0
100
AcDbEllipse
10
112.849921
20
3.958956
30
0
11
-1.07186937277348E-14
21
-9.99999999999999
31
0
210
0
220
0
230
1
40
0.996195
41
-1.53588974175501
42
-1.52678911283681
0
ELLIPSE
5
133
100
AcDbEntity
8
1
62
256
6
ByLayer
370
-1
48
1
60
0
100
AcDbEllipse
10
108.250046
20
-0.940648
30
0
11
1.16445136866418E-14
21
9.94022831811422
31
0
210
0
220
0
230
1
40
0.996195
41
0
42
0.016005963034882
0
ELLIPSE
5
134
100
AcDbEntity
8
1
62
256
6
ByLayer
370
-1
48
1
60
0
100
AcDbEllipse
10
98.911691
20
3.470363
30
0
11
-1.07186937277348E-14
21
-9.99999999999999
31
0
210
0
220
0
230
1
40
0.996195
41
1.59660228291658
42
1.60570291183478
0
ELLIPSE
5
135
100
AcDbEntity
8
1
62
256
6
ByLayer
370
-1
48
1
60
0
100
AcDbEllipse
10
98.910671
20
3.519352
30
0
11
-1.07186937277344E-14
21
-9.99999999999964
31
0
210
0
220
0
230
1
40
0.996195
41
1.57079632679489
42
1.58680228982978
0
ELLIPSE
5
136
100
AcDbEntity
8
1
62
256
6
ByLayer
370
-1
48
1
60
0
100
AcDbEllipse
10
108.396216
20
8.622953
30
0
11
-3.21560811832048E-16
21
-0.300000000000003
31
0
210
0
220
0
230
1
40
0.996195
41
1.64060949687463
42
1.8675022996339
0
ELLIPSE
5
137
100
AcDbEntity
8
1
62
256
6
ByLayer
370
-1
48
1
60
0
100
AcDbEllipse
10
103.572047
20
3.897523
30
0
11
5.78724697506073E-15
21
4.94022831811449
31
0
210
0
220
0
230
1
40
0.996195
41
0.0440072139581066
42
0.0538072070448954
0
ELLIPSE
5
138
100
AcDbEntity
8
1
62
256
6
ByLayer
370
-1
48
1
60
0
100
AcDbEllipse
10
112.69353
20
8.43486
30
0
11
-1.07186937277344E-14
21
-9.99999999999964
31
0
210
0
220
0
230
1
40
0.996195
41
-1.5707963267949
42
-1.55479036376002
0
ELLIPSE
5
139
100
AcDbEntity
8
1
62
256
6
ByLayer
370
-1
48
1
60
0
100
AcDbEllipse
10
103.398518
20
3.389734
30
0
11
-5.35934686386747E-16
21
-0.500000000000006
31
0
210
0
220
0
230
1
40
0.996195
41
-1.27409035395586
42
-0.226892802759289
0
ELLIPSE
5
13A
100
AcDbEntity
8
1
62
256
6
ByLayer
370
-1
48
1
60
0
100
AcDbEllipse
10
103.891007
20
3.599379
30
0
11
-5.35934686386771E-15
21
-5.00000000000028
31
0
210
0
220
0
230
1
40
0.996195
41
1.58680228982978
42
1.59660228291657
0
ELLIPSE
5
13B
100
AcDbEntity
8
1
62
256
6
ByLayer
370
-1
48
1
60
0
100
AcDbEllipse
10
103.029986
20
8.43486
30
0
11
2.81416266174359E-16
21
0.240228318114594
31
0
210
0
220
0
230
1
40
0.996195
41
1.34390352403567
42
1.5707963267949
0
ELLIPSE
5
13C
100
AcDbEntity
8
1
62
256
6
ByLayer
370
-1
48
1
60
0
100
AcDbEllipse
10
103.224118
20
8.38987
30
0
11
5.15706934637614E-16
21
0.440228318114594
31
0
210
0
220
0
230
1
40
0.996195
41
0.296705972839016
42
1.34390352403561
0
ELLIPSE
5
13D
100
AcDbEntity
8
1
62
256
6
ByLayer
370
-1
48
1
60
0
100
AcDbEllipse
10
98.75428
20
7.995256
30
0
11
-1.07186937277348E-14
21
-9.99999999999999
31
0
210
0
220
0
230
1
40
0.996195
41
1.60570291183478
42
1.61480354075299
0
ELLIPSE
5
13E
100
AcDbEntity
8
1
62
256
6
ByLayer
370
-1
48
1
60
0
100
AcDbEllipse
10
107.712739
20
8.354834
30
0
11
5.78724697506073E-15
21
4.94022831811449
31
0
210
0
220
0
230
1
40
0.996195
41
1.58680228982978
42
1.59660228291657
0
ELLIPSE
5
13F
100
AcDbEntity
8
1
62
256
6
ByLayer
370
-1
48
1
60
0
100
AcDbEllipse
10
103.207529
20
3.331259
30
0
11
2.81416266174359E-16
21
0.240228318114594
31
0
210
0
220
0
230
1
40
0.996195
41
1.64060949687468
42
1.86750229963393
0
ELLIPSE
5
140
100
AcDbEntity
8
1
62
256
6
ByLayer
370
-1
48
1
60
0
100
AcDbEllipse
10
103.166322
20
8.581131
30
0
11
-3.21560811832048E-16
21
-0.300000000000003
31
0
210
0
220
0
230
1
40
0.996195
41
-3.07177948351004
42
-2.84488668075075
0
ELLIPSE
5
141
100
AcDbEntity
8
1
62
256
6
ByLayer
370
-1
48
1
60
0
100
AcDbEllipse
10
103.572502
20
3.897523
30
0
11
-5.35934686386771E-15
21
-5.00000000000028
31
0
210
0
220
0
230
1
40
0.996195
41
-3.09758543963169
42
-3.0877854465449
0
ELLIPSE
5
142
100
AcDbEntity
8
1
62
256
6
ByLayer
370
-1
48
1
60
0
100
AcDbEllipse
10
103.398063
20
3.389734
30
0
11
5.15706934637614E-16
21
0.440228318114594
31
0
210
0
220
0
230
1
40
0.996195
41
1.86750229963392
42
2.9146998508305
0
ELLIPSE
5
143
100
AcDbEntity
8
1
62
256
6
ByLayer
370
-1
48
1
60
0
100
AcDbEllipse
10
103.030442
20
8.43486
30
0
11
-3.21560811832048E-16
21
-0.300000000000003
31
0
210
0
220
0
230
1
40
0.996195
41
-1.79768912955412
42
-1.5707963267949
0
ELLIPSE
5
144
100
AcDbEntity
8
1
62
256
6
ByLayer
370
-1
48
1
60
0
100
AcDbEllipse
10
108.299305
20
-0.939623
30
0
11
-1.07186937277348E-14
21
-9.99999999999999
31
0
210
0
220
0
230
1
40
0.996195
41
-3.11578669746811
42
-3.10668606854991
0
ELLIPSE
5
145
100
AcDbEntity
8
1
62
256
6
ByLayer
370
-1
48
1
60
0
100
AcDbEllipse
10
98.756211
20
7.946315
30
0
11
1.16445136866418E-14
21
9.94022831811422
31
0
210
0
220
0
230
1
40
0.996195
41
-1.51698911975
42
-1.50098315671511
0
ELLIPSE
5
146
100
AcDbEntity
8
1
62
256
6
ByLayer
370
-1
48
1
60
0
100
AcDbEllipse
10
103.432965
20
7.8955
30
0
11
5.78724697506073E-15
21
4.94022831811449
31
0
210
0
220
0
230
1
40
0.996195
41
-3.12558669055492
42
-3.11578669746813
0
ELLIPSE
5
147
100
AcDbEntity
8
1
62
256
6
ByLayer
370
-1
48
1
60
0
100
AcDbEllipse
10
98.756666
20
7.946315
30
0
11
-1.07186937277344E-14
21
-9.99999999999964
31
0
210
0
220
0
230
1
40
0.996195
41
1.62460353383979
42
1.64060949687468
0
ELLIPSE
5
148
100
AcDbEntity
8
1
62
256
6
ByLayer
370
-1
48
1
60
0
100
AcDbEllipse
10
108.250502
20
-0.940648
30
0
11
-1.07186937277344E-14
21
-9.99999999999964
31
0
210
0
220
0
230
1
40
0.996195
41
3.14159265358979
42
-3.12558669055492
0
ELLIPSE
5
149
100
AcDbEntity
8
1
62
256
6
ByLayer
370
-1
48
1
60
0
100
AcDbEllipse
10
107.873314
20
3.738991
30
0
11
5.78724697506073E-15
21
4.94022831811449
31
0
210
0
220
0
230
1
40
0.996195
41
1.61480354075301
42
1.62460353383979
0
ELLIPSE
5
14A
100
AcDbEntity
8
1
62
256
6
ByLayer
370
-1
48
1
60
0
100
AcDbEllipse
10
103.353699
20
3.19486
30
0
11
-3.21560811832048E-16
21
-0.300000000000003
31
0
210
0
220
0
230
1
40
0.996195
41
-0.226892802759225
42
0
0
ELLIPSE
5
14B
100
AcDbEntity
8
1
62
256
6
ByLayer
370
-1
48
1
60
0
100
AcDbEllipse
10
103.207985
20
3.331259
30
0
11
-3.21560811832048E-16
21
-0.300000000000003
31
0
210
0
220
0
230
1
40
0.996195
41
-1.50098315671517
42
-1.27409035395589
0
ELLIPSE
5
14C
100
AcDbEntity
8
1
62
256
6
ByLayer
370
-1
48
1
60
0
100
AcDbEllipse
10
103.791175
20
-1.097636
30
0
11
1.16445136866421E-14
21
9.9402283181145
31
0
210
0
220
0
230
1
40
0.996195
41
0.0385457690991531
42
0.0440072139580895
0
ELLIPSE
5
14D
100
AcDbEntity
8
1
62
256
6
ByLayer
370
-1
48
1
60
0
100
AcDbEllipse
10
108.031699
20
8.056689
30
0
11
-5.35934686386771E-15
21
-5.00000000000028
31
0
210
0
220
0
230
1
40
0.996195
41
0.0440072139581043
42
0.0538072070448928
0
ELLIPSE
5
14E
100
AcDbEntity
8
1
62
256
6
ByLayer
370
-1
48
1
60
0
100
AcDbEllipse
10
103.353243
20
3.19486
30
0
11
2.81416266174359E-16
21
0.240228318114594
31
0
210
0
220
0
230
1
40
0.996195
41
2.91469985083058
42
-3.14159265358973
0
ELLIPSE
5
14F
100
AcDbEntity
8
1
62
256
6
ByLayer
370
-1
48
1
60
0
100
AcDbEllipse
10
103.840385
20
-1.095241
30
0
11
-1.07186937277344E-14
21
-9.99999999999964
31
0
210
0
220
0
230
1
40
0.996195
41
-3.0877854465449
42
-3.07177948351001
0
ELLIPSE
5
150
100
AcDbEntity
8
1
62
256
6
ByLayer
370
-1
48
1
60
0
100
AcDbEllipse
10
103.304897
20
12.893835
30
0
11
-1.07186937277348E-14
21
-9.99999999999999
31
0
210
0
220
0
230
1
40
0.996195
41
0.0258059561216878
42
0.0349065850398881
0
ELLIPSE
5
151
100
AcDbEntity
8
1
62
256
6
ByLayer
370
-1
48
1
60
0
100
AcDbEllipse
10
108.573304
20
3.519352
30
0
11
2.81416266174359E-16
21
0.240228318114594
31
0
210
0
220
0
230
1
40
0.996195
41
-1.79768912955413
42
-1.5707963267949
0
ELLIPSE
5
152
100
AcDbEntity
8
1
62
256
6
ByLayer
370
-1
48
1
60
0
100
AcDbEllipse
10
107.812115
20
13.051848
30
0
11
1.16445136866421E-14
21
9.9402283181145
31
0
210
0
220
0
230
1
40
0.996195
41
-3.10304688449064
42
-3.0975854396317
0
ELLIPSE
5
153
100
AcDbEntity
8
1
62
256
6
ByLayer
370
-1
48
1
60
0
100
AcDbEllipse
10
103.730431
20
8.215221
30
0
11
-5.35934686386771E-15
21
-5.00000000000028
31
0
210
0
220
0
230
1
40
0.996195
41
1.614803540753
42
1.6246035338398
0
ELLIPSE
5
154
100
AcDbEntity
8
1
62
256
6
ByLayer
370
-1
48
1
60
0
100
AcDbEllipse
10
105.8482
20
5.977106
30
0
11
-1.69826236850985E-15
21
-1.58439303486727
31
0
210
0
220
0
230
1
40
0.996195
41
0
42
6.28318530717959
0
ELLIPSE
5
155
100
AcDbEntity
8
1
62
256
6
ByLayer
370
-1
48
1
60
0
100
AcDbEllipse
10
103.165867
20
8.581131
30
0
11
2.81416266174359E-16
21
0.240228318114594
31
0
210
0
220
0
230
1
40
0.996195
41
0.0698131700797844
42
0.296705972838989
0
ELLIPSE
5
156
100
AcDbEntity
8
1
62
256
6
ByLayer
370
-1
48
1
60
0
100
AcDbEllipse
10
108.379627
20
3.564342
30
0
11
-5.35934686386747E-16
21
-0.500000000000006
31
0
210
0
220
0
230
1
40
0.996195
41
0.296705972839047
42
1.34390352403562
0
ELLIPSE
5
157
100
AcDbEntity
8
1
62
256
6
ByLayer
370
-1
48
1
60
0
100
AcDbEllipse
10
103.890551
20
3.599379
30
0
11
5.78724697506073E-15
21
4.94022831811449
31
0
210
0
220
0
230
1
40
0.996195
41
-1.55479036376002
42
-1.54499037067323
0
ELLIPSE
5
158
100
AcDbEntity
8
1
62
256
6
ByLayer
370
-1
48
1
60
0
100
AcDbEllipse
10
105.828144
20
5.977106
30
0
11
-1.77841723412775E-15
21
-1.65917347701247
31
0
210
0
220
0
230
1
40
0.996195
41
2.21551000470675
42
0
0
ELLIPSE
5
159
100
AcDbEntity
8
1
62
256
6
ByLayer
370
-1
48
1
60
0
100
AcDbEllipse
10
105.828144
20
5.977106
30
0
11
-1.77841723412775E-15
21
-1.65917347701247
31
0
210
0
220
0
230
1
40
0.996195
41
0
42
0.926082326066338
0
ELLIPSE
5
15A
100
AcDbEntity
8
1
62
256
6
ByLayer
370
-1
48
1
60
0
100
AcDbEllipse
10
108.250046
20
8.759352
30
0
11
2.81416266174359E-16
21
0.240228318114594
31
0
210
0
220
0
230
1
40
0.996195
41
-0.226892802759214
42
0
0
ELLIPSE
5
15B
100
AcDbEntity
8
1
62
256
6
ByLayer
370
-1
48
1
60
0
100
AcDbEllipse
10
108.250502
20
8.759352
30
0
11
-3.21560811832048E-16
21
-0.300000000000003
31
0
210
0
220
0
230
1
40
0.996195
41
2.91469985083057
42
-3.14159265358975
0
ELLIPSE
5
15C
100
AcDbEntity
8
1
62
256
6
ByLayer
370
-1
48
1
60
0
100
AcDbEllipse
10
103.224574
20
8.38987
30
0
11
-5.35934686386747E-16
21
-0.500000000000006
31
0
210
0
220
0
230
1
40
0.996195
41
-2.84488668075078
42
-1.79768912955417
0
ELLIPSE
5
15D
100
AcDbEntity
8
1
62
256
6
ByLayer
370
-1
48
1
60
0
100
AcDbEllipse
10
103.83993
20
-1.095241
30
0
11
1.16445136866418E-14
21
9.94022831811422
31
0
210
0
220
0
230
1
40
0.996195
41
0.0538072070448956
42
0.0698131700797845
0
ELLIPSE
5
15E
100
AcDbEntity
8
1
62
256
6
ByLayer
370
-1
48
1
60
0
100
AcDbEllipse
10
112.847535
20
4.007897
30
0
11
-1.07186937277344E-14
21
-9.99999999999964
31
0
210
0
220
0
230
1
40
0.996195
41
-1.51698911975
42
-1.50098315671511
0
ELLIPSE
5
15F
100
AcDbEntity
8
1
62
256
6
ByLayer
370
-1
48
1
60
0
100
AcDbEllipse
10
98.753824
20
7.995256
30
0
11
1.16445136866421E-14
21
9.9402283181145
31
0
210
0
220
0
230
1
40
0.996195
41
-1.53225055769574
42
-1.52678911283681
0
ELLIPSE
5
160
100
AcDbEntity
8
1
62
256
6
ByLayer
370
-1
48
1
60
0
100
AcDbEllipse
10
108.205683
20
8.564478
30
0
11
-5.35934686386747E-16
21
-0.500000000000006
31
0
210
0
220
0
230
1
40
0.996195
41
1.8675022996339
42
2.91469985083048
0
ELLIPSE
5
161
100
AcDbEntity
8
1
62
256
6
ByLayer
370
-1
48
1
60
0
100
AcDbEllipse
10
108.39576
20
8.622953
30
0
11
2.81416266174359E-16
21
0.240228318114594
31
0
210
0
220
0
230
1
40
0.996195
41
-1.50098315671512
42
-1.27409035395586
0
ELLIPSE
5
162
100
AcDbEntity
8
1
62
256
6
ByLayer
370
-1
48
1
60
0
100
AcDbEllipse
10
103.79163
20
-1.097636
30
0
11
-1.07186937277348E-14
21
-9.99999999999999
31
0
210
0
220
0
230
1
40
0.996195
41
-3.10668606854991
42
-3.09758543963171
0
ELLIPSE
5
163
100
AcDbEntity
8
1
62
256
6
ByLayer
370
-1
48
1
60
0
100
AcDbEllipse
10
112.693074
20
8.43486
30
0
11
1.16445136866418E-14
21
9.94022831811422
31
0
210
0
220
0
230
1
40
0.996195
41
1.57079632679489
42
1.58680228982978
0
ELLIPSE
5
164
100
AcDbEntity
8
1
62
256
6
ByLayer
370
-1
48
1
60
0
100
AcDbEllipse
10
103.304441
20
12.893835
30
0
11
1.16445136866421E-14
21
9.9402283181145
31
0
210
0
220
0
230
1
40
0.996195
41
-3.1157866974681
42
-3.11032524091619
0
ELLIPSE
5
165
100
AcDbEntity
8
1
62
256
6
ByLayer
370
-1
48
1
60
0
100
AcDbEllipse
10
108.031243
20
8.056689
30
0
11
5.78724697506073E-15
21
4.94022831811449
31
0
210
0
220
0
230
1
40
0.996195
41
-3.09758543963169
42
-3.0877854465449
0
ELLIPSE
5
166
100
AcDbEntity
8
1
62
256
6
ByLayer
370
-1
48
1
60
0
100
AcDbEllipse
10
108.170324
20
4.058712
30
0
11
5.78724697506073E-15
21
4.94022831811449
31
0
210
0
220
0
230
1
40
0.996195
41
0.0160059630348814
42
0.0258059561216713
0
ELLIPSE
5
167
100
AcDbEntity
8
1
62
256
6
ByLayer
370
-1
48
1
60
0
100
AcDbEllipse
10
103.729975
20
8.215221
30
0
11
5.78724697506073E-15
21
4.94022831811449
31
0
210
0
220
0
230
1
40
0.996195
41
-1.52678911283679
42
-1.51698911975
0
ELLIPSE
5
168
100
AcDbEntity
8
1
62
256
6
ByLayer
370
-1
48
1
60
0
100
AcDbEllipse
10
105.949822
20
5.977106
30
0
11
-1.33983671596685E-15
21
-1.25
31
0
210
0
220
0
230
1
40
0.996195
41
3.14159240058226
42
0
0
ELLIPSE
5
169
100
AcDbEntity
8
1
62
256
6
ByLayer
370
-1
48
1
60
0
100
AcDbEllipse
10
105.949822
20
5.977106
30
0
11
-1.33983671596685E-15
21
-1.25
31
0
210
0
220
0
230
1
40
0.996195
41
0
42
0.0349505431244582
0
ELLIPSE
5
16A
100
AcDbEntity
8
1
62
256
6
ByLayer
370
-1
48
1
60
0
100
AcDbEllipse
10
103.353243
20
12.89486
30
0
11
1.16445136866418E-14
21
9.94022831811422
31
0
210
0
220
0
230
1
40
0.996195
41
3.14159265358978
42
-3.12558669055491
0
ELLIPSE
5
16B
100
AcDbEntity
8
1
62
256
6
ByLayer
370
-1
48
1
60
0
100
AcDbEllipse
10
112.847079
20
4.007897
30
0
11
1.16445136866418E-14
21
9.94022831811422
31
0
210
0
220
0
230
1
40
0.996195
41
1.62460353383979
42
1.64060949687468
0
ELLIPSE
5
16C
100
AcDbEntity
8
1
62
256
6
ByLayer
370
-1
48
1
60
0
100
AcDbEllipse
10
108.437423
20
3.373081
30
0
11
2.81416266174359E-16
21
0.240228318114594
31
0
210
0
220
0
230
1
40
0.996195
41
-3.07177948351013
42
-2.8448866807508
0
ELLIPSE
5
16D
100
AcDbEntity
8
1
62
256
6
ByLayer
370
-1
48
1
60
0
100
AcDbEllipse
10
103.353699
20
12.89486
30
0
11
-1.07186937277344E-14
21
-9.99999999999964
31
0
210
0
220
0
230
1
40
0.996195
41
0
42
0.016005963034878
0
ELLIPSE
5
16E
100
AcDbEntity
8
1
62
256
6
ByLayer
370
-1
48
1
60
0
100
AcDbEllipse
10
108.298849
20
-0.939623
30
0
11
1.16445136866421E-14
21
9.9402283181145
31
0
210
0
220
0
230
1
40
0.996195
41
0.025805956121689
42
0.0312674126735999
0
ELLIPSE
5
16F
100
AcDbEntity
8
1
62
256
6
ByLayer
370
-1
48
1
60
0
100
AcDbEllipse
10
108.437879
20
3.373081
30
0
11
-3.21560811832048E-16
21
-0.300000000000003
31
0
210
0
220
0
230
1
40
0.996195
41
0.069813170079798
42
0.296705972839048
0
ELLIPSE
5
170
100
AcDbEntity
8
1
62
256
6
ByLayer
370
-1
48
1
60
0
100
AcDbEllipse
10
107.87377
20
3.738991
30
0
11
-5.35934686386771E-15
21
-5.00000000000028
31
0
210
0
220
0
230
1
40
0.996195
41
-1.52678911283679
42
-1.51698911975
0
ELLIPSE
5
171
100
AcDbEntity
8
1
62
256
6
ByLayer
370
-1
48
1
60
0
100
AcDbEllipse
10
112.69251
20
8.483849
30
0
11
-1.07186937277348E-14
21
-9.99999999999999
31
0
210
0
220
0
230
1
40
0.996195
41
-1.54499037067321
42
-1.53588974175501
0
ELLIPSE
5
172
100
AcDbEntity
8
1
62
256
6
ByLayer
370
-1
48
1
60
0
100
AcDbEllipse
10
107.76336
20
13.049453
30
0
11
1.16445136866418E-14
21
9.94022831811422
31
0
210
0
220
0
230
1
40
0.996195
41
-3.0877854465449
42
-3.07177948351001
0
ELLIPSE
5
173
100
AcDbEntity
8
1
62
256
6
ByLayer
370
-1
48
1
60
0
100
AcDbEllipse
10
108.379171
20
3.564342
30
0
11
5.15706934637614E-16
21
0.440228318114594
31
0
210
0
220
0
230
1
40
0.996195
41
-2.84488668075078
42
-1.79768912955418
0
ELLIPSE
5
174
100
AcDbEntity
8
1
62
256
6
ByLayer
370
-1
48
1
60
0
100
AcDbEllipse
10
112.692054
20
8.483849
30
0
11
1.16445136866421E-14
21
9.9402283181145
31
0
210
0
220
0
230
1
40
0.996195
41
1.59660228291658
42
1.6020637394685
0
ELLIPSE
5
175
100
AcDbEntity
8
1
62
256
6
ByLayer
370
-1
48
1
60
0
100
AcDbEllipse
10
107.713195
20
8.354834
30
0
11
-5.35934686386771E-15
21
-5.00000000000028
31
0
210
0
220
0
230
1
40
0.996195
41
-1.55479036376002
42
-1.54499037067323
0
ELLIPSE
5
176
100
AcDbEntity
8
1
62
256
6
ByLayer
370
-1
48
1
60
0
100
AcDbEllipse
10
105.784669
20
5.977106
30
0
11
1.98450509329016E-15
21
1.69405389152441
31
0
210
0
220
0
230
1
40
0.996195
41
0
42
6.28318530717959
0
ELLIPSE
5
177
100
AcDbEntity
8
1
62
256
6
ByLayer
370
-1
48
1
60
0
100
AcDbEllipse
10
108.17078
20
4.058712
30
0
11
-5.35934686386771E-15
21
-5.00000000000028
31
0
210
0
220
0
230
1
40
0.996195
41
-3.12558669055491
42
-3.11578669746812
0
ELLIPSE
5
178
100
AcDbEntity
8
1
62
256
6
ByLayer
370
-1
48
1
60
0
100
AcDbEllipse
10
108.57376
20
3.519352
30
0
11
-3.21560811832048E-16
21
-0.300000000000003
31
0
210
0
220
0
230
1
40
0.996195
41
1.34390352403567
42
1.5707963267949
0
ELLIPSE
5
179
100
AcDbEntity
8
1
62
256
6
ByLayer
370
-1
48
1
60
0
100
AcDbEllipse
10
108.205227
20
8.564478
30
0
11
5.15706934637614E-16
21
0.440228318114594
31
0
210
0
220
0
230
1
40
0.996195
41
-1.27409035395587
42
-0.226892802759294
0
ELLIPSE
5
17A
100
AcDbEntity
8
1
62
256
6
ByLayer
370
-1
48
1
60
0
100
AcDbEllipse
10
110.712196
20
-1.745614
30
0
11
-2.81352115015638
21
2.84345435664829E-15
31
0
210
0
220
0
230
1
40
0.996917
41
0.394970502278597
42
0.431537460969237
0
ELLIPSE
5
17B
100
AcDbEntity
8
1
62
256
6
ByLayer
370
-1
48
1
60
0
100
AcDbEllipse
10
107.867764
20
-3.059236
30
0
11
-0.49120224503834
21
4.96428172779883E-16
31
0
210
0
220
0
230
1
40
0.996917
41
3.10668606854989
42
-2.71005519262056
0
ELLIPSE
5
17C
100
AcDbEntity
8
1
62
256
6
ByLayer
370
-1
48
1
60
0
100
AcDbEllipse
10
108.13945
20
-0.631072
30
0
11
0.49999999999999
21
0
31
0
210
0
220
0
230
1
40
0.996917
41
0.0523598775598204
42
0.349065850399583
0
ELLIPSE
5
17D
100
AcDbEntity
8
1
62
256
6
ByLayer
370
-1
48
1
60
0
100
AcDbEllipse
10
107.840089
20
0.188881
30
0
11
0.500000000000144
21
0
31
0
210
0
220
0
230
1
40
0.996917
41
0.349065850399469
42
1.16419196258865
0
ELLIPSE
5
17E
100
AcDbEntity
8
1
62
256
6
ByLayer
370
-1
48
1
60
0
100
AcDbEllipse
10
105.878496
20
-2.197969
30
0
11
1.35
21
0
31
0
210
0
220
0
230
1
40
0.996917
41
1.85353942513309
42
2.48696289997321
0
ELLIPSE
5
17F
100
AcDbEntity
8
1
62
256
6
ByLayer
370
-1
48
1
60
0
100
AcDbEllipse
10
105.878496
20
-2.197969
30
0
11
1.35
21
0
31
0
210
0
220
0
230
1
40
0.996917
41
3.14159234153352
42
-3.29972274782461E-16
0
ELLIPSE
5
180
100
AcDbEntity
8
1
62
256
6
ByLayer
370
-1
48
1
60
0
100
AcDbEllipse
10
108.461611
20
-4.341817
30
0
11
0.500000000000144
21
0
31
0
210
0
220
0
230
1
40
0.996917
41
-1.22173047639544
42
-0.0349065850401116
0
ELLIPSE
5
181
100
AcDbEntity
8
1
62
256
6
ByLayer
370
-1
48
1
60
0
100
AcDbEllipse
10
107.51751
20
-0.633618
30
0
11
-0.49120224503834
21
4.96428172779883E-16
31
0
210
0
220
0
230
1
40
0.996917
41
-3.08923277602998
42
-2.89461999450606
0
ELLIPSE
5
182
100
AcDbEntity
8
1
62
256
6
ByLayer
370
-1
48
1
60
0
100
AcDbEllipse
10
110.712196
20
-1.827996
30
0
11
2.19031606939965
21
0
31
0
210
0
220
0
230
1
40
0.996917
41
-3.08923277510136
42
-2.71005519262057
0
ELLIPSE
5
183
100
AcDbEntity
8
1
62
256
6
ByLayer
370
-1
48
1
60
0
100
AcDbEllipse
10
108.344789
20
-3.456822
30
0
11
-0.199877411459051
21
0.00700145616491039
31
0
210
0
220
0
230
1
40
0.078411
41
0.526345418649194
42
1.57354296984573
0
ELLIPSE
5
184
100
AcDbEntity
8
1
62
256
6
ByLayer
370
-1
48
1
60
0
100
AcDbEllipse
10
107.867764
20
-3.05139
30
0
11
0.317997164281453
21
0
31
0
210
0
220
0
230
1
40
0.996917
41
-0.0349065850398991
42
0.431537460969252
0
ELLIPSE
5
185
100
AcDbEntity
8
1
62
256
6
ByLayer
370
-1
48
1
60
0
100
AcDbEllipse
10
105.878496
20
-2.245444
30
0
11
1.25
21
0
31
0
210
0
220
0
230
1
40
0.996917
41
1.13323161392044
42
2.87053274355023
0
ELLIPSE
5
186
100
AcDbEntity
8
1
62
256
6
ByLayer
370
-1
48
1
60
0
100
AcDbEllipse
10
105.878496
20
-2.245444
30
0
11
1.25
21
0
31
0
210
0
220
0
230
1
40
0.996917
41
-3.14159237122107
42
-3.56370056765057E-16
0
ELLIPSE
5
187
100
AcDbEntity
8
1
62
256
6
ByLayer
370
-1
48
1
60
0
100
AcDbEllipse
10
110.712196
20
-1.949608
30
0
11
2.00000000000009
21
0
31
0
210
0
220
0
230
1
40
0.996917
41
-3.08923277501295
42
-2.69974671309689
0
ELLIPSE
5
188
100
AcDbEntity
8
1
62
256
6
ByLayer
370
-1
48
1
60
0
100
AcDbEllipse
10
107.853886
20
-3.455424
30
0
11
-0.49120224503834
21
4.96428172779883E-16
31
0
210
0
220
0
230
1
40
0.996917
41
2.29977787734963
42
3.10668606854989
0
ELLIPSE
5
189
100
AcDbEntity
8
1
62
256
6
ByLayer
370
-1
48
1
60
0
100
AcDbEllipse
10
107.51751
20
-0.633618
30
0
11
-0.59120224503834
21
5.97492078288119E-16
31
0
210
0
220
0
230
1
40
0.996917
41
-3.08923277602998
42
-2.47146672521936
0
ELLIPSE
5
18A
100
AcDbEntity
8
1
62
256
6
ByLayer
370
-1
48
1
60
0
100
AcDbEllipse
10
108.000305
20
-3.22848
30
0
11
1.00000000000004
21
0
31
0
210
0
220
0
230
1
40
0.996917
41
-0.034906585040108
42
0.441845940492527
0
ELLIPSE
5
18B
100
AcDbEntity
8
1
62
256
6
ByLayer
370
-1
48
1
60
0
100
AcDbEllipse
10
105.878496
20
-2.197969
30
0
11
1.25
21
0
31
0
210
0
220
0
230
1
40
0.996917
41
1.28854364210873
42
2.89095229547494
0
ELLIPSE
5
18C
100
AcDbEntity
8
1
62
256
6
ByLayer
370
-1
48
1
60
0
100
AcDbEllipse
10
105.878496
20
-2.197969
30
0
11
1.25
21
0
31
0
210
0
220
0
230
1
40
0.996917
41
-3.14159237122107
42
-3.56370056765057E-16
0
ELLIPSE
5
18D
100
AcDbEntity
8
1
62
256
6
ByLayer
370
-1
48
1
60
0
100
AcDbEllipse
10
107.853886
20
-3.455424
30
0
11
-0.591202245038341
21
5.97492078288121E-16
31
0
210
0
220
0
230
1
40
0.996917
41
2.29977787734967
42
3.10668606854989
0
ELLIPSE
5
18E
100
AcDbEntity
8
1
62
256
6
ByLayer
370
-1
48
1
60
0
100
AcDbEllipse
10
110.712196
20
-1.75346
30
0
11
2.64031606939949
21
0
31
0
210
0
220
0
230
1
40
0.996917
41
-3.08923277525973
42
-2.71005519262056
0
ELLIPSE
5
18F
100
AcDbEntity
8
1
62
256
6
ByLayer
370
-1
48
1
60
0
100
AcDbEllipse
10
108.358667
20
-3.060634
30
0
11
-0.199877411459051
21
0.00700145616491039
31
0
210
0
220
0
230
1
40
0.078411
41
0.526345418649194
42
1.57354296984573
0
ELLIPSE
5
190
100
AcDbEntity
8
1
62
256
6
ByLayer
370
-1
48
1
60
0
100
AcDbEllipse
10
107.853886
20
-3.447578
30
0
11
0.317997164281453
21
0
31
0
210
0
220
0
230
1
40
0.996917
41
-0.340736875057141
42
-0.0349065850398963
0
ELLIPSE
5
191
100
AcDbEntity
8
1
62
256
6
ByLayer
370
-1
48
1
60
0
100
AcDbEllipse
10
108.313934
20
-2.838723
30
0
11
-0.181566402711963
21
-0.0838668075357429
31
0
210
0
220
0
230
1
40
0.071266
41
0.490692267778496
42
1.53788981897461
0
ELLIPSE
5
192
100
AcDbEntity
8
1
62
256
6
ByLayer
370
-1
48
1
60
0
100
AcDbEllipse
10
107.867764
20
-3.059236
30
0
11
-0.59120224503834
21
5.97492078288119E-16
31
0
210
0
220
0
230
1
40
0.996917
41
3.10668606854989
42
-2.71005519262056
0
ELLIPSE
5
193
100
AcDbEntity
8
1
62
256
6
ByLayer
370
-1
48
1
60
0
100
AcDbEllipse
10
110.712196
20
-1.75346
30
0
11
2.54031606939949
21
0
31
0
210
0
220
0
230
1
40
0.996917
41
-3.0892327752294
42
-2.71005519262056
0
POINT
5
41
100
AcDbEntity
8
81
62
256
6
ByLayer
370
-1
48
1
60
0
100
AcDbPoint
10
109
20
0
30
0
39
0
210
0
220
0
230
1
50
360
0
POINT
5
43
100
AcDbEntity
8
80
62
256
6
ByLayer
370
-1
48
1
60
0
100
AcDbPoint
10
0
20
0
30
0
39
0
210
0
220
0
230
1
50
360
0
SPLINE
5
194
100
AcDbEntity
8
1
62
256
6
ByLayer
370
-1
48
1
60
0
100
AcDbSpline
70
4
71
3
72
18
73
14
40
0
40
0
40
0
40
0
40
0.102439280709858
40
0.20747278331252
40
0.313465712772059
40
0.418692249286076
40
0.521499476013862
40
0.651645050356574
40
0.777042011507885
40
0.835418747581232
40
0.890754561353826
40
0.944519447579863
40
1
40
1
40
1
40
1
41
1
10
16
20
8.86499999999998
30
0
41
1
10
15.527115503318
20
8.8656376210113
30
0
41
1
10
14.5862586424055
20
8.94814680131208
30
0
41
1
10
13.1952669006835
20
9.32575296722572
30
0
41
1
10
11.8878068781147
20
9.95279490554768
30
0
41
1
10
10.718239919311
20
10.7959429327119
30
0
41
1
10
9.65493557106703
20
11.9252262885722
30
0
41
1
10
8.71967331765279
20
13.267475549598
30
0
41
1
10
7.85026507330059
20
14.4100938736603
30
0
41
1
10
7.07325457797813
20
15.1804477792688
30
0
41
1
10
6.45192785728307
20
15.6313567069214
30
0
41
1
10
5.7520051695343
20
15.9335121796204
30
0
41
1
10
5.25979494915455
20
15.9984402009699
30
0
41
1
10
5.00000000000003
20
16
30
0
0
SPLINE
5
195
100
AcDbEntity
8
1
62
256
6
ByLayer
370
-1
48
1
60
0
100
AcDbSpline
70
4
71
3
72
18
73
14
40
0
40
0
40
0
40
0
40
0.0554805524201367
40
0.109245438646174
40
0.164581252418768
40
0.222957988492115
40
0.348354949643426
40
0.478500523986138
40
0.581307750713924
40
0.686534287227941
40
0.79252721668748
40
0.897560719290143
40
1
40
1
40
1
40
1
41
1
10
4.99999999999997
20
-16
30
0
41
1
10
5.2597949491545
20
-15.9984402009699
30
0
41
1
10
5.75200516953424
20
-15.9335121796205
30
0
41
1
10
6.45192785728301
20
-15.6313567069214
30
0
41
1
10
7.07325457797808
20
-15.1804477792688
30
0
41
1
10
7.85026507330053
20
-14.4100938736603
30
0
41
1
10
8.71967331765273
20
-13.267475549598
30
0
41
1
10
9.65493557106703
20
-11.9252262885722
30
0
41
1
10
10.718239919311
20
-10.795942932712
30
0
41
1
10
11.8878068781147
20
-9.95279490554768
30
0
41
1
10
13.1952669006835
20
-9.32575296722578
30
0
41
1
10
14.5862586424055
20
-8.94814680131213
30
0
41
1
10
15.5271155033181
20
-8.86563762101136
30
0
41
1
10
16
20
-8.86500000000004
30
0
0
SPLINE
5
196
100
AcDbEntity
8
1
62
256
6
ByLayer
370
-1
48
1
60
0
100
AcDbSpline
70
4
71
3
72
20
73
16
40
0
40
0
40
0
40
0
40
0.0347374990023623
40
0.120502631827165
40
0.206067200958285
40
0.291145710003037
40
0.375628898564941
40
0.459578796341609
40
0.543191442056213
40
0.626736727364837
40
0.710411131649095
40
0.794456105681957
40
0.879037736605647
40
0.964188749141063
40
1
40
1
40
1
40
1
41
1
10
105.920842340232
20
7.21616246062743
30
0
41
1
10
105.965358841765
20
7.22175239308143
30
0
41
1
10
106.118460348699
20
7.23032882831072
30
0
41
1
10
106.379062935679
20
7.16275526129749
30
0
41
1
10
106.672921200744
20
7.01013063723144
30
0
41
1
10
106.916152052592
20
6.78070625488667
30
0
41
1
10
107.091035491173
20
6.49622393931193
30
0
41
1
10
107.185692788688
20
6.17574551064186
30
0
41
1
10
107.194027237366
20
5.84223978609802
30
0
41
1
10
107.11602789236
20
5.51879495582389
30
0
41
1
10
106.957567878072
20
5.22756408773373
30
0
41
1
10
106.729615803261
20
4.98821579201277
30
0
41
1
10
106.447924613322
20
4.8169544820812
30
0
41
1
10
106.19188776132
20
4.74343201412364
30
0
41
1
10
106.038625387512
20
4.72948732637775
30
0
41
1
10
105.992695151596
20
4.72785725334234
30
0
0
SPLINE
5
197
100
AcDbEntity
8
1
62
256
6
ByLayer
370
-1
48
1
60
0
100
AcDbSpline
70
4
71
3
72
13
73
9
40
0
40
0
40
0
40
0
40
0.0560578056547534
40
0.272867879796606
40
0.488683234977275
40
0.703272851975439
40
0.916756224932864
40
1
40
1
40
1
40
1
41
1
10
104.676295192771
20
-1.89991184880901
30
0
41
1
10
104.684921442964
20
-1.87260145823726
30
0
41
1
10
104.731747570498
20
-1.74093822258905
30
0
41
1
10
104.846186682579
20
-1.5196212838857
30
0
41
1
10
105.0762085904
20
-1.27616337576833
30
0
41
1
10
105.360682624209
20
-1.10125087503619
30
0
41
1
10
105.617472207916
20
-1.02579161910114
30
0
41
1
10
105.769518865538
20
-1.01007868108451
30
0
41
1
10
105.812721685419
20
-1.00779611050828
30
0
0
SPLINE
5
198
100
AcDbEntity
8
1
62
256
6
ByLayer
370
-1
48
1
60
0
100
AcDbSpline
70
4
71
3
72
10
73
6
40
0
40
0
40
0
40
0
40
0.168188472290478
40
0.693136513613582
40
1
40
1
40
1
40
1
41
1
10
105.812721685419
20
-1.00779611050828
30
0
41
1
10
105.847925900451
20
-1.00596868201825
30
0
41
1
10
105.992239161047
20
-1.00441875468891
30
0
41
1
10
106.201064012903
20
-1.03847826636502
30
0
41
1
10
106.363343600766
20
-1.10134333348029
30
0
41
1
10
106.42101887518
20
-1.12889598705996
30
0
0
SPLINE
5
199
100
AcDbEntity
8
1
62
256
6
ByLayer
370
-1
48
1
60
0
100
AcDbSpline
70
4
71
3
72
10
73
6
40
0
40
0
40
0
40
0
40
0.5
40
0.5
40
1
40
1
40
1
40
1
41
1
10
101.205453005875
20
5.53060468409501
30
0
41
1
10
101.205453005875
20
5.49066024309187
30
0
41
1
10
101.200648401114
20
5.45131434312518
30
0
41
1
10
101.181789312593
20
5.37377486111134
30
0
41
1
10
101.167720953949
20
5.33600394381963
30
0
41
1
10
101.149663983179
20
5.30050259611315
30
0
0
SPLINE
5
19A
100
AcDbEntity
8
1
62
256
6
ByLayer
370
-1
48
1
60
0
100
AcDbSpline
70
4
71
3
72
8
73
4
40
0
40
0
40
0
40
0
40
1
40
1
40
1
40
1
41
1
10
98.6294630645605
20
-8.62228051673438
30
0
41
1
10
98.9618530176168
20
-8.62791466275186
30
0
41
1
10
99.2844245681557
20
-8.63772737091955
30
0
41
1
10
99.5975922967178
20
-8.64913456864466
30
0
0
SPLINE
5
19B
100
AcDbEntity
8
1
62
256
6
ByLayer
370
-1
48
1
60
0
100
AcDbSpline
70
4
71
3
72
8
73
4
40
0
40
0
40
0
40
0
40
1
40
1
40
1
40
1
41
1
10
99.6520197084111
20
3.10728489771927
30
0
41
1
10
99.9495774878135
20
2.98652344925128
30
0
41
1
10
100.260221033199
20
2.8902074512088
30
0
41
1
10
100.587873328485
20
2.82027809718088
30
0
0
SPLINE
5
19C
100
AcDbEntity
8
1
62
256
6
ByLayer
370
-1
48
1
60
0
100
AcDbSpline
70
4
71
3
72
14
73
10
40
0
40
0
40
0
40
0
40
0.168010327201086
40
0.168010327201086
40
0.584005163600543
40
0.584005163600543
40
0.792002581800272
40
0.792002581800272
40
1
40
1
40
1
40
1
41
1
10
76.0697984141507
20
7.16856432474
30
0
41
1
10
77.2144496351843
20
7.29529524562096
30
0
41
1
10
78.3592936796002
20
7.41491725303081
30
0
41
1
10
82.3398952787819
20
7.80468968561726
30
0
41
1
10
85.1735870375089
20
8.03633213385243
30
0
41
1
10
89.4239850648836
20
8.30879521798673
30
0
41
1
10
90.8407932960038
20
8.38712760172106
30
0
41
1
10
93.6748062125684
20
8.51821775288536
30
0
41
1
10
95.0921219210314
20
8.57085790008438
30
0
41
1
10
96.5098180813513
20
8.61049629853537
30
0
0
SPLINE
5
19D
100
AcDbEntity
8
1
62
256
6
ByLayer
370
-1
48
1
60
0
100
AcDbSpline
70
4
71
3
72
14
73
10
40
0
40
0
40
0
40
0
40
0.25
40
0.25
40
0.5
40
0.5
40
0.75
40
0.75
40
1
40
1
40
1
40
1
41
1
10
102.551230155182
20
8.6999422250635
30
0
41
1
10
102.555383594968
20
8.70011547180485
30
0
41
1
10
102.565060119615
20
8.69989446573311
30
0
41
1
10
102.595059575105
20
8.69879887589067
30
0
41
1
10
102.615681877432
20
8.69790965105597
30
0
41
1
10
102.665735671283
20
8.69575919666431
30
0
41
1
10
102.695593546398
20
8.69448163896786
30
0
41
1
10
102.763536955279
20
8.6918492077038
30
0
41
1
10
102.800990172509
20
8.69051876654996
30
0
41
1
10
102.841970043642
20
8.68930730304714
30
0
0
SPLINE
5
19E
100
AcDbEntity
8
1
62
256
6
ByLayer
370
-1
48
1
60
0
100
AcDbSpline
70
4
71
2
72
6
73
3
40
0
40
0
40
0
40
1
40
1
40
1
41
1
10
7.97115882154904
20
-3.0669431662991
30
0
41
1
10
7.97115882154907
20
-4.13427342013145
30
0
41
1
10
7.9711588215491
20
-5.20160367396383
30
0
0
SPLINE
5
19F
100
AcDbEntity
8
1
62
256
6
ByLayer
370
-1
48
1
60
0
100
AcDbSpline
70
4
71
3
72
8
73
4
40
0
40
0
40
0
40
0
40
1
40
1
40
1
40
1
41
1
10
12.5325269166298
20
4.65547508247863
30
0
41
1
10
14.0410110476275
20
3.63304527856283
30
0
41
1
10
15.5405299310984
20
2.6144916675168
30
0
41
1
10
17.0294630646116
20
1.60318526229685
30
0
0
SPLINE
5
1A0
100
AcDbEntity
8
1
62
256
6
ByLayer
370
-1
48
1
60
0
100
AcDbSpline
70
4
71
3
72
28
73
24
40
0
40
0
40
0
40
0
40
0.0625000000000003
40
0.0625000000000003
40
0.0937500000000001
40
0.0937500000000001
40
0.125
40
0.125
40
0.1875
40
0.1875
40
0.25
40
0.25
40
0.375
40
0.375
40
0.5
40
0.5
40
0.625
40
0.625
40
0.6875
40
0.6875
40
0.75
40
0.75
40
1
40
1
40
1
40
1
41
1
10
7.97115882154912
20
-5.20160367396383
30
0
41
1
10
7.89722409185168
20
-5.18662466034334
30
0
41
1
10
7.8263700945472
20
-5.15950447456146
30
0
41
1
10
7.72475026450661
20
-5.10032345389214
30
0
41
1
10
7.69165446088252
20
-5.0775136634042
30
0
41
1
10
7.62703181449524
20
-5.02567695704388
30
0
41
1
10
7.59545812227634
20
-4.99655371402847
30
0
41
1
10
7.50507514604678
20
-4.90209342779497
30
0
41
1
10
7.449843028202
20
-4.82918314945252
30
0
41
1
10
7.34795301656413
20
-4.66641462481101
30
0
41
1
10
7.30129012668402
20
-4.57624374185076
30
0
41
1
10
7.17604192622733
20
-4.29278988372016
30
0
41
1
10
7.11006642843901
20
-4.08422497356423
30
0
41
1
10
7.001227587941
20
-3.64032878646842
30
0
41
1
10
6.9599283157554
20
-3.4110498020635
30
0
41
1
10
6.89415986470746
20
-2.94258511582385
30
0
41
1
10
6.86982025496312
20
-2.70327711638183
30
0
41
1
10
6.84225315574548
20
-2.33830590232654
30
0
41
1
10
6.83456320987227
20
-2.21535618731443
30
0
41
1
10
6.82182556862284
20
-1.96940398412039
30
0
41
1
10
6.81676541856052
20
-1.84633771359017
30
0
41
1
10
6.7968226312461
20
-1.23059414914434
30
0
41
1
10
6.79750215555845
20
-0.736700948342502
30
0
41
1
10
6.80511265633794
20
-0.241773128019275
30
0
0
SPLINE
5
1A1
100
AcDbEntity
8
1
62
256
6
ByLayer
370
-1
48
1
60
0
100
AcDbSpline
70
4
71
3
72
8
73
4
40
0
40
0
40
0
40
0
40
1
40
1
40
1
40
1
41
1
10
99.3113576939205
20
1.84033197993995
30
0
41
1
10
99.1831117704946
20
1.87784499418927
30
0
41
1
10
99.0571240631549
20
1.91822695282028
30
0
41
1
10
98.9330823274613
20
1.96186460807655
30
0
0
SPLINE
5
1A2
100
AcDbEntity
8
1
62
256
6
ByLayer
370
-1
48
1
60
0
100
AcDbSpline
70
4
71
3
72
8
73
4
40
0
40
0
40
0
40
0
40
1
40
1
40
1
40
1
41
1
10
12.5325269166285
20
4.65547508247951
30
0
41
1
10
12.0875115059627
20
4.79202478291776
30
0
41
1
10
11.6650344385913
20
4.92660166424139
30
0
41
1
10
11.2659262836964
20
5.07328883668512
30
0
0
SPLINE
5
1A3
100
AcDbEntity
8
1
62
256
6
ByLayer
370
-1
48
1
60
0
100
AcDbSpline
70
4
71
3
72
14
73
10
40
0
40
0
40
0
40
0
40
0.5
40
0.5
40
0.625000000000003
40
0.625000000000003
40
0.750000000000007
40
0.750000000000007
40
1
40
1
40
1
40
1
41
1
10
101.502617446929
20
0.809485908962472
30
0
41
1
10
101.02820263775
20
0.781198101429055
30
0
41
1
10
100.560039937906
20
0.811760689135895
30
0
41
1
10
99.9826196376606
20
0.922982821268647
30
0
41
1
10
99.8675312246233
20
0.948935603230382
30
0
41
1
10
99.6381720092726
20
1.00848358769107
30
0
41
1
10
99.5240454094322
20
1.04206797158534
30
0
41
1
10
99.1867409779058
20
1.15331767611323
30
0
41
1
10
98.9673738422105
20
1.24174280646375
30
0
41
1
10
98.7536860841906
20
1.34470409480755
30
0
0
SPLINE
5
1A4
100
AcDbEntity
8
1
62
256
6
ByLayer
370
-1
48
1
60
0
100
AcDbSpline
70
4
71
3
72
42
73
38
40
0
40
0
40
0
40
0
40
0.015659067573077
40
0.0423168393398017
40
0.0689746111065264
40
0.0956323828732509
40
0.122290154639976
40
0.1489479264067
40
0.175605698173425
40
0.20226346994015
40
0.228921241706875
40
0.255579013473599
40
0.282236785240324
40
0.308894557007048
40
0.335552328773773
40
0.362210100540498
40
0.388867872307222
40
0.415525644073947
40
0.442183415840672
40
0.468841187607396
40
0.482170073490759
40
0.495498959374121
40
0.508827845257483
40
0.522156731140846
40
0.575472274674295
40
0.628787818207744
40
0.682103361741194
40
0.735418905274643
40
0.762076677041368
40
0.788734448808092
40
0.802063334691455
40
0.815392220574817
40
0.828721106458179
40
0.842049992341542
40
0.895365535874991
40
0.94868107940844
40
1
40
1
40
1
40
1
41
1
10
11.2659262837194
20
5.07328883669274
30
0
41
1
10
11.2276369908151
20
5.06054386800488
30
0
41
1
10
11.1238010482878
20
5.02444398689505
30
0
41
1
10
10.9532191124944
20
4.9582833052566
30
0
41
1
10
10.7541523908131
20
4.870840297483
30
0
41
1
10
10.5545313430289
20
4.77278559417371
30
0
41
1
10
10.3550854020206
20
4.6642398314458
30
0
41
1
10
10.1565759925302
20
4.54548916438972
30
0
41
1
10
9.95976453929998
20
4.41681974809589
30
0
41
1
10
9.76540732619878
20
4.2786769617822
30
0
41
1
10
9.57426063709553
20
4.13150618466651
30
0
41
1
10
9.38703728076143
20
3.97589239167982
30
0
41
1
10
9.20445006596779
20
3.81242055775317
30
0
41
1
10
9.0271326476614
20
3.6417857608547
30
0
41
1
10
8.85571868078918
20
3.46468307895262
30
0
41
1
10
8.69073405122967
20
3.2818800548728
30
0
41
1
10
8.5327046448615
20
3.09414423144122
30
0
41
1
10
8.38203292862534
20
2.90228206367277
30
0
41
1
10
8.23912136946186
20
2.70710000658246
30
0
41
1
10
8.12668670936063
20
2.54229811132097
30
0
41
1
10
8.04084886978529
20
2.40953632254926
30
0
41
1
10
7.97858944037242
20
2.30967961649918
30
0
41
1
10
7.91851296724391
20
2.20971231778773
30
0
41
1
10
7.80118560914414
20
2.00703763610289
30
0
41
1
10
7.63619477395585
20
1.69278480254215
30
0
41
1
10
7.44451370507369
20
1.25668498043055
30
0
41
1
10
7.28553056274484
20
0.809163599447345
30
0
41
1
10
7.18334421689886
20
0.432013528436641
30
0
41
1
10
7.12112534264548
20
0.131153523294529
30
0
41
1
10
7.09053951474883
20
-0.0558105968167411
30
0
41
1
10
7.07114946403965
20
-0.204308846099337
30
0
41
1
10
7.0591515308559
20
-0.315042813953681
30
0
41
1
10
7.04970350156421
20
-0.425033866995989
30
0
41
1
10
7.03591784885296
20
-0.643323752047792
30
0
41
1
10
7.03444313463686
20
-0.963638782969213
30
0
41
1
10
7.07208103419217
20
-1.36444949398944
30
0
41
1
10
7.1214402527014
20
-1.61304009392012
30
0
41
1
10
7.15107790405773
20
-1.73028050671005
30
0
0
SPLINE
5
1A5
100
AcDbEntity
8
1
62
256
6
ByLayer
370
-1
48
1
60
0
100
AcDbSpline
70
4
71
3
72
8
73
4
40
0
40
0
40
0
40
0
40
1
40
1
40
1
40
1
41
1
10
101.501407376557
20
2.70021708301465
30
0
41
1
10
101.667011125182
20
2.69231496783189
30
0
41
1
10
101.832121491536
20
2.69129632928122
30
0
41
1
10
101.996749797715
20
2.6970493131486
30
0
0
SPLINE
5
1A6
100
AcDbEntity
8
1
62
256
6
ByLayer
370
-1
48
1
60
0
100
AcDbSpline
70
4
71
3
72
14
73
10
40
0
40
0
40
0
40
0
40
0.25
40
0.25
40
0.5
40
0.5
40
0.75
40
0.75
40
1
40
1
40
1
40
1
41
1
10
62.5
20
8.31842349393287
30
0
41
1
10
64.9348821093798
20
8.17894150006006
30
0
41
1
10
67.3683109492413
20
8.00197671650881
30
0
41
1
10
72.2348809081868
20
7.5782568429166
30
0
41
1
10
74.6680165908398
20
7.33153918464205
30
0
41
1
10
79.5362134879844
20
6.77430116237252
30
0
41
1
10
81.9713266480298
20
6.46376464834347
30
0
41
1
10
86.8389786058324
20
5.78815663381531
30
0
41
1
10
89.2724038138745
20
5.42304542748633
30
0
41
1
10
91.7066110699707
20
5.03533090651609
30
0
0
SPLINE
5
1A7
100
AcDbEntity
8
1
62
256
6
ByLayer
370
-1
48
1
60
0
100
AcDbSpline
70
4
71
3
72
18
73
14
40
0
40
0
40
0
40
0
40
0.282581946789198
40
0.282581946789198
40
0.565163893578395
40
0.565163893578395
40
0.706454866972995
40
0.706454866972995
40
0.847745840367594
40
0.847745840367594
40
0.989036813762194
40
0.989036813762194
40
1
40
1
40
1
40
1
41
1
10
7.39100451870016
20
-2.24912695424459
30
0
41
1
10
7.29152626045146
20
-2.05412641147049
30
0
41
1
10
7.20397673471138
20
-1.85979897951864
30
0
41
1
10
7.05218009922763
20
-1.4785223790559
30
0
41
1
10
6.98788954778337
20
-1.29149881605937
30
0
41
1
10
6.91039567936312
20
-1.02347075945781
30
0
41
1
10
6.88774310376806
20
-0.936116699450366
30
0
41
1
10
6.85005177930586
20
-0.770396227634365
30
0
41
1
10
6.83489107521999
20
-0.691654182276608
30
0
41
1
10
6.81234542680286
20
-0.544041973397668
30
0
41
1
10
6.80495970407654
20
-0.475179729115752
30
0
41
1
10
6.80153246581588
20
-0.407103101543953
30
0
41
1
10
6.80131118713362
20
-0.402232942337036
30
0
41
1
10
6.80111552767329
20
-0.397396492106566
30
0
0
SPLINE
5
1A8
100
AcDbEntity
8
1
62
256
6
ByLayer
370
-1
48
1
60
0
100
AcDbSpline
70
4
71
3
72
8
73
4
40
0
40
0
40
0
40
0
40
1
40
1
40
1
40
1
41
1
10
17.0294630646118
20
3.41340864920647
30
0
41
1
10
18.352953576512
20
3.16991737212808
30
0
41
1
10
19.6762713727239
20
2.92155265206631
30
0
41
1
10
21
20
2.67112258307
30
0
0
SPLINE
5
1A9
100
AcDbEntity
8
1
62
256
6
ByLayer
370
-1
48
1
60
0
100
AcDbSpline
70
4
71
3
72
16
73
12
40
0
40
0
40
0
40
0
40
0.159805086548392
40
0.327844069238713
40
0.411863560583874
40
0.495883051929035
40
0.663922034619357
40
0.747941525964517
40
0.831961017309678
40
0.915980508654839
40
1
40
1
40
1
40
1
41
1
10
32.2054641945198
20
0.481274096748592
30
0
41
1
10
31.3970713508573
20
0.544050424692699
30
0
41
1
10
29.7384411323901
20
0.672761565601661
30
0
41
1
10
27.6544904092467
20
0.833513003088939
30
0
41
1
10
25.954227614539
20
0.962717092462668
30
0
41
1
10
24.2545067172654
20
1.08927859275792
30
0
41
1
10
22.5546102624003
20
1.21177057917382
30
0
41
1
10
20.8536812157559
20
1.33307946504658
30
0
41
1
10
19.5778845756446
20
1.42387387485016
30
0
41
1
10
18.3026451273766
20
1.51429669542179
30
0
41
1
10
17.4535494093087
20
1.57386616858813
30
0
41
1
10
17.0294630646144
20
1.60318526229645
30
0
0
SPLINE
5
1AA
100
AcDbEntity
8
1
62
256
6
ByLayer
370
-1
48
1
60
0
100
AcDbSpline
70
4
71
3
72
22
73
18
40
0
40
0
40
0
40
0
40
0.125
40
0.125
40
0.25
40
0.25
40
0.375
40
0.375
40
0.5
40
0.5
40
0.625
40
0.625
40
0.75
40
0.75
40
0.875
40
0.875
40
1
40
1
40
1
40
1
41
1
10
17.0294630646144
20
1.60318526229642
30
0
41
1
10
16.6228015318674
20
1.55227144799289
30
0
41
1
10
16.2064320102937
20
1.42884373976011
30
0
41
1
10
15.392215611225
20
1.04820698093999
30
0
41
1
10
14.9944840353427
20
0.791051832524317
30
0
41
1
10
14.2540145063811
20
0.166499376293217
30
0
41
1
10
13.9113814115815
20
-0.200809488320317
30
0
41
1
10
13.3125384914858
20
-1.01202416168775
30
0
41
1
10
13.0564134686506
20
-1.45581509390499
30
0
41
1
10
12.6540938133714
20
-2.37932695255793
30
0
41
1
10
12.5079561536254
20
-2.85891709999348
30
0
41
1
10
12.3390408933503
20
-3.81006669306387
30
0
41
1
10
12.3162872130001
20
-4.28149144590446
30
0
41
1
10
12.3962610142697
20
-5.17308573792863
30
0
41
1
10
12.4989771707575
20
-5.59312901797543
30
0
41
1
10
12.8205087383249
20
-6.34343448008457
30
0
41
1
10
13.0392786171501
20
-6.67359041099567
30
0
41
1
10
13.3060856899239
20
-6.94370802175945
30
0
0
SPLINE
5
1AB
100
AcDbEntity
8
1
62
256
6
ByLayer
370
-1
48
1
60
0
100
AcDbSpline
70
4
71
3
72
10
73
6
40
0
40
0
40
0
40
0
40
0.5
40
0.5
40
1
40
1
40
1
40
1
41
1
10
100.601128990582
20
-8.66196150946786
30
0
41
1
10
100.856299360793
20
-8.66498661333543
30
0
41
1
10
101.105965957039
20
-8.6696819062704
30
0
41
1
10
101.594668748003
20
-8.68030323530249
30
0
41
1
10
101.833704938852
20
-8.68624059089134
30
0
41
1
10
102.067231367724
20
-8.69111416826178
30
0
0
SPLINE
5
1AC
100
AcDbEntity
8
1
62
256
6
ByLayer
370
-1
48
1
60
0
100
AcDbSpline
70
4
71
3
72
18
73
14
40
0
40
0
40
0
40
0
40
0.250000000000002
40
0.250000000000002
40
0.375000000000002
40
0.375000000000002
40
0.500000000000003
40
0.500000000000003
40
0.750000000000001
40
0.750000000000001
40
0.875000000000001
40
0.875000000000001
40
1
40
1
40
1
40
1
41
1
10
13.3060871520538
20
-6.94370950203035
30
0
41
1
10
13.4850663491081
20
-7.066919180192
30
0
41
1
10
13.6752316578321
20
-7.17639809321659
30
0
41
1
10
13.9782371493267
20
-7.32073496525166
30
0
41
1
10
14.0825355992863
20
-7.36564053304636
30
0
41
1
10
14.2958657101433
20
-7.44812547203085
30
0
41
1
10
14.4042126328729
20
-7.48547064986076
30
0
41
1
10
14.7342444236341
20
-7.58627718795461
30
0
41
1
10
14.9608982794902
20
-7.63858393387486
30
0
41
1
10
15.3110007835515
20
-7.69511281593142
30
0
41
1
10
15.4293939369564
20
-7.71028181837326
30
0
41
1
10
15.6696643994029
20
-7.73310793678903
30
0
41
1
10
15.7916277737405
20
-7.74073633266352
30
0
41
1
10
15.9137291413934
20
-7.74445362288961
30
0
0
SPLINE
5
1AD
100
AcDbEntity
8
1
62
256
6
ByLayer
370
-1
48
1
60
0
100
AcDbSpline
70
4
71
3
72
74
73
70
40
-0.0312499999999983
40
-0.0312499999999983
40
0
40
0
40
0.031250000000003
40
0.031250000000003
40
0.0468750000000045
40
0.0468750000000045
40
0.0625000000000061
40
0.0625000000000061
40
0.0937500000000092
40
0.0937500000000092
40
0.125000000000012
40
0.125000000000012
40
0.156250000000015
40
0.156250000000015
40
0.187500000000018
40
0.187500000000018
40
0.218750000000022
40
0.218750000000022
40
0.250000000000024
40
0.250000000000024
40
0.281250000000028
40
0.281250000000028
40
0.312500000000031
40
0.312500000000031
40
0.328125000000032
40
0.328125000000032
40
0.343750000000034
40
0.343750000000034
40
0.375000000000032
40
0.375000000000032
40
0.406250000000031
40
0.406250000000031
40
0.437500000000029
40
0.437500000000029
40
0.468750000000027
40
0.468750000000027
40
0.500000000000026
40
0.500000000000026
40
0.531250000000024
40
0.531250000000024
40
0.562500000000023
40
0.562500000000023
40
0.593750000000021
40
0.593750000000021
40
0.625000000000019
40
0.625000000000019
40
0.656250000000018
40
0.656250000000018
40
0.687500000000016
40
0.687500000000016
40
0.718750000000015
40
0.718750000000015
40
0.750000000000013
40
0.750000000000013
40
0.781250000000011
40
0.781250000000011
40
0.81250000000001
40
0.81250000000001
40
0.843750000000008
40
0.843750000000008
40
0.875000000000006
40
0.875000000000006
40
0.906250000000005
40
0.906250000000005
40
0.937500000000003
40
0.937500000000003
40
0.968750000000002
40
0.968750000000002
40
1
40
1
40
1.03125
40
1.03125
41
1
10
104.533942842784
20
-1.68603880326799
30
0
41
1
10
104.525786818467
20
-1.52758788021501
30
0
41
1
10
104.52926786973
20
-1.4490326243799
30
0
41
1
10
104.545621108602
20
-1.33219903535832
30
0
41
1
10
104.552940218444
20
-1.29342247530931
30
0
41
1
10
104.57143745687
20
-1.21622202046612
30
0
41
1
10
104.582685816474
20
-1.17764487329572
30
0
41
1
10
104.621645440158
20
-1.06488857995211
30
0
41
1
10
104.654623717494
20
-0.992972122764314
30
0
41
1
10
104.734646957869
20
-0.855734487588251
30
0
41
1
10
104.782270833284
20
-0.789955247280034
30
0
41
1
10
104.888061575374
20
-0.670931242608049
30
0
41
1
10
104.946484546221
20
-0.616985895873512
30
0
41
1
10
105.07465597672
20
-0.520553250598539
30
0
41
1
10
105.143834486416
20
-0.478717860266073
30
0
41
1
10
105.287594733697
20
-0.410329848572815
30
0
41
1
10
105.363319836425
20
-0.383154690494791
30
0
41
1
10
105.519539202692
20
-0.344458902604174
30
0
41
1
10
105.598442155098
20
-0.333217973067235
30
0
41
1
10
105.757791624003
20
-0.326518278792747
30
0
41
1
10
105.839068352739
20
-0.331294204162191
30
0
41
1
10
105.996788856175
20
-0.356703043870851
30
0
41
1
10
106.073753803582
20
-0.377148013979422
30
0
41
1
10
106.186322969126
20
-0.419559641145042
30
0
41
1
10
106.223494412771
20
-0.435755593278685
30
0
41
1
10
106.295249457408
20
-0.471430971738187
30
0
41
1
10
106.330019250331
20
-0.490964289499004
30
0
41
1
10
106.431072689969
20
-0.554541713710194
30
0
41
1
10
106.494437709347
20
-0.603810124981578
30
0
41
1
10
106.610818852571
20
-0.714846190512844
30
0
41
1
10
106.662564607424
20
-0.775282239550279
30
0
41
1
10
106.753664995324
20
-0.90555008960979
30
0
41
1
10
106.793284635294
20
-0.976204705778571
30
0
41
1
10
106.857024320238
20
-1.12174094439152
30
0
41
1
10
106.881523909047
20
-1.19686729421909
30
0
41
1
10
106.915976256067
20
-1.35171992542592
30
0
41
1
10
106.925670251932
20
-1.4311544273209
30
0
41
1
10
106.929877765131
20
-1.5880422496075
30
0
41
1
10
106.924597629176
20
-1.6663313933386
30
0
41
1
10
106.89900223165
20
-1.82244705756227
30
0
41
1
10
106.879078404638
20
-1.89793792409358
30
0
41
1
10
106.825654828002
20
-2.04408851717372
30
0
41
1
10
106.791761232125
20
-2.11536828845212
30
0
41
1
10
106.711398011405
20
-2.24974550869766
30
0
41
1
10
106.665380672724
20
-2.31239455870909
30
0
41
1
10
106.56161644747
20
-2.42872997183889
30
0
41
1
10
106.503109100328
20
-2.48290967541862
30
0
41
1
10
106.377892002908
20
-2.57781946397259
30
0
41
1
10
106.311119550792
20
-2.61890344858369
30
0
41
1
10
106.16885973178
20
-2.68792648641681
30
0
41
1
10
106.092815181784
20
-2.71580825939648
30
0
41
1
10
105.938962776704
20
-2.75493548781682
30
0
41
1
10
105.860333131955
20
-2.76669719481487
30
0
41
1
10
105.699482617628
20
-2.77384227905927
30
0
41
1
10
105.619109453148
20
-2.76901768400884
30
0
41
1
10
105.462027226847
20
-2.74339734649013
30
0
41
1
10
105.383870016881
20
-2.72224188652351
30
0
41
1
10
105.235215496195
20
-2.66526767911787
30
0
41
1
10
105.164719469312
20
-2.62971216289009
30
0
41
1
10
105.031072247928
20
-2.54487890541392
30
0
41
1
10
104.968436047211
20
-2.49571785472
30
0
41
1
10
104.855230048214
20
-2.38782702757931
30
0
41
1
10
104.803738580661
20
-2.32834166690927
30
0
41
1
10
104.712658763539
20
-2.20017323436781
30
0
41
1
10
104.673828289834
20
-2.13270218223894
30
0
41
1
10
104.609026651894
20
-1.99114155203489
30
0
41
1
10
104.582925999473
20
-1.91634430611421
30
0
41
1
10
104.545471741058
20
-1.76379321508153
30
0
41
1
10
104.533942842784
20
-1.68603880326799
30
0
41
1
10
104.525786818467
20
-1.52758788021501
30
0
0
SPLINE
5
1AE
100
AcDbEntity
8
1
62
256
6
ByLayer
370
-1
48
1
60
0
100
AcDbSpline
70
4
71
3
72
20
73
16
40
0
40
0
40
0
40
0
40
0.125
40
0.125
40
0.25
40
0.25
40
0.375
40
0.375
40
0.5
40
0.5
40
0.75
40
0.75
40
0.875
40
0.875
40
1
40
1
40
1
40
1
41
1
10
21
20
2.67112258307
30
0
41
1
10
22.7300718941437
20
2.34210201895175
30
0
41
1
10
24.4598673146474
20
2.00986468497897
30
0
41
1
10
27.9175506820136
20
1.33217844939063
30
0
41
1
10
29.6458392197466
20
0.988705917642108
30
0
41
1
10
33.1033770114713
20
0.302930353111435
30
0
41
1
10
34.8325858500985
20
-0.0395651646934994
30
0
41
1
10
38.2925816908997
20
-0.720138346703408
30
0
41
1
10
40.0232985362589
20
-1.05873358022555
30
0
41
1
10
45.2117197792385
20
-2.06248373939175
30
0
41
1
10
48.6681022992411
20
-2.71545639302971
30
0
41
1
10
53.8530466808536
20
-3.649681935529
30
0
41
1
10
55.5814331603108
20
-3.95349223326835
30
0
41
1
10
59.0394967622885
20
-4.54056167463673
30
0
41
1
10
60.7692155390764
20
-4.82364534399028
30
0
41
1
10
62.5
20
-5.09464210552221
30
0
0
SPLINE
5
1AF
100
AcDbEntity
8
1
62
256
6
ByLayer
370
-1
48
1
60
0
100
AcDbSpline
70
4
71
3
72
12
73
8
40
0
40
0
40
0
40
0
40
0.25
40
0.25
40
0.5
40
0.5
40
1
40
1
40
1
40
1
41
1
10
16
20
3.72251183654996
30
0
41
1
10
15.7071806565584
20
3.80144650804238
30
0
41
1
10
15.4137709990944
20
3.87868177299339
30
0
41
1
10
14.8263634205903
20
4.03205312976351
30
0
41
1
10
14.5319141250059
20
4.10830368108145
30
0
41
1
10
13.6515911488693
20
4.33885273672985
30
0
41
1
10
13.081961465352
20
4.4914057167255
30
0
41
1
10
12.5325269166285
20
4.65547508247951
30
0
0
SPLINE
5
1B0
100
AcDbEntity
8
1
62
256
6
ByLayer
370
-1
48
1
60
0
100
AcDbSpline
70
4
71
3
72
8
73
4
40
0
40
0
40
0
40
0
40
1
40
1
40
1
40
1
41
1
10
98.8775405275259
20
4.35356293772401
30
0
41
1
10
98.8765453296643
20
4.35339131513842
30
0
41
1
10
98.8755503046528
20
4.35321837339666
30
0
41
1
10
98.8745554606429
20
4.35304409928796
30
0
0
SPLINE
5
1B1
100
AcDbEntity
8
1
62
256
6
ByLayer
370
-1
48
1
60
0
100
AcDbSpline
70
4
71
3
72
8
73
4
40
0
40
0
40
0
40
0
40
1
40
1
40
1
40
1
41
1
10
8.3181345130576
20
-3.39416450379756
30
0
41
1
10
8.20104411332136
20
-3.30560103032172
30
0
41
1
10
8.0854536731712
20
-3.19656958891554
30
0
41
1
10
7.97115882154904
20
-3.0669431662991
30
0
0
SPLINE
5
1B2
100
AcDbEntity
8
1
62
256
6
ByLayer
370
-1
48
1
60
0
100
AcDbSpline
70
4
71
3
72
12
73
8
40
0
40
0
40
0
40
0
40
0.518537649607863
40
0.518537649607863
40
0.777806474411794
40
0.777806474411794
40
1
40
1
40
1
40
1
41
1
10
105.057581205399
20
5.73046254478666
30
0
41
1
10
105.073313743271
20
5.58954237550211
30
0
41
1
10
105.112503390576
20
5.44900666583774
30
0
41
1
10
105.213516669237
20
5.24118074633404
30
0
41
1
10
105.254167256869
20
5.17312132568168
30
0
41
1
10
105.342025313113
20
5.05281782551666
30
0
41
1
10
105.387606754279
20
4.99933604307532
30
0
41
1
10
105.438987192985
20
4.94840972505892
30
0
0
SPLINE
5
1B3
100
AcDbEntity
8
1
62
256
6
ByLayer
370
-1
48
1
60
0
100
AcDbSpline
70
4
71
3
72
8
73
4
40
0
40
0
40
0
40
0
40
1
40
1
40
1
40
1
41
1
10
105.051876201822
20
5.79827753146532
30
0
41
1
10
105.053150532284
20
5.77576321790678
30
0
41
1
10
105.055048279149
20
5.75315058144969
30
0
41
1
10
105.057581205399
20
5.73046254478666
30
0
0
SPLINE
5
1B4
100
AcDbEntity
8
1
62
256
6
ByLayer
370
-1
48
1
60
0
100
AcDbSpline
70
4
71
3
72
22
73
18
40
0
40
0
40
0
40
0
40
0.125
40
0.125
40
0.25
40
0.25
40
0.375
40
0.375
40
0.5
40
0.5
40
0.625
40
0.625
40
0.75
40
0.75
40
0.875
40
0.875
40
1
40
1
40
1
40
1
41
1
10
102.905564515097
20
2.72731653276478
30
0
41
1
10
102.910697580976
20
2.72731653276478
30
0
41
1
10
102.905464603211
20
2.73342561450599
30
0
41
1
10
102.879870098437
20
2.75610274060685
30
0
41
1
10
102.860377074078
20
2.77209915863219
30
0
41
1
10
102.814430123291
20
2.81204966689896
30
0
41
1
10
102.788061085271
20
2.83594545232432
30
0
41
1
10
102.73350039548
20
2.88990939850112
30
0
41
1
10
102.705036609479
20
2.92017182377904
30
0
41
1
10
102.647417328334
20
2.98794757305296
30
0
41
1
10
102.618412799284
20
3.02533989539103
30
0
41
1
10
102.562717015752
20
3.10565682052479
30
0
41
1
10
102.535776041193
20
3.14883994610455
30
0
41
1
10
102.484519985937
20
3.24236975673853
30
0
41
1
10
102.460300682311
20
3.29275108336881
30
0
41
1
10
102.417515397862
20
3.39659317702112
30
0
41
1
10
102.398612931429
20
3.45060976353611
30
0
41
1
10
102.38244462834
20
3.50702250222673
30
0
0
SPLINE
5
1B5
100
AcDbEntity
8
1
62
256
6
ByLayer
370
-1
48
1
60
0
100
AcDbSpline
70
4
71
3
72
10
73
6
40
0
40
0
40
0
40
0
40
0.227315014200607
40
0.227315014200607
40
1
40
1
40
1
40
1
41
1
10
49.0712058082237
20
8.75338472329426
30
0
41
1
10
50.0883379190797
20
8.74931685588891
30
0
41
1
10
51.1054624592923
20
8.73863411959013
30
0
41
1
10
55.5802431654774
20
8.66266184503547
30
0
41
1
10
59.0382076659315
20
8.52741093990983
30
0
41
1
10
62.5
20
8.31842349393298
30
0
0
SPLINE
5
1B6
100
AcDbEntity
8
1
62
256
6
ByLayer
370
-1
48
1
60
0
100
AcDbSpline
70
4
71
3
72
16
73
12
40
0
40
0
40
0
40
0
40
0.25
40
0.25
40
0.375
40
0.375
40
0.5
40
0.5
40
0.75
40
0.75
40
1
40
1
40
1
40
1
41
1
10
21
20
-8.58127555278881
30
0
41
1
10
24.4595323790193
20
-8.74064147998567
30
0
41
1
10
27.9162470377717
20
-8.82134632411524
30
0
41
1
10
33.1028323808267
20
-8.82209461728908
30
0
41
1
10
34.8319526907062
20
-8.80237418171328
30
0
41
1
10
38.2916316183102
20
-8.72355873504509
30
0
41
1
10
40.0222120395814
20
-8.66445294520099
30
0
41
1
10
45.2103911892895
20
-8.42989558456546
30
0
41
1
10
48.6667460702232
20
-8.19707565266282
30
0
41
1
10
55.5808378444912
20
-7.59102046779768
30
0
41
1
10
59.0384043683226
20
-7.21726184185485
30
0
41
1
10
62.5
20
-6.78222145868614
30
0
0
SPLINE
5
1B7
100
AcDbEntity
8
1
62
256
6
ByLayer
370
-1
48
1
60
0
100
AcDbSpline
70
4
71
3
72
18
73
14
40
0
40
0
40
0
40
0
40
0.250000000000001
40
0.250000000000001
40
0.375000000000001
40
0.375000000000001
40
0.500000000000001
40
0.500000000000001
40
0.750000000000001
40
0.750000000000001
40
0.875000000000001
40
0.875000000000001
40
1
40
1
40
1
40
1
41
1
10
12.2711588215492
20
-8.06950679356333
30
0
41
1
10
12.4971697030657
20
-8.13167860723556
30
0
41
1
10
12.7468907553031
20
-8.16621244948234
30
0
41
1
10
13.1562733166443
20
-8.19826426314978
30
0
41
1
10
13.2985826557256
20
-8.20554248180221
30
0
41
1
10
13.5953427380698
20
-8.21600730964494
30
0
41
1
10
13.7505883019164
20
-8.21919270456536
30
0
41
1
10
14.2268050761899
20
-8.22622680325864
30
0
41
1
10
14.5595363899327
20
-8.22779650852797
30
0
41
1
10
15.0827008845674
20
-8.23852053983671
30
0
41
1
10
15.2611261404733
20
-8.24345490121519
30
0
41
1
10
15.6265994195577
20
-8.25797978553896
30
0
41
1
10
15.8124996714144
20
-8.2675454003986
30
0
41
1
10
16
20
-8.28008180581108
30
0
0
SPLINE
5
1B8
100
AcDbEntity
8
1
62
256
6
ByLayer
370
-1
48
1
60
0
100
AcDbSpline
70
4
71
3
72
10
73
6
40
0
40
0
40
0
40
0
40
0.5
40
0.5
40
1
40
1
40
1
40
1
41
1
10
12.2711588215492
20
-6.1261857449386
30
0
41
1
10
12.4271871695512
20
-6.24224574982262
30
0
41
1
10
12.5918639108063
20
-6.37081706564959
30
0
41
1
10
12.93695888437
20
-6.64578245563698
30
0
41
1
10
13.1174099496624
20
-6.7921280683712
30
0
41
1
10
13.3060875261233
20
-6.94370568546648
30
0
0
SPLINE
5
1B9
100
AcDbEntity
8
1
62
256
6
ByLayer
370
-1
48
1
60
0
100
AcDbSpline
70
4
71
3
72
8
73
4
40
0
40
0
40
0
40
0
40
1
40
1
40
1
40
1
41
1
10
98.8745554606429
20
4.35304409928793
30
0
41
1
10
98.8357310497856
20
4.57540037858754
30
0
41
1
10
98.7838588865692
20
4.80156705198891
30
0
41
1
10
98.7160329655576
20
5.02999999998716
30
0
0
SPLINE
5
1BA
100
AcDbEntity
8
1
62
256
6
ByLayer
370
-1
48
1
60
0
100
AcDbSpline
70
4
71
3
72
10
73
6
40
0
40
0
40
0
40
0
40
0.5
40
0.5
40
1
40
1
40
1
40
1
41
1
10
101.501407376557
20
2.70021708301465
30
0
41
1
10
101.595397169283
20
2.67832864806701
30
0
41
1
10
101.685952128967
20
2.65767344507128
30
0
41
1
10
101.858768583556
20
2.61741473906463
30
0
41
1
10
101.941186827626
20
2.59776934263328
30
0
41
1
10
102.016723039742
20
2.57811643182057
30
0
0
SPLINE
5
1BB
100
AcDbEntity
8
1
62
256
6
ByLayer
370
-1
48
1
60
0
100
AcDbSpline
70
4
71
3
72
16
73
12
40
0
40
0
40
0
40
0
40
0.125
40
0.125
40
0.25
40
0.25
40
0.5
40
0.5
40
0.75
40
0.75
40
1
40
1
40
1
40
1
41
1
10
98.8745554606427
20
4.35304409928801
30
0
41
1
10
98.8638281206504
20
4.31086978200241
30
0
41
1
10
98.8553083452253
20
4.26746617024585
30
0
41
1
10
98.8429366512763
20
4.18215568375888
30
0
41
1
10
98.8389572743769
20
4.13984353565843
30
0
41
1
10
98.8328734474974
20
4.01389363327567
30
0
41
1
10
98.8366630875186
20
3.93437306316483
30
0
41
1
10
98.8559181369786
20
3.78497150169574
30
0
41
1
10
98.8710708378187
20
3.71729832170058
30
0
41
1
10
98.9103306708975
20
3.59426884085306
30
0
41
1
10
98.9341467860577
20
3.54021649989963
30
0
41
1
10
98.9612754189818
20
3.49425323905896
30
0
0
SPLINE
5
1BC
100
AcDbEntity
8
1
62
256
6
ByLayer
370
-1
48
1
60
0
100
AcDbSpline
70
4
71
3
72
8
73
4
40
0
40
0
40
0
40
0
40
1
40
1
40
1
40
1
41
1
10
12.2711588215492
20
-6.1261857449386
30
0
41
1
10
12.2711588215492
20
-6.77395942781351
30
0
41
1
10
12.2711588215492
20
-7.42173311068839
30
0
41
1
10
12.2711588215492
20
-8.06950679356331
30
0
0
SPLINE
5
1BD
100
AcDbEntity
8
1
62
256
6
ByLayer
370
-1
48
1
60
0
100
AcDbSpline
70
4
71
3
72
8
73
4
40
0
40
0
40
0
40
0
40
1
40
1
40
1
40
1
41
1
10
16
20
3.72251183654996
30
0
41
1
10
16.3463377592858
20
3.62915032247329
30
0
41
1
10
16.6894200804929
20
3.52606205293324
30
0
41
1
10
17.0294630646116
20
3.41340864920653
30
0
0
SPLINE
5
1BE
100
AcDbEntity
8
1
62
256
6
ByLayer
370
-1
48
1
60
0
100
AcDbSpline
70
4
71
3
72
8
73
4
40
0
40
0
40
0
40
0
40
1
40
1
40
1
40
1
41
1
10
62.5
20
-6.78222145868614
30
0
41
1
10
64.483745821018
20
-6.53865099167814
30
0
41
1
10
66.4665142268179
20
-6.27466415799356
30
0
41
1
10
68.4490488865605
20
-5.992977075933
30
0
0
SPLINE
5
1BF
100
AcDbEntity
8
1
62
256
6
ByLayer
370
-1
48
1
60
0
100
AcDbSpline
70
4
71
4
72
10
73
5
40
0
40
0
40
0
40
0
40
0
40
1
40
1
40
1
40
1
40
1
41
0.982424180846395
10
96.4394121183745
20
3.00168570301476
30
0
41
0.986560581741842
10
96.4757284211593
20
3.48600070375161
30
0
41
0.993148997815723
10
96.4995692037137
20
4.01099407319082
30
0
41
1
10
96.5098180813148
20
4.54052742489964
30
0
41
1
10
96.5098180813148
20
5.02999999999986
30
0
0
SPLINE
5
1C0
100
AcDbEntity
8
1
62
256
6
ByLayer
370
-1
48
1
60
0
100
AcDbSpline
70
4
71
3
72
8
73
4
40
0
40
0
40
0
40
0
40
1
40
1
40
1
40
1
41
1
10
98.7160329656049
20
5.02999999999989
30
0
41
1
10
98.6339992556078
20
5.30628378546794
30
0
41
1
10
98.5787091108185
20
5.59112126190027
30
0
41
1
10
98.5787091108186
20
5.89117318170477
30
0
0
SPLINE
5
1C1
100
AcDbEntity
8
1
62
256
6
ByLayer
370
-1
48
1
60
0
100
AcDbSpline
70
4
71
3
72
8
73
4
40
0
40
0
40
0
40
0
40
1
40
1
40
1
40
1
41
1
10
15.9137291413817
20
-7.74445362288904
30
0
41
1
10
16.0099936993312
20
-7.75035590828148
30
0
41
1
10
16.1066371424135
20
-7.75725567978611
30
0
41
1
10
16.203656963636
20
-7.76521529569584
30
0
0
SPLINE
5
1C2
100
AcDbEntity
8
1
62
256
6
ByLayer
370
-1
48
1
60
0
100
AcDbSpline
70
4
71
3
72
8
73
4
40
0
40
0
40
0
40
0
40
1
40
1
40
1
40
1
41
1
10
99.4130540665075
20
3.21736641037032
30
0
41
1
10
99.4903929685358
20
3.17691976448089
30
0
41
1
10
99.5701747687348
20
3.1405010128716
30
0
41
1
10
99.6520197084112
20
3.10728489771927
30
0
0
SPLINE
5
1C3
100
AcDbEntity
8
1
62
256
6
ByLayer
370
-1
48
1
60
0
100
AcDbSpline
70
4
71
3
72
26
73
22
40
0
40
0
40
0
40
0
40
0.250000000000001
40
0.250000000000001
40
0.312500000000001
40
0.312500000000001
40
0.375000000000001
40
0.375000000000001
40
0.406250000000001
40
0.406250000000001
40
0.437500000000001
40
0.437500000000001
40
0.5
40
0.5
40
0.625
40
0.625
40
0.75
40
0.75
40
0.875
40
0.875
40
1
40
1
40
1
40
1
41
1
10
7.9711588215491
20
-5.2016036739638
30
0
41
1
10
8.32926643538875
20
-5.54715101205755
30
0
41
1
10
8.68609204991424
20
-5.76987485604201
30
0
41
1
10
9.13352135297887
20
-6.01828095501895
30
0
41
1
10
9.22305658590108
20
-6.06638631241646
30
0
41
1
10
9.40222520098584
20
-6.16190026486916
30
0
41
1
10
9.49185714572212
20
-6.2095846114174
30
0
41
1
10
9.62636846075085
20
-6.28118815866759
30
0
41
1
10
9.67121882139955
20
-6.30379086062936
30
0
41
1
10
9.76093524571979
20
-6.35177299088804
30
0
41
1
10
9.80580031856536
20
-6.37703627695555
30
0
41
1
10
9.94040326665422
20
-6.45592214625199
30
0
41
1
10
10.0301480530576
20
-6.5126137045564
30
0
41
1
10
10.2993435552113
20
-6.69042067035696
30
0
41
1
10
10.4787481318569
20
-6.81903245151776
30
0
41
1
10
10.8373331970724
20
-7.08035154838072
30
0
41
1
10
11.0165104818419
20
-7.21318637869229
30
0
41
1
10
11.3747844135017
20
-7.47353693817576
30
0
41
1
10
11.5538885932278
20
-7.60112431455624
30
0
41
1
10
11.9122961207581
20
-7.8448961350457
30
0
41
1
10
12.0915998903218
20
-7.9611175662973
30
0
41
1
10
12.2711588215492
20
-8.06950679356331
30
0
0
SPLINE
5
1C4
100
AcDbEntity
8
1
62
256
6
ByLayer
370
-1
48
1
60
0
100
AcDbSpline
70
4
71
4
72
19
73
14
40
0
40
0
40
0
40
0
40
0
40
0.426209459830849
40
0.426209459830849
40
0.426209459830849
40
0.639314189746274
40
0.639314189746274
40
0.639314189746274
40
0.852418919661698
40
0.852418919661698
40
0.852418919661698
40
1
40
1
40
1
40
1
40
1
41
1
10
17.0294630646144
20
1.60318526229645
30
0
41
1
10
17.0294630646144
20
1.18507992709613
30
0
41
0.988033871712585
10
16.976372520974
20
0.324790379401321
30
0
41
1
10
16.851014283483
20
-0.961317419947079
30
0
41
1
10
16.6465901567213
20
-2.79299046418913
30
0
41
0.997008467928146
10
16.5684110807943
20
-3.45313463286816
30
0
41
0.995512701892219
10
16.4843320599167
20
-4.1174868594164
30
0
41
0.995512701892219
10
16.3156679400888
20
-5.37002001001888
30
0
41
0.997008467928146
10
16.2315889192111
20
-5.95444269809858
30
0
41
1
10
16.1534098432841
20
-6.45544512517401
30
0
41
1
10
16.0380786290251
20
-7.1350037688787
30
0
41
0.998565274374083
10
15.9924408283717
20
-7.3845895141874
30
0
41
0.997186205512723
10
15.9505323136096
20
-7.59010542598347
30
0
41
0.996321043655267
10
15.9137291413819
20
-7.74445362288804
30
0
0
SPLINE
5
1C5
100
AcDbEntity
8
1
62
256
6
ByLayer
370
-1
48
1
60
0
100
AcDbSpline
70
4
71
3
72
14
73
10
40
0
40
0
40
0
40
0
40
0.499999999999992
40
0.499999999999992
40
0.62499999999999
40
0.62499999999999
40
0.749999999999988
40
0.749999999999988
40
1
40
1
40
1
40
1
41
1
10
96.5098180813148
20
8.61049629853468
30
0
41
1
10
96.8926219512232
20
8.61760737065515
30
0
41
1
10
97.2589475100393
20
8.63241909341809
30
0
41
1
10
97.6969977634612
20
8.65332669647981
30
0
41
1
10
97.7839372925786
20
8.65762596935838
30
0
41
1
10
97.953823709018
20
8.66606180826216
30
0
41
1
10
98.0367008634129
20
8.67019341903571
30
0
41
1
10
98.2792916340618
20
8.6819011293741
30
0
41
1
10
98.4329951298226
20
8.68880361758238
30
0
41
1
10
98.578709110818
20
8.69354126525937
30
0
0
SPLINE
5
1C6
100
AcDbEntity
8
1
62
256
6
ByLayer
370
-1
48
1
60
0
100
AcDbSpline
70
4
71
3
72
8
73
4
40
0
40
0
40
0
40
0
40
1
40
1
40
1
40
1
41
1
10
98.9612754189803
20
3.49425323905817
30
0
41
1
10
99.1025572809139
20
3.39062995768333
30
0
41
1
10
99.2547728719672
20
3.30014420083055
30
0
41
1
10
99.4130540665076
20
3.21736641037026
30
0
0
SPLINE
5
1C7
100
AcDbEntity
8
1
62
256
6
ByLayer
370
-1
48
1
60
0
100
AcDbSpline
70
4
71
3
72
12
73
8
40
0
40
0
40
0
40
0
40
0.499999999999981
40
0.499999999999981
40
0.74999999999999
40
0.74999999999999
40
1
40
1
40
1
40
1
41
1
10
100.587873328485
20
2.82027809718085
30
0
41
1
10
100.742368525694
20
2.78730488290265
30
0
41
1
10
100.896387711525
20
2.76092319266982
30
0
41
1
10
101.126360442217
20
2.73092163044726
30
0
41
1
10
101.202861795416
20
2.72252811920566
30
0
41
1
10
101.353538014225
20
2.70901747325223
30
0
41
1
10
101.427953075316
20
2.70386564198009
30
0
41
1
10
101.501407376557
20
2.70021708301465
30
0
0
SPLINE
5
1C8
100
AcDbEntity
8
1
62
256
6
ByLayer
370
-1
48
1
60
0
100
AcDbSpline
70
4
71
3
72
18
73
14
40
0
40
0
40
0
40
0
40
0.257845402232268
40
0.257845402232268
40
0.443384051674201
40
0.443384051674201
40
0.628922701116134
40
0.628922701116134
40
0.814461350558067
40
0.814461350558067
40
0.907230675279033
40
0.907230675279033
40
1
40
1
40
1
40
1
41
1
10
98.6567987471632
20
2.05117113564489
30
0
41
1
10
98.7091799957632
20
2.11511131418851
30
0
41
1
10
98.7554633167748
20
2.19617860480363
30
0
41
1
10
98.8246554279447
20
2.36451472839798
30
0
41
1
10
98.8505422691805
20
2.44439900933364
30
0
41
1
10
98.8943176949782
20
2.61797090279322
30
0
41
1
10
98.912368733266
20
2.71183226071531
30
0
41
1
10
98.9406198964066
20
2.9132128082158
30
0
41
1
10
98.9508220408305
20
3.02073388424921
30
0
41
1
10
98.959730812062
20
3.19230295654987
30
0
41
1
10
98.9616238797965
20
3.25131239854673
30
0
41
1
10
98.9631406394075
20
3.37116205379493
30
0
41
1
10
98.962777837152
20
3.43218202164968
30
0
41
1
10
98.9612754189828
20
3.49425323906021
30
0
0
SPLINE
5
1C9
100
AcDbEntity
8
1
62
256
6
ByLayer
370
-1
48
1
60
0
100
AcDbSpline
70
4
71
3
72
8
73
4
40
0
40
0
40
0
40
0
40
1
40
1
40
1
40
1
41
1
10
101.8277884955
20
1.92814217275827
30
0
41
1
10
101.524797793529
20
1.8323203600979
30
0
41
1
10
101.211101267382
20
1.7577642855608
30
0
41
1
10
100.890810594523
20
1.70736897653185
30
0
0
SPLINE
5
1CA
100
AcDbEntity
8
1
62
256
6
ByLayer
370
-1
48
1
60
0
100
AcDbSpline
70
4
71
2
72
6
73
3
40
0
40
0
40
0
40
1
40
1
40
1
41
1
10
16.2036569636682
20
-7.76521529569735
30
0
41
1
10
16.2036569636681
20
-8.02877633412388
30
0
41
1
10
16.2036569636681
20
-8.29233737255043
30
0
0
SPLINE
5
1CB
100
AcDbEntity
8
1
62
256
6
ByLayer
370
-1
48
1
60
0
100
AcDbSpline
70
4
71
3
72
54
73
50
40
0
40
0
40
0
40
0
40
0.0624999999999994
40
0.0624999999999994
40
0.124999999999999
40
0.124999999999999
40
0.140624999999999
40
0.140624999999999
40
0.156249999999999
40
0.156249999999999
40
0.187499999999999
40
0.187499999999999
40
0.249999999999999
40
0.249999999999999
40
0.312499999999999
40
0.312499999999999
40
0.374999999999999
40
0.374999999999999
40
0.406249999999999
40
0.406249999999999
40
0.437499999999999
40
0.437499999999999
40
0.499999999999999
40
0.499999999999999
40
0.531249999999999
40
0.531249999999999
40
0.562499999999999
40
0.562499999999999
40
0.593749999999999
40
0.593749999999999
40
0.625
40
0.625
40
0.65625
40
0.65625
40
0.6875
40
0.6875
40
0.75
40
0.75
40
0.78125
40
0.78125
40
0.8125
40
0.8125
40
0.875
40
0.875
40
0.90625
40
0.90625
40
0.9375
40
0.9375
40
1
40
1
40
1
40
1
41
1
10
10.8391535685693
20
5.22910322734893
30
0
41
1
10
10.638424395025
20
5.29527260108944
30
0
41
1
10
10.4490828280853
20
5.35463351861662
30
0
41
1
10
10.090756108623
20
5.46510681287816
30
0
41
1
10
9.92178092778045
20
5.51618192437871
30
0
41
1
10
9.72251678777764
20
5.57754317589689
30
0
41
1
10
9.6834219026199
20
5.58979989445734
30
0
41
1
10
9.60565025307884
20
5.61359151850931
30
0
41
1
10
9.56674088237028
20
5.62495841212828
30
0
41
1
10
9.45075688973279
20
5.65803740969636
30
0
41
1
10
9.37437529395464
20
5.67870722548602
30
0
41
1
10
9.14710611181781
20
5.73591794456513
30
0
41
1
10
8.99823017737458
20
5.76765205498157
30
0
41
1
10
8.70389911512754
20
5.81303984715962
30
0
41
1
10
8.5580819132891
20
5.82682779529065
30
0
41
1
10
8.26536870819274
20
5.82936520144494
30
0
41
1
10
8.11846929437067
20
5.81819176211269
30
0
41
1
10
7.89499781444923
20
5.7741320650542
30
0
41
1
10
7.81999230956953
20
5.75485664420441
30
0
41
1
10
7.66866024131656
20
5.70502202049263
30
0
41
1
10
7.591826461175
20
5.67419906160481
30
0
41
1
10
7.36349637004247
20
5.56293131158605
30
0
41
1
10
7.2142965314778
20
5.46421666116038
30
0
41
1
10
6.99887691954373
20
5.27057475787379
30
0
41
1
10
6.92817983435648
20
5.19791092438825
30
0
41
1
10
6.79457485293119
20
5.04068519875756
30
0
41
1
10
6.73119658106387
20
4.95579742206468
30
0
41
1
10
6.6118957072315
20
4.77377728358559
30
0
41
1
10
6.55597210595704
20
4.67664813900825
30
0
41
1
10
6.45229546587171
20
4.47031388580965
30
0
41
1
10
6.40471812244607
20
4.36122842180316
30
0
41
1
10
6.32048396064926
20
4.1373455829839
30
0
41
1
10
6.28345643402278
20
4.02185734805377
30
0
41
1
10
6.21942316524888
20
3.78435207004401
30
0
41
1
10
6.19236918897161
20
3.66204999159814
30
0
41
1
10
6.12663027238742
20
3.28760634984269
30
0
41
1
10
6.10401266411102
20
3.03308607613218
30
0
41
1
10
6.0987221928722
20
2.64498371390945
30
0
41
1
10
6.10178257890698
20
2.51424822549407
30
0
41
1
10
6.11720176452547
20
2.25192762698066
30
0
41
1
10
6.12947372564705
20
2.12140710028251
30
0
41
1
10
6.178814364093
20
1.73157635964034
30
0
41
1
10
6.22838054818007
20
1.47399584269616
30
0
41
1
10
6.32414591633048
20
1.09042347935619
30
0
41
1
10
6.35974594715864
20
0.96279812834257
30
0
41
1
10
6.43623903669751
20
0.712362164001064
30
0
41
1
10
6.47724043961173
20
0.589056042987863
30
0
41
1
10
6.60719140066396
20
0.224411510688555
30
0
41
1
10
6.70305181080093
20
-0.0116601823047802
30
0
41
1
10
6.80511265633794
20
-0.241773128019332
30
0
0
SPLINE
5
1CC
100
AcDbEntity
8
1
62
256
6
ByLayer
370
-1
48
1
60
0
100
AcDbSpline
70
4
71
3
72
8
73
4
40
0
40
0
40
0
40
0
40
1
40
1
40
1
40
1
41
1
10
16.2036569636361
20
-8.29233737254896
30
0
41
1
10
16.1355725207941
20
-8.28868820283844
30
0
41
1
10
16.0676868132813
20
-8.28460739431949
30
0
41
1
10
16
20
-8.28008180581108
30
0
0
SPLINE
5
1CD
100
AcDbEntity
8
1
62
256
6
ByLayer
370
-1
48
1
60
0
100
AcDbSpline
70
4
71
3
72
28
73
24
40
0
40
0
40
0
40
0
40
0.0624999999999997
40
0.0624999999999997
40
0.124999999999999
40
0.124999999999999
40
0.249999999999999
40
0.249999999999999
40
0.374999999999998
40
0.374999999999998
40
0.499999999999998
40
0.499999999999998
40
0.624999999999997
40
0.624999999999997
40
0.687499999999998
40
0.687499999999998
40
0.749999999999999
40
0.749999999999999
40
0.874999999999996
40
0.874999999999996
40
0.937499999999998
40
0.937499999999998
40
1
40
1
40
1
40
1
41
1
10
101.947250711697
20
1.96692892175358
30
0
41
1
10
101.983943645995
20
1.97914931062593
30
0
41
1
10
102.018996823838
20
1.99174554956272
30
0
41
1
10
102.084638838159
20
2.01723943882672
30
0
41
1
10
102.115410433185
20
2.03019611916133
30
0
41
1
10
102.201658825639
20
2.06968699142581
30
0
41
1
10
102.251118596716
20
2.09683696249948
30
0
41
1
10
102.333244304992
20
2.15285557630313
30
0
41
1
10
102.3647861618
20
2.18098404756751
30
0
41
1
10
102.409160023029
20
2.2371365299538
30
0
41
1
10
102.422084925787
20
2.26532206018882
30
0
41
1
10
102.428390998794
20
2.32125540774297
30
0
41
1
10
102.421774802963
20
2.34837085727099
30
0
41
1
10
102.39773639976
20
2.38781422436682
30
0
41
1
10
102.387357008508
20
2.40075580487761
30
0
41
1
10
102.361786873979
20
2.4262197375121
30
0
41
1
10
102.346498393925
20
2.43880267693609
30
0
41
1
10
102.294028354791
20
2.47531201375401
30
0
41
1
10
102.250360724007
20
2.49806888554053
30
0
41
1
10
102.17222156902
20
2.52990188704138
30
0
41
1
10
102.14405656611
20
2.54012692302945
30
0
41
1
10
102.08340732269
20
2.55979012710409
30
0
41
1
10
102.050832948886
20
2.56924176120344
30
0
41
1
10
102.016723039743
20
2.57811643182092
30
0
0
SPLINE
5
1CE
100
AcDbEntity
8
1
62
256
6
ByLayer
370
-1
48
1
60
0
100
AcDbSpline
70
4
71
4
72
10
73
5
40
0
40
0
40
0
40
0
40
0
40
1
40
1
40
1
40
1
40
1
41
1
10
96.5098180813148
20
5.02999999999986
30
0
41
1
10
96.5098180813293
20
5.92512407463374
30
0
41
1
10
96.5098180813395
20
6.82024814926763
30
0
41
1
10
96.5098180813465
20
7.71537222390148
30
0
41
1
10
96.5098180813513
20
8.61049629853537
30
0
0
SPLINE
5
1CF
100
AcDbEntity
8
1
62
256
6
ByLayer
370
-1
48
1
60
0
100
AcDbSpline
70
4
71
3
72
28
73
24
40
0
40
0
40
0
40
0
40
0.0475972218794062
40
0.0475972218794062
40
0.238077777503525
40
0.238077777503525
40
0.428558333127644
40
0.428558333127644
40
0.523798610939703
40
0.523798610939703
40
0.619038888751762
40
0.619038888751762
40
0.714279166563822
40
0.714279166563822
40
0.809519444375881
40
0.809519444375881
40
0.857139583281911
40
0.857139583281911
40
0.90475972218794
40
0.90475972218794
40
0.95237986109397
40
0.95237986109397
40
1
40
1
40
1
40
1
41
1
10
67.5786727621776
20
-5.85868719550342
30
0
41
1
10
66.7634005230041
20
-5.96777167859824
30
0
41
1
10
65.9481171052354
20
-6.074088209965
30
0
41
1
10
61.8701905064993
20
-6.59049528081911
30
0
41
1
10
58.6083355448594
20
-6.95483272085332
30
0
41
1
10
52.0828269439102
20
-7.56164382011465
30
0
41
1
10
48.820714599797
20
-7.80424936836147
30
0
41
1
10
43.9264242608224
20
-8.06962951336783
30
0
41
1
10
42.2953337115457
20
-8.14151959577018
30
0
41
1
10
39.033135032196
20
-8.24996457965662
30
0
41
1
10
37.4018294195297
20
-8.28646821685194
30
0
41
1
10
34.1392758537658
20
-8.32480358688971
30
0
41
1
10
32.5086291271157
20
-8.32706170231825
30
0
41
1
10
29.2478114440076
20
-8.30193413371347
30
0
41
1
10
27.6176598674941
20
-8.27466267552776
30
0
41
1
10
25.1724441284977
20
-8.20938183510273
30
0
41
1
10
24.3573775602646
20
-8.18330105305986
30
0
41
1
10
22.7271490483293
20
-8.12118631305702
30
0
41
1
10
21.9119806071619
20
-8.08529344876465
30
0
41
1
10
20.2814355736504
20
-8.00601831309189
30
0
41
1
10
19.4660620147998
20
-7.96274540016367
30
0
41
1
10
17.835068050352
20
-7.86955376300403
30
0
41
1
10
17.0194539025591
20
-7.81967853648553
30
0
41
1
10
16.2036569636682
20
-7.76521529569825
30
0
0
SPLINE
5
1D0
100
AcDbEntity
8
1
62
256
6
ByLayer
370
-1
48
1
60
0
100
AcDbSpline
70
4
71
3
72
12
73
8
40
0
40
0
40
0
40
0
40
0.499999999999999
40
0.499999999999999
40
0.749999999999999
40
0.749999999999999
40
1
40
1
40
1
40
1
41
1
10
7.39100451869697
20
-2.24912695423842
30
0
41
1
10
7.46844603403946
20
-2.40093035119091
30
0
41
1
10
7.55496464738869
20
-2.54487440497377
30
0
41
1
10
7.69973156702554
20
-2.74953364710368
30
0
41
1
10
7.75048908412339
20
-2.81587039967113
30
0
41
1
10
7.85729770560013
20
-2.9447849938876
30
0
41
1
10
7.91326445105517
20
-3.00721918234538
30
0
41
1
10
7.97115889218443
20
-3.06694323916676
30
0
0
SPLINE
5
1D1
100
AcDbEntity
8
1
62
256
6
ByLayer
370
-1
48
1
60
0
100
AcDbSpline
70
4
71
3
72
10
73
6
40
0
40
0
40
0
40
0
40
0.5
40
0.5
40
1
40
1
40
1
40
1
41
1
10
8.3181345493407
20
-3.39416414613882
30
0
41
1
10
8.97668526515037
20
-3.87550501084132
30
0
41
1
10
9.6358725992871
20
-4.34656877390734
30
0
41
1
10
10.9539814468641
20
-5.26069938344051
30
0
41
1
10
11.6128429247656
20
-5.7039107685375
30
0
41
1
10
12.2711588215492
20
-6.1261857449386
30
0
0
SPLINE
5
1D2
100
AcDbEntity
8
1
62
256
6
ByLayer
370
-1
48
1
60
0
100
AcDbSpline
70
4
71
3
72
14
73
10
40
0
40
0
40
0
40
0
40
0.25
40
0.25
40
0.5
40
0.5
40
0.75
40
0.75
40
1
40
1
40
1
40
1
41
1
10
104.724317558371
20
2.959581914512
30
0
41
1
10
104.695001105774
20
2.93043789716919
30
0
41
1
10
104.665709009366
20
2.90411824776658
30
0
41
1
10
104.608245854369
20
2.85664643019507
30
0
41
1
10
104.580034688716
20
2.83547903233006
30
0
41
1
10
104.526856907621
20
2.7987416012347
30
0
41
1
10
104.502235160026
20
2.78344436177753
30
0
41
1
10
104.463635998799
20
2.7617616651462
30
0
41
1
10
104.450278096285
20
2.75565792030275
30
0
41
1
10
104.446100391489
20
2.75565792030275
30
0
0
SPLINE
5
1D3
100
AcDbEntity
8
1
62
256
6
ByLayer
370
-1
48
1
60
0
100
AcDbSpline
70
4
71
3
72
20
73
16
40
0
40
0
40
0
40
0
40
0.250000000000001
40
0.250000000000001
40
0.375000000000001
40
0.375000000000001
40
0.500000000000001
40
0.500000000000001
40
0.625
40
0.625
40
0.75
40
0.75
40
0.875
40
0.875
40
1
40
1
40
1
40
1
41
1
10
62.5
20
-5.09464210552221
30
0
41
1
10
65.5118271538315
20
-5.57376782477502
30
0
41
1
10
68.521385066599
20
-6.01750878306368
30
0
41
1
10
73.0364890912156
20
-6.61454584936669
30
0
41
1
10
74.5417328262582
20
-6.80190608471261
30
0
41
1
10
77.5531470367035
20
-7.15201009163283
30
0
41
1
10
79.0596405639259
20
-7.31483307191891
30
0
41
1
10
82.0718369045846
20
-7.616010028658
30
0
41
1
10
83.5772448512815
20
-7.75420999262766
30
0
41
1
10
86.5876892213435
20
-8.00326495295468
30
0
41
1
10
88.092713816169
20
-8.11421570366744
30
0
41
1
10
91.1025399291576
20
-8.30851147527304
30
0
41
1
10
92.6074768934318
20
-8.39158848016774
30
0
41
1
10
95.6180235288209
20
-8.52869844241602
30
0
41
1
10
97.1233091312347
20
-8.583032614491
30
0
41
1
10
98.6294630646025
20
-8.62228051673509
30
0
0
SPLINE
5
1D4
100
AcDbEntity
8
1
62
256
6
ByLayer
370
-1
48
1
60
0
100
AcDbSpline
70
4
71
3
72
10
73
6
40
0
40
0
40
0
40
0
40
0.300571119228643
40
0.601142238457286
40
1
40
1
40
1
40
1
41
0.999999999999999
10
96.5098180813149
20
5.02999999999989
30
0
41
0.999999999999999
10
96.0951664771585
20
5.01840292028107
30
0
41
0.999999999999999
10
95.2658528335216
20
4.99400863975299
30
0
41
0.999999999999999
10
93.8862226045238
20
4.94931659131268
30
0
41
0.999999999999999
10
92.9213272935789
20
4.91465559584652
30
0
41
1
10
92.37110731999
20
4.89375562733343
30
0
0
SPLINE
5
1D5
100
AcDbEntity
8
1
62
256
6
ByLayer
370
-1
48
1
60
0
100
AcDbSpline
70
4
71
3
72
10
73
6
40
0
40
0
40
0
40
0
40
0.5
40
0.5
40
1
40
1
40
1
40
1
41
1
10
102.639483909348
20
5.93222378732014
30
0
41
1
10
102.642898631899
20
5.93222378732014
30
0
41
1
10
102.649866111234
20
5.93654528547202
30
0
41
1
10
102.670266187993
20
5.95247713193976
30
0
41
1
10
102.68375980506
20
5.96413629074161
30
0
41
1
10
102.69980438289
20
5.97812982836496
30
0
0
SPLINE
5
1D6
100
AcDbEntity
8
1
62
256
6
ByLayer
370
-1
48
1
60
0
100
AcDbSpline
70
4
71
3
72
8
73
4
40
0
40
0
40
0
40
0
40
1
40
1
40
1
40
1
41
1
10
10.8391535685614
20
5.22910322735154
30
0
41
1
10
10.9774824005826
20
5.18350381584861
30
0
41
1
10
11.1197291483111
20
5.13155948746618
30
0
41
1
10
11.2659263231355
20
5.07329007367517
30
0
0
SPLINE
5
1D7
100
AcDbEntity
8
1
62
256
6
ByLayer
370
-1
48
1
60
0
100
AcDbSpline
70
4
71
3
72
8
73
4
40
0
40
0
40
0
40
0
40
1
40
1
40
1
40
1
41
1
10
16.2036569636681
20
-8.29233737255086
30
0
41
1
10
17.8025281802389
20
-8.40483764889419
30
0
41
1
10
19.4011940340243
20
-8.50134239937182
30
0
41
1
10
21.0000000000001
20
-8.58127555278838
30
0
0
SPLINE
5
1D8
100
AcDbEntity
8
1
62
256
6
ByLayer
370
-1
48
1
60
0
100
AcDbSpline
70
4
71
3
72
8
73
4
40
0
40
0
40
0
40
0
40
1
40
1
40
1
40
1
41
1
10
92.256778778016
20
4.92007738787982
30
0
41
1
10
92.0758926268095
20
4.95629025500756
30
0
41
1
10
91.8924899724507
20
4.99471991479876
30
0
41
1
10
91.7066110699707
20
5.03533090651609
30
0
0
SPLINE
5
1D9
100
AcDbEntity
8
1
62
256
6
ByLayer
370
-1
48
1
60
0
100
AcDbSpline
70
4
71
3
72
16
73
12
40
0
40
0
40
0
40
0
40
0.249999999999995
40
0.249999999999995
40
0.499999999999989
40
0.499999999999989
40
0.624999999999987
40
0.624999999999987
40
0.749999999999984
40
0.749999999999984
40
1
40
1
40
1
40
1
41
1
10
100.890810594523
20
1.70736897653185
30
0
41
1
10
100.778649419855
20
1.68972126606943
30
0
41
1
10
100.658770576488
20
1.67897362540717
30
0
41
1
10
100.408228302624
20
1.67144079912814
30
0
41
1
10
100.277500852429
20
1.67467180019196
30
0
41
1
10
100.074965204456
20
1.6908225118228
30
0
41
1
10
100.006184949007
20
1.69812926584973
30
0
41
1
10
99.8684034657325
20
1.71645137831402
30
0
41
1
10
99.79922782234
20
1.72747114718865
30
0
41
1
10
99.5910594434022
20
1.76613252128189
30
0
41
1
10
99.451436057968
20
1.79935787701197
30
0
41
1
10
99.3113576939207
20
1.84033197993981
30
0
0
SPLINE
5
1DA
100
AcDbEntity
8
1
62
256
6
ByLayer
370
-1
48
1
60
0
100
AcDbSpline
70
4
71
3
72
14
73
10
40
0
40
0
40
0
40
0
40
0.0705200632915458
40
0.0705200632915458
40
0.380346708861031
40
0.380346708861031
40
0.690173354430515
40
0.690173354430515
40
1
40
1
40
1
40
1
41
1
10
107.806385593537
20
3.03960460959371
30
0
41
1
10
107.805913367147
20
3.03218600049664
30
0
41
1
10
107.805411703107
20
3.02497147677792
30
0
41
1
10
107.802574246414
20
2.98715269176662
30
0
41
1
10
107.799732810209
20
2.96022280810303
30
0
41
1
10
107.793607448765
20
2.9171705404122
30
0
41
1
10
107.790261480225
20
2.90050187779755
30
0
41
1
10
107.783323824631
20
2.87808150791071
30
0
41
1
10
107.779792264525
20
2.87242463261077
30
0
41
1
10
107.7762527499
20
2.87239191691685
30
0
0
SPLINE
5
1DB
100
AcDbEntity
8
1
62
256
6
ByLayer
370
-1
48
1
60
0
100
AcDbSpline
70
4
71
1
72
4
73
2
40
0
40
0
40
1
40
1
41
1
10
17.0294630646116
20
1.60318526229685
30
0
41
1
10
17.0294630646116
20
3.41340864920653
30
0
0
SPLINE
5
1DC
100
AcDbEntity
8
1
62
256
6
ByLayer
370
-1
48
1
60
0
100
AcDbSpline
70
4
71
3
72
8
73
4
40
0
40
0
40
0
40
0
40
1
40
1
40
1
40
1
41
1
10
102.795683577124
20
8.13694000580395
30
0
41
1
10
102.795264357967
20
8.14899072842465
30
0
41
1
10
102.794866982721
20
8.16104221676534
30
0
41
1
10
102.79449145402
20
8.17309439102377
30
0
0
SPLINE
5
1DD
100
AcDbEntity
8
1
62
256
6
ByLayer
370
-1
48
1
60
0
100
AcDbSpline
70
4
71
3
72
8
73
4
40
0
40
0
40
0
40
0
40
1
40
1
40
1
40
1
41
1
10
103.650029725331
20
2.95966245404085
30
0
41
1
10
103.638024859348
20
2.95924163353402
30
0
41
1
10
103.626019230559
20
2.95884274037974
30
0
41
1
10
103.614012918463
20
2.95846577721943
30
0
0
SPLINE
5
1DE
100
AcDbEntity
8
1
62
256
6
ByLayer
370
-1
48
1
60
0
100
AcDbSpline
70
4
71
3
72
48
73
44
40
0
40
0
40
0
40
0
40
0.015625
40
0.0234375
40
0.02734375
40
0.029296875
40
0.0302734375
40
0.03125
40
0.03173828125
40
0.046875
40
0.0625
40
0.125
40
0.1875
40
0.25
40
0.3125
40
0.375
40
0.390625
40
0.40625
40
0.4140625
40
0.421875
40
0.4375
40
0.5
40
0.5625
40
0.59375
40
0.6015625
40
0.60546875
40
0.609375
40
0.6171875
40
0.625
40
0.65625
40
0.671875
40
0.6796875
40
0.6875
40
0.71875
40
0.75
40
0.78125
40
0.7890625
40
0.79296875
40
0.796875
40
0.8046875
40
0.8125
40
0.875
40
1
40
1
40
1
40
1
41
1
10
105.858461924836
20
3.85589544633248
30
0
41
1
10
105.858618791213
20
3.85138622207597
30
0
41
1
10
105.858939971252
20
3.84449874505515
30
0
41
1
10
105.859439457518
20
3.83692586593466
30
0
41
1
10
105.859714473397
20
3.83332866581677
30
0
41
1
10
105.859856976457
20
3.83159235427786
30
0
41
1
10
105.859940517922
20
3.83060809586459
30
0
41
1
10
105.859993112739
20
3.82999255645356
30
0
41
1
10
105.860350427147
20
3.82579542205087
30
0
41
1
10
105.861023028972
20
3.8178952807703
30
0
41
1
10
105.863030325041
20
3.79431829663611
30
0
41
1
10
105.86605703325
20
3.75876766087356
30
0
41
1
10
105.870092644196
20
3.71136681319018
30
0
41
1
10
105.874128255142
20
3.6639659655068
30
0
41
1
10
105.878163866088
20
3.6165651178234
30
0
41
1
10
105.881190011723
20
3.58102419154687
30
0
41
1
10
105.883208942344
20
3.55730434873317
30
0
41
1
10
105.884049600862
20
3.54743079038013
30
0
41
1
10
105.884720327439
20
3.5395630140529
30
0
41
1
10
105.885379034631
20
3.53163695287267
30
0
41
1
10
105.887158983965
20
3.50947131783238
30
0
41
1
10
105.889870762663
20
3.47138815956382
30
0
41
1
10
105.892437160587
20
3.42696556018802
30
0
41
1
10
105.893853255978
20
3.39771201296017
30
0
41
1
10
105.894407320059
20
3.38529903305718
30
0
41
1
10
105.894602705615
20
3.38080738702732
30
0
41
1
10
105.89479565639
20
3.37628630579022
30
0
41
1
10
105.895036506522
20
3.37059899530294
30
0
41
1
10
105.895614706247
20
3.35696738716211
30
0
41
1
10
105.896289436072
20
3.34106712673955
30
0
41
1
10
105.89696366969
20
3.32515690324209
30
0
41
1
10
105.897349767009
20
3.31608183071629
30
0
41
1
10
105.897907528558
20
3.30245989443486
30
0
41
1
10
105.898672040685
20
3.28192178780412
30
0
41
1
10
105.89952920608
20
3.25451167092189
30
0
41
1
10
105.900044210945
20
3.23408667906062
30
0
41
1
10
105.900310156177
20
3.22170195582291
30
0
41
1
10
105.900400765386
20
3.217216780174
30
0
41
1
10
105.900488463095
20
3.21272982364809
30
0
41
1
10
105.900597280778
20
3.20711337271078
30
0
41
1
10
105.901033228945
20
3.18465409972353
30
0
41
1
10
105.902123099363
20
3.12850591725544
30
0
41
1
10
105.903169374964
20
3.07460366208605
30
0
41
1
10
105.903866892031
20
3.03866882530647
30
0
0
SPLINE
5
1DF
100
AcDbEntity
8
1
62
256
6
ByLayer
370
-1
48
1
60
0
100
AcDbSpline
70
4
71
3
72
153
73
149
40
0
40
0
40
0
40
0
40
0.125
40
0.25
40
0.375
40
0.3828125
40
0.390625
40
0.398193359375
40
0.4019775390625
40
0.405643463134766
40
0.40576171875
40
0.406005859375
40
0.40625
40
0.4072265625
40
0.40771484375
40
0.408203125
40
0.4091796875
40
0.41015625
40
0.412109375
40
0.4140625
40
0.416015625
40
0.4169921875
40
0.41796875
40
0.4189453125
40
0.41943359375
40
0.419921875
40
0.42041015625
40
0.4208984375
40
0.421875
40
0.422119140625
40
0.42236328125
40
0.422477722167969
40
0.426025390625
40
0.4296875
40
0.4375
40
0.439453125
40
0.44140625
40
0.443359375
40
0.4443359375
40
0.4453125
40
0.445556640625
40
0.44580078125
40
0.446044921875
40
0.4462890625
40
0.4464111328125
40
0.44677734375
40
0.447265625
40
0.44921875
40
0.453125
40
0.4609375
40
0.46484375
40
0.46875
40
0.46923828125
40
0.4697265625
40
0.47021484375
40
0.4705810546875
40
0.470703125
40
0.4708251953125
40
0.47119140625
40
0.471435546875
40
0.4716796875
40
0.4718017578125
40
0.47216796875
40
0.472412109375
40
0.47265625
40
0.4727783203125
40
0.474609375
40
0.4755859375
40
0.4765625
40
0.48046875
40
0.482421875
40
0.484375
40
0.486328125
40
0.48828125
40
0.490234375
40
0.4921875
40
0.494140625
40
0.49609375
40
0.498046875
40
0.5
40
0.501953125
40
0.50390625
40
0.505859375
40
0.5078125
40
0.509765625
40
0.51171875
40
0.515625
40
0.51953125
40
0.5224609375
40
0.5234375
40
0.525390625
40
0.5263671875
40
0.527099609375
40
0.52734375
40
0.52783203125
40
0.528076171875
40
0.5283203125
40
0.5284423828125
40
0.52880859375
40
0.529052734375
40
0.529296875
40
0.5294189453125
40
0.52978515625
40
0.5302734375
40
0.53125
40
0.5390625
40
0.546875
40
0.55078125
40
0.5517578125
40
0.552734375
40
0.55322265625
40
0.5537109375
40
0.553955078125
40
0.55419921875
40
0.554443359375
40
0.5545654296875
40
0.5546875
40
0.556640625
40
0.55859375
40
0.5625
40
0.56640625
40
0.5703125
40
0.573974609375
40
0.5758056640625
40
0.57763671875
40
0.577880859375
40
0.578125
40
0.5791015625
40
0.57958984375
40
0.580078125
40
0.5810546875
40
0.58203125
40
0.5859375
40
0.587890625
40
0.58984375
40
0.5908203125
40
0.591796875
40
0.5927734375
40
0.59375
40
0.593994140625
40
0.59423828125
40
0.594380187988281
40
0.601806640625
40
0.609375
40
0.625
40
0.75
40
0.875
40
1
40
1
40
1
40
1
41
1
10
105.858461924835
20
3.85589544633243
30
0
41
1
10
105.685037716853
20
3.84981620619712
30
0
41
1
10
105.338189300888
20
3.83765772592645
30
0
41
1
10
104.817916676941
20
3.81942000552047
30
0
41
1
10
104.460229247977
20
3.80688157274136
30
0
41
1
10
104.265127013997
20
3.80004242758912
30
0
41
1
10
104.232948694157
20
3.79891444357963
30
0
41
1
10
104.206359240394
20
3.79798237258231
30
0
41
1
10
104.1855227198
20
3.79725196583144
30
0
41
1
10
104.175022425957
20
3.79688388683886
30
0
41
1
10
104.169433559879
20
3.79668797382669
30
0
41
1
10
104.168592054476
20
3.79665847556066
30
0
41
1
10
104.166559739538
20
3.79658723446531
30
0
41
1
10
104.164188705445
20
3.79650411985409
30
0
41
1
10
104.161478952195
20
3.79640913172699
30
0
41
1
10
104.158769198946
20
3.79631414359986
30
0
41
1
10
104.155382007383
20
3.79619540844098
30
0
41
1
10
104.149962500884
20
3.79600543218675
30
0
41
1
10
104.14318811776
20
3.79576796186896
30
0
41
1
10
104.13505885801
20
3.79548299748763
30
0
41
1
10
104.128284474886
20
3.79524552716984
30
0
41
1
10
104.122864968387
20
3.79505555091561
30
0
41
1
10
104.118800338512
20
3.79491306872492
30
0
41
1
10
104.11541314695
20
3.79479433356605
30
0
41
1
10
104.1127033937
20
3.79469934543891
30
0
41
1
10
104.110671078763
20
3.79462810434359
30
0
41
1
10
104.108638763826
20
3.79455686324823
30
0
41
1
10
104.105929010576
20
3.79446187512113
30
0
41
1
10
104.103557976482
20
3.79437876050992
30
0
41
1
10
104.101525661545
20
3.79430751941456
30
0
41
1
10
104.100689448628
20
3.79427820667223
30
0
41
1
10
104.095269942129
20
3.794088230418
30
0
41
1
10
104.085108367442
20
3.79373202494131
30
0
41
1
10
104.064266554361
20
3.79300143266676
30
0
41
1
10
104.04563700077
20
3.79234838929284
30
0
41
1
10
104.029378481271
20
3.79177846053014
30
0
41
1
10
104.02124902403
20
3.79149348234392
30
0
41
1
10
104.014474147174
20
3.79125597751394
30
0
41
1
10
104.009053949452
20
3.79106595294266
30
0
41
1
10
104.006004958628
20
3.79095905506185
30
0
41
1
10
104.003972236363
20
3.79088778549394
30
0
41
1
10
104.002955862501
20
3.79085214982024
30
0
41
1
10
104.001939475525
20
3.7908165132298
30
0
41
1
10
104.001092475128
20
3.79078681528466
30
0
41
1
10
104.000076064236
20
3.79075117702254
30
0
41
1
10
103.998720830942
20
3.79070365802753
30
0
41
1
10
103.994824436893
20
3.79056703404362
30
0
41
1
10
103.986014529581
20
3.79025809830122
30
0
41
1
10
103.96703519726
20
3.78959240833831
30
0
41
1
10
103.94533189224
20
3.78883073629712
30
0
41
1
10
103.923661425165
20
3.78807135965511
30
0
41
1
10
103.912168672938
20
3.78766931670012
30
0
41
1
10
103.905417408038
20
3.78743346236502
30
0
41
1
10
103.903389981037
20
3.78736256294039
30
0
41
1
10
103.901527191626
20
3.78729727020294
30
0
41
1
10
103.900162825767
20
3.78724911283419
30
0
41
1
10
103.899304826356
20
3.7872186460491
30
0
41
1
10
103.898443885132
20
3.78718797362885
30
0
41
1
10
103.897408955964
20
3.78715108845236
30
0
41
1
10
103.896221929399
20
3.78710975832763
30
0
41
1
10
103.895394472921
20
3.78708190180041
30
0
41
1
10
103.894427793803
20
3.78705059533738
30
0
41
1
10
103.893491232763
20
3.78702251276661
30
0
41
1
10
103.89242103319
20
3.78699618114936
30
0
41
1
10
103.891661258345
20
3.78698170692579
30
0
41
1
10
103.888916552565
20
3.78694308101925
30
0
41
1
10
103.885190738519
20
3.78698761735669
30
0
41
1
10
103.88029611233
20
3.78722821285354
30
0
41
1
10
103.872652331916
20
3.78780066754112
30
0
41
1
10
103.863613377223
20
3.78905958886293
30
0
41
1
10
103.853224007996
20
3.79136520792676
30
0
41
1
10
103.845429187624
20
3.79354191281132
30
0
41
1
10
103.837658347991
20
3.79618017294988
30
0
41
1
10
103.829956005565
20
3.79927955832835
30
0
41
1
10
103.822366676812
20
3.80283963893282
30
0
41
1
10
103.814929711592
20
3.80685344536263
30
0
41
1
10
103.807684459763
20
3.81131400821727
30
0
41
1
10
103.800669424449
20
3.81620468543721
30
0
41
1
10
103.793923108773
20
3.82150883496303
30
0
41
1
10
103.787479699716
20
3.82720115536833
30
0
41
1
10
103.781373384255
20
3.8332563452268
30
0
41
1
10
103.775631690902
20
3.83964193550494
30
0
41
1
10
103.770282148168
20
3.84632545716934
30
0
41
1
10
103.765343980242
20
3.85326951506187
30
0
41
1
10
103.760836411313
20
3.86043671402444
30
0
41
1
10
103.755413345903
20
3.87023861035087
30
0
41
1
10
103.749759366006
20
3.88285424449504
30
0
41
1
10
103.745215676925
20
3.8969375460114
30
0
41
1
10
103.742921012929
20
3.90718140772327
30
0
41
1
10
103.741614638268
20
3.91482324183627
30
0
41
1
10
103.740948006161
20
3.91989031880175
30
0
41
1
10
103.740512537569
20
3.92457056255057
30
0
41
1
10
103.74033892906
20
3.9270379674972
30
0
41
1
10
103.740233753832
20
3.92887399150823
30
0
41
1
10
103.740176135777
20
3.93009037283909
30
0
41
1
10
103.740125134758
20
3.93133820715605
30
0
41
1
10
103.740094790859
20
3.93213935227809
30
0
41
1
10
103.740058653921
20
3.93312717916777
30
0
41
1
10
103.740022838938
20
3.9341449795308
30
0
41
1
10
103.739981324371
20
3.9353529508798
30
0
41
1
10
103.739951748989
20
3.9362186952396
30
0
41
1
10
103.739916260073
20
3.93725226010864
30
0
41
1
10
103.739868943974
20
3.93862186068961
30
0
41
1
10
103.739780231538
20
3.94117173054451
30
0
41
1
10
103.739330768221
20
3.95404607607955
30
0
41
1
10
103.738526447265
20
3.97714717628981
30
0
41
1
10
103.737580171375
20
4.00438001324957
30
0
41
1
10
103.736965095037
20
4.02207102347899
30
0
41
1
10
103.736681214082
20
4.03023461467222
30
0
41
1
10
103.736562930417
20
4.03363588329492
30
0
41
1
10
103.736468303521
20
4.03635677398884
30
0
41
1
10
103.736409161725
20
4.03805728150834
30
0
41
1
10
103.736361848296
20
4.03941765957796
30
0
41
1
10
103.736326363229
20
4.04043792954536
30
0
41
1
10
103.736296792342
20
4.04128814352094
30
0
41
1
10
103.736273135635
20
4.04196830829713
30
0
41
1
10
103.736166680457
20
4.04502903086816
30
0
41
1
10
103.735971512716
20
4.0506400652543
30
0
41
1
10
103.735593005811
20
4.06152127642926
30
0
41
1
10
103.735119872468
20
4.07512179676385
30
0
41
1
10
103.734552112457
20
4.0914424211654
30
0
41
1
10
103.733996180779
20
4.10742303255856
30
0
41
1
10
103.733540789936
20
4.1205135333806
30
0
41
1
10
103.733185939929
20
4.13071392363156
30
0
41
1
10
103.732996686591
20
4.13615413176538
30
0
41
1
10
103.732884317422
20
4.13938425534485
30
0
41
1
10
103.732813347421
20
4.14142433339507
30
0
41
1
10
103.732730549086
20
4.14380442445361
30
0
41
1
10
103.732635922417
20
4.14652452852053
30
0
41
1
10
103.732541295749
20
4.14924463258745
30
0
41
1
10
103.732423012413
20
4.15264476267109
30
0
41
1
10
103.732139132407
20
4.16080507487186
30
0
41
1
10
103.731807939067
20
4.17032543910608
30
0
41
1
10
103.731429432392
20
4.18120585537378
30
0
41
1
10
103.731192865721
20
4.18800611554107
30
0
41
1
10
103.731003612384
20
4.19344632367492
30
0
41
1
10
103.730861672381
20
4.19752647977529
30
0
41
1
10
103.730719732378
20
4.20160663587566
30
0
41
1
10
103.730613277376
20
4.20466675295097
30
0
41
1
10
103.730542307374
20
4.20670683100116
30
0
41
1
10
103.730511775488
20
4.20758448957898
30
0
41
1
10
103.730133268814
20
4.21846490584667
30
0
41
1
10
103.729399912132
20
4.2395457123653
30
0
41
1
10
103.72791641732
20
4.28218971885821
30
0
41
1
10
103.720736618839
20
4.48857761493579
30
0
41
1
10
103.707867391908
20
4.858511768037
30
0
41
1
10
103.689699071534
20
5.38077174888579
30
0
41
1
10
103.677586857951
20
5.72894506945164
30
0
41
1
10
103.67153075116
20
5.90303172973455
30
0
0
SPLINE
5
1E0
100
AcDbEntity
8
1
62
256
6
ByLayer
370
-1
48
1
60
0
100
AcDbSpline
70
4
71
3
72
8
73
4
40
0
40
0
40
0
40
0
40
1
40
1
40
1
40
1
41
1
10
108.193716404473
20
3.11900344169757
30
0
41
1
10
108.181713105029
20
3.11853876778343
30
0
41
1
10
108.169708963285
20
3.11809601843097
30
0
41
1
10
108.157704058729
20
3.11767519657198
30
0
0
SPLINE
5
1E1
100
AcDbEntity
8
1
62
256
6
ByLayer
370
-1
48
1
60
0
100
AcDbSpline
70
4
71
3
72
14
73
10
40
0
40
0
40
0
40
0
40
0.0050966481374705
40
0.0240065217780211
40
0.0435263913424607
40
0.0630462609069003
40
0.375364173937933
40
0.687682086968967
40
1
40
1
40
1
40
1
41
1
10
108.807606317878
20
3.81727207082133
30
0
41
1
10
108.807472575115
20
3.82111570647589
30
0
41
1
10
108.806842643311
20
3.83922021310593
30
0
41
1
10
108.805700717883
20
3.87204558937148
30
0
41
1
10
108.804180395744
20
3.91574822092281
30
0
41
1
10
108.794962442564
20
4.18072417643401
30
0
41
1
10
108.778062861735
20
4.66651342820461
30
0
41
1
10
108.753481653256
20
5.37311597623454
30
0
41
1
10
108.737094180937
20
5.84418434158783
30
0
41
1
10
108.728900444777
20
6.07971852426448
30
0
0
SPLINE
5
1E2
100
AcDbEntity
8
1
62
256
6
ByLayer
370
-1
48
1
60
0
100
AcDbSpline
70
4
71
3
72
48
73
44
40
0
40
0
40
0
40
0
40
0.015625
40
0.0234375
40
0.02734375
40
0.029296875
40
0.0302734375
40
0.03125
40
0.03173828125
40
0.046875
40
0.0625
40
0.125
40
0.1875
40
0.25
40
0.3125
40
0.375
40
0.390625
40
0.40625
40
0.4140625
40
0.421875
40
0.4375
40
0.5
40
0.5625
40
0.59375
40
0.6015625
40
0.60546875
40
0.609375
40
0.6171875
40
0.625
40
0.65625
40
0.671875
40
0.6796875
40
0.6875
40
0.71875
40
0.75
40
0.78125
40
0.7890625
40
0.79296875
40
0.796875
40
0.8046875
40
0.8125
40
0.875
40
1
40
1
40
1
40
1
41
1
10
103.67153075116
20
5.90303172973455
30
0
41
1
10
103.667038685863
20
5.9028742641537
30
0
41
1
10
103.66025899705
20
5.90263374815629
30
0
41
1
10
103.652950976836
20
5.90236929739012
30
0
41
1
10
103.649517342043
20
5.90224368039398
30
0
41
1
10
103.647869738147
20
5.90218304705897
30
0
41
1
10
103.646938526331
20
5.90214867599781
30
0
41
1
10
103.646356510736
20
5.90212718088793
30
0
41
1
10
103.642386652674
20
5.90198061372493
30
0
41
1
10
103.634914346431
20
5.9017047347123
30
0
41
1
10
103.612614182486
20
5.90088140828405
30
0
41
1
10
103.578988804392
20
5.89963995272731
30
0
41
1
10
103.534154966932
20
5.89798467865162
30
0
41
1
10
103.489321129473
20
5.89632940457597
30
0
41
1
10
103.444487292013
20
5.89467413050031
30
0
41
1
10
103.410871361655
20
5.89343301400629
30
0
41
1
10
103.388435547452
20
5.892604698843
30
0
41
1
10
103.379096739271
20
5.8922599065877
30
0
41
1
10
103.371655925483
20
5.89198515778415
30
0
41
1
10
103.364143001643
20
5.89170837362869
30
0
41
1
10
103.343070567297
20
5.89093433259683
30
0
41
1
10
103.306519273095
20
5.88960443940542
30
0
41
1
10
103.263286744748
20
5.88805316805238
30
0
41
1
10
103.234542942441
20
5.88703161167282
30
0
41
1
10
103.222299440433
20
5.88659814086293
30
0
41
1
10
103.217864017161
20
5.88644128912728
30
0
41
1
10
103.213395811922
20
5.88628340949154
30
0
41
1
10
103.207773143994
20
5.88608480423298
30
0
41
1
10
103.194297393141
20
5.8856087779873
30
0
41
1
10
103.178579231396
20
5.88505352865823
30
0
41
1
10
103.162850301689
20
5.88449793141092
30
0
41
1
10
103.15388015729
20
5.88418102289512
30
0
41
1
10
103.140393939779
20
5.8837053343982
30
0
41
1
10
103.119984021672
20
5.88298812791075
30
0
41
1
10
103.092581833949
20
5.88203094553737
30
0
41
1
10
103.072039027936
20
5.88131768910469
30
0
41
1
10
103.059536539208
20
5.88088520503931
30
0
41
1
10
103.055003010439
20
5.88072857925434
30
0
41
1
10
103.050464734118
20
5.88057189127977
30
0
41
1
10
103.044783088703
20
5.88037576049123
30
0
41
1
10
103.022063917582
20
5.87959146539629
30
0
41
1
10
102.965265989779
20
5.87763072765895
30
0
41
1
10
102.910739979089
20
5.87574841943109
30
0
41
1
10
102.874389305295
20
5.87449354727917
30
0
0
SPLINE
5
1E3
100
AcDbEntity
8
1
62
256
6
ByLayer
370
-1
48
1
60
0
100
AcDbSpline
70
4
71
3
72
14
73
10
40
0
40
0
40
0
40
0
40
0.0050966481374707
40
0.0240065217780212
40
0.0435263913424608
40
0.0630462609069004
40
0.375364173937934
40
0.687682086968967
40
1
40
1
40
1
40
1
41
1
10
102.795683432193
20
8.13694000072235
30
0
41
1
10
102.795817174957
20
8.13309636506779
30
0
41
1
10
102.79644710676
20
8.11499185843775
30
0
41
1
10
102.797589032189
20
8.0821664821722
30
0
41
1
10
102.799109354328
20
8.03846385062087
30
0
41
1
10
102.808327307507
20
7.77348789510964
30
0
41
1
10
102.825226888337
20
7.28769864333907
30
0
41
1
10
102.849808096816
20
6.58109609530914
30
0
41
1
10
102.866195569135
20
6.11002772995585
30
0
41
1
10
102.874389305295
20
5.8744935472792
30
0
0
SPLINE
5
1E4
100
AcDbEntity
8
1
62
256
6
ByLayer
370
-1
48
1
60
0
100
AcDbSpline
70
4
71
3
72
22
73
18
40
0
40
0
40
0
40
0
40
0.0023505275440342
40
0.012348752733152
40
0.0223469779222699
40
0.0623398786787412
40
0.102332779435203
40
0.182318580948155
40
0.262304382461093
40
0.34229018397404
40
0.662233390025811
40
0.812206767862578
40
0.957493477641933
40
0.962180145699346
40
0.972178370888459
40
0.982176596077581
40
1
40
1
40
1
40
1
41
1
10
108.797814631457
20
3.55967920522355
30
0
41
1
10
108.797821979698
20
3.55978334375766
30
0
41
1
10
108.79786058752
20
3.56033165319343
30
0
41
1
10
108.797930668265
20
3.56133601018593
30
0
41
1
10
108.798119519078
20
3.56406099542838
30
0
41
1
10
108.798404727193
20
3.5681674192773
30
0
41
1
10
108.798915667538
20
3.57550601168512
30
0
41
1
10
108.799558678398
20
3.58472176947646
30
0
41
1
10
108.800327679288
20
3.59575506171919
30
0
41
1
10
108.80186306893
20
3.61779602909775
30
0
41
1
10
108.803622369562
20
3.64305130421903
30
0
41
1
10
108.805590587143
20
3.67130564326095
30
0
41
1
10
108.806550409955
20
3.68508127699676
30
0
41
1
10
108.807062424407
20
3.69242829718877
30
0
41
1
10
108.807141428309
20
3.69356191968336
30
0
41
1
10
108.807262170302
20
3.6952988294793
30
0
41
1
10
108.807350356299
20
3.69657647137572
30
0
41
1
10
108.80740628495
20
3.69739496245813
30
0
0
SPLINE
5
1E5
100
AcDbEntity
8
1
62
256
6
ByLayer
370
-1
48
1
60
0
100
AcDbSpline
70
4
71
3
72
19
73
15
40
0
40
0
40
0
40
0
40
0.0403657336154951
40
0.106300330648555
40
0.172234927681614
40
0.238169524714673
40
0.370038718780792
40
0.501907912846911
40
0.765646300979148
40
0.831580898012208
40
0.897515495045267
40
0.930482793561797
40
0.963450092078327
40
1
40
1
40
1
40
1
41
1
10
108.648935513564
20
8.37831725062938
30
0
41
1
10
108.648894817539
20
8.37944352134241
30
0
41
1
10
108.648784803053
20
8.38240913760538
30
0
41
1
10
108.64858559227
20
8.3872127598743
30
0
41
1
10
108.64831392047
20
8.39272899007261
30
0
41
1
10
108.647898421979
20
8.40008240767784
30
0
41
1
10
108.647286507263
20
8.40926961023004
30
0
41
1
10
108.646106543347
20
8.42395526327255
30
0
41
1
10
108.644805827934
20
8.43678159267415
30
0
41
1
10
108.643507426639
20
8.44775217667353
30
0
41
1
10
108.642933336719
20
8.45231840015785
30
0
41
1
10
108.642452707763
20
8.45596789638989
30
0
41
1
10
108.64206996423
20
8.45880288003588
30
0
41
1
10
108.641805076146
20
8.46072535243391
30
0
41
1
10
108.64166493223
20
8.46173607472855
30
0
0
SPLINE
5
1E6
100
AcDbEntity
8
1
62
256
6
ByLayer
370
-1
48
1
60
0
100
AcDbSpline
70
4
71
3
72
22
73
18
40
0
40
0
40
0
40
0
40
0.0178234039225405
40
0.0278216291116552
40
0.0378198543007699
40
0.112806543219131
40
0.187793232137491
40
0.337766609974212
40
0.497738213000048
40
0.657709816025884
40
0.817681419051719
40
0.897667220564637
40
0.977653022077555
40
0.982652134672113
40
0.98765124726667
40
0.997649472455785
40
1
40
1
40
1
40
1
41
1
10
102.961624817841
20
3.4924759968151
30
0
41
1
10
102.961737488041
20
3.49166341582395
30
0
41
1
10
102.961914243872
20
3.49039506124106
30
0
41
1
10
102.962155391393
20
3.48867083717849
30
0
41
1
10
102.962761806155
20
3.48434045737423
30
0
41
1
10
102.963783073091
20
3.47704719065305
30
0
41
1
10
102.965697791787
20
3.46337232678783
30
0
41
1
10
102.968154812876
20
3.44582293258165
30
0
41
1
10
102.971154293166
20
3.42439899679749
30
0
41
1
10
102.974217592186
20
3.4025192325924
30
0
41
1
10
102.976770341369
20
3.38428609575482
30
0
41
1
10
102.978821312588
20
3.36964884269435
30
0
41
1
10
102.979870837243
20
3.36214783023058
30
0
41
1
10
102.980437790837
20
3.35808826863337
30
0
41
1
10
102.980563481372
20
3.35718895398989
30
0
41
1
10
102.980671932873
20
3.35641498460637
30
0
41
1
10
102.980748549236
20
3.35587071425775
30
0
41
1
10
102.98076311627
20
3.35576734394516
30
0
0
SPLINE
5
1E7
100
AcDbEntity
8
1
62
256
6
ByLayer
370
-1
48
1
60
0
100
AcDbSpline
70
4
71
3
72
79
73
75
40
0
40
0
40
0
40
0
40
0.0017245864916205
40
0.0039792263717479
40
0.0084885061320029
40
0.0129977858922579
40
0.0220163454127678
40
0.0310349049332777
40
0.0671091430153174
40
0.139257619179397
40
0.211406095343476
40
0.220424654863986
40
0.224933934624241
40
0.228315894444432
40
0.229443214384496
40
0.231697854264623
40
0.233952494144751
40
0.237334453964942
40
0.238461773905006
40
0.240716413785133
40
0.242971053665261
40
0.247480333425516
40
0.249734973305643
40
0.256498892946026
40
0.265517452466536
40
0.283554571507555
40
0.292573131028065
40
0.319628809589595
40
0.355703047671635
40
0.391777285753675
40
0.409814404794694
40
0.427851523835714
40
0.445888642876734
40
0.463925761917754
40
0.481962880958774
40
0.499999999999794
40
0.518037119040814
40
0.536074238081834
40
0.554111357122853
40
0.572148476163874
40
0.590185595204891
40
0.608222714245913
40
0.626259833286932
40
0.644296952327953
40
0.662334071368973
40
0.680371190409994
40
0.716445428492032
40
0.72546398801254
40
0.734482547533052
40
0.751392346634007
40
0.752519666574072
40
0.7547743064542
40
0.757028946334327
40
0.76041090615452
40
0.761538226094582
40
0.763792865974711
40
0.766047505854835
40
0.76942946567503
40
0.770556785615092
40
0.771684105555154
40
0.775066065375348
40
0.779575345135602
40
0.784084624895857
40
0.788593904656112
40
0.824668142738151
40
0.860742380820191
40
0.93289085698427
40
0.96896509506631
40
0.98700221410733
40
0.991511493867585
40
0.994893453687774
40
0.99602077362784
40
0.998275413507967
40
1
40
1
40
1
40
1
41
1
10
102.98076311627
20
3.35576734394516
30
0
41
1
10
102.980810511703
20
3.35543101736263
30
0
41
1
10
102.980919465759
20
3.35466058763632
30
0
41
1
10
102.981151691722
20
3.35303975455616
30
0
41
1
10
102.981464949104
20
3.35092392864584
30
0
41
1
10
102.981982327391
20
3.34756874731491
30
0
41
1
10
102.982670280025
20
3.3433408806161
30
0
41
1
10
102.984448392217
20
3.33313788594282
30
0
41
1
10
102.988962432815
20
3.31101091663473
30
0
41
1
10
102.998466053334
20
3.27673738005169
30
0
41
1
10
103.009557759171
20
3.24782171138574
30
0
41
1
10
103.016715813891
20
3.23187292555622
30
0
41
1
10
103.018160089484
20
3.22873266215257
30
0
41
1
10
103.018940159569
20
3.22706029145593
30
0
41
1
10
103.019529404297
20
3.22580708844509
30
0
41
1
10
103.020023060953
20
3.22476343090543
30
0
41
1
10
103.020719067101
20
3.22330360048446
30
0
41
1
10
103.021320876812
20
3.22205372523513
30
0
41
1
10
103.021926869481
20
3.22080500717865
30
0
41
1
10
103.022434477001
20
3.2197651384642
30
0
41
1
10
103.023252221709
20
3.21810293253552
30
0
41
1
10
103.024078320826
20
3.21644314371909
30
0
41
1
10
103.025329987308
20
3.21395720943465
30
0
41
1
10
103.027021117556
20
3.21064940474622
30
0
41
1
10
103.030264846213
20
3.20447057794448
30
0
41
1
10
103.033857757576
20
3.1979250776489
30
0
41
1
10
103.039445642106
20
3.18818258904136
30
0
41
1
10
103.04724685334
20
3.17533421765501
30
0
41
1
10
103.058801351085
20
3.15805845930964
30
0
41
1
10
103.070143311022
20
3.14282845803368
30
0
41
1
10
103.079697762022
20
3.13096840608307
30
0
41
1
10
103.087098581897
20
3.12224504388522
30
0
41
1
10
103.094728923499
20
3.11370306068247
30
0
41
1
10
103.102581408534
20
3.10535093727762
30
0
41
1
10
103.110648658711
20
3.09719715447346
30
0
41
1
10
103.118923295735
20
3.08925019307279
30
0
41
1
10
103.127397941315
20
3.08151853387838
30
0
41
1
10
103.136063652815
20
3.07400897373421
30
0
41
1
10
103.144911487603
20
3.06672830948429
30
0
41
1
10
103.153932503042
20
3.05968333797264
30
0
41
1
10
103.1631177565
20
3.05288085604323
30
0
41
1
10
103.172457225347
20
3.04632565430703
30
0
41
1
10
103.181940886954
20
3.04002252337497
30
0
41
1
10
103.191558718691
20
3.03397625385799
30
0
41
1
10
103.201300697929
20
3.02819163636701
30
0
41
1
10
103.214441458553
20
3.02083116517903
30
0
41
1
10
103.226119935274
20
3.01485778619386
30
0
41
1
10
103.236232461193
20
3.01007787246599
30
0
41
1
10
103.242788220531
20
3.00707878260812
30
0
41
1
10
103.247889301667
20
3.00485485296525
30
0
41
1
10
103.251726645502
20
3.00323808660906
30
0
41
1
10
103.25279316859
20
3.00279165078635
30
0
41
1
10
103.254287386165
20
3.00217161807788
30
0
41
1
10
103.255569281133
20
3.00164549553472
30
0
41
1
10
103.256852054872
20
3.00112364154987
30
0
41
1
10
103.257921575789
20
3.00069143135033
30
0
41
1
10
103.259419894293
20
3.0000913185805
30
0
41
1
10
103.260705201455
20
2.99958227462707
30
0
41
1
10
103.261776954473
20
2.99916163136885
30
0
41
1
10
103.262849035061
20
2.99874276831028
30
0
41
1
10
103.264565398512
20
2.99807828463645
30
0
41
1
10
103.266927788513
20
2.99717833271339
30
0
41
1
10
103.269507756679
20
2.99621367083714
30
0
41
1
10
103.278116486617
20
2.99305516734492
30
0
41
1
10
103.292814725426
20
2.9881222152861
30
0
41
1
10
103.320589315097
20
2.98028064065028
30
0
41
1
10
103.348367621954
20
2.97457993426741
30
0
41
1
10
103.372387269015
20
2.97137420762536
30
0
41
1
10
103.383499351235
20
2.97028240139045
30
0
41
1
10
103.388344247164
20
2.96987408835847
30
0
41
1
10
103.390042039109
20
2.9697400688203
30
0
41
1
10
103.391327582748
20
2.96964263677626
30
0
41
1
10
103.392306318007
20
2.96957075861573
30
0
41
1
10
103.393079546679
20
2.96951539725404
30
0
41
1
10
103.393417083419
20
2.96949139762825
30
0
0
SPLINE
5
1E8
100
AcDbEntity
8
1
62
256
6
ByLayer
370
-1
48
1
60
0
100
AcDbSpline
70
4
71
3
72
79
73
75
40
0
40
0
40
0
40
0
40
0.0017245864916256
40
0.0039792263717531
40
0.0084885061320081
40
0.0129977858922631
40
0.0220163454127731
40
0.0310349049332831
40
0.0671091430153232
40
0.139257619179403
40
0.211406095343483
40
0.220424654863994
40
0.224933934624248
40
0.22831589444444
40
0.229443214384503
40
0.231697854264631
40
0.233952494144758
40
0.23733445396495
40
0.238461773905013
40
0.240716413785141
40
0.242971053665268
40
0.247480333425524
40
0.249734973305651
40
0.256498892946034
40
0.265517452466544
40
0.283554571507564
40
0.292573131028074
40
0.319628809589604
40
0.355703047671644
40
0.391777285753684
40
0.409814404794704
40
0.427851523835724
40
0.445888642876744
40
0.463925761917764
40
0.481962880958784
40
0.499999999999804
40
0.518037119040824
40
0.536074238081845
40
0.554111357122863
40
0.572148476163885
40
0.590185595204903
40
0.608222714245925
40
0.626259833286944
40
0.644296952327965
40
0.662334071368985
40
0.680371190410006
40
0.716445428492045
40
0.725463988012553
40
0.734482547533065
40
0.75139234663402
40
0.752519666574085
40
0.754774306454212
40
0.75702894633434
40
0.760410906154533
40
0.761538226094595
40
0.763792865974724
40
0.766047505854848
40
0.769429465675043
40
0.770556785615105
40
0.771684105555167
40
0.775066065375361
40
0.779575345135615
40
0.78408462489587
40
0.788593904656125
40
0.824668142738165
40
0.860742380820205
40
0.932890856984285
40
0.968965095066325
40
0.987002214107345
40
0.9915114938676
40
0.994893453687789
40
0.996020773627855
40
0.998275413507983
40
1
40
1
40
1
40
1
41
1
10
108.622526633802
20
8.59844472759849
30
0
41
1
10
108.622479238369
20
8.59878105418102
30
0
41
1
10
108.622370284312
20
8.59955148390736
30
0
41
1
10
108.622138058349
20
8.60117231698752
30
0
41
1
10
108.621824800968
20
8.60328814289784
30
0
41
1
10
108.62130742268
20
8.60664332422877
30
0
41
1
10
108.620619470047
20
8.61087119092758
30
0
41
1
10
108.618841357855
20
8.62107418560086
30
0
41
1
10
108.614327317256
20
8.64320115490892
30
0
41
1
10
108.604823696737
20
8.67747469149199
30
0
41
1
10
108.5937319909
20
8.70639036015791
30
0
41
1
10
108.586573936181
20
8.72233914598743
30
0
41
1
10
108.585129660588
20
8.72547940939108
30
0
41
1
10
108.584349590502
20
8.72715178008775
30
0
41
1
10
108.583760345775
20
8.72840498309856
30
0
41
1
10
108.583266689119
20
8.72944864063822
30
0
41
1
10
108.582570682971
20
8.73090847105922
30
0
41
1
10
108.58196887326
20
8.73215834630855
30
0
41
1
10
108.581362880591
20
8.73340706436503
30
0
41
1
10
108.58085527307
20
8.73444693307948
30
0
41
1
10
108.580037528362
20
8.73610913900816
30
0
41
1
10
108.579211429245
20
8.73776892782459
30
0
41
1
10
108.577959762763
20
8.74025486210903
30
0
41
1
10
108.576268632516
20
8.74356266679743
30
0
41
1
10
108.573024903858
20
8.7497414935992
30
0
41
1
10
108.569431992495
20
8.75628699389478
30
0
41
1
10
108.563844107966
20
8.76602948250232
30
0
41
1
10
108.556042896731
20
8.77887785388864
30
0
41
1
10
108.544488398986
20
8.79615361223401
30
0
41
1
10
108.533146439049
20
8.81138361351
30
0
41
1
10
108.52359198805
20
8.82324366546061
30
0
41
1
10
108.516191168175
20
8.83196702765846
30
0
41
1
10
108.508560826573
20
8.84050901086121
30
0
41
1
10
108.500708341537
20
8.84886113426606
30
0
41
1
10
108.492641091361
20
8.85701491707019
30
0
41
1
10
108.484366454336
20
8.86496187847087
30
0
41
1
10
108.475891808757
20
8.8726935376653
30
0
41
1
10
108.467226097256
20
8.88020309780947
30
0
41
1
10
108.458378262469
20
8.88748376205936
30
0
41
1
10
108.449357247029
20
8.89452873357104
30
0
41
1
10
108.440171993571
20
8.90133121550042
30
0
41
1
10
108.430832524724
20
8.90788641723663
30
0
41
1
10
108.421348863118
20
8.91418954816871
30
0
41
1
10
108.411731031381
20
8.92023581768569
30
0
41
1
10
108.401989052142
20
8.92602043517664
30
0
41
1
10
108.388848291519
20
8.93338090636465
30
0
41
1
10
108.377169814798
20
8.93935428534979
30
0
41
1
10
108.367057288878
20
8.94413419907769
30
0
41
1
10
108.360501529541
20
8.94713328893556
30
0
41
1
10
108.355400448404
20
8.94935721857843
30
0
41
1
10
108.35156310457
20
8.95097398493462
30
0
41
1
10
108.350496581481
20
8.95142042075733
30
0
41
1
10
108.349002363906
20
8.9520404534658
30
0
41
1
10
108.347720468938
20
8.95256657600893
30
0
41
1
10
108.346437695199
20
8.95308842999381
30
0
41
1
10
108.345368174283
20
8.95352064019332
30
0
41
1
10
108.343869855778
20
8.95412075296318
30
0
41
1
10
108.342584548617
20
8.95462979691661
30
0
41
1
10
108.341512795599
20
8.95505044017483
30
0
41
1
10
108.34044071501
20
8.95546930323337
30
0
41
1
10
108.338724351559
20
8.95613378690723
30
0
41
1
10
108.336361961558
20
8.95703373883029
30
0
41
1
10
108.333781993392
20
8.95799840070652
30
0
41
1
10
108.325173263455
20
8.96115690419876
30
0
41
1
10
108.310475024646
20
8.96608985625758
30
0
41
1
10
108.282700434974
20
8.97393143089337
30
0
41
1
10
108.254922128117
20
8.97963213727624
30
0
41
1
10
108.230902481056
20
8.98283786391832
30
0
41
1
10
108.219790398837
20
8.98392967015323
30
0
41
1
10
108.214945502907
20
8.98433798318521
30
0
41
1
10
108.213247710962
20
8.98447200272338
30
0
41
1
10
108.211962167324
20
8.98456943476742
30
0
41
1
10
108.210983432065
20
8.98464131292795
30
0
41
1
10
108.210210203392
20
8.98469667428961
30
0
41
1
10
108.209872666653
20
8.9847206739154
30
0
0
SPLINE
5
1E9
100
AcDbEntity
8
1
62
256
6
ByLayer
370
-1
48
1
60
0
100
AcDbSpline
70
4
71
3
72
153
73
149
40
0
40
0
40
0
40
0
40
0.125
40
0.25
40
0.375
40
0.3828125
40
0.390625
40
0.398193359375
40
0.4019775390625
40
0.405643463134766
40
0.40576171875
40
0.406005859375
40
0.40625
40
0.4072265625
40
0.40771484375
40
0.408203125
40
0.4091796875
40
0.41015625
40
0.412109375
40
0.4140625
40
0.416015625
40
0.4169921875
40
0.41796875
40
0.4189453125
40
0.41943359375
40
0.419921875
40
0.42041015625
40
0.4208984375
40
0.421875
40
0.422119140625
40
0.42236328125
40
0.422477722167969
40
0.426025390625
40
0.4296875
40
0.4375
40
0.439453125
40
0.44140625
40
0.443359375
40
0.4443359375
40
0.4453125
40
0.445556640625
40
0.44580078125
40
0.446044921875
40
0.4462890625
40
0.4464111328125
40
0.44677734375
40
0.447265625
40
0.44921875
40
0.453125
40
0.4609375
40
0.46484375
40
0.46875
40
0.46923828125
40
0.4697265625
40
0.47021484375
40
0.4705810546875
40
0.470703125
40
0.4708251953125
40
0.47119140625
40
0.471435546875
40
0.4716796875
40
0.4718017578125
40
0.47216796875
40
0.472412109375
40
0.47265625
40
0.4727783203125
40
0.474609375
40
0.4755859375
40
0.4765625
40
0.48046875
40
0.482421875
40
0.484375
40
0.486328125
40
0.48828125
40
0.490234375
40
0.4921875
40
0.494140625
40
0.49609375
40
0.498046875
40
0.5
40
0.501953125
40
0.50390625
40
0.505859375
40
0.5078125
40
0.509765625
40
0.51171875
40
0.515625
40
0.51953125
40
0.5224609375
40
0.5234375
40
0.525390625
40
0.5263671875
40
0.527099609375
40
0.52734375
40
0.52783203125
40
0.528076171875
40
0.5283203125
40
0.5284423828125
40
0.52880859375
40
0.529052734375
40
0.529296875
40
0.5294189453125
40
0.52978515625
40
0.5302734375
40
0.53125
40
0.5390625
40
0.546875
40
0.55078125
40
0.5517578125
40
0.552734375
40
0.55322265625
40
0.5537109375
40
0.553955078125
40
0.55419921875
40
0.554443359375
40
0.5545654296875
40
0.5546875
40
0.556640625
40
0.55859375
40
0.5625
40
0.56640625
40
0.5703125
40
0.573974609375
40
0.5758056640625
40
0.57763671875
40
0.577880859375
40
0.578125
40
0.5791015625
40
0.57958984375
40
0.580078125
40
0.5810546875
40
0.58203125
40
0.5859375
40
0.587890625
40
0.58984375
40
0.5908203125
40
0.591796875
40
0.5927734375
40
0.59375
40
0.593994140625
40
0.59423828125
40
0.594380187988281
40
0.601806640625
40
0.609375
40
0.625
40
0.75
40
0.875
40
1
40
1
40
1
40
1
41
1
10
107.897808236632
20
6.0511803418091
30
0
41
1
10
107.903864343423
20
5.87709368152619
30
0
41
1
10
107.915976557005
20
5.52892036096034
30
0
41
1
10
107.934144877379
20
5.00666038011155
30
0
41
1
10
107.946635597636
20
4.64760664327804
30
0
41
1
10
107.953448717776
20
4.45175915045974
30
0
41
1
10
107.954572409466
20
4.41945791466506
30
0
41
1
10
107.955500933652
20
4.39276689350839
30
0
41
1
10
107.956228560984
20
4.37185078079068
30
0
41
1
10
107.956595239325
20
4.36131037753137
30
0
41
1
10
107.956790406829
20
4.35570016289336
30
0
41
1
10
107.956819792845
20
4.35485544307571
30
0
41
1
10
107.956890762847
20
4.35281536502549
30
0
41
1
10
107.956973561182
20
4.35043527396695
30
0
41
1
10
107.95706818785
20
4.34771516990003
30
0
41
1
10
107.957162814519
20
4.3449950658331
30
0
41
1
10
107.957281097855
20
4.34159493574944
30
0
41
1
10
107.957470351192
20
4.33615472761562
30
0
41
1
10
107.957706917864
20
4.3293544674483
30
0
41
1
10
107.957990797869
20
4.32119415524755
30
0
41
1
10
107.958227364541
20
4.31439389508026
30
0
41
1
10
107.958416617878
20
4.30895368694641
30
0
41
1
10
107.958558557881
20
4.30487353084604
30
0
41
1
10
107.958676841217
20
4.30147340076238
30
0
41
1
10
107.958771467885
20
4.29875329669545
30
0
41
1
10
107.958842437887
20
4.29671321864527
30
0
41
1
10
107.958913407888
20
4.29467314059508
30
0
41
1
10
107.959008034557
20
4.29195303652816
30
0
41
1
10
107.959090832892
20
4.28957294546959
30
0
41
1
10
107.959161802894
20
4.2875328674194
30
0
41
1
10
107.959191004092
20
4.286693460305
30
0
41
1
10
107.959380257429
20
4.28125325217115
30
0
41
1
10
107.959735107437
20
4.2710528619202
30
0
41
1
10
107.960462919587
20
4.25013143649926
30
0
41
1
10
107.961113477934
20
4.23143072103917
30
0
41
1
10
107.961681237945
20
4.21511009663763
30
0
41
1
10
107.961965131704
20
4.20694958619012
30
0
41
1
10
107.962201732756
20
4.20014883040594
30
0
41
1
10
107.962391034226
20
4.19470792840843
30
0
41
1
10
107.962497525328
20
4.19164729093544
30
0
41
1
10
107.962568523694
20
4.1896068040013
30
0
41
1
10
107.962604023763
20
4.18858654775661
30
0
41
1
10
107.962639524746
20
4.18756627834711
30
0
41
1
10
107.962669109681
20
4.18671604254584
30
0
41
1
10
107.962704612329
20
4.18569574912988
30
0
41
1
10
107.9627519505
20
4.18433533906486
30
0
41
1
10
107.962888054588
20
4.18042406142396
30
0
41
1
10
107.963195814737
20
4.1715805016967
30
0
41
1
10
107.963858971549
20
4.15252867140993
30
0
41
1
10
107.964617745198
20
4.13074246328983
30
0
41
1
10
107.965374232182
20
4.10898921855187
30
0
41
1
10
107.965774745242
20
4.09745256587811
30
0
41
1
10
107.966009702081
20
4.09067551224283
30
0
41
1
10
107.966080331712
20
4.08864034079983
30
0
41
1
10
107.96614537599
20
4.08677043583617
30
0
41
1
10
107.966193350106
20
4.08540085832144
30
0
41
1
10
107.966223700956
20
4.08453958149235
30
0
41
1
10
107.966254256658
20
4.08367535161264
30
0
41
1
10
107.966291001475
20
4.08263646918357
30
0
41
1
10
107.966332174326
20
4.08144490836978
30
0
41
1
10
107.966359924851
20
4.0806142911421
30
0
41
1
10
107.966391112184
20
4.07964391946641
30
0
41
1
10
107.966419087892
20
4.07870378091627
30
0
41
1
10
107.966445319309
20
4.07762949335441
30
0
41
1
10
107.966459738454
20
4.07686681629284
30
0
41
1
10
107.966498217377
20
4.07411162618237
30
0
41
1
10
107.966453850514
20
4.07037158013273
30
0
41
1
10
107.966214170556
20
4.0654582572669
30
0
41
1
10
107.965643894231
20
4.0577852788536
30
0
41
1
10
107.964389763485
20
4.04871179682124
30
0
41
1
10
107.962092917998
20
4.03828274189223
30
0
41
1
10
107.959924496133
20
4.03045814657219
30
0
41
1
10
107.95729627537
20
4.02265762359454
30
0
41
1
10
107.954208684089
20
4.01492585947167
30
0
41
1
10
107.950662150666
20
4.00730754071606
30
0
41
1
10
107.946663617981
20
3.99984216749669
30
0
41
1
10
107.942220028915
20
3.99256923998263
30
0
41
1
10
107.937347962199
20
3.98552740837326
30
0
41
1
10
107.932063996563
20
3.97875532286807
30
0
41
1
10
107.926393337155
20
3.97228730103461
30
0
41
1
10
107.920361189122
20
3.9661576604405
30
0
41
1
10
107.913999897943
20
3.96039403475163
30
0
41
1
10
107.907341809097
20
3.95502405763381
30
0
41
1
10
107.900424175441
20
3.95006702670892
30
0
41
1
10
107.893284249834
20
3.94554223959886
30
0
41
1
10
107.883519652682
20
3.94009845895982
30
0
41
1
10
107.870952024835
20
3.93442288177792
30
0
41
1
10
107.856922314533
20
3.92986183654293
30
0
41
1
10
107.846717433807
20
3.92755840730311
30
0
41
1
10
107.83910467918
20
3.92624704250366
30
0
41
1
10
107.834056883972
20
3.92557786396952
30
0
41
1
10
107.829394449964
20
3.92514073195898
30
0
41
1
10
107.826936434238
20
3.92496646029341
30
0
41
1
10
107.825107396853
20
3.92486088331276
30
0
41
1
10
107.82389564422
20
3.92480304516607
30
0
41
1
10
107.82265255829
20
3.92475184933136
30
0
41
1
10
107.821854461767
20
3.92472138952397
30
0
41
1
10
107.820870393856
20
3.92468511454891
30
0
41
1
10
107.819856466531
20
3.92464916275799
30
0
41
1
10
107.818653091878
20
3.9246074896123
30
0
41
1
10
107.817790641937
20
3.92457780125707
30
0
41
1
10
107.816761010094
20
3.92454217677911
30
0
41
1
10
107.815396621257
20
3.92449467994095
30
0
41
1
10
107.812856454426
20
3.92440562863797
30
0
41
1
10
107.800031099663
20
3.92395444844394
30
0
41
1
10
107.777017906114
20
3.92314705511237
30
0
41
1
10
107.74988869832
20
3.92219716460193
30
0
41
1
10
107.732265007726
20
3.92157973877292
30
0
41
1
10
107.724132481462
20
3.92129477343877
30
0
41
1
10
107.720744155693
20
3.92117603794904
30
0
41
1
10
107.71803361881
20
3.92108104959337
30
0
41
1
10
107.716339582235
20
3.92102168188535
30
0
41
1
10
107.714984380814
20
3.92097418772704
30
0
41
1
10
107.713967993282
20
3.92093856711227
30
0
41
1
10
107.713121014627
20
3.92090888326982
30
0
41
1
10
107.712443438083
20
3.92088513619771
30
0
41
1
10
107.709394362486
20
3.92077827437879
30
0
41
1
10
107.70380467978
20
3.9205823611284
30
0
41
1
10
107.692964874898
20
3.92020240838897
30
0
41
1
10
107.67941610865
20
3.9197274677534
30
0
41
1
10
107.663157589151
20
3.9191575389907
30
0
41
1
10
107.647237788809
20
3.91859948374392
30
0
41
1
10
107.634197101295
20
3.91814235338217
30
0
41
1
10
107.624035526608
20
3.91778614790547
30
0
41
1
10
107.618616020109
20
3.91759617165127
30
0
41
1
10
107.615398188125
20
3.91748337325032
30
0
41
1
10
107.613365873188
20
3.91741213215496
30
0
41
1
10
107.610994839094
20
3.91732901754375
30
0
41
1
10
107.608285085844
20
3.91723402941665
30
0
41
1
10
107.605575332595
20
3.91713904128952
30
0
41
1
10
107.602188141033
20
3.91702030613064
30
0
41
1
10
107.594058881283
20
3.91673534174927
30
0
41
1
10
107.584574744909
20
3.91640288330439
30
0
41
1
10
107.573735731911
20
3.91602293079592
30
0
41
1
10
107.566961348786
20
3.91578546047813
30
0
41
1
10
107.561541842287
20
3.9155954842239
30
0
41
1
10
107.557477212412
20
3.91545300203325
30
0
41
1
10
107.553412582538
20
3.91531051984256
30
0
41
1
10
107.550364110132
20
3.91520365819957
30
0
41
1
10
107.548331795194
20
3.91513241710422
30
0
41
1
10
107.547457476372
20
3.91510176859134
30
0
41
1
10
107.536618463373
20
3.91472181608287
30
0
41
1
10
107.515617875688
20
3.91398565809774
30
0
41
1
10
107.473136142515
20
3.91249649657681
30
0
41
1
10
107.267533614692
20
3.90528927243199
30
0
41
1
10
106.899007172729
20
3.89237088714441
30
0
41
1
10
106.378734548782
20
3.87413316673843
30
0
41
1
10
106.031886132817
20
3.86197468646776
30
0
41
1
10
105.858461924835
20
3.85589544633243
30
0
0
SPLINE
5
1EA
100
AcDbEntity
8
1
62
256
6
ByLayer
370
-1
48
1
60
0
100
AcDbSpline
70
4
71
3
72
14
73
10
40
0
40
0
40
0
40
0
40
0.0050966481374638
40
0.0240065217780145
40
0.0435263913424542
40
0.0630462609068939
40
0.375364173937929
40
0.687682086968965
40
1
40
1
40
1
40
1
41
1
10
103.650029730394
20
2.95966230855606
30
0
41
1
10
103.653858739854
20
2.95979656219524
30
0
41
1
10
103.671894353371
20
2.9604289002358
30
0
41
1
10
103.704594819169
20
2.96157518763386
30
0
41
1
10
103.748131149013
20
2.96310131715643
30
0
41
1
10
104.012098791015
20
2.9723544814197
30
0
41
1
10
104.496039468019
20
2.98931861590236
30
0
41
1
10
105.199953180025
20
3.01399372060439
30
0
41
1
10
105.669228988028
20
3.03044379040574
30
0
41
1
10
105.90386689203
20
3.03866882530642
30
0
0
SPLINE
5
1EB
100
AcDbEntity
8
1
62
256
6
ByLayer
370
-1
48
1
60
0
100
AcDbSpline
70
4
71
3
72
22
73
18
40
0
40
0
40
0
40
0
40
0.017823403922572
40
0.0278216291116865
40
0.0378198543008011
40
0.11280654321916
40
0.187793232137519
40
0.337766609974238
40
0.497738213000071
40
0.657709816025904
40
0.817681419051736
40
0.897667220564653
40
0.977653022077569
40
0.982652134672127
40
0.987651247266684
40
0.997649472455798
40
1
40
1
40
1
40
1
41
1
10
108.276820146564
20
3.12623756333929
30
0
41
1
10
108.277629635439
20
3.12635066392045
30
0
41
1
10
108.27889316355
20
3.12652809492971
30
0
41
1
10
108.280610826419
20
3.12677016359564
30
0
41
1
10
108.284924727821
20
3.12737889476287
30
0
41
1
10
108.292190241461
20
3.12840406277283
30
0
41
1
10
108.30581306834
20
3.13032609538357
30
0
41
1
10
108.323295681803
20
3.13279250189382
30
0
41
1
10
108.344638093044
20
3.13580343971154
30
0
41
1
10
108.36643459814
20
3.13887844003602
30
0
41
1
10
108.384598352387
20
3.14144094030641
30
0
41
1
10
108.399179906281
20
3.14349974590192
30
0
41
1
10
108.406652375128
20
3.14455327957117
30
0
41
1
10
108.410696488867
20
3.14512239883493
30
0
41
1
10
108.411592381347
20
3.14524856948802
30
0
41
1
10
108.412363405543
20
3.1453574352557
30
0
41
1
10
108.412905604779
20
3.14543434428043
30
0
41
1
10
108.413008581736
20
3.1454489669581
30
0
0
SPLINE
5
1EC
100
AcDbEntity
8
1
62
256
6
ByLayer
370
-1
48
1
60
0
100
AcDbSpline
70
4
71
3
72
8
73
4
40
0
40
0
40
0
40
0
40
1
40
1
40
1
40
1
41
1
10
108.807606172947
20
3.8172720657397
30
0
41
1
10
108.808025392105
20
3.80522134311903
30
0
41
1
10
108.80842276735
20
3.79316985477834
30
0
41
1
10
108.808798296052
20
3.78111768051991
30
0
0
SPLINE
5
1ED
100
AcDbEntity
8
1
62
256
6
ByLayer
370
-1
48
1
60
0
100
AcDbSpline
70
4
71
3
72
23
73
19
40
0
40
0
40
0
40
0
40
0.0365499079217139
40
0.0695172064382429
40
0.102484504954772
40
0.135451803471301
40
0.16841910198783
40
0.234353699020888
40
0.30028829605393
40
0.366222893087004
40
0.498092087153119
40
0.629961281219228
40
0.761830475285351
40
0.827765072318405
40
0.893699669351467
40
0.926666967867996
40
0.959634266384525
40
1
40
1
40
1
40
1
41
1
10
108.80740628495
20
3.69739496245813
30
0
41
1
10
108.80747585135
20
3.69841303597201
30
0
41
1
10
108.807606499594
20
3.70034937356422
30
0
41
1
10
108.807791304851
20
3.70320425215695
30
0
41
1
10
108.80796069304
20
3.70595994812553
30
0
41
1
10
108.808119307728
20
3.70871663338957
30
0
41
1
10
108.808316942439
20
3.71239337814083
30
0
41
1
10
108.808538976306
20
3.71699120233828
30
0
41
1
10
108.808768480479
20
3.72251069262015
30
0
41
1
10
108.809024728876
20
3.72987234167138
30
0
41
1
10
108.809250791159
20
3.73907788240589
30
0
41
1
10
108.809368217487
20
3.75012726045316
30
0
41
1
10
108.809340213448
20
3.75933493150433
30
0
41
1
10
108.809243703247
20
3.7666995309765
30
0
41
1
10
108.809150104503
20
3.77130104447215
30
0
41
1
10
108.809053816407
20
3.77498100620153
30
0
41
1
10
108.808966424207
20
3.77794710316141
30
0
41
1
10
108.808899964384
20
3.77999331308865
30
0
41
1
10
108.808862295563
20
3.78111968991777
30
0
0
SPLINE
5
1EE
100
AcDbEntity
8
1
62
256
6
ByLayer
370
-1
48
1
60
0
100
AcDbSpline
70
4
71
3
72
48
73
44
40
0
40
0
40
0
40
0
40
0.015625
40
0.0234375
40
0.02734375
40
0.029296875
40
0.0302734375
40
0.03125
40
0.03173828125
40
0.046875
40
0.0625
40
0.125
40
0.1875
40
0.25
40
0.3125
40
0.375
40
0.390625
40
0.40625
40
0.4140625
40
0.421875
40
0.4375
40
0.5
40
0.5625
40
0.59375
40
0.6015625
40
0.60546875
40
0.609375
40
0.6171875
40
0.625
40
0.65625
40
0.671875
40
0.6796875
40
0.6875
40
0.71875
40
0.75
40
0.78125
40
0.7890625
40
0.79296875
40
0.796875
40
0.8046875
40
0.8125
40
0.875
40
1
40
1
40
1
40
1
41
1
10
107.897808236632
20
6.05118034180913
30
0
41
1
10
107.902300301928
20
6.05133780738998
30
0
41
1
10
107.909243149297
20
6.05157832338742
30
0
41
1
10
107.917023253142
20
6.05184277415356
30
0
41
1
10
107.92075664172
20
6.0519683911497
30
0
41
1
10
107.922568446523
20
6.05202902448471
30
0
41
1
10
107.923598260732
20
6.05206339554587
30
0
41
1
10
107.924242639332
20
6.05208489065578
30
0
41
1
10
107.928635107349
20
6.05223145781878
30
0
41
1
10
107.936902958821
20
6.05250733683138
30
0
41
1
10
107.96157732806
20
6.05333066325963
30
0
41
1
10
107.998782659686
20
6.0545721188164
30
0
41
1
10
108.048389768521
20
6.05622739289205
30
0
41
1
10
108.097996877356
20
6.05788266696771
30
0
41
1
10
108.147603986191
20
6.0595379410434
30
0
41
1
10
108.184799420477
20
6.06077905753742
30
0
41
1
10
108.209622769575
20
6.06160737270071
30
0
41
1
10
108.219955934359
20
6.06195216495601
30
0
41
1
10
108.228190794697
20
6.06222691375953
30
0
41
1
10
108.236469671105
20
6.06250369791499
30
0
41
1
10
108.259559812974
20
6.06327773894688
30
0
41
1
10
108.298884999479
20
6.06460763213829
30
0
41
1
10
108.34415958708
20
6.06615890349133
30
0
41
1
10
108.37370024207
20
6.06718045987088
30
0
41
1
10
108.386188229596
20
6.06761393068078
30
0
41
1
10
108.390701914245
20
6.06777078241643
30
0
41
1
10
108.395241463322
20
6.06792866205217
30
0
41
1
10
108.400950132502
20
6.0681272673107
30
0
41
1
10
108.414633853161
20
6.06860329355641
30
0
41
1
10
108.430595201679
20
6.06915854288548
30
0
41
1
10
108.446565632559
20
6.06971414013279
30
0
41
1
10
108.455676566431
20
6.07003104864859
30
0
41
1
10
108.469330550322
20
6.07050673714551
30
0
41
1
10
108.489840538083
20
6.07122394363296
30
0
41
1
10
108.517049976585
20
6.07218112600634
30
0
41
1
10
108.537201707774
20
6.07289438243899
30
0
41
1
10
108.549374410299
20
6.0733268665044
30
0
41
1
10
108.553777097933
20
6.07348349228937
30
0
41
1
10
108.558178586215
20
6.07364018026394
30
0
41
1
10
108.563687098092
20
6.07383631105247
30
0
41
1
10
108.585715544317
20
6.07462060614742
30
0
41
1
10
108.640786659879
20
6.07658134388475
30
0
41
1
10
108.693654930818
20
6.07846365211262
30
0
41
1
10
108.728900444777
20
6.07971852426451
30
0
0
SPLINE
5
1EF
100
AcDbEntity
8
1
62
256
6
ByLayer
370
-1
48
1
60
0
100
AcDbSpline
70
4
71
3
72
13
73
9
40
0
40
0
40
0
40
0
40
0.312317913031033
40
0.624635826062066
40
0.9369537390931
40
0.975993478221979
40
0.99490335186253
40
1
40
1
40
1
40
1
41
1
10
108.728900444777
20
6.07971852426448
30
0
41
1
10
108.720706708617
20
6.31525270694112
30
0
41
1
10
108.704319236298
20
6.78632107229441
30
0
41
1
10
108.679738027819
20
7.49292362032435
30
0
41
1
10
108.66232633848
20
7.99343375851223
30
0
41
1
10
108.652612280181
20
8.2726705727402
30
0
41
1
10
108.650958246242
20
8.32021683542303
30
0
41
1
10
108.650328542763
20
8.33832135005676
30
0
41
1
10
108.650194861538
20
8.34216498786853
30
0
0
SPLINE
5
1F0
100
AcDbEntity
8
1
62
256
6
ByLayer
370
-1
48
1
60
0
100
AcDbSpline
70
4
71
3
72
19
73
15
40
0
40
0
40
0
40
0
40
0.0403657336154933
40
0.10630033064855
40
0.172234927681606
40
0.238169524714663
40
0.370038718780775
40
0.501907912846888
40
0.765646300979114
40
0.83158089801217
40
0.897515495045227
40
0.930482793561755
40
0.963450092078283
40
1
40
1
40
1
40
1
41
1
10
102.954354236508
20
3.57589482091427
30
0
41
1
10
102.954394932532
20
3.57476855020124
30
0
41
1
10
102.954504947019
20
3.5718029339383
30
0
41
1
10
102.954704157802
20
3.56699931166938
30
0
41
1
10
102.954975829602
20
3.56148308147107
30
0
41
1
10
102.955391328093
20
3.55412966386581
30
0
41
1
10
102.956003242809
20
3.54494246131361
30
0
41
1
10
102.957183206725
20
3.53025680827113
30
0
41
1
10
102.958483922138
20
3.51743047886953
30
0
41
1
10
102.959782323432
20
3.50645989487015
30
0
41
1
10
102.960356413353
20
3.5018936713858
30
0
41
1
10
102.960837042309
20
3.49824417515379
30
0
41
1
10
102.961219785841
20
3.49540919150778
30
0
41
1
10
102.961484673925
20
3.49348671910974
30
0
41
1
10
102.961624817841
20
3.4924759968151
30
0
0
SPLINE
5
1F1
100
AcDbEntity
8
1
62
256
6
ByLayer
370
-1
48
1
60
0
100
AcDbSpline
70
4
71
3
72
13
73
9
40
0
40
0
40
0
40
0
40
0.312317913031034
40
0.624635826062068
40
0.936953739093102
40
0.975993478221981
40
0.994903351862532
40
1
40
1
40
1
40
1
41
1
10
105.699422858041
20
8.91554324623723
30
0
41
1
10
105.46478495404
20
8.90731821133656
30
0
41
1
10
104.995509146036
20
8.89086814153521
30
0
41
1
10
104.29159543403
20
8.86619303683318
30
0
41
1
10
103.792989888026
20
8.84871483766923
30
0
41
1
10
103.51481565418
20
8.83896367324596
30
0
41
1
10
103.467450319382
20
8.83730332116662
30
0
41
1
10
103.449414697892
20
8.8366712123221
30
0
41
1
10
103.445585686283
20
8.83653702045655
30
0
0
SPLINE
5
1F2
100
AcDbEntity
8
1
62
256
6
ByLayer
370
-1
48
1
60
0
100
AcDbSpline
70
4
71
3
72
13
73
9
40
0
40
0
40
0
40
0
40
0.312317913031033
40
0.624635826062067
40
0.9369537390931
40
0.975993478221979
40
0.99490335186253
40
1
40
1
40
1
40
1
41
1
10
102.874389305295
20
5.8744935472792
30
0
41
1
10
102.882583041454
20
5.63895936460256
30
0
41
1
10
102.898970513774
20
5.16789099924927
30
0
41
1
10
102.923551722253
20
4.46128845121933
30
0
41
1
10
102.940963411592
20
3.96077831303145
30
0
41
1
10
102.950677469891
20
3.68154149880348
30
0
41
1
10
102.952331503829
20
3.63399523612065
30
0
41
1
10
102.952961207309
20
3.61589072148692
30
0
41
1
10
102.953094888534
20
3.61204708367515
30
0
0
SPLINE
5
1F3
100
AcDbEntity
8
1
62
256
6
ByLayer
370
-1
48
1
60
0
100
AcDbSpline
70
4
71
3
72
22
73
18
40
0
40
0
40
0
40
0
40
0.0178234039225343
40
0.0278216291116481
40
0.037819854300762
40
0.112806543219116
40
0.187793232137469
40
0.337766609974177
40
0.497738212999998
40
0.657709816025819
40
0.817681419051641
40
0.897667220564551
40
0.977653022077462
40
0.982652134672019
40
0.987651247266576
40
0.997649472455689
40
1
40
1
40
1
40
1
41
1
10
103.326469603508
20
8.82797450820436
30
0
41
1
10
103.325660114632
20
8.82786140762323
30
0
41
1
10
103.324396586522
20
8.82768397661397
30
0
41
1
10
103.322678923652
20
8.82744190794801
30
0
41
1
10
103.318365022251
20
8.82683317678081
30
0
41
1
10
103.311099508611
20
8.82580800877085
30
0
41
1
10
103.297476681731
20
8.82388597616009
30
0
41
1
10
103.279994068268
20
8.82141956964983
30
0
41
1
10
103.258651657028
20
8.81840863183211
30
0
41
1
10
103.236855151931
20
8.81533363150766
30
0
41
1
10
103.218691397684
20
8.81277113123724
30
0
41
1
10
103.204109843791
20
8.81071232564173
30
0
41
1
10
103.196637374944
20
8.80965879197248
30
0
41
1
10
103.192593261204
20
8.80908967270875
30
0
41
1
10
103.191697368725
20
8.80896350205566
30
0
41
1
10
103.190926344528
20
8.80885463628798
30
0
41
1
10
103.190384145293
20
8.80877772726325
30
0
41
1
10
103.190281168335
20
8.80876310458558
30
0
0
SPLINE
5
1F4
100
AcDbEntity
8
1
62
256
6
ByLayer
370
-1
48
1
60
0
100
AcDbSpline
70
4
71
3
72
22
73
18
40
0
40
0
40
0
40
0
40
0.0023505275440478
40
0.0123487527331654
40
0.0223469779222829
40
0.0623398786787533
40
0.102332779435215
40
0.182318580948164
40
0.2623043824611
40
0.342290183974045
40
0.662233390025808
40
0.812206767862572
40
0.957493477641923
40
0.962180145699335
40
0.972178370888448
40
0.982176596077571
40
1
40
1
40
1
40
1
41
1
10
102.805475118614
20
8.39453286632013
30
0
41
1
10
102.805467770374
20
8.39442872778602
30
0
41
1
10
102.805429162552
20
8.39388041835025
30
0
41
1
10
102.805359081806
20
8.39287606135773
30
0
41
1
10
102.805170230993
20
8.3901510761153
30
0
41
1
10
102.804885022879
20
8.38604465226638
30
0
41
1
10
102.804374082533
20
8.37870605985856
30
0
41
1
10
102.803731071674
20
8.36949030206722
30
0
41
1
10
102.802962070783
20
8.35845700982449
30
0
41
1
10
102.801426681141
20
8.3364160424459
30
0
41
1
10
102.79966738051
20
8.31116076732465
30
0
41
1
10
102.797699162928
20
8.2829064282827
30
0
41
1
10
102.796739340117
20
8.2691307945469
30
0
41
1
10
102.796227325665
20
8.26178377435491
30
0
41
1
10
102.796148321763
20
8.26065015186032
30
0
41
1
10
102.796027579769
20
8.25891324206438
30
0
41
1
10
102.795939393772
20
8.25763560016796
30
0
41
1
10
102.795883465122
20
8.25681710908555
30
0
0
SPLINE
5
1F5
100
AcDbEntity
8
1
62
256
6
ByLayer
370
-1
48
1
60
0
100
AcDbSpline
70
4
71
3
72
48
73
44
40
0
40
0
40
0
40
0
40
0.125
40
0.1875
40
0.1953125
40
0.203125
40
0.20703125
40
0.2109375
40
0.21875
40
0.25
40
0.28125
40
0.3125
40
0.3203125
40
0.328125
40
0.34375
40
0.375
40
0.3828125
40
0.390625
40
0.39453125
40
0.3984375
40
0.40625
40
0.4375
40
0.5
40
0.5625
40
0.578125
40
0.5859375
40
0.59375
40
0.609375
40
0.625
40
0.6875
40
0.75
40
0.8125
40
0.875
40
0.9375
40
0.953125
40
0.96826171875
40
0.96875
40
0.9697265625
40
0.970703125
40
0.97265625
40
0.9765625
40
0.984375
40
1
40
1
40
1
40
1
41
1
10
105.699422858042
20
8.91554324623723
30
0
41
1
10
105.701225534943
20
8.87960840945766
30
0
41
1
10
105.703929550296
20
8.82570615428827
30
0
41
1
10
105.706746232955
20
8.76955797182018
30
0
41
1
10
105.707872906018
20
8.74709869883293
30
0
41
1
10
105.708154857239
20
8.74148224789562
30
0
41
1
10
105.708379342988
20
8.73699529136971
30
0
41
1
10
105.708600793332
20
8.7325101157208
30
0
41
1
10
105.709196524766
20
8.72012539248308
30
0
41
1
10
105.710102604455
20
8.69970040062182
30
0
41
1
10
105.711152519071
20
8.67229028373959
30
0
41
1
10
105.711816961544
20
8.65175217710885
30
0
41
1
10
105.712206956713
20
8.63813024082742
30
0
41
1
10
105.71245226456
20
8.62905516830162
30
0
41
1
10
105.712884997005
20
8.61314494480413
30
0
41
1
10
105.713316540056
20
8.59724468438159
30
0
41
1
10
105.713686769975
20
8.58361307624074
30
0
41
1
10
105.713841618855
20
8.57792576575346
30
0
41
1
10
105.713963225792
20
8.57340468451639
30
0
41
1
10
105.714080349971
20
8.56891303848653
30
0
41
1
10
105.714389928535
20
8.55650005858354
30
0
41
1
10
105.715009171242
20
8.52724651135568
30
0
41
1
10
105.715533509913
20
8.48282391197989
30
0
41
1
10
105.715471396307
20
8.44474075371133
30
0
41
1
10
105.715233638118
20
8.42257511867103
30
0
41
1
10
105.715126392742
20
8.41464905749078
30
0
41
1
10
105.715003072768
20
8.40678128116357
30
0
41
1
10
105.714849374683
20
8.39690772281054
30
0
41
1
10
105.71448077041
20
8.37318787999683
30
0
41
1
10
105.713927412117
20
8.33764695372031
30
0
41
1
10
105.713189751687
20
8.2902461060369
30
0
41
1
10
105.712452091258
20
8.24284525835353
30
0
41
1
10
105.711714430828
20
8.19544441067012
30
0
41
1
10
105.711161185506
20
8.15989377490757
30
0
41
1
10
105.710794276282
20
8.13631679077341
30
0
41
1
10
105.710671332877
20
8.12841664949283
30
0
41
1
10
105.71060603733
20
8.12421951509015
30
0
41
1
10
105.710596269142
20
8.12360397567912
30
0
41
1
10
105.710581208214
20
8.12261971726585
30
0
41
1
10
105.710559510368
20
8.12088340572694
30
0
41
1
10
105.710534772461
20
8.11728620560902
30
0
41
1
10
105.710562175096
20
8.10971332648856
30
0
41
1
10
105.71072019658
20
8.10282584946773
30
0
41
1
10
105.710877062957
20
8.09831662521123
30
0
0
SPLINE
5
1F6
100
AcDbEntity
8
1
62
256
6
ByLayer
370
-1
48
1
60
0
100
AcDbSpline
70
4
71
3
72
8
73
4
40
0
40
0
40
0
40
0
40
1
40
1
40
1
40
1
41
1
10
107.95326002474
20
8.99454961750283
30
0
41
1
10
107.965264890723
20
8.99497043800966
30
0
41
1
10
107.977270519512
20
8.99536933116391
30
0
41
1
10
107.989276831609
20
8.99574629432425
30
0
0
SPLINE
5
1F7
100
AcDbEntity
8
1
62
256
6
ByLayer
370
-1
48
1
60
0
100
AcDbSpline
70
4
71
3
72
13
73
9
40
0
40
0
40
0
40
0
40
0.312317913031035
40
0.624635826062069
40
0.936953739093104
40
0.975993478221983
40
0.994903351862534
40
1
40
1
40
1
40
1
41
1
10
105.90386689203
20
3.03866882530642
30
0
41
1
10
106.138504796032
20
3.04689386020709
30
0
41
1
10
106.607780604036
20
3.06334393000847
30
0
41
1
10
107.311694316041
20
3.0880190347105
30
0
41
1
10
107.810299862045
20
3.10549723387444
30
0
41
1
10
108.088474095891
20
3.1152483982977
30
0
41
1
10
108.13583943069
20
3.11690875037704
30
0
41
1
10
108.153875052179
20
3.11754085922158
30
0
41
1
10
108.157704063789
20
3.11767505108711
30
0
0
SPLINE
5
1F8
100
AcDbEntity
8
1
62
256
6
ByLayer
370
-1
48
1
60
0
100
AcDbSpline
70
4
71
3
72
23
73
19
40
0
40
0
40
0
40
0
40
0.0365499079217323
40
0.0695172064382608
40
0.102484504954789
40
0.135451803471318
40
0.168419101987847
40
0.234353699020904
40
0.300288296053946
40
0.366222893087018
40
0.498092087153132
40
0.629961281219239
40
0.761830475285361
40
0.827765072318415
40
0.893699669351475
40
0.926666967868004
40
0.959634266384533
40
1
40
1
40
1
40
1
41
1
10
103.53060879062
20
2.95986310557763
30
0
41
1
10
103.531622990056
20
2.95979327344517
30
0
41
1
10
103.5335519593
20
2.95966212614607
30
0
41
1
10
103.536395974217
20
2.95947661496322
30
0
41
1
10
103.539141183931
20
2.95930657973864
30
0
41
1
10
103.541887379175
20
2.9591473591681
30
0
41
1
10
103.545550132803
20
2.95894896952459
30
0
41
1
10
103.550130460891
20
2.95872608752464
30
0
41
1
10
103.555628947846
20
2.95849570668287
30
0
41
1
10
103.5629625836
20
2.95823847945923
30
0
41
1
10
103.572133094473
20
2.95801155365479
30
0
41
1
10
103.583140426301
20
2.95789367877717
30
0
41
1
10
103.592313059383
20
2.95792178978729
30
0
41
1
10
103.599649634331
20
2.95801866864127
30
0
41
1
10
103.604233637679
20
2.95811262491767
30
0
41
1
10
103.607899596043
20
2.95820928081858
30
0
41
1
10
103.610854406108
20
2.95829700684269
30
0
41
1
10
103.612892829589
20
2.95836372053142
30
0
41
1
10
103.614014920214
20
2.95840153324045
30
0
0
SPLINE
5
1F9
100
AcDbEntity
8
1
62
256
6
ByLayer
370
-1
48
1
60
0
100
AcDbSpline
70
4
71
3
72
79
73
75
40
0
40
0
40
0
40
0
40
0.0017245864916511
40
0.0039792263717785
40
0.0084885061320333
40
0.0129977858922881
40
0.0220163454127977
40
0.0310349049333072
40
0.0671091430153454
40
0.139257619179422
40
0.211406095343498
40
0.220424654864008
40
0.224933934624263
40
0.228315894444454
40
0.229443214384518
40
0.231697854264645
40
0.233952494144772
40
0.237334453964963
40
0.238461773905027
40
0.240716413785154
40
0.242971053665282
40
0.247480333425537
40
0.249734973305664
40
0.256498892946046
40
0.265517452466556
40
0.283554571507575
40
0.292573131028084
40
0.319628809589613
40
0.355703047671651
40
0.39177728575369
40
0.409814404794709
40
0.427851523835728
40
0.445888642876747
40
0.463925761917766
40
0.481962880958785
40
0.499999999999804
40
0.518037119040823
40
0.536074238081843
40
0.554111357122862
40
0.572148476163881
40
0.590185595204898
40
0.608222714245919
40
0.626259833286938
40
0.644296952327957
40
0.662334071368976
40
0.680371190409997
40
0.716445428492034
40
0.725463988012542
40
0.734482547533054
40
0.751392346634008
40
0.752519666574072
40
0.754774306454199
40
0.757028946334327
40
0.760410906154521
40
0.761538226094581
40
0.763792865974711
40
0.766047505854835
40
0.769429465675029
40
0.770556785615091
40
0.771684105555153
40
0.775066065375348
40
0.779575345135601
40
0.784084624895855
40
0.78859390465611
40
0.824668142738148
40
0.860742380820187
40
0.932890856984263
40
0.968965095066301
40
0.98700221410732
40
0.991511493867575
40
0.994893453687765
40
0.99602077362783
40
0.998275413507957
40
1
40
1
40
1
40
1
41
1
10
103.190281168335
20
8.80876310458558
30
0
41
1
10
103.189946121577
20
8.80871552810945
30
0
41
1
10
103.189178623568
20
8.80860615786639
30
0
41
1
10
103.187563958247
20
8.80837304483757
30
0
41
1
10
103.185456183693
20
8.80805859086371
30
0
41
1
10
103.18211376984
20
8.80753923627529
30
0
41
1
10
103.177901991451
20
8.80684865577439
30
0
41
1
10
103.167737822253
20
8.80506375148283
30
0
41
1
10
103.145695052743
20
8.80053246798278
30
0
41
1
10
103.111551937314
20
8.79099254517692
30
0
41
1
10
103.082746301497
20
8.77985847082584
30
0
41
1
10
103.066858205613
20
8.77267307349996
30
0
41
1
10
103.06372989186
20
8.77122328100884
30
0
41
1
10
103.062063885038
20
8.77044023118239
30
0
41
1
10
103.060815450844
20
8.76984873563578
30
0
41
1
10
103.059775764736
20
8.76935319329172
30
0
41
1
10
103.05832148941
20
8.76865452851317
30
0
41
1
10
103.057076370314
20
8.76805041998682
30
0
41
1
10
103.055832404006
20
8.76744211252421
30
0
41
1
10
103.054796492306
20
8.76693256602542
30
0
41
1
10
103.053140611573
20
8.76611169766582
30
0
41
1
10
103.051487138754
20
8.76528244298422
30
0
41
1
10
103.0490106642
20
8.76402599533947
30
0
41
1
10
103.045715446707
20
8.76232840524958
30
0
41
1
10
103.039560132207
20
8.75907228607548
30
0
41
1
10
103.033039539516
20
8.75546565037436
30
0
41
1
10
103.023334124019
20
8.74985642103405
30
0
41
1
10
103.010534644565
20
8.74202541043977
30
0
41
1
10
102.993324625696
20
8.73042677639049
30
0
41
1
10
102.978152579173
20
8.71904149200915
30
0
41
1
10
102.9663376583
20
8.7094505445591
30
0
41
1
10
102.957647491129
20
8.70202145475423
30
0
41
1
10
102.949138012752
20
8.69436196648709
30
0
41
1
10
102.940817671698
20
8.68647948623448
30
0
41
1
10
102.932694916499
20
8.67838142047302
30
0
41
1
10
102.924778195686
20
8.67007517567947
30
0
41
1
10
102.917075957789
20
8.66156815833048
30
0
41
1
10
102.909594973788
20
8.65286934521978
30
0
41
1
10
102.902342014664
20
8.643987713141
30
0
41
1
10
102.895323851396
20
8.63493223888781
30
0
41
1
10
102.888547254964
20
8.62571189925393
30
0
41
1
10
102.882016997749
20
8.61633675515333
30
0
41
1
10
102.875737852133
20
8.60681686750007
30
0
41
1
10
102.869714590497
20
8.59716229720814
30
0
41
1
10
102.863951985222
20
8.58738310519163
30
0
41
1
10
102.856619522849
20
8.57419214899724
30
0
41
1
10
102.850668874375
20
8.56246906239275
30
0
41
1
10
102.845907149662
20
8.55231790826696
30
0
41
1
10
102.842919472246
20
8.54573710699358
30
0
41
1
10
102.840704005327
20
8.54061654055587
30
0
41
1
10
102.839093391255
20
8.53676453869133
30
0
41
1
10
102.838648654255
20
8.53569394165791
30
0
41
1
10
102.838030980958
20
8.5341940164146
30
0
41
1
10
102.83750686047
20
8.53290722481603
30
0
41
1
10
102.836986992297
20
8.53161955109005
30
0
41
1
10
102.836556426788
20
8.5305459447772
30
0
41
1
10
102.835958597629
20
8.5290419029393
30
0
41
1
10
102.835451490741
20
8.52775168611308
30
0
41
1
10
102.835032448158
20
8.52667583917304
30
0
41
1
10
102.834615178999
20
8.52559966341067
30
0
41
1
10
102.833953223886
20
8.52387674373034
30
0
41
1
10
102.833056696552
20
8.52150532978311
30
0
41
1
10
102.832095705506
20
8.51891550655773
30
0
41
1
10
102.828949221073
20
8.51027389267045
30
0
41
1
10
102.824035040386
20
8.49551950897714
30
0
41
1
10
102.816223305309
20
8.46763882488537
30
0
41
1
10
102.810544291835
20
8.43975440940918
30
0
41
1
10
102.807350763951
20
8.4156430111984
30
0
41
1
10
102.806263112368
20
8.40448848263
30
0
41
1
10
102.805856353091
20
8.3996250799851
30
0
41
1
10
102.805722843537
20
8.3979208027506
30
0
41
1
10
102.805625782251
20
8.39663034854402
30
0
41
1
10
102.805554177609
20
8.39564787467589
30
0
41
1
10
102.805499026914
20
8.39487169239507
30
0
41
1
10
102.805475118614
20
8.39453286631991
30
0
0
SPLINE
5
1FA
100
AcDbEntity
8
1
62
256
6
ByLayer
370
-1
48
1
60
0
100
AcDbSpline
70
4
71
3
72
8
73
4
40
0
40
0
40
0
40
0
40
1
40
1
40
1
40
1
41
1
10
108.648871525855
20
8.37831488984355
30
0
41
1
10
108.649334431544
20
8.36626573974567
30
0
41
1
10
108.649775496102
20
8.35421574412996
30
0
41
1
10
108.650194716607
20
8.34216498278926
30
0
0
SPLINE
5
1FB
100
AcDbEntity
8
1
62
256
6
ByLayer
370
-1
48
1
60
0
100
AcDbSpline
70
4
71
3
72
153
73
149
40
0
40
0
40
0
40
0
40
0.125
40
0.25
40
0.375
40
0.3828125
40
0.390625
40
0.398193359375
40
0.4019775390625
40
0.405643463134766
40
0.40576171875
40
0.406005859375
40
0.40625
40
0.4072265625
40
0.40771484375
40
0.408203125
40
0.4091796875
40
0.41015625
40
0.412109375
40
0.4140625
40
0.416015625
40
0.4169921875
40
0.41796875
40
0.4189453125
40
0.41943359375
40
0.419921875
40
0.42041015625
40
0.4208984375
40
0.421875
40
0.422119140625
40
0.42236328125
40
0.422477722167969
40
0.426025390625
40
0.4296875
40
0.4375
40
0.439453125
40
0.44140625
40
0.443359375
40
0.4443359375
40
0.4453125
40
0.445556640625
40
0.44580078125
40
0.446044921875
40
0.4462890625
40
0.4464111328125
40
0.44677734375
40
0.447265625
40
0.44921875
40
0.453125
40
0.4609375
40
0.46484375
40
0.46875
40
0.46923828125
40
0.4697265625
40
0.47021484375
40
0.4705810546875
40
0.470703125
40
0.4708251953125
40
0.47119140625
40
0.471435546875
40
0.4716796875
40
0.4718017578125
40
0.47216796875
40
0.472412109375
40
0.47265625
40
0.4727783203125
40
0.474609375
40
0.4755859375
40
0.4765625
40
0.48046875
40
0.482421875
40
0.484375
40
0.486328125
40
0.48828125
40
0.490234375
40
0.4921875
40
0.494140625
40
0.49609375
40
0.498046875
40
0.5
40
0.501953125
40
0.50390625
40
0.505859375
40
0.5078125
40
0.509765625
40
0.51171875
40
0.515625
40
0.51953125
40
0.5224609375
40
0.5234375
40
0.525390625
40
0.5263671875
40
0.527099609375
40
0.52734375
40
0.52783203125
40
0.528076171875
40
0.5283203125
40
0.5284423828125
40
0.52880859375
40
0.529052734375
40
0.529296875
40
0.5294189453125
40
0.52978515625
40
0.5302734375
40
0.53125
40
0.5390625
40
0.546875
40
0.55078125
40
0.5517578125
40
0.552734375
40
0.55322265625
40
0.5537109375
40
0.553955078125
40
0.55419921875
40
0.554443359375
40
0.5545654296875
40
0.5546875
40
0.556640625
40
0.55859375
40
0.5625
40
0.56640625
40
0.5703125
40
0.573974609375
40
0.5758056640625
40
0.57763671875
40
0.577880859375
40
0.578125
40
0.5791015625
40
0.57958984375
40
0.580078125
40
0.5810546875
40
0.58203125
40
0.5859375
40
0.587890625
40
0.58984375
40
0.5908203125
40
0.591796875
40
0.5927734375
40
0.59375
40
0.593994140625
40
0.59423828125
40
0.594380187988281
40
0.601806640625
40
0.609375
40
0.625
40
0.75
40
0.875
40
1
40
1
40
1
40
1
41
1
10
103.67153075116
20
5.90303172973455
30
0
41
1
10
103.665474644369
20
6.07711839001749
30
0
41
1
10
103.653362430787
20
6.42529171058334
30
0
41
1
10
103.635194110413
20
6.9475516914321
30
0
41
1
10
103.622703390156
20
7.30660542826564
30
0
41
1
10
103.615890270016
20
7.50245292108391
30
0
41
1
10
103.614766578326
20
7.53475415687862
30
0
41
1
10
103.61383805414
20
7.56144517803526
30
0
41
1
10
103.613110426808
20
7.58236129075297
30
0
41
1
10
103.612743748467
20
7.59290169401228
30
0
41
1
10
103.612548580963
20
7.59851190865032
30
0
41
1
10
103.612519194946
20
7.59935662846797
30
0
41
1
10
103.612448224945
20
7.60139670651816
30
0
41
1
10
103.61236542661
20
7.60377679757673
30
0
41
1
10
103.612270799941
20
7.60649690164365
30
0
41
1
10
103.612176173273
20
7.60921700571058
30
0
41
1
10
103.612057889937
20
7.61261713579421
30
0
41
1
10
103.6118686366
20
7.61805734392806
30
0
41
1
10
103.611632069928
20
7.62485760409535
30
0
41
1
10
103.611348189922
20
7.63301791629613
30
0
41
1
10
103.611111623251
20
7.63981817646342
30
0
41
1
10
103.610922369914
20
7.64525838459727
30
0
41
1
10
103.610780429911
20
7.64933854069764
30
0
41
1
10
103.610662146575
20
7.6527386707813
30
0
41
1
10
103.610567519906
20
7.65545877484823
30
0
41
1
10
103.610496549905
20
7.65749885289841
30
0
41
1
10
103.610425579903
20
7.6595389309486
30
0
41
1
10
103.610330953235
20
7.66225903501552
30
0
41
1
10
103.6102481549
20
7.66463912607406
30
0
41
1
10
103.610177184898
20
7.66667920412425
30
0
41
1
10
103.6101479837
20
7.66751861123868
30
0
41
1
10
103.609958730362
20
7.6729588193725
30
0
41
1
10
103.609603880355
20
7.68315920962345
30
0
41
1
10
103.608876068205
20
7.70408063504442
30
0
41
1
10
103.608225509858
20
7.7227813505045
30
0
41
1
10
103.607657749846
20
7.73910197490602
30
0
41
1
10
103.607373856088
20
7.74726248535353
30
0
41
1
10
103.607137255036
20
7.75406324113774
30
0
41
1
10
103.606947953565
20
7.75950414313522
30
0
41
1
10
103.606841462463
20
7.76256478060824
30
0
41
1
10
103.606770464098
20
7.76460526754238
30
0
41
1
10
103.606734964028
20
7.76562552378704
30
0
41
1
10
103.606699463046
20
7.76664579319655
30
0
41
1
10
103.60666987811
20
7.76749602899784
30
0
41
1
10
103.606634375463
20
7.76851632241377
30
0
41
1
10
103.606587037292
20
7.76987673247882
30
0
41
1
10
103.606450933203
20
7.77378801011972
30
0
41
1
10
103.606143173055
20
7.78263156984698
30
0
41
1
10
103.605480016243
20
7.80168340013375
30
0
41
1
10
103.604721242594
20
7.82346960825384
30
0
41
1
10
103.603964755609
20
7.84522285299181
30
0
41
1
10
103.603564242549
20
7.85675950566554
30
0
41
1
10
103.603329285711
20
7.86353655930085
30
0
41
1
10
103.60325865608
20
7.86557173074385
30
0
41
1
10
103.603193611801
20
7.86744163570751
30
0
41
1
10
103.603145637686
20
7.86881121322224
30
0
41
1
10
103.603115286836
20
7.86967249005133
30
0
41
1
10
103.603084731134
20
7.87053671993104
30
0
41
1
10
103.603047986316
20
7.87157560236011
30
0
41
1
10
103.603006813465
20
7.87276716317388
30
0
41
1
10
103.602979062941
20
7.87359778040158
30
0
41
1
10
103.602947875608
20
7.87456815207725
30
0
41
1
10
103.6029198999
20
7.87550829062738
30
0
41
1
10
103.602893668482
20
7.87658257818927
30
0
41
1
10
103.602879249338
20
7.87734525525085
30
0
41
1
10
103.602840770414
20
7.88010044536131
30
0
41
1
10
103.602885137278
20
7.88384049141095
30
0
41
1
10
103.603124817236
20
7.88875381427678
30
0
41
1
10
103.603695093561
20
7.89642679269008
30
0
41
1
10
103.604949224307
20
7.90550027472244
30
0
41
1
10
103.607246069794
20
7.91592932965145
30
0
41
1
10
103.609414491659
20
7.92375392497146
30
0
41
1
10
103.612042712421
20
7.93155444794914
30
0
41
1
10
103.615130303703
20
7.93928621207201
30
0
41
1
10
103.618676837126
20
7.94690453082762
30
0
41
1
10
103.62267536981
20
7.95436990404698
30
0
41
1
10
103.627118958877
20
7.96164283156105
30
0
41
1
10
103.631991025593
20
7.96868466317039
30
0
41
1
10
103.637274991229
20
7.97545674867561
30
0
41
1
10
103.642945650636
20
7.98192477050907
30
0
41
1
10
103.648977798669
20
7.98805441110315
30
0
41
1
10
103.655339089849
20
7.99381803679205
30
0
41
1
10
103.661997178695
20
7.99918801390987
30
0
41
1
10
103.668914812351
20
8.00414504483476
30
0
41
1
10
103.676054737958
20
8.00866983194481
30
0
41
1
10
103.685819335109
20
8.01411361258386
30
0
41
1
10
103.698386962957
20
8.01978918976576
30
0
41
1
10
103.712416673259
20
8.02435023500075
30
0
41
1
10
103.722621553984
20
8.02665366424057
30
0
41
1
10
103.730234308611
20
8.02796502903999
30
0
41
1
10
103.735282103819
20
8.02863420757413
30
0
41
1
10
103.739944537828
20
8.02907133958468
30
0
41
1
10
103.742402553554
20
8.02924561125025
30
0
41
1
10
103.744231590939
20
8.02935118823092
30
0
41
1
10
103.745443343571
20
8.02940902637758
30
0
41
1
10
103.746686429502
20
8.02946022221232
30
0
41
1
10
103.747484526025
20
8.02949068201968
30
0
41
1
10
103.748468593935
20
8.02952695699474
30
0
41
1
10
103.749482521261
20
8.02956290878566
30
0
41
1
10
103.750685895914
20
8.02960458193138
30
0
41
1
10
103.751548345855
20
8.02963427028661
30
0
41
1
10
103.752577977698
20
8.02966989476457
30
0
41
1
10
103.753942366535
20
8.0297173916027
30
0
41
1
10
103.756482533365
20
8.02980644290571
30
0
41
1
10
103.769307888129
20
8.03025762309971
30
0
41
1
10
103.792321081678
20
8.03106501643131
30
0
41
1
10
103.819450289472
20
8.03201490694173
30
0
41
1
10
103.837073980066
20
8.03263233277076
30
0
41
1
10
103.84520650633
20
8.03291729810488
30
0
41
1
10
103.848594832099
20
8.03303603359461
30
0
41
1
10
103.851305368982
20
8.03313102195031
30
0
41
1
10
103.852999405557
20
8.03319038965833
30
0
41
1
10
103.854354606978
20
8.03323788381661
30
0
41
1
10
103.85537099451
20
8.03327350443141
30
0
41
1
10
103.856217973164
20
8.03330318827383
30
0
41
1
10
103.856895549708
20
8.03332693534594
30
0
41
1
10
103.859944625306
20
8.03343379716489
30
0
41
1
10
103.865534308012
20
8.03362971041526
30
0
41
1
10
103.876374112894
20
8.03400966315471
30
0
41
1
10
103.889922879142
20
8.03448460379028
30
0
41
1
10
103.90618139864
20
8.03505453255298
30
0
41
1
10
103.922101198983
20
8.03561258779976
30
0
41
1
10
103.935141886497
20
8.03606971816151
30
0
41
1
10
103.945303461183
20
8.03642592363818
30
0
41
1
10
103.950722967683
20
8.03661589989241
30
0
41
1
10
103.953940799667
20
8.03672869829336
30
0
41
1
10
103.955973114604
20
8.03679993938869
30
0
41
1
10
103.958344148698
20
8.03688305399993
30
0
41
1
10
103.961053901947
20
8.03697804212703
30
0
41
1
10
103.963763655197
20
8.03707303025416
30
0
41
1
10
103.967150846759
20
8.03719176541304
30
0
41
1
10
103.975280106508
20
8.03747672979438
30
0
41
1
10
103.984764242882
20
8.03780918823929
30
0
41
1
10
103.995603255881
20
8.03818914074773
30
0
41
1
10
104.002377639006
20
8.03842661106552
30
0
41
1
10
104.007797145505
20
8.03861658731975
30
0
41
1
10
104.01186177538
20
8.03875906951043
30
0
41
1
10
104.015926405254
20
8.03890155170112
30
0
41
1
10
104.01897487766
20
8.03900841334411
30
0
41
1
10
104.021007192597
20
8.03907965443943
30
0
41
1
10
104.021881511419
20
8.03911030295234
30
0
41
1
10
104.032720524418
20
8.03949025546078
30
0
41
1
10
104.053721112104
20
8.04022641344594
30
0
41
1
10
104.096202845277
20
8.04171557496687
30
0
41
1
10
104.3018053731
20
8.04892279911169
30
0
41
1
10
104.670331815063
20
8.06184118439927
30
0
41
1
10
105.19060443901
20
8.08007890480525
30
0
41
1
10
105.537452854974
20
8.09223738507589
30
0
41
1
10
105.710877062957
20
8.09831662521123
30
0
0
SPLINE
5
1FC
100
AcDbEntity
8
1
62
256
6
ByLayer
370
-1
48
1
60
0
100
AcDbSpline
70
4
71
3
72
19
73
15
40
0
40
0
40
0
40
0
40
0.0403657336154456
40
0.106300330648498
40
0.17223492768155
40
0.238169524714602
40
0.370038718780705
40
0.501907912846809
40
0.765646300979017
40
0.831580898012069
40
0.897515495045121
40
0.930482793561647
40
0.963450092078173
40
1
40
1
40
1
40
1
41
1
10
103.409570993796
20
8.83527286197756
30
0
41
1
10
103.408449008883
20
8.83523201050104
30
0
41
1
10
103.405494677686
20
8.8351215757769
30
0
41
1
10
103.40070933465
20
8.83492160404128
30
0
41
1
10
103.395214095373
20
8.83464889449925
30
0
41
1
10
103.387888659741
20
8.83423180887152
30
0
41
1
10
103.378736417269
20
8.83361755674071
30
0
41
1
10
103.36410664757
20
8.83243308555407
30
0
41
1
10
103.351329126224
20
8.8311274016194
30
0
41
1
10
103.340400288609
20
8.82982404064302
30
0
41
1
10
103.335851440983
20
8.8292477577925
30
0
41
1
10
103.332215832186
20
8.82876529291144
30
0
41
1
10
103.329391636509
20
8.8283810873609
30
0
41
1
10
103.327476479699
20
8.82811518744759
30
0
41
1
10
103.326469603508
20
8.82797450820436
30
0
0
SPLINE
5
1FD
100
AcDbEntity
8
1
62
256
6
ByLayer
370
-1
48
1
60
0
100
AcDbSpline
70
4
71
3
72
22
73
18
40
0
40
0
40
0
40
0
40
0.0178234039225407
40
0.0278216291116556
40
0.0378198543007705
40
0.112806543219132
40
0.187793232137493
40
0.337766609974217
40
0.497738213000055
40
0.657709816025893
40
0.817681419051731
40
0.89766722056465
40
0.977653022077568
40
0.982652134672126
40
0.987651247266683
40
0.997649472455798
40
1
40
1
40
1
40
1
41
1
10
108.64166493223
20
8.46173607472855
30
0
41
1
10
108.641552262031
20
8.46254865571973
30
0
41
1
10
108.6413755062
20
8.46381701030262
30
0
41
1
10
108.641134358678
20
8.46554123436519
30
0
41
1
10
108.640527943917
20
8.46987161416945
30
0
41
1
10
108.639506676981
20
8.47716488089063
30
0
41
1
10
108.637591958285
20
8.49083974475585
30
0
41
1
10
108.635134937196
20
8.508389138962
30
0
41
1
10
108.632135456905
20
8.52981307474619
30
0
41
1
10
108.629072157886
20
8.55169283895128
30
0
41
1
10
108.626519408702
20
8.56992597578886
30
0
41
1
10
108.624468437484
20
8.58456322884931
30
0
41
1
10
108.623418912828
20
8.5920642413131
30
0
41
1
10
108.622851959235
20
8.59612380291028
30
0
41
1
10
108.622726268699
20
8.59702311755379
30
0
41
1
10
108.622617817199
20
8.59779708693731
30
0
41
1
10
108.622541200836
20
8.59834135728593
30
0
41
1
10
108.622526633802
20
8.59844472759849
30
0
0
SPLINE
5
1FE
100
AcDbEntity
8
1
62
256
6
ByLayer
370
-1
48
1
60
0
100
AcDbSpline
70
4
71
3
72
22
73
18
40
0
40
0
40
0
40
0
40
0.002350527544134
40
0.0123487527332509
40
0.0223469779223677
40
0.0623398786788351
40
0.102332779435293
40
0.182318580948237
40
0.262304382461168
40
0.342290183974107
40
0.662233390025846
40
0.812206767862599
40
0.957493477641939
40
0.962180145699352
40
0.972178370888464
40
0.982176596077585
40
1
40
1
40
1
40
1
41
1
10
108.209872666653
20
8.9847206739154
30
0
41
1
10
108.209768924397
20
8.98472805022448
30
0
41
1
10
108.209222701444
20
8.98476680552241
30
0
41
1
10
108.208222166333
20
8.98483715396492
30
0
41
1
10
108.205507550482
20
8.98502672615717
30
0
41
1
10
108.201416752816
20
8.98531302372024
30
0
41
1
10
108.194106085968
20
8.98582591577525
30
0
41
1
10
108.184925396917
20
8.98647138283135
30
0
41
1
10
108.173934089683
20
8.98724332118076
30
0
41
1
10
108.151976994839
20
8.98878457576168
30
0
41
1
10
108.126817823665
20
8.99055059663567
30
0
41
1
10
108.098671000913
20
8.99252633248844
30
0
41
1
10
108.084947787622
20
8.9934898216674
30
0
41
1
10
108.07762872506
20
8.99400379193128
30
0
41
1
10
108.076499416342
20
8.99408309761543
30
0
41
1
10
108.074769116012
20
8.99420430082372
30
0
41
1
10
108.073496335929
20
8.9942928236768
30
0
41
1
10
108.072680959452
20
8.99434896596603
30
0
0
SPLINE
5
1FF
100
AcDbEntity
8
1
62
256
6
ByLayer
370
-1
48
1
60
0
100
AcDbSpline
70
4
71
3
72
8
73
4
40
0
40
0
40
0
40
0
40
1
40
1
40
1
40
1
41
1
10
103.409573345599
20
8.83520862984608
30
0
41
1
10
103.421576645043
20
8.83567330376025
30
0
41
1
10
103.433580786787
20
8.8361160531127
30
0
41
1
10
103.445585691343
20
8.83653687497167
30
0
0
SPLINE
5
200
100
AcDbEntity
8
1
62
256
6
ByLayer
370
-1
48
1
60
0
100
AcDbSpline
70
4
71
3
72
153
73
149
40
0
40
0
40
0
40
0
40
0.125
40
0.25
40
0.375
40
0.3828125
40
0.390625
40
0.398193359375
40
0.4019775390625
40
0.405643463134766
40
0.40576171875
40
0.406005859375
40
0.40625
40
0.4072265625
40
0.40771484375
40
0.408203125
40
0.4091796875
40
0.41015625
40
0.412109375
40
0.4140625
40
0.416015625
40
0.4169921875
40
0.41796875
40
0.4189453125
40
0.41943359375
40
0.419921875
40
0.42041015625
40
0.4208984375
40
0.421875
40
0.422119140625
40
0.42236328125
40
0.422477722167969
40
0.426025390625
40
0.4296875
40
0.4375
40
0.439453125
40
0.44140625
40
0.443359375
40
0.4443359375
40
0.4453125
40
0.445556640625
40
0.44580078125
40
0.446044921875
40
0.4462890625
40
0.4464111328125
40
0.44677734375
40
0.447265625
40
0.44921875
40
0.453125
40
0.4609375
40
0.46484375
40
0.46875
40
0.46923828125
40
0.4697265625
40
0.47021484375
40
0.4705810546875
40
0.470703125
40
0.4708251953125
40
0.47119140625
40
0.471435546875
40
0.4716796875
40
0.4718017578125
40
0.47216796875
40
0.472412109375
40
0.47265625
40
0.4727783203125
40
0.474609375
40
0.4755859375
40
0.4765625
40
0.48046875
40
0.482421875
40
0.484375
40
0.486328125
40
0.48828125
40
0.490234375
40
0.4921875
40
0.494140625
40
0.49609375
40
0.498046875
40
0.5
40
0.501953125
40
0.50390625
40
0.505859375
40
0.5078125
40
0.509765625
40
0.51171875
40
0.515625
40
0.51953125
40
0.5224609375
40
0.5234375
40
0.525390625
40
0.5263671875
40
0.527099609375
40
0.52734375
40
0.52783203125
40
0.528076171875
40
0.5283203125
40
0.5284423828125
40
0.52880859375
40
0.529052734375
40
0.529296875
40
0.5294189453125
40
0.52978515625
40
0.5302734375
40
0.53125
40
0.5390625
40
0.546875
40
0.55078125
40
0.5517578125
40
0.552734375
40
0.55322265625
40
0.5537109375
40
0.553955078125
40
0.55419921875
40
0.554443359375
40
0.5545654296875
40
0.5546875
40
0.556640625
40
0.55859375
40
0.5625
40
0.56640625
40
0.5703125
40
0.573974609375
40
0.5758056640625
40
0.57763671875
40
0.577880859375
40
0.578125
40
0.5791015625
40
0.57958984375
40
0.580078125
40
0.5810546875
40
0.58203125
40
0.5859375
40
0.587890625
40
0.58984375
40
0.5908203125
40
0.591796875
40
0.5927734375
40
0.59375
40
0.593994140625
40
0.59423828125
40
0.594380187988281
40
0.601806640625
40
0.609375
40
0.625
40
0.75
40
0.875
40
1
40
1
40
1
40
1
41
1
10
105.710877062957
20
8.09831662521123
30
0
41
1
10
105.884301270939
20
8.10439586534656
30
0
41
1
10
106.231149686904
20
8.1165543456172
30
0
41
1
10
106.751422310851
20
8.13479206602321
30
0
41
1
10
107.109109739814
20
8.14733049880232
30
0
41
1
10
107.304211973794
20
8.15416964395456
30
0
41
1
10
107.336390293635
20
8.15529762796405
30
0
41
1
10
107.362979747398
20
8.15622969896137
30
0
41
1
10
107.383816267992
20
8.15696010571224
30
0
41
1
10
107.394316561835
20
8.1573281847048
30
0
41
1
10
107.399905427912
20
8.15752409771699
30
0
41
1
10
107.400746933316
20
8.15755359598302
30
0
41
1
10
107.402779248253
20
8.15762483707834
30
0
41
1
10
107.405150282347
20
8.15770795168959
30
0
41
1
10
107.407860035596
20
8.15780293981669
30
0
41
1
10
107.410569788846
20
8.15789792794379
30
0
41
1
10
107.413956980408
20
8.1580166631027
30
0
41
1
10
107.419376486908
20
8.15820663935693
30
0
41
1
10
107.426150870032
20
8.15844410967472
30
0
41
1
10
107.434280129781
20
8.15872907405605
30
0
41
1
10
107.441054512906
20
8.15896654437384
30
0
41
1
10
107.446474019405
20
8.15915652062807
30
0
41
1
10
107.45053864928
20
8.15929900281876
30
0
41
1
10
107.453925840842
20
8.15941773797763
30
0
41
1
10
107.456635594092
20
8.15951272610474
30
0
41
1
10
107.458667909029
20
8.15958396720009
30
0
41
1
10
107.460700223966
20
8.15965520829542
30
0
41
1
10
107.463409977216
20
8.15975019642255
30
0
41
1
10
107.465781011309
20
8.15983331103376
30
0
41
1
10
107.467813326247
20
8.15990455212909
30
0
41
1
10
107.468649539164
20
8.15993386487145
30
0
41
1
10
107.474069045663
20
8.16012384112568
30
0
41
1
10
107.48423062035
20
8.16048004660237
30
0
41
1
10
107.50507243343
20
8.16121063887692
30
0
41
1
10
107.523701987022
20
8.16186368225084
30
0
41
1
10
107.539960506521
20
8.16243361101351
30
0
41
1
10
107.548089963762
20
8.16271858919976
30
0
41
1
10
107.554864840617
20
8.16295609402971
30
0
41
1
10
107.56028503834
20
8.16314611860102
30
0
41
1
10
107.563334029163
20
8.16325301648183
30
0
41
1
10
107.565366751429
20
8.16332428604971
30
0
41
1
10
107.56638312529
20
8.16335992172344
30
0
41
1
10
107.567399512267
20
8.16339555831388
30
0
41
1
10
107.568246512664
20
8.16342525625899
30
0
41
1
10
107.569262923556
20
8.16346089452114
30
0
41
1
10
107.57061815685
20
8.16350841351615
30
0
41
1
10
107.574514550898
20
8.16364503750006
30
0
41
1
10
107.583324458211
20
8.16395397324243
30
0
41
1
10
107.602303790531
20
8.16461966320537
30
0
41
1
10
107.624007095552
20
8.16538133524654
30
0
41
1
10
107.645677562627
20
8.16614071188855
30
0
41
1
10
107.657170314854
20
8.16654275484353
30
0
41
1
10
107.663921579754
20
8.16677860917866
30
0
41
1
10
107.665949006755
20
8.16684950860329
30
0
41
1
10
107.667811796166
20
8.16691480134074
30
0
41
1
10
107.669176162025
20
8.16696295870946
30
0
41
1
10
107.670034161435
20
8.16699342549455
30
0
41
1
10
107.67089510266
20
8.1670240979148
30
0
41
1
10
107.671930031827
20
8.16706098309132
30
0
41
1
10
107.673117058392
20
8.16710231321605
30
0
41
1
10
107.673944514871
20
8.16713016974327
30
0
41
1
10
107.674911193989
20
8.1671614762063
30
0
41
1
10
107.675847755028
20
8.16718955877707
30
0
41
1
10
107.676917954602
20
8.16721589039432
30
0
41
1
10
107.677677729447
20
8.16723036461789
30
0
41
1
10
107.680422435227
20
8.16726899052443
30
0
41
1
10
107.684148249272
20
8.16722445418699
30
0
41
1
10
107.689042875461
20
8.16698385869012
30
0
41
1
10
107.696686655875
20
8.16641140400256
30
0
41
1
10
107.705725610569
20
8.16515248268072
30
0
41
1
10
107.716114979796
20
8.16284686361692
30
0
41
1
10
107.723909800168
20
8.16067015873233
30
0
41
1
10
107.731680639801
20
8.15803189859381
30
0
41
1
10
107.739382982227
20
8.1549325132153
30
0
41
1
10
107.74697231098
20
8.15137243261086
30
0
41
1
10
107.7544092762
20
8.14735862618102
30
0
41
1
10
107.761654528029
20
8.14289806332638
30
0
41
1
10
107.768669563343
20
8.13800738610644
30
0
41
1
10
107.775415879018
20
8.13270323658062
30
0
41
1
10
107.781859288076
20
8.12701091617532
30
0
41
1
10
107.787965603537
20
8.12095572631688
30
0
41
1
10
107.79370729689
20
8.11457013603874
30
0
41
1
10
107.799056839624
20
8.10788661437434
30
0
41
1
10
107.80399500755
20
8.10094255648181
30
0
41
1
10
107.808502576479
20
8.09377535751923
30
0
41
1
10
107.813925641889
20
8.08397346119281
30
0
41
1
10
107.819579621786
20
8.07135782704862
30
0
41
1
10
107.824123310867
20
8.05727452553228
30
0
41
1
10
107.826417974863
20
8.04703066382038
30
0
41
1
10
107.827724349523
20
8.03938882970741
30
0
41
1
10
107.828390981631
20
8.03432175274193
30
0
41
1
10
107.828826450222
20
8.02964150899308
30
0
41
1
10
107.829000058732
20
8.02717410404648
30
0
41
1
10
107.82910523396
20
8.02533808003545
30
0
41
1
10
107.829162852015
20
8.02412169870459
30
0
41
1
10
107.829213853034
20
8.02287386438761
30
0
41
1
10
107.829244196933
20
8.02207271926559
30
0
41
1
10
107.829280333871
20
8.02108489237591
30
0
41
1
10
107.829316148854
20
8.02006709201288
30
0
41
1
10
107.829357663421
20
8.01885912066385
30
0
41
1
10
107.829387238803
20
8.01799337630405
30
0
41
1
10
107.829422727719
20
8.01695981143504
30
0
41
1
10
107.829470043817
20
8.01559021085407
30
0
41
1
10
107.829558756253
20
8.01304034099914
30
0
41
1
10
107.830008219571
20
8.00016599546413
30
0
41
1
10
107.830812540527
20
7.97706489525388
30
0
41
1
10
107.831758816417
20
7.94983205829408
30
0
41
1
10
107.832373892754
20
7.93214104806466
30
0
41
1
10
107.832657773709
20
7.92397745687146
30
0
41
1
10
107.832776057375
20
7.92057618824873
30
0
41
1
10
107.832870684271
20
7.91785529755484
30
0
41
1
10
107.832929826067
20
7.91615479003534
30
0
41
1
10
107.832977139496
20
7.91479441196569
30
0
41
1
10
107.833012624563
20
7.91377414199832
30
0
41
1
10
107.83304219545
20
7.91292392802274
30
0
41
1
10
107.833065852157
20
7.91224376324655
30
0
41
1
10
107.833172307334
20
7.90918304067549
30
0
41
1
10
107.833367475076
20
7.90357200628935
30
0
41
1
10
107.83374598198
20
7.89269079511442
30
0
41
1
10
107.834219115323
20
7.8790902747798
30
0
41
1
10
107.834786875335
20
7.86276965037828
30
0
41
1
10
107.835342807013
20
7.84678903898512
30
0
41
1
10
107.835798197856
20
7.83369853816308
30
0
41
1
10
107.836153047863
20
7.82349814791212
30
0
41
1
10
107.836342301201
20
7.81805793977827
30
0
41
1
10
107.836454670369
20
7.8148278161988
30
0
41
1
10
107.836525640371
20
7.81278773814861
30
0
41
1
10
107.836608438706
20
7.81040764709007
30
0
41
1
10
107.836703065374
20
7.80768754302315
30
0
41
1
10
107.836797692043
20
7.80496743895623
30
0
41
1
10
107.836915975379
20
7.80156730887256
30
0
41
1
10
107.837199855385
20
7.79340699667182
30
0
41
1
10
107.837531048725
20
7.78388663243757
30
0
41
1
10
107.837909555399
20
7.7730062161699
30
0
41
1
10
107.838146122071
20
7.76620595600261
30
0
41
1
10
107.838335375408
20
7.76076574786876
30
0
41
1
10
107.838477315411
20
7.75668559176839
30
0
41
1
10
107.838619255414
20
7.75260543566799
30
0
41
1
10
107.838725710416
20
7.74954531859271
30
0
41
1
10
107.838796680418
20
7.74750524054252
30
0
41
1
10
107.838827212304
20
7.74662758196467
30
0
41
1
10
107.839205718978
20
7.73574716569701
30
0
41
1
10
107.83993907566
20
7.71466635917835
30
0
41
1
10
107.841422570472
20
7.67202235268547
30
0
41
1
10
107.848602368953
20
7.46563445660786
30
0
41
1
10
107.861471595884
20
7.09570030350665
30
0
41
1
10
107.879639916258
20
6.57344032265789
30
0
41
1
10
107.89175212984
20
6.22526700209204
30
0
41
1
10
107.897808236632
20
6.0511803418091
30
0
0
SPLINE
5
201
100
AcDbEntity
8
1
62
256
6
ByLayer
370
-1
48
1
60
0
100
AcDbSpline
70
4
71
3
72
23
73
19
40
0
40
0
40
0
40
0
40
0.0365499079218501
40
0.0695172064383632
40
0.102484504954876
40
0.135451803471389
40
0.168419101987903
40
0.234353699020929
40
0.30028829605394
40
0.366222893086981
40
0.498092087153034
40
0.629961281219079
40
0.761830475285139
40
0.827765072318162
40
0.893699669351192
40
0.926666967867705
40
0.959634266384218
40
1
40
1
40
1
40
1
41
1
10
108.072680959452
20
8.99434896596603
30
0
41
1
10
108.071666760015
20
8.99441879809848
30
0
41
1
10
108.069737790772
20
8.99454994539758
30
0
41
1
10
108.066893775854
20
8.99473545658046
30
0
41
1
10
108.064148566141
20
8.99490549180504
30
0
41
1
10
108.061402370897
20
8.99506471237558
30
0
41
1
10
108.057739617269
20
8.9952631020191
30
0
41
1
10
108.053159289181
20
8.99548598401901
30
0
41
1
10
108.047660802226
20
8.99571636486081
30
0
41
1
10
108.040327166472
20
8.99597359208443
30
0
41
1
10
108.031156655599
20
8.99620051788889
30
0
41
1
10
108.020149323771
20
8.99631839276651
30
0
41
1
10
108.010976690688
20
8.99629028175639
30
0
41
1
10
108.00364011574
20
8.99619340290241
30
0
41
1
10
107.999056112393
20
8.99609944662598
30
0
41
1
10
107.995390154029
20
8.9960027907251
30
0
41
1
10
107.992435343963
20
8.99591506470099
30
0
41
1
10
107.990396920483
20
8.99584835101226
30
0
41
1
10
107.989274829857
20
8.9958105383032
30
0
0
SPLINE
5
202
100
AcDbEntity
8
1
62
256
6
ByLayer
370
-1
48
1
60
0
100
AcDbSpline
70
4
71
3
72
22
73
18
40
0
40
0
40
0
40
0
40
0.0023505275441976
40
0.0123487527333145
40
0.0223469779224313
40
0.0623398786788986
40
0.102332779435357
40
0.182318580948301
40
0.262304382461231
40
0.34229018397417
40
0.662233390025908
40
0.812206767862661
40
0.957493477642001
40
0.962180145699413
40
0.972178370888525
40
0.982176596077647
40
1
40
1
40
1
40
1
41
1
10
103.393417083419
20
2.96949139762827
30
0
41
1
10
103.393520825674
20
2.9694840213192
30
0
41
1
10
103.394067048627
20
2.96944526602127
30
0
41
1
10
103.395067583738
20
2.96937491757876
30
0
41
1
10
103.397782199589
20
2.96918534538651
30
0
41
1
10
103.401872997255
20
2.96889904782341
30
0
41
1
10
103.409183664104
20
2.96838615576843
30
0
41
1
10
103.418364353154
20
2.96774068871233
30
0
41
1
10
103.429355660389
20
2.96696875036292
30
0
41
1
10
103.451312755232
20
2.96542749578197
30
0
41
1
10
103.476471926407
20
2.96366147490798
30
0
41
1
10
103.504618749159
20
2.96168573905521
30
0
41
1
10
103.518341962449
20
2.96072224987628
30
0
41
1
10
103.525661025011
20
2.9602082796124
30
0
41
1
10
103.52679033373
20
2.96012897392825
30
0
41
1
10
103.52852063406
20
2.96000777071996
30
0
41
1
10
103.529793414143
20
2.95991924786688
30
0
41
1
10
103.53060879062
20
2.95986310557763
30
0
0
SPLINE
5
203
100
AcDbEntity
8
1
62
256
6
ByLayer
370
-1
48
1
60
0
100
AcDbSpline
70
4
71
3
72
14
73
10
40
0
40
0
40
0
40
0
40
0.0050966481374696
40
0.0240065217780202
40
0.0435263913424598
40
0.0630462609068994
40
0.375364173937933
40
0.687682086968966
40
1
40
1
40
1
40
1
41
1
10
107.953260019678
20
8.99454976298762
30
0
41
1
10
107.949431010217
20
8.99441550934841
30
0
41
1
10
107.931395396701
20
8.99378317130785
30
0
41
1
10
107.898694930902
20
8.99263688390982
30
0
41
1
10
107.855158601058
20
8.99111075438722
30
0
41
1
10
107.591190959056
20
8.98185759012398
30
0
41
1
10
107.107250282053
20
8.96489345564132
30
0
41
1
10
106.403336570047
20
8.94021835093929
30
0
41
1
10
105.934060762043
20
8.92376828113791
30
0
41
1
10
105.699422858041
20
8.91554324623723
30
0
0
SPLINE
5
204
100
AcDbEntity
8
1
62
256
6
ByLayer
370
-1
48
1
60
0
100
AcDbSpline
70
4
71
3
72
19
73
15
40
0
40
0
40
0
40
0
40
0.0403657336156582
40
0.106300330648702
40
0.172234927681746
40
0.23816952471479
40
0.370038718780879
40
0.501907912846967
40
0.765646300979143
40
0.831580898012187
40
0.897515495045231
40
0.930482793561753
40
0.963450092078275
40
1
40
1
40
1
40
1
41
1
10
108.193718756275
20
3.11893920956609
30
0
41
1
10
108.194840741188
20
3.11898006104261
30
0
41
1
10
108.197795072386
20
3.11909049576678
30
0
41
1
10
108.202580415422
20
3.11929046750237
30
0
41
1
10
108.208075654699
20
3.1195631770444
30
0
41
1
10
108.21540109033
20
3.11998026267216
30
0
41
1
10
108.224553332803
20
3.12059451480297
30
0
41
1
10
108.239183102502
20
3.12177898598961
30
0
41
1
10
108.251960623848
20
3.12308466992428
30
0
41
1
10
108.262889461463
20
3.12438803090066
30
0
41
1
10
108.267438309088
20
3.12496431375118
30
0
41
1
10
108.271073917885
20
3.12544677863224
30
0
41
1
10
108.273898113563
20
3.12583098418278
30
0
41
1
10
108.275813270373
20
3.12609688409606
30
0
41
1
10
108.276820146564
20
3.12623756333929
30
0
0
SPLINE
5
205
100
AcDbEntity
8
1
62
256
6
ByLayer
370
-1
48
1
60
0
100
AcDbSpline
70
4
71
3
72
8
73
4
40
0
40
0
40
0
40
0
40
1
40
1
40
1
40
1
41
1
10
102.954418224217
20
3.57589718170013
30
0
41
1
10
102.953955318527
20
3.58794633179801
30
0
41
1
10
102.95351425397
20
3.59999632741372
30
0
41
1
10
102.953095033465
20
3.61204708875442
30
0
0
SPLINE
5
206
100
AcDbEntity
8
1
62
256
6
ByLayer
370
-1
48
1
60
0
100
AcDbSpline
70
4
71
3
72
79
73
75
40
0
40
0
40
0
40
0
40
0.0017245864916112
40
0.0039792263717387
40
0.0084885061319936
40
0.0129977858922486
40
0.0220163454127585
40
0.0310349049332684
40
0.0671091430153079
40
0.139257619179387
40
0.211406095343466
40
0.220424654863976
40
0.224933934624231
40
0.228315894444422
40
0.229443214384486
40
0.231697854264613
40
0.233952494144741
40
0.237334453964932
40
0.238461773904996
40
0.240716413785123
40
0.242971053665251
40
0.247480333425506
40
0.249734973305633
40
0.256498892946016
40
0.265517452466525
40
0.283554571507545
40
0.292573131028055
40
0.319628809589585
40
0.355703047671624
40
0.391777285753664
40
0.409814404794684
40
0.427851523835703
40
0.445888642876723
40
0.463925761917743
40
0.481962880958763
40
0.499999999999782
40
0.518037119040803
40
0.536074238081822
40
0.554111357122841
40
0.572148476163862
40
0.59018559520488
40
0.608222714245902
40
0.62625983328692
40
0.644296952327941
40
0.662334071368961
40
0.680371190409982
40
0.71644542849202
40
0.725463988012528
40
0.73448254753304
40
0.751392346633995
40
0.75251966657406
40
0.754774306454187
40
0.757028946334315
40
0.760410906154508
40
0.76153822609457
40
0.763792865974699
40
0.766047505854823
40
0.769429465675018
40
0.770556785615079
40
0.771684105555141
40
0.775066065375336
40
0.779575345135589
40
0.784084624895844
40
0.788593904656099
40
0.824668142738139
40
0.860742380820178
40
0.932890856984257
40
0.968965095066297
40
0.987002214107317
40
0.991511493867572
40
0.994893453687761
40
0.996020773627827
40
0.998275413507954
40
1
40
1
40
1
40
1
41
1
10
108.413008581736
20
3.1454489669581
30
0
41
1
10
108.413343628495
20
3.14549654343421
30
0
41
1
10
108.414111126503
20
3.14560591367729
30
0
41
1
10
108.415725791824
20
3.14583902670611
30
0
41
1
10
108.417833566378
20
3.14615348067997
30
0
41
1
10
108.421175980231
20
3.14667283526839
30
0
41
1
10
108.425387758621
20
3.14736341576929
30
0
41
1
10
108.435551927819
20
3.14914832006085
30
0
41
1
10
108.457594697328
20
3.1536796035609
30
0
41
1
10
108.491737812757
20
3.16321952636676
30
0
41
1
10
108.520543448574
20
3.17435360071784
30
0
41
1
10
108.536431544458
20
3.18153899804372
30
0
41
1
10
108.539559858212
20
3.18298879053484
30
0
41
1
10
108.541225865033
20
3.18377184036129
30
0
41
1
10
108.542474299228
20
3.18436333590788
30
0
41
1
10
108.543513985336
20
3.18485887825196
30
0
41
1
10
108.544968260661
20
3.18555754303051
30
0
41
1
10
108.546213379758
20
3.18616165155683
30
0
41
1
10
108.547457346065
20
3.18676995901947
30
0
41
1
10
108.548493257765
20
3.18727950551826
30
0
41
1
10
108.550149138498
20
3.18810037387783
30
0
41
1
10
108.551802611317
20
3.18892962855944
30
0
41
1
10
108.554279085871
20
3.19018607620418
30
0
41
1
10
108.557574303364
20
3.19188366629407
30
0
41
1
10
108.563729617865
20
3.1951397854682
30
0
41
1
10
108.570250210555
20
3.19874642116932
30
0
41
1
10
108.579955626052
20
3.2043556505096
30
0
41
1
10
108.592755105507
20
3.21218666110391
30
0
41
1
10
108.609965124376
20
3.22378529515319
30
0
41
1
10
108.625137170899
20
3.2351705795345
30
0
41
1
10
108.636952091771
20
3.24476152698455
30
0
41
1
10
108.645642258942
20
3.25219061678945
30
0
41
1
10
108.65415173732
20
3.25985010505656
30
0
41
1
10
108.662472078374
20
3.2677325853092
30
0
41
1
10
108.670594833572
20
3.27583065107064
30
0
41
1
10
108.678511554386
20
3.28413689586421
30
0
41
1
10
108.686213792283
20
3.29264391321317
30
0
41
1
10
108.693694776283
20
3.30134272632389
30
0
41
1
10
108.700947735408
20
3.31022435840268
30
0
41
1
10
108.707965898676
20
3.31927983265584
30
0
41
1
10
108.714742495108
20
3.32850017228975
30
0
41
1
10
108.721272752322
20
3.33787531639035
30
0
41
1
10
108.727551897938
20
3.34739520404361
30
0
41
1
10
108.733575159574
20
3.35704977433551
30
0
41
1
10
108.739337764849
20
3.36682896635205
30
0
41
1
10
108.746670227222
20
3.38001992254644
30
0
41
1
10
108.752620875697
20
3.39174300915093
30
0
41
1
10
108.75738260041
20
3.40189416327672
30
0
41
1
10
108.760370277826
20
3.40847496455007
30
0
41
1
10
108.762585744745
20
3.41359553098778
30
0
41
1
10
108.764196358817
20
3.41744753285232
30
0
41
1
10
108.764641095816
20
3.41851812988577
30
0
41
1
10
108.765258769113
20
3.42001805512908
30
0
41
1
10
108.765782889601
20
3.42130484672765
30
0
41
1
10
108.766302757774
20
3.42259252045363
30
0
41
1
10
108.766733323283
20
3.42366612676645
30
0
41
1
10
108.767331152443
20
3.42517016860438
30
0
41
1
10
108.76783825933
20
3.4264603854306
30
0
41
1
10
108.768257301914
20
3.42753623237064
30
0
41
1
10
108.768674571072
20
3.42861240813301
30
0
41
1
10
108.769336526185
20
3.43033532781334
30
0
41
1
10
108.770233053519
20
3.43270674176057
30
0
41
1
10
108.771194044566
20
3.43529656498595
30
0
41
1
10
108.774340528999
20
3.4439381788732
30
0
41
1
10
108.779254709686
20
3.45869256256654
30
0
41
1
10
108.787066444763
20
3.48657324665828
30
0
41
1
10
108.792745458236
20
3.51445766213448
30
0
41
1
10
108.795938986121
20
3.53856906034528
30
0
41
1
10
108.797026637703
20
3.54972358891365
30
0
41
1
10
108.797433396981
20
3.55458699155858
30
0
41
1
10
108.797566906534
20
3.55629126879307
30
0
41
1
10
108.79766396782
20
3.55758172299963
30
0
41
1
10
108.797735572463
20
3.55856419686779
30
0
41
1
10
108.797790723158
20
3.55934037914861
30
0
41
1
10
108.797814631457
20
3.55967920522377
30
0
0
SPLINE
5
207
100
AcDbEntity
8
1
62
256
6
ByLayer
370
-1
48
1
60
0
100
AcDbSpline
70
4
71
3
72
23
73
19
40
0
40
0
40
0
40
0
40
0.036549907921746
40
0.0695172064382735
40
0.102484504954801
40
0.135451803471328
40
0.168419101987856
40
0.234353699020911
40
0.300288296053951
40
0.366222893087021
40
0.498092087153131
40
0.629961281219233
40
0.76183047528535
40
0.827765072318401
40
0.89369966935146
40
0.926666967867988
40
0.959634266384515
40
1
40
1
40
1
40
1
41
1
10
102.795883465122
20
8.25681710908552
30
0
41
1
10
102.795813898721
20
8.25579903557167
30
0
41
1
10
102.795683250477
20
8.25386269797943
30
0
41
1
10
102.795498445221
20
8.25100781938673
30
0
41
1
10
102.795329057031
20
8.24825212341813
30
0
41
1
10
102.795170442343
20
8.24549543815411
30
0
41
1
10
102.794972807632
20
8.24181869340285
30
0
41
1
10
102.794750773766
20
8.2372208692054
30
0
41
1
10
102.794521269592
20
8.23170137892353
30
0
41
1
10
102.794265021196
20
8.2243397298723
30
0
41
1
10
102.794038958913
20
8.21513418913776
30
0
41
1
10
102.793921532585
20
8.20408481109052
30
0
41
1
10
102.793949536624
20
8.19487714003935
30
0
41
1
10
102.794046046825
20
8.18751254056716
30
0
41
1
10
102.794139645569
20
8.1829110270715
30
0
41
1
10
102.794235933665
20
8.17923106534215
30
0
41
1
10
102.794323325865
20
8.17626496838224
30
0
41
1
10
102.794389785688
20
8.174218758455
30
0
41
1
10
102.794427454508
20
8.17309238162588
30
0
0
SPLINE
5
208
100
AcDbEntity
8
1
62
256
6
ByLayer
370
-1
48
1
60
0
100
AcDbSpline
70
4
71
3
72
8
73
4
40
0
40
0
40
0
40
0
40
1
40
1
40
1
40
1
41
1
10
108.732404472027
20
-2.76174888889111
30
0
41
1
10
108.729065092641
20
-2.75492967849738
30
0
41
1
10
108.725812087114
20
-2.74809159969911
30
0
41
1
10
108.722680063867
20
-2.74131096489469
30
0
0
SPLINE
5
209
100
AcDbEntity
8
1
62
256
6
ByLayer
370
-1
48
1
60
0
100
AcDbSpline
70
4
71
3
72
8
73
4
40
0
40
0
40
0
40
0
40
1
40
1
40
1
40
1
41
1
10
108.808392598347
20
-3.16651822470291
30
0
41
1
10
108.808759922375
20
-3.1560318667002
30
0
41
1
10
108.809215729604
20
-3.14559825822451
30
0
41
1
10
108.809760062704
20
-3.13521742471451
30
0
0
SPLINE
5
20A
100
AcDbEntity
8
1
62
256
6
ByLayer
370
-1
48
1
60
0
100
AcDbSpline
70
4
71
3
72
14
73
10
40
0
40
0
40
0
40
0
40
0.25
40
0.25
40
0.5
40
0.5
40
0.75
40
0.75
40
1
40
1
40
1
40
1
41
1
10
108.431171038291
20
-0.381840090114423
30
0
41
1
10
108.41600389147
20
-0.340222341403461
30
0
41
1
10
108.402548095554
20
-0.299610868861606
30
0
41
1
10
108.380570898972
20
-0.227824033320729
30
0
41
1
10
108.371647867856
20
-0.195634202261118
30
0
41
1
10
108.3565500506
20
-0.137487821126598
30
0
41
1
10
108.350221907815
20
-0.110927646845596
30
0
41
1
10
108.339078849081
20
-0.0612442783480844
30
0
41
1
10
108.334292725384
20
-0.0382310456890309
30
0
41
1
10
108.329982920657
20
-0.0163267000798726
30
0
0
SPLINE
5
20B
100
AcDbEntity
8
1
62
256
6
ByLayer
370
-1
48
1
60
0
100
AcDbSpline
70
4
71
3
72
8
73
4
40
0
40
0
40
0
40
0
40
1
40
1
40
1
40
1
41
1
10
108.431171038288
20
-0.381840090114196
30
0
41
1
10
108.449238235704
20
-0.431415405158305
30
0
41
1
10
108.456108336401
20
-0.480571292425878
30
0
41
1
10
108.455212945081
20
-0.523836599597814
30
0
0
SPLINE
5
20C
100
AcDbEntity
8
1
62
256
6
ByLayer
370
-1
48
1
60
0
100
AcDbSpline
70
4
71
3
72
12
73
8
40
0
40
0
40
0
40
0
40
0.40835348816663
40
0.40835348816663
40
0.704176744083315
40
0.704176744083315
40
1
40
1
40
1
40
1
41
1
10
107.975915951252
20
0.628181672071463
30
0
41
1
10
107.99849947944
20
0.621457952394366
30
0
41
1
10
108.022258315905
20
0.612648317995877
30
0
41
1
10
108.065539680352
20
0.591806877915985
30
0
41
1
10
108.084271395478
20
0.581397025091178
30
0
41
1
10
108.123601048262
20
0.554726137477132
30
0
41
1
10
108.143821854551
20
0.538611553342179
30
0
41
1
10
108.163270249035
20
0.519297580955197
30
0
0
SPLINE
5
20D
100
AcDbEntity
8
1
62
256
6
ByLayer
370
-1
48
1
60
0
100
AcDbSpline
70
4
71
3
72
16
73
12
40
0
40
0
40
0
40
0
40
0.250000000000001
40
0.250000000000001
40
0.500000000000001
40
0.500000000000001
40
0.750000000000002
40
0.750000000000002
40
0.875000000000001
40
0.875000000000001
40
1
40
1
40
1
40
1
41
1
10
108.854373509003
20
-4.21174095331722
30
0
41
1
10
108.859377258797
20
-4.24050949667824
30
0
41
1
10
108.862991867215
20
-4.27023778800287
30
0
41
1
10
108.866143423952
20
-4.33239388191197
30
0
41
1
10
108.865753343965
20
-4.36477821160045
30
0
41
1
10
108.857933869739
20
-4.43402205383322
30
0
41
1
10
108.850661667157
20
-4.47085371091003
30
0
41
1
10
108.828729983715
20
-4.52963507422635
30
0
41
1
10
108.819634009162
20
-4.54965096385206
30
0
41
1
10
108.795134542483
20
-4.59110632105578
30
0
41
1
10
108.779843160628
20
-4.61213513385505
30
0
41
1
10
108.7608681154
20
-4.63192099631991
30
0
0
SPLINE
5
20E
100
AcDbEntity
8
1
62
256
6
ByLayer
370
-1
48
1
60
0
100
AcDbSpline
70
4
71
3
72
10
73
6
40
0
40
0
40
0
40
0
40
0.5
40
0.5
40
1
40
1
40
1
40
1
41
1
10
108.457422757584
20
-0.659046986745324
30
0
41
1
10
108.456127391744
20
-0.634406128518719
30
0
41
1
10
108.455361326259
20
-0.610872990993272
30
0
41
1
10
108.454691255161
20
-0.565610836342273
30
0
41
1
10
108.454797061025
20
-0.543932116513759
30
0
41
1
10
108.455212945081
20
-0.523836599597303
30
0
0
SPLINE
5
20F
100
AcDbEntity
8
1
62
256
6
ByLayer
370
-1
48
1
60
0
100
AcDbSpline
70
4
71
3
72
12
73
8
40
0
40
0
40
0
40
0
40
0.25
40
0.25
40
0.5
40
0.5
40
1
40
1
40
1
40
1
41
1
10
108.163270249035
20
0.519297580955197
30
0
41
1
10
108.180366053278
20
0.502319938334296
30
0
41
1
10
108.195653234405
20
0.483436471753009
30
0
41
1
10
108.219500908543
20
0.447826211686675
30
0
41
1
10
108.228209989056
20
0.431389823181433
30
0
41
1
10
108.249053677196
20
0.385470186478784
30
0
41
1
10
108.255946332897
20
0.359960187276187
30
0
41
1
10
108.260631413762
20
0.336148521327374
30
0
0
SPLINE
5
210
100
AcDbEntity
8
1
62
256
6
ByLayer
370
-1
48
1
60
0
100
AcDbSpline
70
4
71
3
72
12
73
8
40
0
40
0
40
0
40
0
40
0.250000000000025
40
0.250000000000025
40
0.500000000000049
40
0.500000000000049
40
1
40
1
40
1
40
1
41
1
10
108.7608681154
20
-4.63192099631991
30
0
41
1
10
108.744188401349
20
-4.64931344646663
30
0
41
1
10
108.72494384397
20
-4.66425173606513
30
0
41
1
10
108.687727414191
20
-4.68653445190316
30
0
41
1
10
108.670122773791
20
-4.6941027025633
30
0
41
1
10
108.620291447313
20
-4.71112406014291
30
0
41
1
10
108.591737747885
20
-4.71503978938711
30
0
41
1
10
108.564760177369
20
-4.71662768599103
30
0
0
SPLINE
5
211
100
AcDbEntity
8
1
62
256
6
ByLayer
370
-1
48
1
60
0
100
AcDbSpline
70
4
71
3
72
16
73
12
40
0
40
0
40
0
40
0
40
0.25
40
0.25
40
0.499999999999999
40
0.499999999999999
40
0.749999999999999
40
0.749999999999999
40
0.874999999999999
40
0.874999999999999
40
1
40
1
40
1
40
1
41
1
10
108.854373509002
20
-4.2117409533206
30
0
41
1
10
108.847266707729
20
-4.17088113238648
30
0
41
1
10
108.840293264469
20
-4.12878732481812
30
0
41
1
10
108.826804512774
20
-4.04036050246728
30
0
41
1
10
108.820260855782
20
-3.9940041069539
30
0
41
1
10
108.808172062751
20
-3.89341564060734
30
0
41
1
10
108.802534953431
20
-3.83919657330026
30
0
41
1
10
108.796402555455
20
-3.74612969630093
30
0
41
1
10
108.794733408249
20
-3.71250365693524
30
0
41
1
10
108.793083757834
20
-3.64027728169972
30
0
41
1
10
108.79317039192
20
-3.60108142778233
30
0
41
1
10
108.794514610796
20
-3.56270669788344
30
0
0
SPLINE
5
212
100
AcDbEntity
8
1
62
256
6
ByLayer
370
-1
48
1
60
0
100
AcDbSpline
70
4
71
3
72
12
73
8
40
0
40
0
40
0
40
0
40
0.250000000000006
40
0.250000000000006
40
0.500000000000011
40
0.500000000000011
40
1
40
1
40
1
40
1
41
1
10
108.732404472027
20
-2.76174888889111
30
0
41
1
10
108.746538435205
20
-2.79061127841493
30
0
41
1
10
108.758889127768
20
-2.82031329342985
30
0
41
1
10
108.779909989626
20
-2.88144860062221
30
0
41
1
10
108.788598317483
20
-2.91309063836877
30
0
41
1
10
108.808199469959
20
-3.00776651130028
30
0
41
1
10
108.813098862107
20
-3.07154405875593
30
0
41
1
10
108.809760062704
20
-3.13521742471448
30
0
0
SPLINE
5
213
100
AcDbEntity
8
SK1
62
256
6
ByLayer
370
-1
48
1
60
0
100
AcDbSpline
70
4
71
3
72
20
73
16
40
0
40
0
40
0
40
0
40
0.25
40
0.25
40
0.375
40
0.375
40
0.5
40
0.5
40
0.625
40
0.625
40
0.75
40
0.75
40
0.875
40
0.875
40
1
40
1
40
1
40
1
41
1
10
-54.5162227297291
20
6.81204395564973
30
0
41
1
10
-54.4772709483907
20
6.72453199501689
30
0
41
1
10
-54.4306845518237
20
6.63914767831511
30
0
41
1
10
-54.3469265709005
20
6.52165950363116
30
0
41
1
10
-54.3163253277688
20
6.4838456686486
30
0
41
1
10
-54.2501041764424
20
6.41421731653315
30
0
41
1
10
-54.2145625265326
20
6.38236090680323
30
0
41
1
10
-54.1369222939179
20
6.32662557921188
30
0
41
1
10
-54.0940013611407
20
6.30244517653043
30
0
41
1
10
-54.0037548865671
20
6.26824500575401
30
0
41
1
10
-53.9556146989167
20
6.25796898452336
30
0
41
1
10
-53.8582046255659
20
6.25504848254033
30
0
41
1
10
-53.8099490429816
20
6.26234710426348
30
0
41
1
10
-53.7177558858445
20
6.29178438547694
30
0
41
1
10
-53.6739857261288
20
6.31382932086129
30
0
41
1
10
-53.6338144512151
20
6.3403417946746
30
0
0
SPLINE
5
214
100
AcDbEntity
8
SK1
62
256
6
ByLayer
370
-1
48
1
60
0
100
AcDbSpline
70
4
71
3
72
8
73
4
40
0
40
0
40
0
40
0
40
1
40
1
40
1
40
1
41
1
10
-56.0000000000001
20
4.99854728896315
30
0
41
1
10
-55.7019755215914
20
5.68400902895925
30
0
41
1
10
-55.3641473109835
20
6.34826454962635
30
0
41
1
10
-55
20
6.99849805315404
30
0
0
SPLINE
5
215
100
AcDbEntity
8
SK1
62
256
6
ByLayer
370
-1
48
1
60
0
100
AcDbSpline
70
4
71
3
72
8
73
4
40
0
40
0
40
0
40
0
40
1
40
1
40
1
40
1
41
1
10
-55
20
-6.99849805315392
30
0
41
1
10
-55.3648529633576
20
-6.34700451336727
30
0
41
1
10
-55.7026345426883
20
-5.68249326840734
30
0
41
1
10
-56
20
-4.99854728896301
30
0
0
SPLINE
5
216
100
AcDbEntity
8
SK1
62
256
6
ByLayer
370
-1
48
1
60
0
100
AcDbSpline
70
4
71
3
72
8
73
4
40
0
40
0
40
0
40
0
40
1
40
1
40
1
40
1
41
1
10
-54.6
20
6.99849805315404
30
0
41
1
10
-54.5718676648179
20
6.93646419260517
30
0
41
1
10
-54.5439393896427
20
6.87431425928909
30
0
41
1
10
-54.516222729729
20
6.81204395564973
30
0
0
SPLINE
5
217
100
AcDbEntity
8
SK1
62
256
6
ByLayer
370
-1
48
1
60
0
100
AcDbSpline
70
4
71
3
72
8
73
4
40
0
40
0
40
0
40
0
40
1
40
1
40
1
40
1
41
1
10
-52.6000000000004
20
-6.99849805315466
30
0
41
1
10
-52.9473802440142
20
-6.78469639798683
30
0
41
1
10
-53.292222119692
20
-6.56578790669792
30
0
41
1
10
-53.6338144512151
20
-6.34034179467449
30
0
0
SPLINE
5
218
100
AcDbEntity
8
SK1
62
256
6
ByLayer
370
-1
48
1
60
0
100
AcDbSpline
70
4
71
3
72
68
73
64
40
0
40
0
40
0
40
0
40
0.015625
40
0.015625
40
0.0312499999999999
40
0.0312499999999999
40
0.0468749999999999
40
0.0468749999999999
40
0.0624999999999998
40
0.0624999999999998
40
0.0781249999999998
40
0.0781249999999998
40
0.0937499999999997
40
0.0937499999999997
40
0.125
40
0.125
40
0.15625
40
0.15625
40
0.1875
40
0.1875
40
0.25
40
0.25
40
0.28125
40
0.28125
40
0.3125
40
0.3125
40
0.375
40
0.375
40
0.4375
40
0.4375
40
0.46875
40
0.46875
40
0.5
40
0.5
40
0.5625
40
0.5625
40
0.625
40
0.625
40
0.6875
40
0.6875
40
0.75
40
0.75
40
0.8125
40
0.8125
40
0.84375
40
0.84375
40
0.859375
40
0.859375
40
0.875
40
0.875
40
0.90625
40
0.90625
40
0.921875
40
0.921875
40
0.9375
40
0.9375
40
0.953125
40
0.953125
40
0.96875
40
0.96875
40
0.984375
40
0.984375
40
1
40
1
40
1
40
1
41
1
10
-6.5
20
-6.99849805315398
30
0
41
1
10
-6.4096424095903
20
-6.99849805315398
30
0
41
1
10
-6.31887533751086
20
-6.9924669932976
30
0
41
1
10
-6.13726564177031
20
-6.96792032412691
30
0
41
1
10
-6.04880117468585
20
-6.94974705973743
30
0
41
1
10
-5.87614107362342
20
-6.90252164638767
30
0
41
1
10
-5.79194795071362
20
-6.87346297167917
30
0
41
1
10
-5.62761370230606
20
-6.80484072991021
30
0
41
1
10
-5.54890965383427
20
-6.76585529638666
30
0
41
1
10
-5.39867973784189
20
-6.68016521734489
30
0
41
1
10
-5.32694157755157
20
-6.63336290342139
30
0
41
1
10
-5.18947718430641
20
-6.53250060019133
30
0
41
1
10
-5.12348684568531
20
-6.47818603126365
30
0
41
1
10
-4.93566988154686
20
-6.30674027670506
30
0
41
1
10
-4.82518003213681
20
-6.18267595320251
30
0
41
1
10
-4.62603001440084
20
-5.91868980815966
30
0
41
1
10
-4.53721391214785
20
-5.77825879287735
30
0
41
1
10
-4.37814656673874
20
-5.48542007115435
30
0
41
1
10
-4.30877871567313
20
-5.33483042069352
30
0
41
1
10
-4.12354082750574
20
-4.87237000918773
30
0
41
1
10
-4.03020120532329
20
-4.54989217457512
30
0
41
1
10
-3.91807144557504
20
-4.04887624586692
30
0
41
1
10
-3.88552668802802
20
-3.87909831441809
30
0
41
1
10
-3.82866773565829
20
-3.53847076026688
30
0
41
1
10
-3.80422767364425
20
-3.36705941807358
30
0
41
1
10
-3.74020579920568
20
-2.84975913582008
30
0
41
1
10
-3.70977205452269
20
-2.5008195214777
30
0
41
1
10
-3.66416163751657
20
-1.79552608157809
30
0
41
1
10
-3.64903771748126
20
-1.43916908464092
30
0
41
1
10
-3.63426182330713
20
-0.899256752194447
30
0
41
1
10
-3.63068669313998
20
-0.718167674817778
30
0
41
1
10
-3.62598899859142
20
-0.357375695924361
30
0
41
1
10
-3.62485343662013
20
-0.177302953433326
30
0
41
1
10
-3.62488496014578
20
0.361962578325034
30
0
41
1
10
-3.62938260517049
20
0.720207066315254
30
0
41
1
10
-3.64887950283875
20
1.43414621185846
30
0
41
1
10
-3.66385562324439
20
1.78984138878459
30
0
41
1
10
-3.70956223321124
20
2.49851694715909
30
0
41
1
10
-3.74045671775656
20
2.85271919963691
30
0
41
1
10
-3.82645737175278
20
3.54573152185978
30
0
41
1
10
-3.88145968550236
20
3.88575414429386
30
0
41
1
10
-4.03051920995767
20
4.55084385300148
30
0
41
1
10
-4.12523349261875
20
4.87761469840365
30
0
41
1
10
-4.31105593218689
20
5.33999328729007
30
0
41
1
10
-4.38041029850672
20
5.4899128326384
30
0
41
1
10
-4.49888437250004
20
5.70752713951083
30
0
41
1
10
-4.54079549132547
20
5.77885043055693
30
0
41
1
10
-4.63023926406612
20
5.91883578995851
30
0
41
1
10
-4.67776791395602
20
5.98743717509882
30
0
41
1
10
-4.82792587490127
20
6.18597359029033
30
0
41
1
10
-4.93858588995937
20
6.30966494075429
30
0
41
1
10
-5.12522766477915
20
6.47964028567972
30
0
41
1
10
-5.19131964832849
20
6.53397024553271
30
0
41
1
10
-5.32929892448178
20
6.63497116118225
30
0
41
1
10
-5.40112275258878
20
6.68167605293547
30
0
41
1
10
-5.55102867370906
20
6.76694298534821
30
0
41
1
10
-5.62910582891868
20
6.80551115138627
30
0
41
1
10
-5.79238720600742
20
6.87359848794483
30
0
41
1
10
-5.87738605118548
20
6.90291103819595
30
0
41
1
10
-6.04966564042599
20
6.94993403370722
30
0
41
1
10
-6.13756051826556
20
6.96792637087054
30
0
41
1
10
-6.31709499624006
20
6.99225989008042
30
0
41
1
10
-6.40924253974518
20
6.99849805315398
30
0
41
1
10
-6.5
20
6.99849805315398
30
0
0
SPLINE
5
219
100
AcDbEntity
8
SK1
62
256
6
ByLayer
370
-1
48
1
60
0
100
AcDbSpline
70
4
71
3
72
8
73
4
40
0
40
0
40
0
40
0
40
1
40
1
40
1
40
1
41
1
10
-54.516222729729
20
-6.81204395564961
30
0
41
1
10
-54.5439393896427
20
-6.87431425928901
30
0
41
1
10
-54.5718676648179
20
-6.93646419260506
30
0
41
1
10
-54.6
20
-6.99849805315392
30
0
0
SPLINE
5
21A
100
AcDbEntity
8
SK1
62
256
6
ByLayer
370
-1
48
1
60
0
100
AcDbSpline
70
4
71
3
72
20
73
16
40
0
40
0
40
0
40
0
40
0.125000000000007
40
0.125000000000007
40
0.250000000000015
40
0.250000000000015
40
0.312500000000018
40
0.312500000000018
40
0.375000000000022
40
0.375000000000022
40
0.500000000000012
40
0.500000000000012
40
0.750000000000006
40
0.750000000000006
40
1
40
1
40
1
40
1
41
1
10
-53.6338144512145
20
-6.34034179467375
30
0
41
1
10
-53.6736405326374
20
-6.31405714368671
30
0
41
1
10
-53.7174596238937
20
-6.2918915268643
30
0
41
1
10
-53.8100286430817
20
-6.26230917234659
30
0
41
1
10
-53.858409060093
20
-6.25510537770515
30
0
41
1
10
-53.930507607687
20
-6.25719119578449
30
0
41
1
10
-53.9548847131618
20
-6.26004287846277
30
0
41
1
10
-54.0024268232708
20
-6.26975628298462
30
0
41
1
10
-54.025531470073
20
-6.27654559824734
30
0
41
1
10
-54.0930893921825
20
-6.30200607369946
30
0
41
1
10
-54.136092797726
20
-6.32609087475549
30
0
41
1
10
-54.2534188607808
20
-6.41013429612562
30
0
41
1
10
-54.3194596979378
20
-6.48308041368765
30
0
41
1
10
-54.4306544823114
20
-6.63915672058906
30
0
41
1
10
-54.4771151388184
20
-6.72418194167685
30
0
41
1
10
-54.5162227297291
20
-6.81204395564961
30
0
0
SPLINE
5
21B
100
AcDbEntity
8
SK1
62
256
6
ByLayer
370
-1
48
1
60
0
100
AcDbSpline
70
4
71
3
72
8
73
4
40
0
40
0
40
0
40
0
40
1
40
1
40
1
40
1
41
1
10
-53.6338144512151
20
6.34034179467457
30
0
41
1
10
-53.2922221196919
20
6.56578790669803
30
0
41
1
10
-52.9473802440142
20
6.78469639798695
30
0
41
1
10
-52.6000000000004
20
6.99849805315478
30
0
0
LINE
5
45
100
AcDbEntity
8
80
62
256
6
ByLayer
370
-1
48
1
60
0
100
AcDbLine
10
0
20
0
30
0
11
-7
21
0
31
0
39
0
210
0
220
0
230
1
0
LINE
5
46
100
AcDbEntity
8
81
62
256
6
ByLayer
370
-1
48
1
60
0
100
AcDbLine
10
109
20
0
30
0
11
116
21
0
31
0
39
0
210
0
220
0
230
1
0
LINE
5
47
100
AcDbEntity
8
1
62
256
6
ByLayer
370
-1
48
1
60
0
100
AcDbLine
10
0.2
20
16
30
0
11
0
21
15.8
31
0
39
0
210
0
220
0
230
1
0
LINE
5
49
100
AcDbEntity
8
1
62
256
6
ByLayer
370
-1
48
1
60
0
100
AcDbLine
10
0
20
-15.8
30
0
11
0.2
21
-16
31
0
39
0
210
0
220
0
230
1
0
LINE
5
4A
100
AcDbEntity
8
1
62
256
6
ByLayer
370
-1
48
1
60
0
100
AcDbLine
10
5
20
16
30
0
11
0.2
21
16
31
0
39
0
210
0
220
0
230
1
0
LINE
5
4B
100
AcDbEntity
8
1
62
256
6
ByLayer
370
-1
48
1
60
0
100
AcDbLine
10
0.2
20
-16
30
0
11
5
21
-16
31
0
39
0
210
0
220
0
230
1
0
LINE
5
4C
100
AcDbEntity
8
1
62
256
6
ByLayer
370
-1
48
1
60
0
100
AcDbLine
10
49.069233
20
8.753399
30
0
11
21
21
8.865
31
0
39
0
210
0
220
0
230
1
0
LINE
5
4D
100
AcDbEntity
8
1
62
256
6
ByLayer
370
-1
48
1
60
0
100
AcDbLine
10
21
20
8.865
30
0
11
16
21
8.865
31
0
39
0
210
0
220
0
230
1
0
LINE
5
4E
100
AcDbEntity
8
1
62
256
6
ByLayer
370
-1
48
1
60
0
100
AcDbLine
10
16
20
-8.865
30
0
11
21
21
-8.865
31
0
39
0
210
0
220
0
230
1
0
LINE
5
4F
100
AcDbEntity
8
1
62
256
6
ByLayer
370
-1
48
1
60
0
100
AcDbLine
10
21
20
-8.865
30
0
11
32.308049
21
-8.82004
31
0
39
0
210
0
220
0
230
1
0
LINE
5
50
100
AcDbEntity
8
1
62
256
6
ByLayer
370
-1
48
1
60
0
100
AcDbLine
10
102.559519
20
8.7
30
0
11
100.14015
21
8.7
31
0
39
0
210
0
220
0
230
1
0
LINE
5
51
100
AcDbEntity
8
SK1
62
256
6
ByLayer
370
-1
48
1
60
0
100
AcDbLine
10
-2
20
-12.49675
30
0
11
-1.551212
21
-12.287477
31
0
39
0
210
0
220
0
230
1
0
LINE
5
53
100
AcDbEntity
8
SK1
62
256
6
ByLayer
370
-1
48
1
60
0
100
AcDbLine
10
-1.551212
20
12.287477
30
0
11
-2
21
12.49675
31
0
39
0
210
0
220
0
230
1
0
LINE
5
54
100
AcDbEntity
8
SK1
62
256
6
ByLayer
370
-1
48
1
60
0
100
AcDbLine
10
-2
20
12.49675
30
0
11
-52.6
21
12.49675
31
0
39
0
210
0
220
0
230
1
0
LINE
5
55
100
AcDbEntity
8
SK1
62
256
6
ByLayer
370
-1
48
1
60
0
100
AcDbLine
10
-52.6
20
-12.49675
30
0
11
-2
21
-12.49675
31
0
39
0
210
0
220
0
230
1
0
LINE
5
56
100
AcDbEntity
8
SK1
62
256
6
ByLayer
370
-1
48
1
60
0
100
AcDbLine
10
-0.15
20
12.25
30
0
11
-1.382165
21
12.25
31
0
39
0
210
0
220
0
230
1
0
LINE
5
57
100
AcDbEntity
8
SK1
62
256
6
ByLayer
370
-1
48
1
60
0
100
AcDbLine
10
-1.382165
20
-12.25
30
0
11
-0.15
21
-12.25
31
0
39
0
210
0
220
0
230
1
0
LINE
5
58
100
AcDbEntity
8
SK1
62
256
6
ByLayer
370
-1
48
1
60
0
100
AcDbLine
10
-54.6
20
-12.49675
30
0
11
-54.516223
21
-12.393294
31
0
39
0
210
0
220
0
230
1
0
LINE
5
59
100
AcDbEntity
8
SK1
62
256
6
ByLayer
370
-1
48
1
60
0
100
AcDbLine
10
-54.516223
20
12.393294
30
0
11
-54.6
21
12.49675
31
0
39
0
210
0
220
0
230
1
0
LINE
5
5A
100
AcDbEntity
8
SK1
62
256
6
ByLayer
370
-1
48
1
60
0
100
AcDbLine
10
-55
20
12.49675
30
0
11
-56
21
11.49675
31
0
39
0
210
0
220
0
230
1
0
LINE
5
5B
100
AcDbEntity
8
SK1
62
256
6
ByLayer
370
-1
48
1
60
0
100
AcDbLine
10
-56
20
-11.49675
30
0
11
-55
21
-12.49675
31
0
39
0
210
0
220
0
230
1
0
LINE
5
5C
100
AcDbEntity
8
SK1
62
256
6
ByLayer
370
-1
48
1
60
0
100
AcDbLine
10
-52.6
20
12.49675
30
0
11
-53.633814
21
12.140417
31
0
39
0
210
0
220
0
230
1
0
LINE
5
5D
100
AcDbEntity
8
SK1
62
256
6
ByLayer
370
-1
48
1
60
0
100
AcDbLine
10
-53.633814
20
-12.140417
30
0
11
-52.6
21
-12.49675
31
0
39
0
210
0
220
0
230
1
0
LINE
5
5E
100
AcDbEntity
8
SK1
62
256
6
ByLayer
370
-1
48
1
60
0
100
AcDbLine
10
-54.6
20
12.49675
30
0
11
-55
21
12.49675
31
0
39
0
210
0
220
0
230
1
0
LINE
5
5F
100
AcDbEntity
8
SK1
62
256
6
ByLayer
370
-1
48
1
60
0
100
AcDbLine
10
-55
20
-12.49675
30
0
11
-54.6
21
-12.49675
31
0
39
0
210
0
220
0
230
1
0
LINE
5
60
100
AcDbEntity
8
SK4
62
256
6
ByLayer
370
-1
48
0.05
60
0
100
AcDbLine
10
109
20
0
30
0
11
-56
21
0
31
0
39
0
210
0
220
0
230
1
0
LINE
5
62
100
AcDbEntity
8
4
62
256
6
ByLayer
370
-1
48
0.05
60
0
100
AcDbLine
10
109
20
0
30
0
11
0
21
0
31
0
39
0
210
0
220
0
230
1
0
LINE
5
64
100
AcDbEntity
8
1
62
256
6
ByLayer
370
-1
48
1
60
0
100
AcDbLine
10
108.194807
20
-4.33735
30
0
11
107.961165
21
0.107057
31
0
39
0
210
0
220
0
230
1
0
LINE
5
65
100
AcDbEntity
8
1
62
256
6
ByLayer
370
-1
48
1
60
0
100
AcDbLine
10
21
20
8.865
30
0
11
21
21
2.671123
31
0
39
0
210
0
220
0
230
1
0
LINE
5
66
100
AcDbEntity
8
1
62
256
6
ByLayer
370
-1
48
1
60
0
100
AcDbLine
10
108.188684
20
-4.406293
30
0
11
108.194807
21
-4.33735
31
0
39
0
210
0
220
0
230
1
0
LINE
5
67
100
AcDbEntity
8
1
62
256
6
ByLayer
370
-1
48
1
60
0
100
AcDbLine
10
108.195214
20
-8.691114
30
0
11
108.508607
21
-5.162125
31
0
39
0
210
0
220
0
230
1
0
LINE
5
68
100
AcDbEntity
8
1
62
256
6
ByLayer
370
-1
48
1
60
0
100
AcDbLine
10
102.289987
20
5.00745
30
0
11
102.499161
21
5.00745
31
0
39
0
210
0
220
0
230
1
0
LINE
5
69
100
AcDbEntity
8
1
62
256
6
ByLayer
370
-1
48
1
60
0
100
AcDbLine
10
102.382445
20
3.507023
30
0
11
102.084034
21
3.496562
31
0
39
0
210
0
220
0
230
1
0
LINE
5
6A
100
AcDbEntity
8
1
62
256
6
ByLayer
370
-1
48
1
60
0
100
AcDbLine
10
108.035117
20
0.624538
30
0
11
108.03721
21
0.632039
31
0
39
0
210
0
220
0
230
1
0
LINE
5
6B
100
AcDbEntity
8
1
62
256
6
ByLayer
370
-1
48
1
60
0
100
AcDbLine
10
101.205453
20
5.530605
30
0
11
101.205453
21
8.696994
31
0
39
0
210
0
220
0
230
1
0
LINE
5
6C
100
AcDbEntity
8
1
62
256
6
ByLayer
370
-1
48
1
60
0
100
AcDbLine
10
102.61216
20
5.932224
30
0
11
102.639484
21
5.932224
31
0
39
0
210
0
220
0
230
1
0
LINE
5
6D
100
AcDbEntity
8
1
62
256
6
ByLayer
370
-1
48
1
60
0
100
AcDbLine
10
107.626699
20
2.872392
30
0
11
107.776198
21
2.872392
31
0
39
0
210
0
220
0
230
1
0
LINE
5
6E
100
AcDbEntity
8
1
62
256
6
ByLayer
370
-1
48
1
60
0
100
AcDbLine
10
102.55123
20
8.699942
30
0
11
102.639484
21
5.932224
31
0
39
0
210
0
220
0
230
1
0
LINE
5
6F
100
AcDbEntity
8
1
62
256
6
ByLayer
370
-1
48
1
60
0
100
AcDbLine
10
108.030285
20
2.859028
30
0
11
107.821362
21
2.86185
31
0
39
0
210
0
220
0
230
1
0
LINE
5
70
100
AcDbEntity
8
1
62
256
6
ByLayer
370
-1
48
1
60
0
100
AcDbLine
10
102.499161
20
5.00745
30
0
11
102.540012
21
3.833165
31
0
39
0
210
0
220
0
230
1
0
LINE
5
71
100
AcDbEntity
8
1
62
256
6
ByLayer
370
-1
48
1
60
0
100
AcDbLine
10
0.2
20
16
30
0
11
0.2
21
-16
31
0
39
0
210
0
220
0
230
1
0
LINE
5
72
100
AcDbEntity
8
1
62
256
6
ByLayer
370
-1
48
1
60
0
100
AcDbLine
10
5
20
16
30
0
11
5
21
-16
31
0
39
0
210
0
220
0
230
1
0
LINE
5
73
100
AcDbEntity
8
1
62
256
6
ByLayer
370
-1
48
1
60
0
100
AcDbLine
10
62.5
20
8.318423
30
0
11
62.5
21
-5.094642
31
0
39
0
210
0
220
0
230
1
0
LINE
5
74
100
AcDbEntity
8
1
62
256
6
ByLayer
370
-1
48
1
60
0
100
AcDbLine
10
107.821362
20
2.86185
30
0
11
107.626699
21
2.872392
31
0
39
0
210
0
220
0
230
1
0
LINE
5
75
100
AcDbEntity
8
1
62
256
6
ByLayer
370
-1
48
1
60
0
100
AcDbLine
10
108.03721
20
0.632039
30
0
11
108.140044
21
3.057223
31
0
39
0
210
0
220
0
230
1
0
LINE
5
76
100
AcDbEntity
8
1
62
256
6
ByLayer
370
-1
48
1
60
0
100
AcDbLine
10
98.933082
20
1.961865
30
0
11
98.753686
21
1.344704
31
0
39
0
210
0
220
0
230
1
0
LINE
5
77
100
AcDbEntity
8
1
62
256
6
ByLayer
370
-1
48
1
60
0
100
AcDbLine
10
102.289987
20
5.00745
30
0
11
102.330838
21
3.833165
31
0
39
0
210
0
220
0
230
1
0
LINE
5
78
100
AcDbEntity
8
1
62
256
6
ByLayer
370
-1
48
1
60
0
100
AcDbLine
10
107.957091
20
0.201813
30
0
11
107.2217
21
0.63395
31
0
39
0
210
0
220
0
230
1
0
LINE
5
79
100
AcDbEntity
8
1
62
256
6
ByLayer
370
-1
48
1
60
0
100
AcDbLine
10
96.509818
20
5.03
30
0
11
98.716033
21
5.03
31
0
39
0
210
0
220
0
230
1
0
LINE
5
7A
100
AcDbEntity
8
1
62
256
6
ByLayer
370
-1
48
1
60
0
100
AcDbLine
10
21
20
-8.865
30
0
11
21
21
-8.581276
31
0
39
0
210
0
220
0
230
1
0
LINE
5
7B
100
AcDbEntity
8
1
62
256
6
ByLayer
370
-1
48
1
60
0
100
AcDbLine
10
104.296602
20
2.755658
30
0
11
107.626699
21
2.872392
31
0
39
0
210
0
220
0
230
1
0
LINE
5
7C
100
AcDbEntity
8
1
62
256
6
ByLayer
370
-1
48
1
60
0
100
AcDbLine
10
107.192151
20
1.150576
30
0
11
107.821362
21
2.86185
31
0
39
0
210
0
220
0
230
1
0
LINE
5
7D
100
AcDbEntity
8
1
62
256
6
ByLayer
370
-1
48
1
60
0
100
AcDbLine
10
102.61216
20
5.932224
30
0
11
102.524121
21
8.693195
31
0
39
0
210
0
220
0
230
1
0
LINE
5
7E
100
AcDbEntity
8
1
62
256
6
ByLayer
370
-1
48
1
60
0
100
AcDbLine
10
102.699804
20
5.97813
30
0
11
102.811659
21
5.97813
31
0
39
0
210
0
220
0
230
1
0
LINE
5
7F
100
AcDbEntity
8
1
62
256
6
ByLayer
370
-1
48
1
60
0
100
AcDbLine
10
108.508607
20
-5.162125
30
0
11
108.205941
21
-5.083645
31
0
39
0
210
0
220
0
230
1
0
LINE
5
80
100
AcDbEntity
8
1
62
256
6
ByLayer
370
-1
48
1
60
0
100
AcDbLine
10
102.067231
20
-8.691114
30
0
11
108.195214
21
-8.691114
31
0
39
0
210
0
220
0
230
1
0
LINE
5
81
100
AcDbEntity
8
1
62
256
6
ByLayer
370
-1
48
1
60
0
100
AcDbLine
10
16
20
8.865
30
0
11
16
21
3.722512
31
0
39
0
210
0
220
0
230
1
0
LINE
5
82
100
AcDbEntity
8
1
62
256
6
ByLayer
370
-1
48
1
60
0
100
AcDbLine
10
102.860277
20
2.727317
30
0
11
102.051855
21
2.698978
31
0
39
0
210
0
220
0
230
1
0
LINE
5
83
100
AcDbEntity
8
1
62
256
6
ByLayer
370
-1
48
1
60
0
100
AcDbLine
10
102.860277
20
2.727317
30
0
11
102.905565
21
2.727317
31
0
39
0
210
0
220
0
230
1
0
LINE
5
84
100
AcDbEntity
8
1
62
256
6
ByLayer
370
-1
48
1
60
0
100
AcDbLine
10
101.181605
20
5.530903
30
0
11
98.578709
21
5.891173
31
0
39
0
210
0
220
0
230
1
0
LINE
5
85
100
AcDbEntity
8
1
62
256
6
ByLayer
370
-1
48
1
60
0
100
AcDbLine
10
16
20
-8.865
30
0
11
16
21
-8.280082
31
0
39
0
210
0
220
0
230
1
0
LINE
5
86
100
AcDbEntity
8
1
62
256
6
ByLayer
370
-1
48
1
60
0
100
AcDbLine
10
107.999804
20
0.657151
30
0
11
108.03721
21
0.632039
31
0
39
0
210
0
220
0
230
1
0
LINE
5
87
100
AcDbEntity
8
1
62
256
6
ByLayer
370
-1
48
1
60
0
100
AcDbLine
10
101.502617
20
0.809486
30
0
11
101.827788
21
1.928142
31
0
39
0
210
0
220
0
230
1
0
LINE
5
88
100
AcDbEntity
8
1
62
256
6
ByLayer
370
-1
48
1
60
0
100
AcDbLine
10
102.016723
20
2.578116
30
0
11
102.051855
21
2.698978
31
0
39
0
210
0
220
0
230
1
0
LINE
5
89
100
AcDbEntity
8
1
62
256
6
ByLayer
370
-1
48
1
60
0
100
AcDbLine
10
107.98866
20
0.657539
30
0
11
107.999804
21
0.657151
31
0
39
0
210
0
220
0
230
1
0
LINE
5
8A
100
AcDbEntity
8
1
62
256
6
ByLayer
370
-1
48
1
60
0
100
AcDbLine
10
108.035117
20
0.624538
30
0
11
107.97314
21
0.626696
31
0
39
0
210
0
220
0
230
1
0
LINE
5
8B
100
AcDbEntity
8
1
62
256
6
ByLayer
370
-1
48
1
60
0
100
AcDbLine
10
107.776253
20
2.872392
30
0
11
108.030285
21
2.859028
31
0
39
0
210
0
220
0
230
1
0
LINE
5
8C
100
AcDbEntity
8
1
62
256
6
ByLayer
370
-1
48
1
60
0
100
AcDbLine
10
0
20
15.8
30
0
11
0
21
-15.8
31
0
39
0
210
0
220
0
230
1
0
LINE
5
8D
100
AcDbEntity
8
1
62
256
6
ByLayer
370
-1
48
1
60
0
100
AcDbLine
10
98.578709
20
8.693541
30
0
11
98.578709
21
5.891173
31
0
39
0
210
0
220
0
230
1
0
LINE
5
8E
100
AcDbEntity
8
1
62
256
6
ByLayer
370
-1
48
1
60
0
100
AcDbLine
10
108.194807
20
-4.33735
30
0
11
107.621194
21
-4.000278
31
0
39
0
210
0
220
0
230
1
0
LINE
5
8F
100
AcDbEntity
8
1
62
256
6
ByLayer
370
-1
48
1
60
0
100
AcDbLine
10
99.796265
20
3.942958
30
0
11
98.877541
21
4.353563
31
0
39
0
210
0
220
0
230
1
0
LINE
5
90
100
AcDbEntity
8
1
62
256
6
ByLayer
370
-1
48
1
60
0
100
AcDbLine
10
102.330838
20
3.833165
30
0
11
102.540012
21
3.833165
31
0
39
0
210
0
220
0
230
1
0
LINE
5
91
100
AcDbEntity
8
1
62
256
6
ByLayer
370
-1
48
1
60
0
100
AcDbLine
10
108.694347
20
8.64388
30
0
11
108.634492
21
8.63971
31
0
39
0
210
0
220
0
230
1
0
LINE
5
92
100
AcDbEntity
8
1
62
256
6
ByLayer
370
-1
48
1
60
0
100
AcDbLine
10
103.561946
20
2.897165
30
0
11
103.559953
21
2.956917
31
0
39
0
210
0
220
0
230
1
0
LINE
5
93
100
AcDbEntity
8
1
62
256
6
ByLayer
370
-1
48
1
60
0
100
AcDbLine
10
107.951638
20
9.054285
30
0
11
103.443963
21
8.896272
31
0
39
0
210
0
220
0
230
1
0
LINE
5
94
100
AcDbEntity
8
1
62
256
6
ByLayer
370
-1
48
1
60
0
100
AcDbLine
10
108.864958
20
3.451867
30
0
11
108.806484
21
3.465313
31
0
39
0
210
0
220
0
230
1
0
LINE
5
95
100
AcDbEntity
8
1
62
256
6
ByLayer
370
-1
48
1
60
0
100
AcDbLine
10
108.710158
20
8.344251
30
0
11
108.650195
21
8.342165
31
0
39
0
210
0
220
0
230
1
0
LINE
5
96
100
AcDbEntity
8
1
62
256
6
ByLayer
370
-1
48
1
60
0
100
AcDbLine
10
103.443963
20
8.896272
30
0
11
103.445586
21
8.836537
31
0
39
0
210
0
220
0
230
1
0
LINE
5
97
100
AcDbEntity
8
1
62
256
6
ByLayer
370
-1
48
1
60
0
100
AcDbLine
10
103.353374
20
8.892682
30
0
11
103.355538
21
8.832968
31
0
39
0
210
0
220
0
230
1
0
LINE
5
98
100
AcDbEntity
8
1
62
256
6
ByLayer
370
-1
48
1
60
0
100
AcDbLine
10
108.870322
20
3.728394
30
0
11
108.810341
21
3.726852
31
0
39
0
210
0
220
0
230
1
0
LINE
5
99
100
AcDbEntity
8
1
62
256
6
ByLayer
370
-1
48
1
60
0
100
AcDbLine
10
108.091058
20
9.058071
30
0
11
108.091556
21
8.998307
31
0
39
0
210
0
220
0
230
1
0
LINE
5
9A
100
AcDbEntity
8
1
62
256
6
ByLayer
370
-1
48
1
60
0
100
AcDbLine
10
102.894043
20
3.609961
30
0
11
102.953095
21
3.612047
31
0
39
0
210
0
220
0
230
1
0
LINE
5
9B
100
AcDbEntity
8
1
62
256
6
ByLayer
370
-1
48
1
60
0
100
AcDbLine
10
108.525257
20
3.08619
30
0
11
108.507392
21
3.14335
31
0
39
0
210
0
220
0
230
1
0
LINE
5
9C
100
AcDbEntity
8
1
62
256
6
ByLayer
370
-1
48
1
60
0
100
AcDbLine
10
102.739243
20
8.502345
30
0
11
102.796805
21
8.4889
31
0
39
0
210
0
220
0
230
1
0
LINE
5
9D
100
AcDbEntity
8
1
62
256
6
ByLayer
370
-1
48
1
60
0
100
AcDbLine
10
108.458726
20
3.073812
30
0
11
108.454117
21
3.133438
31
0
39
0
210
0
220
0
230
1
0
LINE
5
9E
100
AcDbEntity
8
1
62
256
6
ByLayer
370
-1
48
1
60
0
100
AcDbLine
10
108.86757
20
3.819358
30
0
11
108.807606
21
3.817272
31
0
39
0
210
0
220
0
230
1
0
LINE
5
9F
100
AcDbEntity
8
1
62
256
6
ByLayer
370
-1
48
1
60
0
100
AcDbLine
10
102.73388
20
8.225818
30
0
11
102.792948
21
8.22736
31
0
39
0
210
0
220
0
230
1
0
LINE
5
A0
100
AcDbEntity
8
1
62
256
6
ByLayer
370
-1
48
1
60
0
100
AcDbLine
10
108.704196
20
8.484127
30
0
11
108.644282
21
8.480913
31
0
39
0
210
0
220
0
230
1
0
LINE
5
A1
100
AcDbEntity
8
1
62
256
6
ByLayer
370
-1
48
1
60
0
100
AcDbLine
10
108.706582
20
8.435186
30
0
11
108.64664
21
8.432557
31
0
39
0
210
0
220
0
230
1
0
LINE
5
A2
100
AcDbEntity
8
1
62
256
6
ByLayer
370
-1
48
1
60
0
100
AcDbLine
10
108.872618
20
3.519352
30
0
11
108.812618
21
3.519352
31
0
39
0
210
0
220
0
230
1
0
LINE
5
A3
100
AcDbEntity
8
1
62
256
6
ByLayer
370
-1
48
1
60
0
100
AcDbLine
10
108.682016
20
8.710664
30
0
11
108.624618
21
8.693189
31
0
39
0
210
0
220
0
230
1
0
LINE
5
A4
100
AcDbEntity
8
1
62
256
6
ByLayer
370
-1
48
1
60
0
100
AcDbLine
10
108.160238
20
3.05794
30
0
11
108.157704
21
3.117675
31
0
39
0
210
0
220
0
230
1
0
LINE
5
A5
100
AcDbEntity
8
1
62
256
6
ByLayer
370
-1
48
1
60
0
100
AcDbLine
10
102.731583
20
8.43486
30
0
11
102.790672
21
8.43486
31
0
39
0
210
0
220
0
230
1
0
LINE
5
A6
100
AcDbEntity
8
1
62
256
6
ByLayer
370
-1
48
1
60
0
100
AcDbLine
10
103.078945
20
8.868022
30
0
11
103.095898
21
8.810862
31
0
39
0
210
0
220
0
230
1
0
LINE
5
A7
100
AcDbEntity
8
1
62
256
6
ByLayer
370
-1
48
1
60
0
100
AcDbLine
10
107.951638
20
9.054285
30
0
11
107.95326
21
8.99455
31
0
39
0
210
0
220
0
230
1
0
LINE
5
A8
100
AcDbEntity
8
1
62
256
6
ByLayer
370
-1
48
1
60
0
100
AcDbLine
10
102.736631
20
8.134854
30
0
11
102.894043
21
3.609961
31
0
39
0
210
0
220
0
230
1
0
LINE
5
A9
100
AcDbEntity
8
1
62
256
6
ByLayer
370
-1
48
1
60
0
100
AcDbLine
10
108.299582
20
3.063925
30
0
11
108.295924
21
3.12361
31
0
39
0
210
0
220
0
230
1
0
LINE
5
AA
100
AcDbEntity
8
1
62
256
6
ByLayer
370
-1
48
1
60
0
100
AcDbLine
10
103.652564
20
2.899927
30
0
11
103.65003
21
2.959662
31
0
39
0
210
0
220
0
230
1
0
LINE
5
AB
100
AcDbEntity
8
1
62
256
6
ByLayer
370
-1
48
1
60
0
100
AcDbLine
10
102.922185
20
3.243548
30
0
11
102.978672
21
3.261023
31
0
39
0
210
0
220
0
230
1
0
LINE
5
AC
100
AcDbEntity
8
1
62
256
6
ByLayer
370
-1
48
1
60
0
100
AcDbLine
10
108.317731
20
9.051663
30
0
11
108.30388
21
8.993424
31
0
39
0
210
0
220
0
230
1
0
LINE
5
AD
100
AcDbEntity
8
1
62
256
6
ByLayer
370
-1
48
1
60
0
100
AcDbLine
10
102.900005
20
3.470085
30
0
11
102.959008
21
3.473299
31
0
39
0
210
0
220
0
230
1
0
LINE
5
AE
100
AcDbEntity
8
1
62
256
6
ByLayer
370
-1
48
1
60
0
100
AcDbLine
10
108.871342
20
3.679405
30
0
11
108.81135
21
3.678448
31
0
39
0
210
0
220
0
230
1
0
LINE
5
AF
100
AcDbEntity
8
1
62
256
6
ByLayer
370
-1
48
1
60
0
100
AcDbLine
10
102.736631
20
8.134854
30
0
11
102.795684
21
8.13694
31
0
39
0
210
0
220
0
230
1
0
LINE
5
B0
100
AcDbEntity
8
1
62
256
6
ByLayer
370
-1
48
1
60
0
100
AcDbLine
10
103.286471
20
2.902549
30
0
11
103.29941
21
2.960788
31
0
39
0
210
0
220
0
230
1
0
LINE
5
B1
100
AcDbEntity
8
1
62
256
6
ByLayer
370
-1
48
1
60
0
100
AcDbLine
10
103.145475
20
8.8804
30
0
11
103.149173
21
8.820774
31
0
39
0
210
0
220
0
230
1
0
LINE
5
B2
100
AcDbEntity
8
1
62
256
6
ByLayer
370
-1
48
1
60
0
100
AcDbLine
10
102.732859
20
8.274807
30
0
11
102.79194
21
8.275764
31
0
39
0
210
0
220
0
230
1
0
LINE
5
B3
100
AcDbEntity
8
1
62
256
6
ByLayer
370
-1
48
1
60
0
100
AcDbLine
10
103.353699
20
2.89486
30
0
11
103.353243
21
2.954631
31
0
39
0
210
0
220
0
230
1
0
LINE
5
B4
100
AcDbEntity
8
1
62
256
6
ByLayer
370
-1
48
1
60
0
100
AcDbLine
10
102.909855
20
3.310332
30
0
11
102.968798
21
3.314502
31
0
39
0
210
0
220
0
230
1
0
LINE
5
B5
100
AcDbEntity
8
1
62
256
6
ByLayer
370
-1
48
1
60
0
100
AcDbLine
10
102.897619
20
3.519026
30
0
11
102.95665
21
3.521655
31
0
39
0
210
0
220
0
230
1
0
LINE
5
B6
100
AcDbEntity
8
1
62
256
6
ByLayer
370
-1
48
1
60
0
100
AcDbLine
10
108.250502
20
9.059352
30
0
11
108.250046
21
8.999581
31
0
39
0
210
0
220
0
230
1
0
LINE
5
B7
100
AcDbEntity
8
1
62
256
6
ByLayer
370
-1
48
1
60
0
100
AcDbLine
10
103.652564
20
2.899927
30
0
11
108.160238
21
3.05794
31
0
39
0
210
0
220
0
230
1
0
LINE
5
B8
100
AcDbEntity
8
1
62
256
6
ByLayer
370
-1
48
1
60
0
100
AcDbLine
10
108.86757
20
3.819358
30
0
11
108.710158
21
8.344251
31
0
39
0
210
0
220
0
230
1
0
LINE
5
B9
100
AcDbEntity
8
1
62
256
6
ByLayer
370
-1
48
1
60
0
100
AcDbLine
10
108.250827
20
3.06153
30
0
11
108.247752
21
3.121244
31
0
39
0
210
0
220
0
230
1
0
LINE
5
BA
100
AcDbEntity
8
1
62
256
6
ByLayer
370
-1
48
1
60
0
100
AcDbLine
10
108.042256
20
9.057047
30
0
11
108.043336
21
8.997295
31
0
39
0
210
0
220
0
230
1
0
LINE
5
BB
100
AcDbEntity
8
1
62
256
6
ByLayer
370
-1
48
1
60
0
100
AcDbLine
10
103.304619
20
8.890287
30
0
11
103.307366
21
8.830602
31
0
39
0
210
0
220
0
230
1
0
LINE
5
BC
100
AcDbEntity
8
1
62
256
6
ByLayer
370
-1
48
1
60
0
100
AcDbLine
10
103.513143
20
2.896141
30
0
11
103.511734
21
2.955905
31
0
39
0
210
0
220
0
230
1
0
LINE
5
BD
100
AcDbEntity
8
1
62
256
6
ByLayer
370
-1
48
1
60
0
100
AcDbLine
10
108.714937
20
-2.053957
30
0
11
108.638765
21
-0.604985
31
0
39
0
210
0
220
0
230
1
0
LINE
5
BE
100
AcDbEntity
8
1
62
256
6
ByLayer
370
-1
48
1
60
0
100
AcDbLine
10
108.72268
20
-2.741311
30
0
11
108.404767
21
-2.812717
31
0
39
0
210
0
220
0
230
1
0
LINE
5
BF
100
AcDbEntity
8
1
62
256
6
ByLayer
370
-1
48
1
60
0
100
AcDbLine
10
108.174995
20
-4.976263
30
0
11
108.632621
21
-4.810215
31
0
39
0
210
0
220
0
230
1
0
LINE
5
C0
100
AcDbEntity
8
1
62
256
6
ByLayer
370
-1
48
1
60
0
100
AcDbLine
10
108.168244
20
-3.832088
30
0
11
108.181081
21
-3.82066
31
0
39
0
210
0
220
0
230
1
0
LINE
5
C1
100
AcDbEntity
8
1
62
256
6
ByLayer
370
-1
48
1
60
0
100
AcDbLine
10
108.609296
20
-0.46059
30
0
11
108.309935
21
0.359364
31
0
39
0
210
0
220
0
230
1
0
LINE
5
C2
100
AcDbEntity
8
1
62
256
6
ByLayer
370
-1
48
1
60
0
100
AcDbLine
10
108.175362
20
-1.886
30
0
11
108.075499
21
-1.891218
31
0
39
0
210
0
220
0
230
1
0
LINE
5
C3
100
AcDbEntity
8
1
62
256
6
ByLayer
370
-1
48
1
60
0
100
AcDbLine
10
108.329983
20
-0.016327
30
0
11
108.260631
21
0.336149
31
0
39
0
210
0
220
0
230
1
0
LINE
5
C4
100
AcDbEntity
8
1
62
256
6
ByLayer
370
-1
48
1
60
0
100
AcDbLine
10
108.075499
20
-1.891218
30
0
11
108.008039
21
-0.607989
31
0
39
0
210
0
220
0
230
1
0
LINE
5
C5
100
AcDbEntity
8
1
62
256
6
ByLayer
370
-1
48
1
60
0
100
AcDbLine
10
108.808393
20
-3.166518
30
0
11
108.458606
21
-3.079805
31
0
39
0
210
0
220
0
230
1
0
LINE
5
C6
100
AcDbEntity
8
1
62
256
6
ByLayer
370
-1
48
1
60
0
100
AcDbLine
10
108.175362
20
-1.886
30
0
11
108.107902
21
-0.602772
31
0
39
0
210
0
220
0
230
1
0
LINE
5
C7
100
AcDbEntity
8
1
62
256
6
ByLayer
370
-1
48
1
60
0
100
AcDbLine
10
107.998778
20
-0.608456
30
0
11
108.008039
21
-0.607989
31
0
39
0
210
0
220
0
230
1
0
LINE
5
C8
100
AcDbEntity
8
1
62
256
6
ByLayer
370
-1
48
1
60
0
100
AcDbLine
10
108.638765
20
-0.604985
30
0
11
108.455213
21
-0.523837
31
0
39
0
210
0
220
0
230
1
0
LINE
5
C9
100
AcDbEntity
8
1
62
256
6
ByLayer
370
-1
48
1
60
0
100
AcDbLine
10
108.066237
20
-1.891685
30
0
11
108.075499
21
-1.891218
31
0
39
0
210
0
220
0
230
1
0
LINE
5
CA
100
AcDbEntity
8
1
62
256
6
ByLayer
370
-1
48
1
60
0
100
AcDbLine
10
108.309935
20
0.359364
30
0
11
108.260631
21
0.336149
31
0
39
0
210
0
220
0
230
1
0
LINE
5
CB
100
AcDbEntity
8
1
62
256
6
ByLayer
370
-1
48
1
60
0
100
AcDbLine
10
108.169577
20
-4.739888
30
0
11
108.56476
21
-4.716628
31
0
39
0
210
0
220
0
230
1
0
LINE
5
CC
100
AcDbEntity
8
1
62
256
6
ByLayer
370
-1
48
1
60
0
100
AcDbLine
10
108.794515
20
-3.562707
30
0
11
108.444728
21
-3.475993
31
0
39
0
210
0
220
0
230
1
0
LINE
5
CD
100
AcDbEntity
8
1
62
256
6
ByLayer
370
-1
48
1
60
0
100
AcDbLine
10
108.794515
20
-3.562707
30
0
11
108.808393
21
-3.166518
31
0
39
0
210
0
220
0
230
1
0
LINE
5
CE
100
AcDbEntity
8
1
62
256
6
ByLayer
370
-1
48
1
60
0
100
AcDbLine
10
108.329983
20
-0.016327
30
0
11
107.978819
21
-0.228713
31
0
39
0
210
0
220
0
230
1
0
LINE
5
CF
100
AcDbEntity
8
1
62
256
6
ByLayer
370
-1
48
1
60
0
100
AcDbLine
10
108.524882
20
-1.942275
30
0
11
108.457423
21
-0.659047
31
0
39
0
210
0
220
0
230
1
0
LINE
5
D0
100
AcDbEntity
8
1
62
256
6
ByLayer
370
-1
48
1
60
0
100
AcDbLine
10
108.609296
20
-0.46059
30
0
11
108.431171
21
-0.38184
31
0
39
0
210
0
220
0
230
1
0
LINE
5
D1
100
AcDbEntity
8
1
62
256
6
ByLayer
370
-1
48
1
60
0
100
AcDbLine
10
108.632621
20
-4.810215
30
0
11
108.56476
21
-4.716628
31
0
39
0
210
0
220
0
230
1
0
LINE
5
D2
100
AcDbEntity
8
1
62
256
6
ByLayer
370
-1
48
1
60
0
100
AcDbLine
10
108.457423
20
-0.659047
30
0
11
108.107902
21
-0.602772
31
0
39
0
210
0
220
0
230
1
0
LINE
5
D3
100
AcDbEntity
8
1
62
256
6
ByLayer
370
-1
48
1
60
0
100
AcDbLine
10
108.714937
20
-2.053957
30
0
11
108.524882
21
-1.942275
31
0
39
0
210
0
220
0
230
1
0
LINE
5
D4
100
AcDbEntity
8
1
62
256
6
ByLayer
370
-1
48
1
60
0
100
AcDbLine
10
108.961306
20
-4.359213
30
0
11
108.854374
21
-4.211741
31
0
39
0
210
0
220
0
230
1
0
LINE
5
D5
100
AcDbEntity
8
1
62
256
6
ByLayer
370
-1
48
1
60
0
100
AcDbLine
10
108.344789
20
-3.472514
30
0
11
108.358667
21
-3.076326
31
0
39
0
210
0
220
0
230
1
0
LINE
5
D6
100
AcDbEntity
8
1
62
256
6
ByLayer
370
-1
48
1
60
0
100
AcDbLine
10
108.904268
20
-2.802189
30
0
11
108.732404
21
-2.761749
31
0
39
0
210
0
220
0
230
1
0
LINE
5
D7
100
AcDbEntity
8
1
62
256
6
ByLayer
370
-1
48
1
60
0
100
AcDbLine
10
108.999695
20
-3.263272
30
0
11
108.80976
21
-3.135217
31
0
39
0
210
0
220
0
230
1
0
LINE
5
D8
100
AcDbEntity
8
1
62
256
6
ByLayer
370
-1
48
1
60
0
100
AcDbLine
10
108.185567
20
-3.062454
30
0
11
108.171689
21
-3.458642
31
0
39
0
210
0
220
0
230
1
0
LINE
5
D9
100
AcDbEntity
8
1
62
256
6
ByLayer
370
-1
48
1
60
0
100
AcDbLine
10
108.174951
20
-3.959779
30
0
11
108.247692
21
-3.895015
31
0
39
0
210
0
220
0
230
1
0
LINE
5
DA
100
AcDbEntity
8
1
62
256
6
ByLayer
370
-1
48
1
60
0
100
AcDbLine
10
108.524882
20
-1.942275
30
0
11
108.175362
21
-1.886
31
0
39
0
210
0
220
0
230
1
0
LINE
5
DB
100
AcDbEntity
8
1
62
256
6
ByLayer
370
-1
48
1
60
0
100
AcDbLine
10
108.444728
20
-3.475993
30
0
11
108.458606
21
-3.079805
31
0
39
0
210
0
220
0
230
1
0
LINE
5
DC
100
AcDbEntity
8
1
62
256
6
ByLayer
370
-1
48
1
60
0
100
AcDbLine
10
108.16327
20
0.519298
30
0
11
107.95369
21
0.392542
31
0
39
0
210
0
220
0
230
1
0
LINE
5
DD
100
AcDbEntity
8
1
62
256
6
ByLayer
370
-1
48
1
60
0
100
AcDbLine
10
108.760868
20
-4.631921
30
0
11
108.247692
21
-3.895015
31
0
39
0
210
0
220
0
230
1
0
LINE
5
DE
100
AcDbEntity
8
1
62
256
6
ByLayer
370
-1
48
1
60
0
100
AcDbLine
10
108.961306
20
-4.359213
30
0
11
108.999695
21
-3.263272
31
0
39
0
210
0
220
0
230
1
0
LINE
5
DF
100
AcDbEntity
8
SK1
62
256
6
ByLayer
370
-1
48
1
60
0
100
AcDbLine
10
-0.15
20
12.25
30
0
11
-0.15
21
-12.25
31
0
39
0
210
0
220
0
230
1
0
LINE
5
E0
100
AcDbEntity
8
SK1
62
256
6
ByLayer
370
-1
48
1
60
0
100
AcDbLine
10
-55
20
6.998498
30
0
11
-54.6
21
6.998498
31
0
39
0
210
0
220
0
230
1
0
LINE
5
E1
100
AcDbEntity
8
SK1
62
256
6
ByLayer
370
-1
48
1
60
0
100
AcDbLine
10
-56
20
4.998547
30
0
11
-56
21
-4.998547
31
0
39
0
210
0
220
0
230
1
0
LINE
5
E2
100
AcDbEntity
8
SK1
62
256
6
ByLayer
370
-1
48
1
60
0
100
AcDbLine
10
-53.633814
20
-6.340342
30
0
11
-53.633814
21
-12.140417
31
0
39
0
210
0
220
0
230
1
0
LINE
5
E3
100
AcDbEntity
8
SK1
62
256
6
ByLayer
370
-1
48
1
60
0
100
AcDbLine
10
-53.633814
20
12.140417
30
0
11
-53.633814
21
6.340342
31
0
39
0
210
0
220
0
230
1
0
LINE
5
E4
100
AcDbEntity
8
SK1
62
256
6
ByLayer
370
-1
48
1
60
0
100
AcDbLine
10
-52.6
20
6.998498
30
0
11
-52.6
21
12.49675
31
0
39
0
210
0
220
0
230
1
0
LINE
5
E5
100
AcDbEntity
8
SK1
62
256
6
ByLayer
370
-1
48
1
60
0
100
AcDbLine
10
-52.6
20
-12.49675
30
0
11
-52.6
21
-6.998498
31
0
39
0
210
0
220
0
230
1
0
LINE
5
E6
100
AcDbEntity
8
SK1
62
256
6
ByLayer
370
-1
48
1
60
0
100
AcDbLine
10
-54.6
20
-12.49675
30
0
11
-54.6
21
-6.998498
31
0
39
0
210
0
220
0
230
1
0
LINE
5
E7
100
AcDbEntity
8
SK1
62
256
6
ByLayer
370
-1
48
1
60
0
100
AcDbLine
10
-54.6
20
6.998498
30
0
11
-54.6
21
12.49675
31
0
39
0
210
0
220
0
230
1
0
LINE
5
E8
100
AcDbEntity
8
SK1
62
256
6
ByLayer
370
-1
48
1
60
0
100
AcDbLine
10
-55
20
-6.998498
30
0
11
-55
21
-12.49675
31
0
39
0
210
0
220
0
230
1
0
LINE
5
E9
100
AcDbEntity
8
SK1
62
256
6
ByLayer
370
-1
48
1
60
0
100
AcDbLine
10
-55
20
12.49675
30
0
11
-55
21
6.998498
31
0
39
0
210
0
220
0
230
1
0
LINE
5
EA
100
AcDbEntity
8
SK1
62
256
6
ByLayer
370
-1
48
1
60
0
100
AcDbLine
10
-52.6
20
6.998498
30
0
11
-6.5
21
6.998498
31
0
39
0
210
0
220
0
230
1
0
LINE
5
EB
100
AcDbEntity
8
SK1
62
256
6
ByLayer
370
-1
48
1
60
0
100
AcDbLine
10
-1.551212
20
12.287477
30
0
11
-1.551212
21
-12.287477
31
0
39
0
210
0
220
0
230
1
0
LINE
5
EC
100
AcDbEntity
8
SK1
62
256
6
ByLayer
370
-1
48
1
60
0
100
AcDbLine
10
-56
20
-4.998547
30
0
11
-56
21
-11.49675
31
0
39
0
210
0
220
0
230
1
0
LINE
5
ED
100
AcDbEntity
8
SK1
62
256
6
ByLayer
370
-1
48
1
60
0
100
AcDbLine
10
-56
20
11.49675
30
0
11
-56
21
4.998547
31
0
39
0
210
0
220
0
230
1
0
LINE
5
EE
100
AcDbEntity
8
SK1
62
256
6
ByLayer
370
-1
48
1
60
0
100
AcDbLine
10
-54.6
20
-6.998498
30
0
11
-55
21
-6.998498
31
0
39
0
210
0
220
0
230
1
0
LINE
5
EF
100
AcDbEntity
8
SK1
62
256
6
ByLayer
370
-1
48
1
60
0
100
AcDbLine
10
-6.5
20
6.998498
30
0
11
-6.5
21
-6.998498
31
0
39
0
210
0
220
0
230
1
0
LINE
5
F0
100
AcDbEntity
8
SK1
62
256
6
ByLayer
370
-1
48
1
60
0
100
AcDbLine
10
-2
20
-12.49675
30
0
11
-2
21
12.49675
31
0
39
0
210
0
220
0
230
1
0
LINE
5
F1
100
AcDbEntity
8
SK1
62
256
6
ByLayer
370
-1
48
1
60
0
100
AcDbLine
10
-1.382165
20
12.25
30
0
11
-1.382165
21
-12.25
31
0
39
0
210
0
220
0
230
1
0
LINE
5
F2
100
AcDbEntity
8
SK1
62
256
6
ByLayer
370
-1
48
1
60
0
100
AcDbLine
10
-6.5
20
-6.998498
30
0
11
-52.6
21
-6.998498
31
0
39
0
210
0
220
0
230
1
0
LINE
5
F3
100
AcDbEntity
8
SK1
62
256
6
ByLayer
370
-1
48
1
60
0
100
AcDbLine
10
-54.516223
20
-6.812044
30
0
11
-54.516223
21
-12.393294
31
0
39
0
210
0
220
0
230
1
0
LINE
5
F4
100
AcDbEntity
8
SK1
62
256
6
ByLayer
370
-1
48
1
60
0
100
AcDbLine
10
-54.516223
20
12.393294
30
0
11
-54.516223
21
6.812044
31
0
39
0
210
0
220
0
230
1
0
MTEXT
5
21C
100
AcDbEntity
8
SK6
62
256
6
ByLayer
370
-1
48
1
60
0
100
AcDbMText
10
0.79375
20
-80.79375
30
0
210
0
220
0
230
1
1
\W00.723;\fsimplex.shx,bigfont.shx;880-D1800L25-05 
40
3.175
41
0
44
1.084337
50
0
71
7
72
5
7
DEFAULT
0
DIMENSION
5
24C
100
AcDbEntity
8
SK2
62
256
6
ByLayer
370
-3
48
1
60
0
100
AcDbDimension
2
DimnDraft3D1
10
109
20
-54.86955
30
0
11
26.5
21
-54.86955
31
0
70
32
71
5
72
1
41
1
210
0
220
0
230
1
3
Standard
100
AcDbAlignedDimension
13
-56
23
-14.0875
33
0
14
109
24
-10.5875
34
0
50
0
100
AcDbRotatedDimension
1001
ACAD
1000
DSTYLE
1002
{
1070
   279
1070
     0
1070
   172
1070
     1
1070
   173
1070
     1
1070
   340
1005
21D
1070
   271
1070
     1
1070
   272
1070
     2
1070
    77
1070
     1
1070
    73
1070
     0
1070
   171
1070
     3
1070
   274
1070
     4
1070
   177
1070
   150
1070
   176
1070
     9
1070
   178
1070
    43
1070
    78
1070
     8
1070
    48
1040
-0.005
1070
    41
1041
4.175
1070
   147
1041
2.25
1070
    42
1041
1.5875
1070
    44
1041
3.175
1070
   140
1041
4.5
1070
   343
1005
0
1070
   344
1005
0
1002
}
0
DIMENSION
5
256
100
AcDbEntity
8
SK2
62
256
6
ByLayer
370
-3
48
1
60
0
100
AcDbDimension
2
DimnDraft3D2
10
0
20
-42.9008
30
0
11
-28
21
-42.9008
31
0
70
32
71
5
72
1
41
1
210
0
220
0
230
1
3
Standard
100
AcDbAlignedDimension
13
-56
23
-14.0875
33
0
14
0
24
-17.5875
34
0
50
0
100
AcDbRotatedDimension
1001
ACAD
1000
DSTYLE
1002
{
1070
   279
1070
     0
1070
   172
1070
     1
1070
   173
1070
     1
1070
   340
1005
21D
1070
   271
1070
     1
1070
   272
1070
     2
1070
    77
1070
     1
1070
    73
1070
     0
1070
   171
1070
     3
1070
   274
1070
     4
1070
   177
1070
   150
1070
   176
1070
     9
1070
   178
1070
    43
1070
    78
1070
     8
1070
    48
1040
-0.005
1070
    41
1041
4.175
1070
   147
1041
2.25
1070
    42
1041
1.5875
1070
    44
1041
3.175
1070
   140
1041
4.5
1070
   343
1005
0
1070
   344
1005
0
1002
}
0
DIMENSION
5
261
100
AcDbEntity
8
2
62
256
6
ByLayer
370
-3
48
1
60
0
100
AcDbDimension
2
DimnDraft3D3
10
109
20
-42.9008
30
0
11
54.5
21
-42.9008
31
0
70
32
71
5
72
1
41
1
210
0
220
0
230
1
3
Standard
100
AcDbAlignedDimension
13
0
23
-17.5875
33
0
14
109
24
-10.5875
34
0
50
0
100
AcDbRotatedDimension
1001
ACAD
1000
DSTYLE
1002
{
1070
   279
1070
     0
1070
   172
1070
     1
1070
   173
1070
     1
1070
   340
1005
21D
1070
   271
1070
     1
1070
   272
1070
     2
1070
    77
1070
     1
1070
    73
1070
     0
1070
   171
1070
     3
1070
   274
1070
     4
1070
   177
1070
   150
1070
   176
1070
     9
1070
   178
1070
    43
1070
    78
1070
     8
1070
    48
1040
-0.005
1070
    41
1041
4.175
1070
   147
1041
2.25
1070
    42
1041
1.5875
1070
    44
1041
3.175
1070
   140
1041
4.5
1070
   343
1005
0
1070
   344
1005
0
1002
}
0
DIMENSION
5
26B
100
AcDbEntity
8
SK2
62
256
6
ByLayer
370
-3
48
1
60
0
100
AcDbDimension
2
DimnDraft3D4
10
109
20
-32.9008
30
0
11
62.5
21
-32.9008
31
0
70
32
71
5
72
1
41
1
210
0
220
0
230
1
3
Standard
100
AcDbAlignedDimension
13
16
23
-11.5875
33
0
14
109
24
-10.5875
34
0
50
0
100
AcDbRotatedDimension
1001
ACAD
1000
DSTYLE
1002
{
1070
   279
1070
     0
1070
   172
1070
     1
1070
   173
1070
     1
1070
   340
1005
21D
1070
   271
1070
     1
1070
   272
1070
     2
1070
    77
1070
     1
1070
    73
1070
     0
1070
   171
1070
     3
1070
   274
1070
     4
1070
   177
1070
   150
1070
   176
1070
     9
1070
   178
1070
    43
1070
    78
1070
     8
1070
    48
1040
-0.005
1070
    41
1041
4.175
1070
   147
1041
2.25
1070
    42
1041
1.5875
1070
    44
1041
3.175
1070
   140
1041
4.5
1070
   343
1005
0
1070
   344
1005
0
1002
}
0
DIMENSION
5
276
100
AcDbEntity
8
SK2
62
256
6
ByLayer
370
-3
48
1
60
0
100
AcDbDimension
2
DimnDraft3D5
10
-67.9
20
-12.5
30
0
11
-68.1
21
4.121053
31
0
70
33
71
5
72
1
41
1
210
0
220
0
230
1
3
Standard
100
AcDbAlignedDimension
13
-57.5875
23
12.5
33
0
14
-57.5875
24
-12.5
34
0
1001
ACAD
1000
DSTYLE
1002
{
1070
   279
1070
     0
1070
    74
1070
     0
1070
   173
1070
     1
1070
   340
1005
21D
1070
   271
1070
     2
1070
   272
1070
     2
1070
    77
1070
     1
1070
    73
1070
     0
1070
   171
1070
     3
1070
   274
1070
     4
1070
   177
1070
   150
1070
   176
1070
     9
1070
   178
1070
    43
1070
    78
1070
     8
1070
    48
1040
-0.005
1070
    41
1041
4.175
1070
   147
1041
2.25
1070
    42
1041
1.5875
1070
    44
1041
3.175
1070
   140
1041
4.5
1070
   343
1005
0
1070
   344
1005
0
1002
}
0
DIMENSION
5
281
100
AcDbEntity
8
SK2
62
256
6
ByLayer
370
-3
48
1
60
0
100
AcDbDimension
2
DimnDraft3D6
10
-77.9
20
16
30
0
11
-78.1
21
4.121053
31
0
70
33
71
5
72
1
41
1
210
0
220
0
230
1
3
Standard
100
AcDbAlignedDimension
13
-1.5875
23
-16
33
0
14
-1.5875
24
16
34
0
1001
ACAD
1000
DSTYLE
1002
{
1070
   279
1070
     0
1070
    74
1070
     0
1070
   173
1070
     1
1070
   340
1005
21D
1070
   271
1070
     1
1070
   272
1070
     2
1070
    77
1070
     1
1070
    73
1070
     0
1070
   171
1070
     3
1070
   274
1070
     4
1070
   177
1070
   150
1070
   176
1070
     9
1070
   178
1070
    43
1070
    78
1070
     8
1070
    48
1040
-0.005
1070
    41
1041
4.175
1070
   147
1041
2.25
1070
    42
1041
1.5875
1070
    44
1041
3.175
1070
   140
1041
4.5
1070
   343
1005
0
1070
   344
1005
0
1002
}
0
DIMENSION
5
28C
100
AcDbEntity
8
2
62
256
6
ByLayer
370
-3
48
1
60
0
100
AcDbDimension
2
DimnDraft3D7
10
139.15
20
-9
30
0
11
132.6
21
-25.245395
31
0
70
33
71
5
72
1
41
1
210
0
220
0
230
1
3
Standard
100
AcDbAlignedDimension
13
110.5875
23
9
33
0
14
110.5875
24
-9
34
0
1001
ACAD
1000
DSTYLE
1002
{
1070
   279
1070
     0
1070
    74
1070
     0
1070
   173
1070
     1
1070
   340
1005
21D
1070
   271
1070
     2
1070
   272
1070
     2
1070
    77
1070
     1
1070
    73
1070
     0
1070
   171
1070
     3
1070
   274
1070
     4
1070
   177
1070
   150
1070
   176
1070
     9
1070
   178
1070
    43
1070
    78
1070
     8
1070
    48
1040
-0.005
1070
    41
1041
4.175
1070
   147
1041
2.25
1070
    42
1041
1.5875
1070
    44
1041
3.175
1070
   140
1041
4.5
1070
   343
1005
0
1070
   344
1005
0
1002
}
0
ENDSEC
0
SECTION
2
OBJECTS
0
DICTIONARY
5
2bd
330
0
100
AcDbDictionary
280
0
281
1
3
ACAD_GROUP
350
2be
3
ACAD_MLINESTYLE
350
2bf
0
DICTIONARY
5
2be
330
0
100
AcDbDictionary
280
0
281
1
0
DICTIONARY
5
2bf
330
0
100
AcDbDictionary
280
0
281
1
3
Standard
350
18
0
MLINESTYLE
5
18
330
2bf
100
AcDbMlineStyle
2
Standard
70
0
3

62
256
51
90
52
90
71
2
49
-0.5
62
256
6
ByLayer
49
0.5
62
256
6
ByLayer
0
RASTERVARIABLES
5
2ab
330

100
AcDbRasterVariables
90
0
70
1
71
1
72
1
0
ENDSEC
0
EOF
