0
SECTION
2
HEADER
9
$ACADVER
1
AC1015
9
$DWGCODEPAGE
3
ANSI_1252
9
$HANDSEED
5
2c1
9
$ANGBASE
50
0
9
$ANGDIR
70
0
9
$ATTMODE
70
1
9
$AUNITS
70
0
9
$AUPREC
70
0
9
$CECOLOR
62
256
9
$CELTSCALE
40
1
9
$CELTYPE
6
ByLayer
9
$CELWEIGHT
370
-1
9
$CLAYER
8
0
9
$CMLJUST
70
0
9
$CMLSCALE
40
1
9
$CMLSTYLE
2
Standard
9
$DIMSTYLE
2
Standard
9
$TEXTSIZE
40
0.2
9
$TEXTSTYLE
7
Standard
9
$LUNITS
70
2
9
$LUPREC
70
4
9
$EXTNAMES
290
1
9
$INSUNITS
70
4
9
$LTSCALE
40
1
9
$LWDISPLAY
290
0
9
$PDMODE
70
0
9
$PDSIZE
40
0
9
$PLINEGEN
70
0
0
ENDSEC
0
SECTION
2
CLASSES
0
CLASS
1
RASTERVARIABLES
2
AcDbRasterVariables
3
ISM
90
0
280
0
281
0
0
ENDSEC
0
SECTION
2
TABLES
0
TABLE
2
VPORT
5
2b7
100
AcDbSymbolTable
0
VPORT
5
1
100
AcDbSymbolTableRecord
100
AcDbViewportTableRecord
2
*Active
70
0
10
0
20
0
11
1
21
1
12
-1
22
1
13
0
23
0
14
0.5
24
0.5
15
10
25
10
16
0
26
0
36
1
17
0
27
0
37
0
0
ENDTAB
0
TABLE
2
LTYPE
5
2b8
100
AcDbSymbolTable
0
LTYPE
5
14
100
AcDbSymbolTableRecord
100
AcDbLinetypeTableRecord
70
0
2
ByBlock
3

72
65
73
0
40
0
0
LTYPE
5
15
100
AcDbSymbolTableRecord
100
AcDbLinetypeTableRecord
70
0
2
ByLayer
3

72
65
73
0
40
0
0
LTYPE
5
16
100
AcDbSymbolTableRecord
100
AcDbLinetypeTableRecord
70
0
2
CONTINUOUS
3
Solid line
72
65
73
0
40
0
0
LTYPE
5
3B
100
AcDbSymbolTableRecord
100
AcDbLinetypeTableRecord
70
0
2
DASHED
3
__ __ __ __ __ __ __ __ __
72
65
73
2
40
25.72
49
12.86
74
0
49
-12.86
74
0
0
LTYPE
5
3C
100
AcDbSymbolTableRecord
100
AcDbLinetypeTableRecord
70
0
2
HIDDEN
3
_ _ _ _ _ _ _ _ _ _ _ _ _ _ _
72
65
73
2
40
0.5
49
0.25
74
0
49
-0.25
74
0
0
LTYPE
5
3D
100
AcDbSymbolTableRecord
100
AcDbLinetypeTableRecord
70
0
2
PHANTOM
3
____ _ _ ____ _ _ _____ _ _ ____
72
65
73
6
40
50.5
49
18
74
0
49
-6.5
74
0
49
6.5
74
0
49
-6.5
74
0
49
6.5
74
0
49
-6.5
74
0
0
LTYPE
5
3E
100
AcDbSymbolTableRecord
100
AcDbLinetypeTableRecord
70
0
2
CENTER
3
____ _ ____ _ ____ _ ____
72
65
73
4
40
47.5
49
22
74
0
49
-8.5
74
0
49
8.5
74
0
49
-8.5
74
0
0
LTYPE
5
3F
100
AcDbSymbolTableRecord
100
AcDbLinetypeTableRecord
70
0
2
DOT
3
.........................
72
65
73
2
40
10
49
0
74
0
49
-10
74
0
0
LTYPE
5
40
100
AcDbSymbolTableRecord
100
AcDbLinetypeTableRecord
70
0
2
DASHDOT
3
_._._._._._._._._._._._._._._._.
72
65
73
4
40
70
49
31
74
0
49
-13
74
0
49
13
74
0
49
-13
74
0
0
ENDTAB
0
TABLE
2
LAYER
5
2b9
100
AcDbSymbolTable
0
LAYER
5
10
100
AcDbSymbolTableRecord
100
AcDbLayerTableRecord
2
0
70
0
62
7
6
CONTINUOUS
290
1
370
-3
390
0
0
LAYER
5
42
100
AcDbSymbolTableRecord
100
AcDbLayerTableRecord
2
81
70
0
62
-3
6
CONTINUOUS
290
1
370
-3
390
0
0
LAYER
5
44
100
AcDbSymbolTableRecord
100
AcDbLayerTableRecord
2
80
70
0
62
-6
6
CONTINUOUS
290
1
370
-3
390
0
0
LAYER
5
48
100
AcDbSymbolTableRecord
100
AcDbLayerTableRecord
2
1
70
0
62
4
6
CONTINUOUS
290
1
370
-3
390
0
0
LAYER
5
61
100
AcDbSymbolTableRecord
100
AcDbLayerTableRecord
2
4
70
0
62
-2
6
CENTER
290
1
370
-3
390
0
0
LAYER
5
250
100
AcDbSymbolTableRecord
100
AcDbLayerTableRecord
2
2
70
0
62
7
6
CONTINUOUS
290
1
370
-3
390
0
0
LAYER
5
2a3
100
AcDbSymbolTableRecord
100
AcDbLayerTableRecord
2
SK1
70
0
62
4
6
CONTINUOUS
290
1
370
-3
390
0
0
LAYER
5
2a4
100
AcDbSymbolTableRecord
100
AcDbLayerTableRecord
2
SK4
70
0
62
2
6
CENTER
290
1
370
-3
390
0
0
LAYER
5
2a5
100
AcDbSymbolTableRecord
100
AcDbLayerTableRecord
2
SK6
70
0
62
5
6
CONTINUOUS
290
1
370
-3
390
0
0
LAYER
5
2a6
100
AcDbSymbolTableRecord
100
AcDbLayerTableRecord
2
SK2
70
0
62
7
6
CONTINUOUS
290
1
370
-3
390
0
0
ENDTAB
0
TABLE
2
STYLE
5
2ba
100
AcDbSymbolTable
0
STYLE
5
11
100
AcDbSymbolTableRecord
100
AcDbTextStyleTableRecord
2
Standard
3
txt
70
0
71
0
40
0
41
1
42
0
50
0
0
STYLE
5
214
100
AcDbSymbolTableRecord
100
AcDbTextStyleTableRecord
2
DEFAULT
3
simplex.shx
70
0
71
0
40
0
41
1
42
0
50
0
0
STYLE
5
237
100
AcDbSymbolTableRecord
100
AcDbTextStyleTableRecord
2
DWGDirectTextStyle
3
SIMPLEX
70
0
71
0
40
0
41
1
42
0
50
0
0
ENDTAB
0
TABLE
2
DIMSTYLE
5
2bb
100
AcDbSymbolTable
100
AcDbDimStyleTable
0
DIMSTYLE
105
27
100
AcDbSymbolTableRecord
100
AcDbDimStyleTableRecord
2
Standard
70
0
3
<>
41
0.18
42
0.0625
44
0.18
140
0.18
147
0.09
73
0
74
0
77
1
271
2
275
0
278
52
280
0
340
11
0
ENDTAB
0
TABLE
2
VIEW
5
2bc
100
AcDbSymbolTable
0
ENDTAB
0
TABLE
2
UCS
5
2bd
100
AcDbSymbolTable
0
ENDTAB
0
TABLE
2
APPID
5
2be
100
AcDbSymbolTable
0
APPID
5
12
100
AcDbSymbolTableRecord
100
AcDbRegAppTableRecord
2
ACAD
70
0
0
ENDTAB
0
TABLE
2
BLOCK_RECORD
5
2bf
100
AcDbSymbolTable
0
BLOCK_RECORD
5
1F
100
AcDbSymbolTableRecord
100
AcDbBlockTableRecord
2
*Model_Space
340
0
70
0
0
BLOCK_RECORD
5
1B
100
AcDbSymbolTableRecord
100
AcDbBlockTableRecord
2
*Paper_Space
340
0
70
0
0
BLOCK_RECORD
5
23
100
AcDbSymbolTableRecord
100
AcDbBlockTableRecord
2
*Paper_Space0
340
0
70
0
0
BLOCK_RECORD
5
239
100
AcDbSymbolTableRecord
100
AcDbBlockTableRecord
2
DimnDraft3D1
340
0
70
0
0
BLOCK_RECORD
5
244
100
AcDbSymbolTableRecord
100
AcDbBlockTableRecord
2
DimnDraft3D2
340
0
70
0
0
BLOCK_RECORD
5
24E
100
AcDbSymbolTableRecord
100
AcDbBlockTableRecord
2
DimnDraft3D3
340
0
70
0
0
BLOCK_RECORD
5
259
100
AcDbSymbolTableRecord
100
AcDbBlockTableRecord
2
DimnDraft3D4
340
0
70
0
0
BLOCK_RECORD
5
263
100
AcDbSymbolTableRecord
100
AcDbBlockTableRecord
2
DimnDraft3D5
340
0
70
0
0
BLOCK_RECORD
5
26E
100
AcDbSymbolTableRecord
100
AcDbBlockTableRecord
2
DimnDraft3D6
340
0
70
0
0
BLOCK_RECORD
5
279
100
AcDbSymbolTableRecord
100
AcDbBlockTableRecord
2
DimnDraft3D7
340
0
70
0
0
ENDTAB
0
ENDSEC
0
SECTION
2
BLOCKS
0
BLOCK
5
20
100
AcDbEntity
8
0
100
AcDbBlockBegin
2
*Model_Space
70
0
10
0
20
0
30
0
3
*Model_Space
0
ENDBLK
5
21
100
AcDbEntity
8
0
100
AcDbBlockEnd
0
BLOCK
5
1C
100
AcDbEntity
8
0
100
AcDbBlockBegin
2
*Paper_Space
70
0
10
0
20
0
30
0
3
*Paper_Space
0
ENDBLK
5
1D
100
AcDbEntity
8
0
100
AcDbBlockEnd
0
BLOCK
5
24
100
AcDbEntity
8
0
100
AcDbBlockBegin
2
*Paper_Space0
70
0
10
0
20
0
30
0
3
*Paper_Space0
0
ENDBLK
5
25
100
AcDbEntity
8
0
100
AcDbBlockEnd
0
BLOCK
5
241
100
AcDbEntity
8
0
100
AcDbBlockBegin
2
DimnDraft3D1
70
0
10
0
20
0
30
0
3
DimnDraft3D1
0
MTEXT
5
23A
100
AcDbEntity
8
SK2
62
256
6
ByLayer
370
-1
48
1
60
0
100
AcDbMText
10
0.906579
20
-51.7758
30
0
210
0
220
0
230
1
1
\W01.000;\fsimplex.shx,bigfont.shx;(128) 
40
4.5
41
0
44
1.084337
50
0
71
7
72
5
7
DEFAULT
0
LINE
5
23C
100
AcDbEntity
8
SK2
62
256
6
ByLayer
370
-1
48
1
60
0
100
AcDbLine
10
-56
20
-14.0875
30
0
11
-56
21
-58.04455
31
0
39
0
210
0
220
0
230
1
0
LINE
5
23D
100
AcDbEntity
8
SK2
62
256
6
ByLayer
370
-1
48
1
60
0
100
AcDbLine
10
72
20
-10.3375
30
0
11
72
21
-58.04455
31
0
39
0
210
0
220
0
230
1
0
LINE
5
23E
100
AcDbEntity
8
SK2
62
256
6
ByLayer
370
-1
48
1
60
0
100
AcDbLine
10
-56
20
-54.86955
30
0
11
72
21
-54.86955
31
0
39
0
210
0
220
0
230
1
0
SOLID
5
23F
100
AcDbEntity
8
SK2
62
256
6
ByLayer
370
-1
48
1
60
0
100
AcDbTrace
10
-56
20
-54.86955
30
0
11
-51.825003
21
-53.943975
31
0
12
-51.824997
22
-55.795125
32
0
13
-56
23
-54.86955
33
0
39
0
210
0
220
0
230
1
0
SOLID
5
240
100
AcDbEntity
8
SK2
62
256
6
ByLayer
370
-1
48
1
60
0
100
AcDbTrace
10
72
20
-54.86955
30
0
11
67.825003
21
-55.795125
31
0
12
67.824997
22
-53.943975
32
0
13
72
23
-54.86955
33
0
39
0
210
0
220
0
230
1
0
ENDBLK
5
242
100
AcDbEntity
8
0
100
AcDbBlockEnd
0
BLOCK
5
24B
100
AcDbEntity
8
0
100
AcDbBlockBegin
2
DimnDraft3D2
70
0
10
0
20
0
30
0
3
DimnDraft3D2
0
MTEXT
5
245
100
AcDbEntity
8
SK2
62
256
6
ByLayer
370
-1
48
1
60
0
100
AcDbMText
10
-29.503947
20
-41.7758
30
0
210
0
220
0
230
1
1
\W01.000;\fsimplex.shx,bigfont.shx;56 
40
4.5
41
0
44
1.084337
50
0
71
7
72
5
7
DEFAULT
0
LINE
5
246
100
AcDbEntity
8
SK2
62
256
6
ByLayer
370
-1
48
1
60
0
100
AcDbLine
10
-56
20
-14.0875
30
0
11
-56
21
-46.0758
31
0
39
0
210
0
220
0
230
1
0
LINE
5
247
100
AcDbEntity
8
SK2
62
256
6
ByLayer
370
-1
48
1
60
0
100
AcDbLine
10
0
20
-17.5875
30
0
11
0
21
-46.0758
31
0
39
0
210
0
220
0
230
1
0
LINE
5
248
100
AcDbEntity
8
SK2
62
256
6
ByLayer
370
-1
48
1
60
0
100
AcDbLine
10
-56
20
-42.9008
30
0
11
0
21
-42.9008
31
0
39
0
210
0
220
0
230
1
0
SOLID
5
249
100
AcDbEntity
8
SK2
62
256
6
ByLayer
370
-1
48
1
60
0
100
AcDbTrace
10
-56
20
-42.9008
30
0
11
-51.825003
21
-41.975225
31
0
12
-51.824997
22
-43.826375
32
0
13
-56
23
-42.9008
33
0
39
0
210
0
220
0
230
1
0
SOLID
5
24A
100
AcDbEntity
8
SK2
62
256
6
ByLayer
370
-1
48
1
60
0
100
AcDbTrace
10
0
20
-42.9008
30
0
11
-4.174997
21
-43.826375
31
0
12
-4.175003
22
-41.975225
32
0
13
0
23
-42.9008
33
0
39
0
210
0
220
0
230
1
0
ENDBLK
5
24C
100
AcDbEntity
8
0
100
AcDbBlockEnd
0
BLOCK
5
256
100
AcDbEntity
8
0
100
AcDbBlockBegin
2
DimnDraft3D3
70
0
10
0
20
0
30
0
3
DimnDraft3D3
0
MTEXT
5
24F
100
AcDbEntity
8
2
62
256
6
ByLayer
370
-1
48
1
60
0
100
AcDbMText
10
34.496053
20
-41.7758
30
0
210
0
220
0
230
1
1
\W01.000;\fsimplex.shx,bigfont.shx;72 
40
4.5
41
0
44
1.084337
50
0
71
7
72
5
7
DEFAULT
0
LINE
5
251
100
AcDbEntity
8
2
62
256
6
ByLayer
370
-1
48
1
60
0
100
AcDbLine
10
0
20
-17.5875
30
0
11
0
21
-46.0758
31
0
39
0
210
0
220
0
230
1
0
LINE
5
252
100
AcDbEntity
8
2
62
256
6
ByLayer
370
-1
48
1
60
0
100
AcDbLine
10
72
20
-10.3375
30
0
11
72
21
-46.0758
31
0
39
0
210
0
220
0
230
1
0
LINE
5
253
100
AcDbEntity
8
2
62
256
6
ByLayer
370
-1
48
1
60
0
100
AcDbLine
10
0
20
-42.9008
30
0
11
72
21
-42.9008
31
0
39
0
210
0
220
0
230
1
0
SOLID
5
254
100
AcDbEntity
8
2
62
256
6
ByLayer
370
-1
48
1
60
0
100
AcDbTrace
10
0
20
-42.9008
30
0
11
4.174997
21
-41.975225
31
0
12
4.175003
22
-43.826375
32
0
13
0
23
-42.9008
33
0
39
0
210
0
220
0
230
1
0
SOLID
5
255
100
AcDbEntity
8
2
62
256
6
ByLayer
370
-1
48
1
60
0
100
AcDbTrace
10
72
20
-42.9008
30
0
11
67.825003
21
-43.826375
31
0
12
67.824997
22
-41.975225
32
0
13
72
23
-42.9008
33
0
39
0
210
0
220
0
230
1
0
ENDBLK
5
257
100
AcDbEntity
8
0
100
AcDbBlockEnd
0
BLOCK
5
260
100
AcDbEntity
8
0
100
AcDbBlockBegin
2
DimnDraft3D4
70
0
10
0
20
0
30
0
3
DimnDraft3D4
0
MTEXT
5
25A
100
AcDbEntity
8
SK2
62
256
6
ByLayer
370
-1
48
1
60
0
100
AcDbMText
10
42.496053
20
-31.7758
30
0
210
0
220
0
230
1
1
\W01.000;\fsimplex.shx,bigfont.shx;56 
40
4.5
41
0
44
1.084337
50
0
71
7
72
5
7
DEFAULT
0
LINE
5
25B
100
AcDbEntity
8
SK2
62
256
6
ByLayer
370
-1
48
1
60
0
100
AcDbLine
10
16
20
-11.5875
30
0
11
16
21
-36.0758
31
0
39
0
210
0
220
0
230
1
0
LINE
5
25C
100
AcDbEntity
8
SK2
62
256
6
ByLayer
370
-1
48
1
60
0
100
AcDbLine
10
72
20
-10.3375
30
0
11
72
21
-36.0758
31
0
39
0
210
0
220
0
230
1
0
LINE
5
25D
100
AcDbEntity
8
SK2
62
256
6
ByLayer
370
-1
48
1
60
0
100
AcDbLine
10
16
20
-32.9008
30
0
11
72
21
-32.9008
31
0
39
0
210
0
220
0
230
1
0
SOLID
5
25E
100
AcDbEntity
8
SK2
62
256
6
ByLayer
370
-1
48
1
60
0
100
AcDbTrace
10
16
20
-32.9008
30
0
11
20.174997
21
-31.975225
31
0
12
20.175003
22
-33.826375
32
0
13
16
23
-32.9008
33
0
39
0
210
0
220
0
230
1
0
SOLID
5
25F
100
AcDbEntity
8
SK2
62
256
6
ByLayer
370
-1
48
1
60
0
100
AcDbTrace
10
72
20
-32.9008
30
0
11
67.825003
21
-33.826375
31
0
12
67.824997
22
-31.975225
32
0
13
72
23
-32.9008
33
0
39
0
210
0
220
0
230
1
0
ENDBLK
5
261
100
AcDbEntity
8
0
100
AcDbBlockEnd
0
BLOCK
5
26B
100
AcDbEntity
8
0
100
AcDbBlockBegin
2
DimnDraft3D5
70
0
10
0
20
0
30
0
3
DimnDraft3D5
0
MTEXT
5
264
100
AcDbEntity
8
SK2
62
256
6
ByLayer
370
-1
48
1
60
0
100
AcDbMText
10
-66.975
20
5.246053
30
0
210
0
220
0
230
1
1
\W01.000;\fsimplex.shx,bigfont.shx;25 
40
4.5
41
0
44
1.084337
50
90
71
7
72
5
7
DEFAULT
0
MTEXT
5
265
100
AcDbEntity
8
SK2
62
256
6
ByLayer
370
-1
48
1
60
0
100
AcDbMText
10
-66.975
20
-8.253947
30
0
210
0
220
0
230
1
1
\W01.000;\fsimplex.shx,bigfont.shx;%%c 
40
4.5
41
0
44
1.084337
50
90
71
7
72
5
7
DEFAULT
0
LINE
5
266
100
AcDbEntity
8
SK2
62
256
6
ByLayer
370
-1
48
1
60
0
100
AcDbLine
10
-57.5875
20
12.5
30
0
11
-67.9
21
12.5
31
0
39
0
210
0
220
0
230
1
0
LINE
5
267
100
AcDbEntity
8
SK2
62
256
6
ByLayer
370
-1
48
1
60
0
100
AcDbLine
10
-57.5875
20
-12.5
30
0
11
-67.9
21
-12.5
31
0
39
0
210
0
220
0
230
1
0
LINE
5
268
100
AcDbEntity
8
SK2
62
256
6
ByLayer
370
-1
48
1
60
0
100
AcDbLine
10
-64.725
20
23.75
30
0
11
-64.725
21
-23.75
31
0
39
0
210
0
220
0
230
1
0
SOLID
5
269
100
AcDbEntity
8
SK2
62
256
6
ByLayer
370
-1
48
1
60
0
100
AcDbTrace
10
-64.725
20
12.5
30
0
11
-65.650575
21
16.674997
31
0
12
-63.799425
22
16.675003
32
0
13
-64.725
23
12.5
33
0
39
0
210
0
220
0
230
1
0
SOLID
5
26A
100
AcDbEntity
8
SK2
62
256
6
ByLayer
370
-1
48
1
60
0
100
AcDbTrace
10
-64.725
20
-12.5
30
0
11
-63.799425
21
-16.674997
31
0
12
-65.650575
22
-16.675003
32
0
13
-64.725
23
-12.5
33
0
39
0
210
0
220
0
230
1
0
ENDBLK
5
26C
100
AcDbEntity
8
0
100
AcDbBlockEnd
0
BLOCK
5
276
100
AcDbEntity
8
0
100
AcDbBlockBegin
2
DimnDraft3D6
70
0
10
0
20
0
30
0
3
DimnDraft3D6
0
MTEXT
5
26F
100
AcDbEntity
8
SK2
62
256
6
ByLayer
370
-1
48
1
60
0
100
AcDbMText
10
-76.975
20
5.246053
30
0
210
0
220
0
230
1
1
\W01.000;\fsimplex.shx,bigfont.shx;32 
40
4.5
41
0
44
1.084337
50
90
71
7
72
5
7
DEFAULT
0
MTEXT
5
270
100
AcDbEntity
8
SK2
62
256
6
ByLayer
370
-1
48
1
60
0
100
AcDbMText
10
-76.975
20
-8.253947
30
0
210
0
220
0
230
1
1
\W01.000;\fsimplex.shx,bigfont.shx;%%c 
40
4.5
41
0
44
1.084337
50
90
71
7
72
5
7
DEFAULT
0
LINE
5
271
100
AcDbEntity
8
SK2
62
256
6
ByLayer
370
-1
48
1
60
0
100
AcDbLine
10
-1.5875
20
-16
30
0
11
-77.9
21
-16
31
0
39
0
210
0
220
0
230
1
0
LINE
5
272
100
AcDbEntity
8
SK2
62
256
6
ByLayer
370
-1
48
1
60
0
100
AcDbLine
10
-1.5875
20
16
30
0
11
-77.9
21
16
31
0
39
0
210
0
220
0
230
1
0
LINE
5
273
100
AcDbEntity
8
SK2
62
256
6
ByLayer
370
-1
48
1
60
0
100
AcDbLine
10
-74.725
20
-16
30
0
11
-74.725
21
16
31
0
39
0
210
0
220
0
230
1
0
SOLID
5
274
100
AcDbEntity
8
SK2
62
256
6
ByLayer
370
-1
48
1
60
0
100
AcDbTrace
10
-74.725
20
-16
30
0
11
-75.650575
21
-11.825003
31
0
12
-73.799425
22
-11.824997
32
0
13
-74.725
23
-16
33
0
39
0
210
0
220
0
230
1
0
SOLID
5
275
100
AcDbEntity
8
SK2
62
256
6
ByLayer
370
-1
48
1
60
0
100
AcDbTrace
10
-74.725
20
16
30
0
11
-73.799425
21
11.825003
31
0
12
-75.650575
22
11.824997
32
0
13
-74.725
23
16
33
0
39
0
210
0
220
0
230
1
0
ENDBLK
5
277
100
AcDbEntity
8
0
100
AcDbBlockEnd
0
BLOCK
5
281
100
AcDbEntity
8
0
100
AcDbBlockBegin
2
DimnDraft3D7
70
0
10
0
20
0
30
0
3
DimnDraft3D7
0
MTEXT
5
27A
100
AcDbEntity
8
2
62
256
6
ByLayer
370
-1
48
1
60
0
100
AcDbMText
10
96.725
20
-28.938816
30
0
210
0
220
0
230
1
1
\W01.000;\fsimplex.shx,bigfont.shx;17.5 
40
4.5
41
0
44
1.084337
50
90
71
7
72
5
7
DEFAULT
0
MTEXT
5
27B
100
AcDbEntity
8
2
62
256
6
ByLayer
370
-1
48
1
60
0
100
AcDbMText
10
96.725
20
-42.438816
30
0
210
0
220
0
230
1
1
\W01.000;\fsimplex.shx,bigfont.shx;%%c 
40
4.5
41
0
44
1.084337
50
90
71
7
72
5
7
DEFAULT
0
LINE
5
27C
100
AcDbEntity
8
2
62
256
6
ByLayer
370
-1
48
1
60
0
100
AcDbLine
10
73.5875
20
8.75
30
0
11
102.15
21
8.75
31
0
39
0
210
0
220
0
230
1
0
LINE
5
27D
100
AcDbEntity
8
2
62
256
6
ByLayer
370
-1
48
1
60
0
100
AcDbLine
10
73.5875
20
-8.75
30
0
11
102.15
21
-8.75
31
0
39
0
210
0
220
0
230
1
0
LINE
5
27E
100
AcDbEntity
8
2
62
256
6
ByLayer
370
-1
48
1
60
0
100
AcDbLine
10
98.975
20
8.75
30
0
11
98.975
21
-43.563816
31
0
39
0
210
0
220
0
230
1
0
SOLID
5
27F
100
AcDbEntity
8
2
62
256
6
ByLayer
370
-1
48
1
60
0
100
AcDbTrace
10
98.975
20
8.75
30
0
11
99.900575
21
4.575003
31
0
12
98.049425
22
4.574997
32
0
13
98.975
23
8.75
33
0
39
0
210
0
220
0
230
1
0
SOLID
5
280
100
AcDbEntity
8
2
62
256
6
ByLayer
370
-1
48
1
60
0
100
AcDbTrace
10
98.975
20
-8.75
30
0
11
98.049425
21
-4.575003
31
0
12
99.900575
22
-4.574997
32
0
13
98.975
23
-8.75
33
0
39
0
210
0
220
0
230
1
0
ENDBLK
5
282
100
AcDbEntity
8
0
100
AcDbBlockEnd
0
ENDSEC
0
SECTION
2
ENTITIES
0
ARC
5
F2
100
AcDbEntity
8
SK1
62
256
6
ByLayer
370
-1
48
1
60
0
100
AcDbCircle
39
0
10
1.382165
20
12.65
30
0
40
0.4
210
0
220
0
230
-1
100
AcDbArc
50
270
51
295
0
ARC
5
F3
100
AcDbEntity
8
SK1
62
256
6
ByLayer
370
-1
48
1
60
0
100
AcDbCircle
39
0
10
1.382165
20
-12.65
30
0
40
0.4
210
0
220
0
230
-1
100
AcDbArc
50
65
51
90
0
ARC
5
F4
100
AcDbEntity
8
SK1
62
256
6
ByLayer
370
-1
48
1
60
0
100
AcDbCircle
39
0
10
0.15
20
12.65
30
0
40
0.4
210
0
220
0
230
-1
100
AcDbArc
50
247.975687
51
270
0
ARC
5
F5
100
AcDbEntity
8
SK1
62
256
6
ByLayer
370
-1
48
1
60
0
100
AcDbCircle
39
0
10
0.15
20
-12.65
30
0
40
0.4
210
0
220
0
230
-1
100
AcDbArc
50
90
51
112.024313
0
ARC
5
F6
100
AcDbEntity
8
SK1
62
256
6
ByLayer
370
-1
48
1
60
0
100
AcDbCircle
39
0
10
53.894506
20
12.89675
30
0
40
0.8
210
0
220
0
230
-1
100
AcDbArc
50
250.982048
51
321
0
ARC
5
F7
100
AcDbEntity
8
SK1
62
256
6
ByLayer
370
-1
48
1
60
0
100
AcDbCircle
39
0
10
53.894506
20
-12.89675
30
0
40
0.8
210
0
220
0
230
-1
100
AcDbArc
50
39
51
109.017952
0
ELLIPSE
5
F8
100
AcDbEntity
8
1
62
256
6
ByLayer
370
-1
48
1
60
0
100
AcDbEllipse
10
68.840926
20
5.502015
30
0
11
1.46431667789534E-15
21
1.25
31
0
210
0
220
0
230
1
40
0.996195
41
-1.80160505545351
42
0
0
ELLIPSE
5
F9
100
AcDbEntity
8
1
62
256
6
ByLayer
370
-1
48
1
60
0
100
AcDbEllipse
10
68.840926
20
5.502015
30
0
11
1.46431667789534E-15
21
1.25
31
0
210
0
220
0
230
1
40
0.996195
41
0
42
0.963290731159637
0
ELLIPSE
5
FA
100
AcDbEntity
8
1
62
256
6
ByLayer
370
-1
48
1
60
0
100
AcDbEllipse
10
46.455624
20
6.828701
30
0
11
-17.5361368755424
21
1.63255122554286
31
0
210
0
220
0
230
-1
40
0.221433
41
3.12098094463871
42
-2.73871454387585
0
ELLIPSE
5
FB
100
AcDbEntity
8
1
62
256
6
ByLayer
370
-1
48
1
60
0
100
AcDbEllipse
10
11.4
20
5.440645
30
0
11
-5.00000000000001
21
5.05319527541183E-15
31
0
210
0
220
0
230
1
40
0.651033
41
-1.31217270531658
42
-0.3447741609734
0
ELLIPSE
5
FC
100
AcDbEntity
8
1
62
256
6
ByLayer
370
-1
48
1
60
0
100
AcDbEllipse
10
66.619531
20
3.609953
30
0
11
1.58146201212697E-15
21
1.35
31
0
210
0
220
0
230
1
40
0.996195
41
1.60570291183479
42
1.8509328096783
0
ELLIPSE
5
FD
100
AcDbEntity
8
1
62
256
6
ByLayer
370
-1
48
1
60
0
100
AcDbEllipse
10
66.162358
20
6.282774
30
0
11
-0.579980162756391
21
-0.618336926599667
31
0
210
0
220
0
230
-1
40
0.04503
41
-0.739916138388479
42
-0.421202239074551
0
ELLIPSE
5
FE
100
AcDbEntity
8
1
62
256
6
ByLayer
370
-1
48
1
60
0
100
AcDbEllipse
10
64.958959
20
3.226235
30
0
11
0.0280261150489236
21
-0.799508934831416
31
0
210
0
220
0
230
1
40
0.087103
41
0.0630727813209034
42
1.56774302595898
0
ELLIPSE
5
FF
100
AcDbEntity
8
1
62
256
6
ByLayer
370
-1
48
1
60
0
100
AcDbEllipse
10
71.294349
20
0
30
0
11
-0.765381518049678
21
8.44952669211752
31
0
210
0
220
0
230
-1
40
0.116963
41
-1.48993569595096
42
-1.44814423832623
0
ELLIPSE
5
100
100
AcDbEntity
8
1
62
256
6
ByLayer
370
-1
48
1
60
0
100
AcDbEllipse
10
61.010399
20
3.112911
30
0
11
-9.71064720486213
21
0.510835729116164
31
0
210
0
220
0
230
-1
40
0.000336
41
-3.13615624581232
42
-3.13519796716123
0
ELLIPSE
5
101
100
AcDbEntity
8
1
62
256
6
ByLayer
370
-1
48
1
60
0
100
AcDbEllipse
10
71.035072
20
0.142865
30
0
11
-0.0367903373145987
21
0.601607542667009
31
0
210
0
220
0
230
-1
40
0.118733
41
-1.49832363685482
42
-1.33856144614909
0
ELLIPSE
5
102
100
AcDbEntity
8
1
62
256
6
ByLayer
370
-1
48
1
60
0
100
AcDbEllipse
10
15.846174
20
0
30
0
11
-150.280181558294
21
-8.17166231638338
31
0
210
0
220
0
230
-1
40
0.014313
41
-1.94023238901527
42
-1.89947003670707
0
ELLIPSE
5
103
100
AcDbEntity
8
1
62
256
6
ByLayer
370
-1
48
1
60
0
100
AcDbEllipse
10
69.741695
20
0
30
0
11
-19.2280624684729
21
8.18866514134154
31
0
210
0
220
0
230
-1
40
0.108448
41
-1.1868413091336
42
-0.546403175872573
0
ELLIPSE
5
104
100
AcDbEntity
8
1
62
256
6
ByLayer
370
-1
48
1
60
0
100
AcDbEllipse
10
66.082014
20
3.583778
30
0
11
-0.599637270106163
21
-0.0208601126465927
31
0
210
0
220
0
230
1
40
0.003042
41
0.0872135714663609
42
1.13795433213009
0
ELLIPSE
5
105
100
AcDbEntity
8
1
62
256
6
ByLayer
370
-1
48
1
60
0
100
AcDbEllipse
10
66.787854
20
4.784237
30
0
11
-1.4470236532442E-15
21
-1.35
31
0
210
0
220
0
230
1
40
0.996195
41
-2.26960617922759
42
-1.53588974175501
0
ELLIPSE
5
106
100
AcDbEntity
8
1
62
256
6
ByLayer
370
-1
48
1
60
0
100
AcDbEllipse
10
70.79689
20
-5.339556
30
0
11
-0.0804327590359239
21
-0.997287653359859
31
0
210
0
220
0
230
-1
40
0.125988
41
1.31411465177048
42
0.252528681825724
0
ELLIPSE
5
107
100
AcDbEntity
8
1
62
256
6
ByLayer
370
-1
48
1
60
0
100
AcDbEllipse
10
68.72822
20
-1.908862
30
0
11
-1.1
21
1.1117029605906E-15
31
0
210
0
220
0
230
1
40
0.998135
41
-3.02044521600466
42
-0.121245951291246
0
ELLIPSE
5
108
100
AcDbEntity
8
1
62
256
6
ByLayer
370
-1
48
1
60
0
100
AcDbEllipse
10
63.289205
20
5.230406
30
0
11
-0.368634678023054
21
-3.88253892113896
31
0
210
0
220
0
230
1
40
0.304411
41
0.210224714473113
42
0.814350473829641
0
ELLIPSE
5
109
100
AcDbEntity
8
1
62
256
6
ByLayer
370
-1
48
1
60
0
100
AcDbEllipse
10
66.57868
20
4.784237
30
0
11
1.58146201212697E-15
21
1.35
31
0
210
0
220
0
230
1
40
0.996195
41
0.86305605237593
42
1.60570291183478
0
ELLIPSE
5
10A
100
AcDbEntity
8
1
62
256
6
ByLayer
370
-1
48
1
60
0
100
AcDbEllipse
10
65.769504
20
-1E-06
30
0
11
-0.273597015030406
21
8.44996697050045
31
0
210
0
220
0
230
-1
40
0.087398
41
-0.0378898035439551
42
-0.000915708904728187
0
ELLIPSE
5
10B
100
AcDbEntity
8
1
62
256
6
ByLayer
370
-1
48
1
60
0
100
AcDbEllipse
10
68.72822
20
-1.643301
30
0
11
1.2
21
0
31
0
210
0
220
0
230
1
40
0.998135
41
0
42
3.14159250110337
0
ELLIPSE
5
10C
100
AcDbEntity
8
1
62
256
6
ByLayer
370
-1
48
1
60
0
100
AcDbEllipse
10
71.290451
20
0
30
0
11
-0.512731552031284
21
8.44977937003538
31
0
210
0
220
0
230
-1
40
0.119092
41
-2.05961574379369
42
-1.49330376075106
0
ELLIPSE
5
10D
100
AcDbEntity
8
1
62
256
6
ByLayer
370
-1
48
1
60
0
100
AcDbEllipse
10
63.73232
20
0
30
0
11
-31.0426307523923
21
0.55695531396696
31
0
210
0
220
0
230
-1
40
0.271614
41
-1.59254462441303
42
-1.51719579203291
0
ELLIPSE
5
10E
100
AcDbEntity
8
1
62
256
6
ByLayer
370
-1
48
1
60
0
100
AcDbEllipse
10
71.264351
20
-4.345932
30
0
11
-0.0581290992933783
21
-0.658564973950231
31
0
210
0
220
0
230
-1
40
0.115224
41
0.00370845515643501
42
1.57450478194744
0
ELLIPSE
5
10F
100
AcDbEntity
8
1
62
256
6
ByLayer
370
-1
48
1
60
0
100
AcDbEllipse
10
70.949283
20
3.190874
30
0
11
-0.0542111671692964
21
0.603599560948375
31
0
210
0
220
0
230
-1
40
0.115527
41
2.31806291815472
42
-3.12964137067359
0
ELLIPSE
5
110
100
AcDbEntity
8
1
62
256
6
ByLayer
370
-1
48
1
60
0
100
AcDbEllipse
10
68.853999
20
5.502015
30
0
11
1.2885986765479E-15
21
1.1
31
0
210
0
220
0
230
1
40
0.996195
41
-2.42668389129718
42
0
0
ELLIPSE
5
111
100
AcDbEntity
8
1
62
256
6
ByLayer
370
-1
48
1
60
0
100
AcDbEllipse
10
68.853999
20
5.502015
30
0
11
1.2885986765479E-15
21
1.1
31
0
210
0
220
0
230
1
40
0.996195
41
0
42
1.57079634372637
0
ELLIPSE
5
112
100
AcDbEntity
8
1
62
256
6
ByLayer
370
-1
48
1
60
0
100
AcDbEllipse
10
68.853999
20
5.502015
30
0
11
1.2885986765479E-15
21
1.1
31
0
210
0
220
0
230
1
40
0.996195
41
1.5707962760005
42
1.74584211605793
0
ELLIPSE
5
113
100
AcDbEntity
8
1
62
256
6
ByLayer
370
-1
48
1
60
0
100
AcDbEllipse
10
68.853999
20
5.502015
30
0
11
1.46431667789534E-15
21
1.25
31
0
210
0
220
0
230
1
40
0.996195
41
0
42
1.01571642045175
0
ELLIPSE
5
114
100
AcDbEntity
8
1
62
256
6
ByLayer
370
-1
48
1
60
0
100
AcDbEllipse
10
66.871342
20
3.609953
30
0
11
-1.17794646133833
21
-1.04893007471956
31
0
210
0
220
0
230
-1
40
0.721468
41
-1.26712593957031
42
-0.133853100320626
0
ELLIPSE
5
115
100
AcDbEntity
8
1
62
256
6
ByLayer
370
-1
48
1
60
0
100
AcDbEllipse
10
64.778172
20
8.423067
30
0
11
-6.43121623664089E-15
21
-6
31
0
210
0
220
0
230
1
40
0.996195
41
-0.31850937515759
42
-4.26818814614224E-06
0
ELLIPSE
5
116
100
AcDbEntity
8
1
62
256
6
ByLayer
370
-1
48
1
60
0
100
AcDbEllipse
10
64.847896
20
8.423067
30
0
11
6.09155738004463E-15
21
5.2
31
0
210
0
220
0
230
1
40
0.996195
41
2.72271363311116
42
-3.10668606854991
0
ELLIPSE
5
117
100
AcDbEntity
8
1
62
256
6
ByLayer
370
-1
48
1
60
0
100
AcDbEllipse
10
55.291622
20
5.971849
30
0
11
-8.05634253912306
21
4.58685544592057
31
0
210
0
220
0
230
-1
40
0.118673
41
-2.58474634530161
42
-1.45129523366487
0
ELLIPSE
5
118
100
AcDbEntity
8
1
62
256
6
ByLayer
370
-1
48
1
60
0
100
AcDbEllipse
10
66.041163
20
4.758062
30
0
11
-0.599637270106163
21
-0.0208601126465927
31
0
210
0
220
0
230
1
40
0.003042
41
0.0872135714661165
42
1.13795433213007
0
ELLIPSE
5
119
100
AcDbEntity
8
1
62
256
6
ByLayer
370
-1
48
1
60
0
100
AcDbEllipse
10
71.913668
20
0
30
0
11
-0.694872619695079
21
-8.44954363123466
31
0
210
0
220
0
230
-1
40
0.126383
41
0.0116302008251635
42
0.718548962273141
0
ELLIPSE
5
11A
100
AcDbEntity
8
1
62
256
6
ByLayer
370
-1
48
1
60
0
100
AcDbEllipse
10
71.038097
20
0.142759
30
0
11
-0.0548191455795544
21
0.602210169017344
31
0
210
0
220
0
230
-1
40
0.116488
41
-1.33527500429647
42
0.0757591320414824
0
ELLIPSE
5
11B
100
AcDbEntity
8
1
62
256
6
ByLayer
370
-1
48
1
60
0
100
AcDbEllipse
10
69.058815
20
5.502015
30
0
11
1.2885986765479E-15
21
1.1
31
0
210
0
220
0
230
1
40
0.996195
41
0.0936589268668741
42
1.57079627600051
0
ELLIPSE
5
11C
100
AcDbEntity
8
1
62
256
6
ByLayer
370
-1
48
1
60
0
100
AcDbEllipse
10
69.058815
20
5.502015
30
0
11
1.2885986765479E-15
21
1.1
31
0
210
0
220
0
230
1
40
0.996195
41
1.57079627600051
42
2.67447725026751
0
ELLIPSE
5
11D
100
AcDbEntity
8
1
62
256
6
ByLayer
370
-1
48
1
60
0
100
AcDbEllipse
10
66.828704
20
3.609953
30
0
11
-1.4470236532442E-15
21
-1.35
31
0
210
0
220
0
230
1
40
0.996195
41
-1.53588974175501
42
-0.146913134865279
0
ELLIPSE
5
11E
100
AcDbEntity
8
1
62
256
6
ByLayer
370
-1
48
1
60
0
100
AcDbEllipse
10
62.67119
20
3.672631
30
0
11
-0.326425640836807
21
-0.730374082922088
31
0
210
0
220
0
230
1
40
0.079621
41
0.435009741573266
42
1.60636616336575
0
ELLIPSE
5
11F
100
AcDbEntity
8
1
62
256
6
ByLayer
370
-1
48
1
60
0
100
AcDbEllipse
10
68.72822
20
-1.643301
30
0
11
-1.1
21
1.1117029605906E-15
31
0
210
0
220
0
230
1
40
0.998135
41
0
42
6.28318530717959
0
ELLIPSE
5
120
100
AcDbEntity
8
1
62
256
6
ByLayer
370
-1
48
1
60
0
100
AcDbEllipse
10
61.536355
20
-1E-06
30
0
11
-96.5839480862445
21
-1.09439241680373E-13
31
0
210
0
220
0
230
-1
40
0.087489
41
1.59626015986691
42
1.61151592722154
0
ELLIPSE
5
121
100
AcDbEntity
8
1
62
256
6
ByLayer
370
-1
48
1
60
0
100
AcDbEllipse
10
63.325281
20
0
30
0
11
-26.322744361454
21
-2.98262934881423E-14
31
0
210
0
220
0
230
-1
40
0.321015
41
1.48158909607723
42
1.5962601614795
0
ELLIPSE
5
122
100
AcDbEntity
8
1
62
256
6
ByLayer
370
-1
48
1
60
0
100
AcDbEllipse
10
53.280373
20
6.180713
30
0
11
-0.368634678023054
21
-3.88253892113896
31
0
210
0
220
0
230
1
40
0.304411
41
1.35508358370665
42
1.57418030455021
0
ELLIPSE
5
123
100
AcDbEntity
8
1
62
256
6
ByLayer
370
-1
48
1
60
0
100
AcDbEllipse
10
62.977505
20
2.42865
30
0
11
-6.30342470293351
21
-0.198314749147941
31
0
210
0
220
0
230
-1
40
0.010626
41
-1.89651027022651
42
-1.8872961865585
0
ELLIPSE
5
124
100
AcDbEntity
8
1
62
256
6
ByLayer
370
-1
48
1
60
0
100
AcDbEllipse
10
71.913668
20
0
30
0
11
-0.694872621203169
21
-8.4495436398563
31
0
210
0
220
0
230
-1
40
0.126383
41
0.83864863038693
42
1.06435740963822
0
ELLIPSE
5
125
100
AcDbEntity
8
1
62
256
6
ByLayer
370
-1
48
1
60
0
100
AcDbEllipse
10
66.785034
20
-1.365568
30
0
11
-1.07186937277344E-14
21
-9.99999999999964
31
0
210
0
220
0
230
1
40
0.996195
41
-3.0877854465449
42
-3.07177948351001
0
ELLIPSE
5
126
100
AcDbEntity
8
1
62
256
6
ByLayer
370
-1
48
1
60
0
100
AcDbEllipse
10
65.975091
20
8.164533
30
0
11
-3.21560811832048E-16
21
-0.300000000000003
31
0
210
0
220
0
230
1
40
0.996195
41
-1.79768912955412
42
-1.5707963267949
0
ELLIPSE
5
127
100
AcDbEntity
8
1
62
256
6
ByLayer
370
-1
48
1
60
0
100
AcDbEllipse
10
66.297892
20
12.624533
30
0
11
1.16445136866418E-14
21
9.94022831811422
31
0
210
0
220
0
230
1
40
0.996195
41
3.14159265358979
42
-3.12558669055491
0
ELLIPSE
5
128
100
AcDbEntity
8
1
62
256
6
ByLayer
370
-1
48
1
60
0
100
AcDbEllipse
10
70.756764
20
12.781521
30
0
11
1.16445136866421E-14
21
9.9402283181145
31
0
210
0
220
0
230
1
40
0.996195
41
-3.10304688449064
42
-3.0975854396317
0
ELLIPSE
5
129
100
AcDbEntity
8
1
62
256
6
ByLayer
370
-1
48
1
60
0
100
AcDbEllipse
10
75.636703
20
8.213522
30
0
11
1.16445136866421E-14
21
9.9402283181145
31
0
210
0
220
0
230
1
40
0.996195
41
1.59660228291658
42
1.6020637394685
0
ELLIPSE
5
12A
100
AcDbEntity
8
1
62
256
6
ByLayer
370
-1
48
1
60
0
100
AcDbEllipse
10
66.736279
20
-1.367963
30
0
11
-1.07186937277348E-14
21
-9.99999999999999
31
0
210
0
220
0
230
1
40
0.996195
41
-3.10668606854991
42
-3.0975854396317
0
ELLIPSE
5
12B
100
AcDbEntity
8
1
62
256
6
ByLayer
370
-1
48
1
60
0
100
AcDbEllipse
10
70.75722
20
12.781521
30
0
11
-1.07186937277348E-14
21
-9.99999999999999
31
0
210
0
220
0
230
1
40
0.996195
41
0.0349065850398881
42
0.0440072139580911
0
ELLIPSE
5
12C
100
AcDbEntity
8
1
62
256
6
ByLayer
370
-1
48
1
60
0
100
AcDbEllipse
10
70.817963
20
3.468664
30
0
11
5.78724697506073E-15
21
4.94022831811449
31
0
210
0
220
0
230
1
40
0.996195
41
1.61480354075301
42
1.62460353383979
0
ELLIPSE
5
12D
100
AcDbEntity
8
1
62
256
6
ByLayer
370
-1
48
1
60
0
100
AcDbEllipse
10
71.340409
20
8.352626
30
0
11
2.81416266174359E-16
21
0.240228318114594
31
0
210
0
220
0
230
1
40
0.996195
41
-1.50098315671512
42
-1.27409035395586
0
ELLIPSE
5
12E
100
AcDbEntity
8
1
62
256
6
ByLayer
370
-1
48
1
60
0
100
AcDbEllipse
10
66.674624
20
7.944894
30
0
11
5.78724697506073E-15
21
4.94022831811449
31
0
210
0
220
0
230
1
40
0.996195
41
-1.52678911283679
42
-1.51698911975
0
ELLIPSE
5
12F
100
AcDbEntity
8
1
62
256
6
ByLayer
370
-1
48
1
60
0
100
AcDbEllipse
10
66.297892
20
2.924533
30
0
11
2.81416266174359E-16
21
0.240228318114594
31
0
210
0
220
0
230
1
40
0.996195
41
2.91469985083058
42
3.14159265358979
0
ELLIPSE
5
130
100
AcDbEntity
8
1
62
256
6
ByLayer
370
-1
48
1
60
0
100
AcDbEllipse
10
75.638179
20
8.164533
30
0
11
-1.07186937277344E-14
21
-9.99999999999964
31
0
210
0
220
0
230
1
40
0.996195
41
-1.5707963267949
42
-1.55479036376002
0
ELLIPSE
5
131
100
AcDbEntity
8
1
62
256
6
ByLayer
370
-1
48
1
60
0
100
AcDbEllipse
10
70.818419
20
3.468664
30
0
11
-5.35934686386771E-15
21
-5.00000000000028
31
0
210
0
220
0
230
1
40
0.996195
41
-1.52678911283679
42
-1.51698911975
0
ELLIPSE
5
132
100
AcDbEntity
8
1
62
256
6
ByLayer
370
-1
48
1
60
0
100
AcDbEllipse
10
75.79457
20
3.688629
30
0
11
-1.07186937277348E-14
21
-9.99999999999999
31
0
210
0
220
0
230
1
40
0.996195
41
-1.53588974175501
42
-1.52678911283681
0
ELLIPSE
5
133
100
AcDbEntity
8
1
62
256
6
ByLayer
370
-1
48
1
60
0
100
AcDbEllipse
10
75.792184
20
3.73757
30
0
11
-1.07186937277344E-14
21
-9.99999999999964
31
0
210
0
220
0
230
1
40
0.996195
41
-1.51698911975
42
-1.50098315671511
0
ELLIPSE
5
134
100
AcDbEntity
8
1
62
256
6
ByLayer
370
-1
48
1
60
0
100
AcDbEllipse
10
71.150332
20
8.294151
30
0
11
-5.35934686386747E-16
21
-0.500000000000006
31
0
210
0
220
0
230
1
40
0.996195
41
1.8675022996339
42
2.91469985083048
0
ELLIPSE
5
135
100
AcDbEntity
8
1
62
256
6
ByLayer
370
-1
48
1
60
0
100
AcDbEllipse
10
66.377614
20
7.625173
30
0
11
5.78724697506073E-15
21
4.94022831811449
31
0
210
0
220
0
230
1
40
0.996195
41
-3.12558669055492
42
-3.11578669746812
0
ELLIPSE
5
136
100
AcDbEntity
8
1
62
256
6
ByLayer
370
-1
48
1
60
0
100
AcDbEllipse
10
68.894471
20
5.706779
30
0
11
-1.33983671596685E-15
21
-1.25
31
0
210
0
220
0
230
1
40
0.996195
41
3.14149442776612
42
0
0
ELLIPSE
5
137
100
AcDbEntity
8
1
62
256
6
ByLayer
370
-1
48
1
60
0
100
AcDbEllipse
10
68.894471
20
5.706779
30
0
11
-1.33983671596685E-15
21
-1.25
31
0
210
0
220
0
230
1
40
0.996195
41
0
42
0.0349505431244582
0
ELLIPSE
5
138
100
AcDbEntity
8
1
62
256
6
ByLayer
370
-1
48
1
60
0
100
AcDbEllipse
10
71.243498
20
-1.20995
30
0
11
1.16445136866421E-14
21
9.9402283181145
31
0
210
0
220
0
230
1
40
0.996195
41
0.0258059561216875
42
0.0312674126735999
0
ELLIPSE
5
139
100
AcDbEntity
8
1
62
256
6
ByLayer
370
-1
48
1
60
0
100
AcDbEllipse
10
66.343167
20
3.119407
30
0
11
-5.35934686386747E-16
21
-0.500000000000006
31
0
210
0
220
0
230
1
40
0.996195
41
-1.27409035395586
42
-0.226892802759265
0
ELLIPSE
5
13A
100
AcDbEntity
8
1
62
256
6
ByLayer
370
-1
48
1
60
0
100
AcDbEllipse
10
66.784579
20
-1.365568
30
0
11
1.16445136866418E-14
21
9.94022831811422
31
0
210
0
220
0
230
1
40
0.996195
41
0.0538072070448971
42
0.0698131700797859
0
ELLIPSE
5
13B
100
AcDbEntity
8
1
62
256
6
ByLayer
370
-1
48
1
60
0
100
AcDbEllipse
10
68.729318
20
5.706779
30
0
11
1.98450509329016E-15
21
1.69405389152441
31
0
210
0
220
0
230
1
40
0.996195
41
0
42
6.28318530717959
0
ELLIPSE
5
13C
100
AcDbEntity
8
1
62
256
6
ByLayer
370
-1
48
1
60
0
100
AcDbEllipse
10
75.637723
20
8.164533
30
0
11
1.16445136866418E-14
21
9.94022831811422
31
0
210
0
220
0
230
1
40
0.996195
41
1.57079632679489
42
1.58680228982978
0
ELLIPSE
5
13D
100
AcDbEntity
8
1
62
256
6
ByLayer
370
-1
48
1
60
0
100
AcDbEllipse
10
75.791728
20
3.73757
30
0
11
1.16445136866418E-14
21
9.94022831811422
31
0
210
0
220
0
230
1
40
0.996195
41
1.62460353383979
42
1.64060949687468
0
ELLIPSE
5
13E
100
AcDbEntity
8
1
62
256
6
ByLayer
370
-1
48
1
60
0
100
AcDbEllipse
10
71.517953
20
3.249025
30
0
11
2.81416266174359E-16
21
0.240228318114594
31
0
210
0
220
0
230
1
40
0.996195
41
-1.79768912955413
42
-1.5707963267949
0
ELLIPSE
5
13F
100
AcDbEntity
8
1
62
256
6
ByLayer
370
-1
48
1
60
0
100
AcDbEllipse
10
71.518409
20
3.249025
30
0
11
-3.21560811832048E-16
21
-0.300000000000003
31
0
210
0
220
0
230
1
40
0.996195
41
1.34390352403567
42
1.5707963267949
0
ELLIPSE
5
140
100
AcDbEntity
8
1
62
256
6
ByLayer
370
-1
48
1
60
0
100
AcDbEllipse
10
71.243954
20
-1.20995
30
0
11
-1.07186937277348E-14
21
-9.99999999999999
31
0
210
0
220
0
230
1
40
0.996195
41
-3.1157866974681
42
-3.1066860685499
0
ELLIPSE
5
141
100
AcDbEntity
8
1
62
256
6
ByLayer
370
-1
48
1
60
0
100
AcDbEllipse
10
66.835656
20
3.329052
30
0
11
-5.35934686386771E-15
21
-5.00000000000028
31
0
210
0
220
0
230
1
40
0.996195
41
1.58680228982978
42
1.59660228291657
0
ELLIPSE
5
142
100
AcDbEntity
8
1
62
256
6
ByLayer
370
-1
48
1
60
0
100
AcDbEllipse
10
68.792849
20
5.706779
30
0
11
-1.69826236850985E-15
21
-1.58439303486727
31
0
210
0
220
0
230
1
40
0.996195
41
0
42
6.28318530717959
0
ELLIPSE
5
143
100
AcDbEntity
8
1
62
256
6
ByLayer
370
-1
48
1
60
0
100
AcDbEllipse
10
70.657844
20
8.084507
30
0
11
-5.35934686386771E-15
21
-5.00000000000028
31
0
210
0
220
0
230
1
40
0.996195
41
-1.55479036376002
42
-1.54499037067323
0
ELLIPSE
5
144
100
AcDbEntity
8
1
62
256
6
ByLayer
370
-1
48
1
60
0
100
AcDbEllipse
10
71.115429
20
3.788385
30
0
11
-5.35934686386771E-15
21
-5.00000000000028
31
0
210
0
220
0
230
1
40
0.996195
41
-3.12558669055491
42
-3.11578669746812
0
ELLIPSE
5
145
100
AcDbEntity
8
1
62
256
6
ByLayer
370
-1
48
1
60
0
100
AcDbEllipse
10
70.657388
20
8.084507
30
0
11
5.78724697506073E-15
21
4.94022831811449
31
0
210
0
220
0
230
1
40
0.996195
41
1.58680228982978
42
1.59660228291657
0
ELLIPSE
5
146
100
AcDbEntity
8
1
62
256
6
ByLayer
370
-1
48
1
60
0
100
AcDbEllipse
10
66.37807
20
7.625173
30
0
11
-5.35934686386771E-15
21
-5.00000000000028
31
0
210
0
220
0
230
1
40
0.996195
41
0.016005963034878
42
0.0258059561216735
0
ELLIPSE
5
147
100
AcDbEntity
8
1
62
256
6
ByLayer
370
-1
48
1
60
0
100
AcDbEllipse
10
66.110971
20
8.310804
30
0
11
-3.21560811832048E-16
21
-0.300000000000003
31
0
210
0
220
0
230
1
40
0.996195
41
-3.07177948351004
42
-2.84488668075075
0
ELLIPSE
5
148
100
AcDbEntity
8
1
62
256
6
ByLayer
370
-1
48
1
60
0
100
AcDbEllipse
10
71.324276
20
3.294015
30
0
11
-5.35934686386747E-16
21
-0.500000000000006
31
0
210
0
220
0
230
1
40
0.996195
41
0.296705972839047
42
1.34390352403562
0
ELLIPSE
5
149
100
AcDbEntity
8
1
62
256
6
ByLayer
370
-1
48
1
60
0
100
AcDbEllipse
10
71.382528
20
3.102754
30
0
11
-3.21560811832048E-16
21
-0.300000000000003
31
0
210
0
220
0
230
1
40
0.996195
41
0.0698131700797505
42
0.296705972839045
0
ELLIPSE
5
14A
100
AcDbEntity
8
1
62
256
6
ByLayer
370
-1
48
1
60
0
100
AcDbEllipse
10
66.249546
20
12.623508
30
0
11
-1.07186937277348E-14
21
-9.99999999999999
31
0
210
0
220
0
230
1
40
0.996195
41
0.0258059561216878
42
0.0349065850398896
0
ELLIPSE
5
14B
100
AcDbEntity
8
1
62
256
6
ByLayer
370
-1
48
1
60
0
100
AcDbEllipse
10
61.698929
20
7.724929
30
0
11
-1.07186937277348E-14
21
-9.99999999999999
31
0
210
0
220
0
230
1
40
0.996195
41
1.60570291183479
42
1.61480354075299
0
ELLIPSE
5
14C
100
AcDbEntity
8
1
62
256
6
ByLayer
370
-1
48
1
60
0
100
AcDbEllipse
10
61.854864
20
3.249025
30
0
11
1.16445136866418E-14
21
9.94022831811422
31
0
210
0
220
0
230
1
40
0.996195
41
-1.5707963267949
42
-1.55479036376001
0
ELLIPSE
5
14D
100
AcDbEntity
8
1
62
256
6
ByLayer
370
-1
48
1
60
0
100
AcDbEllipse
10
66.8352
20
3.329052
30
0
11
5.78724697506073E-15
21
4.94022831811449
31
0
210
0
220
0
230
1
40
0.996195
41
-1.55479036376002
42
-1.54499037067323
0
ELLIPSE
5
14E
100
AcDbEntity
8
1
62
256
6
ByLayer
370
-1
48
1
60
0
100
AcDbEllipse
10
66.152634
20
3.060932
30
0
11
-3.21560811832048E-16
21
-0.300000000000003
31
0
210
0
220
0
230
1
40
0.996195
41
-1.50098315671517
42
-1.27409035395589
0
ELLIPSE
5
14F
100
AcDbEntity
8
1
62
256
6
ByLayer
370
-1
48
1
60
0
100
AcDbEllipse
10
66.110516
20
8.310804
30
0
11
2.81416266174359E-16
21
0.240228318114594
31
0
210
0
220
0
230
1
40
0.996195
41
0.0698131700797844
42
0.296705972839077
0
ELLIPSE
5
150
100
AcDbEntity
8
1
62
256
6
ByLayer
370
-1
48
1
60
0
100
AcDbEllipse
10
66.298348
20
2.924533
30
0
11
-3.21560811832048E-16
21
-0.300000000000003
31
0
210
0
220
0
230
1
40
0.996195
41
-0.226892802759225
42
4.75504451611787E-14
0
ELLIPSE
5
151
100
AcDbEntity
8
1
62
256
6
ByLayer
370
-1
48
1
60
0
100
AcDbEllipse
10
61.855885
20
3.200036
30
0
11
1.16445136866421E-14
21
9.9402283181145
31
0
210
0
220
0
230
1
40
0.996195
41
-1.54499037067321
42
-1.5395289141213
0
ELLIPSE
5
152
100
AcDbEntity
8
1
62
256
6
ByLayer
370
-1
48
1
60
0
100
AcDbEllipse
10
71.32382
20
3.294015
30
0
11
5.15706934637614E-16
21
0.440228318114594
31
0
210
0
220
0
230
1
40
0.996195
41
-2.84488668075078
42
-1.79768912955418
0
ELLIPSE
5
153
100
AcDbEntity
8
1
62
256
6
ByLayer
370
-1
48
1
60
0
100
AcDbEllipse
10
71.195151
20
8.489025
30
0
11
-3.21560811832048E-16
21
-0.300000000000003
31
0
210
0
220
0
230
1
40
0.996195
41
2.91469985083052
42
3.14159265358979
0
ELLIPSE
5
154
100
AcDbEntity
8
1
62
256
6
ByLayer
370
-1
48
1
60
0
100
AcDbEllipse
10
66.516696
20
3.627196
30
0
11
5.78724697506073E-15
21
4.94022831811449
31
0
210
0
220
0
230
1
40
0.996195
41
0.0440072139581067
42
0.0538072070448955
0
ELLIPSE
5
155
100
AcDbEntity
8
1
62
256
6
ByLayer
370
-1
48
1
60
0
100
AcDbEllipse
10
71.382072
20
3.102754
30
0
11
2.81416266174359E-16
21
0.240228318114594
31
0
210
0
220
0
230
1
40
0.996195
41
-3.07177948351013
42
-2.8448866807508
0
ELLIPSE
5
156
100
AcDbEntity
8
1
62
256
6
ByLayer
370
-1
48
1
60
0
100
AcDbEllipse
10
68.955923
20
5.706779
30
0
11
1.46431667789534E-15
21
1.25
31
0
210
0
220
0
230
1
40
0.996195
41
0.0349500371117705
42
1.57079634872777
0
ELLIPSE
5
157
100
AcDbEntity
8
1
62
256
6
ByLayer
370
-1
48
1
60
0
100
AcDbEllipse
10
68.955923
20
5.706779
30
0
11
1.46431667789534E-15
21
1.25
31
0
210
0
220
0
230
1
40
0.996195
41
1.57079634872777
42
3.1168526777092
0
ELLIPSE
5
158
100
AcDbEntity
8
1
62
256
6
ByLayer
370
-1
48
1
60
0
100
AcDbEllipse
10
68.772793
20
5.706779
30
0
11
-1.77841723412775E-15
21
-1.65917347701247
31
0
210
0
220
0
230
1
40
0.996195
41
2.21551000470675
42
0
0
ELLIPSE
5
159
100
AcDbEntity
8
1
62
256
6
ByLayer
370
-1
48
1
60
0
100
AcDbEllipse
10
68.772793
20
5.706779
30
0
11
-1.77841723412775E-15
21
-1.65917347701247
31
0
210
0
220
0
230
1
40
0.996195
41
0
42
0.926082326066338
0
ELLIPSE
5
15A
100
AcDbEntity
8
1
62
256
6
ByLayer
370
-1
48
1
60
0
100
AcDbEllipse
10
66.24909
20
12.623508
30
0
11
1.16445136866421E-14
21
9.9402283181145
31
0
210
0
220
0
230
1
40
0.996195
41
-3.11578669746811
42
-3.11032524091619
0
ELLIPSE
5
15B
100
AcDbEntity
8
1
62
256
6
ByLayer
370
-1
48
1
60
0
100
AcDbEllipse
10
70.708465
20
12.779126
30
0
11
-1.07186937277344E-14
21
-9.99999999999964
31
0
210
0
220
0
230
1
40
0.996195
41
0.0538072070448977
42
0.0698131700797864
0
ELLIPSE
5
15C
100
AcDbEntity
8
1
62
256
6
ByLayer
370
-1
48
1
60
0
100
AcDbEllipse
10
71.149876
20
8.294151
30
0
11
5.15706934637614E-16
21
0.440228318114594
31
0
210
0
220
0
230
1
40
0.996195
41
-1.27409035395587
42
-0.22689280275929
0
ELLIPSE
5
15D
100
AcDbEntity
8
1
62
256
6
ByLayer
370
-1
48
1
60
0
100
AcDbEllipse
10
71.194695
20
-1.210975
30
0
11
1.16445136866418E-14
21
9.94022831811422
31
0
210
0
220
0
230
1
40
0.996195
41
0
42
0.016005963034882
0
ELLIPSE
5
15E
100
AcDbEntity
8
1
62
256
6
ByLayer
370
-1
48
1
60
0
100
AcDbEllipse
10
66.169223
20
8.119543
30
0
11
-5.35934686386747E-16
21
-0.500000000000006
31
0
210
0
220
0
230
1
40
0.996195
41
-2.84488668075078
42
-1.79768912955417
0
ELLIPSE
5
15F
100
AcDbEntity
8
1
62
256
6
ByLayer
370
-1
48
1
60
0
100
AcDbEllipse
10
71.194695
20
8.489025
30
0
11
2.81416266174359E-16
21
0.240228318114594
31
0
210
0
220
0
230
1
40
0.996195
41
-0.226892802759214
42
0
0
ELLIPSE
5
160
100
AcDbEntity
8
1
62
256
6
ByLayer
370
-1
48
1
60
0
100
AcDbEllipse
10
61.70086
20
7.675988
30
0
11
1.16445136866418E-14
21
9.94022831811422
31
0
210
0
220
0
230
1
40
0.996195
41
-1.51698911975
42
-1.50098315671511
0
ELLIPSE
5
161
100
AcDbEntity
8
1
62
256
6
ByLayer
370
-1
48
1
60
0
100
AcDbEllipse
10
71.195151
20
-1.210975
30
0
11
-1.07186937277344E-14
21
-9.99999999999964
31
0
210
0
220
0
230
1
40
0.996195
41
3.14159265358979
42
-3.12558669055491
0
ELLIPSE
5
162
100
AcDbEntity
8
1
62
256
6
ByLayer
370
-1
48
1
60
0
100
AcDbEllipse
10
70.976348
20
7.786362
30
0
11
-5.35934686386771E-15
21
-5.00000000000028
31
0
210
0
220
0
230
1
40
0.996195
41
0.0440072139581041
42
0.0538072070448955
0
ELLIPSE
5
163
100
AcDbEntity
8
1
62
256
6
ByLayer
370
-1
48
1
60
0
100
AcDbEllipse
10
61.698473
20
7.724929
30
0
11
1.16445136866421E-14
21
9.9402283181145
31
0
210
0
220
0
230
1
40
0.996195
41
-1.53225055769574
42
-1.52678911283681
0
ELLIPSE
5
164
100
AcDbEntity
8
1
62
256
6
ByLayer
370
-1
48
1
60
0
100
AcDbEllipse
10
61.701315
20
7.675988
30
0
11
-1.07186937277344E-14
21
-9.99999999999964
31
0
210
0
220
0
230
1
40
0.996195
41
1.62460353383979
42
1.64060949687468
0
ELLIPSE
5
165
100
AcDbEntity
8
1
62
256
6
ByLayer
370
-1
48
1
60
0
100
AcDbEllipse
10
70.708009
20
12.779126
30
0
11
1.16445136866418E-14
21
9.94022831811422
31
0
210
0
220
0
230
1
40
0.996195
41
-3.0877854465449
42
-3.07177948351001
0
ELLIPSE
5
166
100
AcDbEntity
8
1
62
256
6
ByLayer
370
-1
48
1
60
0
100
AcDbEllipse
10
71.114973
20
3.788385
30
0
11
5.78724697506073E-15
21
4.94022831811449
31
0
210
0
220
0
230
1
40
0.996195
41
0.0160059630348785
42
0.0258059561216684
0
ELLIPSE
5
167
100
AcDbEntity
8
1
62
256
6
ByLayer
370
-1
48
1
60
0
100
AcDbEllipse
10
66.342712
20
3.119407
30
0
11
5.15706934637614E-16
21
0.440228318114594
31
0
210
0
220
0
230
1
40
0.996195
41
1.86750229963392
42
2.9146998508305
0
ELLIPSE
5
168
100
AcDbEntity
8
1
62
256
6
ByLayer
370
-1
48
1
60
0
100
AcDbEllipse
10
75.637159
20
8.213522
30
0
11
-1.07186937277348E-14
21
-9.99999999999999
31
0
210
0
220
0
230
1
40
0.996195
41
-1.54499037067321
42
-1.53588974175501
0
ELLIPSE
5
169
100
AcDbEntity
8
1
62
256
6
ByLayer
370
-1
48
1
60
0
100
AcDbEllipse
10
66.735824
20
-1.367963
30
0
11
1.16445136866421E-14
21
9.9402283181145
31
0
210
0
220
0
230
1
40
0.996195
41
0.0385457690991545
42
0.0440072139580909
0
ELLIPSE
5
16A
100
AcDbEntity
8
1
62
256
6
ByLayer
370
-1
48
1
60
0
100
AcDbEllipse
10
70.975892
20
7.786362
30
0
11
5.78724697506073E-15
21
4.94022831811449
31
0
210
0
220
0
230
1
40
0.996195
41
-3.09758543963168
42
-3.0877854465449
0
ELLIPSE
5
16B
100
AcDbEntity
8
1
62
256
6
ByLayer
370
-1
48
1
60
0
100
AcDbEllipse
10
65.974635
20
8.164533
30
0
11
2.81416266174359E-16
21
0.240228318114594
31
0
210
0
220
0
230
1
40
0.996195
41
1.34390352403567
42
1.5707963267949
0
ELLIPSE
5
16C
100
AcDbEntity
8
1
62
256
6
ByLayer
370
-1
48
1
60
0
100
AcDbEllipse
10
71.340865
20
8.352626
30
0
11
-3.21560811832048E-16
21
-0.300000000000003
31
0
210
0
220
0
230
1
40
0.996195
41
1.64060949687463
42
1.8675022996339
0
ELLIPSE
5
16D
100
AcDbEntity
8
1
62
256
6
ByLayer
370
-1
48
1
60
0
100
AcDbEllipse
10
66.517151
20
3.627196
30
0
11
-5.35934686386771E-15
21
-5.00000000000028
31
0
210
0
220
0
230
1
40
0.996195
41
-3.09758543963169
42
-3.0877854465449
0
ELLIPSE
5
16E
100
AcDbEntity
8
1
62
256
6
ByLayer
370
-1
48
1
60
0
100
AcDbEllipse
10
61.85532
20
3.249025
30
0
11
-1.07186937277344E-14
21
-9.99999999999964
31
0
210
0
220
0
230
1
40
0.996195
41
1.57079632679489
42
1.58680228982978
0
ELLIPSE
5
16F
100
AcDbEntity
8
1
62
256
6
ByLayer
370
-1
48
1
60
0
100
AcDbEllipse
10
61.85634
20
3.200036
30
0
11
-1.07186937277348E-14
21
-9.99999999999999
31
0
210
0
220
0
230
1
40
0.996195
41
1.59660228291658
42
1.60570291183479
0
ELLIPSE
5
170
100
AcDbEntity
8
1
62
256
6
ByLayer
370
-1
48
1
60
0
100
AcDbEllipse
10
66.67508
20
7.944894
30
0
11
-5.35934686386771E-15
21
-5.00000000000028
31
0
210
0
220
0
230
1
40
0.996195
41
1.614803540753
42
1.62460353383979
0
ELLIPSE
5
171
100
AcDbEntity
8
1
62
256
6
ByLayer
370
-1
48
1
60
0
100
AcDbEllipse
10
66.168767
20
8.119543
30
0
11
5.15706934637614E-16
21
0.440228318114594
31
0
210
0
220
0
230
1
40
0.996195
41
0.296705972839016
42
1.34390352403561
0
ELLIPSE
5
172
100
AcDbEntity
8
1
62
256
6
ByLayer
370
-1
48
1
60
0
100
AcDbEllipse
10
66.298348
20
12.624533
30
0
11
-1.07186937277344E-14
21
-9.99999999999964
31
0
210
0
220
0
230
1
40
0.996195
41
0
42
0.0160059630348823
0
ELLIPSE
5
173
100
AcDbEntity
8
1
62
256
6
ByLayer
370
-1
48
1
60
0
100
AcDbEllipse
10
75.794115
20
3.688629
30
0
11
1.16445136866421E-14
21
9.9402283181145
31
0
210
0
220
0
230
1
40
0.996195
41
1.60934209589405
42
1.61480354075299
0
ELLIPSE
5
174
100
AcDbEntity
8
1
62
256
6
ByLayer
370
-1
48
1
60
0
100
AcDbEllipse
10
66.152178
20
3.060932
30
0
11
2.81416266174359E-16
21
0.240228318114594
31
0
210
0
220
0
230
1
40
0.996195
41
1.64060949687468
42
1.86750229963393
0
ELLIPSE
5
175
100
AcDbEntity
8
1
62
256
6
ByLayer
370
-1
48
1
60
0
100
AcDbEllipse
10
73.712196
20
-1.83159
30
0
11
2.00000000000009
21
0
31
0
210
0
220
0
230
1
40
0.998135
41
-3.08923277501295
42
-2.6997467130969
0
ELLIPSE
5
176
100
AcDbEntity
8
1
62
256
6
ByLayer
370
-1
48
1
60
0
100
AcDbEllipse
10
68.878496
20
-2.159209
30
0
11
1.25
21
0
31
0
210
0
220
0
230
1
40
0.998135
41
1.18231861927854
42
2.92708051709958
0
ELLIPSE
5
177
100
AcDbEntity
8
1
62
256
6
ByLayer
370
-1
48
1
60
0
100
AcDbEllipse
10
70.853886
20
-3.376906
30
0
11
0.317997164281453
21
0
31
0
210
0
220
0
230
1
40
0.998135
41
-0.340738738996762
42
-0.034906585039903
0
ELLIPSE
5
178
100
AcDbEntity
8
1
62
256
6
ByLayer
370
-1
48
1
60
0
100
AcDbEllipse
10
70.840089
20
0.309511
30
0
11
0.500000000000144
21
0
31
0
210
0
220
0
230
1
40
0.998135
41
0.349065850399477
42
1.17279524366618
0
ELLIPSE
5
179
100
AcDbEntity
8
1
62
256
6
ByLayer
370
-1
48
1
60
0
100
AcDbEllipse
10
70.853886
20
-3.383011
30
0
11
-0.591202245038341
21
5.97492078288121E-16
31
0
210
0
220
0
230
1
40
0.998135
41
2.29977787734964
42
3.10668606854989
0
ELLIPSE
5
17A
100
AcDbEntity
8
1
62
256
6
ByLayer
370
-1
48
1
60
0
100
AcDbEllipse
10
70.867764
20
-2.980234
30
0
11
0.317997164281453
21
0
31
0
210
0
220
0
230
1
40
0.998135
41
-0.0349065850398988
42
0.431537460969189
0
ELLIPSE
5
17B
100
AcDbEntity
8
1
62
256
6
ByLayer
370
-1
48
1
60
0
100
AcDbEllipse
10
71.000305
20
-3.112024
30
0
11
1.00000000000004
21
0
31
0
210
0
220
0
230
1
40
0.998135
41
-0.034906585040106
42
0.441845940492531
0
ELLIPSE
5
17C
100
AcDbEntity
8
1
62
256
6
ByLayer
370
-1
48
1
60
0
100
AcDbEllipse
10
71.313934
20
-2.769058
30
0
11
-0.18160533389647
21
-0.0837824725127617
31
0
210
0
220
0
230
1
40
0.055452
41
0.498021999161653
42
1.54521955035883
0
ELLIPSE
5
17D
100
AcDbEntity
8
1
62
256
6
ByLayer
370
-1
48
1
60
0
100
AcDbEllipse
10
71.13945
20
-0.511444
30
0
11
0.49999999999999
21
0
31
0
210
0
220
0
230
1
40
0.998135
41
0.0523598775598198
42
0.349065850399575
0
ELLIPSE
5
17E
100
AcDbEntity
8
1
62
256
6
ByLayer
370
-1
48
1
60
0
100
AcDbEllipse
10
71.461611
20
-4.22672
30
0
11
0.500000000000144
21
0
31
0
210
0
220
0
230
1
40
0.998135
41
-1.22173047639538
42
-0.0349065850401069
0
ELLIPSE
5
17F
100
AcDbEntity
8
1
62
256
6
ByLayer
370
-1
48
1
60
0
100
AcDbEllipse
10
68.878496
20
-2.122269
30
0
11
1.35
21
0
31
0
210
0
220
0
230
1
40
0.998135
41
1.91754943129525
42
2.44945998222059
0
ELLIPSE
5
180
100
AcDbEntity
8
1
62
256
6
ByLayer
370
-1
48
1
60
0
100
AcDbEllipse
10
71.358667
20
-2.99124
30
0
11
-0.199877710054841
21
0.00699292665720333
31
0
210
0
220
0
230
1
40
0.061011
41
0.525733317016705
42
1.57293086821329
0
ELLIPSE
5
181
100
AcDbEntity
8
1
62
256
6
ByLayer
370
-1
48
1
60
0
100
AcDbEllipse
10
71.344789
20
-3.387912
30
0
11
-0.199877710054841
21
0.00699292665720333
31
0
210
0
220
0
230
1
40
0.061011
41
0.525733317016705
42
1.57293086821329
0
ELLIPSE
5
182
100
AcDbEntity
8
1
62
256
6
ByLayer
370
-1
48
1
60
0
100
AcDbEllipse
10
68.878496
20
-2.122269
30
0
11
1.25
21
0
31
0
210
0
220
0
230
1
40
0.998135
41
1.31249859227146
42
2.94269080533633
0
ELLIPSE
5
183
100
AcDbEntity
8
1
62
256
6
ByLayer
370
-1
48
1
60
0
100
AcDbEllipse
10
73.712196
20
-1.672864
30
0
11
-2.81352115015638
21
2.84345435664829E-15
31
0
210
0
220
0
230
1
40
0.998135
41
0.394970503341747
42
0.431537460969238
0
ELLIPSE
5
184
100
AcDbEntity
8
1
62
256
6
ByLayer
370
-1
48
1
60
0
100
AcDbEllipse
10
73.712196
20
-1.678968
30
0
11
2.64031606939949
21
0
31
0
210
0
220
0
230
1
40
0.998135
41
-3.08923277525973
42
-2.71005519262056
0
ELLIPSE
5
185
100
AcDbEntity
8
1
62
256
6
ByLayer
370
-1
48
1
60
0
100
AcDbEllipse
10
70.51751
20
-0.557758
30
0
11
-0.49120224503834
21
4.96428172779883E-16
31
0
210
0
220
0
230
1
40
0.998135
41
-3.08923277602998
42
-2.89365829183897
0
ELLIPSE
5
186
100
AcDbEntity
8
1
62
256
6
ByLayer
370
-1
48
1
60
0
100
AcDbEllipse
10
70.51751
20
-0.557758
30
0
11
-0.59120224503834
21
5.97492078288119E-16
31
0
210
0
220
0
230
1
40
0.998135
41
-3.08923277602998
42
-2.47119166742836
0
ELLIPSE
5
187
100
AcDbEntity
8
1
62
256
6
ByLayer
370
-1
48
1
60
0
100
AcDbEllipse
10
73.712196
20
-1.736964
30
0
11
2.19031606939965
21
0
31
0
210
0
220
0
230
1
40
0.998135
41
-3.08923277510136
42
-2.71005519262056
0
ELLIPSE
5
188
100
AcDbEntity
8
1
62
256
6
ByLayer
370
-1
48
1
60
0
100
AcDbEllipse
10
73.712196
20
-1.678968
30
0
11
2.54031606939949
21
0
31
0
210
0
220
0
230
1
40
0.998135
41
-3.0892327752294
42
-2.71005519262056
0
ELLIPSE
5
189
100
AcDbEntity
8
1
62
256
6
ByLayer
370
-1
48
1
60
0
100
AcDbEllipse
10
70.853886
20
-3.383011
30
0
11
-0.49120224503834
21
4.96428172779883E-16
31
0
210
0
220
0
230
1
40
0.998135
41
2.2997778773497
42
3.10668606854989
0
ELLIPSE
5
18A
100
AcDbEntity
8
1
62
256
6
ByLayer
370
-1
48
1
60
0
100
AcDbEllipse
10
70.867764
20
-2.986339
30
0
11
-0.49120224503834
21
4.96428172779883E-16
31
0
210
0
220
0
230
1
40
0.998135
41
3.10668606854989
42
-2.71005519262057
0
ELLIPSE
5
18B
100
AcDbEntity
8
1
62
256
6
ByLayer
370
-1
48
1
60
0
100
AcDbEllipse
10
70.867764
20
-2.986339
30
0
11
-0.59120224503834
21
5.97492078288119E-16
31
0
210
0
220
0
230
1
40
0.998135
41
3.10668606854989
42
-2.71005519262057
0
ELLIPSE
5
18C
100
AcDbEntity
8
1
62
256
6
ByLayer
370
-1
48
1
60
0
100
AcDbEllipse
10
71.181081
20
-3.736483
30
0
11
-0.133083669611859
21
0.149294128761454
31
0
210
0
220
0
230
1
40
0.040665
41
1.50826161297239
42
1.61638305710823
0
POINT
5
41
100
AcDbEntity
8
81
62
256
6
ByLayer
370
-1
48
1
60
0
100
AcDbPoint
10
72
20
0
30
0
39
0
210
0
220
0
230
1
50
360
0
POINT
5
43
100
AcDbEntity
8
80
62
256
6
ByLayer
370
-1
48
1
60
0
100
AcDbPoint
10
0
20
0
30
0
39
0
210
0
220
0
230
1
50
360
0
SPLINE
5
18D
100
AcDbEntity
8
1
62
256
6
ByLayer
370
-1
48
1
60
0
100
AcDbSpline
70
4
71
3
72
13
73
9
40
0
40
0
40
0
40
0
40
0.0981281036394398
40
0.306416864116939
40
0.514123450574814
40
0.721112786315415
40
0.927452176973764
40
1
40
1
40
1
40
1
41
1
10
67.660258882901
20
-1.86889678285587
30
0
41
1
10
67.6730892609499
20
-1.81836162408038
30
0
41
1
10
67.7255025642938
20
-1.66273025508176
30
0
41
1
10
67.8535146295452
20
-1.42087406135491
30
0
41
1
10
68.0858462577502
20
-1.17881807166441
30
0
41
1
10
68.3722368535961
20
-1.00602270509421
30
0
41
1
10
68.6257731301846
20
-0.934018495797545
30
0
41
1
10
68.7738993528019
20
-0.919414922563675
30
0
41
1
10
68.8128614820956
20
-0.917359682163408
30
0
0
SPLINE
5
18E
100
AcDbEntity
8
1
62
256
6
ByLayer
370
-1
48
1
60
0
100
AcDbSpline
70
4
71
3
72
10
73
6
40
0
40
0
40
0
40
0
40
0.177508561998409
40
0.734232776728164
40
1
40
1
40
1
40
1
41
1
10
68.8128614820956
20
-0.917359682163408
30
0
41
1
10
68.8479895995645
20
-0.915533540231536
30
0
41
1
10
68.992527255013
20
-0.913980812888411
30
0
41
1
10
69.1899729515577
20
-0.946342749688171
30
0
41
1
10
69.342462449083
20
-1.00329182509492
30
0
41
1
10
69.3903514731779
20
-1.02467928298347
30
0
0
SPLINE
5
18F
100
AcDbEntity
8
1
62
256
6
ByLayer
370
-1
48
1
60
0
100
AcDbSpline
70
4
71
3
72
18
73
14
40
0
40
0
40
0
40
0
40
0.104288411812726
40
0.211035804596859
40
0.318437630913732
40
0.424622672994238
40
0.529078054822663
40
0.660590094770553
40
0.784522464376772
40
0.841276820983885
40
0.894505270586201
40
0.946061956594822
40
1
40
1
40
1
40
1
41
1
10
16
20
8.44999999999996
30
0
41
1
10
15.5077867168331
20
8.45074505529905
30
0
41
1
10
14.5306937613682
20
8.53983016823423
30
0
41
1
10
13.0906678880694
20
8.94703443669127
30
0
41
1
10
11.7485103781151
20
9.61880100628019
30
0
41
1
10
10.5593658239938
20
10.5202545990116
30
0
41
1
10
9.49147949394478
20
11.7148204221628
30
0
41
1
10
8.5478963998591
20
13.1027907310033
30
0
41
1
10
7.73921728676316
20
14.3155197280808
30
0
41
1
10
7.01204195959789
20
15.1322069191917
30
0
41
1
10
6.42522991935135
20
15.6104181656889
30
0
41
1
10
5.74383287633106
20
15.9312775897306
30
0
41
1
10
5.25930645608278
20
15.9992887537437
30
0
41
1
10
5.00000000000003
20
16
30
0
0
SPLINE
5
190
100
AcDbEntity
8
1
62
256
6
ByLayer
370
-1
48
1
60
0
100
AcDbSpline
70
4
71
3
72
18
73
14
40
0
40
0
40
0
40
0
40
0.0539380434051781
40
0.105494729413799
40
0.158723179016115
40
0.215477535623228
40
0.339409905229447
40
0.470921945177337
40
0.575377327005762
40
0.681562369086269
40
0.78896419540314
40
0.895711588187274
40
1
40
1
40
1
40
1
41
1
10
4.99999999999997
20
-16
30
0
41
1
10
5.25930645608273
20
-15.9992887537436
30
0
41
1
10
5.743832876331
20
-15.9312775897306
30
0
41
1
10
6.4252299193513
20
-15.6104181656889
30
0
41
1
10
7.01204195959784
20
-15.1322069191918
30
0
41
1
10
7.73921728676308
20
-14.3155197280808
30
0
41
1
10
8.54789639985904
20
-13.1027907310032
30
0
41
1
10
9.49147949394478
20
-11.7148204221628
30
0
41
1
10
10.5593658239938
20
-10.5202545990116
30
0
41
1
10
11.7485103781151
20
-9.61880100628019
30
0
41
1
10
13.0906678880694
20
-8.94703443669133
30
0
41
1
10
14.5306937613682
20
-8.53983016823429
30
0
41
1
10
15.5077867168331
20
-8.45074505529911
30
0
41
1
10
16
20
-8.45000000000002
30
0
0
SPLINE
5
191
100
AcDbEntity
8
1
62
256
6
ByLayer
370
-1
48
1
60
0
100
AcDbSpline
70
4
71
3
72
20
73
16
40
0
40
0
40
0
40
0
40
0.0347374990023921
40
0.120502631827193
40
0.206067200958317
40
0.291145710003053
40
0.37562889856498
40
0.459578796341645
40
0.543191442056246
40
0.626736727364867
40
0.710411131649121
40
0.79445610568198
40
0.87903773660567
40
0.964188749141068
40
1
40
1
40
1
40
1
41
1
10
68.8654913402318
20
6.94583548345591
30
0
41
1
10
68.9100078417648
20
6.95142541590991
30
0
41
1
10
69.0631093486994
20
6.96000185113917
30
0
41
1
10
69.3237119356793
20
6.89242828412594
30
0
41
1
10
69.6175702007446
20
6.73980366005989
30
0
41
1
10
69.8608010525923
20
6.51037927771503
30
0
41
1
10
70.0356844911733
20
6.2258969621403
30
0
41
1
10
70.1303417886885
20
5.90541853347017
30
0
41
1
10
70.1386762373661
20
5.57191280892638
30
0
41
1
10
70.0606768923602
20
5.24846797865226
30
0
41
1
10
69.9022168780721
20
4.95723711056212
30
0
41
1
10
69.6742648032615
20
4.71788881484119
30
0
41
1
10
69.392573613322
20
4.54662750490968
30
0
41
1
10
69.1365367613202
20
4.47310503695212
30
0
41
1
10
68.9832743875123
20
4.45916034920623
30
0
41
1
10
68.9373441515957
20
4.45753027617084
30
0
0
SPLINE
5
192
100
AcDbEntity
8
1
62
256
6
ByLayer
370
-1
48
1
60
0
100
AcDbSpline
70
4
71
3
72
14
73
10
40
0
40
0
40
0
40
0
40
0.25
40
0.25
40
0.5
40
0.5
40
0.75
40
0.75
40
1
40
1
40
1
40
1
41
1
10
65.4952310401404
20
8.44994072830568
30
0
41
1
10
65.4993844297117
20
8.45011878622725
30
0
41
1
10
65.5090615288179
20
8.44989091706375
30
0
41
1
10
65.5390630677061
20
8.44876225958672
30
0
41
1
10
65.5596867020865
20
8.44784640296805
30
0
41
1
10
65.6097430283248
20
8.44563172868573
30
0
41
1
10
65.6396028611753
20
8.44431606202218
30
0
41
1
10
65.7075471786122
20
8.4416052624693
30
0
41
1
10
65.7450007328281
20
8.44023522594148
30
0
41
1
10
65.7859810722507
20
8.43898769213007
30
0
0
SPLINE
5
193
100
AcDbEntity
8
1
62
256
6
ByLayer
370
-1
48
1
60
0
100
AcDbSpline
70
4
71
3
72
10
73
6
40
0
40
0
40
0
40
0
40
0.5
40
0.5
40
1
40
1
40
1
40
1
41
1
10
63.8957587523451
20
2.48404801625392
30
0
41
1
10
63.9791409367637
20
2.47172281293643
30
0
41
1
10
64.0621995509346
20
2.46131177940967
30
0
41
1
10
64.2275676544334
20
2.4442314287748
30
0
41
1
10
64.309866365996
20
2.43757806267257
30
0
41
1
10
64.3907120859011
20
2.43278689232278
30
0
0
SPLINE
5
194
100
AcDbEntity
8
1
62
256
6
ByLayer
370
-1
48
1
60
0
100
AcDbSpline
70
4
71
2
72
6
73
3
40
0
40
0
40
0
40
1
40
1
40
1
41
1
10
15.2511599140942
20
-6.38819767451037
30
0
41
1
10
15.2511599140942
20
-6.66941643412159
30
0
41
1
10
15.2511599140942
20
-6.95063519373281
30
0
0
SPLINE
5
195
100
AcDbEntity
8
1
62
256
6
ByLayer
370
-1
48
1
60
0
100
AcDbSpline
70
4
71
4
72
10
73
5
40
0
40
0
40
0
40
0
40
0
40
1
40
1
40
1
40
1
40
1
41
0.996339229109049
10
59.8021971762152
20
2.38407036147073
30
0
41
0.994686110152654
10
59.9178668086006
20
2.92314460794967
30
0
41
0.994857654093291
10
60.0026310744737
20
3.57354771566817
30
0
41
1
10
60.0400704143912
20
4.27445302745397
30
0
41
1
10
60.0400704143912
20
4.92999999999992
30
0
0
SPLINE
5
196
100
AcDbEntity
8
1
62
256
6
ByLayer
370
-1
48
1
60
0
100
AcDbSpline
70
4
71
3
72
18
73
14
40
0
40
0
40
0
40
0
40
0.170065468147075
40
0.170065468147075
40
0.446710312098051
40
0.446710312098051
40
0.585032734073539
40
0.585032734073539
40
0.654193945061283
40
0.654193945061283
40
0.723355156049027
40
0.723355156049027
40
1
40
1
40
1
40
1
41
1
10
36.1957882159291
20
8.449960769759
30
0
41
1
10
37.1380609876127
20
8.45002779823116
30
0
41
1
10
38.078681796344
20
8.42441666503703
30
0
41
1
10
40.54849916273
20
8.29014010120378
30
0
41
1
10
42.0772993428486
20
8.13961050568588
30
0
41
1
10
44.3772944672941
20
7.81757867461002
30
0
41
1
10
45.1450724419711
20
7.69422181597787
30
0
41
1
10
46.2991867915029
20
7.48571313257116
30
0
41
1
10
46.6842978186589
20
7.41229449842888
30
0
41
1
10
47.4554987371266
20
7.25776039283124
30
0
41
1
10
47.8418581178479
20
7.17658306379835
30
0
41
1
10
49.7716949903282
20
6.75294155952761
30
0
41
1
10
51.3111541276246
20
6.35683049640215
30
0
41
1
10
52.8518126947817
20
5.91285565683782
30
0
0
SPLINE
5
197
100
AcDbEntity
8
1
62
256
6
ByLayer
370
-1
48
1
60
0
100
AcDbSpline
70
4
71
3
72
12
73
8
40
0
40
0
40
0
40
0
40
0.500000000000002
40
0.500000000000002
40
0.750000000000001
40
0.750000000000001
40
1
40
1
40
1
40
1
41
1
10
61.1589467626665
20
4.92999999999992
30
0
41
1
10
61.1110627774175
20
5.02721008463885
30
0
41
1
10
61.0675651537913
20
5.12708939236487
30
0
41
1
10
61.0181506360245
20
5.28533364503471
30
0
41
1
10
61.0043594229349
20
5.33994142985779
30
0
41
1
10
60.9854241800263
20
5.4502531227744
30
0
41
1
10
60.9802155518527
20
5.50611011840252
30
0
41
1
10
60.9802155518527
20
5.56281810128658
30
0
0
SPLINE
5
198
100
AcDbEntity
8
1
62
256
6
ByLayer
370
-1
48
1
60
0
100
AcDbSpline
70
4
71
3
72
14
73
10
40
0
40
0
40
0
40
0
40
0.25
40
0.25
40
0.5
40
0.5
40
0.75
40
0.75
40
1
40
1
40
1
40
1
41
1
10
7.46817747888488
20
3.42972631349431
30
0
41
1
10
7.41003709379754
20
3.60995591594983
30
0
41
1
10
7.35821726601804
20
3.78978083081543
30
0
41
1
10
7.26742973104385
20
4.14692990172838
30
0
41
1
10
7.22844778189796
20
4.32426111082665
30
0
41
1
10
7.16447598602238
20
4.67416196600743
30
0
41
1
10
7.13942892684091
20
4.84781737330587
30
0
41
1
10
7.10665533246043
20
5.17791967241948
30
0
41
1
10
7.09870355596328
20
5.3351029467853
30
0
41
1
10
7.10017131892747
20
5.48292093336596
30
0
0
SPLINE
5
199
100
AcDbEntity
8
1
62
256
6
ByLayer
370
-1
48
1
60
0
100
AcDbSpline
70
4
71
3
72
40
73
36
40
0
40
0
40
0
40
0
40
0.0216437308736091
40
0.0606621008054898
40
0.0996804707373705
40
0.138698840669251
40
0.177717210601132
40
0.216735580533013
40
0.255753950464894
40
0.275263135430834
40
0.294772320396774
40
0.333790690328655
40
0.353299875294595
40
0.372809060260536
40
0.411827430192416
40
0.450845800124298
40
0.489864170056178
40
0.509373355022119
40
0.528882539988059
40
0.538637132471029
40
0.548391724953999
40
0.567900909919939
40
0.60691927985182
40
0.645937649783701
40
0.684956019715581
40
0.723974389647462
40
0.762992759579343
40
0.802011129511224
40
0.841029499443104
40
0.880047869374985
40
0.919066239306866
40
0.958084609238747
40
0.977593794204688
40
0.997102979170627
40
1
40
1
40
1
40
1
41
1
10
11.2049702648328
20
7.88555906858824
30
0
41
1
10
11.1660053429213
20
7.86329719033432
30
0
41
1
10
11.0567439800255
20
7.79995776152302
30
0
41
1
10
10.8772515700877
20
7.69165452892818
30
0
41
1
10
10.667345873294
20
7.55854915567377
30
0
41
1
10
10.4591151970338
20
7.41997471378065
30
0
41
1
10
10.2533417883828
20
7.27647247760538
30
0
41
1
10
10.0508078944171
20
7.12858372150461
30
0
41
1
10
9.88533184952254
20
7.00218753738514
30
0
41
1
10
9.75529389635656
20
6.89947718520975
30
0
41
1
10
9.6269229246507
20
6.79580908148279
30
0
41
1
10
9.50121001457558
20
6.69086112798087
30
0
41
1
10
9.3784703450122
20
6.58494687980883
30
0
41
1
10
9.25779902475401
20
6.47849317538561
30
0
41
1
10
9.11099963368585
20
6.34461095225231
30
0
41
1
10
8.94182111299514
20
6.18327657749882
30
0
41
1
10
8.80693924359369
20
6.0487249428451
30
0
41
1
10
8.70286365118594
20
5.94129390178796
30
0
41
1
10
8.63948687714469
20
5.87434668005312
30
0
41
1
10
8.58983254758968
20
5.82097295070986
30
0
41
1
10
8.54071884180959
20
5.76755355522704
30
0
41
1
10
8.45577572457648
20
5.6735077818214
30
0
41
1
10
8.33743449585475
20
5.5375865923763
30
0
41
1
10
8.20091407323613
20
5.37249444796322
30
0
41
1
10
8.07056202373442
20
5.20594100472007
30
0
41
1
10
7.94702174153721
20
5.03851856473483
30
0
41
1
10
7.83093662083215
20
4.87081943009545
30
0
41
1
10
7.72287546698371
20
4.70347572840967
30
0
41
1
10
7.62340708535643
20
4.53711958728522
30
0
41
1
10
7.53299235039091
20
4.37239401004194
30
0
41
1
10
7.45209213652788
20
4.20994199999976
30
0
41
1
10
7.39287542491107
20
4.07697789421684
30
0
41
1
10
7.35058495498924
20
3.97236490909268
30
0
41
1
10
7.3297052175769
20
3.9168552764271
30
0
41
1
10
7.31911194493384
20
3.8874066674031
30
0
41
1
10
7.31775179259333
20
3.88360288768718
30
0
0
SPLINE
5
19A
100
AcDbEntity
8
1
62
256
6
ByLayer
370
-1
48
1
60
0
100
AcDbSpline
70
4
71
3
72
74
73
70
40
-0.0312499999999968
40
-0.0312499999999968
40
0
40
0
40
0.0312500000000074
40
0.0312500000000074
40
0.0468750000000115
40
0.0468750000000115
40
0.0625000000000156
40
0.0625000000000156
40
0.093750000000022
40
0.093750000000022
40
0.125000000000028
40
0.125000000000028
40
0.156250000000035
40
0.156250000000035
40
0.187500000000041
40
0.187500000000041
40
0.218750000000048
40
0.218750000000048
40
0.250000000000054
40
0.250000000000054
40
0.281250000000061
40
0.281250000000061
40
0.312500000000067
40
0.312500000000067
40
0.328125000000068
40
0.328125000000068
40
0.343750000000068
40
0.343750000000068
40
0.375000000000065
40
0.375000000000065
40
0.406250000000062
40
0.406250000000062
40
0.437500000000059
40
0.437500000000059
40
0.468750000000055
40
0.468750000000055
40
0.500000000000052
40
0.500000000000052
40
0.531250000000049
40
0.531250000000049
40
0.562500000000045
40
0.562500000000045
40
0.593750000000042
40
0.593750000000042
40
0.625000000000039
40
0.625000000000039
40
0.656250000000036
40
0.656250000000036
40
0.687500000000032
40
0.687500000000032
40
0.718750000000029
40
0.718750000000029
40
0.750000000000026
40
0.750000000000026
40
0.781250000000023
40
0.781250000000023
40
0.812500000000019
40
0.812500000000019
40
0.843750000000016
40
0.843750000000016
40
0.875000000000013
40
0.875000000000013
40
0.90625000000001
40
0.90625000000001
40
0.937500000000006
40
0.937500000000006
40
0.968750000000003
40
0.968750000000003
40
1
40
1
40
1.03125000000001
40
1.03125000000001
41
1
10
67.5339471583984
20
-1.72378573551163
30
0
41
1
10
67.5257825028523
20
-1.56578599507239
30
0
41
1
10
67.5292752349322
20
-1.48743974232735
30
0
41
1
10
67.5456676480865
20
-1.37089614320558
30
0
41
1
10
67.5530034792334
20
-1.3322123273359
30
0
41
1
10
67.5715417522006
20
-1.25518976700613
30
0
41
1
10
67.5828129177842
20
-1.21670510326504
30
0
41
1
10
67.6218389714647
20
-1.10423282329754
30
0
41
1
10
67.6548680074732
20
-1.03248969178645
30
0
41
1
10
67.7350041816011
20
-0.895571897414698
30
0
41
1
10
67.7826740415914
20
-0.829967776055554
30
0
41
1
10
67.8885148731717
20
-0.711283429469347
30
0
41
1
10
67.946961146049
20
-0.657484240043402
30
0
41
1
10
68.0751817060113
20
-0.561307927570937
30
0
41
1
10
68.1442970143488
20
-0.519635554666507
30
0
41
1
10
68.2879887231254
20
-0.451467924568874
30
0
41
1
10
68.3637271797925
20
-0.424365425040264
30
0
41
1
10
68.5197630204058
20
-0.385821148198062
30
0
41
1
10
68.5985878906131
20
-0.374618297159515
30
0
41
1
10
68.7578100456462
20
-0.36794507575911
30
0
41
1
10
68.8390163802341
20
-0.372710029742166
30
0
41
1
10
68.9965725457391
20
-0.398034869632795
30
0
41
1
10
69.0734788052828
20
-0.418412527233613
30
0
41
1
10
69.1859921460919
20
-0.460697154371758
30
0
41
1
10
69.2231399333008
20
-0.476841993896784
30
0
41
1
10
69.2948491533924
20
-0.512400986469515
30
0
41
1
10
69.3296028796685
20
-0.531872152589813
30
0
41
1
10
69.4306261688155
20
-0.595253803510275
30
0
41
1
10
69.4940043387951
20
-0.644387562581358
30
0
41
1
10
69.6104068334141
20
-0.755100745263832
30
0
41
1
10
69.6621825135215
20
-0.815369628003879
30
0
41
1
10
69.7533642323088
20
-0.945297480323546
30
0
41
1
10
69.7930364262967
20
-1.01577957273494
30
0
41
1
10
69.8568713353345
20
-1.1609570303944
30
0
41
1
10
69.8814164621967
20
-1.23589991782743
30
0
41
1
10
69.9159412151055
20
-1.39037708890788
30
0
41
1
10
69.9256590825051
20
-1.46961013706746
30
0
41
1
10
69.9298835365791
20
-1.62607173447071
30
0
41
1
10
69.9245929002008
20
-1.70416339574473
30
0
41
1
10
69.8989568085271
20
-1.85975440742592
30
0
41
1
10
69.8790010557913
20
-1.93497176041873
30
0
41
1
10
69.8254901852994
20
-2.08055813071874
30
0
41
1
10
69.7915289414945
20
-2.15155881741242
30
0
41
1
10
69.7110924185573
20
-2.2852527585778
30
0
41
1
10
69.6650355298248
20
-2.3475690237243
30
0
41
1
10
69.561180367773
20
-2.46326367763572
30
0
41
1
10
69.5026333997133
20
-2.51711421940161
30
0
41
1
10
69.3774433231816
20
-2.61136364049935
30
0
41
1
10
69.3106803799219
20
-2.65216119812882
30
0
41
1
10
69.1684194628431
20
-2.72069808389335
30
0
41
1
10
69.0924450148395
20
-2.74834703772132
30
0
41
1
10
68.9387409464723
20
-2.78715246611759
30
0
41
1
10
68.8601672248582
20
-2.79882202312945
30
0
41
1
10
68.6993831502237
20
-2.80590120992002
30
0
41
1
10
68.6191729372182
20
-2.80111298137078
30
0
41
1
10
68.4622235553046
20
-2.7756917759348
30
0
41
1
10
68.384103070665
20
-2.75469291382231
30
0
41
1
10
68.2355726969019
20
-2.69815858243123
30
0
41
1
10
68.1651048530367
20
-2.66286598823149
30
0
41
1
10
68.0314621244186
20
-2.57860495689045
30
0
41
1
10
67.9688386854846
20
-2.52977951942413
30
0
41
1
10
67.8555989632765
20
-2.42255137011023
30
0
41
1
10
67.80406006825
20
-2.36338701085134
30
0
41
1
10
67.7129139795218
20
-2.2359015782329
30
0
41
1
10
67.6740401506247
20
-2.16875763783491
30
0
41
1
10
67.6091503275253
20
-2.02780467651604
30
0
41
1
10
67.5830048619974
20
-1.95328519288324
30
0
41
1
10
67.5454948995516
20
-1.80128516968802
30
0
41
1
10
67.5339471583984
20
-1.72378573551163
30
0
41
1
10
67.5257825028523
20
-1.56578599507239
30
0
0
SPLINE
5
19B
100
AcDbEntity
8
1
62
256
6
ByLayer
370
-1
48
1
60
0
100
AcDbSpline
70
4
71
3
72
8
73
4
40
0
40
0
40
0
40
0
40
1
40
1
40
1
40
1
41
1
10
62.9064140568707
20
2.72484771375491
30
0
41
1
10
63.2203023993
20
2.6167729116525
30
0
41
1
10
63.5482481950385
20
2.53541556321423
30
0
41
1
10
63.8957587523451
20
2.48404801625392
30
0
0
SPLINE
5
19C
100
AcDbEntity
8
1
62
256
6
ByLayer
370
-1
48
1
60
0
100
AcDbSpline
70
4
71
2
72
6
73
3
40
0
40
0
40
0
40
1
40
1
40
1
41
0.500000012986817
10
64.7673304626641
20
1.6402459368947
30
0
41
0.499999987013183
10
64.7689246427778
20
1.6407042051187
30
0
41
0.500000012986817
10
64.770519293465
20
1.64116312286384
30
0
0
SPLINE
5
19D
100
AcDbEntity
8
1
62
256
6
ByLayer
370
-1
48
1
60
0
100
AcDbSpline
70
4
71
4
72
10
73
5
40
0
40
0
40
0
40
0
40
0
40
1
40
1
40
1
40
1
40
1
41
1
10
60.0400704143912
20
4.92999999999992
30
0
41
1
10
60.040070414405
20
5.79069475634719
30
0
41
1
10
60.0400704144146
20
6.65138951269449
30
0
41
1
10
60.0400704144214
20
7.51208426904176
30
0
41
1
10
60.0400704144262
20
8.37277902538906
30
0
0
SPLINE
5
19E
100
AcDbEntity
8
1
62
256
6
ByLayer
370
-1
48
1
60
0
100
AcDbSpline
70
4
71
3
72
8
73
4
40
0
40
0
40
0
40
0
40
1
40
1
40
1
40
1
41
1
10
64.2561495298375
20
-8.44174296086413
30
0
41
1
10
64.4455022227505
20
-8.44402130358549
30
0
41
1
10
64.6311713979556
20
-8.44633328808754
30
0
41
1
10
64.81315189442
20
-8.44795084245536
30
0
0
SPLINE
5
19F
100
AcDbEntity
8
1
62
256
6
ByLayer
370
-1
48
1
60
0
100
AcDbSpline
70
4
71
3
72
22
73
18
40
0
40
0
40
0
40
0
40
0.125
40
0.125
40
0.25
40
0.25
40
0.375
40
0.375
40
0.5
40
0.5
40
0.625
40
0.625
40
0.75
40
0.75
40
0.875
40
0.875
40
1
40
1
40
1
40
1
41
1
10
65.850213515097
20
2.45698955559328
30
0
41
1
10
65.8553465809761
20
2.45698955559328
30
0
41
1
10
65.8501136032106
20
2.46309863733447
30
0
41
1
10
65.8245190984367
20
2.48577576343533
30
0
41
1
10
65.8050260740784
20
2.50177218146067
30
0
41
1
10
65.7590791232913
20
2.54172268972744
30
0
41
1
10
65.732710085271
20
2.5656184751528
30
0
41
1
10
65.6781493954798
20
2.6195824213296
30
0
41
1
10
65.649685609479
20
2.64984484660752
30
0
41
1
10
65.5920663283335
20
2.71762059588144
30
0
41
1
10
65.563061799284
20
2.75501291821951
30
0
41
1
10
65.5073660157523
20
2.83532984335326
30
0
41
1
10
65.4804250411925
20
2.87851296893302
30
0
41
1
10
65.4291689859367
20
2.972042779567
30
0
41
1
10
65.4049496823113
20
3.02242410619729
30
0
41
1
10
65.3621643978616
20
3.1262661998496
30
0
41
1
10
65.3432619314285
20
3.18028278636461
30
0
41
1
10
65.3270936283399
20
3.23669552505521
30
0
0
SPLINE
5
1A0
100
AcDbEntity
8
1
62
256
6
ByLayer
370
-1
48
1
60
0
100
AcDbSpline
70
4
71
3
72
34
73
30
40
0
40
0
40
0
40
0
40
0.124999999999987
40
0.124999999999987
40
0.249999999999975
40
0.249999999999975
40
0.312499999999977
40
0.312499999999977
40
0.374999999999979
40
0.374999999999979
40
0.437499999999982
40
0.437499999999982
40
0.468749999999983
40
0.468749999999983
40
0.499999999999984
40
0.499999999999984
40
0.531249999999985
40
0.531249999999985
40
0.562499999999986
40
0.562499999999986
40
0.624999999999988
40
0.624999999999988
40
0.68749999999999
40
0.68749999999999
40
0.749999999999993
40
0.749999999999993
40
0.874999999999996
40
0.874999999999996
40
1
40
1
40
1
40
1
41
1
10
70.654940391469
20
-5.58293820099553
30
0
41
1
10
70.5598309012256
20
-5.59712578332901
30
0
41
1
10
70.4649846273758
20
-5.61274680052836
30
0
41
1
10
70.2771252320266
20
-5.64832505193306
30
0
41
1
10
70.1839879481901
20
-5.66818100700402
30
0
41
1
10
70.0466678248797
20
-5.70413684156171
30
0
41
1
10
70.0013708379988
20
-5.71715570140384
30
0
41
1
10
69.9130058510011
20
-5.74635566852496
30
0
41
1
10
69.8696888954864
20
-5.76251219272123
30
0
41
1
10
69.7876977555363
20
-5.80091974769766
30
0
41
1
10
69.7485912385652
20
-5.82298787450699
30
0
41
1
10
69.7050808973
20
-5.86508357673293
30
0
41
1
10
69.6933139955384
20
-5.8808021579672
30
0
41
1
10
69.6814130088077
20
-5.91498114164213
30
0
41
1
10
69.681885610888
20
-5.93276013995404
30
0
41
1
10
69.6943672195726
20
-5.96619830807265
30
0
41
1
10
69.7059856223437
20
-5.98175772846699
30
0
41
1
10
69.7339510769552
20
-6.00964698649818
30
0
41
1
10
69.7506282681617
20
-6.02238662016663
30
0
41
1
10
69.8034310815856
20
-6.05714370125108
30
0
41
1
10
69.8427697883154
20
-6.07641815072176
30
0
41
1
10
69.9249817256936
20
-6.11163516911006
30
0
41
1
10
69.9677062208467
20
-6.12729247757113
30
0
41
1
10
70.0540159787704
20
-6.15608861237283
30
0
41
1
10
70.0978224814805
20
-6.1692701750882
30
0
41
1
10
70.2305264590885
20
-6.20641883187957
30
0
41
1
10
70.3206840444166
20
-6.22803546604175
30
0
41
1
10
70.5028771947589
20
-6.26777667222535
30
0
41
1
10
70.5950300682965
20
-6.28585279234312
30
0
41
1
10
70.6876150963453
20
-6.30268151006146
30
0
0
SPLINE
5
1A1
100
AcDbEntity
8
1
62
256
6
ByLayer
370
-1
48
1
60
0
100
AcDbSpline
70
4
71
3
72
14
73
10
40
0
40
0
40
0
40
0
40
0.500000000000002
40
0.500000000000002
40
0.625000000000001
40
0.625000000000001
40
0.750000000000001
40
0.750000000000001
40
1
40
1
40
1
40
1
41
1
10
14.3599635326165
20
6.56703440158512
30
0
41
1
10
13.7996746563748
20
6.75421692608796
30
0
41
1
10
13.2508983824959
20
6.94089214352027
30
0
41
1
10
12.5882229516843
20
7.20751097802523
30
0
41
1
10
12.4568353742312
20
7.26244126194419
30
0
41
1
10
12.1965386198713
20
7.37620956384123
30
0
41
1
10
12.0673321544021
20
7.435192909683
30
0
41
1
10
11.6863625976903
20
7.6177445612399
30
0
41
1
10
11.4412140912943
20
7.74686269080755
30
0
41
1
10
11.2049702648779
20
7.88555906861399
30
0
0
SPLINE
5
1A2
100
AcDbEntity
8
1
62
256
6
ByLayer
370
-1
48
1
60
0
100
AcDbSpline
70
4
71
3
72
20
73
16
40
0
40
0
40
0
40
0
40
0.0526559564067606
40
0.0526559564067606
40
0.210546630338967
40
0.210546630338967
40
0.368437304271174
40
0.368437304271174
40
0.52632797820338
40
0.52632797820338
40
0.684218652135587
40
0.684218652135587
40
0.842109326067794
40
0.842109326067794
40
1
40
1
40
1
40
1
41
1
10
53.6186365630433
20
5.63761907659992
30
0
41
1
10
53.6294502524871
20
5.65138154044985
30
0
41
1
10
53.6405622626083
20
5.66492900031173
30
0
41
1
10
53.6861815598127
20
5.71824328878395
30
0
41
1
10
53.7233851447677
20
5.75657564880845
30
0
41
1
10
53.8017073628293
20
5.8275353584533
30
0
41
1
10
53.8427214077523
20
5.86015781790437
30
0
41
1
10
53.9285130474471
20
5.91961125597044
30
0
41
1
10
53.9732890574194
20
5.94644456928586
30
0
41
1
10
54.066990874832
20
5.99374641929882
30
0
41
1
10
54.1150353586033
20
6.01371599592448
30
0
41
1
10
54.2122556979325
20
6.04573698297841
30
0
41
1
10
54.2616442902168
20
6.05784084747714
30
0
41
1
10
54.3619298415695
20
6.07466247500696
30
0
41
1
10
54.4128428787874
20
6.07936025644221
30
0
41
1
10
54.4635010224265
20
6.08163538274115
30
0
0
SPLINE
5
1A3
100
AcDbEntity
8
1
62
256
6
ByLayer
370
-1
48
1
60
0
100
AcDbSpline
70
4
71
3
72
8
73
4
40
0
40
0
40
0
40
0
40
1
40
1
40
1
40
1
41
1
10
15.4902122576282
20
-6.42352541394271
30
0
41
1
10
15.4105795393054
20
-6.4142588037206
30
0
41
1
10
15.330906079706
20
-6.40249009305617
30
0
41
1
10
15.2511599140941
20
-6.38819175381025
30
0
0
SPLINE
5
1A4
100
AcDbEntity
8
1
62
256
6
ByLayer
370
-1
48
1
60
0
100
AcDbSpline
70
4
71
3
72
20
73
16
40
0
40
0
40
0
40
0
40
0.250000000000002
40
0.250000000000002
40
0.375000000000002
40
0.375000000000002
40
0.437500000000003
40
0.437500000000003
40
0.500000000000003
40
0.500000000000003
40
0.750000000000001
40
0.750000000000001
40
0.875
40
0.875
40
1
40
1
40
1
40
1
41
1
10
11.7564745296658
20
-5.88061976738408
30
0
41
1
10
11.9373017214035
20
-6.07959815570206
30
0
41
1
10
12.1496001072845
20
-6.23145936549327
30
0
41
1
10
12.5135071393641
20
-6.4158437804395
30
0
41
1
10
12.6424470057169
20
-6.46991656324508
30
0
41
1
10
12.8476390487805
20
-6.54237125112618
30
0
41
1
10
12.9179511146357
20
-6.56504438244102
30
0
41
1
10
13.0609934231912
20
-6.60743845210814
30
0
41
1
10
13.133908180787
20
-6.62722680727529
30
0
41
1
10
13.5054384353064
20
-6.7202336514338
30
0
41
1
10
13.8246790790395
20
-6.77596368488736
30
0
41
1
10
14.3392432184118
20
-6.84794380841765
30
0
41
1
10
14.5164222606264
20
-6.8698770256421
30
0
41
1
10
14.8776120371678
20
-6.91138434570058
30
0
41
1
10
15.0622633015027
20
-6.93104661015829
30
0
41
1
10
15.2511599138988
20
-6.95063519370248
30
0
0
SPLINE
5
1A5
100
AcDbEntity
8
1
62
256
6
ByLayer
370
-1
48
1
60
0
100
AcDbSpline
70
4
71
3
72
10
73
6
40
0
40
0
40
0
40
0
40
0.5
40
0.5
40
1
40
1
40
1
40
1
41
1
10
7.46817747888247
20
3.42972631350128
30
0
41
1
10
7.50837727980263
20
3.30511079663171
30
0
41
1
10
7.55255886087903
20
3.18296319235998
30
0
41
1
10
7.64854545680782
20
2.94544847642541
30
0
41
1
10
7.70045439151897
20
2.82975064635915
30
0
41
1
10
7.75647456526374
20
2.71703835340617
30
0
0
SPLINE
5
1A6
100
AcDbEntity
8
1
62
256
6
ByLayer
370
-1
48
1
60
0
100
AcDbSpline
70
4
71
3
72
10
73
6
40
0
40
0
40
0
40
0
40
0.5
40
0.5
40
1
40
1
40
1
40
1
41
1
10
62.399672043123
20
2.99932675047034
30
0
41
1
10
62.469625234542
20
2.938300375507
30
0
41
1
10
62.5484111022496
20
2.88664976248182
30
0
41
1
10
62.7192609938227
20
2.79614527193598
30
0
41
1
10
62.8113554958147
20
2.75757729872376
30
0
41
1
10
62.9064140568707
20
2.72484771375491
30
0
0
SPLINE
5
1A7
100
AcDbEntity
8
1
62
256
6
ByLayer
370
-1
48
1
60
0
100
AcDbSpline
70
4
71
3
72
14
73
10
40
0
40
0
40
0
40
0
40
0.0705200632870482
40
0.0705200632870482
40
0.380346708858032
40
0.380346708858032
40
0.690173354429016
40
0.690173354429016
40
1
40
1
40
1
40
1
41
1
10
70.7510345935373
20
2.76927763242065
30
0
41
1
10
70.750562367147
20
2.76185902332412
30
0
41
1
10
70.7500607031065
20
2.75464449960592
30
0
41
1
10
70.7472232464136
20
2.7168257145951
30
0
41
1
10
70.7443818102089
20
2.6898958309315
30
0
41
1
10
70.7382564487655
20
2.64684356324068
30
0
41
1
10
70.7349104802245
20
2.63017490062603
30
0
41
1
10
70.7279728246314
20
2.60775453073921
30
0
41
1
10
70.7244412645252
20
2.60209765543928
30
0
41
1
10
70.7209017498997
20
2.60206493974536
30
0
0
SPLINE
5
1A8
100
AcDbEntity
8
1
62
256
6
ByLayer
370
-1
48
1
60
0
100
AcDbSpline
70
4
71
3
72
16
73
12
40
0
40
0
40
0
40
0
40
0.493414431846198
40
0.493414431846198
40
0.620060823884648
40
0.620060823884648
40
0.746707215923099
40
0.746707215923099
40
0.873353607961549
40
0.873353607961549
40
1
40
1
40
1
40
1
41
1
10
49.5028971442487
20
6.78132625197944
30
0
41
1
10
51.240935193391
20
7.1998407073809
30
0
41
1
10
52.9717583551425
20
7.54643622794197
30
0
41
1
10
55.1452540129092
20
7.88220469167368
30
0
41
1
10
55.5890349517441
20
7.94558605856028
30
0
41
1
10
56.4775808300684
20
8.06089688562869
30
0
41
1
10
56.9224334009349
20
8.1128145814632
30
0
41
1
10
57.8122006402965
20
8.2060457451114
30
0
41
1
10
58.2570375348835
20
8.24735505654522
30
0
41
1
10
59.1477458433364
20
8.31858061882753
30
0
41
1
10
59.593775112045
20
8.34846677789994
30
0
41
1
10
60.0400704144262
20
8.37277902538906
30
0
0
SPLINE
5
1A9
100
AcDbEntity
8
1
62
256
6
ByLayer
370
-1
48
1
60
0
100
AcDbSpline
70
4
71
3
72
26
73
22
40
0
40
0
40
0
40
0
40
0.030925496151423
40
0.030925496151423
40
0.111681704805471
40
0.111681704805471
40
0.192437913459519
40
0.192437913459519
40
0.353950330767615
40
0.353950330767615
40
0.434706539421662
40
0.434706539421662
40
0.51546274807571
40
0.51546274807571
40
0.676975165383807
40
0.676975165383807
40
0.757731374037855
40
0.757731374037855
40
0.838487582691903
40
0.838487582691903
40
1
40
1
40
1
40
1
41
1
10
61.3518722684718
20
1.75019984200179
30
0
41
1
10
61.3617705373437
20
1.7654150522001
30
0
41
1
10
61.3714247706174
20
1.78139512473427
30
0
41
1
10
61.4054015214541
20
1.84184661497318
30
0
41
1
10
61.4282791201049
20
1.89077029498657
30
0
41
1
10
61.4703955513115
20
1.99924052882801
30
0
41
1
10
61.4895080170351
20
2.05856567111317
30
0
41
1
10
61.5399681803484
20
2.24864027409288
30
0
41
1
10
61.5649144753116
20
2.39235828543153
30
0
41
1
10
61.5877347526069
20
2.63254169296715
30
0
41
1
10
61.5928950666479
20
2.71716012498376
30
0
41
1
10
61.5977175638045
20
2.89249458451516
30
0
41
1
10
61.5974041077624
20
2.98294459125259
30
0
41
1
10
61.5878823919104
20
3.26208728308816
30
0
41
1
10
61.5702478369037
20
3.45855882015763
30
0
41
1
10
61.5229676419756
20
3.76723144077846
30
0
41
1
10
61.5036371524918
20
3.8725618353283
30
0
41
1
10
61.4578253730395
20
4.08328990891073
30
0
41
1
10
61.4312854022805
20
4.18919730447107
30
0
41
1
10
61.3392038451106
20
4.50750032282932
30
0
41
1
10
61.261974301262
20
4.72084205920189
30
0
41
1
10
61.158946762615
20
4.92999999999992
30
0
0
SPLINE
5
1AA
100
AcDbEntity
8
1
62
256
6
ByLayer
370
-1
48
1
60
0
100
AcDbSpline
70
4
71
3
72
32
73
28
40
0
40
0
40
0
40
0
40
0.0371610916199037
40
0.0906521420854646
40
0.144143192551026
40
0.197634243016586
40
0.251125293482147
40
0.304616343947708
40
0.358107394413269
40
0.41159844487883
40
0.465089495344391
40
0.518580545809952
40
0.558698833659122
40
0.572071596275513
40
0.598817121508293
40
0.625562646741074
40
0.652308171973854
40
0.679053697206635
40
0.705799222439415
40
0.732544747672195
40
0.786035798137756
40
0.839526848603317
40
0.866272373836098
40
0.893017899068878
40
0.906390661685269
40
0.946508949534439
40
1
40
1
40
1
40
1
41
1
10
30.741550450056
20
0.335103309302582
30
0
41
1
10
30.5802939014758
20
0.362342557722258
30
0
41
1
10
30.1869205859783
20
0.428804830221026
30
0
41
1
10
29.5614351300319
20
0.534401088458566
30
0
41
1
10
28.8651646853843
20
0.651291112797253
30
0
41
1
10
28.169041944442
20
0.767305663345525
30
0
41
1
10
27.4730733427832
20
0.88140506669572
30
0
41
1
10
26.7768726909299
20
0.993414253690645
30
0
41
1
10
26.0796932514505
20
1.10388683836189
30
0
41
1
10
25.3811944454113
20
1.2137481333522
30
0
41
1
10
24.6821776830346
20
1.32320813386127
30
0
41
1
10
24.0422781819786
20
1.42262315869925
30
0
41
1
10
23.5777288891247
20
1.49382404386424
30
0
41
1
10
23.2297697956666
20
1.54650804130537
30
0
41
1
10
22.9398610863724
20
1.58999368413117
30
0
41
1
10
22.5919156003507
20
1.64161491675478
30
0
41
1
10
22.2435581266233
20
1.69276212872418
30
0
41
1
10
21.8945580313298
20
1.74358101340059
30
0
41
1
10
21.5452595614309
20
1.79409565374911
30
0
41
1
10
21.079804323999
20
1.86077540404455
30
0
41
1
10
20.4984805649378
20
1.94290237211999
30
0
41
1
10
19.9180231615401
20
2.02322270934491
30
0
41
1
10
19.454131700222
20
2.08619118187386
30
0
41
1
10
19.1644069518175
20
2.12496032109232
30
0
41
1
10
18.8167425156621
20
2.17095508235658
30
0
41
1
10
18.35267595662
20
2.23153009671921
30
0
41
1
10
17.9459137955499
20
2.28367503627072
30
0
41
1
10
17.7132330011264
20
2.3132127887219
30
0
0
SPLINE
5
1AB
100
AcDbEntity
8
1
62
256
6
ByLayer
370
-1
48
1
60
0
100
AcDbSpline
70
4
71
3
72
8
73
4
40
0
40
0
40
0
40
0
40
1
40
1
40
1
40
1
41
1
10
16
20
6.00691524742697
30
0
41
1
10
15.4707492410132
20
6.19775258197745
30
0
41
1
10
14.9229292614659
20
6.37743294351776
30
0
41
1
10
14.3599635326165
20
6.56703440158512
30
0
0
SPLINE
5
1AC
100
AcDbEntity
8
1
62
256
6
ByLayer
370
-1
48
1
60
0
100
AcDbSpline
70
4
71
3
72
28
73
24
40
0
40
0
40
0
40
0
40
0.062499999999999
40
0.062499999999999
40
0.124999999999998
40
0.124999999999998
40
0.249999999999997
40
0.249999999999997
40
0.374999999999996
40
0.374999999999996
40
0.499999999999995
40
0.499999999999995
40
0.562499999999994
40
0.562499999999994
40
0.624999999999994
40
0.624999999999994
40
0.749999999999994
40
0.749999999999994
40
0.874999999999993
40
0.874999999999993
40
0.937499999999997
40
0.937499999999997
40
1
40
1
40
1
40
1
41
1
10
64.770519293465
20
1.64116312286384
30
0
41
1
10
64.8132869714441
20
1.65347105117763
30
0
41
1
10
64.8543056669424
20
1.66621089790328
30
0
41
1
10
64.9327520704186
20
1.69257740048158
30
0
41
1
10
64.9702299246314
20
1.70623729187548
30
0
41
1
10
65.0748610284271
20
1.74769732891136
30
0
41
1
10
65.1351331975078
20
1.7762390476754
30
0
41
1
10
65.2368449369035
20
1.83511339657016
30
0
41
1
10
65.2783760125688
20
1.86570574954396
30
0
41
1
10
65.3387934749585
20
1.92629081610622
30
0
41
1
10
65.3582702488886
20
1.95652671040347
30
0
41
1
10
65.3711927476255
20
2.00179456568606
30
0
41
1
10
65.3727438593374
20
2.01694214807213
30
0
41
1
10
65.370239614344
20
2.04663558997859
30
0
41
1
10
65.3662251160997
20
2.06122681461548
30
0
41
1
10
65.3460910701908
20
2.10425218119539
30
0
41
1
10
65.3219516830731
20
2.13194455604187
30
0
41
1
10
65.251569348537
20
2.18528491396836
30
0
41
1
10
65.2061300939729
20
2.21025999990545
30
0
41
1
10
65.1239482683771
20
2.24490973556641
30
0
41
1
10
65.0941714301137
20
2.25601046127579
30
0
41
1
10
65.0297979741418
20
2.27730336362484
30
0
41
1
10
64.995001509196
20
2.28754450389599
30
0
41
1
10
64.9582849199397
20
2.29716911834748
30
0
0
SPLINE
5
1AD
100
AcDbEntity
8
1
62
256
6
ByLayer
370
-1
48
1
60
0
100
AcDbSpline
70
4
71
3
72
22
73
18
40
0
40
0
40
0
40
0
40
0.124999999999995
40
0.124999999999995
40
0.249999999999989
40
0.249999999999989
40
0.312499999999991
40
0.312499999999991
40
0.374999999999993
40
0.374999999999993
40
0.499999999999996
40
0.499999999999996
40
0.624999999999999
40
0.624999999999999
40
0.750000000000002
40
0.750000000000002
40
1
40
1
40
1
40
1
41
1
10
62.4460221385986
20
3.80442683437209
30
0
41
1
10
62.4006755921395
20
3.78598023581367
30
0
41
1
10
62.3569992420337
20
3.76384599788935
30
0
41
1
10
62.275931906932
20
3.70858306477587
30
0
41
1
10
62.2398375579509
20
3.67619003180067
30
0
41
1
10
62.1966955108926
20
3.61927473356076
30
0
41
1
10
62.1845927664152
20
3.59949139659466
30
0
41
1
10
62.1649573909224
20
3.55832659132824
30
0
41
1
10
62.1574701843517
20
3.53686057545127
30
0
41
1
10
62.1424326333743
20
3.47318027168129
30
0
41
1
10
62.1418900883057
20
3.4303758664791
30
0
41
1
10
62.1536144280582
20
3.35010891501065
30
0
41
1
10
62.1658854932653
20
3.31148433418011
30
0
41
1
10
62.1978626540682
20
3.23944097969826
30
0
41
1
10
62.2175918669721
20
3.20570650317154
30
0
41
1
10
62.2846532877161
20
3.10930670564105
30
0
41
1
10
62.339584757107
20
3.05174622087082
30
0
41
1
10
62.3996720431195
20
2.99932675047387
30
0
0
SPLINE
5
1AE
100
AcDbEntity
8
1
62
256
6
ByLayer
370
-1
48
1
60
0
100
AcDbSpline
70
4
71
3
72
14
73
10
40
0
40
0
40
0
40
0
40
0.25
40
0.25
40
0.5
40
0.5
40
0.75
40
0.75
40
1
40
1
40
1
40
1
41
1
10
67.6689665583714
20
2.68925493734048
30
0
41
1
10
67.6396501057739
20
2.66011091999769
30
0
41
1
10
67.6103580093656
20
2.63379127059508
30
0
41
1
10
67.5528948543691
20
2.58631945302355
30
0
41
1
10
67.5246836887162
20
2.56515205515856
30
0
41
1
10
67.4715059076215
20
2.5284146240632
30
0
41
1
10
67.4468841600263
20
2.51311738460601
30
0
41
1
10
67.4082849987989
20
2.49143468797467
30
0
41
1
10
67.3949270962844
20
2.48533094313123
30
0
41
1
10
67.3907493914887
20
2.48533094313123
30
0
0
SPLINE
5
1AF
100
AcDbEntity
8
1
62
256
6
ByLayer
370
-1
48
1
60
0
100
AcDbSpline
70
4
71
4
72
13
73
8
40
0
40
0
40
0
40
0
40
0
40
0.67209021168903
40
0.67209021168903
40
0.67209021168903
40
1
40
1
40
1
40
1
40
1
41
1
10
17.7132330011264
20
2.3132127887219
30
0
41
1
10
17.7132330011264
20
1.2820770496719
30
0
41
0.942809041582063
10
17.4810840110332
20
-0.780447564985063
30
0
41
1
10
16.8642979801888
20
-3.13651383286452
30
0
41
1
10
16.1734711058925
20
-5.19795117433941
30
0
41
0.986386148924255
10
15.9188105235441
20
-5.84055709648938
30
0
41
0.979084856710171
10
15.6814822623542
20
-6.26084978849715
30
0
41
0.978578521908791
10
15.4902122576281
20
-6.42352541394268
30
0
0
SPLINE
5
1B0
100
AcDbEntity
8
1
62
256
6
ByLayer
370
-1
48
1
60
0
100
AcDbSpline
70
4
71
3
72
32
73
28
40
0
40
0
40
0
40
0
40
0.125000000000005
40
0.125000000000005
40
0.187500000000007
40
0.187500000000007
40
0.218750000000009
40
0.218750000000009
40
0.25000000000001
40
0.25000000000001
40
0.281250000000011
40
0.281250000000011
40
0.312500000000013
40
0.312500000000013
40
0.343750000000014
40
0.343750000000014
40
0.375000000000016
40
0.375000000000016
40
0.437500000000012
40
0.437500000000012
40
0.500000000000009
40
0.500000000000009
40
0.625000000000008
40
0.625000000000008
40
0.750000000000008
40
0.750000000000008
40
1
40
1
40
1
40
1
41
1
10
57.6675487363184
20
5.87734524183711
30
0
41
1
10
57.7723674841614
20
5.84921333215345
30
0
41
1
10
57.8756781734022
20
5.81690364507841
30
0
41
1
10
58.0243401020005
20
5.7515175014546
30
0
41
1
10
58.0731624985797
20
5.72681698976109
30
0
41
1
10
58.1416520663707
20
5.68027089104058
30
0
41
1
10
58.1635429463352
20
5.66320236360835
30
0
41
1
10
58.203147882102
20
5.62427551696547
30
0
41
1
10
58.2206168862599
20
5.60284051144021
30
0
41
1
10
58.2464521602243
20
5.55232227751011
30
0
41
1
10
58.2535873194524
20
5.5238181350941
30
0
41
1
10
58.2515457797205
20
5.46683085240852
30
0
41
1
10
58.2426724208748
20
5.43867586343478
30
0
41
1
10
58.2162250897504
20
5.38758412824723
30
0
41
1
10
58.1990825944516
20
5.36460275832602
30
0
41
1
10
58.1613232361452
20
5.32215890118326
30
0
41
1
10
58.1404414846568
20
5.30253173877369
30
0
41
1
10
58.0758677027324
20
5.24800728098867
30
0
41
1
10
58.029662292825
20
5.21660784908875
30
0
41
1
10
57.9343127121171
20
5.15837235237029
30
0
41
1
10
57.8849224542858
20
5.13163050056255
30
0
41
1
10
57.7349874856292
20
5.05645017621444
30
0
41
1
10
57.6328656623955
20
5.01291550832522
30
0
41
1
10
57.4264400857254
20
4.93227829578359
30
0
41
1
10
57.3220788036377
20
4.89535542399534
30
0
41
1
10
57.0066421822477
20
4.79145421041943
30
0
41
1
10
56.793210005964
20
4.73136337161202
30
0
41
1
10
56.57755891072
20
4.67805884246837
30
0
0
SPLINE
5
1B1
100
AcDbEntity
8
1
62
256
6
ByLayer
370
-1
48
1
60
0
100
AcDbSpline
70
4
71
3
72
8
73
4
40
0
40
0
40
0
40
0
40
1
40
1
40
1
40
1
41
1
10
54.4635010224265
20
6.08163538274115
30
0
41
1
10
54.737810831933
20
6.09395501028436
30
0
41
1
10
55.0120282425892
20
6.10151770169267
30
0
41
1
10
55.2862915788192
20
6.10343800829096
30
0
0
SPLINE
5
1B2
100
AcDbEntity
8
1
62
256
6
ByLayer
370
-1
48
1
60
0
100
AcDbSpline
70
4
71
3
72
8
73
4
40
0
40
0
40
0
40
0
40
1
40
1
40
1
40
1
41
1
10
16
20
-7.08800561290931
30
0
41
1
10
15.750385759563
20
-7.03331983142417
30
0
41
1
10
15.500633183745
20
-6.98765302371083
30
0
41
1
10
15.2511599140942
20
-6.95063519372312
30
0
0
SPLINE
5
1B3
100
AcDbEntity
8
1
62
256
6
ByLayer
370
-1
48
1
60
0
100
AcDbSpline
70
4
71
3
72
12
73
8
40
0
40
0
40
0
40
0
40
0.249999999999998
40
0.249999999999998
40
0.499999999999996
40
0.499999999999996
40
1
40
1
40
1
40
1
41
1
10
57.6675487363185
20
5.87734524183753
30
0
41
1
10
57.4744679997987
20
5.92916545485483
30
0
41
1
10
57.2788397656053
20
5.96782602030316
30
0
41
1
10
56.8845165476014
20
6.02930519595134
30
0
41
1
10
56.6855768856126
20
6.05170658039876
30
0
41
1
10
56.0861024416726
20
6.09977824870367
30
0
41
1
10
55.6862362057827
20
6.10623829620653
30
0
41
1
10
55.2862915788192
20
6.10343800829094
30
0
0
SPLINE
5
1B4
100
AcDbEntity
8
1
62
256
6
ByLayer
370
-1
48
1
60
0
100
AcDbSpline
70
4
71
3
72
10
73
6
40
0
40
0
40
0
40
0
40
0.5
40
0.5
40
1
40
1
40
1
40
1
41
1
10
10.1212490480253
20
8.58754987234374
30
0
41
1
10
10.2854931083473
20
8.47966835165724
30
0
41
1
10
10.4577385265404
20
8.36678021227917
30
0
41
1
10
10.818766137832
20
8.13256449093009
30
0
41
1
10
11.0075527928502
20
8.0112438821177
30
0
41
1
10
11.2049704892882
20
7.88556043208214
30
0
0
SPLINE
5
1B5
100
AcDbEntity
8
1
62
256
6
ByLayer
370
-1
48
1
60
0
100
AcDbSpline
70
4
71
3
72
24
73
20
40
0
40
0
40
0
40
0
40
0.125
40
0.125
40
0.1875
40
0.1875
40
0.25
40
0.25
40
0.3125
40
0.3125
40
0.375
40
0.375
40
0.5
40
0.5
40
0.625
40
0.625
40
0.75
40
0.75
40
1
40
1
40
1
40
1
41
1
10
7.75647452966564
20
0.805103596842628
30
0
41
1
10
7.66281996393028
20
0.952503551630429
30
0
41
1
10
7.58553425590165
20
1.12218306090145
30
0
41
1
10
7.4863285838515
20
1.4001534472315
30
0
41
1
10
7.45611807940236
20
1.49695579947468
30
0
41
1
10
7.40196757436456
20
1.6916841606276
30
0
41
1
10
7.37774765211361
20
1.79035771928014
30
0
41
1
10
7.33380576084315
20
1.98980372918754
30
0
41
1
10
7.31409055521266
20
2.09057918502927
30
0
41
1
10
7.27833220612033
20
2.29388299571394
30
0
41
1
10
7.26224886544617
20
2.39675967892521
30
0
41
1
10
7.21905391436189
20
2.70415820189297
30
0
41
1
10
7.196774003141
20
2.90795174564727
30
0
41
1
10
7.16078530055896
20
3.31372797169848
30
0
41
1
10
7.14712569859842
20
3.51570388617347
30
0
41
1
10
7.12582139709596
20
3.91805653901176
30
0
41
1
10
7.11818522321079
20
4.11881639011665
30
0
41
1
10
7.10172912243075
20
4.7163055548819
30
0
41
1
10
7.09923501578609
20
5.10379404283515
30
0
41
1
10
7.10017131892729
20
5.48292093335027
30
0
0
SPLINE
5
1B6
100
AcDbEntity
8
1
62
256
6
ByLayer
370
-1
48
1
60
0
100
AcDbSpline
70
4
71
3
72
8
73
4
40
0
40
0
40
0
40
0
40
1
40
1
40
1
40
1
41
1
10
60.0400704143912
20
8.37277902538779
30
0
41
1
10
60.3718142863468
20
8.38493958441455
30
0
41
1
10
60.6849250566941
20
8.4013511201951
30
0
41
1
10
60.9802155518527
20
8.41640003674829
30
0
0
SPLINE
5
1B7
100
AcDbEntity
8
1
62
256
6
ByLayer
370
-1
48
1
60
0
100
AcDbSpline
70
4
71
3
72
14
73
10
40
0
40
0
40
0
40
0
40
0.25
40
0.25
40
0.5
40
0.5
40
0.75
40
0.75
40
1
40
1
40
1
40
1
41
1
10
63.2698240173112
20
1.36527354308109
30
0
41
1
10
63.1735008611
20
1.35680313165835
30
0
41
1
10
63.0713283492617
20
1.35411131804426
30
0
41
1
10
62.8586093576195
20
1.36015294229742
30
0
41
1
10
62.7480274774545
20
1.368898458307
30
0
41
1
10
62.5202937670202
20
1.3983794240832
30
0
41
1
10
62.4026167515857
20
1.41927578726697
30
0
41
1
10
62.1665130736766
20
1.47284805487342
30
0
41
1
10
62.0476383768278
20
1.50553389353689
30
0
41
1
10
61.928325172615
20
1.54428483577024
30
0
0
SPLINE
5
1B8
100
AcDbEntity
8
1
62
256
6
ByLayer
370
-1
48
1
60
0
100
AcDbSpline
70
4
71
3
72
12
73
8
40
0
40
0
40
0
40
0
40
0.5
40
0.5
40
0.75
40
0.75
40
1
40
1
40
1
40
1
41
1
10
8.10781898959465
20
2.05019802238908
30
0
41
1
10
8.72080304974526
20
1.07334439935679
30
0
41
1
10
9.33320061129484
20
0.106448235709252
30
0
41
1
10
10.2463576368472
20
-1.31745837314429
30
0
41
1
10
10.549904337351
20
-1.78768182928189
30
0
41
1
10
11.1547734175506
20
-2.71562489638217
30
0
41
1
10
11.4561016708373
20
-3.17342664788441
30
0
41
1
10
11.7564745296658
20
-3.62245777402083
30
0
0
SPLINE
5
1B9
100
AcDbEntity
8
1
62
256
6
ByLayer
370
-1
48
1
60
0
100
AcDbSpline
70
4
71
3
72
8
73
4
40
0
40
0
40
0
40
0
40
1
40
1
40
1
40
1
41
1
10
61.928325172615
20
1.54428483577021
30
0
41
1
10
61.8998592589734
20
1.55353009058021
30
0
41
1
10
61.8714746184887
20
1.56298652749683
30
0
41
1
10
61.843174585718
20
1.57265522800546
30
0
0
SPLINE
5
1BA
100
AcDbEntity
8
1
62
256
6
ByLayer
370
-1
48
1
60
0
100
AcDbSpline
70
4
71
3
72
10
73
6
40
0
40
0
40
0
40
0
40
0.5
40
0.5
40
1
40
1
40
1
40
1
41
1
10
64.3907120859011
20
2.43278689232278
30
0
41
1
10
64.4946187642085
20
2.40814319845066
30
0
41
1
10
64.5946852377564
20
2.38508622225919
30
0
41
1
10
64.7853864882244
20
2.3403857505937
30
0
41
1
10
64.875880256359
20
2.31877006582224
30
0
41
1
10
64.9582849199396
20
2.29716911834746
30
0
0
SPLINE
5
1BB
100
AcDbEntity
8
1
62
256
6
ByLayer
370
-1
48
1
60
0
100
AcDbSpline
70
4
71
1
72
4
73
2
40
0
40
0
40
1
40
1
41
1
10
17.7132330011236
20
2.31321278872272
30
0
41
1
10
17.7132330011237
20
5.19667769950942
30
0
0
SPLINE
5
1BC
100
AcDbEntity
8
1
62
256
6
ByLayer
370
-1
48
1
60
0
100
AcDbSpline
70
4
71
3
72
8
73
4
40
0
40
0
40
0
40
0
40
1
40
1
40
1
40
1
41
1
10
64.3907120859011
20
2.43278689232278
30
0
41
1
10
64.5748803704821
20
2.42229536012616
30
0
41
1
10
64.7584371591417
20
2.42032868849631
30
0
41
1
10
64.9413987977151
20
2.42672233597707
30
0
0
SPLINE
5
1BD
100
AcDbEntity
8
1
62
256
6
ByLayer
370
-1
48
1
60
0
100
AcDbSpline
70
4
71
3
72
16
73
12
40
0
40
0
40
0
40
0
40
0.25
40
0.25
40
0.499999999999999
40
0.499999999999999
40
0.749999999999999
40
0.749999999999999
40
0.874999999999999
40
0.874999999999999
40
1
40
1
40
1
40
1
41
1
10
12.7374169865942
20
-5.00536349600804
30
0
41
1
10
12.8978100248054
20
-5.18280322260242
30
0
41
1
10
13.072636578269
20
-5.34655203426718
30
0
41
1
10
13.4518823458914
20
-5.6456470737462
30
0
41
1
10
13.6521564062884
20
-5.77780894702389
30
0
41
1
10
14.0741243427126
20
-6.00963733693985
30
0
41
1
10
14.2958091619394
20
-6.10929789523536
30
0
41
1
10
14.6454006295373
20
-6.23401183118312
30
0
41
1
10
14.7646068498264
20
-6.27132449255518
30
0
41
1
10
15.0054558065561
20
-6.33656737965526
30
0
41
1
10
15.127494869608
20
-6.36464636428676
30
0
41
1
10
15.2511603290328
20
-6.38819183281223
30
0
0
SPLINE
5
1BE
100
AcDbEntity
8
1
62
256
6
ByLayer
370
-1
48
1
60
0
100
AcDbSpline
70
4
71
3
72
22
73
18
40
0
40
0
40
0
40
0
40
0.167700824197318
40
0.167700824197318
40
0.335401648394636
40
0.335401648394636
40
0.503102472591954
40
0.503102472591954
40
0.545027678641284
40
0.545027678641284
40
0.586952884690614
40
0.586952884690614
40
0.670803296789274
40
0.670803296789274
40
0.838504120986593
40
0.838504120986593
40
1
40
1
40
1
40
1
41
1
10
16
20
-7.08800561290931
30
0
41
1
10
17.700487760475
20
-7.46055047222788
30
0
41
1
10
19.3902466400025
20
-7.76112522401098
30
0
41
1
10
22.762021061978
20
-8.20619966579272
30
0
41
1
10
24.444141227542
20
-8.35067407464294
30
0
41
1
10
27.8139533042337
20
-8.47656801050826
30
0
41
1
10
29.5015102701036
20
-8.45795352284452
30
0
41
1
10
31.6229400704252
20
-8.33071003489948
30
0
41
1
10
32.0482015597781
20
-8.30003754535568
30
0
41
1
10
32.8969348692917
20
-8.22862346296213
30
0
41
1
10
33.320686538609
20
-8.18787456542591
30
0
41
1
10
34.5904175309029
20
-8.0508169429574
30
0
41
1
10
35.4348793592209
20
-7.93969976884273
30
0
41
1
10
37.964564041714
20
-7.54968372363203
30
0
41
1
10
39.6460097923779
20
-7.2138738960823
30
0
41
1
10
42.9505154255322
20
-6.42304242721008
30
0
41
1
10
44.5735273621133
20
-5.97309349883102
30
0
41
1
10
46.2043521867572
20
-5.47032463074726
30
0
0
SPLINE
5
1BF
100
AcDbEntity
8
1
62
256
6
ByLayer
370
-1
48
1
60
0
100
AcDbSpline
70
4
71
3
72
40
73
36
40
0
40
0
40
0
40
0
40
0.0625000000000003
40
0.0625000000000003
40
0.125000000000001
40
0.125000000000001
40
0.187500000000001
40
0.187500000000001
40
0.218750000000001
40
0.218750000000001
40
0.250000000000001
40
0.250000000000001
40
0.312500000000001
40
0.312500000000001
40
0.343750000000001
40
0.343750000000001
40
0.375000000000002
40
0.375000000000002
40
0.500000000000001
40
0.500000000000001
40
0.562500000000001
40
0.562500000000001
40
0.625000000000001
40
0.625000000000001
40
0.687500000000001
40
0.687500000000001
40
0.750000000000001
40
0.750000000000001
40
0.812500000000001
40
0.812500000000001
40
0.875
40
0.875
40
0.9375
40
0.9375
40
1
40
1
40
1
40
1
41
1
10
17.713233001124
20
5.19667769950934
30
0
41
1
10
18.6380772225485
20
4.90201778523775
30
0
41
1
10
19.559975285555
20
4.59357075047205
30
0
41
1
10
21.3998566251598
20
3.95379693191307
30
0
41
1
10
22.3181982996103
20
3.62330717154677
30
0
41
1
10
24.1518297946193
20
2.94155732963858
30
0
41
1
10
25.0674861740372
20
2.59110263347279
30
0
41
1
10
26.4420617835862
20
2.05795150837346
30
0
41
1
10
26.9003059692072
20
1.87868430349352
30
0
41
1
10
27.8166062360175
20
1.51628944560133
30
0
41
1
10
28.2746365014726
20
1.33309078494358
30
0
41
1
10
29.6492330060218
20
0.779561750410892
30
0
41
1
10
30.5665227264751
20
0.405827823347977
30
0
41
1
10
31.9467998659519
20
-0.154142828838133
30
0
41
1
10
32.4076169526894
20
-0.340683070200299
30
0
41
1
10
33.3308753728038
20
-0.713058465406135
30
0
41
1
10
33.7936274970984
20
-0.899044396046236
30
0
41
1
10
36.1040765898125
20
-1.82453154175499
30
0
41
1
10
37.9469956773018
20
-2.5502956552159
30
0
41
1
10
40.7170675165174
20
-3.58377004648818
30
0
41
1
10
41.6421246526666
20
-3.92003982687819
30
0
41
1
10
43.489611670974
20
-4.56554895949657
30
0
41
1
10
44.4122966809282
20
-4.87529350984087
30
0
41
1
10
46.2577864067317
20
-5.46433635257037
30
0
41
1
10
47.1808414160399
20
-5.74316635795631
30
0
41
1
10
49.0290375217237
20
-6.26675709795009
30
0
41
1
10
49.9547051425767
20
-6.51195608672793
30
0
41
1
10
51.7995905201815
20
-6.96125821074887
30
0
41
1
10
52.7201775418137
20
-7.16568588590232
30
0
41
1
10
54.5585248709868
20
-7.53289310493616
30
0
41
1
10
55.4770674016837
20
-7.69466642285747
30
0
41
1
10
57.3143879674167
20
-7.9731289070107
30
0
41
1
10
58.2327754966882
20
-8.09007884655409
30
0
41
1
10
60.0726309338907
20
-8.27603554652308
30
0
41
1
10
60.994011893766
20
-8.34514666426489
30
0
41
1
10
61.9181548743597
20
-8.38967702500511
30
0
0
SPLINE
5
1C0
100
AcDbEntity
8
1
62
256
6
ByLayer
370
-1
48
1
60
0
100
AcDbSpline
70
4
71
3
72
34
73
30
40
0
40
0
40
0
40
0
40
0.0495326207252736
40
0.0495326207252736
40
0.135938746113885
40
0.135938746113885
40
0.179141808808191
40
0.179141808808191
40
0.222344871502497
40
0.222344871502497
40
0.308750996891108
40
0.308750996891108
40
0.481563247668331
40
0.481563247668331
40
0.524766310362637
40
0.524766310362637
40
0.567969373056943
40
0.567969373056943
40
0.654375498445554
40
0.654375498445554
40
0.740781623834166
40
0.740781623834166
40
0.827187749222777
40
0.827187749222777
40
0.870390811917083
40
0.870390811917083
40
0.913593874611389
40
0.913593874611389
40
1
40
1
40
1
40
1
41
1
10
45.6287179596438
20
-5.28256214135712
30
0
41
1
10
45.1313525839694
20
-5.41999324105413
30
0
41
1
10
44.6341292027563
20
-5.55305155333872
30
0
41
1
10
43.2695661625973
20
-5.90596593573093
30
0
41
1
10
42.4022806240863
20
-6.11664773959782
30
0
41
1
10
41.1004145229959
20
-6.40936035176799
30
0
41
1
10
40.6662987349739
20
-6.50306810771593
30
0
41
1
10
39.7975491242305
20
-6.6823895888358
30
0
41
1
10
39.3626962599495
20
-6.76804707270085
30
0
41
1
10
38.059334291099
20
-7.01182193643356
30
0
41
1
10
37.1917534065211
20
-7.15648952055125
30
0
41
1
10
34.5904707331042
20
-7.53258822309664
30
0
41
1
10
32.8583329571781
20
-7.70659706596595
30
0
41
1
10
30.6867981058658
20
-7.81836185718868
30
0
41
1
10
30.2520843735779
20
-7.83564114875975
30
0
41
1
10
29.3835335079755
20
-7.86032688510906
30
0
41
1
10
28.9494820471347
20
-7.86777571645769
30
0
41
1
10
27.6477218728603
20
-7.87524970434939
30
0
41
1
10
26.7804268734318
20
-7.86079289248414
30
0
41
1
10
25.0453908369377
20
-7.78547074733021
30
0
41
1
10
24.1775814660094
20
-7.7222126500173
30
0
41
1
10
22.4392077366644
20
-7.55909464975704
30
0
41
1
10
21.5701973884045
20
-7.46134734665395
30
0
41
1
10
20.267906715467
20
-7.28424077137907
30
0
41
1
10
19.8339188341608
20
-7.22008574489806
30
0
41
1
10
18.9658428599914
20
-7.08358158433339
30
0
41
1
10
18.5317648355584
20
-7.01116478079365
30
0
41
1
10
17.229171138991
20
-6.78139162646332
30
0
41
1
10
16.3603058891296
20
-6.610432624656
30
0
41
1
10
15.490212257628
20
-6.42352541394266
30
0
0
SPLINE
5
1C1
100
AcDbEntity
8
1
62
256
6
ByLayer
370
-1
48
1
60
0
100
AcDbSpline
70
4
71
3
72
15
73
11
40
0
40
0
40
0
40
0
40
0.192200908080035
40
0.384401816160071
40
0.576602724240106
40
0.672703178280123
40
0.768803632320141
40
0.864904086360159
40
0.961004540400177
40
1
40
1
40
1
40
1
41
1
10
60.0400704143912
20
4.92999999999989
30
0
41
1
10
59.8182767613629
20
4.91790435644083
30
0
41
1
10
59.3745417824756
20
4.89235560986475
30
0
41
1
10
58.7085414828676
20
4.84953659766282
30
0
41
1
10
58.1538820916804
20
4.80981838141608
30
0
41
1
10
57.7105772182183
20
4.77554545947325
30
0
41
1
10
57.3782917345033
20
4.74856203044561
30
0
41
1
10
57.0458490826931
20
4.72027494373876
30
0
41
1
10
56.7788132811062
20
4.69653280456367
30
0
41
1
10
56.6226449919058
20
4.68222489310051
30
0
41
1
10
56.57755891072
20
4.67805884246837
30
0
0
SPLINE
5
1C2
100
AcDbEntity
8
1
62
256
6
ByLayer
370
-1
48
1
60
0
100
AcDbSpline
70
4
71
3
72
8
73
4
40
0
40
0
40
0
40
0
40
1
40
1
40
1
40
1
41
1
10
8.10781882628018
20
2.0501973238022
30
0
41
1
10
7.98688700958849
20
2.2520265774599
30
0
41
1
10
7.86994580566403
20
2.47424777129533
30
0
41
1
10
7.75647452966552
20
2.71703842502956
30
0
0
SPLINE
5
1C3
100
AcDbEntity
8
1
62
256
6
ByLayer
370
-1
48
1
60
0
100
AcDbSpline
70
4
71
3
72
8
73
4
40
0
40
0
40
0
40
0
40
1
40
1
40
1
40
1
41
1
10
53.7907182907933
20
5.56943130163492
30
0
41
1
10
53.4792497922077
20
5.67862962647527
30
0
41
1
10
53.1661709465354
20
5.79349244668748
30
0
41
1
10
52.8518126947818
20
5.91285565683782
30
0
0
SPLINE
5
1C4
100
AcDbEntity
8
1
62
256
6
ByLayer
370
-1
48
1
60
0
100
AcDbSpline
70
4
71
3
72
10
73
6
40
0
40
0
40
0
40
0
40
0.668812542461556
40
0.668812542461556
40
1
40
1
40
1
40
1
41
1
10
56.57755891072
20
4.67805884246837
30
0
41
1
10
56.3783928498711
20
4.62883013851001
30
0
41
1
10
56.1784616155566
20
4.58389312335709
30
0
41
1
10
55.8785131250168
20
4.52412750961497
30
0
41
1
10
55.7790130003896
20
4.50549525109173
30
0
41
1
10
55.6793732149702
20
4.48791807974507
30
0
0
SPLINE
5
1C5
100
AcDbEntity
8
1
62
256
6
ByLayer
370
-1
48
1
60
0
100
AcDbSpline
70
4
71
3
72
14
73
10
40
0
40
0
40
0
40
0
40
0.422030062716352
40
0.422030062716352
40
0.633045094074528
40
0.633045094074528
40
0.844060125432705
40
0.844060125432705
40
1
40
1
40
1
40
1
41
1
10
67.9937313275988
20
5.46013556761514
30
0
41
1
10
68.0091842053444
20
5.31853209568706
30
0
41
1
10
68.0483109477615
20
5.17752654210628
30
0
41
1
10
68.1493090235515
20
4.96932899058652
30
0
41
1
10
68.1900350854008
20
4.90110022047449
30
0
41
1
10
68.28467667951
20
4.77152012810245
30
0
41
1
10
68.3388111920358
20
4.70961274317608
30
0
41
1
10
68.4467859145913
20
4.60836850274646
30
0
41
1
10
68.4959574880052
20
4.56837053949724
30
0
41
1
10
68.5485189277994
20
4.53175195205367
30
0
0
SPLINE
5
1C6
100
AcDbEntity
8
1
62
256
6
ByLayer
370
-1
48
1
60
0
100
AcDbSpline
70
4
71
3
72
8
73
4
40
0
40
0
40
0
40
0
40
1
40
1
40
1
40
1
41
1
10
67.9870761696064
20
5.63428147036032
30
0
41
1
10
67.9851808121338
20
5.57695434390811
30
0
41
1
10
67.98733383643
20
5.51875940299612
30
0
41
1
10
67.9937313275987
20
5.46013556761511
30
0
0
SPLINE
5
1C7
100
AcDbEntity
8
1
62
256
6
ByLayer
370
-1
48
1
60
0
100
AcDbSpline
70
4
71
3
72
14
73
10
40
0
40
0
40
0
40
0
40
0.499999999999989
40
0.499999999999989
40
0.62499999999999
40
0.62499999999999
40
0.749999999999991
40
0.749999999999991
40
1
40
1
40
1
40
1
41
1
10
64.4655142344515
20
0.601935128816393
30
0
41
1
10
63.9911668195218
20
0.573819054379499
30
0
41
1
10
63.5230530686386
20
0.604197421957764
30
0
41
1
10
62.9456586707751
20
0.714677877857923
30
0
41
1
10
62.8305735883825
20
0.740456486797115
30
0
41
1
10
62.6012166385735
20
0.799601474308531
30
0
41
1
10
62.4869914226602
20
0.832984213185739
30
0
41
1
10
62.1493584270764
20
0.943588729969719
30
0
41
1
10
61.9297036674786
20
1.0315277269878
30
0
41
1
10
61.7156584005259
20
1.13397294086033
30
0
0
SPLINE
5
1C8
100
AcDbEntity
8
1
62
256
6
ByLayer
370
-1
48
1
60
0
100
AcDbSpline
70
4
71
3
72
10
73
6
40
0
40
0
40
0
40
0
40
0.5
40
0.5
40
1
40
1
40
1
40
1
41
1
10
64.7673304626642
20
1.6402459368947
30
0
41
1
10
64.5166308220649
20
1.56817899912039
30
0
41
1
10
64.2643993923401
20
1.5098985401745
30
0
41
1
10
63.7630931541183
20
1.4191813268628
30
0
41
1
10
63.5140336091682
20
1.38674870853217
30
0
41
1
10
63.2698240173113
20
1.36527354308109
30
0
0
SPLINE
5
1C9
100
AcDbEntity
8
1
62
256
6
ByLayer
370
-1
48
1
60
0
100
AcDbSpline
70
4
71
3
72
22
73
18
40
0
40
0
40
0
40
0
40
0.131969480509957
40
0.131969480509957
40
0.263938961019915
40
0.263938961019915
40
0.395908441529872
40
0.395908441529872
40
0.527877922039829
40
0.527877922039829
40
0.659847402549787
40
0.659847402549787
40
0.791816883059744
40
0.791816883059744
40
0.923786363569701
40
0.923786363569701
40
1
40
1
40
1
40
1
41
1
10
17.7132330011263
20
2.31321278872193
30
0
41
1
10
17.3099611704749
20
2.24025667214323
30
0
41
1
10
16.8867454674406
20
2.10763345504404
30
0
41
1
10
16.0382940526039
20
1.73491944227678
30
0
41
1
10
15.6131741519981
20
1.4948795210077
30
0
41
1
10
14.7991840807864
20
0.928911710465513
30
0
41
1
10
14.4104250175021
20
0.603061074183216
30
0
41
1
10
13.704163522132
20
-0.105217781308056
30
0
41
1
10
13.3867574927247
20
-0.487549322474706
30
0
41
1
10
12.8517951581669
20
-1.27438705539785
30
0
41
1
10
12.6343118738484
20
-1.67878584604949
30
0
41
1
10
12.3188006505754
20
-2.47335920569034
30
0
41
1
10
12.2208157780024
20
-2.86342531768369
30
0
41
1
10
12.1531548257597
20
-3.59421476970121
30
0
41
1
10
12.1834879816169
20
-3.93483835905087
30
0
41
1
10
12.3304168116912
20
-4.40905918527483
30
0
41
1
10
12.4051445033231
20
-4.56929501841609
30
0
41
1
10
12.4994672291698
20
-4.7139145486957
30
0
0
SPLINE
5
1CA
100
AcDbEntity
8
1
62
256
6
ByLayer
370
-1
48
1
60
0
100
AcDbSpline
70
4
71
3
72
8
73
4
40
0
40
0
40
0
40
0
40
1
40
1
40
1
40
1
41
1
10
12.6561344073072
20
-4.91959100421903
30
0
41
1
10
12.6822354207224
20
-4.94907321355146
30
0
41
1
10
12.7093343122178
20
-4.97767239165154
30
0
41
1
10
12.7374148086709
20
-5.00536134845623
30
0
0
SPLINE
5
1CB
100
AcDbEntity
8
1
62
256
6
ByLayer
370
-1
48
1
60
0
100
AcDbSpline
70
4
71
3
72
54
73
50
40
0
40
0
40
0
40
0
40
0.0312500000000002
40
0.0312500000000002
40
0.0625000000000004
40
0.0625000000000004
40
0.125
40
0.125
40
0.1875
40
0.1875
40
0.25
40
0.25
40
0.3125
40
0.3125
40
0.34375
40
0.34375
40
0.375
40
0.375
40
0.437499999999999
40
0.437499999999999
40
0.468749999999999
40
0.468749999999999
40
0.499999999999999
40
0.499999999999999
40
0.531249999999999
40
0.531249999999999
40
0.562499999999998
40
0.562499999999998
40
0.593749999999998
40
0.593749999999998
40
0.624999999999998
40
0.624999999999998
40
0.687499999999998
40
0.687499999999998
40
0.718749999999998
40
0.718749999999998
40
0.749999999999998
40
0.749999999999998
40
0.781249999999998
40
0.781249999999998
40
0.812499999999998
40
0.812499999999998
40
0.874999999999998
40
0.874999999999998
40
0.906249999999999
40
0.906249999999999
40
0.937499999999999
40
0.937499999999999
40
1
40
1
40
1
40
1
41
1
10
10.1212490480315
20
8.58754987233965
30
0
41
1
10
10.0415175640937
20
8.63992043427612
30
0
41
1
10
9.96418788076221
20
8.69223047265663
30
0
41
1
10
9.81406384515256
20
8.79704407456342
30
0
41
1
10
9.73921972758626
20
8.84773864260859
30
0
41
1
10
9.52098007519311
20
8.99996476705346
30
0
41
1
10
9.38221942395569
20
9.10032887213953
30
0
41
1
10
9.11354814697143
20
9.29613823782594
30
0
41
1
10
8.98365431001142
20
9.39159600184922
30
0
41
1
10
8.72886333769722
20
9.57369447570929
30
0
41
1
10
8.60397549957497
20
9.66036217467891
30
0
41
1
10
8.35567294125846
20
9.81919007933178
30
0
41
1
10
8.23226190519534
20
9.8914073536439
30
0
41
1
10
8.04571107557115
20
9.98235519562047
30
0
41
1
10
7.98315297603165
20
10.0097774600957
30
0
41
1
10
7.85870963324368
20
10.0566932022303
30
0
41
1
10
7.7966750539135
20
10.076271926051
30
0
41
1
10
7.61102915246414
20
10.121138597753
30
0
41
1
10
7.48777142236045
20
10.1327175826214
30
0
41
1
10
7.3047112140556
20
10.1112923347986
30
0
41
1
10
7.24465680143513
20
10.0976491431579
30
0
41
1
10
7.1284411744729
20
10.056739758286
30
0
41
1
10
7.07206346576606
20
10.0294539308274
30
0
41
1
10
6.96350920514553
20
9.96053338638279
30
0
41
1
10
6.91109841171001
20
9.91866341418915
30
0
41
1
10
6.81245264829266
20
9.82095186245641
30
0
41
1
10
6.76676048582607
20
9.76575205886775
30
0
41
1
10
6.68285037828159
20
9.64362752243753
30
0
41
1
10
6.64463184910735
20
9.57670478885186
30
0
41
1
10
6.57596186531023
20
9.43182671391963
30
0
41
1
10
6.54538054521132
20
9.35337275209446
30
0
41
1
10
6.46726936712903
20
9.10694219406227
30
0
41
1
10
6.43280181989027
20
8.92780920081793
30
0
41
1
10
6.40576794718669
20
8.64019194882792
30
0
41
1
10
6.40093415084118
20
8.54101921411689
30
0
41
1
10
6.39931409970464
20
8.34011133411789
30
0
41
1
10
6.40247307428589
20
8.23793515205199
30
0
41
1
10
6.41616560446596
20
8.03025601082015
30
0
41
1
10
6.42670116598782
20
7.9247516624817
30
0
41
1
10
6.45470407444952
20
7.7103684212193
30
0
41
1
10
6.47226481108828
20
7.6010617427028
30
0
41
1
10
6.53384452206899
20
7.27241282595844
30
0
41
1
10
6.58671091195032
20
7.05163276465413
30
0
41
1
10
6.67955874980996
20
6.71698739547415
30
0
41
1
10
6.71277553329764
20
6.60485734821
30
0
41
1
10
6.78313379107689
20
6.37926488859569
30
0
41
1
10
6.82031770050673
20
6.2657148494375
30
0
41
1
10
6.93508758906955
20
5.92794023802171
30
0
41
1
10
7.01635820008167
20
5.70482690975382
30
0
41
1
10
7.10017131892201
20
5.48292093336417
30
0
0
SPLINE
5
1CC
100
AcDbEntity
8
1
62
256
6
ByLayer
370
-1
48
1
60
0
100
AcDbSpline
70
4
71
3
72
12
73
8
40
0
40
0
40
0
40
0
40
0.5
40
0.5
40
0.75
40
0.75
40
1
40
1
40
1
40
1
41
1
10
11.7564745296658
20
-3.62245777402083
30
0
41
1
10
11.8970130738022
20
-3.82884079029648
30
0
41
1
10
12.0510457310447
20
-4.04948335974478
30
0
41
1
10
12.2973505645733
20
-4.39750890521412
30
0
41
1
10
12.3820583169148
20
-4.51630666424134
30
0
41
1
10
12.5564616326138
20
-4.75839565676117
30
0
41
1
10
12.6461483299471
20
-4.88165559493262
30
0
41
1
10
12.7374181730623
20
-5.00535818232839
30
0
0
SPLINE
5
1CD
100
AcDbEntity
8
1
62
256
6
ByLayer
370
-1
48
1
60
0
100
AcDbSpline
70
4
71
3
72
8
73
4
40
0
40
0
40
0
40
0
40
1
40
1
40
1
40
1
41
1
10
14.3599635326421
20
6.56703440155323
30
0
41
1
10
15.5102950050672
20
5.13777761519501
30
0
41
1
10
16.6218432583466
20
3.71490278083937
30
0
41
1
10
17.7132330011236
20
2.31321278872272
30
0
0
SPLINE
5
1CE
100
AcDbEntity
8
1
62
256
6
ByLayer
370
-1
48
1
60
0
100
AcDbSpline
70
4
71
3
72
10
73
6
40
0
40
0
40
0
40
0
40
0.5
40
0.5
40
1
40
1
40
1
40
1
41
1
10
65.5841329093475
20
5.66189681014862
30
0
41
1
10
65.5875476318988
20
5.66189681014862
30
0
41
1
10
65.5945151112343
20
5.6662183083005
30
0
41
1
10
65.6149151879932
20
5.68215015476824
30
0
41
1
10
65.6284088050599
20
5.69380931357009
30
0
41
1
10
65.6444533828897
20
5.70780285119343
30
0
0
SPLINE
5
1CF
100
AcDbEntity
8
1
62
256
6
ByLayer
370
-1
48
1
60
0
100
AcDbSpline
70
4
71
3
72
24
73
20
40
0
40
0
40
0
40
0
40
0.249999999999999
40
0.249999999999999
40
0.374999999999999
40
0.374999999999999
40
0.499999999999999
40
0.499999999999999
40
0.531249999999998
40
0.531249999999998
40
0.562499999999998
40
0.562499999999998
40
0.624999999999999
40
0.624999999999999
40
0.749999999999999
40
0.749999999999999
40
0.875
40
0.875
40
1
40
1
40
1
40
1
41
1
10
7.75647452966561
20
0.805103596842685
30
0
41
1
10
8.07994592638997
20
0.115497464042647
30
0
41
1
10
8.41339307518754
20
-0.467624875070015
30
0
41
1
10
8.91770602705614
20
-1.31119950472518
30
0
41
1
10
9.08620113212828
20
-1.58709514729554
30
0
41
1
10
9.42233845152697
20
-2.14063574532878
30
0
41
1
10
9.5900407838559
20
-2.41827824656514
30
0
41
1
10
9.79889317777713
20
-2.76769766648138
30
0
41
1
10
9.8406501838916
20
-2.83743904723173
30
0
41
1
10
9.92435002448082
20
-2.97464526867839
30
0
41
1
10
9.966155580074
20
-3.04346288966718
30
0
41
1
10
10.0914344843944
20
-3.25061351142972
30
0
41
1
10
10.1747835548502
20
-3.38941127051802
30
0
41
1
10
10.4244992501176
20
-3.80512347274728
30
0
41
1
10
10.5905357774845
20
-4.08121600613262
30
0
41
1
10
10.9226290911152
20
-4.62167359169499
30
0
41
1
10
11.0886841428544
20
-4.88612955217477
30
0
41
1
10
11.4216867945913
20
-5.39752116150194
30
0
41
1
10
11.588632503992
20
-5.64450321868986
30
0
41
1
10
11.7564745296657
20
-5.88061976738405
30
0
0
SPLINE
5
1D0
100
AcDbEntity
8
1
62
256
6
ByLayer
370
-1
48
1
60
0
100
AcDbSpline
70
4
71
3
72
8
73
4
40
0
40
0
40
0
40
0
40
1
40
1
40
1
40
1
41
1
10
11.7564745296657
20
-3.62245777402083
30
0
41
1
10
11.7564745296657
20
-4.37517843847524
30
0
41
1
10
11.7564745296657
20
-5.12789910292963
30
0
41
1
10
11.7564745296657
20
-5.88061976738405
30
0
0
SPLINE
5
1D1
100
AcDbEntity
8
1
62
256
6
ByLayer
370
-1
48
1
60
0
100
AcDbSpline
70
4
71
2
72
6
73
3
40
0
40
0
40
0
40
1
40
1
40
1
41
1
10
7.75647452966552
20
2.71703842502961
30
0
41
1
10
7.75647452966555
20
1.76107101093615
30
0
41
1
10
7.75647452966558
20
0.805103596842713
30
0
0
SPLINE
5
1D2
100
AcDbEntity
8
1
62
256
6
ByLayer
370
-1
48
1
60
0
100
AcDbSpline
70
4
71
3
72
8
73
4
40
0
40
0
40
0
40
0
40
1
40
1
40
1
40
1
41
1
10
16
20
6.00691524742697
30
0
41
1
10
16.6041285471503
20
5.7890784664562
30
0
41
1
10
17.1709258814607
20
5.51811450375743
30
0
41
1
10
17.7132330011237
20
5.19667769950942
30
0
0
SPLINE
5
1D3
100
AcDbEntity
8
1
62
256
6
ByLayer
370
-1
48
1
60
0
100
AcDbSpline
70
4
71
3
72
8
73
4
40
0
40
0
40
0
40
0
40
1
40
1
40
1
40
1
41
1
10
66.5946787253313
20
2.68933547686933
30
0
41
1
10
66.5826738593483
20
2.6889146563625
30
0
41
1
10
66.5706682305593
20
2.68851576320822
30
0
41
1
10
66.5586619184626
20
2.68813880004791
30
0
0
SPLINE
5
1D4
100
AcDbEntity
8
1
62
256
6
ByLayer
370
-1
48
1
60
0
100
AcDbSpline
70
4
71
3
72
153
73
149
40
0
40
0
40
0
40
0
40
0.125
40
0.25
40
0.375
40
0.3828125
40
0.390625
40
0.398193359375
40
0.4019775390625
40
0.405643463134766
40
0.40576171875
40
0.406005859375
40
0.40625
40
0.4072265625
40
0.40771484375
40
0.408203125
40
0.4091796875
40
0.41015625
40
0.412109375
40
0.4140625
40
0.416015625
40
0.4169921875
40
0.41796875
40
0.4189453125
40
0.41943359375
40
0.419921875
40
0.42041015625
40
0.4208984375
40
0.421875
40
0.422119140625
40
0.42236328125
40
0.422477722167969
40
0.426025390625
40
0.4296875
40
0.4375
40
0.439453125
40
0.44140625
40
0.443359375
40
0.4443359375
40
0.4453125
40
0.445556640625
40
0.44580078125
40
0.446044921875
40
0.4462890625
40
0.4464111328125
40
0.44677734375
40
0.447265625
40
0.44921875
40
0.453125
40
0.4609375
40
0.46484375
40
0.46875
40
0.46923828125
40
0.4697265625
40
0.47021484375
40
0.4705810546875
40
0.470703125
40
0.4708251953125
40
0.47119140625
40
0.471435546875
40
0.4716796875
40
0.4718017578125
40
0.47216796875
40
0.472412109375
40
0.47265625
40
0.4727783203125
40
0.474609375
40
0.4755859375
40
0.4765625
40
0.48046875
40
0.482421875
40
0.484375
40
0.486328125
40
0.48828125
40
0.490234375
40
0.4921875
40
0.494140625
40
0.49609375
40
0.498046875
40
0.5
40
0.501953125
40
0.50390625
40
0.505859375
40
0.5078125
40
0.509765625
40
0.51171875
40
0.515625
40
0.51953125
40
0.5224609375
40
0.5234375
40
0.525390625
40
0.5263671875
40
0.527099609375
40
0.52734375
40
0.52783203125
40
0.528076171875
40
0.5283203125
40
0.5284423828125
40
0.52880859375
40
0.529052734375
40
0.529296875
40
0.5294189453125
40
0.52978515625
40
0.5302734375
40
0.53125
40
0.5390625
40
0.546875
40
0.55078125
40
0.5517578125
40
0.552734375
40
0.55322265625
40
0.5537109375
40
0.553955078125
40
0.55419921875
40
0.554443359375
40
0.5545654296875
40
0.5546875
40
0.556640625
40
0.55859375
40
0.5625
40
0.56640625
40
0.5703125
40
0.573974609375
40
0.5758056640625
40
0.57763671875
40
0.577880859375
40
0.578125
40
0.5791015625
40
0.57958984375
40
0.580078125
40
0.5810546875
40
0.58203125
40
0.5859375
40
0.587890625
40
0.58984375
40
0.5908203125
40
0.591796875
40
0.5927734375
40
0.59375
40
0.593994140625
40
0.59423828125
40
0.594380187988281
40
0.601806640625
40
0.609375
40
0.625
40
0.75
40
0.875
40
1
40
1
40
1
40
1
41
1
10
70.8424572366314
20
5.78085336463761
30
0
41
1
10
70.8485133434227
20
5.60676670435467
30
0
41
1
10
70.8606255570052
20
5.25859338378882
30
0
41
1
10
70.8787938773789
20
4.73633340294006
30
0
41
1
10
70.8912845976358
20
4.37727966610652
30
0
41
1
10
70.898097717776
20
4.18143217328824
30
0
41
1
10
70.8992214094658
20
4.14913093749354
30
0
41
1
10
70.9001499336515
20
4.1224399163369
30
0
41
1
10
70.9008775609842
20
4.10152380361919
30
0
41
1
10
70.9012442393251
20
4.09098340035987
30
0
41
1
10
70.9014394068291
20
4.08537318572183
30
0
41
1
10
70.9014687928453
20
4.08452846590419
30
0
41
1
10
70.9015397628468
20
4.082488387854
30
0
41
1
10
70.9016225611818
20
4.08010829679543
30
0
41
1
10
70.9017171878504
20
4.07738819272851
30
0
41
1
10
70.901811814519
20
4.07466808866158
30
0
41
1
10
70.9019300978548
20
4.07126795857795
30
0
41
1
10
70.902119351192
20
4.0658277504441
30
0
41
1
10
70.9023559178636
20
4.0590274902768
30
0
41
1
10
70.9026397978694
20
4.05086717807603
30
0
41
1
10
70.9028763645409
20
4.04406691790874
30
0
41
1
10
70.9030656178782
20
4.03862670977489
30
0
41
1
10
70.9032075578811
20
4.03454655367452
30
0
41
1
10
70.9033258412169
20
4.03114642359086
30
0
41
1
10
70.9034204678854
20
4.02842631952393
30
0
41
1
10
70.9034914378869
20
4.02638624147374
30
0
41
1
10
70.9035624078884
20
4.02434616342356
30
0
41
1
10
70.903657034557
20
4.02162605935663
30
0
41
1
10
70.903739832892
20
4.01924596829809
30
0
41
1
10
70.9038108028935
20
4.01720589024791
30
0
41
1
10
70.903840004092
20
4.01636648313348
30
0
41
1
10
70.9040292574292
20
4.01092627499966
30
0
41
1
10
70.9043841074365
20
4.0007258847487
30
0
41
1
10
70.9051119195869
20
3.97980445932774
30
0
41
1
10
70.9057624779336
20
3.96110374386765
30
0
41
1
10
70.9063302379453
20
3.94478311946614
30
0
41
1
10
70.9066141317035
20
3.93662260901863
30
0
41
1
10
70.9068507327559
20
3.92982185323442
30
0
41
1
10
70.9070400342263
20
3.92438095123694
30
0
41
1
10
70.9071465253284
20
3.92132031376391
30
0
41
1
10
70.9072175236941
20
3.91927982682978
30
0
41
1
10
70.9072530237633
20
3.91825957058512
30
0
41
1
10
70.9072885247458
20
3.91723930117561
30
0
41
1
10
70.9073181096812
20
3.91638906537432
30
0
41
1
10
70.907353612329
20
3.91536877195836
30
0
41
1
10
70.9074009504999
20
3.91400836189334
30
0
41
1
10
70.9075370545884
20
3.91009708425244
30
0
41
1
10
70.907844814737
20
3.90125352452517
30
0
41
1
10
70.9085079715486
20
3.8822016942384
30
0
41
1
10
70.9092667451977
20
3.86041548611831
30
0
41
1
10
70.9100232321823
20
3.83866224138035
30
0
41
1
10
70.9104237452425
20
3.82712558870662
30
0
41
1
10
70.9106587020806
20
3.8203485350713
30
0
41
1
10
70.9107293317115
20
3.81831336362831
30
0
41
1
10
70.9107943759905
20
3.81644345866465
30
0
41
1
10
70.9108423501058
20
3.81507388114991
30
0
41
1
10
70.9108727009556
20
3.81421260432083
30
0
41
1
10
70.9109032566581
20
3.81334837444112
30
0
41
1
10
70.9109400014753
20
3.81230949201205
30
0
41
1
10
70.9109811743264
20
3.81111793119828
30
0
41
1
10
70.9110089248512
20
3.81028731397058
30
0
41
1
10
70.9110401121836
20
3.80931694229491
30
0
41
1
10
70.9110680878917
20
3.80837680374475
30
0
41
1
10
70.9110943193093
20
3.80730251618289
30
0
41
1
10
70.911108738454
20
3.80653983912131
30
0
41
1
10
70.9111472173773
20
3.80378464901085
30
0
41
1
10
70.9111028505141
20
3.80004460296121
30
0
41
1
10
70.9108631705558
20
3.79513128009538
30
0
41
1
10
70.9102928942311
20
3.78745830168208
30
0
41
1
10
70.909038763485
20
3.77838481964972
30
0
41
1
10
70.9067419179978
20
3.76795576472071
30
0
41
1
10
70.9045734961325
20
3.76013116940069
30
0
41
1
10
70.9019452753703
20
3.75233064642302
30
0
41
1
10
70.8988576840889
20
3.74459888230018
30
0
41
1
10
70.8953111506659
20
3.73698056354454
30
0
41
1
10
70.8913126179814
20
3.72951519032517
30
0
41
1
10
70.8868690289151
20
3.72224226281111
30
0
41
1
10
70.8819969621985
20
3.71520043120176
30
0
41
1
10
70.876712996563
20
3.70842834569655
30
0
41
1
10
70.8710423371554
20
3.70196032386309
30
0
41
1
10
70.8650101891225
20
3.69583068326898
30
0
41
1
10
70.8586488979432
20
3.69006705758011
30
0
41
1
10
70.8519908090965
20
3.68469708046229
30
0
41
1
10
70.8450731754407
20
3.6797400495374
30
0
41
1
10
70.8379332498341
20
3.67521526242734
30
0
41
1
10
70.8281686526825
20
3.6697714817883
30
0
41
1
10
70.8156010248349
20
3.6640959046064
30
0
41
1
10
70.8015713145327
20
3.65953485937141
30
0
41
1
10
70.7913664338074
20
3.65723143013159
30
0
41
1
10
70.7837536791803
20
3.65592006533217
30
0
41
1
10
70.7787058839725
20
3.65525088679803
30
0
41
1
10
70.7740434499641
20
3.65481375478748
30
0
41
1
10
70.7715854342383
20
3.65463948312191
30
0
41
1
10
70.7697563968529
20
3.65453390614124
30
0
41
1
10
70.7685446442202
20
3.65447606799458
30
0
41
1
10
70.7673015582895
20
3.65442487215984
30
0
41
1
10
70.7665034617666
20
3.65439441235247
30
0
41
1
10
70.7655193938565
20
3.65435813737742
30
0
41
1
10
70.7645054665311
20
3.65432218558649
30
0
41
1
10
70.7633020918778
20
3.65428051244078
30
0
41
1
10
70.7624396419366
20
3.65425082408555
30
0
41
1
10
70.761410010094
20
3.65421519960759
30
0
41
1
10
70.7600456212567
20
3.65416770276946
30
0
41
1
10
70.7575054544264
20
3.65407865146645
30
0
41
1
10
70.744680099663
20
3.65362747127244
30
0
41
1
10
70.7216669061135
20
3.65282007794085
30
0
41
1
10
70.6945376983201
20
3.65187018743043
30
0
41
1
10
70.6769140077257
20
3.65125276160143
30
0
41
1
10
70.6687814814616
20
3.65096779626728
30
0
41
1
10
70.6653931556929
20
3.65084906077755
30
0
41
1
10
70.6626826188095
20
3.65075407242185
30
0
41
1
10
70.6609885822346
20
3.65069470471383
30
0
41
1
10
70.6596333808142
20
3.65064721055555
30
0
41
1
10
70.6586169932821
20
3.65061158994075
30
0
41
1
10
70.6577700146273
20
3.65058190609832
30
0
41
1
10
70.6570924380835
20
3.65055815902622
30
0
41
1
10
70.6540433624859
20
3.65045129720727
30
0
41
1
10
70.6484536797796
20
3.6502553839569
30
0
41
1
10
70.6376138748983
20
3.64987543121745
30
0
41
1
10
70.6240651086497
20
3.64940049058188
30
0
41
1
10
70.6078065891513
20
3.64883056181918
30
0
41
1
10
70.5918867888092
20
3.6482725065724
30
0
41
1
10
70.5788461012949
20
3.64781537621064
30
0
41
1
10
70.5686845266084
20
3.64745917073398
30
0
41
1
10
70.563265020109
20
3.64726919447975
30
0
41
1
10
70.5600471881249
20
3.6471563960788
30
0
41
1
10
70.5580148731876
20
3.64708515498347
30
0
41
1
10
70.5556438390942
20
3.64700204037223
30
0
41
1
10
70.5529340858444
20
3.64690705224513
30
0
41
1
10
70.5502243325947
20
3.646812064118
30
0
41
1
10
70.5468371410325
20
3.64669332895912
30
0
41
1
10
70.5387078812834
20
3.64640836457778
30
0
41
1
10
70.5292237449093
20
3.64607590613286
30
0
41
1
10
70.5183847319104
20
3.64569595362443
30
0
41
1
10
70.5116103487861
20
3.64545848330664
30
0
41
1
10
70.5061908422866
20
3.64526850705241
30
0
41
1
10
70.5021262124121
20
3.64512602486173
30
0
41
1
10
70.4980615825375
20
3.64498354267104
30
0
41
1
10
70.4950131101315
20
3.64487668102805
30
0
41
1
10
70.4929807951943
20
3.64480543993273
30
0
41
1
10
70.4921064763723
20
3.64477479141982
30
0
41
1
10
70.4812674633734
20
3.64439483891138
30
0
41
1
10
70.460266875688
20
3.64365868092622
30
0
41
1
10
70.4177851425144
20
3.64216951940529
30
0
41
1
10
70.2121826146916
20
3.63496229526047
30
0
41
1
10
69.8436561727291
20
3.62204390997289
30
0
41
1
10
69.323383548782
20
3.60380618956691
30
0
41
1
10
68.9765351328174
20
3.59164770929627
30
0
41
1
10
68.803110924835
20
3.58556846916093
30
0
0
SPLINE
5
1D5
100
AcDbEntity
8
1
62
256
6
ByLayer
370
-1
48
1
60
0
100
AcDbSpline
70
4
71
3
72
19
73
15
40
0
40
0
40
0
40
0
40
0.0403657336154861
40
0.106300330648543
40
0.1722349276816
40
0.238169524714657
40
0.370038718780771
40
0.501907912846885
40
0.765646300979112
40
0.831580898012169
40
0.897515495045226
40
0.930482793561754
40
0.963450092078283
40
1
40
1
40
1
40
1
41
1
10
65.8990032365079
20
3.30556784374278
30
0
41
1
10
65.8990439325322
20
3.30444157302975
30
0
41
1
10
65.8991539470189
20
3.30147595676678
30
0
41
1
10
65.8993531578017
20
3.29667233449786
30
0
41
1
10
65.8996248296016
20
3.29115610429955
30
0
41
1
10
65.9000403280926
20
3.28380268669431
30
0
41
1
10
65.9006522428086
20
3.27461548414209
30
0
41
1
10
65.9018322067247
20
3.25992983109961
30
0
41
1
10
65.9031329221378
20
3.24710350169801
30
0
41
1
10
65.9044313234322
20
3.23613291769863
30
0
41
1
10
65.9050054133525
20
3.23156669421431
30
0
41
1
10
65.905486042309
20
3.22791719798227
30
0
41
1
10
65.9058687858414
20
3.22508221433628
30
0
41
1
10
65.9061336739253
20
3.22315974193822
30
0
41
1
10
65.9062738178416
20
3.22214901964361
30
0
0
SPLINE
5
1D6
100
AcDbEntity
8
1
62
256
6
ByLayer
370
-1
48
1
60
0
100
AcDbSpline
70
4
71
3
72
8
73
4
40
0
40
0
40
0
40
0
40
1
40
1
40
1
40
1
41
1
10
65.8990672242167
20
3.30557020452861
30
0
41
1
10
65.8986043185271
20
3.31761935462649
30
0
41
1
10
65.8981632539696
20
3.3296693502422
30
0
41
1
10
65.8977440334648
20
3.3417201115829
30
0
0
SPLINE
5
1D7
100
AcDbEntity
8
1
62
256
6
ByLayer
370
-1
48
1
60
0
100
AcDbSpline
70
4
71
3
72
8
73
4
40
0
40
0
40
0
40
0
40
1
40
1
40
1
40
1
41
1
10
70.8979090247402
20
8.72422264033131
30
0
41
1
10
70.9099138907231
20
8.72464346083814
30
0
41
1
10
70.9219195195122
20
8.72504235399242
30
0
41
1
10
70.9339258316089
20
8.72541931715273
30
0
0
SPLINE
5
1D8
100
AcDbEntity
8
1
62
256
6
ByLayer
370
-1
48
1
60
0
100
AcDbSpline
70
4
71
3
72
14
73
10
40
0
40
0
40
0
40
0
40
0.0050966481374707
40
0.0240065217780212
40
0.0435263913424608
40
0.0630462609069004
40
0.375364173937934
40
0.687682086968967
40
1
40
1
40
1
40
1
41
1
10
65.7403324321932
20
7.86661302355083
30
0
41
1
10
65.7404661749567
20
7.86276938789626
30
0
41
1
10
65.7410961067602
20
7.84466488126623
30
0
41
1
10
65.7422380321886
20
7.81183950500068
30
0
41
1
10
65.7437583543276
20
7.76813687344935
30
0
41
1
10
65.7529763075072
20
7.50316091793812
30
0
41
1
10
65.7698758883365
20
7.01737166616755
30
0
41
1
10
65.7944570968156
20
6.31076911813761
30
0
41
1
10
65.8108445691349
20
5.83970075278432
30
0
41
1
10
65.8190383052946
20
5.60416657010768
30
0
0
SPLINE
5
1D9
100
AcDbEntity
8
1
62
256
6
ByLayer
370
-1
48
1
60
0
100
AcDbSpline
70
4
71
3
72
19
73
15
40
0
40
0
40
0
40
0
40
0.040365733615493
40
0.106300330648549
40
0.172234927681605
40
0.238169524714661
40
0.370038718780773
40
0.501907912846885
40
0.765646300979108
40
0.831580898012164
40
0.89751549504522
40
0.930482793561748
40
0.963450092078276
40
1
40
1
40
1
40
1
41
1
10
71.5935845135636
20
8.10799027345789
30
0
41
1
10
71.5935438175393
20
8.10911654417092
30
0
41
1
10
71.5934338030526
20
8.11208216043386
30
0
41
1
10
71.5932345922698
20
8.11688578270281
30
0
41
1
10
71.59296292047
20
8.12240201290109
30
0
41
1
10
71.5925474219789
20
8.12975543050635
30
0
41
1
10
71.5919355072629
20
8.13894263305855
30
0
41
1
10
71.5907555433467
20
8.15362828610103
30
0
41
1
10
71.5894548279337
20
8.16645461550263
30
0
41
1
10
71.5881564266393
20
8.17742519950201
30
0
41
1
10
71.587582336719
20
8.18199142298636
30
0
41
1
10
71.5871017077625
20
8.18564091921837
30
0
41
1
10
71.58671896423
20
8.18847590286435
30
0
41
1
10
71.5864540761462
20
8.19039837526242
30
0
41
1
10
71.5863139322299
20
8.19140909755706
30
0
0
SPLINE
5
1DA
100
AcDbEntity
8
1
62
256
6
ByLayer
370
-1
48
1
60
0
100
AcDbSpline
70
4
71
3
72
22
73
18
40
0
40
0
40
0
40
0
40
0.002350527543948
40
0.0123487527330665
40
0.0223469779221851
40
0.0623398786786592
40
0.102332779435124
40
0.182318580948082
40
0.262304382461025
40
0.342290183973978
40
0.662233390025771
40
0.812206767862549
40
0.957493477641914
40
0.962180145699327
40
0.972178370888441
40
0.982176596077564
40
1
40
1
40
1
40
1
41
1
10
71.1545216666527
20
8.71439369674388
30
0
41
1
10
71.1544179243971
20
8.71440107305295
30
0
41
1
10
71.1538717014443
20
8.71443982835089
30
0
41
1
10
71.1528711663334
20
8.7145101767934
30
0
41
1
10
71.1501565504825
20
8.71469974898565
30
0
41
1
10
71.1460657528161
20
8.71498604654875
30
0
41
1
10
71.1387550859679
20
8.71549893860373
30
0
41
1
10
71.1295743969173
20
8.71614440565983
30
0
41
1
10
71.1185830896826
20
8.71691634400923
30
0
41
1
10
71.0966259948393
20
8.71845759859019
30
0
41
1
10
71.0714668236646
20
8.72022361946418
30
0
41
1
10
71.043320000913
20
8.72219935531695
30
0
41
1
10
71.0295967876225
20
8.72316284449587
30
0
41
1
10
71.0222777250605
20
8.72367681475976
30
0
41
1
10
71.0211484163417
20
8.72375612044391
30
0
41
1
10
71.0194181160119
20
8.7238773236522
30
0
41
1
10
71.0181453359286
20
8.72396584650528
30
0
41
1
10
71.0173299594519
20
8.72402198879453
30
0
0
SPLINE
5
1DB
100
AcDbEntity
8
1
62
256
6
ByLayer
370
-1
48
1
60
0
100
AcDbSpline
70
4
71
3
72
13
73
9
40
0
40
0
40
0
40
0
40
0.312317913031033
40
0.624635826062066
40
0.936953739093099
40
0.975993478221978
40
0.994903351862529
40
1
40
1
40
1
40
1
41
1
10
71.6735494447769
20
5.80939154709296
30
0
41
1
10
71.6653557086172
20
6.0449257297696
30
0
41
1
10
71.6489682362978
20
6.51599409512289
30
0
41
1
10
71.6243870278188
20
7.22259664315283
30
0
41
1
10
71.6069753384795
20
7.7231067813407
30
0
41
1
10
71.5972612801809
20
8.00234359556868
30
0
41
1
10
71.5956072462425
20
8.0498898582515
30
0
41
1
10
71.5949775427629
20
8.06799437288524
30
0
41
1
10
71.5948438615379
20
8.07183801069701
30
0
0
SPLINE
5
1DC
100
AcDbEntity
8
1
62
256
6
ByLayer
370
-1
48
1
60
0
100
AcDbSpline
70
4
71
3
72
14
73
10
40
0
40
0
40
0
40
0
40
0.0050966481374765
40
0.0240065217780269
40
0.0435263913424664
40
0.0630462609069058
40
0.375364173937937
40
0.687682086968969
40
1
40
1
40
1
40
1
41
1
10
70.897909019678
20
8.7242227858161
30
0
41
1
10
70.8940800102174
20
8.72408853217692
30
0
41
1
10
70.876044396701
20
8.72345619413636
30
0
41
1
10
70.8433439309024
20
8.7223099067383
30
0
41
1
10
70.7998076010583
20
8.72078377721573
30
0
41
1
10
70.5358399590563
20
8.71153061295246
30
0
41
1
10
70.0518992820524
20
8.6945664784698
30
0
41
1
10
69.3479855700469
20
8.66989137376777
30
0
41
1
10
68.8787097620432
20
8.65344130396642
30
0
41
1
10
68.6440718580413
20
8.64521626906574
30
0
0
SPLINE
5
1DD
100
AcDbEntity
8
1
62
256
6
ByLayer
370
-1
48
1
60
0
100
AcDbSpline
70
4
71
3
72
153
73
149
40
0
40
0
40
0
40
0
40
0.125
40
0.25
40
0.375
40
0.3828125
40
0.390625
40
0.398193359375
40
0.4019775390625
40
0.405643463134766
40
0.40576171875
40
0.406005859375
40
0.40625
40
0.4072265625
40
0.40771484375
40
0.408203125
40
0.4091796875
40
0.41015625
40
0.412109375
40
0.4140625
40
0.416015625
40
0.4169921875
40
0.41796875
40
0.4189453125
40
0.41943359375
40
0.419921875
40
0.42041015625
40
0.4208984375
40
0.421875
40
0.422119140625
40
0.42236328125
40
0.422477722167969
40
0.426025390625
40
0.4296875
40
0.4375
40
0.439453125
40
0.44140625
40
0.443359375
40
0.4443359375
40
0.4453125
40
0.445556640625
40
0.44580078125
40
0.446044921875
40
0.4462890625
40
0.4464111328125
40
0.44677734375
40
0.447265625
40
0.44921875
40
0.453125
40
0.4609375
40
0.46484375
40
0.46875
40
0.46923828125
40
0.4697265625
40
0.47021484375
40
0.4705810546875
40
0.470703125
40
0.4708251953125
40
0.47119140625
40
0.471435546875
40
0.4716796875
40
0.4718017578125
40
0.47216796875
40
0.472412109375
40
0.47265625
40
0.4727783203125
40
0.474609375
40
0.4755859375
40
0.4765625
40
0.48046875
40
0.482421875
40
0.484375
40
0.486328125
40
0.48828125
40
0.490234375
40
0.4921875
40
0.494140625
40
0.49609375
40
0.498046875
40
0.5
40
0.501953125
40
0.50390625
40
0.505859375
40
0.5078125
40
0.509765625
40
0.51171875
40
0.515625
40
0.51953125
40
0.5224609375
40
0.5234375
40
0.525390625
40
0.5263671875
40
0.527099609375
40
0.52734375
40
0.52783203125
40
0.528076171875
40
0.5283203125
40
0.5284423828125
40
0.52880859375
40
0.529052734375
40
0.529296875
40
0.5294189453125
40
0.52978515625
40
0.5302734375
40
0.53125
40
0.5390625
40
0.546875
40
0.55078125
40
0.5517578125
40
0.552734375
40
0.55322265625
40
0.5537109375
40
0.553955078125
40
0.55419921875
40
0.554443359375
40
0.5545654296875
40
0.5546875
40
0.556640625
40
0.55859375
40
0.5625
40
0.56640625
40
0.5703125
40
0.573974609375
40
0.5758056640625
40
0.57763671875
40
0.577880859375
40
0.578125
40
0.5791015625
40
0.57958984375
40
0.580078125
40
0.5810546875
40
0.58203125
40
0.5859375
40
0.587890625
40
0.58984375
40
0.5908203125
40
0.591796875
40
0.5927734375
40
0.59375
40
0.593994140625
40
0.59423828125
40
0.594380187988281
40
0.601806640625
40
0.609375
40
0.625
40
0.75
40
0.875
40
1
40
1
40
1
40
1
41
1
10
66.6161797511602
20
5.63270475256306
30
0
41
1
10
66.610123644369
20
5.80679141284597
30
0
41
1
10
66.5980114307865
20
6.15496473341182
30
0
41
1
10
66.5798431104128
20
6.6772247142606
30
0
41
1
10
66.5673523901559
20
7.03627845109412
30
0
41
1
10
66.5605392700157
20
7.23212594391242
30
0
41
1
10
66.559415578326
20
7.2644271797071
30
0
41
1
10
66.5584870541402
20
7.29111820086376
30
0
41
1
10
66.5577594268075
20
7.31203431358148
30
0
41
1
10
66.5573927484667
20
7.32257471684079
30
0
41
1
10
66.5571975809626
20
7.3281849314788
30
0
41
1
10
66.5571681949464
20
7.32902965129645
30
0
41
1
10
66.5570972249449
20
7.33106972934667
30
0
41
1
10
66.5570144266099
20
7.33344982040521
30
0
41
1
10
66.5569197999413
20
7.33616992447213
30
0
41
1
10
66.5568251732727
20
7.33889002853905
30
0
41
1
10
66.5567068899369
20
7.34229015862269
30
0
41
1
10
66.5565176365997
20
7.34773036675654
30
0
41
1
10
66.5562810699282
20
7.35453062692383
30
0
41
1
10
66.5559971899223
20
7.3626909391246
30
0
41
1
10
66.5557606232508
20
7.3694911992919
30
0
41
1
10
66.5555713699135
20
7.37493140742575
30
0
41
1
10
66.5554294299106
20
7.37901156352612
30
0
41
1
10
66.5553111465749
20
7.38241169360978
30
0
41
1
10
66.5552165199063
20
7.38513179767671
30
0
41
1
10
66.5551455499048
20
7.38717187572689
30
0
41
1
10
66.5550745799033
20
7.38921195377708
30
0
41
1
10
66.5549799532347
20
7.391932057844
30
0
41
1
10
66.5548971548997
20
7.39431214890257
30
0
41
1
10
66.5548261848982
20
7.39635222695276
30
0
41
1
10
66.5547969836997
20
7.39719163406716
30
0
41
1
10
66.5546077303625
20
7.402631842201
30
0
41
1
10
66.5542528803552
20
7.41283223245193
30
0
41
1
10
66.5535250682048
20
7.4337536578729
30
0
41
1
10
66.552874509858
20
7.45245437333298
30
0
41
1
10
66.5523067498464
20
7.4687749977345
30
0
41
1
10
66.5520228560882
20
7.47693550818204
30
0
41
1
10
66.5517862550358
20
7.48373626396622
30
0
41
1
10
66.5515969535654
20
7.4891771659637
30
0
41
1
10
66.5514904624633
20
7.49223780343672
30
0
41
1
10
66.5514194640976
20
7.49427829037086
30
0
41
1
10
66.5513839640284
20
7.49529854661554
30
0
41
1
10
66.5513484630459
20
7.49631881602505
30
0
41
1
10
66.5513188781105
20
7.49716905182632
30
0
41
1
10
66.5512833754627
20
7.49818934524228
30
0
41
1
10
66.5512360372918
20
7.4995497553073
30
0
41
1
10
66.5510999332034
20
7.5034610329482
30
0
41
1
10
66.5507921730548
20
7.51230459267546
30
0
41
1
10
66.5501290162431
20
7.53135642296223
30
0
41
1
10
66.549370242594
20
7.55314263108232
30
0
41
1
10
66.5486137556094
20
7.57489587582029
30
0
41
1
10
66.5482132425492
20
7.58643252849404
30
0
41
1
10
66.5479782857111
20
7.59320958212933
30
0
41
1
10
66.5479076560802
20
7.59524475357233
30
0
41
1
10
66.5478426118013
20
7.59711465853599
30
0
41
1
10
66.5477946376859
20
7.59848423605072
30
0
41
1
10
66.5477642868361
20
7.59934551287981
30
0
41
1
10
66.5477337311337
20
7.60020974275952
30
0
41
1
10
66.5476969863164
20
7.60124862518859
30
0
41
1
10
66.5476558134653
20
7.60244018600238
30
0
41
1
10
66.5476280629405
20
7.60327080323006
30
0
41
1
10
66.5475968756081
20
7.60424117490575
30
0
41
1
10
66.5475688998999
20
7.60518131345589
30
0
41
1
10
66.5475426684825
20
7.60625560101775
30
0
41
1
10
66.5475282493377
20
7.60701827807932
30
0
41
1
10
66.5474897704144
20
7.60977346818979
30
0
41
1
10
66.5475341372776
20
7.61351351423943
30
0
41
1
10
66.547773817236
20
7.61842683710526
30
0
41
1
10
66.5483440935606
20
7.62609981551856
30
0
41
1
10
66.5495982243067
20
7.63517329755092
30
0
41
1
10
66.5518950697939
20
7.64560235247993
30
0
41
1
10
66.5540634916592
20
7.65342694779994
30
0
41
1
10
66.5566917124214
20
7.66122747077762
30
0
41
1
10
66.5597793037028
20
7.66895923490048
30
0
41
1
10
66.5633258371258
20
7.6765775536561
30
0
41
1
10
66.5673243698103
20
7.68404292687546
30
0
41
1
10
66.5717679588766
20
7.69131585438953
30
0
41
1
10
66.5766400255932
20
7.6983576859989
30
0
41
1
10
66.5819239912287
20
7.70512977150409
30
0
41
1
10
66.5875946506363
20
7.71159779333755
30
0
41
1
10
66.5936267986693
20
7.71772743393166
30
0
41
1
10
66.5999880898485
20
7.72349105962053
30
0
41
1
10
66.6066461786952
20
7.72886103673835
30
0
41
1
10
66.6135638123509
20
7.73381806766324
30
0
41
1
10
66.6207037379576
20
7.73834285477329
30
0
41
1
10
66.6304683351093
20
7.74378663541233
30
0
41
1
10
66.6430359629568
20
7.74946221259424
30
0
41
1
10
66.657065673259
20
7.75402325782923
30
0
41
1
10
66.6672705539843
20
7.75632668706905
30
0
41
1
10
66.6748833086114
20
7.7576380518685
30
0
41
1
10
66.6799311038192
20
7.75830723040264
30
0
41
1
10
66.6845935378276
20
7.75874436241315
30
0
41
1
10
66.6870515535535
20
7.75891863407873
30
0
41
1
10
66.6888805909388
20
7.7590242110594
30
0
41
1
10
66.6900923435715
20
7.75908204920609
30
0
41
1
10
66.6913354295021
20
7.7591332450408
30
0
41
1
10
66.6921335260251
20
7.75916370484819
30
0
41
1
10
66.6931175939353
20
7.75919997982325
30
0
41
1
10
66.6941315212606
20
7.75923593161417
30
0
41
1
10
66.695334895914
20
7.75927760475986
30
0
41
1
10
66.6961973458551
20
7.75930729311509
30
0
41
1
10
66.6972269776977
20
7.75934291759305
30
0
41
1
10
66.698591366535
20
7.75939041443121
30
0
41
1
10
66.7011315333653
20
7.75947946573419
30
0
41
1
10
66.7139568881287
20
7.75993064592822
30
0
41
1
10
66.7369700816782
20
7.76073803925979
30
0
41
1
10
66.7640992894716
20
7.76168792977023
30
0
41
1
10
66.781722980066
20
7.76230535559924
30
0
41
1
10
66.7898555063301
20
7.76259032093338
30
0
41
1
10
66.7932438320988
20
7.76270905642309
30
0
41
1
10
66.7959543689822
20
7.76280404477879
30
0
41
1
10
66.7976484055571
20
7.76286341248681
30
0
41
1
10
66.7990036069775
20
7.76291090664512
30
0
41
1
10
66.8000199945096
20
7.76294652725989
30
0
41
1
10
66.8008669731644
20
7.76297621110234
30
0
41
1
10
66.8015445497082
20
7.76299995817442
30
0
41
1
10
66.8045936253059
20
7.76310681999337
30
0
41
1
10
66.8101833080121
20
7.76330273324376
30
0
41
1
10
66.8210231128934
20
7.76368268598318
30
0
41
1
10
66.8345718791421
20
7.76415762661875
30
0
41
1
10
66.8508303986404
20
7.76472755538146
30
0
41
1
10
66.8667501989825
20
7.76528561062824
30
0
41
1
10
66.8797908864968
20
7.76574274098999
30
0
41
1
10
66.8899524611833
20
7.76609894646668
30
0
41
1
10
66.8953719676828
20
7.76628892272089
30
0
41
1
10
66.8985897996668
20
7.76640172112184
30
0
41
1
10
66.9006221146041
20
7.76647296221719
30
0
41
1
10
66.9029931486976
20
7.76655607682841
30
0
41
1
10
66.9057029019473
20
7.76665106495551
30
0
41
1
10
66.908412655197
20
7.76674605308264
30
0
41
1
10
66.9117998467592
20
7.76686478824152
30
0
41
1
10
66.9199291065083
20
7.76714975262288
30
0
41
1
10
66.9294132428824
20
7.76748221106777
30
0
41
1
10
66.9402522558813
20
7.76786216357624
30
0
41
1
10
66.9470266390056
20
7.76809963389402
30
0
41
1
10
66.9524461455051
20
7.76828961014826
30
0
41
1
10
66.9565107753796
20
7.76843209233891
30
0
41
1
10
66.9605754052542
20
7.76857457452959
30
0
41
1
10
66.9636238776602
20
7.76868143617259
30
0
41
1
10
66.9656561925975
20
7.76875267726794
30
0
41
1
10
66.9665305114194
20
7.76878332578082
30
0
41
1
10
66.9773695244184
20
7.76916327828928
30
0
41
1
10
66.9983701121037
20
7.76989943627441
30
0
41
1
10
67.0408518452773
20
7.77138859779535
30
0
41
1
10
67.2464543731001
20
7.77859582194017
30
0
41
1
10
67.6149808150626
20
7.79151420722775
30
0
41
1
10
68.1352534390097
20
7.80975192763373
30
0
41
1
10
68.4821018549744
20
7.8219104079044
30
0
41
1
10
68.6555260629567
20
7.8279896480397
30
0
0
SPLINE
5
1DE
100
AcDbEntity
8
1
62
256
6
ByLayer
370
-1
48
1
60
0
100
AcDbSpline
70
4
71
3
72
22
73
18
40
0
40
0
40
0
40
0
40
0.0178234039225182
40
0.0278216291116332
40
0.0378198543007482
40
0.112806543219111
40
0.187793232137473
40
0.337766609974199
40
0.497738213000039
40
0.657709816025879
40
0.817681419051719
40
0.897667220564639
40
0.977653022077559
40
0.982652134672117
40
0.987651247266674
40
0.997649472455789
40
1
40
1
40
1
40
1
41
1
10
71.5863139322299
20
8.19140909755706
30
0
41
1
10
71.5862012620307
20
8.19222167854821
30
0
41
1
10
71.5860245062
20
8.1934900331311
30
0
41
1
10
71.5857833586784
20
8.19521425719367
30
0
41
1
10
71.585176943917
20
8.19954463699793
30
0
41
1
10
71.5841556769809
20
8.20683790371911
30
0
41
1
10
71.5822409582845
20
8.22051276758432
30
0
41
1
10
71.5797839371956
20
8.23806216179051
30
0
41
1
10
71.5767844569053
20
8.25948609757467
30
0
41
1
10
71.5737211578854
20
8.28136586177976
30
0
41
1
10
71.5711684087022
20
8.29959899861734
30
0
41
1
10
71.5691174374836
20
8.31423625167781
30
0
41
1
10
71.568067912828
20
8.32173726414158
30
0
41
1
10
71.5675009592348
20
8.32579682573879
30
0
41
1
10
71.5673752686992
20
8.32669614038227
30
0
41
1
10
71.5672668171986
20
8.32747010976578
30
0
41
1
10
71.567190200836
20
8.32801438011441
30
0
41
1
10
71.567175633802
20
8.328117750427
30
0
0
SPLINE
5
1DF
100
AcDbEntity
8
1
62
256
6
ByLayer
370
-1
48
1
60
0
100
AcDbSpline
70
4
71
3
72
23
73
19
40
0
40
0
40
0
40
0
40
0.0365499079217463
40
0.069517206438274
40
0.102484504954802
40
0.135451803471329
40
0.168419101987857
40
0.234353699020913
40
0.300288296053953
40
0.366222893087023
40
0.498092087153134
40
0.629961281219238
40
0.761830475285356
40
0.827765072318408
40
0.893699669351467
40
0.926666967867995
40
0.959634266384522
40
1
40
1
40
1
40
1
41
1
10
71.75205528495
20
3.42706798528664
30
0
41
1
10
71.7521248513501
20
3.42808605880049
30
0
41
1
10
71.7522554995942
20
3.43002239639273
30
0
41
1
10
71.752440304851
20
3.43287727498543
30
0
41
1
10
71.7526096930402
20
3.43563297095403
30
0
41
1
10
71.7527683077284
20
3.43838965621805
30
0
41
1
10
71.7529659424394
20
3.44206640096931
30
0
41
1
10
71.753187976306
20
3.44666422516676
30
0
41
1
10
71.7534174804792
20
3.45218371544863
30
0
41
1
10
71.7536737288755
20
3.45954536449986
30
0
41
1
10
71.7538997911588
20
3.4687509052344
30
0
41
1
10
71.7540172174869
20
3.47980028328163
30
0
41
1
10
71.7539892134477
20
3.48900795433281
30
0
41
1
10
71.753892703247
20
3.496372553805
30
0
41
1
10
71.7537991045025
20
3.50097406730066
30
0
41
1
10
71.7537028164066
20
3.50465402903001
30
0
41
1
10
71.7536154242065
20
3.50762012598992
30
0
41
1
10
71.7535489643835
20
3.50966633591716
30
0
41
1
10
71.7535112955632
20
3.51079271274628
30
0
0
SPLINE
5
1E0
100
AcDbEntity
8
1
62
256
6
ByLayer
370
-1
48
1
60
0
100
AcDbSpline
70
4
71
3
72
79
73
75
40
0
40
0
40
0
40
0
40
0.0017245864916245
40
0.0039792263717519
40
0.0084885061320068
40
0.0129977858922616
40
0.0220163454127714
40
0.0310349049332811
40
0.0671091430153199
40
0.139257619179397
40
0.211406095343475
40
0.220424654863985
40
0.22493393462424
40
0.228315894444431
40
0.229443214384495
40
0.231697854264622
40
0.233952494144749
40
0.237334453964941
40
0.238461773905004
40
0.240716413785132
40
0.242971053665259
40
0.247480333425514
40
0.249734973305641
40
0.256498892946024
40
0.265517452466533
40
0.283554571507553
40
0.292573131028062
40
0.319628809589592
40
0.355703047671631
40
0.391777285753669
40
0.409814404794689
40
0.427851523835708
40
0.445888642876728
40
0.463925761917747
40
0.481962880958766
40
0.499999999999786
40
0.518037119040805
40
0.536074238081825
40
0.554111357122844
40
0.572148476163863
40
0.590185595204881
40
0.608222714245902
40
0.626259833286922
40
0.644296952327941
40
0.66233407136896
40
0.680371190409982
40
0.716445428492019
40
0.725463988012527
40
0.734482547533039
40
0.751392346633994
40
0.752519666574057
40
0.754774306454185
40
0.757028946334312
40
0.760410906154507
40
0.761538226094567
40
0.763792865974697
40
0.766047505854821
40
0.769429465675015
40
0.770556785615077
40
0.771684105555139
40
0.775066065375334
40
0.779575345135587
40
0.784084624895841
40
0.788593904656096
40
0.824668142738135
40
0.860742380820174
40
0.932890856984252
40
0.96896509506629
40
0.98700221410731
40
0.991511493867565
40
0.994893453687755
40
0.996020773627819
40
0.998275413507947
40
1
40
1
40
1
40
1
41
1
10
71.567175633802
20
8.328117750427
30
0
41
1
10
71.5671282383688
20
8.32845407700952
30
0
41
1
10
71.5670192843124
20
8.32922450673584
30
0
41
1
10
71.5667870583491
20
8.33084533981599
30
0
41
1
10
71.5664738009676
20
8.33296116572632
30
0
41
1
10
71.5659564226801
20
8.33631634705725
30
0
41
1
10
71.5652684700465
20
8.34054421375606
30
0
41
1
10
71.5634903578547
20
8.35074720842934
30
0
41
1
10
71.5589763172563
20
8.37287417773743
30
0
41
1
10
71.549472696737
20
8.40714771432047
30
0
41
1
10
71.5383809909003
20
8.43606338298642
30
0
41
1
10
71.5312229361805
20
8.45201216881594
30
0
41
1
10
71.5297786605876
20
8.45515243221959
30
0
41
1
10
71.5289985905021
20
8.45682480291623
30
0
41
1
10
71.5284093457747
20
8.45807800592706
30
0
41
1
10
71.5279156891188
20
8.45912166346673
30
0
41
1
10
71.5272196829707
20
8.4605814938877
30
0
41
1
10
71.5266178732596
20
8.46183136913703
30
0
41
1
10
71.5260118805906
20
8.46308008719353
30
0
41
1
10
71.5255042730701
20
8.46411995590796
30
0
41
1
10
71.5246865283624
20
8.46578216183664
30
0
41
1
10
71.5238604292452
20
8.46744195065307
30
0
41
1
10
71.5226087627631
20
8.4699278849375
30
0
41
1
10
71.520917632516
20
8.47323568962594
30
0
41
1
10
71.5176739038584
20
8.47941451642768
30
0
41
1
10
71.514080992495
20
8.48596001672325
30
0
41
1
10
71.5084931079658
20
8.4957025053308
30
0
41
1
10
71.5006918967311
20
8.50855087671715
30
0
41
1
10
71.4891373989861
20
8.52582663506251
30
0
41
1
10
71.4777954390491
20
8.54105663633848
30
0
41
1
10
71.4682409880497
20
8.55291668828909
30
0
41
1
10
71.4608401681745
20
8.56164005048697
30
0
41
1
10
71.4532098265727
20
8.57018203368969
30
0
41
1
10
71.4453573415371
20
8.57853415709454
30
0
41
1
10
71.4372900913608
20
8.5866879398987
30
0
41
1
10
71.4290154543364
20
8.59463490129937
30
0
41
1
10
71.4205408087568
20
8.60236656049378
30
0
41
1
10
71.4118750972562
20
8.60987612063795
30
0
41
1
10
71.4030272624689
20
8.61715678488787
30
0
41
1
10
71.3940062470292
20
8.62420175639951
30
0
41
1
10
71.3848209935713
20
8.63100423832893
30
0
41
1
10
71.3754815247245
20
8.63755944006513
30
0
41
1
10
71.3659978631179
20
8.64386257099719
30
0
41
1
10
71.3563800313807
20
8.64990884051417
30
0
41
1
10
71.3466380521422
20
8.65569345800515
30
0
41
1
10
71.3334972915186
20
8.66305392919313
30
0
41
1
10
71.321818814798
20
8.66902730817827
30
0
41
1
10
71.3117062888783
20
8.67380722190617
30
0
41
1
10
71.3051505295406
20
8.67680631176404
30
0
41
1
10
71.3000494484041
20
8.67903024140691
30
0
41
1
10
71.2962121045696
20
8.6806470077631
30
0
41
1
10
71.2951455814811
20
8.68109344358581
30
0
41
1
10
71.2936513639062
20
8.68171347629431
30
0
41
1
10
71.2923694689381
20
8.68223959883744
30
0
41
1
10
71.2910866951995
20
8.68276145282229
30
0
41
1
10
71.2900171742828
20
8.68319366302183
30
0
41
1
10
71.2885188557781
20
8.68379377579166
30
0
41
1
10
71.2872335486165
20
8.68430281974508
30
0
41
1
10
71.2861617955988
20
8.68472346300331
30
0
41
1
10
71.2850897150101
20
8.68514232606188
30
0
41
1
10
71.2833733515594
20
8.68580680973571
30
0
41
1
10
71.2810109615581
20
8.68670676165877
30
0
41
1
10
71.278430993392
20
8.68767142353502
30
0
41
1
10
71.2698222634546
20
8.69082992702724
30
0
41
1
10
71.2551240246457
20
8.69576287908606
30
0
41
1
10
71.2273494349743
20
8.70360445372188
30
0
41
1
10
71.1995711281176
20
8.70930516010475
30
0
41
1
10
71.1755514810563
20
8.7125108867468
30
0
41
1
10
71.1644393988369
20
8.71360269298174
30
0
41
1
10
71.1595945029073
20
8.71401100601369
30
0
41
1
10
71.1578967109622
20
8.71414502555186
30
0
41
1
10
71.1566111673235
20
8.7142424575959
30
0
41
1
10
71.155632432065
20
8.71431433575643
30
0
41
1
10
71.1548592033921
20
8.71436969711812
30
0
41
1
10
71.1545216666525
20
8.71439369674391
30
0
0
SPLINE
5
1E1
100
AcDbEntity
8
1
62
256
6
ByLayer
370
-1
48
1
60
0
100
AcDbSpline
70
4
71
3
72
13
73
9
40
0
40
0
40
0
40
0
40
0.312317913031033
40
0.624635826062067
40
0.9369537390931
40
0.975993478221979
40
0.99490335186253
40
1
40
1
40
1
40
1
41
1
10
65.8190383052946
20
5.60416657010768
30
0
41
1
10
65.8272320414543
20
5.36863238743103
30
0
41
1
10
65.8436195137737
20
4.89756402207775
30
0
41
1
10
65.8682007222527
20
4.19096147404781
30
0
41
1
10
65.885612411592
20
3.69045133585993
30
0
41
1
10
65.8953264698907
20
3.41121452163196
30
0
41
1
10
65.8969805038291
20
3.36366825894913
30
0
41
1
10
65.8976102073086
20
3.3455637443154
30
0
41
1
10
65.8977438885336
20
3.34172010650363
30
0
0
SPLINE
5
1E2
100
AcDbEntity
8
1
62
256
6
ByLayer
370
-1
48
1
60
0
100
AcDbSpline
70
4
71
3
72
8
73
4
40
0
40
0
40
0
40
0
40
1
40
1
40
1
40
1
41
1
10
65.7403325771244
20
7.86661302863246
30
0
41
1
10
65.7399133579667
20
7.87866375125313
30
0
41
1
10
65.7395159827212
20
7.89071523959382
30
0
41
1
10
65.7391404540195
20
7.90276741385225
30
0
0
SPLINE
5
1E3
100
AcDbEntity
8
1
62
256
6
ByLayer
370
-1
48
1
60
0
100
AcDbSpline
70
4
71
3
72
48
73
44
40
0
40
0
40
0
40
0
40
0.125
40
0.1875
40
0.1953125
40
0.203125
40
0.20703125
40
0.2109375
40
0.21875
40
0.25
40
0.28125
40
0.3125
40
0.3203125
40
0.328125
40
0.34375
40
0.375
40
0.3828125
40
0.390625
40
0.39453125
40
0.3984375
40
0.40625
40
0.4375
40
0.5
40
0.5625
40
0.578125
40
0.5859375
40
0.59375
40
0.609375
40
0.625
40
0.6875
40
0.75
40
0.8125
40
0.875
40
0.9375
40
0.953125
40
0.96826171875
40
0.96875
40
0.9697265625
40
0.970703125
40
0.97265625
40
0.9765625
40
0.984375
40
1
40
1
40
1
40
1
41
1
10
68.6440718580411
20
8.64521626906571
30
0
41
1
10
68.6458745349429
20
8.60928143228614
30
0
41
1
10
68.6485785502955
20
8.55537917711675
30
0
41
1
10
68.6513952329545
20
8.49923099464866
30
0
41
1
10
68.6525219060181
20
8.47677172166141
30
0
41
1
10
68.6528038572384
20
8.4711552707241
30
0
41
1
10
68.6530283429878
20
8.46666831419819
30
0
41
1
10
68.6532497933319
20
8.46218313854928
30
0
41
1
10
68.6538455247661
20
8.44979841531156
30
0
41
1
10
68.6547516044545
20
8.42937342345027
30
0
41
1
10
68.6558015190707
20
8.40196330656806
30
0
41
1
10
68.6564659615438
20
8.38142519993733
30
0
41
1
10
68.6568559567123
20
8.3678032636559
30
0
41
1
10
68.6571012645594
20
8.3587281911301
30
0
41
1
10
68.657533997005
20
8.34281796763261
30
0
41
1
10
68.6579655400557
20
8.32691770721004
30
0
41
1
10
68.6583357699748
20
8.31328609906922
30
0
41
1
10
68.6584906188547
20
8.30759878858194
30
0
41
1
10
68.6586122257914
20
8.30307770734487
30
0
41
1
10
68.6587293499705
20
8.29858606131501
30
0
41
1
10
68.6590389285346
20
8.28617308141202
30
0
41
1
10
68.6596581712417
20
8.25691953418416
30
0
41
1
10
68.6601825099123
20
8.21249693480837
30
0
41
1
10
68.660120396307
20
8.17441377653981
30
0
41
1
10
68.6598826381173
20
8.15224814149951
30
0
41
1
10
68.6597753927418
20
8.14432208031928
30
0
41
1
10
68.6596520727675
20
8.13645430399205
30
0
41
1
10
68.6594983746828
20
8.12658074563902
30
0
41
1
10
68.6591297704097
20
8.10286090282531
30
0
41
1
10
68.6585764121166
20
8.06731997654879
30
0
41
1
10
68.6578387516869
20
8.01991912886538
30
0
41
1
10
68.6571010912573
20
7.972518281182
30
0
41
1
10
68.6563634308276
20
7.9251174334986
30
0
41
1
10
68.6558101855053
20
7.88956679773605
30
0
41
1
10
68.6554432762812
20
7.86598981360189
30
0
41
1
10
68.6553203328763
20
7.85808967232131
30
0
41
1
10
68.6552550373295
20
7.85389253791863
30
0
41
1
10
68.6552452691417
20
7.8532769985076
30
0
41
1
10
68.6552302082138
20
7.85229274009433
30
0
41
1
10
68.6552085103676
20
7.85055642855542
30
0
41
1
10
68.6551837724603
20
7.8469592284375
30
0
41
1
10
68.6552111750959
20
7.83938634931704
30
0
41
1
10
68.6553691965797
20
7.83249887229621
30
0
41
1
10
68.6555260629565
20
7.8279896480397
30
0
0
SPLINE
5
1E4
100
AcDbEntity
8
1
62
256
6
ByLayer
370
-1
48
1
60
0
100
AcDbSpline
70
4
71
3
72
48
73
44
40
0
40
0
40
0
40
0
40
0.015625
40
0.0234375
40
0.02734375
40
0.029296875
40
0.0302734375
40
0.03125
40
0.03173828125
40
0.046875
40
0.0625
40
0.125
40
0.1875
40
0.25
40
0.3125
40
0.375
40
0.390625
40
0.40625
40
0.4140625
40
0.421875
40
0.4375
40
0.5
40
0.5625
40
0.59375
40
0.6015625
40
0.60546875
40
0.609375
40
0.6171875
40
0.625
40
0.65625
40
0.671875
40
0.6796875
40
0.6875
40
0.71875
40
0.75
40
0.78125
40
0.7890625
40
0.79296875
40
0.796875
40
0.8046875
40
0.8125
40
0.875
40
1
40
1
40
1
40
1
41
1
10
70.8424572366314
20
5.78085336463755
30
0
41
1
10
70.8469493019282
20
5.78101083021841
30
0
41
1
10
70.8538921492973
20
5.78125134621581
30
0
41
1
10
70.8616722531419
20
5.78151579698198
30
0
41
1
10
70.8654056417202
20
5.78164141397809
30
0
41
1
10
70.8672174465225
20
5.78170204731313
30
0
41
1
10
70.8682472607322
20
5.78173641837429
30
0
41
1
10
70.8688916393323
20
5.78175791348417
30
0
41
1
10
70.8732841073489
20
5.78190448064717
30
0
41
1
10
70.8815519588214
20
5.78218035965978
30
0
41
1
10
70.9062263280596
20
5.78300368608805
30
0
41
1
10
70.9434316596859
20
5.78424514164479
30
0
41
1
10
70.9930387685208
20
5.78590041572048
30
0
41
1
10
71.0426458773558
20
5.78755568979614
30
0
41
1
10
71.0922529861908
20
5.78921096387179
30
0
41
1
10
71.1294484204769
20
5.79045208036581
30
0
41
1
10
71.1542717695747
20
5.7912803955291
30
0
41
1
10
71.1646049343586
20
5.7916251877844
30
0
41
1
10
71.1728397946973
20
5.79189993658792
30
0
41
1
10
71.1811186711055
20
5.79217672074339
30
0
41
1
10
71.2042088129741
20
5.79295076177527
30
0
41
1
10
71.2435339994795
20
5.79428065496668
30
0
41
1
10
71.2888085870797
20
5.79583192631972
30
0
41
1
10
71.3183492420705
20
5.79685348269928
30
0
41
1
10
71.3308372295958
20
5.79728695350917
30
0
41
1
10
71.3353509142449
20
5.79744380524482
30
0
41
1
10
71.3398904633223
20
5.79760168488053
30
0
41
1
10
71.3455991325018
20
5.79780029013909
30
0
41
1
10
71.3592828531611
20
5.7982763163848
30
0
41
1
10
71.3752442016794
20
5.79883156571387
30
0
41
1
10
71.3912146325595
20
5.79938716296118
30
0
41
1
10
71.4003255664306
20
5.79970407147698
30
0
41
1
10
71.413979550322
20
5.8001797599739
30
0
41
1
10
71.4344895380835
20
5.80089696646135
30
0
41
1
10
71.461698976585
20
5.80185414883474
30
0
41
1
10
71.4818507077739
20
5.80256740526738
30
0
41
1
10
71.4940234102994
20
5.8029998893328
30
0
41
1
10
71.4984260979333
20
5.80315651511776
30
0
41
1
10
71.5028275862151
20
5.8033132030923
30
0
41
1
10
71.5083360980923
20
5.80350933388087
30
0
41
1
10
71.5303645443169
20
5.80429362897578
30
0
41
1
10
71.5854356598784
20
5.80625436671315
30
0
41
1
10
71.6383039308175
20
5.80813667494101
30
0
41
1
10
71.6735494447769
20
5.8093915470929
30
0
0
SPLINE
5
1E5
100
AcDbEntity
8
1
62
256
6
ByLayer
370
-1
48
1
60
0
100
AcDbSpline
70
4
71
3
72
23
73
19
40
0
40
0
40
0
40
0
40
0.0365499079215665
40
0.0695172064380977
40
0.102484504954629
40
0.13545180347116
40
0.168419101987691
40
0.234353699020754
40
0.300288296053801
40
0.366222893086878
40
0.498092087153003
40
0.62996128121912
40
0.761830475285253
40
0.827765072318311
40
0.893699669351377
40
0.926666967867908
40
0.959634266384439
40
1
40
1
40
1
40
1
41
1
10
66.4752577906197
20
2.68953612840613
30
0
41
1
10
66.4762719900564
20
2.68946629627368
30
0
41
1
10
66.4782009592995
20
2.68933514897458
30
0
41
1
10
66.4810449742172
20
2.6891496377917
30
0
41
1
10
66.4837901839307
20
2.68897960256712
30
0
41
1
10
66.4865363791751
20
2.68882038199658
30
0
41
1
10
66.4901991328024
20
2.68862199235306
30
0
41
1
10
66.4947794608908
20
2.68839911035315
30
0
41
1
10
66.5002779478457
20
2.68816872951135
30
0
41
1
10
66.5076115835997
20
2.68791150228773
30
0
41
1
10
66.5167820944725
20
2.68768457648326
30
0
41
1
10
66.5277894263004
20
2.68756670160565
30
0
41
1
10
66.5369620593834
20
2.68759481261577
30
0
41
1
10
66.5442986343311
20
2.68769169146975
30
0
41
1
10
66.5488826376787
20
2.68778564774618
30
0
41
1
10
66.5525485960427
20
2.68788230364706
30
0
41
1
10
66.5555034061082
20
2.68797002967116
30
0
41
1
10
66.5575418295889
20
2.6880367433599
30
0
41
1
10
66.5586639202141
20
2.68807455606896
30
0
0
SPLINE
5
1E6
100
AcDbEntity
8
1
62
256
6
ByLayer
370
-1
48
1
60
0
100
AcDbSpline
70
4
71
3
72
48
73
44
40
0
40
0
40
0
40
0
40
0.015625
40
0.0234375
40
0.02734375
40
0.029296875
40
0.0302734375
40
0.03125
40
0.03173828125
40
0.046875
40
0.0625
40
0.125
40
0.1875
40
0.25
40
0.3125
40
0.375
40
0.390625
40
0.40625
40
0.4140625
40
0.421875
40
0.4375
40
0.5
40
0.5625
40
0.59375
40
0.6015625
40
0.60546875
40
0.609375
40
0.6171875
40
0.625
40
0.65625
40
0.671875
40
0.6796875
40
0.6875
40
0.71875
40
0.75
40
0.78125
40
0.7890625
40
0.79296875
40
0.796875
40
0.8046875
40
0.8125
40
0.875
40
1
40
1
40
1
40
1
41
1
10
68.8031109248355
20
3.58556846916093
30
0
41
1
10
68.8032677912122
20
3.58105924490442
30
0
41
1
10
68.8035889712513
20
3.57417176788363
30
0
41
1
10
68.804088457518
20
3.56659888876314
30
0
41
1
10
68.8043634733964
20
3.56300168864524
30
0
41
1
10
68.8045059764563
20
3.56126537710631
30
0
41
1
10
68.8045895179221
20
3.56028111869307
30
0
41
1
10
68.804642112739
20
3.55966557928204
30
0
41
1
10
68.804999427147
20
3.55546844487935
30
0
41
1
10
68.8056720289713
20
3.54756830359878
30
0
41
1
10
68.8076793250407
20
3.52399131946459
30
0
41
1
10
68.8107060332501
20
3.48844068370204
30
0
41
1
10
68.8147416441959
20
3.44103983601866
30
0
41
1
10
68.8187772551417
20
3.39363898833528
30
0
41
1
10
68.8228128660875
20
3.34623814065188
30
0
41
1
10
68.8258390117227
20
3.31069721437535
30
0
41
1
10
68.827857942344
20
3.28697737156165
30
0
41
1
10
68.828698600862
20
3.27710381320858
30
0
41
1
10
68.8293693274392
20
3.26923603688138
30
0
41
1
10
68.830028034631
20
3.26130997570115
30
0
41
1
10
68.8318079839647
20
3.23914434066086
30
0
41
1
10
68.8345197626627
20
3.20106118239227
30
0
41
1
10
68.8370861605865
20
3.1566385830165
30
0
41
1
10
68.8385022559776
20
3.12738503578865
30
0
41
1
10
68.8390563200587
20
3.11497205588563
30
0
41
1
10
68.8392517056145
20
3.1104804098558
30
0
41
1
10
68.8394446563899
20
3.10595932861869
30
0
41
1
10
68.8396855065212
20
3.10027201813142
30
0
41
1
10
68.8402637062463
20
3.08664040999059
30
0
41
1
10
68.8409384360711
20
3.07074014956802
30
0
41
1
10
68.8416126696896
20
3.05482992607057
30
0
41
1
10
68.8419987670089
20
3.04575485354476
30
0
41
1
10
68.8425565285576
20
3.03213291726331
30
0
41
1
10
68.843321040685
20
3.0115948106326
30
0
41
1
10
68.8441782060797
20
2.98418469375037
30
0
41
1
10
68.8446932109445
20
2.96375970188907
30
0
41
1
10
68.8449591561762
20
2.95137497865139
30
0
41
1
10
68.8450497653853
20
2.94688980300248
30
0
41
1
10
68.8451374630949
20
2.94240284647657
30
0
41
1
10
68.8452462807779
20
2.93678639553923
30
0
41
1
10
68.845682228945
20
2.91432712255201
30
0
41
1
10
68.8467720993626
20
2.85817894008389
30
0
41
1
10
68.8478183749635
20
2.80427668491453
30
0
41
1
10
68.8485158920308
20
2.76834184813492
30
0
0
SPLINE
5
1E7
100
AcDbEntity
8
1
62
256
6
ByLayer
370
-1
48
1
60
0
100
AcDbSpline
70
4
71
3
72
13
73
9
40
0
40
0
40
0
40
0
40
0.312317913031029
40
0.624635826062058
40
0.936953739093087
40
0.975993478221965
40
0.994903351862516
40
1
40
1
40
1
40
1
41
1
10
68.6440718580413
20
8.64521626906574
30
0
41
1
10
68.4094339540395
20
8.63699123416507
30
0
41
1
10
67.9401581460359
20
8.62054116436369
30
0
41
1
10
67.2362444340303
20
8.59586605966166
30
0
41
1
10
66.7376388880264
20
8.57838786049771
30
0
41
1
10
66.4594646541804
20
8.56863669607446
30
0
41
1
10
66.4120993193817
20
8.56697634399512
30
0
41
1
10
66.3940636978921
20
8.56634423515058
30
0
41
1
10
66.3902346862826
20
8.56621004328503
30
0
0
SPLINE
5
1E8
100
AcDbEntity
8
1
62
256
6
ByLayer
370
-1
48
1
60
0
100
AcDbSpline
70
4
71
3
72
23
73
19
40
0
40
0
40
0
40
0
40
0.0365499079217389
40
0.0695172064382668
40
0.102484504954795
40
0.135451803471322
40
0.16841910198785
40
0.234353699020906
40
0.300288296053947
40
0.366222893087017
40
0.498092087153129
40
0.629961281219233
40
0.761830475285351
40
0.827765072318403
40
0.893699669351463
40
0.926666967867991
40
0.959634266384518
40
1
40
1
40
1
40
1
41
1
10
65.7405324651215
20
7.986490131914
30
0
41
1
10
65.7404628987214
20
7.98547205840015
30
0
41
1
10
65.7403322504774
20
7.98353572080794
30
0
41
1
10
65.7401474452205
20
7.98068084221521
30
0
41
1
10
65.7399780570313
20
7.97792514624663
30
0
41
1
10
65.7398194423431
20
7.97516846098259
30
0
41
1
10
65.7396218076321
20
7.97149171623133
30
0
41
1
10
65.7393997737655
20
7.96689389203388
30
0
41
1
10
65.7391702695924
20
7.96137440175201
30
0
41
1
10
65.738914021196
20
7.95401275270078
30
0
41
1
10
65.7386879589127
20
7.94480721196626
30
0
41
1
10
65.7385705325846
20
7.933757833919
30
0
41
1
10
65.7385985366238
20
7.92455016286783
30
0
41
1
10
65.7386950468245
20
7.91718556339566
30
0
41
1
10
65.7387886455689
20
7.9125840499
30
0
41
1
10
65.738884933665
20
7.90890408817063
30
0
41
1
10
65.738972325865
20
7.90593799121075
30
0
41
1
10
65.739038785688
20
7.90389178128351
30
0
41
1
10
65.7390764545083
20
7.90276540445439
30
0
0
SPLINE
5
1E9
100
AcDbEntity
8
1
62
256
6
ByLayer
370
-1
48
1
60
0
100
AcDbSpline
70
4
71
3
72
8
73
4
40
0
40
0
40
0
40
0
40
1
40
1
40
1
40
1
41
1
10
71.5935205258548
20
8.10798791267203
30
0
41
1
10
71.5939834315444
20
8.09593876257418
30
0
41
1
10
71.5944244961019
20
8.08388876695844
30
0
41
1
10
71.5948437166066
20
8.07183800561774
30
0
0
SPLINE
5
1EA
100
AcDbEntity
8
1
62
256
6
ByLayer
370
-1
48
1
60
0
100
AcDbSpline
70
4
71
3
72
19
73
15
40
0
40
0
40
0
40
0
40
0.0403657336155036
40
0.106300330648564
40
0.172234927681625
40
0.238169524714686
40
0.370038718780808
40
0.50190791284693
40
0.765646300979173
40
0.831580898012234
40
0.897515495045295
40
0.930482793561825
40
0.963450092078356
40
1
40
1
40
1
40
1
41
1
10
66.3542199937962
20
8.56494588480606
30
0
41
1
10
66.3530980088833
20
8.56490503332952
30
0
41
1
10
66.3501436776855
20
8.56479459860537
30
0
41
1
10
66.3453583346496
20
8.56459462686979
30
0
41
1
10
66.3398630953726
20
8.56432191732776
30
0
41
1
10
66.3325376597414
20
8.5639048317
30
0
41
1
10
66.3233854172686
20
8.56329057956918
30
0
41
1
10
66.3087556475697
20
8.56210610838255
30
0
41
1
10
66.2959781262238
20
8.56080042444788
30
0
41
1
10
66.2850492886087
20
8.5594970634715
30
0
41
1
10
66.2805004409832
20
8.55892078062098
30
0
41
1
10
66.2768648321862
20
8.55843831573992
30
0
41
1
10
66.2740406365089
20
8.55805411018937
30
0
41
1
10
66.2721254796987
20
8.5577882102761
30
0
41
1
10
66.2711186035076
20
8.55764753103287
30
0
0
SPLINE
5
1EB
100
AcDbEntity
8
1
62
256
6
ByLayer
370
-1
48
1
60
0
100
AcDbSpline
70
4
71
3
72
23
73
19
40
0
40
0
40
0
40
0
40
0.0365499079216476
40
0.0695172064381775
40
0.102484504954707
40
0.135451803471237
40
0.168419101987767
40
0.234353699020827
40
0.300288296053872
40
0.366222893086947
40
0.498092087153067
40
0.629961281219179
40
0.761830475285306
40
0.827765072318362
40
0.893699669351426
40
0.926666967867956
40
0.959634266384486
40
1
40
1
40
1
40
1
41
1
10
71.0173299594519
20
8.72402198879453
30
0
41
1
10
71.0163157600151
20
8.72409182092699
30
0
41
1
10
71.0143867907721
20
8.72422296822609
30
0
41
1
10
71.0115427758543
20
8.72440847940894
30
0
41
1
10
71.0087975661408
20
8.72457851463352
30
0
41
1
10
71.0060513708964
20
8.72473773520406
30
0
41
1
10
71.002388617269
20
8.72493612484757
30
0
41
1
10
70.9978082891807
20
8.72515900684752
30
0
41
1
10
70.9923098022258
20
8.72538938768929
30
0
41
1
10
70.9849761664718
20
8.72564661491293
30
0
41
1
10
70.9758056555989
20
8.72587354071737
30
0
41
1
10
70.9647983237711
20
8.72599141559499
30
0
41
1
10
70.9556256906881
20
8.72596330458487
30
0
41
1
10
70.9482891157404
20
8.72586642573089
30
0
41
1
10
70.9437051123928
20
8.72577246945448
30
0
41
1
10
70.9400391540288
20
8.72567581355358
30
0
41
1
10
70.9370843439633
20
8.72558808752947
30
0
41
1
10
70.9350459204827
20
8.72552137384073
30
0
41
1
10
70.9339238298574
20
8.72548356113171
30
0
0
SPLINE
5
1EC
100
AcDbEntity
8
1
62
256
6
ByLayer
370
-1
48
1
60
0
100
AcDbSpline
70
4
71
3
72
22
73
18
40
0
40
0
40
0
40
0
40
0.0178234039224867
40
0.0278216291116019
40
0.0378198543007171
40
0.112806543219081
40
0.187793232137445
40
0.337766609974173
40
0.497738213000016
40
0.657709816025859
40
0.817681419051702
40
0.897667220564624
40
0.977653022077545
40
0.982652134672103
40
0.98765124726666
40
0.997649472455776
40
1
40
1
40
1
40
1
41
1
10
71.2214691465639
20
2.85591058616779
30
0
41
1
10
71.2222786354391
20
2.85602368674893
30
0
41
1
10
71.2235421635499
20
2.85620111775819
30
0
41
1
10
71.2252598264193
20
2.85644318642414
30
0
41
1
10
71.229573727821
20
2.85705191759135
30
0
41
1
10
71.2368392414605
20
2.85807708560131
30
0
41
1
10
71.2504620683401
20
2.85999911821205
30
0
41
1
10
71.267944681803
20
2.86246552472233
30
0
41
1
10
71.2892870930435
20
2.86547646254005
30
0
41
1
10
71.3110835981401
20
2.8685514628645
30
0
41
1
10
71.3292473523873
20
2.87111396313492
30
0
41
1
10
71.3438289062807
20
2.87317276873043
30
0
41
1
10
71.3513013751274
20
2.87422630239968
30
0
41
1
10
71.3553454888672
20
2.87479542166341
30
0
41
1
10
71.3562413813469
20
2.8749215923165
30
0
41
1
10
71.3570124055433
20
2.87503045808418
30
0
41
1
10
71.3575546047789
20
2.87510736710891
30
0
41
1
10
71.3576575817362
20
2.87512198978658
30
0
0
SPLINE
5
1ED
100
AcDbEntity
8
1
62
256
6
ByLayer
370
-1
48
1
60
0
100
AcDbSpline
70
4
71
3
72
13
73
9
40
0
40
0
40
0
40
0
40
0.312317913031033
40
0.624635826062065
40
0.936953739093098
40
0.975993478221977
40
0.994903351862528
40
1
40
1
40
1
40
1
41
1
10
68.8485158920302
20
2.76834184813492
30
0
41
1
10
69.083153796032
20
2.7765668830356
30
0
41
1
10
69.5524296040356
20
2.79301695283695
30
0
41
1
10
70.2563433160412
20
2.81769205753898
30
0
41
1
10
70.7549488620451
20
2.83517025670292
30
0
41
1
10
71.033123095891
20
2.8449214211262
30
0
41
1
10
71.0804884306898
20
2.84658177320554
30
0
41
1
10
71.0985240521794
20
2.84721388205006
30
0
41
1
10
71.1023530637889
20
2.84734807391561
30
0
0
SPLINE
5
1EE
100
AcDbEntity
8
1
62
256
6
ByLayer
370
-1
48
1
60
0
100
AcDbSpline
70
4
71
3
72
79
73
75
40
0
40
0
40
0
40
0
40
0.0017245864915744
40
0.0039792263717019
40
0.008488506131957
40
0.0129977858922121
40
0.0220163454127223
40
0.0310349049332325
40
0.0671091430152734
40
0.139257619179355
40
0.211406095343437
40
0.220424654863947
40
0.224933934624202
40
0.228315894444393
40
0.229443214384457
40
0.231697854264585
40
0.233952494144712
40
0.237334453964903
40
0.238461773904967
40
0.240716413785095
40
0.242971053665222
40
0.247480333425478
40
0.249734973305605
40
0.256498892945988
40
0.265517452466498
40
0.283554571507518
40
0.292573131028029
40
0.319628809589559
40
0.3557030476716
40
0.391777285753641
40
0.409814404794661
40
0.427851523835681
40
0.445888642876702
40
0.463925761917722
40
0.481962880958743
40
0.499999999999763
40
0.518037119040784
40
0.536074238081804
40
0.554111357122824
40
0.572148476163845
40
0.590185595204863
40
0.608222714245886
40
0.626259833286906
40
0.644296952327927
40
0.662334071368947
40
0.680371190409969
40
0.716445428492008
40
0.725463988012517
40
0.73448254753303
40
0.751392346633985
40
0.752519666574049
40
0.754774306454177
40
0.757028946334304
40
0.760410906154498
40
0.761538226094559
40
0.763792865974689
40
0.766047505854813
40
0.769429465675008
40
0.770556785615069
40
0.771684105555131
40
0.775066065375327
40
0.77957534513558
40
0.784084624895835
40
0.78859390465609
40
0.824668142738131
40
0.860742380820171
40
0.932890856984253
40
0.968965095066294
40
0.987002214107314
40
0.991511493867569
40
0.99489345368776
40
0.996020773627824
40
0.998275413507952
40
1
40
1
40
1
40
1
41
1
10
71.3576575817362
20
2.87512198978658
30
0
41
1
10
71.3579926284946
20
2.87516956626271
30
0
41
1
10
71.3587601265032
20
2.87527893650577
30
0
41
1
10
71.3603747918241
20
2.87551204953459
30
0
41
1
10
71.3624825663781
20
2.87582650350845
30
0
41
1
10
71.3658249802311
20
2.87634585809687
30
0
41
1
10
71.3700367586207
20
2.87703643859777
30
0
41
1
10
71.3802009278189
20
2.87882134288932
30
0
41
1
10
71.4022436973284
20
2.88335262638938
30
0
41
1
10
71.4363868127573
20
2.89289254919524
30
0
41
1
10
71.465192448574
20
2.90402662354632
30
0
41
1
10
71.4810805444585
20
2.9112120208722
30
0
41
1
10
71.4842088582118
20
2.91266181336331
30
0
41
1
10
71.485874865033
20
2.91344486318977
30
0
41
1
10
71.4871232992281
20
2.91403635873638
30
0
41
1
10
71.4881629853357
20
2.91453190108044
30
0
41
1
10
71.4896172606612
20
2.91523056585899
30
0
41
1
10
71.4908623797579
20
2.91583467438534
30
0
41
1
10
71.4921063460651
20
2.91644298184795
30
0
41
1
10
71.4931422577652
20
2.91695252834674
30
0
41
1
10
71.4947981384985
20
2.91777339670634
30
0
41
1
10
71.4964516113173
20
2.91860265138794
30
0
41
1
10
71.4989280858713
20
2.91985909903269
30
0
41
1
10
71.5022233033642
20
2.92155668912258
30
0
41
1
10
71.5083786178645
20
2.92481280829668
30
0
41
1
10
71.5148992105554
20
2.9284194439978
30
0
41
1
10
71.5246046260525
20
2.9340286733381
30
0
41
1
10
71.5374041055066
20
2.94185968393239
30
0
41
1
10
71.5546141243758
20
2.95345831798167
30
0
41
1
10
71.5697861708989
20
2.964843602363
30
0
41
1
10
71.5816010917711
20
2.97443454981305
30
0
41
1
10
71.5902912589422
20
2.98186363961793
30
0
41
1
10
71.5988007373199
20
2.98952312788506
30
0
41
1
10
71.6071210783736
20
2.99740560813768
30
0
41
1
10
71.6152438335725
20
3.00550367389914
30
0
41
1
10
71.6231605543858
20
3.01380991869269
30
0
41
1
10
71.6308627922828
20
3.02231693604168
30
0
41
1
10
71.6383437762834
20
3.03101574915237
30
0
41
1
10
71.6455967354077
20
3.03989738123116
30
0
41
1
10
71.6526148986758
20
3.04895285548435
30
0
41
1
10
71.6593914951078
20
3.05817319511823
30
0
41
1
10
71.6659217523223
20
3.06754833921883
30
0
41
1
10
71.6722008979382
20
3.07706822687209
30
0
41
1
10
71.6782241595743
20
3.08672279716402
30
0
41
1
10
71.6839867648492
20
3.09650198918052
30
0
41
1
10
71.6913192272222
20
3.10969294537492
30
0
41
1
10
71.6972698756969
20
3.12141603197941
30
0
41
1
10
71.70203160041
20
3.1315671861052
30
0
41
1
10
71.7050192778254
20
3.13814798737857
30
0
41
1
10
71.7072347447446
20
3.14326855381628
30
0
41
1
10
71.7088453588167
20
3.14712055568083
30
0
41
1
10
71.7092900958163
20
3.14819115271425
30
0
41
1
10
71.7099077691132
20
3.14969107795756
30
0
41
1
10
71.7104318896012
20
3.15097786955613
30
0
41
1
10
71.7109517577741
20
3.15226554328211
30
0
41
1
10
71.7113823232833
20
3.15333914959496
30
0
41
1
10
71.7119801524428
20
3.15484319143286
30
0
41
1
10
71.7124872593304
20
3.15613340825908
30
0
41
1
10
71.712906301914
20
3.15720925519912
30
0
41
1
10
71.7133235710721
20
3.15828543096149
30
0
41
1
10
71.713985526185
20
3.16000835064182
30
0
41
1
10
71.7148820535193
20
3.16237976458905
30
0
41
1
10
71.7158430445659
20
3.16496958781443
30
0
41
1
10
71.7189895289987
20
3.1736112017017
30
0
41
1
10
71.7239037096857
20
3.18836558539502
30
0
41
1
10
71.7317154447625
20
3.21624626948679
30
0
41
1
10
71.7373944582365
20
3.24413068496298
30
0
41
1
10
71.7405879861209
20
3.26824208317376
30
0
41
1
10
71.7416756377035
20
3.27939661174216
30
0
41
1
10
71.7420823969811
20
3.28426001438706
30
0
41
1
10
71.7422159065344
20
3.28596429162155
30
0
41
1
10
71.7423129678201
20
3.28725474582814
30
0
41
1
10
71.7423845724626
20
3.28823721969627
30
0
41
1
10
71.7424397231575
20
3.28901340197709
30
0
41
1
10
71.7424636314576
20
3.28935222805225
30
0
0
SPLINE
5
1EF
100
AcDbEntity
8
1
62
256
6
ByLayer
370
-1
48
1
60
0
100
AcDbSpline
70
4
71
3
72
153
73
149
40
0
40
0
40
0
40
0
40
0.125
40
0.25
40
0.375
40
0.3828125
40
0.390625
40
0.398193359375
40
0.4019775390625
40
0.405643463134766
40
0.40576171875
40
0.406005859375
40
0.40625
40
0.4072265625
40
0.40771484375
40
0.408203125
40
0.4091796875
40
0.41015625
40
0.412109375
40
0.4140625
40
0.416015625
40
0.4169921875
40
0.41796875
40
0.4189453125
40
0.41943359375
40
0.419921875
40
0.42041015625
40
0.4208984375
40
0.421875
40
0.422119140625
40
0.42236328125
40
0.422477722167969
40
0.426025390625
40
0.4296875
40
0.4375
40
0.439453125
40
0.44140625
40
0.443359375
40
0.4443359375
40
0.4453125
40
0.445556640625
40
0.44580078125
40
0.446044921875
40
0.4462890625
40
0.4464111328125
40
0.44677734375
40
0.447265625
40
0.44921875
40
0.453125
40
0.4609375
40
0.46484375
40
0.46875
40
0.46923828125
40
0.4697265625
40
0.47021484375
40
0.4705810546875
40
0.470703125
40
0.4708251953125
40
0.47119140625
40
0.471435546875
40
0.4716796875
40
0.4718017578125
40
0.47216796875
40
0.472412109375
40
0.47265625
40
0.4727783203125
40
0.474609375
40
0.4755859375
40
0.4765625
40
0.48046875
40
0.482421875
40
0.484375
40
0.486328125
40
0.48828125
40
0.490234375
40
0.4921875
40
0.494140625
40
0.49609375
40
0.498046875
40
0.5
40
0.501953125
40
0.50390625
40
0.505859375
40
0.5078125
40
0.509765625
40
0.51171875
40
0.515625
40
0.51953125
40
0.5224609375
40
0.5234375
40
0.525390625
40
0.5263671875
40
0.527099609375
40
0.52734375
40
0.52783203125
40
0.528076171875
40
0.5283203125
40
0.5284423828125
40
0.52880859375
40
0.529052734375
40
0.529296875
40
0.5294189453125
40
0.52978515625
40
0.5302734375
40
0.53125
40
0.5390625
40
0.546875
40
0.55078125
40
0.5517578125
40
0.552734375
40
0.55322265625
40
0.5537109375
40
0.553955078125
40
0.55419921875
40
0.554443359375
40
0.5545654296875
40
0.5546875
40
0.556640625
40
0.55859375
40
0.5625
40
0.56640625
40
0.5703125
40
0.573974609375
40
0.5758056640625
40
0.57763671875
40
0.577880859375
40
0.578125
40
0.5791015625
40
0.57958984375
40
0.580078125
40
0.5810546875
40
0.58203125
40
0.5859375
40
0.587890625
40
0.58984375
40
0.5908203125
40
0.591796875
40
0.5927734375
40
0.59375
40
0.593994140625
40
0.59423828125
40
0.594380187988281
40
0.601806640625
40
0.609375
40
0.625
40
0.75
40
0.875
40
1
40
1
40
1
40
1
41
1
10
68.6555260629567
20
7.8279896480397
30
0
41
1
10
68.8289502709391
20
7.83406888817504
30
0
41
1
10
69.1757986869037
20
7.84622736844571
30
0
41
1
10
69.6960713108508
20
7.86446508885169
30
0
41
1
10
70.0537587398144
20
7.8770035216308
30
0
41
1
10
70.2488609737945
20
7.88384266678304
30
0
41
1
10
70.281039293635
20
7.88497065079252
30
0
41
1
10
70.3076287473979
20
7.88590272178985
30
0
41
1
10
70.328465267992
20
7.88663312854072
30
0
41
1
10
70.3389655618347
20
7.8870012075333
30
0
41
1
10
70.3445544279122
20
7.88719712054547
30
0
41
1
10
70.345395933316
20
7.8872266188115
30
0
41
1
10
70.3474282482532
20
7.88729785990685
30
0
41
1
10
70.3497992823467
20
7.88738097451807
30
0
41
1
10
70.3525090355965
20
7.88747596264517
30
0
41
1
10
70.3552187888462
20
7.8875709507723
30
0
41
1
10
70.3586059804084
20
7.88768968593118
30
0
41
1
10
70.3640254869078
20
7.88787966218541
30
0
41
1
10
70.3707998700321
20
7.8881171325032
30
0
41
1
10
70.3789291297813
20
7.88840209688453
30
0
41
1
10
70.3857035129056
20
7.88863956720232
30
0
41
1
10
70.391123019405
20
7.88882954345655
30
0
41
1
10
70.3951876492796
20
7.88897202564723
30
0
41
1
10
70.3985748408418
20
7.88909076080611
30
0
41
1
10
70.4012845940915
20
7.88918574893324
30
0
41
1
10
70.4033169090288
20
7.88925699002857
30
0
41
1
10
70.4053492239661
20
7.88932823112393
30
0
41
1
10
70.4080589772158
20
7.88942321925103
30
0
41
1
10
70.4104300113094
20
7.88950633386224
30
0
41
1
10
70.4124623262466
20
7.8895775749576
30
0
41
1
10
70.4132985391635
20
7.88960688769993
30
0
41
1
10
70.418718045663
20
7.88979686395416
30
0
41
1
10
70.4288796203494
20
7.89015306943085
30
0
41
1
10
70.4497214334303
20
7.8908836617054
30
0
41
1
10
70.4683509870222
20
7.89153670507932
30
0
41
1
10
70.4846095065205
20
7.89210663384202
30
0
41
1
10
70.4927389637621
20
7.89239161202823
30
0
41
1
10
70.4995138406173
20
7.89262911685822
30
0
41
1
10
70.50493403834
20
7.8928191414295
30
0
41
1
10
70.5079830291634
20
7.89292603931031
30
0
41
1
10
70.5100157514287
20
7.89299730887822
30
0
41
1
10
70.5110321252904
20
7.89303294455192
30
0
41
1
10
70.5120485122667
20
7.89306858114236
30
0
41
1
10
70.5128955126641
20
7.8930982790875
30
0
41
1
10
70.5139119235556
20
7.89313391734962
30
0
41
1
10
70.5152671568496
20
7.89318143634463
30
0
41
1
10
70.5191635508982
20
7.89331806032854
30
0
41
1
10
70.5279734582108
20
7.89362699607094
30
0
41
1
10
70.5469527905314
20
7.89429268603385
30
0
41
1
10
70.5686560955522
20
7.89505435807504
30
0
41
1
10
70.5903265626264
20
7.89581373471705
30
0
41
1
10
70.6018193148537
20
7.89621577767204
30
0
41
1
10
70.6085705797539
20
7.89645163200714
30
0
41
1
10
70.6105980067551
20
7.89652253143177
30
0
41
1
10
70.6124607961659
20
7.89658782416922
30
0
41
1
10
70.6138251620247
20
7.89663598153797
30
0
41
1
10
70.6146831614354
20
7.89666644832306
30
0
41
1
10
70.6155441026595
20
7.89669712074331
30
0
41
1
10
70.6165790318273
20
7.8967340059198
30
0
41
1
10
70.6177660583924
20
7.89677533604453
30
0
41
1
10
70.6185935148708
20
7.89680319257175
30
0
41
1
10
70.6195601939893
20
7.89683449903478
30
0
41
1
10
70.6204967550284
20
7.89686258160555
30
0
41
1
10
70.6215669546017
20
7.8968889132228
30
0
41
1
10
70.6223267294469
20
7.89690338744637
30
0
41
1
10
70.6250714352271
20
7.89694201335291
30
0
41
1
10
70.6287972492724
20
7.8968974770155
30
0
41
1
10
70.6336918754613
20
7.89665688151862
30
0
41
1
10
70.6413356558753
20
7.89608442683104
30
0
41
1
10
70.6503746105691
20
7.89482550550923
30
0
41
1
10
70.6607639797955
20
7.8925198864454
30
0
41
1
10
70.668558800168
20
7.89034318156084
30
0
41
1
10
70.6763296398007
20
7.88770492142228
30
0
41
1
10
70.6840319822268
20
7.88460553604381
30
0
41
1
10
70.6916213109795
20
7.88104545543934
30
0
41
1
10
70.6990582761999
20
7.87703164900952
30
0
41
1
10
70.706303528029
20
7.87257108615489
30
0
41
1
10
70.7133185633431
20
7.86768040893494
30
0
41
1
10
70.7200648790184
20
7.86237625940913
30
0
41
1
10
70.7265082880761
20
7.85668393900383
30
0
41
1
10
70.7326146035371
20
7.85062874914536
30
0
41
1
10
70.7383562968902
20
7.84424315886722
30
0
41
1
10
70.7437058396238
20
7.83755963720282
30
0
41
1
10
70.7486440075495
20
7.83061557931029
30
0
41
1
10
70.7531515764785
20
7.82344838034771
30
0
41
1
10
70.7585746418887
20
7.81364648402129
30
0
41
1
10
70.7642286217859
20
7.80103084987712
30
0
41
1
10
70.7687723108668
20
7.78694754836076
30
0
41
1
10
70.7710669748629
20
7.77670368664889
30
0
41
1
10
70.7723733495234
20
7.76906185253588
30
0
41
1
10
70.7730399816311
20
7.76399477557041
30
0
41
1
10
70.7734754502225
20
7.75931453182159
30
0
41
1
10
70.7736490587317
20
7.75684712687496
30
0
41
1
10
70.7737542339601
20
7.75501110286393
30
0
41
1
10
70.7738118520151
20
7.75379472153307
30
0
41
1
10
70.7738628530342
20
7.75254688721611
30
0
41
1
10
70.7738931969329
20
7.75174574209407
30
0
41
1
10
70.7739293338707
20
7.75075791520439
30
0
41
1
10
70.7739651488542
20
7.74974011484136
30
0
41
1
10
70.774006663421
20
7.74853214349235
30
0
41
1
10
70.7740362388031
20
7.74766639913253
30
0
41
1
10
70.7740717277192
20
7.74663283426352
30
0
41
1
10
70.7741190438175
20
7.74526323368255
30
0
41
1
10
70.7742077562534
20
7.74271336382765
30
0
41
1
10
70.7746572195705
20
7.72983901829261
30
0
41
1
10
70.7754615405267
20
7.70673791808235
30
0
41
1
10
70.776407816417
20
7.67950508112258
30
0
41
1
10
70.7770228927543
20
7.66181407089317
30
0
41
1
10
70.7773067737094
20
7.65365047969993
30
0
41
1
10
70.7774250573747
20
7.65024921107724
30
0
41
1
10
70.777519684271
20
7.64752832038334
30
0
41
1
10
70.777578826067
20
7.64582781286381
30
0
41
1
10
70.7776261394956
20
7.64446743479419
30
0
41
1
10
70.7776616245632
20
7.6434471648268
30
0
41
1
10
70.7776911954497
20
7.64259695085121
30
0
41
1
10
70.777714852157
20
7.64191678607503
30
0
41
1
10
70.7778213073345
20
7.63885606350399
30
0
41
1
10
70.7780164750758
20
7.63324502911786
30
0
41
1
10
70.7783949819803
20
7.6223638179429
30
0
41
1
10
70.7788681153234
20
7.60876329760831
30
0
41
1
10
70.7794358753351
20
7.59244267320676
30
0
41
1
10
70.7799918070132
20
7.57646206181363
30
0
41
1
10
70.7804471978559
20
7.56337156099155
30
0
41
1
10
70.7808020478632
20
7.5531711707406
30
0
41
1
10
70.7809913012004
20
7.54773096260678
30
0
41
1
10
70.7811036703694
20
7.54450083902731
30
0
41
1
10
70.7811746403709
20
7.54246076097709
30
0
41
1
10
70.7812574387059
20
7.54008066991855
30
0
41
1
10
70.7813520653745
20
7.53736056585163
30
0
41
1
10
70.7814466920431
20
7.5346404617847
30
0
41
1
10
70.7815649753789
20
7.53124033170107
30
0
41
1
10
70.7818488553847
20
7.5230800195003
30
0
41
1
10
70.7821800487249
20
7.51355965526608
30
0
41
1
10
70.7825585553993
20
7.50267923899838
30
0
41
1
10
70.7827951220709
20
7.49587897883109
30
0
41
1
10
70.7829843754081
20
7.49043877069724
30
0
41
1
10
70.783126315411
20
7.48635861459687
30
0
41
1
10
70.7832682554139
20
7.4822784584965
30
0
41
1
10
70.7833747104161
20
7.47921834142119
30
0
41
1
10
70.7834456804176
20
7.477178263371
30
0
41
1
10
70.7834762123036
20
7.47630060479318
30
0
41
1
10
70.7838547189781
20
7.46542018852548
30
0
41
1
10
70.7845880756598
20
7.44433938200686
30
0
41
1
10
70.7860715704716
20
7.40169537551395
30
0
41
1
10
70.7932513689526
20
7.19530747943637
30
0
41
1
10
70.806120595884
20
6.82537332633515
30
0
41
1
10
70.8242889162577
20
6.30311334548637
30
0
41
1
10
70.8364011298402
20
5.95494002492052
30
0
41
1
10
70.8424572366314
20
5.78085336463761
30
0
0
SPLINE
5
1F0
100
AcDbEntity
8
1
62
256
6
ByLayer
370
-1
48
1
60
0
100
AcDbSpline
70
4
71
3
72
8
73
4
40
0
40
0
40
0
40
0
40
1
40
1
40
1
40
1
41
1
10
71.7522551729471
20
3.54694508856821
30
0
41
1
10
71.7526743921049
20
3.53489436594751
30
0
41
1
10
71.7530717673503
20
3.52284287760682
30
0
41
1
10
71.7534472960519
20
3.51079070334839
30
0
0
SPLINE
5
1F1
100
AcDbEntity
8
1
62
256
6
ByLayer
370
-1
48
1
60
0
100
AcDbSpline
70
4
71
3
72
153
73
149
40
0
40
0
40
0
40
0
40
0.125
40
0.25
40
0.375
40
0.3828125
40
0.390625
40
0.398193359375
40
0.4019775390625
40
0.405643463134766
40
0.40576171875
40
0.406005859375
40
0.40625
40
0.4072265625
40
0.40771484375
40
0.408203125
40
0.4091796875
40
0.41015625
40
0.412109375
40
0.4140625
40
0.416015625
40
0.4169921875
40
0.41796875
40
0.4189453125
40
0.41943359375
40
0.419921875
40
0.42041015625
40
0.4208984375
40
0.421875
40
0.422119140625
40
0.42236328125
40
0.422477722167969
40
0.426025390625
40
0.4296875
40
0.4375
40
0.439453125
40
0.44140625
40
0.443359375
40
0.4443359375
40
0.4453125
40
0.445556640625
40
0.44580078125
40
0.446044921875
40
0.4462890625
40
0.4464111328125
40
0.44677734375
40
0.447265625
40
0.44921875
40
0.453125
40
0.4609375
40
0.46484375
40
0.46875
40
0.46923828125
40
0.4697265625
40
0.47021484375
40
0.4705810546875
40
0.470703125
40
0.4708251953125
40
0.47119140625
40
0.471435546875
40
0.4716796875
40
0.4718017578125
40
0.47216796875
40
0.472412109375
40
0.47265625
40
0.4727783203125
40
0.474609375
40
0.4755859375
40
0.4765625
40
0.48046875
40
0.482421875
40
0.484375
40
0.486328125
40
0.48828125
40
0.490234375
40
0.4921875
40
0.494140625
40
0.49609375
40
0.498046875
40
0.5
40
0.501953125
40
0.50390625
40
0.505859375
40
0.5078125
40
0.509765625
40
0.51171875
40
0.515625
40
0.51953125
40
0.5224609375
40
0.5234375
40
0.525390625
40
0.5263671875
40
0.527099609375
40
0.52734375
40
0.52783203125
40
0.528076171875
40
0.5283203125
40
0.5284423828125
40
0.52880859375
40
0.529052734375
40
0.529296875
40
0.5294189453125
40
0.52978515625
40
0.5302734375
40
0.53125
40
0.5390625
40
0.546875
40
0.55078125
40
0.5517578125
40
0.552734375
40
0.55322265625
40
0.5537109375
40
0.553955078125
40
0.55419921875
40
0.554443359375
40
0.5545654296875
40
0.5546875
40
0.556640625
40
0.55859375
40
0.5625
40
0.56640625
40
0.5703125
40
0.573974609375
40
0.5758056640625
40
0.57763671875
40
0.577880859375
40
0.578125
40
0.5791015625
40
0.57958984375
40
0.580078125
40
0.5810546875
40
0.58203125
40
0.5859375
40
0.587890625
40
0.58984375
40
0.5908203125
40
0.591796875
40
0.5927734375
40
0.59375
40
0.593994140625
40
0.59423828125
40
0.594380187988281
40
0.601806640625
40
0.609375
40
0.625
40
0.75
40
0.875
40
1
40
1
40
1
40
1
41
1
10
68.803110924835
20
3.58556846916093
30
0
41
1
10
68.6296867168527
20
3.5794892290256
30
0
41
1
10
68.282838300888
20
3.56733074875496
30
0
41
1
10
67.7625656769409
20
3.54909302834895
30
0
41
1
10
67.4048782479773
20
3.53655459556984
30
0
41
1
10
67.2097760139972
20
3.5297154504176
30
0
41
1
10
67.1775976941567
20
3.52858746640811
30
0
41
1
10
67.1510082403938
20
3.52765539541079
30
0
41
1
10
67.1301717197997
20
3.52692498865991
30
0
41
1
10
67.1196714259571
20
3.52655690966736
30
0
41
1
10
67.1140825598795
20
3.52636099665517
30
0
41
1
10
67.1132410544758
20
3.52633149838914
30
0
41
1
10
67.1112087395385
20
3.52626025729381
30
0
41
1
10
67.108837705445
20
3.52617714268257
30
0
41
1
10
67.1061279521953
20
3.52608215455547
30
0
41
1
10
67.1034181989455
20
3.52598716642837
30
0
41
1
10
67.1000310073833
20
3.52586843126946
30
0
41
1
10
67.0946115008839
20
3.52567845501523
30
0
41
1
10
67.0878371177596
20
3.52544098469744
30
0
41
1
10
67.0797078580104
20
3.5251560203161
30
0
41
1
10
67.0729334748861
20
3.52491854999832
30
0
41
1
10
67.0675139683867
20
3.52472857374409
30
0
41
1
10
67.0634493385121
20
3.5245860915534
30
0
41
1
10
67.0600621469499
20
3.52446735639452
30
0
41
1
10
67.0573523937002
20
3.52437236826739
30
0
41
1
10
67.0553200787629
20
3.52430112717207
30
0
41
1
10
67.0532877638256
20
3.52422988607674
30
0
41
1
10
67.0505780105759
20
3.52413489794961
30
0
41
1
10
67.0482069764824
20
3.52405178333839
30
0
41
1
10
67.0461746615451
20
3.52398054224307
30
0
41
1
10
67.0453384486282
20
3.52395122950071
30
0
41
1
10
67.0399189421287
20
3.52376125324648
30
0
41
1
10
67.0297573674422
20
3.52340504776978
30
0
41
1
10
67.0089155543614
20
3.52267445549524
30
0
41
1
10
66.9902860007695
20
3.52202141212132
30
0
41
1
10
66.9740274812712
20
3.52145148335865
30
0
41
1
10
66.9658980240297
20
3.5211665051724
30
0
41
1
10
66.9591231471744
20
3.52092900034242
30
0
41
1
10
66.9537029494517
20
3.52073897577114
30
0
41
1
10
66.9506539586283
20
3.52063207789033
30
0
41
1
10
66.948621236363
20
3.52056080832244
30
0
41
1
10
66.9476048625013
20
3.52052517264872
30
0
41
1
10
66.9465884755249
20
3.52048953605828
30
0
41
1
10
66.9457414751276
20
3.52045983811317
30
0
41
1
10
66.9447250642361
20
3.52042419985102
30
0
41
1
10
66.9433698309421
20
3.520376680856
30
0
41
1
10
66.9394734368935
20
3.5202400568721
30
0
41
1
10
66.9306635295809
20
3.51993112112973
30
0
41
1
10
66.9116841972603
20
3.51926543116679
30
0
41
1
10
66.8899808922396
20
3.51850375912562
30
0
41
1
10
66.8683104251653
20
3.51774438248358
30
0
41
1
10
66.856817672938
20
3.51734233952863
30
0
41
1
10
66.8500664080378
20
3.51710648519349
30
0
41
1
10
66.8480389810366
20
3.51703558576887
30
0
41
1
10
66.8461761916259
20
3.51697029303142
30
0
41
1
10
66.8448118257671
20
3.5169221356627
30
0
41
1
10
66.8439538263563
20
3.51689166887758
30
0
41
1
10
66.8430928851323
20
3.51686099645735
30
0
41
1
10
66.8420579559645
20
3.51682411128084
30
0
41
1
10
66.8408709293993
20
3.51678278115611
30
0
41
1
10
66.8400434729209
20
3.51675492462888
30
0
41
1
10
66.8390767938025
20
3.51672361816586
30
0
41
1
10
66.8381402327633
20
3.51669553559509
30
0
41
1
10
66.83707003319
20
3.51666920397784
30
0
41
1
10
66.8363102583448
20
3.51665472975427
30
0
41
1
10
66.8335655525646
20
3.51661610384772
30
0
41
1
10
66.8298397385193
20
3.51666064018517
30
0
41
1
10
66.8249451123304
20
3.51690123568204
30
0
41
1
10
66.8173013319165
20
3.5174736903696
30
0
41
1
10
66.8082623772226
20
3.51873261169143
30
0
41
1
10
66.7978730079962
20
3.52103823075524
30
0
41
1
10
66.7900781876237
20
3.52321493563983
30
0
41
1
10
66.782307347991
20
3.52585319577835
30
0
41
1
10
66.7746050055649
20
3.52895258115686
30
0
41
1
10
66.7670156768122
20
3.5325126617613
30
0
41
1
10
66.7595787115918
20
3.53652646819111
30
0
41
1
10
66.7523334597627
20
3.54098703104575
30
0
41
1
10
66.7453184244486
20
3.54587770826572
30
0
41
1
10
66.7385721087733
20
3.55118185779153
30
0
41
1
10
66.7321286997156
20
3.55687417819684
30
0
41
1
10
66.7260223842546
20
3.56292936805528
30
0
41
1
10
66.7202806909015
20
3.56931495833342
30
0
41
1
10
66.7149311481679
20
3.57599847999782
30
0
41
1
10
66.7099929802422
20
3.58294253789035
30
0
41
1
10
66.7054854113132
20
3.59010973685292
30
0
41
1
10
66.700062345903
20
3.59991163317935
30
0
41
1
10
66.6944083660057
20
3.61252726732354
30
0
41
1
10
66.6898646769249
20
3.62661056883988
30
0
41
1
10
66.6875700129288
20
3.63685443055175
30
0
41
1
10
66.6862636382683
20
3.64449626466475
30
0
41
1
10
66.6855970061605
20
3.64956334163023
30
0
41
1
10
66.6851615375693
20
3.65424358537908
30
0
41
1
10
66.68498792906
20
3.65671099032568
30
0
41
1
10
66.6848827538316
20
3.65854701433671
30
0
41
1
10
66.6848251357766
20
3.65976339566757
30
0
41
1
10
66.6847741347574
20
3.66101122998455
30
0
41
1
10
66.6847437908589
20
3.66181237510656
30
0
41
1
10
66.684707653921
20
3.66280020199625
30
0
41
1
10
66.6846718389375
20
3.66381800235928
30
0
41
1
10
66.6846303243707
20
3.66502597370828
30
0
41
1
10
66.6846007489887
20
3.66589171806811
30
0
41
1
10
66.6845652600725
20
3.66692528293712
30
0
41
1
10
66.6845179439742
20
3.66829488351809
30
0
41
1
10
66.6844292315383
20
3.67084475337302
30
0
41
1
10
66.6839797682212
20
3.68371909890803
30
0
41
1
10
66.6831754472649
20
3.70682019911828
30
0
41
1
10
66.6822291713747
20
3.73405303607805
30
0
41
1
10
66.6816140950374
20
3.75174404630749
30
0
41
1
10
66.6813302140824
20
3.7599076375007
30
0
41
1
10
66.681211930417
20
3.76330890612343
30
0
41
1
10
66.6811173035207
20
3.76602979681732
30
0
41
1
10
66.6810581617248
20
3.76773030433682
30
0
41
1
10
66.6810108482961
20
3.76909068240647
30
0
41
1
10
66.6809753632285
20
3.77011095237384
30
0
41
1
10
66.680945792342
20
3.77096116634942
30
0
41
1
10
66.6809221356347
20
3.77164133112561
30
0
41
1
10
66.6808156804572
20
3.77470205369664
30
0
41
1
10
66.6806205127159
20
3.78031308808281
30
0
41
1
10
66.6802420058114
20
3.79119429925774
30
0
41
1
10
66.6797688724683
20
3.80479481959236
30
0
41
1
10
66.6792011124566
20
3.82111544399387
30
0
41
1
10
66.6786451807785
20
3.83709605538704
30
0
41
1
10
66.6781897899358
20
3.85018655620908
30
0
41
1
10
66.6778349399285
20
3.86038694646004
30
0
41
1
10
66.6776456865913
20
3.86582715459389
30
0
41
1
10
66.6775333174223
20
3.86905727817336
30
0
41
1
10
66.6774623474208
20
3.87109735622354
30
0
41
1
10
66.6773795490858
20
3.87347744728209
30
0
41
1
10
66.6772849224172
20
3.87619755134901
30
0
41
1
10
66.6771902957486
20
3.87891765541593
30
0
41
1
10
66.6770720124128
20
3.8823177854996
30
0
41
1
10
66.676788132407
20
3.89047809770034
30
0
41
1
10
66.6764569390668
20
3.89999846193456
30
0
41
1
10
66.6760784323924
20
3.91087887820225
30
0
41
1
10
66.6758418657208
20
3.91767913836955
30
0
41
1
10
66.6756526123836
20
3.9231193465034
30
0
41
1
10
66.6755106723807
20
3.92719950260377
30
0
41
1
10
66.6753687323778
20
3.93127965870417
30
0
41
1
10
66.6752622773756
20
3.93433977577945
30
0
41
1
10
66.6751913073741
20
3.93637985382964
30
0
41
1
10
66.6751607754881
20
3.93725751240748
30
0
41
1
10
66.6747822688137
20
3.94813792867515
30
0
41
1
10
66.6740489121319
20
3.96921873519381
30
0
41
1
10
66.6725654173201
20
4.01186274168668
30
0
41
1
10
66.6653856188391
20
4.2182506377643
30
0
41
1
10
66.6525163919077
20
4.58818479086551
30
0
41
1
10
66.634348071534
20
5.11044477171427
30
0
41
1
10
66.6222358579515
20
5.45861809228012
30
0
41
1
10
66.6161797511602
20
5.63270475256306
30
0
0
SPLINE
5
1F2
100
AcDbEntity
8
1
62
256
6
ByLayer
370
-1
48
1
60
0
100
AcDbSpline
70
4
71
3
72
22
73
18
40
0
40
0
40
0
40
0
40
0.0023505275440002
40
0.0123487527331185
40
0.0223469779222368
40
0.0623398786787099
40
0.102332779435174
40
0.182318580948129
40
0.262304382461071
40
0.342290183974022
40
0.662233390025807
40
0.812206767862581
40
0.957493477641943
40
0.962180145699355
40
0.972178370888469
40
0.982176596077592
40
1
40
1
40
1
40
1
41
1
10
65.750124118614
20
8.12420588914861
30
0
41
1
10
65.750116770374
20
8.1241017506145
30
0
41
1
10
65.7500781625517
20
8.12355344117873
30
0
41
1
10
65.7500080818062
20
8.12254908418623
30
0
41
1
10
65.7498192309934
20
8.11982409894378
30
0
41
1
10
65.749534022879
20
8.11571767509486
30
0
41
1
10
65.7490230825331
20
8.10837908268704
30
0
41
1
10
65.748380071674
20
8.0991633248957
30
0
41
1
10
65.7476110707831
20
8.08813003265297
30
0
41
1
10
65.7460756811412
20
8.06608906527441
30
0
41
1
10
65.7443163805098
20
8.04083379015313
30
0
41
1
10
65.7423481629284
20
8.01257945111121
30
0
41
1
10
65.7413883401167
20
7.9988038173754
30
0
41
1
10
65.7408763256648
20
7.99145679718339
30
0
41
1
10
65.7407973217627
20
7.9903231746888
30
0
41
1
10
65.7406765797692
20
7.98858626489286
30
0
41
1
10
65.7405883937724
20
7.98730862299644
30
0
41
1
10
65.7405324651215
20
7.98649013191402
30
0
0
SPLINE
5
1F3
100
AcDbEntity
8
1
62
256
6
ByLayer
370
-1
48
1
60
0
100
AcDbSpline
70
4
71
3
72
14
73
10
40
0
40
0
40
0
40
0
40
0.0050966481374758
40
0.0240065217780263
40
0.0435263913424657
40
0.0630462609069052
40
0.375364173937937
40
0.687682086968968
40
1
40
1
40
1
40
1
41
1
10
66.5946787303936
20
2.68933533138454
30
0
41
1
10
66.5985077398541
20
2.68946958502374
30
0
41
1
10
66.6165433533704
20
2.69010192306428
30
0
41
1
10
66.649243819169
20
2.69124821046233
30
0
41
1
10
66.6927801490132
20
2.69277433998494
30
0
41
1
10
66.9567477910152
20
2.70202750424818
30
0
41
1
10
67.4406884680191
20
2.71899163873084
30
0
41
1
10
68.1446021800245
20
2.74366674343287
30
0
41
1
10
68.6138779880283
20
2.76011681323422
30
0
41
1
10
68.8485158920302
20
2.76834184813492
30
0
0
SPLINE
5
1F4
100
AcDbEntity
8
1
62
256
6
ByLayer
370
-1
48
1
60
0
100
AcDbSpline
70
4
71
3
72
22
73
18
40
0
40
0
40
0
40
0
40
0.0178234039225729
40
0.0278216291116879
40
0.037819854300803
40
0.112806543219166
40
0.187793232137529
40
0.337766609974255
40
0.497738213000096
40
0.657709816025936
40
0.817681419051777
40
0.897667220564698
40
0.977653022077618
40
0.982652134672176
40
0.987651247266733
40
0.997649472455848
40
1
40
1
40
1
40
1
41
1
10
66.2711186035076
20
8.55764753103287
30
0
41
1
10
66.2703091146324
20
8.55753443045171
30
0
41
1
10
66.2690455865217
20
8.55735699944245
30
0
41
1
10
66.2673279236522
20
8.55711493077652
30
0
41
1
10
66.2630140222504
20
8.55650619960929
30
0
41
1
10
66.255748508611
20
8.55548103159933
30
0
41
1
10
66.2421256817314
20
8.55355899898859
30
0
41
1
10
66.2246430682685
20
8.55109259247834
30
0
41
1
10
66.203300657028
20
8.54808165466062
30
0
41
1
10
66.1815041519314
20
8.54500665433613
30
0
41
1
10
66.1633403976842
20
8.54244415406575
30
0
41
1
10
66.1487588437908
20
8.54038534847024
30
0
41
1
10
66.1412863749441
20
8.53933181480099
30
0
41
1
10
66.1372422612043
20
8.53876269553723
30
0
41
1
10
66.1363463687246
20
8.53863652488414
30
0
41
1
10
66.1355753445282
20
8.53852765911645
30
0
41
1
10
66.1350331452926
20
8.53845075009173
30
0
41
1
10
66.1349301683353
20
8.53843612741406
30
0
0
SPLINE
5
1F5
100
AcDbEntity
8
1
62
256
6
ByLayer
370
-1
48
1
60
0
100
AcDbSpline
70
4
71
3
72
79
73
75
40
0
40
0
40
0
40
0
40
0.0017245864916225
40
0.0039792263717499
40
0.0084885061320048
40
0.0129977858922597
40
0.0220163454127695
40
0.0310349049332792
40
0.0671091430153184
40
0.139257619179397
40
0.211406095343475
40
0.220424654863984
40
0.224933934624239
40
0.228315894444431
40
0.229443214384494
40
0.231697854264622
40
0.233952494144749
40
0.23733445396494
40
0.238461773905004
40
0.240716413785132
40
0.242971053665259
40
0.247480333425514
40
0.249734973305641
40
0.256498892946024
40
0.265517452466533
40
0.283554571507553
40
0.292573131028063
40
0.319628809589592
40
0.355703047671631
40
0.39177728575367
40
0.40981440479469
40
0.427851523835709
40
0.445888642876729
40
0.463925761917748
40
0.481962880958768
40
0.499999999999788
40
0.518037119040808
40
0.536074238081827
40
0.554111357122846
40
0.572148476163866
40
0.590185595204884
40
0.608222714245905
40
0.626259833286924
40
0.644296952327944
40
0.662334071368964
40
0.680371190409985
40
0.716445428492023
40
0.72546398801253
40
0.734482547533042
40
0.751392346633997
40
0.752519666574062
40
0.754774306454189
40
0.757028946334317
40
0.76041090615451
40
0.761538226094572
40
0.763792865974701
40
0.766047505854824
40
0.76942946567502
40
0.770556785615081
40
0.771684105555143
40
0.775066065375337
40
0.779575345135591
40
0.784084624895846
40
0.788593904656101
40
0.82466814273814
40
0.860742380820179
40
0.932890856984257
40
0.968965095066296
40
0.987002214107316
40
0.991511493867571
40
0.99489345368776
40
0.996020773627826
40
0.998275413507953
40
1
40
1
40
1
40
1
41
1
10
66.1349301683352
20
8.53843612741406
30
0
41
1
10
66.1345951215769
20
8.53838855093795
30
0
41
1
10
66.1338276235683
20
8.53827918069487
30
0
41
1
10
66.1322129582474
20
8.53804606766604
30
0
41
1
10
66.1301051836934
20
8.53773161369219
30
0
41
1
10
66.1267627698404
20
8.53721225910377
30
0
41
1
10
66.1225509914508
20
8.53652167860287
30
0
41
1
10
66.1123868222526
20
8.53473677431131
30
0
41
1
10
66.0903440527431
20
8.53020549081126
30
0
41
1
10
66.0562009373142
20
8.5206655680054
30
0
41
1
10
66.0273953014975
20
8.50953149365432
30
0
41
1
10
66.011507205613
20
8.50234609632844
30
0
41
1
10
66.0083788918597
20
8.50089630383732
30
0
41
1
10
66.0067128850385
20
8.50011325401087
30
0
41
1
10
66.0054644508435
20
8.49952175846425
30
0
41
1
10
66.0044247647358
20
8.4990262161202
30
0
41
1
10
66.0029704894104
20
8.49832755134165
30
0
41
1
10
66.0017253703136
20
8.49772344281533
30
0
41
1
10
66.0004814040064
20
8.49711513535269
30
0
41
1
10
65.9994454923063
20
8.4966055888539
30
0
41
1
10
65.9977896115731
20
8.49578472049433
30
0
41
1
10
65.9961361387542
20
8.49495546581272
30
0
41
1
10
65.9936596642002
20
8.49369901816794
30
0
41
1
10
65.9903644467073
20
8.49200142807808
30
0
41
1
10
65.984209132207
20
8.48874530890396
30
0
41
1
10
65.9776885395162
20
8.48513867320284
30
0
41
1
10
65.9679831240191
20
8.47952944386256
30
0
41
1
10
65.9551836445649
20
8.47169843326824
30
0
41
1
10
65.9379736256957
20
8.46009979921897
30
0
41
1
10
65.9228015791727
20
8.44871451483766
30
0
41
1
10
65.9109866583004
20
8.43912356738761
30
0
41
1
10
65.9022964911293
20
8.43169447758271
30
0
41
1
10
65.8937870127516
20
8.4240349893156
30
0
41
1
10
65.8854666716979
20
8.41615250906295
30
0
41
1
10
65.877343916499
20
8.40805444330152
30
0
41
1
10
65.8694271956857
20
8.39974819850795
30
0
41
1
10
65.8617249577887
20
8.39124118115899
30
0
41
1
10
65.8542439737881
20
8.38254236804826
30
0
41
1
10
65.8469910146638
20
8.37366073596948
30
0
41
1
10
65.8399728513957
20
8.36460526171632
30
0
41
1
10
65.8331962549638
20
8.35538492208241
30
0
41
1
10
65.8266659977492
20
8.34600977798181
30
0
41
1
10
65.8203868521333
20
8.33648989032855
30
0
41
1
10
65.8143635904972
20
8.32683532003665
30
0
41
1
10
65.8086009852223
20
8.31705612802011
30
0
41
1
10
65.8012685228493
20
8.30386517182572
30
0
41
1
10
65.7953178743746
20
8.29214208522123
30
0
41
1
10
65.7905561496615
20
8.28199093109544
30
0
41
1
10
65.7875684722461
20
8.27541012982209
30
0
41
1
10
65.7853530053269
20
8.27028956338435
30
0
41
1
10
65.7837423912548
20
8.26643756151984
30
0
41
1
10
65.7832976542552
20
8.26536696448639
30
0
41
1
10
65.7826799809584
20
8.26386703924308
30
0
41
1
10
65.7821558604703
20
8.26258024764451
30
0
41
1
10
65.7816359922974
20
8.26129257391852
30
0
41
1
10
65.7812054267882
20
8.26021896760571
30
0
41
1
10
65.7806075976287
20
8.25871492576778
30
0
41
1
10
65.7801004907411
20
8.25742470894156
30
0
41
1
10
65.7796814481575
20
8.25634886200152
30
0
41
1
10
65.7792641789994
20
8.25527268623915
30
0
41
1
10
65.7786022238865
20
8.25354976655882
30
0
41
1
10
65.7777056965522
20
8.25117835261159
30
0
41
1
10
65.7767447055056
20
8.24858852938621
30
0
41
1
10
65.7735982210728
20
8.23994691549896
30
0
41
1
10
65.7686840403858
20
8.22519253180562
30
0
41
1
10
65.760872305309
20
8.19731184771388
30
0
41
1
10
65.755193291835
20
8.16942743223768
30
0
41
1
10
65.7519997639506
20
8.14531603402688
30
0
41
1
10
65.750912112368
20
8.13416150545851
30
0
41
1
10
65.7505053530904
20
8.12929810281358
30
0
41
1
10
65.7503718435371
20
8.12759382557908
30
0
41
1
10
65.7502747822514
20
8.12630337137253
30
0
41
1
10
65.750203177609
20
8.12532089750437
30
0
41
1
10
65.750148026914
20
8.12454471522355
30
0
41
1
10
65.750124118614
20
8.12420588914839
30
0
0
SPLINE
5
1F6
100
AcDbEntity
8
1
62
256
6
ByLayer
370
-1
48
1
60
0
100
AcDbSpline
70
4
71
3
72
8
73
4
40
0
40
0
40
0
40
0
40
1
40
1
40
1
40
1
41
1
10
66.3542223455985
20
8.56488165267459
30
0
41
1
10
66.3662256450426
20
8.56534632658872
30
0
41
1
10
66.378229786787
20
8.56578907594118
30
0
41
1
10
66.3902346913425
20
8.56620989780015
30
0
0
SPLINE
5
1F7
100
AcDbEntity
8
1
62
256
6
ByLayer
370
-1
48
1
60
0
100
AcDbSpline
70
4
71
3
72
22
73
18
40
0
40
0
40
0
40
0
40
0.0023505275439932
40
0.0123487527331107
40
0.0223469779222283
40
0.0623398786786984
40
0.102332779435159
40
0.182318580948109
40
0.262304382461044
40
0.342290183973989
40
0.66223339002575
40
0.812206767862513
40
0.957493477641864
40
0.962180145699276
40
0.972178370888389
40
0.982176596077511
40
1
40
1
40
1
40
1
41
1
10
66.3380660834188
20
2.69916442045675
30
0
41
1
10
66.3381698256744
20
2.69915704414768
30
0
41
1
10
66.3387160486272
20
2.69911828884975
30
0
41
1
10
66.3397165837381
20
2.69904794040724
30
0
41
1
10
66.342431199589
20
2.69885836821499
30
0
41
1
10
66.3465219972554
20
2.69857207065192
30
0
41
1
10
66.3538326641036
20
2.69805917859691
30
0
41
1
10
66.3630133531542
20
2.6974137115408
30
0
41
1
10
66.3740046603889
20
2.6966417731914
30
0
41
1
10
66.3959617552322
20
2.69510051861047
30
0
41
1
10
66.4211209264069
20
2.69333449773649
30
0
41
1
10
66.4492677491585
20
2.69135876188369
30
0
41
1
10
66.462990962449
20
2.69039527270476
30
0
41
1
10
66.4703100250111
20
2.68988130244088
30
0
41
1
10
66.4714393337298
20
2.68980199675673
30
0
41
1
10
66.4731696340596
20
2.68968079354843
30
0
41
1
10
66.4744424141429
20
2.68959227069536
30
0
41
1
10
66.4752577906196
20
2.68953612840613
30
0
0
SPLINE
5
1F8
100
AcDbEntity
8
1
62
256
6
ByLayer
370
-1
48
1
60
0
100
AcDbSpline
70
4
71
3
72
14
73
10
40
0
40
0
40
0
40
0
40
0.0050966481374703
40
0.0240065217780208
40
0.0435263913424604
40
0.0630462609069
40
0.375364173937933
40
0.687682086968967
40
1
40
1
40
1
40
1
41
1
10
71.7522553178783
20
3.54694509364981
30
0
41
1
10
71.7521215751148
20
3.5507887293044
30
0
41
1
10
71.7514916433113
20
3.56889323593441
30
0
41
1
10
71.7503497178829
20
3.60171861219996
30
0
41
1
10
71.7488293957439
20
3.64542124375129
30
0
41
1
10
71.7396114425643
20
3.91039719926252
30
0
41
1
10
71.7227118617349
20
4.39618645103309
30
0
41
1
10
71.6981306532559
20
5.10278899906302
30
0
41
1
10
71.6817431809366
20
5.57385736441631
30
0
41
1
10
71.6735494447769
20
5.80939154709296
30
0
0
SPLINE
5
1F9
100
AcDbEntity
8
1
62
256
6
ByLayer
370
-1
48
1
60
0
100
AcDbSpline
70
4
71
3
72
79
73
75
40
0
40
0
40
0
40
0
40
0.0017245864916234
40
0.0039792263717508
40
0.0084885061320055
40
0.0129977858922602
40
0.0220163454127697
40
0.0310349049332791
40
0.0671091430153168
40
0.139257619179392
40
0.211406095343468
40
0.220424654863977
40
0.224933934624232
40
0.228315894444423
40
0.229443214384487
40
0.231697854264614
40
0.233952494144741
40
0.237334453964932
40
0.238461773904996
40
0.240716413785123
40
0.242971053665251
40
0.247480333425505
40
0.249734973305633
40
0.256498892946015
40
0.265517452466524
40
0.283554571507543
40
0.292573131028052
40
0.319628809589581
40
0.355703047671618
40
0.391777285753656
40
0.409814404794675
40
0.427851523835694
40
0.445888642876713
40
0.463925761917732
40
0.481962880958751
40
0.499999999999769
40
0.518037119040788
40
0.536074238081807
40
0.554111357122826
40
0.572148476163845
40
0.590185595204862
40
0.608222714245882
40
0.626259833286901
40
0.64429695232792
40
0.662334071368939
40
0.68037119040996
40
0.716445428491996
40
0.725463988012504
40
0.734482547533015
40
0.75139234663397
40
0.752519666574033
40
0.754774306454161
40
0.757028946334288
40
0.760410906154482
40
0.761538226094543
40
0.763792865974672
40
0.766047505854796
40
0.76942946567499
40
0.770556785615052
40
0.771684105555114
40
0.775066065375309
40
0.779575345135562
40
0.784084624895816
40
0.788593904656071
40
0.824668142738109
40
0.860742380820146
40
0.932890856984222
40
0.96896509506626
40
0.987002214107278
40
0.991511493867533
40
0.994893453687723
40
0.996020773627788
40
0.998275413507915
40
1
40
1
40
1
40
1
41
1
10
65.9254121162695
20
3.08544036677367
30
0
41
1
10
65.9254595117028
20
3.08510404019114
30
0
41
1
10
65.9255684657591
20
3.0843336104648
30
0
41
1
10
65.9258006917224
20
3.08271277738464
30
0
41
1
10
65.9261139491039
20
3.08059695147432
30
0
41
1
10
65.9266313273914
20
3.07724177014339
30
0
41
1
10
65.927319280025
20
3.07301390344458
30
0
41
1
10
65.9290973922168
20
3.0628109087713
30
0
41
1
10
65.9336114328152
20
3.04068393946324
30
0
41
1
10
65.9431150533345
20
3.00641040288016
30
0
41
1
10
65.9542067591712
20
2.97749473421425
30
0
41
1
10
65.961364813891
20
2.96154594838473
30
0
41
1
10
65.9628090894839
20
2.95840568498107
30
0
41
1
10
65.9635891595694
20
2.95673331428441
30
0
41
1
10
65.9641784042968
20
2.9554801112736
30
0
41
1
10
65.9646720609527
20
2.95443645373393
30
0
41
1
10
65.9653680671008
20
2.95297662331294
30
0
41
1
10
65.9659698768119
20
2.95172674806361
30
0
41
1
10
65.9665758694809
20
2.95047803000713
30
0
41
1
10
65.9670834770014
20
2.94943816129268
30
0
41
1
10
65.9679012217091
20
2.94777595536399
30
0
41
1
10
65.9687273208262
20
2.94611616654757
30
0
41
1
10
65.9699789873084
20
2.94363023226313
30
0
41
1
10
65.9716701175555
20
2.94032242757473
30
0
41
1
10
65.9749138462131
20
2.93414360077296
30
0
41
1
10
65.9785067575765
20
2.92759810047738
30
0
41
1
10
65.9840946421057
20
2.91785561186984
30
0
41
1
10
65.9918958533405
20
2.90500724048351
30
0
41
1
10
66.0034503510854
20
2.88773148213812
30
0
41
1
10
66.0147923110223
20
2.87250148086216
30
0
41
1
10
66.0243467620218
20
2.86064142891155
30
0
41
1
10
66.0317475818971
20
2.85191806671369
30
0
41
1
10
66.0393779234988
20
2.84337608351095
30
0
41
1
10
66.0472304085343
20
2.8350239601061
30
0
41
1
10
66.0552976587107
20
2.82687017730197
30
0
41
1
10
66.0635722957351
20
2.81892321590129
30
0
41
1
10
66.0720469413147
20
2.81119155670686
30
0
41
1
10
66.0807126528153
20
2.80368199656269
30
0
41
1
10
66.0895604876026
20
2.7964013323128
30
0
41
1
10
66.0985815030423
20
2.78935636080112
30
0
41
1
10
66.1077667565002
20
2.78255387887174
30
0
41
1
10
66.117106225347
20
2.77599867713553
30
0
41
1
10
66.1265898869536
20
2.76969554620345
30
0
41
1
10
66.1362077186908
20
2.76364927668646
30
0
41
1
10
66.1459496979293
20
2.75786465919552
30
0
41
1
10
66.1590904585529
20
2.75050418800751
30
0
41
1
10
66.1707689352736
20
2.74453080902236
30
0
41
1
10
66.1808814611932
20
2.73975089529446
30
0
41
1
10
66.1874372205309
20
2.7367518054366
30
0
41
1
10
66.1925383016674
20
2.73452787579373
30
0
41
1
10
66.1963756455019
20
2.73291110943754
30
0
41
1
10
66.1974421685904
20
2.73246467361483
30
0
41
1
10
66.1989363861653
20
2.73184464090636
30
0
41
1
10
66.2002182811333
20
2.7313185183632
30
0
41
1
10
66.201501054872
20
2.73079666437835
30
0
41
1
10
66.2025705757887
20
2.73036445417884
30
0
41
1
10
66.2040688942934
20
2.72976434140898
30
0
41
1
10
66.2053542014551
20
2.72925529745555
30
0
41
1
10
66.2064259544727
20
2.72883465419733
30
0
41
1
10
66.2074980350613
20
2.72841579113879
30
0
41
1
10
66.2092143985121
20
2.72775130746493
30
0
41
1
10
66.2115767885134
20
2.72685135554187
30
0
41
1
10
66.2141567566795
20
2.72588669366564
30
0
41
1
10
66.2227654866169
20
2.7227281901734
30
0
41
1
10
66.2374637254258
20
2.71779523811458
30
0
41
1
10
66.2652383150972
20
2.70995366347878
30
0
41
1
10
66.2930166219539
20
2.70425295709589
30
0
41
1
10
66.3170362690151
20
2.70104723045384
30
0
41
1
10
66.3281483512347
20
2.69995542421893
30
0
41
1
10
66.3329932471642
20
2.69954711118694
30
0
41
1
10
66.3346910391093
20
2.69941309164878
30
0
41
1
10
66.335976582748
20
2.69931565960474
30
0
41
1
10
66.3369553180065
20
2.69924378144421
30
0
41
1
10
66.3377285466794
20
2.69918842008252
30
0
41
1
10
66.3380660834191
20
2.69916442045673
30
0
0
SPLINE
5
1FA
100
AcDbEntity
8
1
62
256
6
ByLayer
370
-1
48
1
60
0
100
AcDbSpline
70
4
71
3
72
22
73
18
40
0
40
0
40
0
40
0
40
0.017823403922527
40
0.0278216291116418
40
0.0378198543007566
40
0.112806543219118
40
0.187793232137479
40
0.337766609974201
40
0.497738213000039
40
0.657709816025876
40
0.817681419051713
40
0.897667220564632
40
0.97765302207755
40
0.982652134672108
40
0.987651247266665
40
0.99764947245578
40
1
40
1
40
1
40
1
41
1
10
65.9062738178416
20
3.22214901964361
30
0
41
1
10
65.9063864880408
20
3.22133643865243
30
0
41
1
10
65.9065632438715
20
3.22006808406954
30
0
41
1
10
65.9068043913931
20
3.21834386000697
30
0
41
1
10
65.9074108061545
20
3.21401348020271
30
0
41
1
10
65.9084320730906
20
3.20672021348153
30
0
41
1
10
65.910346791787
20
3.19304534961631
30
0
41
1
10
65.9128038128759
20
3.17549595541016
30
0
41
1
10
65.9158032931662
20
3.15407201962597
30
0
41
1
10
65.9188665921861
20
3.13219225542088
30
0
41
1
10
65.9214193413693
20
3.1139591185833
30
0
41
1
10
65.9234703125879
20
3.09932186552283
30
0
41
1
10
65.9245198372435
20
3.09182085305906
30
0
41
1
10
65.9250867908366
20
3.08776129146187
30
0
41
1
10
65.9252124813723
20
3.08686197681837
30
0
41
1
10
65.9253209328729
20
3.08608800743485
30
0
41
1
10
65.9253975492355
20
3.08554373708623
30
0
41
1
10
65.9254121162695
20
3.08544036677364
30
0
0
SPLINE
5
1FB
100
AcDbEntity
8
1
62
256
6
ByLayer
370
-1
48
1
60
0
100
AcDbSpline
70
4
71
3
72
48
73
44
40
0
40
0
40
0
40
0
40
0.015625
40
0.0234375
40
0.02734375
40
0.029296875
40
0.0302734375
40
0.03125
40
0.03173828125
40
0.046875
40
0.0625
40
0.125
40
0.1875
40
0.25
40
0.3125
40
0.375
40
0.390625
40
0.40625
40
0.4140625
40
0.421875
40
0.4375
40
0.5
40
0.5625
40
0.59375
40
0.6015625
40
0.60546875
40
0.609375
40
0.6171875
40
0.625
40
0.65625
40
0.671875
40
0.6796875
40
0.6875
40
0.71875
40
0.75
40
0.78125
40
0.7890625
40
0.79296875
40
0.796875
40
0.8046875
40
0.8125
40
0.875
40
1
40
1
40
1
40
1
41
1
10
66.6161797511602
20
5.632704752563
30
0
41
1
10
66.6116876858634
20
5.63254728698215
30
0
41
1
10
66.6049079970497
20
5.63230677098474
30
0
41
1
10
66.5975999768361
20
5.63204232021857
30
0
41
1
10
66.5941663420435
20
5.63191670322243
30
0
41
1
10
66.5925187381472
20
5.63185606988742
30
0
41
1
10
66.5915875263313
20
5.63182169882626
30
0
41
1
10
66.5910055107359
20
5.63180020371638
30
0
41
1
10
66.5870356526742
20
5.63165363655335
30
0
41
1
10
66.5795633464309
20
5.63137775754075
30
0
41
1
10
66.5572631824862
20
5.6305544311125
30
0
41
1
10
66.5236378043916
20
5.62931297555574
30
0
41
1
10
66.478803966932
20
5.62765770148008
30
0
41
1
10
66.4339701294725
20
5.62600242740442
30
0
41
1
10
66.389136292013
20
5.62434715332876
30
0
41
1
10
66.3555203616552
20
5.62310603683471
30
0
41
1
10
66.3330845474518
20
5.62227772167145
30
0
41
1
10
66.3237457392705
20
5.62193292941612
30
0
41
1
10
66.3163049254833
20
5.6216581806126
30
0
41
1
10
66.3087920016426
20
5.62138139645714
30
0
41
1
10
66.2877195672972
20
5.62060735542525
30
0
41
1
10
66.2511682730951
20
5.61927746223384
30
0
41
1
10
66.2079357447481
20
5.61772619088083
30
0
41
1
10
66.1791919424414
20
5.61670463450125
30
0
41
1
10
66.166948440433
20
5.61627116369135
30
0
41
1
10
66.1625130171607
20
5.6161143119557
30
0
41
1
10
66.158044811922
20
5.61595643231999
30
0
41
1
10
66.1524221439939
20
5.61575782706143
30
0
41
1
10
66.1389463931405
20
5.61528180081572
30
0
41
1
10
66.1232282313963
20
5.61472655148665
30
0
41
1
10
66.1074993016892
20
5.61417095423934
30
0
41
1
10
66.0985291572902
20
5.61385404572354
30
0
41
1
10
66.085042939779
20
5.61337835722662
30
0
41
1
10
66.0646330216718
20
5.61266115073917
30
0
41
1
10
66.0372308339489
20
5.61170396836579
30
0
41
1
10
66.0166880279363
20
5.61099071193314
30
0
41
1
10
66.0041855392083
20
5.61055822786773
30
0
41
1
10
65.9996520104394
20
5.61040160208276
30
0
41
1
10
65.9951137341178
20
5.61024491410819
30
0
41
1
10
65.9894320887033
20
5.61004878331966
30
0
41
1
10
65.9667129175821
20
5.60926448822471
30
0
41
1
10
65.9099149897792
20
5.60730375048738
30
0
41
1
10
65.8553889790884
20
5.60542144225951
30
0
41
1
10
65.8190383052946
20
5.60416657010762
30
0
0
SPLINE
5
1FC
100
AcDbEntity
8
1
62
256
6
ByLayer
370
-1
48
1
60
0
100
AcDbSpline
70
4
71
3
72
19
73
15
40
0
40
0
40
0
40
0
40
0.0403657336154902
40
0.106300330648529
40
0.172234927681569
40
0.238169524714608
40
0.370038718780686
40
0.501907912846764
40
0.765646300978921
40
0.83158089801196
40
0.897515495044999
40
0.930482793561518
40
0.963450092078038
40
1
40
1
40
1
40
1
41
1
10
71.1383677562753
20
2.8486122323946
30
0
41
1
10
71.1394897411882
20
2.84865308387111
30
0
41
1
10
71.142444072386
20
2.84876351859526
30
0
41
1
10
71.1472294154219
20
2.84896349033087
30
0
41
1
10
71.1527246546989
20
2.84923619987291
30
0
41
1
10
71.1600500903301
20
2.84965328550064
30
0
41
1
10
71.1692023328029
20
2.85026753763145
30
0
41
1
10
71.1838321025018
20
2.85145200881809
30
0
41
1
10
71.1966096238477
20
2.85275769275276
30
0
41
1
10
71.2075384614628
20
2.85406105372914
30
0
41
1
10
71.2120873090882
20
2.85463733657966
30
0
41
1
10
71.2157229178853
20
2.85511980146072
30
0
41
1
10
71.2185471135626
20
2.85550400701126
30
0
41
1
10
71.2204622703728
20
2.85576990692456
30
0
41
1
10
71.2214691465639
20
2.85591058616779
30
0
0
SPLINE
5
1FD
100
AcDbEntity
8
1
62
256
6
ByLayer
370
-1
48
1
60
0
100
AcDbSpline
70
4
71
3
72
22
73
18
40
0
40
0
40
0
40
0
40
0.0023505275440138
40
0.012348752733132
40
0.0223469779222501
40
0.0623398786787227
40
0.102332779435186
40
0.18231858094814
40
0.262304382461081
40
0.342290183974031
40
0.662233390025812
40
0.812206767862584
40
0.957493477641943
40
0.962180145699356
40
0.972178370888469
40
0.982176596077592
40
1
40
1
40
1
40
1
41
1
10
71.7424636314575
20
3.28935222805202
30
0
41
1
10
71.7424709796975
20
3.28945636658616
30
0
41
1
10
71.7425095875198
20
3.29000467602194
30
0
41
1
10
71.7425796682653
20
3.29100903301443
30
0
41
1
10
71.7427685190781
20
3.29373401825686
30
0
41
1
10
71.7430537271925
20
3.29784044210578
30
0
41
1
10
71.7435646675384
20
3.30517903451363
30
0
41
1
10
71.7442076783975
20
3.31439479230494
30
0
41
1
10
71.7449766792884
20
3.32542808454767
30
0
41
1
10
71.7465120689303
20
3.34746905192625
30
0
41
1
10
71.7482713695617
20
3.37272432704751
30
0
41
1
10
71.7502395871431
20
3.40097866608946
30
0
41
1
10
71.7511994099548
20
3.41475429982526
30
0
41
1
10
71.7517114244067
20
3.42210132001725
30
0
41
1
10
71.7517904283088
20
3.42323494251184
30
0
41
1
10
71.7519111703023
20
3.42497185230778
30
0
41
1
10
71.7519993562992
20
3.4262494942042
30
0
41
1
10
71.75205528495
20
3.42706798528661
30
0
0
SPLINE
5
1FE
100
AcDbEntity
8
1
62
256
6
ByLayer
370
-1
48
1
60
0
100
AcDbSpline
70
4
71
3
72
8
73
4
40
0
40
0
40
0
40
0
40
1
40
1
40
1
40
1
41
1
10
71.138365404473
20
2.84867646452608
30
0
41
1
10
71.1263621050289
20
2.84821179061191
30
0
41
1
10
71.1143579632845
20
2.84776904125945
30
0
41
1
10
71.102353058729
20
2.84734821940049
30
0
0
SPLINE
5
1FF
100
AcDbEntity
8
1
62
256
6
ByLayer
370
-1
48
1
60
0
100
AcDbSpline
70
4
71
3
72
8
73
4
40
0
40
0
40
0
40
0
40
1
40
1
40
1
40
1
41
1
10
71.732404472027
20
-2.67182970649807
30
0
41
1
10
71.7290650926409
20
-2.6650205733998
30
0
41
1
10
71.7258120871138
20
-2.65818332029585
30
0
41
1
10
71.722680063867
20
-2.65139440478131
30
0
0
SPLINE
5
200
100
AcDbEntity
8
1
62
256
6
ByLayer
370
-1
48
1
60
0
100
AcDbSpline
70
4
71
3
72
12
73
8
40
0
40
0
40
0
40
0
40
0.249999999999995
40
0.249999999999995
40
0.499999999999991
40
0.499999999999991
40
1
40
1
40
1
40
1
41
1
10
71.732404472027
20
-2.67182970649807
30
0
41
1
10
71.7465384352053
20
-2.70064944374835
30
0
41
1
10
71.7588891277684
20
-2.73032855510741
30
0
41
1
10
71.7799099896264
20
-2.79145822866812
30
0
41
1
10
71.7885983174828
20
-2.82311802062523
30
0
41
1
10
71.8081994699593
20
-2.91790703010517
30
0
41
1
10
71.8130988621071
20
-2.98183853215181
30
0
41
1
10
71.8097600627044
20
-3.04574413946412
30
0
0
SPLINE
5
201
100
AcDbEntity
8
1
62
256
6
ByLayer
370
-1
48
1
60
0
100
AcDbSpline
70
4
71
3
72
12
73
8
40
0
40
0
40
0
40
0
40
0.25000000000001
40
0.25000000000001
40
0.500000000000021
40
0.500000000000021
40
1
40
1
40
1
40
1
41
1
10
71.1632702490347
20
0.633172722078882
30
0
41
1
10
71.1803660532784
20
0.616252294647126
30
0
41
1
10
71.1956532344049
20
0.597278434708727
30
0
41
1
10
71.219500908543
20
0.561291904377811
30
0
41
1
10
71.2282099890554
20
0.544586883235837
30
0
41
1
10
71.2490536771958
20
0.497772638365916
30
0
41
1
10
71.2559463328968
20
0.471571992749318
30
0
41
1
10
71.2606314137619
20
0.447043403201548
30
0
0
SPLINE
5
202
100
AcDbEntity
8
1
62
256
6
ByLayer
370
-1
48
1
60
0
100
AcDbSpline
70
4
71
3
72
12
73
8
40
0
40
0
40
0
40
0
40
0.124594542225325
40
0.124594542225325
40
0.562297271112663
40
0.562297271112663
40
1
40
1
40
1
40
1
41
1
10
71.0319995991855
20
0.719918144258287
30
0
41
1
10
71.0370627978959
20
0.71778837798422
30
0
41
1
10
71.0421815380627
20
0.715527770145997
30
0
41
1
10
71.0655396803517
20
0.704686923683312
30
0
41
1
10
71.0842713954786
20
0.694563776721026
30
0
41
1
10
71.1236010482618
20
0.668361672709466
30
0
41
1
10
71.1438218545509
20
0.652421605771906
30
0
41
1
10
71.1632702490347
20
0.633172722078882
30
0
0
SPLINE
5
203
100
AcDbEntity
8
1
62
256
6
ByLayer
370
-1
48
1
60
0
100
AcDbSpline
70
4
71
3
72
14
73
10
40
0
40
0
40
0
40
0
40
0.25
40
0.25
40
0.5
40
0.5
40
0.75
40
0.75
40
1
40
1
40
1
40
1
41
1
10
71.4311710382907
20
-0.287539568212537
30
0
41
1
10
71.4160038914697
20
-0.24586630758597
30
0
41
1
10
71.4025480955538
20
-0.204969930168829
30
0
41
1
10
71.3805708989725
20
-0.132369245143082
30
0
41
1
10
71.3716478678563
20
-0.0996545934541473
30
0
41
1
10
71.3565500506002
20
-0.040385102996936
30
0
41
1
10
71.3502219078144
20
-0.013214401664186
30
0
41
1
10
71.339078849081
20
0.0377301646191484
30
0
41
1
10
71.3342927253844
20
0.0613919853560105
30
0
41
1
10
71.3299829206569
20
0.083955828806296
30
0
0
SPLINE
5
204
100
AcDbEntity
8
1
62
256
6
ByLayer
370
-1
48
1
60
0
100
AcDbSpline
70
4
71
3
72
8
73
4
40
0
40
0
40
0
40
0
40
1
40
1
40
1
40
1
41
1
10
71.4311710382884
20
-0.287539568212395
30
0
41
1
10
71.4492382357045
20
-0.337181009387507
30
0
41
1
10
71.4561083364013
20
-0.386705232444825
30
0
41
1
10
71.4552129450807
20
-0.430490372466636
30
0
0
SPLINE
5
205
100
AcDbEntity
8
1
62
256
6
ByLayer
370
-1
48
1
60
0
100
AcDbSpline
70
4
71
3
72
8
73
4
40
0
40
0
40
0
40
0
40
1
40
1
40
1
40
1
41
1
10
71.8083925983469
20
-3.07712094016705
30
0
41
1
10
71.8087599223751
20
-3.06662177591633
30
0
41
1
10
71.8092157296038
20
-3.05616283588262
30
0
41
1
10
71.8097600627045
20
-3.04574413946415
30
0
0
SPLINE
5
206
100
AcDbEntity
8
1
62
256
6
ByLayer
370
-1
48
1
60
0
100
AcDbSpline
70
4
71
3
72
10
73
6
40
0
40
0
40
0
40
0
40
0.500000000000001
40
0.500000000000001
40
1
40
1
40
1
40
1
41
1
10
71.4574227575839
20
-0.566587504786526
30
0
41
1
10
71.4561273917441
20
-0.541916554421107
30
0
41
1
10
71.4553613262588
20
-0.518285277627115
30
0
41
1
10
71.4546912551613
20
-0.472716017571997
30
0
41
1
10
71.4547970610246
20
-0.450827337103874
30
0
41
1
10
71.4552129450806
20
-0.430490372466124
30
0
0
SPLINE
5
207
100
AcDbEntity
8
1
62
256
6
ByLayer
370
-1
48
1
60
0
100
AcDbSpline
70
4
71
3
72
16
73
12
40
0
40
0
40
0
40
0
40
0.25
40
0.25
40
0.5
40
0.5
40
0.75
40
0.75
40
0.875
40
0.875
40
1
40
1
40
1
40
1
41
1
10
71.8543735090024
20
-4.11210875478099
30
0
41
1
10
71.8593772587967
20
-4.1400745914485
30
0
41
1
10
71.8629918672149
20
-4.16901149282091
30
0
41
1
10
71.8661434239518
20
-4.22961657200781
30
0
41
1
10
71.865753343965
20
-4.26124076819912
30
0
41
1
10
71.8579338697389
20
-4.32901689512445
30
0
41
1
10
71.850661667157
20
-4.36513860123293
30
0
41
1
10
71.8287299837152
20
-4.42300948358903
30
0
41
1
10
71.8196340091616
20
-4.44275039852607
30
0
41
1
10
71.7951345424825
20
-4.48375502735524
30
0
41
1
10
71.7798431606282
20
-4.5046153243573
30
0
41
1
10
71.7608681154001
20
-4.52433667441426
30
0
0
SPLINE
5
208
100
AcDbEntity
8
1
62
256
6
ByLayer
370
-1
48
1
60
0
100
AcDbSpline
70
4
71
3
72
12
73
8
40
0
40
0
40
0
40
0
40
0.249999999999975
40
0.249999999999975
40
0.499999999999949
40
0.499999999999949
40
1
40
1
40
1
40
1
41
1
10
71.7608681154001
20
-4.52433667441426
30
0
41
1
10
71.7441884013493
20
-4.54167241594689
30
0
41
1
10
71.7249438439699
20
-4.55669628093671
30
0
41
1
10
71.6877274141913
20
-4.57933899105137
30
0
41
1
10
71.6701227737914
20
-4.5871650443182
30
0
41
1
10
71.6202914473131
20
-4.60504571863899
30
0
41
1
10
71.591737747885
20
-4.60962572274133
30
0
41
1
10
71.5647601773691
20
-4.61190340262525
30
0
0
SPLINE
5
209
100
AcDbEntity
8
1
62
256
6
ByLayer
370
-1
48
1
60
0
100
AcDbSpline
70
4
71
3
72
16
73
12
40
0
40
0
40
0
40
0
40
0.250000000000001
40
0.250000000000001
40
0.500000000000002
40
0.500000000000002
40
0.750000000000003
40
0.750000000000003
40
0.875000000000001
40
0.875000000000001
40
1
40
1
40
1
40
1
41
1
10
71.854373509002
20
-4.11210875478443
30
0
41
1
10
71.8472667077286
20
-4.07238901422733
30
0
41
1
10
71.8402932644685
20
-4.0314212179147
30
0
41
1
10
71.8268045127744
20
-3.94519808536361
30
0
41
1
10
71.8202608557821
20
-3.89992340502167
30
0
41
1
10
71.8081720627507
20
-3.80138803341819
30
0
41
1
10
71.8025349534312
20
-3.74815311670517
30
0
41
1
10
71.7964025554553
20
-3.65628163619664
30
0
41
1
10
71.7947334082485
20
-3.62301133125718
30
0
41
1
10
71.7930837578335
20
-3.55127928299652
30
0
41
1
10
71.7931703919203
20
-3.51221484457631
30
0
41
1
10
71.7945146107956
20
-3.47379325033171
30
0
0
SPLINE
5
20A
100
AcDbEntity
8
SK1
62
256
6
ByLayer
370
-1
48
1
60
0
100
AcDbSpline
70
4
71
3
72
8
73
4
40
0
40
0
40
0
40
0
40
1
40
1
40
1
40
1
41
1
10
-53.6338144512151
20
6.3403417946746
30
0
41
1
10
-53.292222119692
20
6.56578790669803
30
0
41
1
10
-52.9473802440142
20
6.78469639798695
30
0
41
1
10
-52.6000000000004
20
6.99849805315478
30
0
0
SPLINE
5
20B
100
AcDbEntity
8
SK1
62
256
6
ByLayer
370
-1
48
1
60
0
100
AcDbSpline
70
4
71
3
72
8
73
4
40
0
40
0
40
0
40
0
40
1
40
1
40
1
40
1
41
1
10
-56.0000000000001
20
4.99854728896315
30
0
41
1
10
-55.7019755215914
20
5.68400902895925
30
0
41
1
10
-55.3641473109836
20
6.34826454962635
30
0
41
1
10
-55
20
6.99849805315404
30
0
0
SPLINE
5
20C
100
AcDbEntity
8
SK1
62
256
6
ByLayer
370
-1
48
1
60
0
100
AcDbSpline
70
4
71
3
72
8
73
4
40
0
40
0
40
0
40
0
40
1
40
1
40
1
40
1
41
1
10
-54.516222729729
20
-6.81204395564961
30
0
41
1
10
-54.5439393896427
20
-6.87431425928901
30
0
41
1
10
-54.5718676648179
20
-6.93646419260506
30
0
41
1
10
-54.6
20
-6.99849805315392
30
0
0
SPLINE
5
20D
100
AcDbEntity
8
SK1
62
256
6
ByLayer
370
-1
48
1
60
0
100
AcDbSpline
70
4
71
3
72
8
73
4
40
0
40
0
40
0
40
0
40
1
40
1
40
1
40
1
41
1
10
-54.6
20
6.99849805315404
30
0
41
1
10
-54.5718676648179
20
6.93646419260517
30
0
41
1
10
-54.5439393896427
20
6.87431425928909
30
0
41
1
10
-54.516222729729
20
6.81204395564973
30
0
0
SPLINE
5
20E
100
AcDbEntity
8
SK1
62
256
6
ByLayer
370
-1
48
1
60
0
100
AcDbSpline
70
4
71
3
72
20
73
16
40
0
40
0
40
0
40
0
40
0.125000000000007
40
0.125000000000007
40
0.250000000000015
40
0.250000000000015
40
0.312500000000018
40
0.312500000000018
40
0.375000000000022
40
0.375000000000022
40
0.500000000000012
40
0.500000000000012
40
0.750000000000006
40
0.750000000000006
40
1
40
1
40
1
40
1
41
1
10
-53.6338144512145
20
-6.34034179467375
30
0
41
1
10
-53.6736405326374
20
-6.31405714368668
30
0
41
1
10
-53.7174596238936
20
-6.2918915268643
30
0
41
1
10
-53.8100286430816
20
-6.26230917234659
30
0
41
1
10
-53.858409060093
20
-6.25510537770515
30
0
41
1
10
-53.930507607687
20
-6.25719119578446
30
0
41
1
10
-53.9548847131617
20
-6.26004287846277
30
0
41
1
10
-54.0024268232708
20
-6.26975628298462
30
0
41
1
10
-54.025531470073
20
-6.27654559824734
30
0
41
1
10
-54.0930893921825
20
-6.30200607369946
30
0
41
1
10
-54.136092797726
20
-6.32609087475549
30
0
41
1
10
-54.2534188607808
20
-6.41013429612562
30
0
41
1
10
-54.3194596979378
20
-6.48308041368765
30
0
41
1
10
-54.4306544823114
20
-6.63915672058906
30
0
41
1
10
-54.4771151388184
20
-6.72418194167685
30
0
41
1
10
-54.5162227297291
20
-6.81204395564961
30
0
0
SPLINE
5
20F
100
AcDbEntity
8
SK1
62
256
6
ByLayer
370
-1
48
1
60
0
100
AcDbSpline
70
4
71
3
72
20
73
16
40
0
40
0
40
0
40
0
40
0.25
40
0.25
40
0.375
40
0.375
40
0.5
40
0.5
40
0.625
40
0.625
40
0.75
40
0.75
40
0.875
40
0.875
40
1
40
1
40
1
40
1
41
1
10
-54.5162227297291
20
6.8120439556497
30
0
41
1
10
-54.4772709483907
20
6.72453199501689
30
0
41
1
10
-54.4306845518237
20
6.63914767831511
30
0
41
1
10
-54.3469265709005
20
6.52165950363116
30
0
41
1
10
-54.3163253277688
20
6.4838456686486
30
0
41
1
10
-54.2501041764424
20
6.41421731653315
30
0
41
1
10
-54.2145625265326
20
6.38236090680323
30
0
41
1
10
-54.1369222939179
20
6.32662557921188
30
0
41
1
10
-54.0940013611407
20
6.30244517653043
30
0
41
1
10
-54.0037548865671
20
6.26824500575401
30
0
41
1
10
-53.9556146989167
20
6.25796898452336
30
0
41
1
10
-53.8582046255659
20
6.25504848254036
30
0
41
1
10
-53.8099490429817
20
6.26234710426348
30
0
41
1
10
-53.7177558858445
20
6.29178438547694
30
0
41
1
10
-53.6739857261288
20
6.31382932086129
30
0
41
1
10
-53.6338144512151
20
6.3403417946746
30
0
0
SPLINE
5
210
100
AcDbEntity
8
SK1
62
256
6
ByLayer
370
-1
48
1
60
0
100
AcDbSpline
70
4
71
3
72
8
73
4
40
0
40
0
40
0
40
0
40
1
40
1
40
1
40
1
41
1
10
-52.6000000000004
20
-6.99849805315466
30
0
41
1
10
-52.9473802440142
20
-6.78469639798683
30
0
41
1
10
-53.292222119692
20
-6.56578790669792
30
0
41
1
10
-53.6338144512151
20
-6.34034179467449
30
0
0
SPLINE
5
211
100
AcDbEntity
8
SK1
62
256
6
ByLayer
370
-1
48
1
60
0
100
AcDbSpline
70
4
71
3
72
8
73
4
40
0
40
0
40
0
40
0
40
1
40
1
40
1
40
1
41
1
10
-55
20
-6.99849805315392
30
0
41
1
10
-55.3648529633576
20
-6.34700451336727
30
0
41
1
10
-55.7026345426883
20
-5.68249326840734
30
0
41
1
10
-56
20
-4.99854728896301
30
0
0
SPLINE
5
212
100
AcDbEntity
8
SK1
62
256
6
ByLayer
370
-1
48
1
60
0
100
AcDbSpline
70
4
71
3
72
68
73
64
40
0
40
0
40
0
40
0
40
0.015625
40
0.015625
40
0.0312499999999999
40
0.0312499999999999
40
0.0468749999999999
40
0.0468749999999999
40
0.0624999999999998
40
0.0624999999999998
40
0.0781249999999998
40
0.0781249999999998
40
0.0937499999999997
40
0.0937499999999997
40
0.125
40
0.125
40
0.15625
40
0.15625
40
0.1875
40
0.1875
40
0.25
40
0.25
40
0.28125
40
0.28125
40
0.3125
40
0.3125
40
0.375
40
0.375
40
0.4375
40
0.4375
40
0.46875
40
0.46875
40
0.5
40
0.5
40
0.5625
40
0.5625
40
0.625
40
0.625
40
0.6875
40
0.6875
40
0.75
40
0.75
40
0.8125
40
0.8125
40
0.84375
40
0.84375
40
0.859375
40
0.859375
40
0.875
40
0.875
40
0.90625
40
0.90625
40
0.921875
40
0.921875
40
0.9375
40
0.9375
40
0.953125
40
0.953125
40
0.96875
40
0.96875
40
0.984375
40
0.984375
40
1
40
1
40
1
40
1
41
1
10
-6.5
20
-6.99849805315398
30
0
41
1
10
-6.4096424095903
20
-6.99849805315398
30
0
41
1
10
-6.31887533751086
20
-6.9924669932976
30
0
41
1
10
-6.13726564177031
20
-6.96792032412691
30
0
41
1
10
-6.04880117468585
20
-6.94974705973743
30
0
41
1
10
-5.87614107362342
20
-6.90252164638767
30
0
41
1
10
-5.79194795071362
20
-6.87346297167917
30
0
41
1
10
-5.62761370230606
20
-6.80484072991021
30
0
41
1
10
-5.54890965383427
20
-6.76585529638666
30
0
41
1
10
-5.39867973784189
20
-6.68016521734489
30
0
41
1
10
-5.32694157755157
20
-6.63336290342139
30
0
41
1
10
-5.18947718430641
20
-6.53250060019133
30
0
41
1
10
-5.12348684568531
20
-6.47818603126365
30
0
41
1
10
-4.93566988154686
20
-6.30674027670506
30
0
41
1
10
-4.82518003213681
20
-6.18267595320251
30
0
41
1
10
-4.62603001440084
20
-5.91868980815966
30
0
41
1
10
-4.53721391214785
20
-5.77825879287735
30
0
41
1
10
-4.37814656673874
20
-5.48542007115435
30
0
41
1
10
-4.30877871567313
20
-5.33483042069352
30
0
41
1
10
-4.12354082750574
20
-4.87237000918773
30
0
41
1
10
-4.03020120532329
20
-4.54989217457512
30
0
41
1
10
-3.91807144557504
20
-4.04887624586692
30
0
41
1
10
-3.88552668802802
20
-3.87909831441809
30
0
41
1
10
-3.82866773565829
20
-3.53847076026688
30
0
41
1
10
-3.80422767364425
20
-3.36705941807358
30
0
41
1
10
-3.74020579920568
20
-2.84975913582008
30
0
41
1
10
-3.70977205452269
20
-2.5008195214777
30
0
41
1
10
-3.66416163751657
20
-1.79552608157809
30
0
41
1
10
-3.64903771748126
20
-1.43916908464092
30
0
41
1
10
-3.63426182330713
20
-0.899256752194447
30
0
41
1
10
-3.63068669313998
20
-0.718167674817778
30
0
41
1
10
-3.62598899859142
20
-0.357375695924361
30
0
41
1
10
-3.62485343662013
20
-0.177302953433326
30
0
41
1
10
-3.62488496014578
20
0.361962578325034
30
0
41
1
10
-3.62938260517049
20
0.720207066315254
30
0
41
1
10
-3.64887950283875
20
1.43414621185846
30
0
41
1
10
-3.66385562324439
20
1.78984138878459
30
0
41
1
10
-3.70956223321124
20
2.49851694715909
30
0
41
1
10
-3.74045671775656
20
2.85271919963691
30
0
41
1
10
-3.82645737175278
20
3.54573152185978
30
0
41
1
10
-3.88145968550236
20
3.88575414429386
30
0
41
1
10
-4.03051920995767
20
4.55084385300148
30
0
41
1
10
-4.12523349261875
20
4.87761469840365
30
0
41
1
10
-4.31105593218689
20
5.33999328729007
30
0
41
1
10
-4.38041029850672
20
5.4899128326384
30
0
41
1
10
-4.49888437250004
20
5.70752713951083
30
0
41
1
10
-4.54079549132547
20
5.77885043055693
30
0
41
1
10
-4.63023926406612
20
5.91883578995851
30
0
41
1
10
-4.67776791395602
20
5.98743717509882
30
0
41
1
10
-4.82792587490127
20
6.18597359029033
30
0
41
1
10
-4.93858588995937
20
6.30966494075429
30
0
41
1
10
-5.12522766477915
20
6.47964028567972
30
0
41
1
10
-5.19131964832849
20
6.53397024553271
30
0
41
1
10
-5.32929892448178
20
6.63497116118225
30
0
41
1
10
-5.40112275258878
20
6.68167605293547
30
0
41
1
10
-5.55102867370906
20
6.76694298534821
30
0
41
1
10
-5.62910582891868
20
6.80551115138627
30
0
41
1
10
-5.79238720600742
20
6.87359848794483
30
0
41
1
10
-5.87738605118548
20
6.90291103819595
30
0
41
1
10
-6.04966564042599
20
6.94993403370722
30
0
41
1
10
-6.13756051826556
20
6.96792637087054
30
0
41
1
10
-6.31709499624006
20
6.99225989008042
30
0
41
1
10
-6.40924253974518
20
6.99849805315398
30
0
41
1
10
-6.5
20
6.99849805315398
30
0
0
LINE
5
45
100
AcDbEntity
8
80
62
256
6
ByLayer
370
-1
48
1
60
0
100
AcDbLine
10
0
20
0
30
0
11
-7
21
0
31
0
39
0
210
0
220
0
230
1
0
LINE
5
46
100
AcDbEntity
8
81
62
256
6
ByLayer
370
-1
48
1
60
0
100
AcDbLine
10
72
20
0
30
0
11
79
21
0
31
0
39
0
210
0
220
0
230
1
0
LINE
5
47
100
AcDbEntity
8
1
62
256
6
ByLayer
370
-1
48
1
60
0
100
AcDbLine
10
0.2
20
16
30
0
11
0
21
15.8
31
0
39
0
210
0
220
0
230
1
0
LINE
5
49
100
AcDbEntity
8
1
62
256
6
ByLayer
370
-1
48
1
60
0
100
AcDbLine
10
0
20
-15.8
30
0
11
0.2
21
-16
31
0
39
0
210
0
220
0
230
1
0
LINE
5
4A
100
AcDbEntity
8
1
62
256
6
ByLayer
370
-1
48
1
60
0
100
AcDbLine
10
5
20
16
30
0
11
0.2
21
16
31
0
39
0
210
0
220
0
230
1
0
LINE
5
4B
100
AcDbEntity
8
1
62
256
6
ByLayer
370
-1
48
1
60
0
100
AcDbLine
10
0.2
20
-16
30
0
11
5
21
-16
31
0
39
0
210
0
220
0
230
1
0
LINE
5
4C
100
AcDbEntity
8
1
62
256
6
ByLayer
370
-1
48
1
60
0
100
AcDbLine
10
36.199289
20
8.45
30
0
11
16
21
8.45
31
0
39
0
210
0
220
0
230
1
0
LINE
5
4D
100
AcDbEntity
8
1
62
256
6
ByLayer
370
-1
48
1
60
0
100
AcDbLine
10
65.503505
20
8.45
30
0
11
63.325281
21
8.45
31
0
39
0
210
0
220
0
230
1
0
LINE
5
4E
100
AcDbEntity
8
1
62
256
6
ByLayer
370
-1
48
1
60
0
100
AcDbLine
10
16
20
-8.45
30
0
11
28.073884
21
-8.45
31
0
39
0
210
0
220
0
230
1
0
LINE
5
4F
100
AcDbEntity
8
SK1
62
256
6
ByLayer
370
-1
48
1
60
0
100
AcDbLine
10
-2
20
12.49675
30
0
11
-52.6
21
12.49675
31
0
39
0
210
0
220
0
230
1
0
LINE
5
51
100
AcDbEntity
8
SK1
62
256
6
ByLayer
370
-1
48
1
60
0
100
AcDbLine
10
-52.6
20
-12.49675
30
0
11
-2
21
-12.49675
31
0
39
0
210
0
220
0
230
1
0
LINE
5
52
100
AcDbEntity
8
SK1
62
256
6
ByLayer
370
-1
48
1
60
0
100
AcDbLine
10
-2
20
-12.49675
30
0
11
-1.551212
21
-12.287477
31
0
39
0
210
0
220
0
230
1
0
LINE
5
53
100
AcDbEntity
8
SK1
62
256
6
ByLayer
370
-1
48
1
60
0
100
AcDbLine
10
-1.551212
20
12.287477
30
0
11
-2
21
12.49675
31
0
39
0
210
0
220
0
230
1
0
LINE
5
54
100
AcDbEntity
8
SK1
62
256
6
ByLayer
370
-1
48
1
60
0
100
AcDbLine
10
-0.15
20
12.25
30
0
11
-1.382165
21
12.25
31
0
39
0
210
0
220
0
230
1
0
LINE
5
55
100
AcDbEntity
8
SK1
62
256
6
ByLayer
370
-1
48
1
60
0
100
AcDbLine
10
-1.382165
20
-12.25
30
0
11
-0.15
21
-12.25
31
0
39
0
210
0
220
0
230
1
0
LINE
5
56
100
AcDbEntity
8
SK1
62
256
6
ByLayer
370
-1
48
1
60
0
100
AcDbLine
10
-52.6
20
12.49675
30
0
11
-53.633814
21
12.140417
31
0
39
0
210
0
220
0
230
1
0
LINE
5
57
100
AcDbEntity
8
SK1
62
256
6
ByLayer
370
-1
48
1
60
0
100
AcDbLine
10
-53.633814
20
-12.140417
30
0
11
-52.6
21
-12.49675
31
0
39
0
210
0
220
0
230
1
0
LINE
5
58
100
AcDbEntity
8
SK1
62
256
6
ByLayer
370
-1
48
1
60
0
100
AcDbLine
10
-54.6
20
-12.49675
30
0
11
-54.516223
21
-12.393294
31
0
39
0
210
0
220
0
230
1
0
LINE
5
59
100
AcDbEntity
8
SK1
62
256
6
ByLayer
370
-1
48
1
60
0
100
AcDbLine
10
-54.516223
20
12.393294
30
0
11
-54.6
21
12.49675
31
0
39
0
210
0
220
0
230
1
0
LINE
5
5A
100
AcDbEntity
8
SK1
62
256
6
ByLayer
370
-1
48
1
60
0
100
AcDbLine
10
-54.6
20
12.49675
30
0
11
-55
21
12.49675
31
0
39
0
210
0
220
0
230
1
0
LINE
5
5B
100
AcDbEntity
8
SK1
62
256
6
ByLayer
370
-1
48
1
60
0
100
AcDbLine
10
-55
20
-12.49675
30
0
11
-54.6
21
-12.49675
31
0
39
0
210
0
220
0
230
1
0
LINE
5
5C
100
AcDbEntity
8
SK1
62
256
6
ByLayer
370
-1
48
1
60
0
100
AcDbLine
10
-55
20
12.49675
30
0
11
-56
21
11.49675
31
0
39
0
210
0
220
0
230
1
0
LINE
5
5D
100
AcDbEntity
8
SK1
62
256
6
ByLayer
370
-1
48
1
60
0
100
AcDbLine
10
-56
20
-11.49675
30
0
11
-55
21
-12.49675
31
0
39
0
210
0
220
0
230
1
0
LINE
5
5E
100
AcDbEntity
8
SK4
62
256
6
ByLayer
370
-1
48
0.05
60
0
100
AcDbLine
10
72
20
0
30
0
11
-56
21
0
31
0
39
0
210
0
220
0
230
1
0
LINE
5
60
100
AcDbEntity
8
4
62
256
6
ByLayer
370
-1
48
0.05
60
0
100
AcDbLine
10
72
20
0
30
0
11
0
21
0
31
0
39
0
210
0
220
0
230
1
0
LINE
5
62
100
AcDbEntity
8
1
62
256
6
ByLayer
370
-1
48
1
60
0
100
AcDbLine
10
71.03138
20
0.71782
30
0
11
71.032329
21
0.720661
31
0
39
0
210
0
220
0
230
1
0
LINE
5
63
100
AcDbEntity
8
1
62
256
6
ByLayer
370
-1
48
1
60
0
100
AcDbLine
10
65.804926
20
2.45699
30
0
11
65.850214
21
2.45699
31
0
39
0
210
0
220
0
230
1
0
LINE
5
64
100
AcDbEntity
8
1
62
256
6
ByLayer
370
-1
48
1
60
0
100
AcDbLine
10
60.04007
20
4.93
30
0
11
61.158947
21
4.93
31
0
39
0
210
0
220
0
230
1
0
LINE
5
65
100
AcDbEntity
8
1
62
256
6
ByLayer
370
-1
48
1
60
0
100
AcDbLine
10
70.98008
20
0.744028
30
0
11
70.988744
21
0.743726
31
0
39
0
210
0
220
0
230
1
0
LINE
5
66
100
AcDbEntity
8
1
62
256
6
ByLayer
370
-1
48
1
60
0
100
AcDbLine
10
71.03138
20
0.71782
30
0
11
70.966117
21
0.720095
31
0
39
0
210
0
220
0
230
1
0
LINE
5
67
100
AcDbEntity
8
1
62
256
6
ByLayer
370
-1
48
1
60
0
100
AcDbLine
10
63.995487
20
5.276528
30
0
11
63.995487
21
8.447261
31
0
39
0
210
0
220
0
230
1
0
LINE
5
68
100
AcDbEntity
8
1
62
256
6
ByLayer
370
-1
48
1
60
0
100
AcDbLine
10
67.241251
20
2.485331
30
0
11
70.571348
21
2.602065
31
0
39
0
210
0
220
0
230
1
0
LINE
5
69
100
AcDbEntity
8
1
62
256
6
ByLayer
370
-1
48
1
60
0
100
AcDbLine
10
0.2
20
16
30
0
11
0.2
21
-16
31
0
39
0
210
0
220
0
230
1
0
LINE
5
6A
100
AcDbEntity
8
1
62
256
6
ByLayer
370
-1
48
1
60
0
100
AcDbLine
10
65.234636
20
4.737123
30
0
11
65.275487
21
3.562838
31
0
39
0
210
0
220
0
230
1
0
LINE
5
6B
100
AcDbEntity
8
1
62
256
6
ByLayer
370
-1
48
1
60
0
100
AcDbLine
10
16
20
-8.45
30
0
11
16
21
-7.088006
31
0
39
0
210
0
220
0
230
1
0
LINE
5
6C
100
AcDbEntity
8
1
62
256
6
ByLayer
370
-1
48
1
60
0
100
AcDbLine
10
65.804926
20
2.45699
30
0
11
64.996504
21
2.428651
31
0
39
0
210
0
220
0
230
1
0
LINE
5
6D
100
AcDbEntity
8
1
62
256
6
ByLayer
370
-1
48
1
60
0
100
AcDbLine
10
71.194807
20
-4.267764
30
0
11
70.64277
21
-4.021791
31
0
39
0
210
0
220
0
230
1
0
LINE
5
6E
100
AcDbEntity
8
1
62
256
6
ByLayer
370
-1
48
1
60
0
100
AcDbLine
10
65.556809
20
5.661897
30
0
11
65.468128
21
8.442996
31
0
39
0
210
0
220
0
230
1
0
LINE
5
6F
100
AcDbEntity
8
1
62
256
6
ByLayer
370
-1
48
1
60
0
100
AcDbLine
10
65.44381
20
4.737123
30
0
11
65.484661
21
3.562838
31
0
39
0
210
0
220
0
230
1
0
LINE
5
70
100
AcDbEntity
8
1
62
256
6
ByLayer
370
-1
48
1
60
0
100
AcDbLine
10
16
20
8.45
30
0
11
16
21
6.006915
31
0
39
0
210
0
220
0
230
1
0
LINE
5
71
100
AcDbEntity
8
1
62
256
6
ByLayer
370
-1
48
1
60
0
100
AcDbLine
10
64.465514
20
0.601935
30
0
11
64.76733
21
1.640246
31
0
39
0
210
0
220
0
230
1
0
LINE
5
72
100
AcDbEntity
8
1
62
256
6
ByLayer
370
-1
48
1
60
0
100
AcDbLine
10
62.740914
20
3.672631
30
0
11
62.446022
21
3.804427
31
0
39
0
210
0
220
0
230
1
0
LINE
5
73
100
AcDbEntity
8
1
62
256
6
ByLayer
370
-1
48
1
60
0
100
AcDbLine
10
70.219853
20
0.944907
30
0
11
70.79265
21
2.590081
31
0
39
0
210
0
220
0
230
1
0
LINE
5
74
100
AcDbEntity
8
1
62
256
6
ByLayer
370
-1
48
1
60
0
100
AcDbLine
10
71.508607
20
-5.041028
30
0
11
71.205941
21
-5.004467
31
0
39
0
210
0
220
0
230
1
0
LINE
5
75
100
AcDbEntity
8
1
62
256
6
ByLayer
370
-1
48
1
60
0
100
AcDbLine
10
57.667549
20
5.877345
30
0
11
55.286292
21
6.103438
31
0
39
0
210
0
220
0
230
1
0
LINE
5
76
100
AcDbEntity
8
1
62
256
6
ByLayer
370
-1
48
1
60
0
100
AcDbLine
10
71.188684
20
-4.336791
30
0
11
71.194807
21
-4.267764
31
0
39
0
210
0
220
0
230
1
0
LINE
5
77
100
AcDbEntity
8
1
62
256
6
ByLayer
370
-1
48
1
60
0
100
AcDbLine
10
65.327094
20
3.236696
30
0
11
65.028683
21
3.226235
31
0
39
0
210
0
220
0
230
1
0
LINE
5
78
100
AcDbEntity
8
1
62
256
6
ByLayer
370
-1
48
1
60
0
100
AcDbLine
10
65.234636
20
4.737123
30
0
11
65.44381
21
4.737123
31
0
39
0
210
0
220
0
230
1
0
LINE
5
79
100
AcDbEntity
8
1
62
256
6
ByLayer
370
-1
48
1
60
0
100
AcDbLine
10
65.275487
20
3.562838
30
0
11
65.484661
21
3.562838
31
0
39
0
210
0
220
0
230
1
0
LINE
5
7A
100
AcDbEntity
8
1
62
256
6
ByLayer
370
-1
48
1
60
0
100
AcDbLine
10
64.813152
20
-8.447951
30
0
11
71.206423
21
-8.447951
31
0
39
0
210
0
220
0
230
1
0
LINE
5
7B
100
AcDbEntity
8
1
62
256
6
ByLayer
370
-1
48
1
60
0
100
AcDbLine
10
60.980216
20
8.4164
30
0
11
60.980216
21
5.562818
31
0
39
0
210
0
220
0
230
1
0
LINE
5
7C
100
AcDbEntity
8
1
62
256
6
ByLayer
370
-1
48
1
60
0
100
AcDbLine
10
65.644453
20
5.707803
30
0
11
65.756308
21
5.707803
31
0
39
0
210
0
220
0
230
1
0
LINE
5
7D
100
AcDbEntity
8
1
62
256
6
ByLayer
370
-1
48
1
60
0
100
AcDbLine
10
70.720902
20
2.602065
30
0
11
71.002657
21
2.587242
31
0
39
0
210
0
220
0
230
1
0
LINE
5
7E
100
AcDbEntity
8
1
62
256
6
ByLayer
370
-1
48
1
60
0
100
AcDbLine
10
5
20
16
30
0
11
5
21
-16
31
0
39
0
210
0
220
0
230
1
0
LINE
5
7F
100
AcDbEntity
8
1
62
256
6
ByLayer
370
-1
48
1
60
0
100
AcDbLine
10
71.206423
20
-8.447951
30
0
11
71.508607
21
-5.041028
31
0
39
0
210
0
220
0
230
1
0
LINE
5
80
100
AcDbEntity
8
1
62
256
6
ByLayer
370
-1
48
1
60
0
100
AcDbLine
10
0
20
15.8
30
0
11
0
21
-15.8
31
0
39
0
210
0
220
0
230
1
0
LINE
5
81
100
AcDbEntity
8
1
62
256
6
ByLayer
370
-1
48
1
60
0
100
AcDbLine
10
64.958285
20
2.297169
30
0
11
64.996504
21
2.428651
31
0
39
0
210
0
220
0
230
1
0
LINE
5
82
100
AcDbEntity
8
1
62
256
6
ByLayer
370
-1
48
1
60
0
100
AcDbLine
10
71.194807
20
-4.267764
30
0
11
70.961165
21
0.18207
31
0
39
0
210
0
220
0
230
1
0
LINE
5
83
100
AcDbEntity
8
1
62
256
6
ByLayer
370
-1
48
1
60
0
100
AcDbLine
10
70.79265
20
2.590081
30
0
11
70.571348
21
2.602065
31
0
39
0
210
0
220
0
230
1
0
LINE
5
84
100
AcDbEntity
8
1
62
256
6
ByLayer
370
-1
48
1
60
0
100
AcDbLine
10
65.785981
20
8.438988
30
0
11
65.785984
21
8.438909
31
0
39
0
210
0
220
0
230
1
0
LINE
5
85
100
AcDbEntity
8
1
62
256
6
ByLayer
370
-1
48
1
60
0
100
AcDbLine
10
61.843175
20
1.572655
30
0
11
61.715658
21
1.133973
31
0
39
0
210
0
220
0
230
1
0
LINE
5
86
100
AcDbEntity
8
1
62
256
6
ByLayer
370
-1
48
1
60
0
100
AcDbLine
10
65.556809
20
5.661897
30
0
11
65.584133
21
5.661897
31
0
39
0
210
0
220
0
230
1
0
LINE
5
87
100
AcDbEntity
8
1
62
256
6
ByLayer
370
-1
48
1
60
0
100
AcDbLine
10
63.995487
20
5.276528
30
0
11
60.980216
21
5.562818
31
0
39
0
210
0
220
0
230
1
0
LINE
5
88
100
AcDbEntity
8
1
62
256
6
ByLayer
370
-1
48
1
60
0
100
AcDbLine
10
71.002657
20
2.587242
30
0
11
70.79265
21
2.590081
31
0
39
0
210
0
220
0
230
1
0
LINE
5
89
100
AcDbEntity
8
1
62
256
6
ByLayer
370
-1
48
1
60
0
100
AcDbLine
10
65.495231
20
8.449941
30
0
11
65.584133
21
5.661897
31
0
39
0
210
0
220
0
230
1
0
LINE
5
8A
100
AcDbEntity
8
1
62
256
6
ByLayer
370
-1
48
1
60
0
100
AcDbLine
10
70.571348
20
2.602065
30
0
11
70.720847
21
2.602065
31
0
39
0
210
0
220
0
230
1
0
LINE
5
8B
100
AcDbEntity
8
1
62
256
6
ByLayer
370
-1
48
1
60
0
100
AcDbLine
10
70.957091
20
0.277076
30
0
11
70.247476
21
0.593261
31
0
39
0
210
0
220
0
230
1
0
LINE
5
8C
100
AcDbEntity
8
1
62
256
6
ByLayer
370
-1
48
1
60
0
100
AcDbLine
10
70.988744
20
0.743726
30
0
11
71.032329
21
0.720661
31
0
39
0
210
0
220
0
230
1
0
LINE
5
8D
100
AcDbEntity
8
1
62
256
6
ByLayer
370
-1
48
1
60
0
100
AcDbLine
10
71.032329
20
0.720661
30
0
11
71.097632
21
2.787345
31
0
39
0
210
0
220
0
230
1
0
LINE
5
8E
100
AcDbEntity
8
1
62
256
6
ByLayer
370
-1
48
1
60
0
100
AcDbLine
10
65.844654
20
3.199758
30
0
11
65.903657
21
3.202972
31
0
39
0
210
0
220
0
230
1
0
LINE
5
8F
100
AcDbEntity
8
1
62
256
6
ByLayer
370
-1
48
1
60
0
100
AcDbLine
10
70.896287
20
8.783958
30
0
11
66.388612
21
8.625945
31
0
39
0
210
0
220
0
230
1
0
LINE
5
90
100
AcDbEntity
8
1
62
256
6
ByLayer
370
-1
48
1
60
0
100
AcDbLine
10
71.195151
20
8.789025
30
0
11
71.194695
21
8.729254
31
0
39
0
210
0
220
0
230
1
0
LINE
5
91
100
AcDbEntity
8
1
62
256
6
ByLayer
370
-1
48
1
60
0
100
AcDbLine
10
71.195476
20
2.791203
30
0
11
71.192401
21
2.850917
31
0
39
0
210
0
220
0
230
1
0
LINE
5
92
100
AcDbEntity
8
1
62
256
6
ByLayer
370
-1
48
1
60
0
100
AcDbLine
10
66.023594
20
8.597695
30
0
11
66.040547
21
8.540535
31
0
39
0
210
0
220
0
230
1
0
LINE
5
93
100
AcDbEntity
8
1
62
256
6
ByLayer
370
-1
48
1
60
0
100
AcDbLine
10
66.23112
20
2.632222
30
0
11
66.244059
21
2.690462
31
0
39
0
210
0
220
0
230
1
0
LINE
5
94
100
AcDbEntity
8
1
62
256
6
ByLayer
370
-1
48
1
60
0
100
AcDbLine
10
65.842268
20
3.248699
30
0
11
65.901299
21
3.251329
31
0
39
0
210
0
220
0
230
1
0
LINE
5
95
100
AcDbEntity
8
1
62
256
6
ByLayer
370
-1
48
1
60
0
100
AcDbLine
10
71.812219
20
3.549031
30
0
11
71.752255
21
3.546945
31
0
39
0
210
0
220
0
230
1
0
LINE
5
96
100
AcDbEntity
8
1
62
256
6
ByLayer
370
-1
48
1
60
0
100
AcDbLine
10
70.896287
20
8.783958
30
0
11
70.897909
21
8.724223
31
0
39
0
210
0
220
0
230
1
0
LINE
5
97
100
AcDbEntity
8
1
62
256
6
ByLayer
370
-1
48
1
60
0
100
AcDbLine
10
71.26238
20
8.781336
30
0
11
71.248529
21
8.723097
31
0
39
0
210
0
220
0
230
1
0
LINE
5
98
100
AcDbEntity
8
1
62
256
6
ByLayer
370
-1
48
1
60
0
100
AcDbLine
10
65.677508
20
8.00448
30
0
11
65.736589
21
8.005437
31
0
39
0
210
0
220
0
230
1
0
LINE
5
99
100
AcDbEntity
8
1
62
256
6
ByLayer
370
-1
48
1
60
0
100
AcDbLine
10
66.597213
20
2.6296
30
0
11
71.104887
21
2.787613
31
0
39
0
210
0
220
0
230
1
0
LINE
5
9A
100
AcDbEntity
8
1
62
256
6
ByLayer
370
-1
48
1
60
0
100
AcDbLine
10
65.68128
20
7.864527
30
0
11
65.838692
21
3.339634
31
0
39
0
210
0
220
0
230
1
0
LINE
5
9B
100
AcDbEntity
8
1
62
256
6
ByLayer
370
-1
48
1
60
0
100
AcDbLine
10
66.457792
20
2.625814
30
0
11
66.456383
21
2.685578
31
0
39
0
210
0
220
0
230
1
0
LINE
5
9C
100
AcDbEntity
8
1
62
256
6
ByLayer
370
-1
48
1
60
0
100
AcDbLine
10
71.244231
20
2.793598
30
0
11
71.240573
21
2.853283
31
0
39
0
210
0
220
0
230
1
0
LINE
5
9D
100
AcDbEntity
8
1
62
256
6
ByLayer
370
-1
48
1
60
0
100
AcDbLine
10
65.678529
20
7.955491
30
0
11
65.737597
21
7.957033
31
0
39
0
210
0
220
0
230
1
0
LINE
5
9E
100
AcDbEntity
8
1
62
256
6
ByLayer
370
-1
48
1
60
0
100
AcDbLine
10
65.838692
20
3.339634
30
0
11
65.897744
21
3.34172
31
0
39
0
210
0
220
0
230
1
0
LINE
5
9F
100
AcDbEntity
8
1
62
256
6
ByLayer
370
-1
48
1
60
0
100
AcDbLine
10
71.626665
20
8.440337
30
0
11
71.569267
21
8.422862
31
0
39
0
210
0
220
0
230
1
0
LINE
5
A0
100
AcDbEntity
8
1
62
256
6
ByLayer
370
-1
48
1
60
0
100
AcDbLine
10
65.683892
20
8.232018
30
0
11
65.741454
21
8.218573
31
0
39
0
210
0
220
0
230
1
0
LINE
5
A1
100
AcDbEntity
8
1
62
256
6
ByLayer
370
-1
48
1
60
0
100
AcDbLine
10
66.298348
20
2.624533
30
0
11
66.297892
21
2.684304
31
0
39
0
210
0
220
0
230
1
0
LINE
5
A2
100
AcDbEntity
8
1
62
256
6
ByLayer
370
-1
48
1
60
0
100
AcDbLine
10
71.814971
20
3.458067
30
0
11
71.75499
21
3.456525
31
0
39
0
210
0
220
0
230
1
0
LINE
5
A3
100
AcDbEntity
8
1
62
256
6
ByLayer
370
-1
48
1
60
0
100
AcDbLine
10
71.104887
20
2.787613
30
0
11
71.102353
21
2.847348
31
0
39
0
210
0
220
0
230
1
0
LINE
5
A4
100
AcDbEntity
8
1
62
256
6
ByLayer
370
-1
48
1
60
0
100
AcDbLine
10
65.676232
20
8.164533
30
0
11
65.735321
21
8.164533
31
0
39
0
210
0
220
0
230
1
0
LINE
5
A5
100
AcDbEntity
8
1
62
256
6
ByLayer
370
-1
48
1
60
0
100
AcDbLine
10
66.388612
20
8.625945
30
0
11
66.390235
21
8.56621
31
0
39
0
210
0
220
0
230
1
0
LINE
5
A6
100
AcDbEntity
8
1
62
256
6
ByLayer
370
-1
48
1
60
0
100
AcDbLine
10
65.866834
20
2.973221
30
0
11
65.923321
21
2.990696
31
0
39
0
210
0
220
0
230
1
0
LINE
5
A7
100
AcDbEntity
8
1
62
256
6
ByLayer
370
-1
48
1
60
0
100
AcDbLine
10
71.812219
20
3.549031
30
0
11
71.654807
21
8.073924
31
0
39
0
210
0
220
0
230
1
0
LINE
5
A8
100
AcDbEntity
8
1
62
256
6
ByLayer
370
-1
48
1
60
0
100
AcDbLine
10
65.68128
20
7.864527
30
0
11
65.740333
21
7.866613
31
0
39
0
210
0
220
0
230
1
0
LINE
5
A9
100
AcDbEntity
8
1
62
256
6
ByLayer
370
-1
48
1
60
0
100
AcDbLine
10
66.597213
20
2.6296
30
0
11
66.594679
21
2.689335
31
0
39
0
210
0
220
0
230
1
0
LINE
5
AA
100
AcDbEntity
8
1
62
256
6
ByLayer
370
-1
48
1
60
0
100
AcDbLine
10
65.854504
20
3.040006
30
0
11
65.913447
21
3.044175
31
0
39
0
210
0
220
0
230
1
0
LINE
5
AB
100
AcDbEntity
8
1
62
256
6
ByLayer
370
-1
48
1
60
0
100
AcDbLine
10
71.638996
20
8.373553
30
0
11
71.579141
21
8.369383
31
0
39
0
210
0
220
0
230
1
0
LINE
5
AC
100
AcDbEntity
8
1
62
256
6
ByLayer
370
-1
48
1
60
0
100
AcDbLine
10
71.815991
20
3.409078
30
0
11
71.755999
21
3.408121
31
0
39
0
210
0
220
0
230
1
0
LINE
5
AD
100
AcDbEntity
8
1
62
256
6
ByLayer
370
-1
48
1
60
0
100
AcDbLine
10
71.817267
20
3.249025
30
0
11
71.757267
21
3.249025
31
0
39
0
210
0
220
0
230
1
0
LINE
5
AE
100
AcDbEntity
8
1
62
256
6
ByLayer
370
-1
48
1
60
0
100
AcDbLine
10
71.809607
20
3.18154
30
0
11
71.751133
21
3.194986
31
0
39
0
210
0
220
0
230
1
0
LINE
5
AF
100
AcDbEntity
8
1
62
256
6
ByLayer
370
-1
48
1
60
0
100
AcDbLine
10
66.249268
20
8.61996
30
0
11
66.252015
21
8.560275
31
0
39
0
210
0
220
0
230
1
0
LINE
5
B0
100
AcDbEntity
8
1
62
256
6
ByLayer
370
-1
48
1
60
0
100
AcDbLine
10
71.654807
20
8.073924
30
0
11
71.594844
21
8.071838
31
0
39
0
210
0
220
0
230
1
0
LINE
5
B1
100
AcDbEntity
8
1
62
256
6
ByLayer
370
-1
48
1
60
0
100
AcDbLine
10
71.035707
20
8.787744
30
0
11
71.036205
21
8.72798
31
0
39
0
210
0
220
0
230
1
0
LINE
5
B2
100
AcDbEntity
8
1
62
256
6
ByLayer
370
-1
48
1
60
0
100
AcDbLine
10
71.469906
20
2.815863
30
0
11
71.452041
21
2.873023
31
0
39
0
210
0
220
0
230
1
0
LINE
5
B3
100
AcDbEntity
8
1
62
256
6
ByLayer
370
-1
48
1
60
0
100
AcDbLine
10
66.298023
20
8.622355
30
0
11
66.300187
21
8.562641
31
0
39
0
210
0
220
0
230
1
0
LINE
5
B4
100
AcDbEntity
8
1
62
256
6
ByLayer
370
-1
48
1
60
0
100
AcDbLine
10
71.403375
20
2.803485
30
0
11
71.398766
21
2.863111
31
0
39
0
210
0
220
0
230
1
0
LINE
5
B5
100
AcDbEntity
8
1
62
256
6
ByLayer
370
-1
48
1
60
0
100
AcDbLine
10
70.986905
20
8.78672
30
0
11
70.987985
21
8.726968
31
0
39
0
210
0
220
0
230
1
0
LINE
5
B6
100
AcDbEntity
8
1
62
256
6
ByLayer
370
-1
48
1
60
0
100
AcDbLine
10
66.506595
20
2.626838
30
0
11
66.504602
21
2.68659
31
0
39
0
210
0
220
0
230
1
0
LINE
5
B7
100
AcDbEntity
8
1
62
256
6
ByLayer
370
-1
48
1
60
0
100
AcDbLine
10
66.090124
20
8.610073
30
0
11
66.093822
21
8.550447
31
0
39
0
210
0
220
0
230
1
0
LINE
5
B8
100
AcDbEntity
8
1
62
256
6
ByLayer
370
-1
48
1
60
0
100
AcDbLine
10
71.651231
20
8.164859
30
0
11
71.591289
21
8.16223
31
0
39
0
210
0
220
0
230
1
0
LINE
5
B9
100
AcDbEntity
8
1
62
256
6
ByLayer
370
-1
48
1
60
0
100
AcDbLine
10
71.648845
20
8.2138
30
0
11
71.588931
21
8.210586
31
0
39
0
210
0
220
0
230
1
0
LINE
5
BA
100
AcDbEntity
8
1
62
256
6
ByLayer
370
-1
48
1
60
0
100
AcDbLine
10
71.904268
20
-2.685212
30
0
11
71.732404
21
-2.67183
31
0
39
0
210
0
220
0
230
1
0
LINE
5
BB
100
AcDbEntity
8
1
62
256
6
ByLayer
370
-1
48
1
60
0
100
AcDbLine
10
71.524882
20
-1.851383
30
0
11
71.457423
21
-0.566588
31
0
39
0
210
0
220
0
230
1
0
LINE
5
BC
100
AcDbEntity
8
1
62
256
6
ByLayer
370
-1
48
1
60
0
100
AcDbLine
10
71.344789
20
-3.400122
30
0
11
71.358667
21
-3.003449
31
0
39
0
210
0
220
0
230
1
0
LINE
5
BD
100
AcDbEntity
8
1
62
256
6
ByLayer
370
-1
48
1
60
0
100
AcDbLine
10
71.808393
20
-3.077121
30
0
11
71.458606
21
-3.006933
31
0
39
0
210
0
220
0
230
1
0
LINE
5
BE
100
AcDbEntity
8
1
62
256
6
ByLayer
370
-1
48
1
60
0
100
AcDbLine
10
71.075499
20
-1.816894
30
0
11
71.008039
21
-0.532099
31
0
39
0
210
0
220
0
230
1
0
LINE
5
BF
100
AcDbEntity
8
1
62
256
6
ByLayer
370
-1
48
1
60
0
100
AcDbLine
10
71.175362
20
-1.81167
30
0
11
71.107902
21
-0.526875
31
0
39
0
210
0
220
0
230
1
0
LINE
5
C0
100
AcDbEntity
8
1
62
256
6
ByLayer
370
-1
48
1
60
0
100
AcDbLine
10
71.760868
20
-4.524337
30
0
11
71.247692
21
-3.823139
31
0
39
0
210
0
220
0
230
1
0
LINE
5
C1
100
AcDbEntity
8
1
62
256
6
ByLayer
370
-1
48
1
60
0
100
AcDbLine
10
71.17017
20
-4.645218
30
0
11
71.56476
21
-4.611903
31
0
39
0
210
0
220
0
230
1
0
LINE
5
C2
100
AcDbEntity
8
1
62
256
6
ByLayer
370
-1
48
1
60
0
100
AcDbLine
10
71.174867
20
-3.888056
30
0
11
71.247692
21
-3.823139
31
0
39
0
210
0
220
0
230
1
0
LINE
5
C3
100
AcDbEntity
8
1
62
256
6
ByLayer
370
-1
48
1
60
0
100
AcDbLine
10
71.714937
20
-1.936066
30
0
11
71.638765
21
-0.485325
31
0
39
0
210
0
220
0
230
1
0
LINE
5
C4
100
AcDbEntity
8
1
62
256
6
ByLayer
370
-1
48
1
60
0
100
AcDbLine
10
71.16327
20
0.633173
30
0
11
70.949129
21
0.489858
31
0
39
0
210
0
220
0
230
1
0
LINE
5
C5
100
AcDbEntity
8
1
62
256
6
ByLayer
370
-1
48
1
60
0
100
AcDbLine
10
71.066146
20
-1.81737
30
0
11
71.075499
21
-1.816894
31
0
39
0
210
0
220
0
230
1
0
LINE
5
C6
100
AcDbEntity
8
1
62
256
6
ByLayer
370
-1
48
1
60
0
100
AcDbLine
10
71.457423
20
-0.566588
30
0
11
71.107902
21
-0.526875
31
0
39
0
210
0
220
0
230
1
0
LINE
5
C7
100
AcDbEntity
8
1
62
256
6
ByLayer
370
-1
48
1
60
0
100
AcDbLine
10
70.998687
20
-0.532574
30
0
11
71.008039
21
-0.532099
31
0
39
0
210
0
220
0
230
1
0
LINE
5
C8
100
AcDbEntity
8
1
62
256
6
ByLayer
370
-1
48
1
60
0
100
AcDbLine
10
71.329983
20
0.083956
30
0
11
71.260631
21
0.447043
31
0
39
0
210
0
220
0
230
1
0
LINE
5
C9
100
AcDbEntity
8
1
62
256
6
ByLayer
370
-1
48
1
60
0
100
AcDbLine
10
71.794515
20
-3.473793
30
0
11
71.444728
21
-3.403605
31
0
39
0
210
0
220
0
230
1
0
LINE
5
CA
100
AcDbEntity
8
1
62
256
6
ByLayer
370
-1
48
1
60
0
100
AcDbLine
10
71.524882
20
-1.851383
30
0
11
71.175362
21
-1.81167
31
0
39
0
210
0
220
0
230
1
0
LINE
5
CB
100
AcDbEntity
8
1
62
256
6
ByLayer
370
-1
48
1
60
0
100
AcDbLine
10
71.171963
20
-4.863043
30
0
11
71.632621
21
-4.69569
31
0
39
0
210
0
220
0
230
1
0
LINE
5
CC
100
AcDbEntity
8
1
62
256
6
ByLayer
370
-1
48
1
60
0
100
AcDbLine
10
71.185567
20
-2.991311
30
0
11
71.171689
21
-3.387983
31
0
39
0
210
0
220
0
230
1
0
LINE
5
CD
100
AcDbEntity
8
1
62
256
6
ByLayer
370
-1
48
1
60
0
100
AcDbLine
10
71.714937
20
-1.936066
30
0
11
71.524882
21
-1.851383
31
0
39
0
210
0
220
0
230
1
0
LINE
5
CE
100
AcDbEntity
8
1
62
256
6
ByLayer
370
-1
48
1
60
0
100
AcDbLine
10
71.999695
20
-3.146858
30
0
11
71.80976
21
-3.045744
31
0
39
0
210
0
220
0
230
1
0
LINE
5
CF
100
AcDbEntity
8
1
62
256
6
ByLayer
370
-1
48
1
60
0
100
AcDbLine
10
71.609296
20
-0.340753
30
0
11
71.431171
21
-0.28754
31
0
39
0
210
0
220
0
230
1
0
LINE
5
D0
100
AcDbEntity
8
1
62
256
6
ByLayer
370
-1
48
1
60
0
100
AcDbLine
10
71.961306
20
-4.244137
30
0
11
71.999695
21
-3.146858
31
0
39
0
210
0
220
0
230
1
0
LINE
5
D1
100
AcDbEntity
8
1
62
256
6
ByLayer
370
-1
48
1
60
0
100
AcDbLine
10
71.794515
20
-3.473793
30
0
11
71.808393
21
-3.077121
31
0
39
0
210
0
220
0
230
1
0
LINE
5
D2
100
AcDbEntity
8
1
62
256
6
ByLayer
370
-1
48
1
60
0
100
AcDbLine
10
71.609296
20
-0.340753
30
0
11
71.309935
21
0.480202
31
0
39
0
210
0
220
0
230
1
0
LINE
5
D3
100
AcDbEntity
8
1
62
256
6
ByLayer
370
-1
48
1
60
0
100
AcDbLine
10
71.175362
20
-1.81167
30
0
11
71.075499
21
-1.816894
31
0
39
0
210
0
220
0
230
1
0
LINE
5
D4
100
AcDbEntity
8
1
62
256
6
ByLayer
370
-1
48
1
60
0
100
AcDbLine
10
71.632621
20
-4.69569
30
0
11
71.56476
21
-4.611903
31
0
39
0
210
0
220
0
230
1
0
LINE
5
D5
100
AcDbEntity
8
1
62
256
6
ByLayer
370
-1
48
1
60
0
100
AcDbLine
10
71.72268
20
-2.651394
30
0
11
71.404767
21
-2.739519
31
0
39
0
210
0
220
0
230
1
0
LINE
5
D6
100
AcDbEntity
8
1
62
256
6
ByLayer
370
-1
48
1
60
0
100
AcDbLine
10
71.638765
20
-0.485325
30
0
11
71.455213
21
-0.43049
31
0
39
0
210
0
220
0
230
1
0
LINE
5
D7
100
AcDbEntity
8
1
62
256
6
ByLayer
370
-1
48
1
60
0
100
AcDbLine
10
71.309935
20
0.480202
30
0
11
71.260631
21
0.447043
31
0
39
0
210
0
220
0
230
1
0
LINE
5
D8
100
AcDbEntity
8
1
62
256
6
ByLayer
370
-1
48
1
60
0
100
AcDbLine
10
71.329983
20
0.083956
30
0
11
70.978662
21
-0.151167
31
0
39
0
210
0
220
0
230
1
0
LINE
5
D9
100
AcDbEntity
8
1
62
256
6
ByLayer
370
-1
48
1
60
0
100
AcDbLine
10
71.444728
20
-3.403605
30
0
11
71.458606
21
-3.006933
31
0
39
0
210
0
220
0
230
1
0
LINE
5
DA
100
AcDbEntity
8
1
62
256
6
ByLayer
370
-1
48
1
60
0
100
AcDbLine
10
71.961306
20
-4.244137
30
0
11
71.854374
21
-4.112109
31
0
39
0
210
0
220
0
230
1
0
LINE
5
DB
100
AcDbEntity
8
1
62
256
6
ByLayer
370
-1
48
1
60
0
100
AcDbLine
10
71.168154
20
-3.760216
30
0
11
71.181081
21
-3.748692
31
0
39
0
210
0
220
0
230
1
0
LINE
5
DC
100
AcDbEntity
8
SK1
62
256
6
ByLayer
370
-1
48
1
60
0
100
AcDbLine
10
-52.6
20
6.998498
30
0
11
-52.6
21
12.49675
31
0
39
0
210
0
220
0
230
1
0
LINE
5
DD
100
AcDbEntity
8
SK1
62
256
6
ByLayer
370
-1
48
1
60
0
100
AcDbLine
10
-52.6
20
-12.49675
30
0
11
-52.6
21
-6.998498
31
0
39
0
210
0
220
0
230
1
0
LINE
5
DE
100
AcDbEntity
8
SK1
62
256
6
ByLayer
370
-1
48
1
60
0
100
AcDbLine
10
-54.6
20
-12.49675
30
0
11
-54.6
21
-6.998498
31
0
39
0
210
0
220
0
230
1
0
LINE
5
DF
100
AcDbEntity
8
SK1
62
256
6
ByLayer
370
-1
48
1
60
0
100
AcDbLine
10
-54.6
20
6.998498
30
0
11
-54.6
21
12.49675
31
0
39
0
210
0
220
0
230
1
0
LINE
5
E0
100
AcDbEntity
8
SK1
62
256
6
ByLayer
370
-1
48
1
60
0
100
AcDbLine
10
-55
20
6.998498
30
0
11
-54.6
21
6.998498
31
0
39
0
210
0
220
0
230
1
0
LINE
5
E1
100
AcDbEntity
8
SK1
62
256
6
ByLayer
370
-1
48
1
60
0
100
AcDbLine
10
-52.6
20
6.998498
30
0
11
-6.5
21
6.998498
31
0
39
0
210
0
220
0
230
1
0
LINE
5
E2
100
AcDbEntity
8
SK1
62
256
6
ByLayer
370
-1
48
1
60
0
100
AcDbLine
10
-54.516223
20
-6.812044
30
0
11
-54.516223
21
-12.393294
31
0
39
0
210
0
220
0
230
1
0
LINE
5
E3
100
AcDbEntity
8
SK1
62
256
6
ByLayer
370
-1
48
1
60
0
100
AcDbLine
10
-54.516223
20
12.393294
30
0
11
-54.516223
21
6.812044
31
0
39
0
210
0
220
0
230
1
0
LINE
5
E4
100
AcDbEntity
8
SK1
62
256
6
ByLayer
370
-1
48
1
60
0
100
AcDbLine
10
-6.5
20
-6.998498
30
0
11
-52.6
21
-6.998498
31
0
39
0
210
0
220
0
230
1
0
LINE
5
E5
100
AcDbEntity
8
SK1
62
256
6
ByLayer
370
-1
48
1
60
0
100
AcDbLine
10
-53.633814
20
-6.340342
30
0
11
-53.633814
21
-12.140417
31
0
39
0
210
0
220
0
230
1
0
LINE
5
E6
100
AcDbEntity
8
SK1
62
256
6
ByLayer
370
-1
48
1
60
0
100
AcDbLine
10
-53.633814
20
12.140417
30
0
11
-53.633814
21
6.340342
31
0
39
0
210
0
220
0
230
1
0
LINE
5
E7
100
AcDbEntity
8
SK1
62
256
6
ByLayer
370
-1
48
1
60
0
100
AcDbLine
10
-54.6
20
-6.998498
30
0
11
-55
21
-6.998498
31
0
39
0
210
0
220
0
230
1
0
LINE
5
E8
100
AcDbEntity
8
SK1
62
256
6
ByLayer
370
-1
48
1
60
0
100
AcDbLine
10
-6.5
20
6.998498
30
0
11
-6.5
21
-6.998498
31
0
39
0
210
0
220
0
230
1
0
LINE
5
E9
100
AcDbEntity
8
SK1
62
256
6
ByLayer
370
-1
48
1
60
0
100
AcDbLine
10
-1.551212
20
12.287477
30
0
11
-1.551212
21
-12.287477
31
0
39
0
210
0
220
0
230
1
0
LINE
5
EA
100
AcDbEntity
8
SK1
62
256
6
ByLayer
370
-1
48
1
60
0
100
AcDbLine
10
-56
20
-4.998547
30
0
11
-56
21
-11.49675
31
0
39
0
210
0
220
0
230
1
0
LINE
5
EB
100
AcDbEntity
8
SK1
62
256
6
ByLayer
370
-1
48
1
60
0
100
AcDbLine
10
-56
20
11.49675
30
0
11
-56
21
4.998547
31
0
39
0
210
0
220
0
230
1
0
LINE
5
EC
100
AcDbEntity
8
SK1
62
256
6
ByLayer
370
-1
48
1
60
0
100
AcDbLine
10
-55
20
-6.998498
30
0
11
-55
21
-12.49675
31
0
39
0
210
0
220
0
230
1
0
LINE
5
ED
100
AcDbEntity
8
SK1
62
256
6
ByLayer
370
-1
48
1
60
0
100
AcDbLine
10
-55
20
12.49675
30
0
11
-55
21
6.998498
31
0
39
0
210
0
220
0
230
1
0
LINE
5
EE
100
AcDbEntity
8
SK1
62
256
6
ByLayer
370
-1
48
1
60
0
100
AcDbLine
10
-1.382165
20
12.25
30
0
11
-1.382165
21
-12.25
31
0
39
0
210
0
220
0
230
1
0
LINE
5
EF
100
AcDbEntity
8
SK1
62
256
6
ByLayer
370
-1
48
1
60
0
100
AcDbLine
10
-0.15
20
12.25
30
0
11
-0.15
21
-12.25
31
0
39
0
210
0
220
0
230
1
0
LINE
5
F0
100
AcDbEntity
8
SK1
62
256
6
ByLayer
370
-1
48
1
60
0
100
AcDbLine
10
-56
20
4.998547
30
0
11
-56
21
-4.998547
31
0
39
0
210
0
220
0
230
1
0
LINE
5
F1
100
AcDbEntity
8
SK1
62
256
6
ByLayer
370
-1
48
1
60
0
100
AcDbLine
10
-2
20
-12.49675
30
0
11
-2
21
12.49675
31
0
39
0
210
0
220
0
230
1
0
MTEXT
5
213
100
AcDbEntity
8
SK6
62
256
6
ByLayer
370
-1
48
1
60
0
100
AcDbMText
10
0.79375
20
-80.79375
30
0
210
0
220
0
230
1
1
\W00.723;\fsimplex.shx,bigfont.shx;880-D1750L25-03 
40
3.175
41
0
44
1.084337
50
0
71
7
72
5
7
DEFAULT
0
DIMENSION
5
243
100
AcDbEntity
8
SK2
62
256
6
ByLayer
370
-3
48
1
60
0
100
AcDbDimension
2
DimnDraft3D1
10
72
20
-54.86955
30
0
11
8
21
-54.86955
31
0
70
32
71
5
72
1
41
1
210
0
220
0
230
1
3
Standard
100
AcDbAlignedDimension
13
-56
23
-14.0875
33
0
14
72
24
-10.3375
34
0
50
0
100
AcDbRotatedDimension
1001
ACAD
1000
DSTYLE
1002
{
1070
   279
1070
     0
1070
   172
1070
     1
1070
   173
1070
     1
1070
   340
1005
214
1070
   271
1070
     1
1070
   272
1070
     2
1070
    77
1070
     1
1070
    73
1070
     0
1070
   171
1070
     3
1070
   274
1070
     4
1070
   177
1070
   150
1070
   176
1070
     9
1070
   178
1070
    43
1070
    78
1070
     8
1070
    48
1040
-0.005
1070
    41
1041
4.175
1070
   147
1041
2.25
1070
    42
1041
1.5875
1070
    44
1041
3.175
1070
   140
1041
4.5
1070
   343
1005
0
1070
   344
1005
0
1002
}
0
DIMENSION
5
24D
100
AcDbEntity
8
SK2
62
256
6
ByLayer
370
-3
48
1
60
0
100
AcDbDimension
2
DimnDraft3D2
10
0
20
-42.9008
30
0
11
-28
21
-42.9008
31
0
70
32
71
5
72
1
41
1
210
0
220
0
230
1
3
Standard
100
AcDbAlignedDimension
13
-56
23
-14.0875
33
0
14
0
24
-17.5875
34
0
50
0
100
AcDbRotatedDimension
1001
ACAD
1000
DSTYLE
1002
{
1070
   279
1070
     0
1070
   172
1070
     1
1070
   173
1070
     1
1070
   340
1005
214
1070
   271
1070
     1
1070
   272
1070
     2
1070
    77
1070
     1
1070
    73
1070
     0
1070
   171
1070
     3
1070
   274
1070
     4
1070
   177
1070
   150
1070
   176
1070
     9
1070
   178
1070
    43
1070
    78
1070
     8
1070
    48
1040
-0.005
1070
    41
1041
4.175
1070
   147
1041
2.25
1070
    42
1041
1.5875
1070
    44
1041
3.175
1070
   140
1041
4.5
1070
   343
1005
0
1070
   344
1005
0
1002
}
0
DIMENSION
5
258
100
AcDbEntity
8
2
62
256
6
ByLayer
370
-3
48
1
60
0
100
AcDbDimension
2
DimnDraft3D3
10
72
20
-42.9008
30
0
11
36
21
-42.9008
31
0
70
32
71
5
72
1
41
1
210
0
220
0
230
1
3
Standard
100
AcDbAlignedDimension
13
0
23
-17.5875
33
0
14
72
24
-10.3375
34
0
50
0
100
AcDbRotatedDimension
1001
ACAD
1000
DSTYLE
1002
{
1070
   279
1070
     0
1070
   172
1070
     1
1070
   173
1070
     1
1070
   340
1005
214
1070
   271
1070
     1
1070
   272
1070
     2
1070
    77
1070
     1
1070
    73
1070
     0
1070
   171
1070
     3
1070
   274
1070
     4
1070
   177
1070
   150
1070
   176
1070
     9
1070
   178
1070
    43
1070
    78
1070
     8
1070
    48
1040
-0.005
1070
    41
1041
4.175
1070
   147
1041
2.25
1070
    42
1041
1.5875
1070
    44
1041
3.175
1070
   140
1041
4.5
1070
   343
1005
0
1070
   344
1005
0
1002
}
0
DIMENSION
5
262
100
AcDbEntity
8
SK2
62
256
6
ByLayer
370
-3
48
1
60
0
100
AcDbDimension
2
DimnDraft3D4
10
72
20
-32.9008
30
0
11
44
21
-32.9008
31
0
70
32
71
5
72
1
41
1
210
0
220
0
230
1
3
Standard
100
AcDbAlignedDimension
13
16
23
-11.5875
33
0
14
72
24
-10.3375
34
0
50
0
100
AcDbRotatedDimension
1001
ACAD
1000
DSTYLE
1002
{
1070
   279
1070
     0
1070
   172
1070
     1
1070
   173
1070
     1
1070
   340
1005
214
1070
   271
1070
     1
1070
   272
1070
     2
1070
    77
1070
     1
1070
    73
1070
     0
1070
   171
1070
     3
1070
   274
1070
     4
1070
   177
1070
   150
1070
   176
1070
     9
1070
   178
1070
    43
1070
    78
1070
     8
1070
    48
1040
-0.005
1070
    41
1041
4.175
1070
   147
1041
2.25
1070
    42
1041
1.5875
1070
    44
1041
3.175
1070
   140
1041
4.5
1070
   343
1005
0
1070
   344
1005
0
1002
}
0
DIMENSION
5
26D
100
AcDbEntity
8
SK2
62
256
6
ByLayer
370
-3
48
1
60
0
100
AcDbDimension
2
DimnDraft3D5
10
-67.9
20
-12.5
30
0
11
-68.1
21
4.121053
31
0
70
33
71
5
72
1
41
1
210
0
220
0
230
1
3
Standard
100
AcDbAlignedDimension
13
-57.5875
23
12.5
33
0
14
-57.5875
24
-12.5
34
0
1001
ACAD
1000
DSTYLE
1002
{
1070
   279
1070
     0
1070
    74
1070
     0
1070
   173
1070
     1
1070
   340
1005
214
1070
   271
1070
     2
1070
   272
1070
     2
1070
    77
1070
     1
1070
    73
1070
     0
1070
   171
1070
     3
1070
   274
1070
     4
1070
   177
1070
   150
1070
   176
1070
     9
1070
   178
1070
    43
1070
    78
1070
     8
1070
    48
1040
-0.005
1070
    41
1041
4.175
1070
   147
1041
2.25
1070
    42
1041
1.5875
1070
    44
1041
3.175
1070
   140
1041
4.5
1070
   343
1005
0
1070
   344
1005
0
1002
}
0
DIMENSION
5
278
100
AcDbEntity
8
SK2
62
256
6
ByLayer
370
-3
48
1
60
0
100
AcDbDimension
2
DimnDraft3D6
10
-77.9
20
16
30
0
11
-78.1
21
4.121053
31
0
70
33
71
5
72
1
41
1
210
0
220
0
230
1
3
Standard
100
AcDbAlignedDimension
13
-1.5875
23
-16
33
0
14
-1.5875
24
16
34
0
1001
ACAD
1000
DSTYLE
1002
{
1070
   279
1070
     0
1070
    74
1070
     0
1070
   173
1070
     1
1070
   340
1005
214
1070
   271
1070
     1
1070
   272
1070
     2
1070
    77
1070
     1
1070
    73
1070
     0
1070
   171
1070
     3
1070
   274
1070
     4
1070
   177
1070
   150
1070
   176
1070
     9
1070
   178
1070
    43
1070
    78
1070
     8
1070
    48
1040
-0.005
1070
    41
1041
4.175
1070
   147
1041
2.25
1070
    42
1041
1.5875
1070
    44
1041
3.175
1070
   140
1041
4.5
1070
   343
1005
0
1070
   344
1005
0
1002
}
0
DIMENSION
5
283
100
AcDbEntity
8
2
62
256
6
ByLayer
370
-3
48
1
60
0
100
AcDbDimension
2
DimnDraft3D7
10
102.15
20
-8.75
30
0
11
95.6
21
-30.063816
31
0
70
33
71
5
72
1
41
1
210
0
220
0
230
1
3
Standard
100
AcDbAlignedDimension
13
73.5875
23
8.75
33
0
14
73.5875
24
-8.75
34
0
1001
ACAD
1000
DSTYLE
1002
{
1070
   279
1070
     0
1070
    74
1070
     0
1070
   173
1070
     1
1070
   340
1005
214
1070
   271
1070
     2
1070
   272
1070
     2
1070
    77
1070
     1
1070
    73
1070
     0
1070
   171
1070
     3
1070
   274
1070
     4
1070
   177
1070
   150
1070
   176
1070
     9
1070
   178
1070
    43
1070
    78
1070
     8
1070
    48
1040
-0.005
1070
    41
1041
4.175
1070
   147
1041
2.25
1070
    42
1041
1.5875
1070
    44
1041
3.175
1070
   140
1041
4.5
1070
   343
1005
0
1070
   344
1005
0
1002
}
0
ENDSEC
0
SECTION
2
OBJECTS
0
DICTIONARY
5
2b4
330
0
100
AcDbDictionary
280
0
281
1
3
ACAD_GROUP
350
2b5
3
ACAD_MLINESTYLE
350
2b6
0
DICTIONARY
5
2b5
330
0
100
AcDbDictionary
280
0
281
1
0
DICTIONARY
5
2b6
330
0
100
AcDbDictionary
280
0
281
1
3
Standard
350
18
0
MLINESTYLE
5
18
330
2b6
100
AcDbMlineStyle
2
Standard
70
0
3

62
256
51
90
52
90
71
2
49
-0.5
62
256
6
ByLayer
49
0.5
62
256
6
ByLayer
0
RASTERVARIABLES
5
2a2
330

100
AcDbRasterVariables
90
0
70
1
71
1
72
1
0
ENDSEC
0
EOF
