0
SECTION
2
HEADER
9
$ACADVER
1
AC1015
9
$DWGCODEPAGE
3
ANSI_1252
9
$HANDSEED
5
2d4
9
$ANGBASE
50
0
9
$ANGDIR
70
0
9
$ATTMODE
70
1
9
$AUNITS
70
0
9
$AUPREC
70
0
9
$CECOLOR
62
256
9
$CELTSCALE
40
1
9
$CELTYPE
6
ByLayer
9
$CELWEIGHT
370
-1
9
$CLAYER
8
0
9
$CMLJUST
70
0
9
$CMLSCALE
40
1
9
$CMLSTYLE
2
Standard
9
$DIMSTYLE
2
Standard
9
$TEXTSIZE
40
0.2
9
$TEXTSTYLE
7
Standard
9
$LUNITS
70
2
9
$LUPREC
70
4
9
$EXTNAMES
290
1
9
$INSUNITS
70
4
9
$LTSCALE
40
1
9
$LWDISPLAY
290
0
9
$PDMODE
70
0
9
$PDSIZE
40
0
9
$PLINEGEN
70
0
0
ENDSEC
0
SECTION
2
CLASSES
0
CLASS
1
RASTERVARIABLES
2
AcDbRasterVariables
3
ISM
90
0
280
0
281
0
0
ENDSEC
0
SECTION
2
TABLES
0
TABLE
2
VPORT
5
2ca
100
AcDbSymbolTable
0
VPORT
5
1
100
AcDbSymbolTableRecord
100
AcDbViewportTableRecord
2
*Active
70
0
10
0
20
0
11
1
21
1
12
-1
22
1
13
0
23
0
14
0.5
24
0.5
15
10
25
10
16
0
26
0
36
1
17
0
27
0
37
0
0
ENDTAB
0
TABLE
2
LTYPE
5
2cb
100
AcDbSymbolTable
0
LTYPE
5
14
100
AcDbSymbolTableRecord
100
AcDbLinetypeTableRecord
70
0
2
ByBlock
3

72
65
73
0
40
0
0
LTYPE
5
15
100
AcDbSymbolTableRecord
100
AcDbLinetypeTableRecord
70
0
2
ByLayer
3

72
65
73
0
40
0
0
LTYPE
5
16
100
AcDbSymbolTableRecord
100
AcDbLinetypeTableRecord
70
0
2
CONTINUOUS
3
Solid line
72
65
73
0
40
0
0
LTYPE
5
3B
100
AcDbSymbolTableRecord
100
AcDbLinetypeTableRecord
70
0
2
DASHED
3
__ __ __ __ __ __ __ __ __
72
65
73
2
40
25.72
49
12.86
74
0
49
-12.86
74
0
0
LTYPE
5
3C
100
AcDbSymbolTableRecord
100
AcDbLinetypeTableRecord
70
0
2
HIDDEN
3
_ _ _ _ _ _ _ _ _ _ _ _ _ _ _
72
65
73
2
40
0.5
49
0.25
74
0
49
-0.25
74
0
0
LTYPE
5
3D
100
AcDbSymbolTableRecord
100
AcDbLinetypeTableRecord
70
0
2
PHANTOM
3
____ _ _ ____ _ _ _____ _ _ ____
72
65
73
6
40
50.5
49
18
74
0
49
-6.5
74
0
49
6.5
74
0
49
-6.5
74
0
49
6.5
74
0
49
-6.5
74
0
0
LTYPE
5
3E
100
AcDbSymbolTableRecord
100
AcDbLinetypeTableRecord
70
0
2
CENTER
3
____ _ ____ _ ____ _ ____
72
65
73
4
40
47.5
49
22
74
0
49
-8.5
74
0
49
8.5
74
0
49
-8.5
74
0
0
LTYPE
5
3F
100
AcDbSymbolTableRecord
100
AcDbLinetypeTableRecord
70
0
2
DOT
3
.........................
72
65
73
2
40
10
49
0
74
0
49
-10
74
0
0
LTYPE
5
40
100
AcDbSymbolTableRecord
100
AcDbLinetypeTableRecord
70
0
2
DASHDOT
3
_._._._._._._._._._._._._._._._.
72
65
73
4
40
70
49
31
74
0
49
-13
74
0
49
13
74
0
49
-13
74
0
0
ENDTAB
0
TABLE
2
LAYER
5
2cc
100
AcDbSymbolTable
0
LAYER
5
10
100
AcDbSymbolTableRecord
100
AcDbLayerTableRecord
2
0
70
0
62
7
6
CONTINUOUS
290
1
370
-3
390
0
0
LAYER
5
42
100
AcDbSymbolTableRecord
100
AcDbLayerTableRecord
2
81
70
0
62
-3
6
CONTINUOUS
290
1
370
-3
390
0
0
LAYER
5
44
100
AcDbSymbolTableRecord
100
AcDbLayerTableRecord
2
80
70
0
62
-6
6
CONTINUOUS
290
1
370
-3
390
0
0
LAYER
5
57
100
AcDbSymbolTableRecord
100
AcDbLayerTableRecord
2
1
70
0
62
4
6
CONTINUOUS
290
1
370
-3
390
0
0
LAYER
5
61
100
AcDbSymbolTableRecord
100
AcDbLayerTableRecord
2
4
70
0
62
-2
6
CENTER
290
1
370
-3
390
0
0
LAYER
5
263
100
AcDbSymbolTableRecord
100
AcDbLayerTableRecord
2
2
70
0
62
7
6
CONTINUOUS
290
1
370
-3
390
0
0
LAYER
5
2b6
100
AcDbSymbolTableRecord
100
AcDbLayerTableRecord
2
SK1
70
0
62
4
6
CONTINUOUS
290
1
370
-3
390
0
0
LAYER
5
2b7
100
AcDbSymbolTableRecord
100
AcDbLayerTableRecord
2
SK4
70
0
62
2
6
CENTER
290
1
370
-3
390
0
0
LAYER
5
2b8
100
AcDbSymbolTableRecord
100
AcDbLayerTableRecord
2
SK6
70
0
62
5
6
CONTINUOUS
290
1
370
-3
390
0
0
LAYER
5
2b9
100
AcDbSymbolTableRecord
100
AcDbLayerTableRecord
2
SK2
70
0
62
7
6
CONTINUOUS
290
1
370
-3
390
0
0
ENDTAB
0
TABLE
2
STYLE
5
2cd
100
AcDbSymbolTable
0
STYLE
5
11
100
AcDbSymbolTableRecord
100
AcDbTextStyleTableRecord
2
Standard
3
txt
70
0
71
0
40
0
41
1
42
0
50
0
0
STYLE
5
227
100
AcDbSymbolTableRecord
100
AcDbTextStyleTableRecord
2
DEFAULT
3
simplex.shx
70
0
71
0
40
0
41
1
42
0
50
0
0
STYLE
5
24A
100
AcDbSymbolTableRecord
100
AcDbTextStyleTableRecord
2
DWGDirectTextStyle
3
SIMPLEX
70
0
71
0
40
0
41
1
42
0
50
0
0
ENDTAB
0
TABLE
2
DIMSTYLE
5
2ce
100
AcDbSymbolTable
100
AcDbDimStyleTable
0
DIMSTYLE
105
27
100
AcDbSymbolTableRecord
100
AcDbDimStyleTableRecord
2
Standard
70
0
3
<>
41
0.18
42
0.0625
44
0.18
140
0.18
147
0.09
73
0
74
0
77
1
271
2
275
0
278
52
280
0
340
11
0
ENDTAB
0
TABLE
2
VIEW
5
2cf
100
AcDbSymbolTable
0
ENDTAB
0
TABLE
2
UCS
5
2d0
100
AcDbSymbolTable
0
ENDTAB
0
TABLE
2
APPID
5
2d1
100
AcDbSymbolTable
0
APPID
5
12
100
AcDbSymbolTableRecord
100
AcDbRegAppTableRecord
2
ACAD
70
0
0
ENDTAB
0
TABLE
2
BLOCK_RECORD
5
2d2
100
AcDbSymbolTable
0
BLOCK_RECORD
5
1F
100
AcDbSymbolTableRecord
100
AcDbBlockTableRecord
2
*Model_Space
340
0
70
0
0
BLOCK_RECORD
5
1B
100
AcDbSymbolTableRecord
100
AcDbBlockTableRecord
2
*Paper_Space
340
0
70
0
0
BLOCK_RECORD
5
23
100
AcDbSymbolTableRecord
100
AcDbBlockTableRecord
2
*Paper_Space0
340
0
70
0
0
BLOCK_RECORD
5
24C
100
AcDbSymbolTableRecord
100
AcDbBlockTableRecord
2
DimnDraft3D1
340
0
70
0
0
BLOCK_RECORD
5
257
100
AcDbSymbolTableRecord
100
AcDbBlockTableRecord
2
DimnDraft3D2
340
0
70
0
0
BLOCK_RECORD
5
261
100
AcDbSymbolTableRecord
100
AcDbBlockTableRecord
2
DimnDraft3D3
340
0
70
0
0
BLOCK_RECORD
5
26C
100
AcDbSymbolTableRecord
100
AcDbBlockTableRecord
2
DimnDraft3D4
340
0
70
0
0
BLOCK_RECORD
5
276
100
AcDbSymbolTableRecord
100
AcDbBlockTableRecord
2
DimnDraft3D5
340
0
70
0
0
BLOCK_RECORD
5
281
100
AcDbSymbolTableRecord
100
AcDbBlockTableRecord
2
DimnDraft3D6
340
0
70
0
0
BLOCK_RECORD
5
28C
100
AcDbSymbolTableRecord
100
AcDbBlockTableRecord
2
DimnDraft3D7
340
0
70
0
0
ENDTAB
0
ENDSEC
0
SECTION
2
BLOCKS
0
BLOCK
5
20
100
AcDbEntity
8
0
100
AcDbBlockBegin
2
*Model_Space
70
0
10
0
20
0
30
0
3
*Model_Space
0
ENDBLK
5
21
100
AcDbEntity
8
0
100
AcDbBlockEnd
0
BLOCK
5
1C
100
AcDbEntity
8
0
100
AcDbBlockBegin
2
*Paper_Space
70
0
10
0
20
0
30
0
3
*Paper_Space
0
ENDBLK
5
1D
100
AcDbEntity
8
0
100
AcDbBlockEnd
0
BLOCK
5
24
100
AcDbEntity
8
0
100
AcDbBlockBegin
2
*Paper_Space0
70
0
10
0
20
0
30
0
3
*Paper_Space0
0
ENDBLK
5
25
100
AcDbEntity
8
0
100
AcDbBlockEnd
0
BLOCK
5
254
100
AcDbEntity
8
0
100
AcDbBlockBegin
2
DimnDraft3D1
70
0
10
0
20
0
30
0
3
DimnDraft3D1
0
MTEXT
5
24D
100
AcDbEntity
8
SK2
62
256
6
ByLayer
370
-1
48
1
60
0
100
AcDbMText
10
1.469079
20
-48.2758
30
0
210
0
220
0
230
1
1
\W01.000;\fsimplex.shx,bigfont.shx;(116) 
40
4.5
41
0
44
1.084337
50
0
71
7
72
5
7
DEFAULT
0
LINE
5
24F
100
AcDbEntity
8
SK2
62
256
6
ByLayer
370
-1
48
1
60
0
100
AcDbLine
10
-50
20
-11.5875
30
0
11
-50
21
-54.54455
31
0
39
0
210
0
220
0
230
1
0
LINE
5
250
100
AcDbEntity
8
SK2
62
256
6
ByLayer
370
-1
48
1
60
0
100
AcDbLine
10
66
20
-9.5875
30
0
11
66
21
-54.54455
31
0
39
0
210
0
220
0
230
1
0
LINE
5
251
100
AcDbEntity
8
SK2
62
256
6
ByLayer
370
-1
48
1
60
0
100
AcDbLine
10
-50
20
-51.36955
30
0
11
66
21
-51.36955
31
0
39
0
210
0
220
0
230
1
0
SOLID
5
252
100
AcDbEntity
8
SK2
62
256
6
ByLayer
370
-1
48
1
60
0
100
AcDbTrace
10
-50
20
-51.36955
30
0
11
-45.825003
21
-50.443975
31
0
12
-45.824997
22
-52.295125
32
0
13
-50
23
-51.36955
33
0
39
0
210
0
220
0
230
1
0
SOLID
5
253
100
AcDbEntity
8
SK2
62
256
6
ByLayer
370
-1
48
1
60
0
100
AcDbTrace
10
66
20
-51.36955
30
0
11
61.825003
21
-52.295125
31
0
12
61.824997
22
-50.443975
32
0
13
66
23
-51.36955
33
0
39
0
210
0
220
0
230
1
0
ENDBLK
5
255
100
AcDbEntity
8
0
100
AcDbBlockEnd
0
BLOCK
5
25E
100
AcDbEntity
8
0
100
AcDbBlockBegin
2
DimnDraft3D2
70
0
10
0
20
0
30
0
3
DimnDraft3D2
0
MTEXT
5
258
100
AcDbEntity
8
SK2
62
256
6
ByLayer
370
-1
48
1
60
0
100
AcDbMText
10
-26.503947
20
-38.2758
30
0
210
0
220
0
230
1
1
\W01.000;\fsimplex.shx,bigfont.shx;50 
40
4.5
41
0
44
1.084337
50
0
71
7
72
5
7
DEFAULT
0
LINE
5
259
100
AcDbEntity
8
SK2
62
256
6
ByLayer
370
-1
48
1
60
0
100
AcDbLine
10
-50
20
-11.5875
30
0
11
-50
21
-42.5758
31
0
39
0
210
0
220
0
230
1
0
LINE
5
25A
100
AcDbEntity
8
SK2
62
256
6
ByLayer
370
-1
48
1
60
0
100
AcDbLine
10
0
20
-14.0875
30
0
11
0
21
-42.5758
31
0
39
0
210
0
220
0
230
1
0
LINE
5
25B
100
AcDbEntity
8
SK2
62
256
6
ByLayer
370
-1
48
1
60
0
100
AcDbLine
10
-50
20
-39.4008
30
0
11
0
21
-39.4008
31
0
39
0
210
0
220
0
230
1
0
SOLID
5
25C
100
AcDbEntity
8
SK2
62
256
6
ByLayer
370
-1
48
1
60
0
100
AcDbTrace
10
-50
20
-39.4008
30
0
11
-45.825003
21
-38.475225
31
0
12
-45.824997
22
-40.326375
32
0
13
-50
23
-39.4008
33
0
39
0
210
0
220
0
230
1
0
SOLID
5
25D
100
AcDbEntity
8
SK2
62
256
6
ByLayer
370
-1
48
1
60
0
100
AcDbTrace
10
0
20
-39.4008
30
0
11
-4.174997
21
-40.326375
31
0
12
-4.175003
22
-38.475225
32
0
13
0
23
-39.4008
33
0
39
0
210
0
220
0
230
1
0
ENDBLK
5
25F
100
AcDbEntity
8
0
100
AcDbBlockEnd
0
BLOCK
5
269
100
AcDbEntity
8
0
100
AcDbBlockBegin
2
DimnDraft3D3
70
0
10
0
20
0
30
0
3
DimnDraft3D3
0
MTEXT
5
262
100
AcDbEntity
8
2
62
256
6
ByLayer
370
-1
48
1
60
0
100
AcDbMText
10
31.496053
20
-38.2758
30
0
210
0
220
0
230
1
1
\W01.000;\fsimplex.shx,bigfont.shx;66 
40
4.5
41
0
44
1.084337
50
0
71
7
72
5
7
DEFAULT
0
LINE
5
264
100
AcDbEntity
8
2
62
256
6
ByLayer
370
-1
48
1
60
0
100
AcDbLine
10
0
20
-14.0875
30
0
11
0
21
-42.5758
31
0
39
0
210
0
220
0
230
1
0
LINE
5
265
100
AcDbEntity
8
2
62
256
6
ByLayer
370
-1
48
1
60
0
100
AcDbLine
10
66
20
-9.5875
30
0
11
66
21
-42.5758
31
0
39
0
210
0
220
0
230
1
0
LINE
5
266
100
AcDbEntity
8
2
62
256
6
ByLayer
370
-1
48
1
60
0
100
AcDbLine
10
0
20
-39.4008
30
0
11
66
21
-39.4008
31
0
39
0
210
0
220
0
230
1
0
SOLID
5
267
100
AcDbEntity
8
2
62
256
6
ByLayer
370
-1
48
1
60
0
100
AcDbTrace
10
0
20
-39.4008
30
0
11
4.174997
21
-38.475225
31
0
12
4.175003
22
-40.326375
32
0
13
0
23
-39.4008
33
0
39
0
210
0
220
0
230
1
0
SOLID
5
268
100
AcDbEntity
8
2
62
256
6
ByLayer
370
-1
48
1
60
0
100
AcDbTrace
10
66
20
-39.4008
30
0
11
61.825003
21
-40.326375
31
0
12
61.824997
22
-38.475225
32
0
13
66
23
-39.4008
33
0
39
0
210
0
220
0
230
1
0
ENDBLK
5
26A
100
AcDbEntity
8
0
100
AcDbBlockEnd
0
BLOCK
5
273
100
AcDbEntity
8
0
100
AcDbBlockBegin
2
DimnDraft3D4
70
0
10
0
20
0
30
0
3
DimnDraft3D4
0
MTEXT
5
26D
100
AcDbEntity
8
SK2
62
256
6
ByLayer
370
-1
48
1
60
0
100
AcDbMText
10
39.558553
20
-28.2758
30
0
210
0
220
0
230
1
1
\W01.000;\fsimplex.shx,bigfont.shx;51 
40
4.5
41
0
44
1.084337
50
0
71
7
72
5
7
DEFAULT
0
LINE
5
26E
100
AcDbEntity
8
SK2
62
256
6
ByLayer
370
-1
48
1
60
0
100
AcDbLine
10
15
20
-11.5875
30
0
11
15
21
-32.5758
31
0
39
0
210
0
220
0
230
1
0
LINE
5
26F
100
AcDbEntity
8
SK2
62
256
6
ByLayer
370
-1
48
1
60
0
100
AcDbLine
10
66
20
-9.5875
30
0
11
66
21
-32.5758
31
0
39
0
210
0
220
0
230
1
0
LINE
5
270
100
AcDbEntity
8
SK2
62
256
6
ByLayer
370
-1
48
1
60
0
100
AcDbLine
10
15
20
-29.4008
30
0
11
66
21
-29.4008
31
0
39
0
210
0
220
0
230
1
0
SOLID
5
271
100
AcDbEntity
8
SK2
62
256
6
ByLayer
370
-1
48
1
60
0
100
AcDbTrace
10
15
20
-29.4008
30
0
11
19.174997
21
-28.475225
31
0
12
19.175003
22
-30.326375
32
0
13
15
23
-29.4008
33
0
39
0
210
0
220
0
230
1
0
SOLID
5
272
100
AcDbEntity
8
SK2
62
256
6
ByLayer
370
-1
48
1
60
0
100
AcDbTrace
10
66
20
-29.4008
30
0
11
61.825003
21
-30.326375
31
0
12
61.824997
22
-28.475225
32
0
13
66
23
-29.4008
33
0
39
0
210
0
220
0
230
1
0
ENDBLK
5
274
100
AcDbEntity
8
0
100
AcDbBlockEnd
0
BLOCK
5
27E
100
AcDbEntity
8
0
100
AcDbBlockBegin
2
DimnDraft3D5
70
0
10
0
20
0
30
0
3
DimnDraft3D5
0
MTEXT
5
277
100
AcDbEntity
8
SK2
62
256
6
ByLayer
370
-1
48
1
60
0
100
AcDbMText
10
-60.975
20
-26.245395
30
0
210
0
220
0
230
1
1
\W01.000;\fsimplex.shx,bigfont.shx;20 
40
4.5
41
0
44
1.084337
50
90
71
7
72
5
7
DEFAULT
0
MTEXT
5
278
100
AcDbEntity
8
SK2
62
256
6
ByLayer
370
-1
48
1
60
0
100
AcDbMText
10
-60.975
20
-39.745395
30
0
210
0
220
0
230
1
1
\W01.000;\fsimplex.shx,bigfont.shx;%%c 
40
4.5
41
0
44
1.084337
50
90
71
7
72
5
7
DEFAULT
0
LINE
5
279
100
AcDbEntity
8
SK2
62
256
6
ByLayer
370
-1
48
1
60
0
100
AcDbLine
10
-51.5875
20
10
30
0
11
-61.9
21
10
31
0
39
0
210
0
220
0
230
1
0
LINE
5
27A
100
AcDbEntity
8
SK2
62
256
6
ByLayer
370
-1
48
1
60
0
100
AcDbLine
10
-51.5875
20
-10
30
0
11
-61.9
21
-10
31
0
39
0
210
0
220
0
230
1
0
LINE
5
27B
100
AcDbEntity
8
SK2
62
256
6
ByLayer
370
-1
48
1
60
0
100
AcDbLine
10
-58.725
20
10
30
0
11
-58.725
21
-40.870395
31
0
39
0
210
0
220
0
230
1
0
SOLID
5
27C
100
AcDbEntity
8
SK2
62
256
6
ByLayer
370
-1
48
1
60
0
100
AcDbTrace
10
-58.725
20
10
30
0
11
-57.799425
21
5.825003
31
0
12
-59.650575
22
5.824997
32
0
13
-58.725
23
10
33
0
39
0
210
0
220
0
230
1
0
SOLID
5
27D
100
AcDbEntity
8
SK2
62
256
6
ByLayer
370
-1
48
1
60
0
100
AcDbTrace
10
-58.725
20
-10
30
0
11
-59.650575
21
-5.825003
31
0
12
-57.799425
22
-5.824997
32
0
13
-58.725
23
-10
33
0
39
0
210
0
220
0
230
1
0
ENDBLK
5
27F
100
AcDbEntity
8
0
100
AcDbBlockEnd
0
BLOCK
5
289
100
AcDbEntity
8
0
100
AcDbBlockBegin
2
DimnDraft3D6
70
0
10
0
20
0
30
0
3
DimnDraft3D6
0
MTEXT
5
282
100
AcDbEntity
8
SK2
62
256
6
ByLayer
370
-1
48
1
60
0
100
AcDbMText
10
-70.975
20
5.246053
30
0
210
0
220
0
230
1
1
\W01.000;\fsimplex.shx,bigfont.shx;25 
40
4.5
41
0
44
1.084337
50
90
71
7
72
5
7
DEFAULT
0
MTEXT
5
283
100
AcDbEntity
8
SK2
62
256
6
ByLayer
370
-1
48
1
60
0
100
AcDbMText
10
-70.975
20
-8.253947
30
0
210
0
220
0
230
1
1
\W01.000;\fsimplex.shx,bigfont.shx;%%c 
40
4.5
41
0
44
1.084337
50
90
71
7
72
5
7
DEFAULT
0
LINE
5
284
100
AcDbEntity
8
SK2
62
256
6
ByLayer
370
-1
48
1
60
0
100
AcDbLine
10
-1.5875
20
-12.5
30
0
11
-71.9
21
-12.5
31
0
39
0
210
0
220
0
230
1
0
LINE
5
285
100
AcDbEntity
8
SK2
62
256
6
ByLayer
370
-1
48
1
60
0
100
AcDbLine
10
-1.5875
20
12.5
30
0
11
-71.9
21
12.5
31
0
39
0
210
0
220
0
230
1
0
LINE
5
286
100
AcDbEntity
8
SK2
62
256
6
ByLayer
370
-1
48
1
60
0
100
AcDbLine
10
-68.725
20
-23.75
30
0
11
-68.725
21
23.75
31
0
39
0
210
0
220
0
230
1
0
SOLID
5
287
100
AcDbEntity
8
SK2
62
256
6
ByLayer
370
-1
48
1
60
0
100
AcDbTrace
10
-68.725
20
-12.5
30
0
11
-67.799425
21
-16.674997
31
0
12
-69.650575
22
-16.675003
32
0
13
-68.725
23
-12.5
33
0
39
0
210
0
220
0
230
1
0
SOLID
5
288
100
AcDbEntity
8
SK2
62
256
6
ByLayer
370
-1
48
1
60
0
100
AcDbTrace
10
-68.725
20
12.5
30
0
11
-69.650575
21
16.674997
31
0
12
-67.799425
22
16.675003
32
0
13
-68.725
23
12.5
33
0
39
0
210
0
220
0
230
1
0
ENDBLK
5
28A
100
AcDbEntity
8
0
100
AcDbBlockEnd
0
BLOCK
5
294
100
AcDbEntity
8
0
100
AcDbBlockBegin
2
DimnDraft3D7
70
0
10
0
20
0
30
0
3
DimnDraft3D7
0
MTEXT
5
28D
100
AcDbEntity
8
2
62
256
6
ByLayer
370
-1
48
1
60
0
100
AcDbMText
10
90.725
20
-23.120395
30
0
210
0
220
0
230
1
1
\W01.000;\fsimplex.shx,bigfont.shx;16 
40
4.5
41
0
44
1.084337
50
90
71
7
72
5
7
DEFAULT
0
MTEXT
5
28E
100
AcDbEntity
8
2
62
256
6
ByLayer
370
-1
48
1
60
0
100
AcDbMText
10
90.725
20
-36.620395
30
0
210
0
220
0
230
1
1
\W01.000;\fsimplex.shx,bigfont.shx;%%c 
40
4.5
41
0
44
1.084337
50
90
71
7
72
5
7
DEFAULT
0
LINE
5
28F
100
AcDbEntity
8
2
62
256
6
ByLayer
370
-1
48
1
60
0
100
AcDbLine
10
67.5875
20
8
30
0
11
96.15
21
8
31
0
39
0
210
0
220
0
230
1
0
LINE
5
290
100
AcDbEntity
8
2
62
256
6
ByLayer
370
-1
48
1
60
0
100
AcDbLine
10
67.5875
20
-8
30
0
11
96.15
21
-8
31
0
39
0
210
0
220
0
230
1
0
LINE
5
291
100
AcDbEntity
8
2
62
256
6
ByLayer
370
-1
48
1
60
0
100
AcDbLine
10
92.975
20
8
30
0
11
92.975
21
-37.745395
31
0
39
0
210
0
220
0
230
1
0
SOLID
5
292
100
AcDbEntity
8
2
62
256
6
ByLayer
370
-1
48
1
60
0
100
AcDbTrace
10
92.975
20
8
30
0
11
93.900575
21
3.825003
31
0
12
92.049425
22
3.824997
32
0
13
92.975
23
8
33
0
39
0
210
0
220
0
230
1
0
SOLID
5
293
100
AcDbEntity
8
2
62
256
6
ByLayer
370
-1
48
1
60
0
100
AcDbTrace
10
92.975
20
-8
30
0
11
92.049425
21
-3.825003
31
0
12
93.900575
22
-3.824997
32
0
13
92.975
23
-8
33
0
39
0
210
0
220
0
230
1
0
ENDBLK
5
295
100
AcDbEntity
8
0
100
AcDbBlockEnd
0
ENDSEC
0
SECTION
2
ENTITIES
0
ARC
5
F7
100
AcDbEntity
8
SK1
62
256
6
ByLayer
370
-1
48
1
60
0
100
AcDbCircle
39
0
10
1.382165
20
10.15
30
0
40
0.4
210
0
220
0
230
-1
100
AcDbArc
50
270
51
295
0
ARC
5
F8
100
AcDbEntity
8
SK1
62
256
6
ByLayer
370
-1
48
1
60
0
100
AcDbCircle
39
0
10
1.382165
20
-10.15
30
0
40
0.4
210
0
220
0
230
-1
100
AcDbArc
50
65
51
90
0
ARC
5
F9
100
AcDbEntity
8
SK1
62
256
6
ByLayer
370
-1
48
1
60
0
100
AcDbCircle
39
0
10
0.15
20
10.15
30
0
40
0.4
210
0
220
0
230
-1
100
AcDbArc
50
247.975687
51
270
0
ARC
5
FA
100
AcDbEntity
8
SK1
62
256
6
ByLayer
370
-1
48
1
60
0
100
AcDbCircle
39
0
10
0.15
20
-10.15
30
0
40
0.4
210
0
220
0
230
-1
100
AcDbArc
50
90
51
112.024313
0
ARC
5
FB
100
AcDbEntity
8
SK1
62
256
6
ByLayer
370
-1
48
1
60
0
100
AcDbCircle
39
0
10
47.894506
20
10.39675
30
0
40
0.8
210
0
220
0
230
-1
100
AcDbArc
50
250.982048
51
321
0
ARC
5
FC
100
AcDbEntity
8
SK1
62
256
6
ByLayer
370
-1
48
1
60
0
100
AcDbCircle
39
0
10
47.894506
20
-10.39675
30
0
40
0.8
210
0
220
0
230
-1
100
AcDbArc
50
39
51
109.017952
0
ELLIPSE
5
FD
100
AcDbEntity
8
1
62
256
6
ByLayer
370
-1
48
1
60
0
100
AcDbEllipse
10
64.518837
20
0
30
0
11
-17.5214297052528
21
7.46186054308292
31
0
210
0
220
0
230
-1
40
0.108448
41
-1.1357362546275
42
-0.720507779181024
0
ELLIPSE
5
FE
100
AcDbEntity
8
1
62
256
6
ByLayer
370
-1
48
1
60
0
100
AcDbEllipse
10
63.308495
20
5.216271
30
0
11
-1.07186937277348E-15
21
-1
31
0
210
0
220
0
230
1
40
0.996195
41
1.57079654872778
42
-1.70451026878387
0
ELLIPSE
5
FF
100
AcDbEntity
8
1
62
256
6
ByLayer
370
-1
48
1
60
0
100
AcDbEllipse
10
63.308495
20
5.216271
30
0
11
-1.07186937277348E-15
21
-1
31
0
210
0
220
0
230
1
40
0.996195
41
-1.57079625281727
42
0
0
ELLIPSE
5
100
100
AcDbEntity
8
1
62
256
6
ByLayer
370
-1
48
1
60
0
100
AcDbEllipse
10
63.308495
20
5.216271
30
0
11
-1.07186937277348E-15
21
-1
31
0
210
0
220
0
230
1
40
0.996195
41
0
42
0.973108517301354
0
ELLIPSE
5
101
100
AcDbEntity
8
1
62
256
6
ByLayer
370
-1
48
1
60
0
100
AcDbEllipse
10
63.308495
20
5.216271
30
0
11
-1.07186937277348E-15
21
-1
31
0
210
0
220
0
230
1
40
0.996195
41
0.973108813568411
42
1.57079654872778
0
ELLIPSE
5
102
100
AcDbEntity
8
1
62
256
6
ByLayer
370
-1
48
1
60
0
100
AcDbEllipse
10
65.277841
20
0
30
0
11
-0.437364840885806
21
7.69982303721397
31
0
210
0
220
0
230
-1
40
0.119354
41
-1.54421631852434
42
-1.39290718400243
0
ELLIPSE
5
103
100
AcDbEntity
8
1
62
256
6
ByLayer
370
-1
48
1
60
0
100
AcDbEllipse
10
65.06865
20
-0.31087
30
0
11
-0.0344548551862035
21
0.601529077582702
31
0
210
0
220
0
230
-1
40
0.11901
41
-1.26522055785751
42
0.0720358513372756
0
ELLIPSE
5
104
100
AcDbEntity
8
1
62
256
6
ByLayer
370
-1
48
1
60
0
100
AcDbEllipse
10
61.646083
20
4.69463
30
0
11
1.58146201212697E-15
21
1.35
31
0
210
0
220
0
230
1
40
0.996195
41
1.06100709389382
42
1.43116998663535
0
ELLIPSE
5
105
100
AcDbEntity
8
1
62
256
6
ByLayer
370
-1
48
1
60
0
100
AcDbEllipse
10
60.971247
20
3.89402
30
0
11
-0.594204555650944
21
0.0831922234566718
31
0
210
0
220
0
230
1
40
0.01213
41
-1.14005785194189
42
-0.0864214342679684
0
ELLIPSE
5
106
100
AcDbEntity
8
1
62
256
6
ByLayer
370
-1
48
1
60
0
100
AcDbEllipse
10
63.004139
20
3.290396
30
0
11
-0.692616114562
21
-0.624046901943453
31
0
210
0
220
0
230
-1
40
0.037579
41
-0.861380548332768
42
-0.67353894017164
0
ELLIPSE
5
107
100
AcDbEntity
8
1
62
256
6
ByLayer
370
-1
48
1
60
0
100
AcDbEllipse
10
10.8
20
3.91716
30
0
11
-4.49999999999999
21
4.54787574787062E-15
31
0
210
0
220
0
230
1
40
0.701166
41
-1.82259489327388
42
-0.303653270354276
0
ELLIPSE
5
108
100
AcDbEntity
8
1
62
256
6
ByLayer
370
-1
48
1
60
0
100
AcDbEllipse
10
64.898138
20
-4.787825
30
0
11
-0.0801739585570495
21
-0.99837350171108
31
0
210
0
220
0
230
-1
40
0.12605
41
-2.54086128956056
42
2.62970547899101
0
ELLIPSE
5
109
100
AcDbEntity
8
1
62
256
6
ByLayer
370
-1
48
1
60
0
100
AcDbEllipse
10
58.51129
20
3.076826
30
0
11
-6.20912996313094
21
0.32662884706322
31
0
210
0
220
0
230
-1
40
0.000421
41
-3.13485272380193
42
-3.13359564597125
0
ELLIPSE
5
10A
100
AcDbEntity
8
1
62
256
6
ByLayer
370
-1
48
1
60
0
100
AcDbEllipse
10
61.519379
20
3.78964
30
0
11
1.58146201212697E-15
21
1.35
31
0
210
0
220
0
230
1
40
0.996195
41
1.43116998663535
42
1.8509328096783
0
ELLIPSE
5
10B
100
AcDbEntity
8
1
62
256
6
ByLayer
370
-1
48
1
60
0
100
AcDbEllipse
10
65.26995
20
-4.036857
30
0
11
-0.0581290992930298
21
-0.658564973948112
31
0
210
0
220
0
230
-1
40
0.115224
41
0.0037084551565753
42
1.55546312997003
0
ELLIPSE
5
10C
100
AcDbEntity
8
1
62
256
6
ByLayer
370
-1
48
1
60
0
100
AcDbEllipse
10
61.771191
20
3.78964
30
0
11
-1.17794646133819
21
-1.04893007471875
31
0
210
0
220
0
230
-1
40
0.721468
41
-1.26712593957083
42
-0.133853100320863
0
ELLIPSE
5
10D
100
AcDbEntity
8
1
62
256
6
ByLayer
370
-1
48
1
60
0
100
AcDbEllipse
10
63.142785
20
-1.738278
30
0
11
1.1
21
0
31
0
210
0
220
0
230
1
40
0.998135
41
0
42
-3.14159250247965
0
ELLIPSE
5
10E
100
AcDbEntity
8
1
62
256
6
ByLayer
370
-1
48
1
60
0
100
AcDbEllipse
10
65.264932
20
-4.038678
30
0
11
-0.0344787917572669
21
0.62543402652569
31
0
210
0
220
0
230
-1
40
0.114507
41
-1.56701008425087
42
-1.54796765981161
0
ELLIPSE
5
10F
100
AcDbEntity
8
1
62
256
6
ByLayer
370
-1
48
1
60
0
100
AcDbEllipse
10
59.161142
20
0
30
0
11
-25.7355107191778
21
0.516073066895747
31
0
210
0
220
0
230
-1
40
0.298525
41
-1.564213195382
42
-1.48866642250843
0
ELLIPSE
5
110
100
AcDbEntity
8
1
62
256
6
ByLayer
370
-1
48
1
60
0
100
AcDbEllipse
10
57.814289
20
0
30
0
11
-27.1530709821396
21
-3.07671363250257E-14
31
0
210
0
220
0
230
-1
40
0.283578
41
1.45963169562301
42
1.60817465854735
0
ELLIPSE
5
111
100
AcDbEntity
8
1
62
256
6
ByLayer
370
-1
48
1
60
0
100
AcDbEllipse
10
63.491432
20
5.216271
30
0
11
1.17145334231628E-15
21
1
31
0
210
0
220
0
230
1
40
0.996195
41
0.0919893556060725
42
1.57079554872778
0
ELLIPSE
5
112
100
AcDbEntity
8
1
62
256
6
ByLayer
370
-1
48
1
60
0
100
AcDbEllipse
10
63.491432
20
5.216271
30
0
11
1.17145334231628E-15
21
1
31
0
210
0
220
0
230
1
40
0.996195
41
2.31015035847031
42
-1.57079625281726
0
ELLIPSE
5
113
100
AcDbEntity
8
1
62
256
6
ByLayer
370
-1
48
1
60
0
100
AcDbEllipse
10
63.491432
20
5.216271
30
0
11
1.17145334231628E-15
21
1
31
0
210
0
220
0
230
1
40
0.996195
41
1.57079654872778
42
2.3101503584703
0
ELLIPSE
5
114
100
AcDbEntity
8
1
62
256
6
ByLayer
370
-1
48
1
60
0
100
AcDbEllipse
10
58.589324
20
5.030634
30
0
11
-0.39705640637176
21
-3.37673602909069
31
0
210
0
220
0
230
1
40
0.271091
41
0.0318656673676072
42
0.790145229061351
0
ELLIPSE
5
115
100
AcDbEntity
8
1
62
256
6
ByLayer
370
-1
48
1
60
0
100
AcDbEllipse
10
65.866362
20
0
30
0
11
-0.633197535106446
21
-7.69958413733664
31
0
210
0
220
0
230
-1
40
0.126383
41
0.00782311589145179
42
1.04077753506306
0
ELLIPSE
5
116
100
AcDbEntity
8
1
62
256
6
ByLayer
370
-1
48
1
60
0
100
AcDbEllipse
10
61.77276
20
5.13
30
0
11
-4.7932701344023
21
-3.00468484222694
31
0
210
0
220
0
230
-1
40
0.374474
41
-0.981085686228765
42
-0.716575634058341
0
ELLIPSE
5
117
100
AcDbEntity
8
1
62
256
6
ByLayer
370
-1
48
1
60
0
100
AcDbEllipse
10
59.12977
20
3.380366
30
0
11
0.0280261150489165
21
-0.799508934831416
31
0
210
0
220
0
230
1
40
0.087103
41
-0.00305330083596985
42
1.56774302595899
0
ELLIPSE
5
118
100
AcDbEntity
8
1
62
256
6
ByLayer
370
-1
48
1
60
0
100
AcDbEllipse
10
7.300265
20
0
30
0
11
-136.941702496448
21
-7.44636677953406
31
0
210
0
220
0
230
-1
40
0.014313
41
-1.99928442826805
42
-1.95470237240872
0
ELLIPSE
5
119
100
AcDbEntity
8
1
62
256
6
ByLayer
370
-1
48
1
60
0
100
AcDbEllipse
10
55.540034
20
-4E-06
30
0
11
-88.0114235824401
21
-1.68686408623848E-07
31
0
210
0
220
0
230
-1
40
0.087489
41
1.60817467163226
42
1.62601879704268
0
ELLIPSE
5
11A
100
AcDbEntity
8
1
62
256
6
ByLayer
370
-1
48
1
60
0
100
AcDbEllipse
10
61.837826
20
4.69463
30
0
11
-1.4470236532442E-15
21
-1.35
31
0
210
0
220
0
230
1
40
0.996195
41
-2.0958497320428
42
-1.71042266695444
0
ELLIPSE
5
11B
100
AcDbEntity
8
1
62
256
6
ByLayer
370
-1
48
1
60
0
100
AcDbEllipse
10
65.069208
20
-0.31089
30
0
11
-0.036790337996385
21
0.601607548221103
31
0
210
0
220
0
230
-1
40
0.118733
41
-1.49832363265454
42
-1.26478371673571
0
ELLIPSE
5
11C
100
AcDbEntity
8
1
62
256
6
ByLayer
370
-1
48
1
60
0
100
AcDbEllipse
10
65.276812
20
0
30
0
11
-0.467222834395957
21
7.6997989527463
31
0
210
0
220
0
230
-1
40
0.119092
41
-2.08319561883388
42
-1.54376939084933
0
ELLIPSE
5
11D
100
AcDbEntity
8
1
62
256
6
ByLayer
370
-1
48
1
60
0
100
AcDbEllipse
10
59.053474
20
7.577808
30
0
11
4.92010403772836E-15
21
4.2
31
0
210
0
220
0
230
1
40
0.996195
41
2.72271363311116
42
-3.1066860685499
0
ELLIPSE
5
11E
100
AcDbEntity
8
1
62
256
6
ByLayer
370
-1
48
1
60
0
100
AcDbEllipse
10
63.290974
20
5.216271
30
0
11
-1.25944651300884E-15
21
-1.175
31
0
210
0
220
0
230
1
40
0.996195
41
1.78570068007365
42
-2.53310605394879
0
ELLIPSE
5
11F
100
AcDbEntity
8
1
62
256
6
ByLayer
370
-1
48
1
60
0
100
AcDbEllipse
10
63.290974
20
5.216271
30
0
11
-1.25944651300884E-15
21
-1.175
31
0
210
0
220
0
230
1
40
0.996195
41
-1.5707966145194
42
0
0
ELLIPSE
5
120
100
AcDbEntity
8
1
62
256
6
ByLayer
370
-1
48
1
60
0
100
AcDbEllipse
10
63.290974
20
5.216271
30
0
11
-1.25944651300884E-15
21
-1.175
31
0
210
0
220
0
230
1
40
0.996195
41
0
42
1.57079661451941
0
ELLIPSE
5
121
100
AcDbEntity
8
1
62
256
6
ByLayer
370
-1
48
1
60
0
100
AcDbEllipse
10
63.142785
20
-1.738278
30
0
11
-1
21
1.01063905508236E-15
31
0
210
0
220
0
230
1
40
0.998135
41
0
42
6.28318530717959
0
ELLIPSE
5
122
100
AcDbEntity
8
1
62
256
6
ByLayer
370
-1
48
1
60
0
100
AcDbEllipse
10
65.017924
20
-4.804326
30
0
11
-0.0626785348403069
21
1.01780158634529
31
0
210
0
220
0
230
-1
40
0.116503
41
-0.495631537462455
42
0.616987001166963
0
ELLIPSE
5
123
100
AcDbEntity
8
1
62
256
6
ByLayer
370
-1
48
1
60
0
100
AcDbEllipse
10
65.029389
20
3.334748
30
0
11
-0.0339824809610084
21
0.602567408184743
31
0
210
0
220
0
230
-1
40
0.118065
41
2.30111938748544
42
-3.13326425481575
0
ELLIPSE
5
124
100
AcDbEntity
8
1
62
256
6
ByLayer
370
-1
48
1
60
0
100
AcDbEllipse
10
40.806218
20
7.121676
30
0
11
-18.0185392237056
21
2.08383372271773
31
0
210
0
220
0
230
-1
40
0.187436
41
3.11991920611634
42
-2.72367609324664
0
ELLIPSE
5
125
100
AcDbEntity
8
1
62
256
6
ByLayer
370
-1
48
1
60
0
100
AcDbEllipse
10
60.681986
20
0
30
0
11
-0.249313234462012
21
7.6999692604907
31
0
210
0
220
0
230
-1
40
0.087398
41
-0.0523926634232847
42
-0.0117980730741342
0
ELLIPSE
5
126
100
AcDbEntity
8
1
62
256
6
ByLayer
370
-1
48
1
60
0
100
AcDbEllipse
10
57.281956
20
3.740917
30
0
11
-0.326425640836806
21
-0.730374082922087
31
0
210
0
220
0
230
1
40
0.079621
41
0.535420962757945
42
1.60636616336574
0
ELLIPSE
5
127
100
AcDbEntity
8
1
62
256
6
ByLayer
370
-1
48
1
60
0
100
AcDbEllipse
10
63.142785
20
-1.976305
30
0
11
1
21
0
31
0
210
0
220
0
230
1
40
0.998135
41
0.119576945198184
42
3.02211434635894
0
ELLIPSE
5
128
100
AcDbEntity
8
1
62
256
6
ByLayer
370
-1
48
1
60
0
100
AcDbEllipse
10
61.097951
20
4.79901
30
0
11
-0.594204555650944
21
0.0831922234566718
31
0
210
0
220
0
230
1
40
0.01213
41
-0.816669269699474
42
-0.086421434267479
0
ELLIPSE
5
129
100
AcDbEntity
8
1
62
256
6
ByLayer
370
-1
48
1
60
0
100
AcDbEllipse
10
61.711122
20
3.78964
30
0
11
-1.4470236532442E-15
21
-1.35
31
0
210
0
220
0
230
1
40
0.996195
41
-1.71042266695444
42
-0.140498665993576
0
ELLIPSE
5
12A
100
AcDbEntity
8
1
62
256
6
ByLayer
370
-1
48
1
60
0
100
AcDbEllipse
10
50.026841
20
6.013868
30
0
11
-7.84247599110649
21
4.25445117685136
31
0
210
0
220
0
230
-1
40
0.104986
41
-2.60732309049868
42
-1.88134792860661
0
ELLIPSE
5
12B
100
AcDbEntity
8
1
62
256
6
ByLayer
370
-1
48
1
60
0
100
AcDbEllipse
10
63.299689
20
5.216271
30
0
11
-1.25944651300884E-15
21
-1.175
31
0
210
0
220
0
230
1
40
0.996195
41
3.14149468406055
42
-2.50541952488712
0
ELLIPSE
5
12C
100
AcDbEntity
8
1
62
256
6
ByLayer
370
-1
48
1
60
0
100
AcDbEllipse
10
63.299689
20
5.216271
30
0
11
-1.25944651300884E-15
21
-1.175
31
0
210
0
220
0
230
1
40
0.996195
41
0
42
6.28318530717959
0
ELLIPSE
5
12D
100
AcDbEntity
8
1
62
256
6
ByLayer
370
-1
48
1
60
0
100
AcDbEllipse
10
58.98375
20
7.577808
30
0
11
-5.35934686386741E-15
21
-5
31
0
210
0
220
0
230
1
40
0.996195
41
-0.293337131562878
42
-2.20220247694383E-08
0
ELLIPSE
5
12E
100
AcDbEntity
8
1
62
256
6
ByLayer
370
-1
48
1
60
0
100
AcDbEllipse
10
63.29306
20
-2.186722
30
0
11
-1.09999999999999
21
1.11170296059059E-15
31
0
210
0
220
0
230
1
40
0.998135
41
-2.01444855296732
42
-0.107207380154839
0
ELLIPSE
5
12F
100
AcDbEntity
8
1
62
256
6
ByLayer
370
-1
48
1
60
0
100
AcDbEllipse
10
63.29306
20
-2.186722
30
0
11
-1.09999999999999
21
1.11170296059059E-15
31
0
210
0
220
0
230
1
40
0.998135
41
0
42
-3.14159250247962
0
ELLIPSE
5
130
100
AcDbEntity
8
1
62
256
6
ByLayer
370
-1
48
1
60
0
100
AcDbEllipse
10
65.19924
20
-3.549536
30
0
11
-0.110562988479032
21
0.166660809966187
31
0
210
0
220
0
230
1
40
0.033792
41
1.31050756241319
42
1.62169029006606
0
ELLIPSE
5
131
100
AcDbEntity
8
1
62
256
6
ByLayer
370
-1
48
1
60
0
100
AcDbEllipse
10
65.078493
20
-0.247002
30
0
11
0.399999999999944
21
0
31
0
210
0
220
0
230
1
40
0.998135
41
0.349065850398792
42
0.69813170079758
0
ELLIPSE
5
132
100
AcDbEntity
8
1
62
256
6
ByLayer
370
-1
48
1
60
0
100
AcDbEllipse
10
63.29306
20
-2.186722
30
0
11
1.19999999999999
21
0
31
0
210
0
220
0
230
1
40
0.998135
41
1.57383988844872
42
2.80642389110094
0
ELLIPSE
5
133
100
AcDbEntity
8
1
62
256
6
ByLayer
370
-1
48
1
60
0
100
AcDbEllipse
10
63.29306
20
-2.186722
30
0
11
1.19999999999999
21
0
31
0
210
0
220
0
230
1
40
0.998135
41
-3.14159250110339
42
-3.70765819795641E-16
0
ELLIPSE
5
134
100
AcDbEntity
8
1
62
256
6
ByLayer
370
-1
48
1
60
0
100
AcDbEllipse
10
65.56859
20
-3.948839
30
0
11
0.399999999999934
21
0
31
0
210
0
220
0
230
1
40
0.998135
41
-0.872664625997289
42
-0.0349065850396934
0
ELLIPSE
5
135
100
AcDbEntity
8
1
62
256
6
ByLayer
370
-1
48
1
60
0
100
AcDbEllipse
10
67.328238
20
-1.857775
30
0
11
1.76330346600111
21
0
31
0
210
0
220
0
230
1
40
0.998135
41
-3.08923277602879
42
-2.69653369433137
0
ELLIPSE
5
136
100
AcDbEntity
8
1
62
256
6
ByLayer
370
-1
48
1
60
0
100
AcDbEllipse
10
64.981338
20
-3.234508
30
0
11
-0.493657936256395
21
4.98909990232072E-16
31
0
210
0
220
0
230
1
40
0.998135
41
2.15739518730473
42
3.1066860685498
0
ELLIPSE
5
137
100
AcDbEntity
8
1
62
256
6
ByLayer
370
-1
48
1
60
0
100
AcDbEllipse
10
67.328238
20
-1.938969
30
0
11
1.60000000000014
21
0
31
0
210
0
220
0
230
1
40
0.998135
41
-3.08923277602866
42
-2.69653369433138
0
ELLIPSE
5
138
100
AcDbEntity
8
1
62
256
6
ByLayer
370
-1
48
1
60
0
100
AcDbEllipse
10
64.890423
20
-2.973096
30
0
11
-0.593657936256395
21
5.99973895740309E-16
31
0
210
0
220
0
230
1
40
0.998135
41
3.10668606854978
42
-2.69188056127515
0
ELLIPSE
5
139
100
AcDbEntity
8
1
62
256
6
ByLayer
370
-1
48
1
60
0
100
AcDbEllipse
10
65.263259
20
-0.753696
30
0
11
0.39999999999998
21
0
31
0
210
0
220
0
230
1
40
0.998135
41
0.0523598775595882
42
0.349065850398703
0
ELLIPSE
5
13A
100
AcDbEntity
8
1
62
256
6
ByLayer
370
-1
48
1
60
0
100
AcDbEllipse
10
65.334998
20
-2.74669
30
0
11
-0.18005083038928
21
-0.0870729491640804
31
0
210
0
220
0
230
1
40
0.054979
41
0.497017263498435
42
1.54421481469492
0
ELLIPSE
5
13B
100
AcDbEntity
8
1
62
256
6
ByLayer
370
-1
48
1
60
0
100
AcDbEllipse
10
67.328238
20
-1.792453
30
0
11
-2.38650854675769
21
2.41189874264117E-15
31
0
210
0
220
0
230
1
40
0.998135
41
0.392220112973962
42
0.449712092314642
0
ELLIPSE
5
13C
100
AcDbEntity
8
1
62
256
6
ByLayer
370
-1
48
1
60
0
100
AcDbEllipse
10
63.29306
20
-2.186112
30
0
11
1.21732050807568
21
0
31
0
210
0
220
0
230
1
40
0.998135
41
1.680162865217
42
2.70284936470237
0
ELLIPSE
5
13D
100
AcDbEntity
8
1
62
256
6
ByLayer
370
-1
48
1
60
0
100
AcDbEllipse
10
63.29306
20
-2.186112
30
0
11
1.21732050807568
21
0
31
0
210
0
220
0
230
1
40
0.998135
41
-3.14159230060804
42
-3.65490419986507E-16
0
ELLIPSE
5
13E
100
AcDbEntity
8
1
62
256
6
ByLayer
370
-1
48
1
60
0
100
AcDbEllipse
10
64.577432
20
-1.03427
30
0
11
-0.593657936256395
21
5.99973895740309E-16
31
0
210
0
220
0
230
1
40
0.998135
41
-3.08923277603005
42
-2.55499379307999
0
ELLIPSE
5
13F
100
AcDbEntity
8
1
62
256
6
ByLayer
370
-1
48
1
60
0
100
AcDbEllipse
10
67.328238
20
-1.798557
30
0
11
2.2133034660008
21
0
31
0
210
0
220
0
230
1
40
0.998135
41
-3.0892327760304
42
-2.69188056127515
0
ELLIPSE
5
140
100
AcDbEntity
8
1
62
256
6
ByLayer
370
-1
48
1
60
0
100
AcDbEllipse
10
65.374756
20
-3.236011
30
0
11
-0.19987771005484
21
0.00699292665722507
31
0
210
0
220
0
230
1
40
0.061011
41
0.525733317016705
42
1.57293086821329
0
ELLIPSE
5
141
100
AcDbEntity
8
1
62
256
6
ByLayer
370
-1
48
1
60
0
100
AcDbEllipse
10
65.377079
20
-4.109237
30
0
11
0.399999999999944
21
0
31
0
210
0
220
0
230
1
40
0.998135
41
-1.22173047639609
42
-0.87266462599731
0
ELLIPSE
5
142
100
AcDbEntity
8
1
62
256
6
ByLayer
370
-1
48
1
60
0
100
AcDbEllipse
10
64.917796
20
-0.055848
30
0
11
0.399999999999934
21
0
31
0
210
0
220
0
230
1
40
0.998135
41
0.698131700797606
42
1.18497399341675
0
ELLIPSE
5
143
100
AcDbEntity
8
1
62
256
6
ByLayer
370
-1
48
1
60
0
100
AcDbEllipse
10
64.981338
20
-3.234508
30
0
11
-0.393657936256395
21
3.97846084723836E-16
31
0
210
0
220
0
230
1
40
0.998135
41
2.15739518730472
42
3.10668606854978
0
ELLIPSE
5
144
100
AcDbEntity
8
1
62
256
6
ByLayer
370
-1
48
1
60
0
100
AcDbEllipse
10
64.577432
20
-1.03427
30
0
11
-0.493657936256395
21
4.98909990232072E-16
31
0
210
0
220
0
230
1
40
0.998135
41
-3.08923277603005
42
-2.70294549918415
0
ELLIPSE
5
145
100
AcDbEntity
8
1
62
256
6
ByLayer
370
-1
48
1
60
0
100
AcDbEllipse
10
64.890423
20
-2.966991
30
0
11
0.320452855499508
21
0
31
0
210
0
220
0
230
1
40
0.998135
41
-0.0349065850400276
42
0.449712092314631
0
ELLIPSE
5
146
100
AcDbEntity
8
1
62
256
6
ByLayer
370
-1
48
1
60
0
100
AcDbEllipse
10
67.328238
20
-1.798557
30
0
11
2.1133034660008
21
0
31
0
210
0
220
0
230
1
40
0.998135
41
-3.08923277603042
42
-2.69188056127515
0
ELLIPSE
5
147
100
AcDbEntity
8
1
62
256
6
ByLayer
370
-1
48
1
60
0
100
AcDbEllipse
10
63.29306
20
-2.238954
30
0
11
1.09999999999998
21
0
31
0
210
0
220
0
230
1
40
0.998135
41
0.988816217699225
42
2.99894459803591
0
ELLIPSE
5
148
100
AcDbEntity
8
1
62
256
6
ByLayer
370
-1
48
1
60
0
100
AcDbEllipse
10
63.29306
20
-2.238954
30
0
11
1.09999999999998
21
0
31
0
210
0
220
0
230
1
40
0.998135
41
3.14159250247959
42
-4.0447180341343E-16
0
ELLIPSE
5
149
100
AcDbEntity
8
1
62
256
6
ByLayer
370
-1
48
1
60
0
100
AcDbEllipse
10
65.070413
20
-0.996273
30
0
11
-0.19972488372022
21
-0.0104866974279142
31
0
210
0
220
0
230
1
40
0.060965
41
1.38463087094562
42
1.56759533351589
0
ELLIPSE
5
14A
100
AcDbEntity
8
1
62
256
6
ByLayer
370
-1
48
1
60
0
100
AcDbEllipse
10
65.38378
20
-2.978082
30
0
11
-0.19987771005484
21
0.00699292665722507
31
0
210
0
220
0
230
1
40
0.061011
41
0.525733317016737
42
1.57293086821336
0
ELLIPSE
5
14B
100
AcDbEntity
8
1
62
256
6
ByLayer
370
-1
48
1
60
0
100
AcDbEllipse
10
65.250213
20
-3.038873
30
0
11
0.749999999999771
21
0
31
0
210
0
220
0
230
1
40
0.998135
41
-0.0349065850385564
42
0.445058959258721
0
ELLIPSE
5
14C
100
AcDbEntity
8
1
62
256
6
ByLayer
370
-1
48
1
60
0
100
AcDbEllipse
10
64.981338
20
-3.228403
30
0
11
0.220452855499508
21
0
31
0
210
0
220
0
230
1
40
0.998135
41
-0.645064363711192
42
-0.0349065850400065
0
ELLIPSE
5
14D
100
AcDbEntity
8
1
62
256
6
ByLayer
370
-1
48
1
60
0
100
AcDbEllipse
10
64.890423
20
-2.973096
30
0
11
-0.493657936256395
21
4.98909990232072E-16
31
0
210
0
220
0
230
1
40
0.998135
41
3.1066860685498
42
-2.69188056127513
0
ELLIPSE
5
14E
100
AcDbEntity
8
1
62
256
6
ByLayer
370
-1
48
1
60
0
100
AcDbEllipse
10
65.117967
20
-1.901967
30
0
11
-0.19972488372022
21
-0.0104866974279142
31
0
210
0
220
0
230
1
40
0.060965
41
1.38463087094562
42
1.56759533351589
0
ELLIPSE
5
14F
100
AcDbEntity
8
1
62
256
6
ByLayer
370
-1
48
1
60
0
100
AcDbEllipse
10
61.447834
20
2.907431
30
0
11
5.78724697506073E-15
21
4.94022831811449
31
0
210
0
220
0
230
1
40
0.996195
41
0.0440072139581486
42
0.0538072070448955
0
ELLIPSE
5
150
100
AcDbEntity
8
1
62
256
6
ByLayer
370
-1
48
1
60
0
100
AcDbEllipse
10
65.588527
20
7.364742
30
0
11
5.78724697506073E-15
21
4.94022831811449
31
0
210
0
220
0
230
1
40
0.996195
41
1.58680228982978
42
1.59660228291652
0
ELLIPSE
5
151
100
AcDbEntity
8
1
62
256
6
ByLayer
370
-1
48
1
60
0
100
AcDbEllipse
10
63.201155
20
5.421035
30
0
11
1.80632961201567E-15
21
1.54195608716611
31
0
210
0
220
0
230
1
40
0.996195
41
0
42
6.28318530717959
0
ELLIPSE
5
152
100
AcDbEntity
8
1
62
256
6
ByLayer
370
-1
48
1
60
0
100
AcDbEllipse
10
55.733583
20
6.973755
30
0
11
1.16445136866421E-14
21
9.94022831811449
31
0
210
0
220
0
230
1
40
0.996195
41
-1.53588974175501
42
-1.52678911283678
0
ELLIPSE
5
153
100
AcDbEntity
8
1
62
256
6
ByLayer
370
-1
48
1
60
0
100
AcDbEllipse
10
65.718268
20
3.648351
30
0
11
-5.35934686386771E-15
21
-5.00000000000028
31
0
210
0
220
0
230
1
40
0.996195
41
-1.52678911283675
42
-1.51698911975
0
ELLIPSE
5
154
100
AcDbEntity
8
1
62
256
6
ByLayer
370
-1
48
1
60
0
100
AcDbEllipse
10
70.693963
20
3.868316
30
0
11
1.16445136866421E-14
21
9.94022831811449
31
0
210
0
220
0
230
1
40
0.996195
41
1.60570291183479
42
1.61480354075301
0
ELLIPSE
5
155
100
AcDbEntity
8
1
62
256
6
ByLayer
370
-1
48
1
60
0
100
AcDbEllipse
10
70.694419
20
3.868316
30
0
11
-1.07186937277348E-14
21
-9.99999999999999
31
0
210
0
220
0
230
1
40
0.996195
41
-1.53588974175501
42
-1.52678911283679
0
ELLIPSE
5
156
100
AcDbEntity
8
1
62
256
6
ByLayer
370
-1
48
1
60
0
100
AcDbEllipse
10
65.375975
20
7.601451
30
0
11
-3.21560811832037E-16
21
-0.299999999999993
31
0
210
0
220
0
230
1
40
0.996195
41
1.64060949687463
42
1.86750229963386
0
ELLIPSE
5
157
100
AcDbEntity
8
1
62
256
6
ByLayer
370
-1
48
1
60
0
100
AcDbEllipse
10
64.760584
20
12.929799
30
0
11
1.16445136866421E-14
21
9.94022831811449
31
0
210
0
220
0
230
1
40
0.996195
41
-3.10668606854991
42
-3.09758543963168
0
ELLIPSE
5
158
100
AcDbEntity
8
1
62
256
6
ByLayer
370
-1
48
1
60
0
100
AcDbEllipse
10
60.906229
20
7.444768
30
0
11
-3.21560811832037E-16
21
-0.299999999999993
31
0
210
0
220
0
230
1
40
0.996195
41
-1.7976891295541
42
-1.57079632679487
0
ELLIPSE
5
159
100
AcDbEntity
8
1
62
256
6
ByLayer
370
-1
48
1
60
0
100
AcDbEllipse
10
70.569318
20
7.444768
30
0
11
-1.07186937277344E-14
21
-9.99999999999964
31
0
210
0
220
0
230
1
40
0.996195
41
-1.5707963267949
42
-1.55479036376002
0
ELLIPSE
5
15A
100
AcDbEntity
8
1
62
256
6
ByLayer
370
-1
48
1
60
0
100
AcDbEllipse
10
61.148938
20
12.803195
30
0
11
1.16445136866421E-14
21
9.9402283181145
31
0
210
0
220
0
230
1
40
0.996195
41
-3.11578669746813
42
-3.10668606854991
0
ELLIPSE
5
15B
100
AcDbEntity
8
1
62
256
6
ByLayer
370
-1
48
1
60
0
100
AcDbEllipse
10
64.979712
20
7.934639
30
0
11
5.78724697506073E-15
21
4.94022831811449
31
0
210
0
220
0
230
1
40
0.996195
41
-3.09758543963165
42
-3.0877854465449
0
ELLIPSE
5
15C
100
AcDbEntity
8
1
62
256
6
ByLayer
370
-1
48
1
60
0
100
AcDbEllipse
10
61.716173
20
-2.085332
30
0
11
-1.07186937277344E-14
21
-9.99999999999964
31
0
210
0
220
0
230
1
40
0.996195
41
-3.0877854465449
42
-3.07177948351001
0
ELLIPSE
5
15D
100
AcDbEntity
8
1
62
256
6
ByLayer
370
-1
48
1
60
0
100
AcDbEllipse
10
61.715717
20
-2.085332
30
0
11
1.16445136866418E-14
21
9.94022831811422
31
0
210
0
220
0
230
1
40
0.996195
41
0.0538072070448949
42
0.0698131700797845
0
ELLIPSE
5
15E
100
AcDbEntity
8
1
62
256
6
ByLayer
370
-1
48
1
60
0
100
AcDbEllipse
10
65.328096
20
3.442293
30
0
11
-5.35934686386747E-16
21
-0.500000000000006
31
0
210
0
220
0
230
1
40
0.996195
41
0.296705972839006
42
1.34390352403563
0
ELLIPSE
5
15F
100
AcDbEntity
8
1
62
256
6
ByLayer
370
-1
48
1
60
0
100
AcDbEllipse
10
65.229805
20
-1.962149
30
0
11
1.16445136866418E-14
21
9.94022831811422
31
0
210
0
220
0
230
1
40
0.996195
41
0
42
0.016005963034882
0
ELLIPSE
5
160
100
AcDbEntity
8
1
62
256
6
ByLayer
370
-1
48
1
60
0
100
AcDbEllipse
10
61.277919
20
7.80486
30
0
11
-5.35934686386771E-15
21
-5.00000000000028
31
0
210
0
220
0
230
1
40
0.996195
41
0.0160059630348822
42
0.0258059561216293
0
ELLIPSE
5
161
100
AcDbEntity
8
1
62
256
6
ByLayer
370
-1
48
1
60
0
100
AcDbEllipse
10
70.568297
20
7.493757
30
0
11
-1.07186937277348E-14
21
-9.99999999999999
31
0
210
0
220
0
230
1
40
0.996195
41
-1.54499037067323
42
-1.53588974175501
0
ELLIPSE
5
162
100
AcDbEntity
8
1
62
256
6
ByLayer
370
-1
48
1
60
0
100
AcDbEllipse
10
65.150539
20
3.037211
30
0
11
-5.35934686386771E-15
21
-5.00000000000028
31
0
210
0
220
0
230
1
40
0.996195
41
-3.12558669055491
42
-3.11578669746816
0
ELLIPSE
5
163
100
AcDbEntity
8
1
62
256
6
ByLayer
370
-1
48
1
60
0
100
AcDbEllipse
10
70.691577
20
3.917257
30
0
11
1.16445136866418E-14
21
9.94022831811422
31
0
210
0
220
0
230
1
40
0.996195
41
1.62460353383979
42
1.64060949687468
0
ELLIPSE
5
164
100
AcDbEntity
8
1
62
256
6
ByLayer
370
-1
48
1
60
0
100
AcDbEllipse
10
61.198197
20
3.10422
30
0
11
-3.21560811832037E-16
21
-0.299999999999993
31
0
210
0
220
0
230
1
40
0.996195
41
-0.226892802759206
42
2.37752225805899E-14
0
ELLIPSE
5
165
100
AcDbEntity
8
1
62
256
6
ByLayer
370
-1
48
1
60
0
100
AcDbEllipse
10
65.521772
20
3.397303
30
0
11
2.81416266174359E-16
21
0.240228318114594
31
0
210
0
220
0
230
1
40
0.996195
41
-1.79768912955413
42
-1.5707963267949
0
ELLIPSE
5
166
100
AcDbEntity
8
1
62
256
6
ByLayer
370
-1
48
1
60
0
100
AcDbEllipse
10
65.32764
20
3.442293
30
0
11
5.15706934637621E-16
21
0.4402283181146
31
0
210
0
220
0
230
1
40
0.996195
41
-2.84488668075075
42
-1.79768912955418
0
ELLIPSE
5
167
100
AcDbEntity
8
1
62
256
6
ByLayer
370
-1
48
1
60
0
100
AcDbEllipse
10
65.184986
20
7.542977
30
0
11
5.15706934637621E-16
21
0.4402283181146
31
0
210
0
220
0
230
1
40
0.996195
41
-1.27409035395591
42
-0.226892802759294
0
ELLIPSE
5
168
100
AcDbEntity
8
1
62
256
6
ByLayer
370
-1
48
1
60
0
100
AcDbEllipse
10
61.041654
20
7.591039
30
0
11
2.81416266174357E-16
21
0.240228318114593
31
0
210
0
220
0
230
1
40
0.996195
41
0.0698131700797235
42
0.296705972838918
0
ELLIPSE
5
169
100
AcDbEntity
8
1
62
256
6
ByLayer
370
-1
48
1
60
0
100
AcDbEllipse
10
65.279063
20
-1.961125
30
0
11
-1.07186937277348E-14
21
-9.99999999999999
31
0
210
0
220
0
230
1
40
0.996195
41
-3.11578669746813
42
-3.10668606854991
0
ELLIPSE
5
16A
100
AcDbEntity
8
1
62
256
6
ByLayer
370
-1
48
1
60
0
100
AcDbEllipse
10
55.734039
20
6.973755
30
0
11
-1.07186937277348E-14
21
-9.99999999999999
31
0
210
0
220
0
230
1
40
0.996195
41
1.60570291183479
42
1.61480354075301
0
ELLIPSE
5
16B
100
AcDbEntity
8
1
62
256
6
ByLayer
370
-1
48
1
60
0
100
AcDbEllipse
10
70.567842
20
7.493757
30
0
11
1.16445136866421E-14
21
9.9402283181145
31
0
210
0
220
0
230
1
40
0.996195
41
1.59660228291656
42
1.60570291183479
0
ELLIPSE
5
16C
100
AcDbEntity
8
1
62
256
6
ByLayer
370
-1
48
1
60
0
100
AcDbEllipse
10
65.588982
20
7.364742
30
0
11
-5.35934686386771E-15
21
-5.00000000000028
31
0
210
0
220
0
230
1
40
0.996195
41
-1.55479036376001
42
-1.54499037067327
0
ELLIPSE
5
16D
100
AcDbEntity
8
1
62
256
6
ByLayer
370
-1
48
1
60
0
100
AcDbEllipse
10
70.568862
20
7.444768
30
0
11
1.16445136866418E-14
21
9.94022831811422
31
0
210
0
220
0
230
1
40
0.996195
41
1.57079632679489
42
1.58680228982978
0
ELLIPSE
5
16E
100
AcDbEntity
8
1
62
256
6
ByLayer
370
-1
48
1
60
0
100
AcDbEllipse
10
61.099906
20
7.399778
30
0
11
5.15706934637621E-16
21
0.4402283181146
31
0
210
0
220
0
230
1
40
0.996195
41
0.296705972839009
42
1.34390352403562
0
ELLIPSE
5
16F
100
AcDbEntity
8
1
62
256
6
ByLayer
370
-1
48
1
60
0
100
AcDbEllipse
10
64.711829
20
12.927403
30
0
11
1.16445136866418E-14
21
9.94022831811422
31
0
210
0
220
0
230
1
40
0.996195
41
-3.0877854465449
42
-3.07177948351001
0
ELLIPSE
5
170
100
AcDbEntity
8
1
62
256
6
ByLayer
370
-1
48
1
60
0
100
AcDbEllipse
10
60.839019
20
3.477329
30
0
11
5.78724697506073E-15
21
4.94022831811449
31
0
210
0
220
0
230
1
40
0.996195
41
-1.55479036376002
42
-1.54499037067327
0
ELLIPSE
5
171
100
AcDbEntity
8
1
62
256
6
ByLayer
370
-1
48
1
60
0
100
AcDbEllipse
10
61.052027
20
3.240619
30
0
11
2.81416266174357E-16
21
0.240228318114593
31
0
210
0
220
0
230
1
40
0.996195
41
1.64060949687462
42
1.86750229963381
0
ELLIPSE
5
172
100
AcDbEntity
8
1
62
256
6
ByLayer
370
-1
48
1
60
0
100
AcDbEllipse
10
55.86016
20
3.348314
30
0
11
-1.07186937277348E-14
21
-9.99999999999999
31
0
210
0
220
0
230
1
40
0.996195
41
1.59660228291656
42
1.60570291183479
0
ELLIPSE
5
173
100
AcDbEntity
8
1
62
256
6
ByLayer
370
-1
48
1
60
0
100
AcDbEllipse
10
61.198197
20
12.80422
30
0
11
-1.07186937277344E-14
21
-9.99999999999964
31
0
210
0
220
0
230
1
40
0.996195
41
0
42
0.0160059630348823
0
ELLIPSE
5
174
100
AcDbEntity
8
1
62
256
6
ByLayer
370
-1
48
1
60
0
100
AcDbEllipse
10
61.24256
20
3.299094
30
0
11
5.15706934637621E-16
21
0.4402283181146
31
0
210
0
220
0
230
1
40
0.996195
41
1.8675022996339
42
2.9146998508305
0
ELLIPSE
5
175
100
AcDbEntity
8
1
62
256
6
ByLayer
370
-1
48
1
60
0
100
AcDbEllipse
10
61.277463
20
7.80486
30
0
11
5.78724697506073E-15
21
4.94022831811449
31
0
210
0
220
0
230
1
40
0.996195
41
-3.12558669055492
42
-3.11578669746817
0
ELLIPSE
5
176
100
AcDbEntity
8
1
62
256
6
ByLayer
370
-1
48
1
60
0
100
AcDbEllipse
10
63.263002
20
5.421035
30
0
11
-1.49227999261524E-15
21
-1.3922218793825
31
0
210
0
220
0
230
1
40
0.996195
41
0
42
6.28318530717959
0
ELLIPSE
5
177
100
AcDbEntity
8
1
62
256
6
ByLayer
370
-1
48
1
60
0
100
AcDbEllipse
10
60.71019
20
7.19372
30
0
11
-5.35934686386771E-15
21
-5.00000000000028
31
0
210
0
220
0
230
1
40
0.996195
41
1.61480354075305
42
1.62460353383979
0
ELLIPSE
5
178
100
AcDbEntity
8
1
62
256
6
ByLayer
370
-1
48
1
60
0
100
AcDbEllipse
10
64.980167
20
7.934639
30
0
11
-5.35934686386771E-15
21
-5.00000000000028
31
0
210
0
220
0
230
1
40
0.996195
41
0.0440072139581497
42
0.0538072070448955
0
ELLIPSE
5
179
100
AcDbEntity
8
1
62
256
6
ByLayer
370
-1
48
1
60
0
100
AcDbEllipse
10
55.735969
20
6.924814
30
0
11
1.16445136866418E-14
21
9.94022831811422
31
0
210
0
220
0
230
1
40
0.996195
41
-1.51698911975
42
-1.50098315671511
0
ELLIPSE
5
17A
100
AcDbEntity
8
1
62
256
6
ByLayer
370
-1
48
1
60
0
100
AcDbEllipse
10
64.761039
20
12.929799
30
0
11
-1.07186937277348E-14
21
-9.99999999999999
31
0
210
0
220
0
230
1
40
0.996195
41
0.0349065850398896
42
0.0440072139581139
0
ELLIPSE
5
17B
100
AcDbEntity
8
1
62
256
6
ByLayer
370
-1
48
1
60
0
100
AcDbEllipse
10
70.692032
20
3.917257
30
0
11
-1.07186937277344E-14
21
-9.99999999999964
31
0
210
0
220
0
230
1
40
0.996195
41
-1.51698911975
42
-1.50098315671511
0
ELLIPSE
5
17C
100
AcDbEntity
8
1
62
256
6
ByLayer
370
-1
48
1
60
0
100
AcDbEllipse
10
55.85914
20
3.397303
30
0
11
-1.07186937277344E-14
21
-9.99999999999964
31
0
210
0
220
0
230
1
40
0.996195
41
1.57079632679489
42
1.58680228982978
0
ELLIPSE
5
17D
100
AcDbEntity
8
1
62
256
6
ByLayer
370
-1
48
1
60
0
100
AcDbEllipse
10
61.667418
20
-2.087728
30
0
11
-1.07186937277348E-14
21
-9.99999999999999
31
0
210
0
220
0
230
1
40
0.996195
41
-3.1066860685499
42
-3.09758543963168
0
ELLIPSE
5
17E
100
AcDbEntity
8
1
62
256
6
ByLayer
370
-1
48
1
60
0
100
AcDbEllipse
10
65.522228
20
3.397303
30
0
11
-3.21560811832037E-16
21
-0.299999999999993
31
0
210
0
220
0
230
1
40
0.996195
41
1.34390352403571
42
1.5707963267949
0
ELLIPSE
5
17F
100
AcDbEntity
8
1
62
256
6
ByLayer
370
-1
48
1
60
0
100
AcDbEllipse
10
61.100362
20
7.399778
30
0
11
-5.35934686386747E-16
21
-0.500000000000006
31
0
210
0
220
0
230
1
40
0.996195
41
-2.84488668075077
42
-1.79768912955415
0
ELLIPSE
5
180
100
AcDbEntity
8
1
62
256
6
ByLayer
370
-1
48
1
60
0
100
AcDbEllipse
10
65.717812
20
3.648351
30
0
11
5.78724697506073E-15
21
4.94022831811449
31
0
210
0
220
0
230
1
40
0.996195
41
1.61480354075305
42
1.62460353383979
0
ELLIPSE
5
181
100
AcDbEntity
8
1
62
256
6
ByLayer
370
-1
48
1
60
0
100
AcDbEllipse
10
65.385892
20
3.251032
30
0
11
2.81416266174357E-16
21
0.240228318114593
31
0
210
0
220
0
230
1
40
0.996195
41
-3.07177948351001
42
-2.84488668075085
0
ELLIPSE
5
182
100
AcDbEntity
8
1
62
256
6
ByLayer
370
-1
48
1
60
0
100
AcDbEllipse
10
60.709734
20
7.19372
30
0
11
5.78724697506073E-15
21
4.94022831811449
31
0
210
0
220
0
230
1
40
0.996195
41
-1.52678911283675
42
-1.51698911975
0
ELLIPSE
5
183
100
AcDbEntity
8
1
62
256
6
ByLayer
370
-1
48
1
60
0
100
AcDbEllipse
10
65.150083
20
3.037211
30
0
11
5.78724697506073E-15
21
4.94022831811449
31
0
210
0
220
0
230
1
40
0.996195
41
0.0160059630348813
42
0.0258059561216249
0
ELLIPSE
5
184
100
AcDbEntity
8
1
62
256
6
ByLayer
370
-1
48
1
60
0
100
AcDbEllipse
10
65.386348
20
3.251032
30
0
11
-3.21560811832037E-16
21
-0.299999999999993
31
0
210
0
220
0
230
1
40
0.996195
41
0.0698131700797568
42
0.296705972838997
0
ELLIPSE
5
185
100
AcDbEntity
8
1
62
256
6
ByLayer
370
-1
48
1
60
0
100
AcDbEllipse
10
55.736425
20
6.924814
30
0
11
-1.07186937277344E-14
21
-9.99999999999964
31
0
210
0
220
0
230
1
40
0.996195
41
1.62460353383979
42
1.64060949687468
0
ELLIPSE
5
186
100
AcDbEntity
8
1
62
256
6
ByLayer
370
-1
48
1
60
0
100
AcDbEllipse
10
65.230261
20
7.737851
30
0
11
-3.21560811832037E-16
21
-0.299999999999993
31
0
210
0
220
0
230
1
40
0.996195
41
2.91469985083062
42
-3.14159265358975
0
ELLIPSE
5
187
100
AcDbEntity
8
1
62
256
6
ByLayer
370
-1
48
1
60
0
100
AcDbEllipse
10
61.197741
20
3.10422
30
0
11
2.81416266174359E-16
21
0.240228318114594
31
0
210
0
220
0
230
1
40
0.996195
41
2.91469985083053
42
3.14159265358976
0
ELLIPSE
5
188
100
AcDbEntity
8
1
62
256
6
ByLayer
370
-1
48
1
60
0
100
AcDbEllipse
10
55.858684
20
3.397303
30
0
11
1.16445136866418E-14
21
9.94022831811422
31
0
210
0
220
0
230
1
40
0.996195
41
-1.5707963267949
42
-1.55479036376001
0
ELLIPSE
5
189
100
AcDbEntity
8
1
62
256
6
ByLayer
370
-1
48
1
60
0
100
AcDbEllipse
10
64.712285
20
12.927403
30
0
11
-1.07186937277344E-14
21
-9.99999999999964
31
0
210
0
220
0
230
1
40
0.996195
41
0.0538072070448948
42
0.069813170079785
0
ELLIPSE
5
18A
100
AcDbEntity
8
1
62
256
6
ByLayer
370
-1
48
1
60
0
100
AcDbEllipse
10
65.278607
20
-1.961125
30
0
11
1.16445136866421E-14
21
9.9402283181145
31
0
210
0
220
0
230
1
40
0.996195
41
0.0258059561216646
42
0.0349065850398869
0
ELLIPSE
5
18B
100
AcDbEntity
8
1
62
256
6
ByLayer
370
-1
48
1
60
0
100
AcDbEllipse
10
61.243016
20
3.299094
30
0
11
-5.35934686386747E-16
21
-0.500000000000006
31
0
210
0
220
0
230
1
40
0.996195
41
-1.27409035395589
42
-0.226892802759256
0
ELLIPSE
5
18C
100
AcDbEntity
8
1
62
256
6
ByLayer
370
-1
48
1
60
0
100
AcDbEllipse
10
65.230261
20
-1.962149
30
0
11
-1.07186937277344E-14
21
-9.99999999999964
31
0
210
0
220
0
230
1
40
0.996195
41
3.14159265358979
42
-3.12558669055491
0
ELLIPSE
5
18D
100
AcDbEntity
8
1
62
256
6
ByLayer
370
-1
48
1
60
0
100
AcDbEllipse
10
55.859704
20
3.348314
30
0
11
1.16445136866421E-14
21
9.9402283181145
31
0
210
0
220
0
230
1
40
0.996195
41
-1.54499037067323
42
-1.53588974175501
0
ELLIPSE
5
18E
100
AcDbEntity
8
1
62
256
6
ByLayer
370
-1
48
1
60
0
100
AcDbEllipse
10
61.666962
20
-2.087728
30
0
11
1.16445136866421E-14
21
9.94022831811449
31
0
210
0
220
0
230
1
40
0.996195
41
0.0349065850398883
42
0.044007213958111
0
ELLIPSE
5
18F
100
AcDbEntity
8
1
62
256
6
ByLayer
370
-1
48
1
60
0
100
AcDbEllipse
10
65.375519
20
7.601451
30
0
11
2.81416266174357E-16
21
0.240228318114593
31
0
210
0
220
0
230
1
40
0.996195
41
-1.50098315671512
42
-1.27409035395592
0
ELLIPSE
5
190
100
AcDbEntity
8
1
62
256
6
ByLayer
370
-1
48
1
60
0
100
AcDbEllipse
10
61.197741
20
12.80422
30
0
11
1.16445136866418E-14
21
9.94022831811422
31
0
210
0
220
0
230
1
40
0.996195
41
3.14159265358979
42
-3.12558669055491
0
ELLIPSE
5
191
100
AcDbEntity
8
1
62
256
6
ByLayer
370
-1
48
1
60
0
100
AcDbEllipse
10
61.04211
20
7.591039
30
0
11
-3.21560811832037E-16
21
-0.299999999999993
31
0
210
0
220
0
230
1
40
0.996195
41
-3.07177948351006
42
-2.84488668075081
0
ELLIPSE
5
192
100
AcDbEntity
8
1
62
256
6
ByLayer
370
-1
48
1
60
0
100
AcDbEllipse
10
60.839475
20
3.477329
30
0
11
-5.35934686386771E-15
21
-5.00000000000028
31
0
210
0
220
0
230
1
40
0.996195
41
1.58680228982978
42
1.59660228291653
0
ELLIPSE
5
193
100
AcDbEntity
8
1
62
256
6
ByLayer
370
-1
48
1
60
0
100
AcDbEllipse
10
65.185442
20
7.542977
30
0
11
-5.35934686386747E-16
21
-0.500000000000006
31
0
210
0
220
0
230
1
40
0.996195
41
1.8675022996339
42
2.91469985083053
0
ELLIPSE
5
194
100
AcDbEntity
8
1
62
256
6
ByLayer
370
-1
48
1
60
0
100
AcDbEllipse
10
61.149394
20
12.803195
30
0
11
-1.07186937277348E-14
21
-9.99999999999999
31
0
210
0
220
0
230
1
40
0.996195
41
0.0258059561216657
42
0.0349065850398889
0
ELLIPSE
5
195
100
AcDbEntity
8
1
62
256
6
ByLayer
370
-1
48
1
60
0
100
AcDbEllipse
10
61.052483
20
3.240619
30
0
11
-3.21560811832037E-16
21
-0.299999999999993
31
0
210
0
220
0
230
1
40
0.996195
41
-1.50098315671514
42
-1.27409035395593
0
ELLIPSE
5
196
100
AcDbEntity
8
1
62
256
6
ByLayer
370
-1
48
1
60
0
100
AcDbEllipse
10
65.229805
20
7.737851
30
0
11
2.81416266174359E-16
21
0.240228318114594
31
0
210
0
220
0
230
1
40
0.996195
41
-0.226892802759211
42
0
0
ELLIPSE
5
197
100
AcDbEntity
8
1
62
256
6
ByLayer
370
-1
48
1
60
0
100
AcDbEllipse
10
63.237541
20
5.421035
30
0
11
-1.62148435039036E-15
21
-1.51276302092179
31
0
210
0
220
0
230
1
40
0.996195
41
2.21551012181543
42
0
0
ELLIPSE
5
198
100
AcDbEntity
8
1
62
256
6
ByLayer
370
-1
48
1
60
0
100
AcDbEllipse
10
63.237541
20
5.421035
30
0
11
-1.62148435039036E-15
21
-1.51276302092179
31
0
210
0
220
0
230
1
40
0.996195
41
0
42
0.926082652221576
0
ELLIPSE
5
199
100
AcDbEntity
8
1
62
256
6
ByLayer
370
-1
48
1
60
0
100
AcDbEllipse
10
63.414687
20
5.421035
30
0
11
1.28859867654789E-15
21
1.09999999999999
31
0
210
0
220
0
230
1
40
0.996195
41
0.0349501466188263
42
1.57079627600045
0
ELLIPSE
5
19A
100
AcDbEntity
8
1
62
256
6
ByLayer
370
-1
48
1
60
0
100
AcDbEllipse
10
63.414687
20
5.421035
30
0
11
1.28859867654789E-15
21
1.09999999999999
31
0
210
0
220
0
230
1
40
0.996195
41
1.57079627600045
42
3.10350046494412
0
ELLIPSE
5
19B
100
AcDbEntity
8
1
62
256
6
ByLayer
370
-1
48
1
60
0
100
AcDbEllipse
10
60.905773
20
7.444768
30
0
11
2.81416266174359E-16
21
0.240228318114594
31
0
210
0
220
0
230
1
40
0.996195
41
1.34390352403567
42
1.57079632679487
0
ELLIPSE
5
19C
100
AcDbEntity
8
1
62
256
6
ByLayer
370
-1
48
1
60
0
100
AcDbEllipse
10
63.331403
20
5.421035
30
0
11
-1.17905631005081E-15
21
-1.09999999999998
31
0
210
0
220
0
230
1
40
0.996195
41
2.38957414604378
42
0
0
ELLIPSE
5
19D
100
AcDbEntity
8
1
62
256
6
ByLayer
370
-1
48
1
60
0
100
AcDbEllipse
10
63.331403
20
5.421035
30
0
11
-1.17905631005081E-15
21
-1.09999999999998
31
0
210
0
220
0
230
1
40
0.996195
41
0
42
0.302868754877695
0
ELLIPSE
5
19E
100
AcDbEntity
8
1
62
256
6
ByLayer
370
-1
48
1
60
0
100
AcDbEllipse
10
61.44829
20
2.907431
30
0
11
-5.35934686386771E-15
21
-5.00000000000028
31
0
210
0
220
0
230
1
40
0.996195
41
-3.09758543963164
42
-3.0877854465449
0
POINT
5
41
100
AcDbEntity
8
81
62
256
6
ByLayer
370
-1
48
1
60
0
100
AcDbPoint
10
66
20
0
30
0
39
0
210
0
220
0
230
1
50
360
0
POINT
5
43
100
AcDbEntity
8
80
62
256
6
ByLayer
370
-1
48
1
60
0
100
AcDbPoint
10
0
20
0
30
0
39
0
210
0
220
0
230
1
50
360
0
SPLINE
5
19F
100
AcDbEntity
8
1
62
256
6
ByLayer
370
-1
48
1
60
0
100
AcDbSpline
70
4
71
2
72
6
73
3
40
0
40
0
40
0
40
1
40
1
40
1
41
1
10
62.9881527781326
20
-1.18638040116872
30
0
41
1
10
63.1024443028369
20
-1.13513796089677
30
0
41
1
10
63.235374019883
20
-1.14475155223965
30
0
0
SPLINE
5
1A0
100
AcDbEntity
8
1
62
256
6
ByLayer
370
-1
48
1
60
0
100
AcDbSpline
70
4
71
2
72
6
73
3
40
0
40
0
40
0
40
1
40
1
40
1
41
1
10
63.235374019883
20
-1.14475155223965
30
0
41
1
10
63.4089333339932
20
-1.13379992593406
30
0
41
1
10
63.5761413658457
20
-1.18861052641321
30
0
0
SPLINE
5
1A1
100
AcDbEntity
8
1
62
256
6
ByLayer
370
-1
48
1
60
0
100
AcDbSpline
70
4
71
3
72
15
73
11
40
0
40
0
40
0
40
0
40
0.0683513766299166
40
0.204004700966062
40
0.339209781763194
40
0.474126778685934
40
0.608984659091675
40
0.743962084356522
40
0.879279528072067
40
1
40
1
40
1
40
1
41
1
10
64.0670347283144
20
6.21845142702594
30
0
41
1
10
64.1086758845295
20
6.18607109592057
30
0
41
1
10
64.2219873615367
20
6.08117266119274
30
0
41
1
10
64.3507244658946
20
5.84916124572243
30
0
41
1
10
64.4306998816509
20
5.54626806425236
30
0
41
1
10
64.4211130687855
20
5.23140238064906
30
0
41
1
10
64.3254353095244
20
4.9325308620011
30
0
41
1
10
64.1511855927482
20
4.67318439257576
30
0
41
1
10
63.920149559909
20
4.47808749601938
30
0
41
1
10
63.7438645806447
20
4.40106038595249
30
0
41
1
10
63.6541135594863
20
4.37475149218733
30
0
0
SPLINE
5
1A2
100
AcDbEntity
8
1
62
256
6
ByLayer
370
-1
48
1
60
0
100
AcDbSpline
70
4
71
3
72
16
73
12
40
0
40
0
40
0
40
0
40
0.113499369062707
40
0.228894118636568
40
0.34236978756494
40
0.456830875265492
40
0.570384050745886
40
0.679924338794568
40
0.787223033289853
40
0.893145354065585
40
1
40
1
40
1
40
1
41
1
10
15
20
7.69999999999996
30
0
41
1
10
14.5589909686042
20
7.70186725158788
30
0
41
1
10
13.7046050905823
20
7.81435643175411
30
0
41
1
10
12.4761710782579
20
8.30648343003074
30
0
41
1
10
11.4616168775191
20
9.13698374435307
30
0
41
1
10
10.5447654488113
20
10.0503068994081
30
0
41
1
10
9.53739816762763
20
10.8445332011177
30
0
41
1
10
8.48731636055123
20
11.5315485641391
30
0
41
1
10
7.38223844440262
20
12.065236561132
30
0
41
1
10
6.21162489739845
20
12.4183964698104
30
0
41
1
10
5.41040105420043
20
12.496767803646
30
0
41
1
10
5.00000000000003
20
12.5
30
0
0
SPLINE
5
1A3
100
AcDbEntity
8
1
62
256
6
ByLayer
370
-1
48
1
60
0
100
AcDbSpline
70
4
71
3
72
17
73
13
40
0
40
0
40
0
40
0
40
0.108733321936019
40
0.216555084290396
40
0.325857388148454
40
0.437492303678674
40
0.551114871996234
40
0.641037117384171
40
0.72998431853419
40
0.820413604098029
40
0.911050079046254
40
1
40
1
40
1
40
1
41
1
10
4.99999999999997
20
-12.5
30
0
41
1
10
5.41793361260571
20
-12.4965470575369
30
0
41
1
10
6.2334906111098
20
-12.415397825607
30
0
41
1
10
7.4242403517766
20
-12.0498286007846
30
0
41
1
10
8.54636075259654
20
-11.4982673239808
30
0
41
1
10
9.6062649243662
20
-10.7959381616523
30
0
41
1
10
10.5382223420201
20
-10.0438538158839
30
0
41
1
10
11.3425478252431
20
-9.28123831019667
30
0
41
1
10
12.0919341245088
20
-8.58062101065886
30
0
41
1
10
12.9971701897937
20
-8.08173747077538
30
0
41
1
10
13.9815205914305
20
-7.76866636986276
30
0
41
1
10
14.6574512483385
20
-7.70070620460766
30
0
41
1
10
15
20
-7.70000000000002
30
0
0
SPLINE
5
1A4
100
AcDbEntity
8
SK1
62
256
6
ByLayer
370
-1
48
1
60
0
100
AcDbSpline
70
4
71
3
72
8
73
4
40
0
40
0
40
0
40
0
40
1
40
1
40
1
40
1
41
1
10
-50
20
4.0108197416489
30
0
41
1
10
-49.7054172377832
20
4.67160422878337
30
0
41
1
10
-49.3659298245044
20
5.30522565672777
30
0
41
1
10
-49
20
5.92285193129126
30
0
0
SPLINE
5
1A5
100
AcDbEntity
8
1
62
256
6
ByLayer
370
-1
48
1
60
0
100
AcDbSpline
70
4
71
2
72
6
73
3
40
0
40
0
40
0
40
1
40
1
40
1
41
1
10
7.48453220436099
20
1.98668827159577
30
0
41
1
10
7.48453220436102
20
1.32129436461992
30
0
41
1
10
7.48453220436102
20
0.655900457644037
30
0
0
SPLINE
5
1A6
100
AcDbEntity
8
1
62
256
6
ByLayer
370
-1
48
1
60
0
100
AcDbSpline
70
4
71
2
72
6
73
3
40
0
40
0
40
0
40
1
40
1
40
1
41
1
10
14.4253954070317
20
-5.11481058764281
30
0
41
1
10
14.4253954070317
20
-5.31768517763356
30
0
41
1
10
14.4253954070317
20
-5.52055976762429
30
0
0
SPLINE
5
1A7
100
AcDbEntity
8
1
62
256
6
ByLayer
370
-1
48
1
60
0
100
AcDbSpline
70
4
71
3
72
8
73
4
40
0
40
0
40
0
40
0
40
1
40
1
40
1
40
1
41
1
10
58.9602509237688
20
2.57781005667962
30
0
41
1
10
59.0161988335031
20
2.57786503585621
30
0
41
1
10
59.072098210625
20
2.57887771615935
30
0
41
1
10
59.127947108618
20
2.5808535550203
30
0
0
SPLINE
5
1A8
100
AcDbEntity
8
1
62
256
6
ByLayer
370
-1
48
1
60
0
100
AcDbSpline
70
4
71
3
72
20
73
16
40
0
40
0
40
0
40
0
40
0.250000000000004
40
0.250000000000004
40
0.375000000000006
40
0.375000000000006
40
0.500000000000008
40
0.500000000000008
40
0.562500000000009
40
0.562500000000009
40
0.62500000000001
40
0.62500000000001
40
0.750000000000007
40
0.750000000000007
40
1
40
1
40
1
40
1
41
1
10
54.8020412552896
20
7.65247230957985
30
0
41
1
10
54.7100729679855
20
7.39609682548695
30
0
41
1
10
54.593032464891
20
7.15375116140714
30
0
41
1
10
54.3495308023349
20
6.8282507933034
30
0
41
1
10
54.2592549933988
20
6.72952288071235
30
0
41
1
10
54.0633395031826
20
6.55276472205574
30
0
41
1
10
53.957439402266
20
6.47429571914623
30
0
41
1
10
53.7886079243303
20
6.36904641746011
30
0
41
1
10
53.730550713977
20
6.33598468640051
30
0
41
1
10
53.6135499646171
20
6.27450666486615
30
0
41
1
10
53.5543596854
20
6.24592150802255
30
0
41
1
10
53.3750968951643
20
6.16544824468897
30
0
41
1
10
53.2533513019383
20
6.11878343284721
30
0
41
1
10
52.8835955111374
20
5.99289716636932
30
0
41
1
10
52.6312036945762
20
5.92735494811438
30
0
41
1
10
52.3760956218001
20
5.87029277135804
30
0
0
SPLINE
5
1A9
100
AcDbEntity
8
1
62
256
6
ByLayer
370
-1
48
1
60
0
100
AcDbSpline
70
4
71
3
72
8
73
4
40
0
40
0
40
0
40
0
40
1
40
1
40
1
40
1
41
1
10
11.5845322043611
20
-2.9805981516952
30
0
41
1
10
11.5845322043611
20
-3.50627749700288
30
0
41
1
10
11.5845322043611
20
-4.03195684231056
30
0
41
1
10
11.5845322043611
20
-4.55763618761824
30
0
0
SPLINE
5
1AA
100
AcDbEntity
8
1
62
256
6
ByLayer
370
-1
48
1
60
0
100
AcDbSpline
70
4
71
3
72
34
73
30
40
0
40
0
40
0
40
0
40
0.0403902618797971
40
0.0403902618797971
40
0.114206395581352
40
0.114206395581352
40
0.188022529282906
40
0.188022529282906
40
0.261838662984461
40
0.261838662984461
40
0.335654796686015
40
0.335654796686015
40
0.409470930387569
40
0.409470930387569
40
0.483287064089123
40
0.483287064089123
40
0.557103197790677
40
0.557103197790677
40
0.630919331492231
40
0.630919331492231
40
0.704735465193785
40
0.704735465193785
40
0.778551598895338
40
0.778551598895338
40
0.852367732596892
40
0.852367732596892
40
0.926183866298446
40
0.926183866298446
40
1
40
1
40
1
40
1
41
1
10
44.1194521168459
20
-5.25230761205762
30
0
41
1
10
43.7194197994691
20
-5.35812813895296
30
0
41
1
10
43.3195599793993
20
-5.46036481464429
30
0
41
1
10
42.1897637322267
20
-5.73873618195972
30
0
41
1
10
41.4600868502135
20
-5.90620730897592
30
0
41
1
10
40.0006582214492
20
-6.21554083570311
30
0
41
1
10
39.2709130184308
20
-6.35754362346563
30
0
41
1
10
37.8103328726984
20
-6.61295601256964
30
0
41
1
10
37.0789051149875
20
-6.72686154356913
30
0
41
1
10
35.6161581321072
20
-6.92420634794942
30
0
41
1
10
34.8857910777557
20
-7.00806451888744
30
0
41
1
10
33.4260863215426
20
-7.14287947996709
30
0
41
1
10
32.6967489844456
20
-7.19354013432596
30
0
41
1
10
31.2376918695131
20
-7.26198847542614
30
0
41
1
10
30.5079924596043
20
-7.27961204008875
30
0
41
1
10
29.0469126011893
20
-7.28206165667766
30
0
41
1
10
28.3149390496063
20
-7.26640725806573
30
0
41
1
10
26.8526897685349
20
-7.2051260998289
30
0
41
1
10
26.1219815073338
20
-7.16018349830532
30
0
41
1
10
24.6605204946011
20
-7.04263976312254
30
0
41
1
10
23.9298168115704
20
-6.97008805748371
30
0
41
1
10
22.4679325097582
20
-6.78920700554707
30
0
41
1
10
21.7361537782951
20
-6.68013117597138
30
0
41
1
10
20.2727993386658
20
-6.43938990179598
30
0
41
1
10
19.5416321263665
20
-6.30759316771093
30
0
41
1
10
18.0804398809952
20
-6.01230067950627
30
0
41
1
10
17.3501296961813
20
-5.85072841413026
30
0
41
1
10
15.8886243605881
20
-5.50345642288764
30
0
41
1
10
15.1575569701177
20
-5.31594671862047
30
0
41
1
10
14.4253954070318
20
-5.11680181173406
30
0
0
SPLINE
5
1AB
100
AcDbEntity
8
1
62
256
6
ByLayer
370
-1
48
1
60
0
100
AcDbSpline
70
4
71
1
72
4
73
2
40
0
40
0
40
1
40
1
41
1
10
16.5566708328039
20
2.97657923184778
30
0
41
1
10
16.556670832804
20
4.93445014659665
30
0
0
SPLINE
5
1AC
100
AcDbEntity
8
1
62
256
6
ByLayer
370
-1
48
1
60
0
100
AcDbSpline
70
4
71
3
72
12
73
8
40
0
40
0
40
0
40
0
40
0.5
40
0.5
40
0.75
40
0.75
40
1
40
1
40
1
40
1
41
1
10
58.6899193690624
20
0.971665443823042
30
0
41
1
10
58.2944615471296
20
0.9478680969614
30
0
41
1
10
57.9042441933631
20
0.973582011460365
30
0
41
1
10
57.3267635153605
20
1.08596715518982
30
0
41
1
10
57.1345501966662
20
1.13630167977044
30
0
41
1
10
56.7603515217741
20
1.26101081351197
30
0
41
1
10
56.577928731853
20
1.33531303341931
30
0
41
1
10
56.400327609901
20
1.42175510085244
30
0
0
SPLINE
5
1AD
100
AcDbEntity
8
1
62
256
6
ByLayer
370
-1
48
1
60
0
100
AcDbSpline
70
4
71
3
72
18
73
14
40
0
40
0
40
0
40
0
40
0.103083235514835
40
0.103083235514835
40
0.402055490343223
40
0.402055490343223
40
0.551541617757417
40
0.551541617757417
40
0.701027745171612
40
0.701027745171612
40
0.850513872585806
40
0.850513872585806
40
1
40
1
40
1
40
1
41
1
10
57.1469645911221
20
1.82745310721293
30
0
41
1
10
57.1601110968548
20
1.84037129351938
30
0
41
1
10
57.1721647453634
20
1.85651733725001
30
0
41
1
10
57.2147303484617
20
1.93211626378715
30
0
41
1
10
57.2355583201616
20
2.01339284413416
30
0
41
1
10
57.2489516640121
20
2.16947292510434
30
0
41
1
10
57.2504013387237
20
2.2274125668057
30
0
41
1
10
57.246539928817
20
2.35402803368461
30
0
41
1
10
57.2412691311154
20
2.42187925880088
30
0
41
1
10
57.2236342741901
20
2.5658262211214
30
0
41
1
10
57.2112726575693
20
2.64192635182371
30
0
41
1
10
57.1786644452745
20
2.80171857280203
30
0
41
1
10
57.1583505102196
20
2.88566849364474
30
0
41
1
10
57.1336075690302
20
2.97256304688881
30
0
0
SPLINE
5
1AE
100
AcDbEntity
8
1
62
256
6
ByLayer
370
-1
48
1
60
0
100
AcDbSpline
70
4
71
3
72
8
73
4
40
0
40
0
40
0
40
0
40
1
40
1
40
1
40
1
41
1
10
15
20
5.57372649195233
30
0
41
1
10
15.5372830925925
20
5.39459188011952
30
0
41
1
10
16.0542234579919
20
5.18138007320252
30
0
41
1
10
16.556670832804
20
4.93445014659665
30
0
0
SPLINE
5
1AF
100
AcDbEntity
8
1
62
256
6
ByLayer
370
-1
48
1
60
0
100
AcDbSpline
70
4
71
3
72
14
73
10
40
0
40
0
40
0
40
0
40
0.176718514570804
40
0.176718514570804
40
0.353437029141607
40
0.353437029141607
40
0.706874058283214
40
0.706874058283214
40
1
40
1
40
1
40
1
41
1
10
60.4995491318626
20
5.35342077048733
30
0
41
1
10
60.5019569368943
20
5.35342077048733
30
0
41
1
10
60.5060914118897
20
5.35665243949558
30
0
41
1
10
60.5174625552201
20
5.3685965139301
30
0
41
1
10
60.5247708523369
20
5.37739985768633
30
0
41
1
10
60.549885883544
20
5.40886858759083
30
0
41
1
10
60.5713662126973
20
5.43700396762605
30
0
41
1
10
60.6161749242302
20
5.49230596300555
30
0
41
1
10
60.6385751019379
20
5.51890512737148
30
0
41
1
10
60.6631633376576
20
5.54625499744168
30
0
0
SPLINE
5
1B0
100
AcDbEntity
8
1
62
256
6
ByLayer
370
-1
48
1
60
0
100
AcDbSpline
70
4
71
3
72
30
73
26
40
0
40
0
40
0
40
0
40
0.0083415687708154
40
0.0666744176666498
40
0.125007266562484
40
0.183340115458319
40
0.241672964354153
40
0.300005813249987
40
0.358338662145822
40
0.416671511041656
40
0.47500435993749
40
0.533337208833325
40
0.562503633281242
40
0.591670057729159
40
0.620836482177077
40
0.650002906624994
40
0.679169331072911
40
0.708335755520828
40
0.766668604416663
40
0.825001453312497
40
0.854167877760414
40
0.883334302208331
40
0.89791751443229
40
0.941667151104166
40
1
40
1
40
1
40
1
41
1
10
27.0827770832858
20
1.10821346615512
30
0
41
1
10
27.0534825970398
20
1.1142718150424
30
0
41
1
10
26.8193282091813
20
1.16266390401032
30
0
41
1
10
26.3802739583246
20
1.25287302092937
30
0
41
1
10
25.7656411626328
20
1.37759999521407
30
0
41
1
10
25.1511927137086
20
1.49954832581409
30
0
41
1
10
24.5368345266865
20
1.61849413739714
30
0
41
1
10
23.9220183203607
20
1.73512227585277
30
0
41
1
10
23.3065117277884
20
1.85050683047589
30
0
41
1
10
22.6908668209901
20
1.96492668855063
30
0
41
1
10
22.0761685188622
20
2.07784745892687
30
0
41
1
10
21.5651532264812
20
2.16990839971308
30
0
41
1
10
21.1569116582831
20
2.24190976811138
30
0
41
1
10
20.8506441025897
20
2.29515472354089
30
0
41
1
10
20.5440217913292
20
2.34777101670193
30
0
41
1
10
20.2368309540214
20
2.39991972934141
30
0
41
1
10
19.9293823430266
20
2.45164951627058
30
0
41
1
10
19.5197153367267
20
2.51981396674873
30
0
41
1
10
19.0080944508854
20
2.6035339068477
30
0
41
1
10
18.4972995568897
20
2.68506578393223
30
0
41
1
10
18.0891246173891
20
2.74874613314486
30
0
41
1
10
17.8342119229559
20
2.78785065545367
30
0
41
1
10
17.5283022280341
20
2.83414856842174
30
0
41
1
10
17.1198532448734
20
2.89496235747245
30
0
41
1
10
16.7616485881266
20
2.9470983171542
30
0
41
1
10
16.5566708328067
20
2.97657923184701
30
0
0
SPLINE
5
1B1
100
AcDbEntity
8
1
62
256
6
ByLayer
370
-1
48
1
60
0
100
AcDbSpline
70
4
71
3
72
16
73
12
40
0
40
0
40
0
40
0
40
0.054764408275206
40
0.054764408275206
40
0.291073306206404
40
0.291073306206404
40
0.527382204137603
40
0.527382204137603
40
0.763691102068802
40
0.763691102068802
40
1
40
1
40
1
40
1
41
1
10
44.6000529617262
20
6.14554253253178
30
0
41
1
10
44.7866491801109
20
6.19091794322469
30
0
41
1
10
44.9733658445003
20
6.235455983186
30
0
41
1
10
45.966454259264
20
6.4676305249672
30
0
41
1
10
46.77135795346
20
6.6390669059042
30
0
41
1
10
48.3784207464831
20
6.94503224814039
30
0
41
1
10
49.1808667086958
20
7.07971241387551
30
0
41
1
10
50.78538086586
20
7.31073282571555
30
0
41
1
10
51.5875166749991
20
7.40701598707179
30
0
41
1
10
53.1932730021665
20
7.55982430123996
30
0
41
1
10
53.9967244473045
20
7.61640620446838
30
0
41
1
10
54.80204125529
20
7.65247230956433
30
0
0
SPLINE
5
1B2
100
AcDbEntity
8
1
62
256
6
ByLayer
370
-1
48
1
60
0
100
AcDbSpline
70
4
71
3
72
14
73
10
40
0
40
0
40
0
40
0
40
0.25
40
0.25
40
0.5
40
0.5
40
0.75
40
0.75
40
1
40
1
40
1
40
1
41
1
10
56.8377730251898
20
3.69542615950428
30
0
41
1
10
56.842274908378
20
3.6354341874065
30
0
41
1
10
56.8512146843641
20
3.57658211211464
30
0
41
1
10
56.8748148256959
20
3.46578742381533
30
0
41
1
10
56.8895001644522
20
3.4132718632417
30
0
41
1
10
56.9234183696846
20
3.31324589098225
30
0
41
1
10
56.9427750124207
20
3.26560822763864
30
0
41
1
10
56.98447224428
20
3.17764243841435
30
0
41
1
10
57.0069198151943
20
3.13695906493641
30
0
41
1
10
57.0308825794331
20
3.09949536197456
30
0
0
SPLINE
5
1B3
100
AcDbEntity
8
1
62
256
6
ByLayer
370
-1
48
1
60
0
100
AcDbSpline
70
4
71
3
72
16
73
12
40
0
40
0
40
0
40
0
40
0.25
40
0.25
40
0.5
40
0.5
40
0.625
40
0.625
40
0.75
40
0.75
40
1
40
1
40
1
40
1
41
1
10
7.48453220436141
20
0.655900457646396
30
0
41
1
10
7.39826730605796
20
0.903492993913147
30
0
41
1
10
7.33025632947428
20
1.15369017812537
30
0
41
1
10
7.21842322164153
20
1.65727058754047
30
0
41
1
10
7.17476003143349
20
1.91067829125879
30
0
41
1
10
7.12231217920436
20
2.29229496676834
30
0
41
1
10
7.10703002894962
20
2.41975532443149
30
0
41
1
10
7.08020879279493
20
2.6750670077295
30
0
41
1
10
7.06869189358972
20
2.80281416445419
30
0
41
1
10
7.03915198132393
20
3.18242246008285
30
0
41
1
10
7.02593279785759
20
3.43209617411094
30
0
41
1
10
7.01696123035489
20
3.67865174896139
30
0
0
SPLINE
5
1B4
100
AcDbEntity
8
1
62
256
6
ByLayer
370
-1
48
1
60
0
100
AcDbSpline
70
4
71
3
72
44
73
40
40
0
40
0
40
0
40
0
40
0.249999999999999
40
0.249999999999999
40
0.374999999999996
40
0.374999999999996
40
0.499999999999994
40
0.499999999999994
40
0.562499999999993
40
0.562499999999993
40
0.624999999999992
40
0.624999999999992
40
0.656249999999992
40
0.656249999999992
40
0.687499999999991
40
0.687499999999991
40
0.718749999999991
40
0.718749999999991
40
0.734374999999989
40
0.734374999999989
40
0.749999999999987
40
0.749999999999987
40
0.757812499999987
40
0.757812499999987
40
0.765624999999986
40
0.765624999999986
40
0.781249999999986
40
0.781249999999986
40
0.796874999999986
40
0.796874999999986
40
0.812499999999985
40
0.812499999999985
40
0.843749999999988
40
0.843749999999988
40
0.87499999999999
40
0.87499999999999
40
0.937499999999995
40
0.937499999999995
40
1
40
1
40
1
40
1
41
1
10
55.6187398755107
20
4.69098000915528
30
0
41
1
10
55.0896359359681
20
4.67189199092377
30
0
41
1
10
54.5603051084648
20
4.66036178994835
30
0
41
1
10
53.768043690558
20
4.66855720557919
30
0
41
1
10
53.5042336210594
20
4.67531931364269
30
0
41
1
10
52.9775931729759
20
4.69964925662197
30
0
41
1
10
52.7147443695632
20
4.71701811335552
30
0
41
1
10
52.3218302570175
20
4.75641496318815
30
0
41
1
10
52.1911702075965
20
4.77180846955179
30
0
41
1
10
51.9317372667894
20
4.80929142185994
30
0
41
1
10
51.8028374814172
20
4.83127616062006
30
0
41
1
10
51.6116415031614
20
4.87302300217078
30
0
41
1
10
51.5481765788472
20
4.88845208698743
30
0
41
1
10
51.4231755299549
20
4.92362297121204
30
0
41
1
10
51.361551488274
20
4.94329636865893
30
0
41
1
10
51.2414128467236
20
4.99020550568659
30
0
41
1
10
51.1821111353983
20
5.0173630191957
30
0
41
1
10
51.1020020445316
20
5.07028056140948
30
0
41
1
10
51.0764768809028
20
5.09017094659063
30
0
41
1
10
51.0328772963113
20
5.13774942996935
30
0
41
1
10
51.0148661659566
20
5.16559764627232
30
0
41
1
10
51.0041949401304
20
5.21411424845346
30
0
41
1
10
51.0035775532592
20
5.23094661024172
30
0
41
1
10
51.0086007707218
20
5.26469382683092
30
0
41
1
10
51.0140818268118
20
5.28099323745343
30
0
41
1
10
51.0367985833968
20
5.32764243391452
30
0
41
1
10
51.0591567107255
20
5.35444992037466
30
0
41
1
10
51.1081522980105
20
5.40238724034395
30
0
41
1
10
51.1349000754733
20
5.42345653225402
30
0
41
1
10
51.1907358158402
20
5.46257157517653
30
0
41
1
10
51.2197500653351
20
5.48044930137465
30
0
41
1
10
51.3076016455798
20
5.53028392844169
30
0
41
1
10
51.3678311757709
20
5.55893503300786
30
0
41
1
10
51.4899430769787
20
5.61163131326865
30
0
41
1
10
51.5518717904768
20
5.63555163401421
30
0
41
1
10
51.739328944983
20
5.7026236264314
30
0
41
1
10
51.8661097202489
20
5.74102217071228
30
0
41
1
10
52.1202818124099
20
5.8105515568509
30
0
41
1
10
52.2479867888686
20
5.84163758695379
30
0
41
1
10
52.3760956217998
20
5.8702927713594
30
0
0
SPLINE
5
1B5
100
AcDbEntity
8
1
62
256
6
ByLayer
370
-1
48
1
60
0
100
AcDbSpline
70
4
71
3
72
18
73
14
40
0
40
0
40
0
40
0
40
0.249999999999999
40
0.249999999999999
40
0.374999999999999
40
0.374999999999999
40
0.499999999999999
40
0.499999999999999
40
0.749999999999999
40
0.749999999999999
40
0.874999999999999
40
0.874999999999999
40
1
40
1
40
1
40
1
41
1
10
11.5845322043611
20
-4.55763618761827
30
0
41
1
10
11.7272209456563
20
-4.72324216160013
30
0
41
1
10
11.8963143440058
20
-4.8476624297266
30
0
41
1
10
12.1880574759162
20
-5.00180461490575
30
0
41
1
10
12.2917111116018
20
-5.04755028153471
30
0
41
1
10
12.5122234683311
20
-5.13083681656016
30
0
41
1
10
12.6285506892047
20
-5.16812064799919
30
0
41
1
10
12.9905751887243
20
-5.26967782193216
30
0
41
1
10
13.2510938097511
20
-5.32456230571188
30
0
41
1
10
13.6728929028194
20
-5.40090028656425
30
0
41
1
10
13.8188656953151
20
-5.42531112310664
30
0
41
1
10
14.116748870029
20
-5.4731092741508
30
0
41
1
10
14.2692349961568
20
-5.49660086441005
30
0
41
1
10
14.4253954068477
20
-5.52055976759172
30
0
0
SPLINE
5
1B6
100
AcDbEntity
8
1
62
256
6
ByLayer
370
-1
48
1
60
0
100
AcDbSpline
70
4
71
3
72
70
73
66
40
-0.03125
40
-0.03125
40
0
40
0
40
0.03125
40
0.03125
40
0.0625
40
0.0625
40
0.09375
40
0.09375
40
0.125
40
0.125
40
0.15625
40
0.15625
40
0.1875
40
0.1875
40
0.21875
40
0.21875
40
0.25
40
0.25
40
0.28125
40
0.28125
40
0.3125
40
0.3125
40
0.34375
40
0.34375
40
0.375
40
0.375
40
0.40625
40
0.40625
40
0.4375
40
0.4375
40
0.46875
40
0.46875
40
0.5
40
0.5
40
0.53125
40
0.53125
40
0.5625
40
0.5625
40
0.59375
40
0.59375
40
0.625
40
0.625
40
0.65625
40
0.65625
40
0.6875
40
0.6875
40
0.71875
40
0.71875
40
0.75
40
0.75
40
0.78125
40
0.78125
40
0.8125
40
0.8125
40
0.84375
40
0.84375
40
0.875
40
0.875
40
0.90625
40
0.90625
40
0.9375
40
0.9375
40
0.96875
40
0.96875
40
1
40
1
40
1.03125
40
1.03125
41
1
10
62.048017432982
20
-1.81860406515463
30
0
41
1
10
62.0405677229707
20
-1.67413179426038
30
0
41
1
10
62.0437210146234
20
-1.60244466294824
30
0
41
1
10
62.0635803809489
20
-1.46017317063712
30
0
41
1
10
62.0805566052713
20
-1.38886769633223
30
0
41
1
10
62.1280133570244
20
-1.25125121445743
30
0
41
1
10
62.1581671805777
20
-1.18536844975475
30
0
41
1
10
62.2314027289837
20
-1.05956683312598
30
0
41
1
10
62.275044572755
20
-0.999179225973421
30
0
41
1
10
62.3721189573345
20
-0.889822336547809
30
0
41
1
10
62.4257500995743
20
-0.840248173310442
30
0
41
1
10
62.543444144922
20
-0.751627892449392
30
0
41
1
10
62.6071106561228
20
-0.713103530430828
30
0
41
1
10
62.7393419442998
20
-0.650226629352062
30
0
41
1
10
62.8089406545986
20
-0.625280341226926
30
0
41
1
10
62.9527709738022
20
-0.589779791146867
30
0
41
1
10
63.0253949910704
20
-0.579529122388692
30
0
41
1
10
63.1720201257463
20
-0.573610894369835
30
0
41
1
10
63.2467998438651
20
-0.578161830564
30
0
41
1
10
63.3918759829872
20
-0.601908480354126
30
0
41
1
10
63.4626328558994
20
-0.620927559554161
30
0
41
1
10
63.600541189145
20
-0.673403744890464
30
0
41
1
10
63.6670780403338
20
-0.70682135818268
30
0
41
1
10
63.7906534085286
20
-0.785237760269069
30
0
41
1
10
63.8487509379915
20
-0.830805476439167
30
0
41
1
10
63.9551654718842
20
-0.933205347810372
30
0
41
1
10
64.0024167629692
20
-0.988885126072461
30
0
41
1
10
64.0854745037544
20
-1.10877112907818
30
0
41
1
10
64.121498149971
20
-1.17370456764198
30
0
41
1
10
64.1792621110772
20
-1.30717042160441
30
0
41
1
10
64.2013835223904
20
-1.37600271146826
30
0
41
1
10
64.2322991969504
20
-1.51773764528005
30
0
41
1
10
64.2408401671346
20
-1.59022493338267
30
0
41
1
10
64.2441306478145
20
-1.73336471611535
30
0
41
1
10
64.2390357327349
20
-1.80483703021434
30
0
41
1
10
64.2152272093311
20
-1.94689560879453
30
0
41
1
10
64.19685777911
20
-2.0155803769581
30
0
41
1
10
64.1477803793616
20
-2.14854195921575
30
0
41
1
10
64.1167109565101
20
-2.21338355051296
30
0
41
1
10
64.0431557171939
20
-2.33559632881929
30
0
41
1
10
64.001061562858
20
-2.39259807585916
30
0
41
1
10
63.9061404136812
20
-2.49849634688073
30
0
41
1
10
63.852607592396
20
-2.54785831924696
30
0
41
1
10
63.7378789750331
20
-2.63443324897406
30
0
41
1
10
63.6766803190783
20
-2.67192420207155
30
0
41
1
10
63.5462163382226
20
-2.73492455097707
30
0
41
1
10
63.4763050963291
20
-2.76043314993615
30
0
41
1
10
63.3347984598249
20
-2.79615418190622
30
0
41
1
10
63.2624880896121
20
-2.80684047182248
30
0
41
1
10
63.1145834037508
20
-2.81316039919483
30
0
41
1
10
63.0404934725355
20
-2.80858871281436
30
0
41
1
10
62.8960482496386
20
-2.78476728477159
30
0
41
1
10
62.8242505118227
20
-2.76518965665375
30
0
41
1
10
62.6878725890833
20
-2.71265564928061
30
0
41
1
10
62.623282966756
20
-2.67993979648145
30
0
41
1
10
62.500959883088
20
-2.60203074268233
30
0
41
1
10
62.4438207727457
20
-2.55704086324755
30
0
41
1
10
62.3405277951757
20
-2.45836033527954
30
0
41
1
10
62.2935198682907
20
-2.40391504477458
30
0
41
1
10
62.2106761549095
20
-2.28710636087598
30
0
41
1
10
62.1753406507221
20
-2.22561837890498
30
0
41
1
10
62.116354740731
20
-2.09657930708571
30
0
41
1
10
62.0925975303711
20
-2.02839593094907
30
0
41
1
10
62.0585248885254
20
-1.88946921649685
30
0
41
1
10
62.048017432982
20
-1.81860406515463
30
0
41
1
10
62.0405677229707
20
-1.67413179426038
30
0
0
SPLINE
5
1B7
100
AcDbEntity
8
1
62
256
6
ByLayer
370
-1
48
1
60
0
100
AcDbSpline
70
4
71
3
72
10
73
6
40
0
40
0
40
0
40
0
40
0.5
40
0.5
40
1
40
1
40
1
40
1
41
1
10
57.543509180224
20
2.79138628323082
30
0
41
1
10
57.764494547953
20
2.72208251910584
30
0
41
1
10
57.9921879968243
20
2.66897983267518
30
0
41
1
10
58.4637133411589
20
2.59671872338117
30
0
41
1
10
58.7075890160432
20
2.57756176959015
30
0
41
1
10
58.9602509237777
20
2.57781005667962
30
0
0
SPLINE
5
1B8
100
AcDbEntity
8
1
62
256
6
ByLayer
370
-1
48
1
60
0
100
AcDbSpline
70
4
71
3
72
8
73
4
40
0
40
0
40
0
40
0
40
1
40
1
40
1
40
1
41
1
10
12.060494196776
20
6.8779670792461
30
0
41
1
10
13.5942257770119
20
5.57079206825946
30
0
41
1
10
15.0845931795909
20
4.26307663955717
30
0
41
1
10
16.5566708328039
20
2.97657923184778
30
0
0
SPLINE
5
1B9
100
AcDbEntity
8
1
62
256
6
ByLayer
370
-1
48
1
60
0
100
AcDbSpline
70
4
71
3
72
8
73
4
40
0
40
0
40
0
40
0
40
1
40
1
40
1
40
1
41
1
10
59.127947108618
20
2.5808535550203
30
0
41
1
10
59.3661800320319
20
2.58928182997079
30
0
41
1
10
59.592275581523
20
2.59739036042561
30
0
41
1
10
59.8062541349428
20
2.60517968321474
30
0
0
SPLINE
5
1BA
100
AcDbEntity
8
1
62
256
6
ByLayer
370
-1
48
1
60
0
100
AcDbSpline
70
4
71
3
72
8
73
4
40
0
40
0
40
0
40
0
40
1
40
1
40
1
40
1
41
1
10
11.9211579520192
20
6.97291062872856
30
0
41
1
10
11.9278835047149
20
6.96807687704583
30
0
41
1
10
11.9346194290893
20
6.96323992331531
30
0
41
1
10
11.9413652795705
20
6.95840000377322
30
0
0
SPLINE
5
1BB
100
AcDbEntity
8
1
62
256
6
ByLayer
370
-1
48
1
60
0
100
AcDbSpline
70
4
71
3
72
16
73
12
40
0
40
0
40
0
40
0
40
0.249999999999999
40
0.249999999999999
40
0.375
40
0.375
40
0.5
40
0.5
40
0.75
40
0.75
40
1
40
1
40
1
40
1
41
1
10
15
20
5.57372649195233
30
0
41
1
10
14.7527511460487
20
5.65616129790342
30
0
41
1
10
14.5024698478585
20
5.74193603047726
30
0
41
1
10
14.1235458903407
20
5.88006038981368
30
0
41
1
10
13.9966589043581
20
5.92769241041179
30
0
41
1
10
13.7419644646293
20
6.02706125361945
30
0
41
1
10
13.6152661734124
20
6.07837730904015
30
0
41
1
10
13.2395318127377
20
6.23753557577916
30
0
41
1
10
12.9940145635039
20
6.35088845744116
30
0
41
1
10
12.5155975368736
20
6.59816297935132
30
0
41
1
10
12.2816557066231
20
6.73287552961068
30
0
41
1
10
12.0604941834343
20
6.87796709061703
30
0
0
SPLINE
5
1BC
100
AcDbEntity
8
1
62
256
6
ByLayer
370
-1
48
1
60
0
100
AcDbSpline
70
4
71
3
72
12
73
8
40
0
40
0
40
0
40
0
40
0.499999999999971
40
0.499999999999971
40
0.749999999999986
40
0.749999999999986
40
1
40
1
40
1
40
1
41
1
10
57.1154965007772
20
3.84647457323152
30
0
41
1
10
57.0640355590194
20
3.83143926558097
30
0
41
1
10
57.013717359317
20
3.8126855181429
30
0
41
1
10
56.9421069109883
20
3.77564012388945
30
0
41
1
10
56.9192903685781
20
3.7619798249028
30
0
41
1
10
56.8763034909427
20
3.73138407899111
30
0
41
1
10
56.8559354500041
20
3.71425504937034
30
0
41
1
10
56.8377730251898
20
3.69542615950428
30
0
0
SPLINE
5
1BD
100
AcDbEntity
8
1
62
256
6
ByLayer
370
-1
48
1
60
0
100
AcDbSpline
70
4
71
3
72
18
73
14
40
0
40
0
40
0
40
0
40
0.0317408001721514
40
0.0317408001721514
40
0.273805600129113
40
0.273805600129113
40
0.515870400086075
40
0.515870400086075
40
0.636902800064556
40
0.636902800064556
40
0.757935200043037
40
0.757935200043037
40
1
40
1
40
1
40
1
41
1
10
32.3157715900155
20
7.70000006972248
30
0
41
1
10
32.51143097723
20
7.7000104644124
30
0
41
1
10
32.7069929541914
20
7.69880669221553
30
0
41
1
10
34.3932221630325
20
7.67797355389865
30
0
41
1
10
35.878726411217
20
7.58880796463112
30
0
41
1
10
38.8517773850476
20
7.27423274783604
30
0
41
1
10
40.3394441661006
20
7.04904362295542
30
0
41
1
10
42.5809376980584
20
6.61653656128004
30
0
41
1
10
43.3301496804775
20
6.45645362564898
30
0
41
1
10
44.831249656066
20
6.10622094963767
30
0
41
1
10
45.5803838823201
20
5.91675897884914
30
0
41
1
10
47.8258251767019
20
5.30917839593238
30
0
41
1
10
49.3202182183126
20
4.85184437040729
30
0
41
1
10
50.8180939785248
20
4.35370371285171
30
0
0
SPLINE
5
1BE
100
AcDbEntity
8
1
62
256
6
ByLayer
370
-1
48
1
60
0
100
AcDbSpline
70
4
71
3
72
12
73
8
40
0
40
0
40
0
40
0
40
0.249999999999996
40
0.249999999999996
40
0.499999999999992
40
0.499999999999992
40
1
40
1
40
1
40
1
41
1
10
56.8377730251898
20
3.69542615950428
30
0
41
1
10
56.8063567137827
20
3.75215306728634
30
0
41
1
10
56.7724267269935
20
3.80909845292879
30
0
41
1
10
56.6999515994639
20
3.92097443888844
30
0
41
1
10
56.6614114502214
20
3.97594380787541
30
0
41
1
10
56.5379070768511
20
4.13671882619724
30
0
41
1
10
56.4453242485095
20
4.2386371043207
30
0
41
1
10
56.3377144543848
20
4.33000000000064
30
0
0
SPLINE
5
1BF
100
AcDbEntity
8
1
62
256
6
ByLayer
370
-1
48
1
60
0
100
AcDbSpline
70
4
71
3
72
12
73
8
40
0
40
0
40
0
40
0
40
0.5
40
0.5
40
0.75
40
0.75
40
1
40
1
40
1
40
1
41
1
10
62.4774049827206
20
2.7863942193942
30
0
41
1
10
62.4344615061528
20
2.75121686119041
30
0
41
1
10
62.3929018025765
20
2.72198694842831
30
0
41
1
10
62.3406616046564
20
2.68932242421161
30
0
41
1
10
62.3254075129242
20
2.68058279344027
30
0
41
1
10
62.3017054079418
20
2.66832436796318
30
0
41
1
10
62.2936686254876
20
2.66501795349507
30
0
41
1
10
62.2905979731761
20
2.66501795349507
30
0
0
SPLINE
5
1C0
100
AcDbEntity
8
1
62
256
6
ByLayer
370
-1
48
1
60
0
100
AcDbSpline
70
4
71
4
72
13
73
8
40
0
40
0
40
0
40
0
40
0
40
0.606347216957003
40
0.606347216957003
40
0.606347216957003
40
1
40
1
40
1
40
1
40
1
41
1
10
16.5566708328067
20
2.97657923184701
30
0
41
1
10
16.5566708328067
20
2.1417386857307
30
0
41
0.942809041582064
10
16.3521983854376
20
0.378286177413203
30
0
41
1
10
15.8089448947408
20
-1.77785306360167
30
0
41
1
10
15.1345047665407
20
-3.93644359957526
30
0
41
0.97589477165744
10
14.8214060667959
20
-4.76856453122475
30
0
41
0.974633109116494
10
14.5661435307829
20
-5.14785726173178
30
0
41
0.982203607617091
10
14.4075628136877
20
-5.11461128824786
30
0
0
SPLINE
5
1C1
100
AcDbEntity
8
1
62
256
6
ByLayer
370
-1
48
1
60
0
100
AcDbSpline
70
4
71
3
72
8
73
4
40
0
40
0
40
0
40
0
40
1
40
1
40
1
40
1
41
1
10
55.8566708327543
20
-7.53990025344964
30
0
41
1
10
56.2229233152264
20
-7.55986591032919
30
0
41
1
10
56.5691632839052
20
-7.58715146194913
30
0
41
1
10
56.8963214966388
20
-7.6144523581568
30
0
0
SPLINE
5
1C2
100
AcDbEntity
8
1
62
256
6
ByLayer
370
-1
48
1
60
0
100
AcDbSpline
70
4
71
3
72
26
73
22
40
0
40
0
40
0
40
0
40
0.14430009606948
40
0.14430009606948
40
0.28860019213896
40
0.28860019213896
40
0.43290028820844
40
0.43290028820844
40
0.468975312225809
40
0.468975312225809
40
0.505050336243179
40
0.505050336243179
40
0.577200384277919
40
0.577200384277919
40
0.721500480347399
40
0.721500480347399
40
0.865800576416878
40
0.865800576416878
40
0.937950624451618
40
0.937950624451618
40
1
40
1
40
1
40
1
41
1
10
15
20
-5.65087996385458
30
0
41
1
10
16.427723880375
20
-6.04255238223897
30
0
41
1
10
17.8469314903012
20
-6.38476235204607
30
0
41
1
10
20.6786876759175
20
-6.95670638385377
30
0
41
1
10
22.0913134704096
20
-7.18639421053055
30
0
41
1
10
24.9198711658131
20
-7.52422631508901
30
0
41
1
10
26.335658021062
20
-7.63250482500135
30
0
41
1
10
28.1132247898201
20
-7.68801489350838
30
0
41
1
10
28.469132276844
20
-7.69513022264312
30
0
41
1
10
29.1818899430543
20
-7.70131212757056
30
0
41
1
10
29.5390696372235
20
-7.70037042651083
30
0
41
1
10
30.6088014461378
20
-7.68544766197755
30
0
41
1
10
31.3200381045117
20
-7.65940420536373
30
0
41
1
10
33.4497491532806
20
-7.53405917791568
30
0
41
1
10
34.8640996680091
20
-7.38741279314686
30
0
41
1
10
37.6914003325282
20
-6.9750178268703
30
0
41
1
10
39.1044828790413
20
-6.70933501180593
30
0
41
1
10
41.2308901223116
20
-6.22997697421738
30
0
41
1
10
41.9408171570489
20
-6.05674611281475
30
0
41
1
10
43.2644298741441
20
-5.71089395108652
30
0
41
1
10
43.8784653541483
20
-5.54131150417828
30
0
41
1
10
44.491807329384
20
-5.36349961544883
30
0
0
SPLINE
5
1C3
100
AcDbEntity
8
1
62
256
6
ByLayer
370
-1
48
1
60
0
100
AcDbSpline
70
4
71
3
72
26
73
22
40
0
40
0
40
0
40
0
40
0.25
40
0.25
40
0.375000000000001
40
0.375000000000001
40
0.500000000000001
40
0.500000000000001
40
0.625000000000001
40
0.625000000000001
40
0.687500000000001
40
0.687500000000001
40
0.75
40
0.75
40
0.875
40
0.875
40
0.9375
40
0.9375
40
0.96875
40
0.96875
40
1
40
1
40
1
40
1
41
1
10
7.48453220436105
20
0.655900457644037
30
0
41
1
10
7.78504769297277
20
0.0506590044655297
30
0
41
1
10
8.09784389245553
20
-0.524524599442202
30
0
41
1
10
8.5909874945732
20
-1.33948282974905
30
0
41
1
10
8.7602607644277
20
-1.60420892001901
30
0
41
1
10
9.1000230408095
20
-2.10438604135064
30
0
41
1
10
9.27129685805434
20
-2.34127599259213
30
0
41
1
10
9.61766426390926
20
-2.78894094067115
30
0
41
1
10
9.79275560786721
20
-2.99971380797564
30
0
41
1
10
10.0591377581449
20
-3.29591347196785
30
0
41
1
10
10.1488250003714
20
-3.3915811450963
30
0
41
1
10
10.3281284544332
20
-3.57462464577219
30
0
41
1
10
10.4176740822248
20
-3.66195891103962
30
0
41
1
10
10.6862236651167
20
-3.9117596651385
30
0
41
1
10
10.8651426474925
20
-4.0620489772075
30
0
41
1
10
11.1342088572351
20
-4.26403659585299
30
0
41
1
10
11.2240115027206
20
-4.32745146735328
30
0
41
1
10
11.3589895733685
20
-4.41676406149409
30
0
41
1
10
11.4040288667283
20
-4.44544592410281
30
0
41
1
10
11.4942105878379
20
-4.50159690365118
30
0
41
1
10
11.5393565785526
20
-4.52886811009327
30
0
41
1
10
11.5845322043611
20
-4.55763618761827
30
0
0
SPLINE
5
1C4
100
AcDbEntity
8
1
62
256
6
ByLayer
370
-1
48
1
60
0
100
AcDbSpline
70
4
71
4
72
10
73
5
40
0
40
0
40
0
40
0
40
0
40
1
40
1
40
1
40
1
40
1
41
0.980817628013067
10
55.4618701551281
20
2.37395647202588
30
0
41
0.984441730893062
10
55.5423898348665
20
2.82910740933368
30
0
41
0.991587424197981
10
55.5960249183372
20
3.3369119705355
30
0
41
1
10
55.6187398754674
20
3.85540423470195
30
0
41
1
10
55.6187398754674
20
4.3299999999999
30
0
0
SPLINE
5
1C5
100
AcDbEntity
8
1
62
256
6
ByLayer
370
-1
48
1
60
0
100
AcDbSpline
70
4
71
3
72
8
73
4
40
0
40
0
40
0
40
0
40
1
40
1
40
1
40
1
41
1
10
60.4247504380055
20
7.69917621246401
30
0
41
1
10
60.428158123917
20
7.69974908690068
30
0
41
1
10
60.4353154655397
20
7.70000932154593
30
0
41
1
10
60.4461126402804
20
7.69999980015268
30
0
0
SPLINE
5
1C6
100
AcDbEntity
8
1
62
256
6
ByLayer
370
-1
48
1
60
0
100
AcDbSpline
70
4
71
3
72
12
73
8
40
0
40
0
40
0
40
0
40
0.224851916323099
40
0.224851916323099
40
0.61242595816155
40
0.61242595816155
40
1
40
1
40
1
40
1
41
1
10
60.4752871334157
20
7.69956998080511
30
0
41
1
10
60.4865960657188
20
7.69930484711807
30
0
41
1
10
60.4996260867718
20
7.6989268414452
30
0
41
1
10
60.5391560442057
20
7.6976694040973
30
0
41
1
10
60.5690113930411
20
7.69661580914811
30
0
41
1
10
60.6369348729588
20
7.69434020690494
30
0
41
1
10
60.6743791516127
20
7.69314054158778
30
0
41
1
10
60.7153509782916
20
7.69202884678478
30
0
0
SPLINE
5
1C7
100
AcDbEntity
8
1
62
256
6
ByLayer
370
-1
48
1
60
0
100
AcDbSpline
70
4
71
3
72
8
73
4
40
0
40
0
40
0
40
0
40
1
40
1
40
1
40
1
41
1
10
7.48453220436102
20
1.98668827159568
30
0
41
1
10
7.54501623522245
20
1.87388111297355
30
0
41
1
10
7.60629771373476
20
1.76214058577639
30
0
41
1
10
7.66829618821038
20
1.6513589304418
30
0
0
SPLINE
5
1C8
100
AcDbEntity
8
1
62
256
6
ByLayer
370
-1
48
1
60
0
100
AcDbSpline
70
4
71
3
72
8
73
4
40
0
40
0
40
0
40
0
40
1
40
1
40
1
40
1
41
1
10
12.0604941834343
20
6.87796709061703
30
0
41
1
10
12.020368893006
20
6.90444282995276
30
0
41
1
10
11.9806484388878
20
6.93125584955433
30
0
41
1
10
11.9413652734955
20
6.9583999528767
30
0
0
SPLINE
5
1C9
100
AcDbEntity
8
1
62
256
6
ByLayer
370
-1
48
1
60
0
100
AcDbSpline
70
4
71
3
72
8
73
4
40
0
40
0
40
0
40
0
40
1
40
1
40
1
40
1
41
1
10
58.8973734039368
20
1.68535061531034
30
0
41
1
10
58.7044535869005
20
1.65542372396578
30
0
41
1
10
58.5091116333847
20
1.63725130872956
30
0
41
1
10
58.311397452214
20
1.63176124059638
30
0
0
SPLINE
5
1CA
100
AcDbEntity
8
1
62
256
6
ByLayer
370
-1
48
1
60
0
100
AcDbSpline
70
4
71
3
72
8
73
4
40
0
40
0
40
0
40
0
40
1
40
1
40
1
40
1
41
1
10
51.9980823698957
20
3.92980905488128
30
0
41
1
10
51.6090967233731
20
4.05993020892973
30
0
41
1
10
51.2152479211447
20
4.20256473668059
30
0
41
1
10
50.8180939785247
20
4.35370371285171
30
0
0
SPLINE
5
1CB
100
AcDbEntity
8
1
62
256
6
ByLayer
370
-1
48
1
60
0
100
AcDbSpline
70
4
71
3
72
14
73
10
40
0
40
0
40
0
40
0
40
0.499999999999999
40
0.499999999999999
40
0.624999999999999
40
0.624999999999999
40
0.749999999999999
40
0.749999999999999
40
1
40
1
40
1
40
1
41
1
10
7.48453220436107
20
1.9866882715956
30
0
41
1
10
7.36032120213821
20
2.27428507067182
30
0
41
1
10
7.25827462603183
20
2.56401608074583
30
0
41
1
10
7.1590486951867
20
2.92219787976782
30
0
41
1
10
7.14064476028139
20
2.99362237904322
30
0
41
1
10
7.10685306265771
20
3.13581993412595
30
0
41
1
10
7.09143861252286
20
3.20676532367114
30
0
41
1
10
7.05049954774975
20
3.41558561030792
30
0
41
1
10
7.03006287157746
20
3.55012974339274
30
0
41
1
10
7.01696123035489
20
3.67865174896139
30
0
0
SPLINE
5
1CC
100
AcDbEntity
8
1
62
256
6
ByLayer
370
-1
48
1
60
0
100
AcDbSpline
70
4
71
3
72
42
73
38
40
0
40
0
40
0
40
0
40
0.0625000000000012
40
0.0625000000000012
40
0.125000000000002
40
0.125000000000002
40
0.156250000000003
40
0.156250000000003
40
0.187500000000003
40
0.187500000000003
40
0.218750000000004
40
0.218750000000004
40
0.250000000000004
40
0.250000000000004
40
0.312500000000005
40
0.312500000000005
40
0.343750000000005
40
0.343750000000005
40
0.375000000000006
40
0.375000000000006
40
0.500000000000006
40
0.500000000000006
40
0.531250000000006
40
0.531250000000006
40
0.562500000000006
40
0.562500000000006
40
0.625000000000005
40
0.625000000000005
40
0.687500000000005
40
0.687500000000005
40
0.718750000000004
40
0.718750000000004
40
0.750000000000004
40
0.750000000000004
40
0.875000000000002
40
0.875000000000002
40
1
40
1
40
1
40
1
41
1
10
16.5566708328043
20
4.93445014659656
30
0
41
1
10
17.3771827802503
20
4.67991825878661
30
0
41
1
10
18.1964279991816
20
4.41230651017315
30
0
41
1
10
19.8342314623089
20
3.85490477640809
30
0
41
1
10
20.6533308285096
20
3.56632021657319
30
0
41
1
10
21.8818053163444
20
3.11758230179032
30
0
41
1
10
22.291334999047
20
2.9654894500101
30
0
41
1
10
23.1112609804471
20
2.65810712017813
30
0
41
1
10
23.5218528600331
20
2.50281355632504
30
0
41
1
10
24.3431497200555
20
2.18955337077858
30
0
41
1
10
24.7535257912246
20
2.03156346588679
30
0
41
1
10
25.5731735149757
20
1.71149736320368
30
0
41
1
10
25.9824124773212
20
1.54933729945859
30
0
41
1
10
27.2094278132326
20
1.05899917114385
30
0
41
1
10
28.0266637104809
20
0.72734802255323
30
0
41
1
10
29.254389976742
20
0.230247376129398
30
0
41
1
10
29.6639239408941
20
0.0645640679249198
30
0
41
1
10
30.4836832100552
20
-0.266489703473923
30
0
41
1
10
30.8941062748192
20
-0.432037759172061
30
0
41
1
10
32.9441903056955
20
-1.25816752749984
30
0
41
1
10
34.5784635225828
20
-1.91255056283288
30
0
41
1
10
36.6252250513646
20
-2.69518226183806
30
0
41
1
10
37.0347674848144
20
-2.84996181416116
30
0
41
1
10
37.8545296831959
20
-3.15533259788373
30
0
41
1
10
38.2649132278243
20
-3.30598465815342
30
0
41
1
10
39.4946232301281
20
-3.75031456397616
30
0
41
1
10
40.3130745136371
20
-4.03696848063615
30
0
41
1
10
41.9501188193779
20
-4.58513383518951
30
0
41
1
10
42.7686439521129
20
-4.84681753107392
30
0
41
1
10
43.9977952399879
20
-5.21817085558578
30
0
41
1
10
44.4077115468286
20
-5.33848134133294
30
0
41
1
10
45.2281026838889
20
-5.5718337455146
30
0
41
1
10
45.6385496805239
20
-5.6848586807024
30
0
41
1
10
47.6870501992785
20
-6.22927677223191
30
0
41
1
10
49.3183989539081
20
-6.5995572443874
30
0
41
1
10
52.5829955065847
20
-7.1872346437645
30
0
41
1
10
54.2155043606106
20
-7.40545080763732
30
0
41
1
10
55.8566708327918
20
-7.53990025345169
30
0
0
SPLINE
5
1CD
100
AcDbEntity
8
1
62
256
6
ByLayer
370
-1
48
1
60
0
100
AcDbSpline
70
4
71
3
72
20
73
16
40
0
40
0
40
0
40
0
40
0.151199015451807
40
0.151199015451807
40
0.302398030903614
40
0.302398030903614
40
0.453597046355421
40
0.453597046355421
40
0.604796061807228
40
0.604796061807228
40
0.755995077259035
40
0.755995077259035
40
0.907194092710842
40
0.907194092710842
40
1
40
1
40
1
40
1
41
1
10
16.5566708328067
20
2.97657923184701
30
0
41
1
10
16.2045747718623
20
2.87308628647381
30
0
41
1
10
15.8305316036673
20
2.69913284898104
30
0
41
1
10
15.0801781312915
20
2.22966418146527
30
0
41
1
10
14.7040271589034
20
1.93424863950557
30
0
41
1
10
13.9916383967252
20
1.254931788204
30
0
41
1
10
13.6555518772134
20
0.871174726574424
30
0
41
1
10
13.0609974632699
20
0.0581714642507905
30
0
41
1
10
12.8026558178984
20
-0.370902101449076
30
0
41
1
10
12.3925943638309
20
-1.22644171778896
30
0
41
1
10
12.2409616285329
20
-1.6527261011669
30
0
41
1
10
12.0613672732512
20
-2.45488304091896
30
0
41
1
10
12.0334437887485
20
-2.83058526543212
30
0
41
1
10
12.0907401390406
20
-3.36220335306351
30
0
41
1
10
12.1364231139725
20
-3.54691182711773
30
0
41
1
10
12.2047238812573
20
-3.71048924750508
30
0
0
SPLINE
5
1CE
100
AcDbEntity
8
1
62
256
6
ByLayer
370
-1
48
1
60
0
100
AcDbSpline
70
4
71
3
72
51
73
47
40
0
40
0
40
0
40
0
40
0.0312500000000001
40
0.0312500000000001
40
0.0625000000000002
40
0.0625000000000002
40
0.125000000000001
40
0.125000000000001
40
0.187500000000001
40
0.187500000000001
40
0.250000000000002
40
0.250000000000002
40
0.312500000000002
40
0.312500000000002
40
0.343750000000002
40
0.343750000000002
40
0.375000000000002
40
0.375000000000002
40
0.437500000000002
40
0.437500000000002
40
0.468750000000002
40
0.468750000000002
40
0.500000000000002
40
0.500000000000002
40
0.562500000000002
40
0.562500000000002
40
0.593750000000002
40
0.593750000000002
40
0.625000000000002
40
0.656250000000001
40
0.656250000000001
40
0.687500000000001
40
0.687500000000001
40
0.750000000000001
40
0.750000000000001
40
0.78125
40
0.78125
40
0.8125
40
0.8125
40
0.875
40
0.875
40
0.90625
40
0.90625
40
0.9375
40
0.9375
40
1
40
1
40
1
40
1
41
1
10
11.921157952027
20
6.97291062872293
30
0
41
1
10
11.821098365162
20
7.04482489633293
30
0
41
1
10
11.7244131505651
20
7.11646065027665
30
0
41
1
10
11.5376942645972
20
7.26021417224442
30
0
41
1
10
11.4485000653559
20
7.3329640053139
30
0
41
1
10
11.1771289221078
20
7.54328731132887
30
0
41
1
10
10.9937242853159
20
7.67449135061273
30
0
41
1
10
10.6207788328263
20
7.91701031923577
30
0
41
1
10
10.4312430593353
20
8.02834321538498
30
0
41
1
10
10.0445321979979
20
8.22780575907026
30
0
41
1
10
9.85018965400565
20
8.31442805704094
30
0
41
1
10
9.46006430208928
20
8.4578686391371
30
0
41
1
10
9.26412570384383
20
8.51479716414644
30
0
41
1
10
8.9687945206249
20
8.57409558855318
30
0
41
1
10
8.86988258706666
20
8.58951747179179
30
0
41
1
10
8.67262553189809
20
8.61056538480872
30
0
41
1
10
8.57506088148861
20
8.61612674245993
30
0
41
1
10
8.28584809431979
20
8.61731846298096
30
0
41
1
10
8.09763341869891
20
8.59755856905599
30
0
41
1
10
7.82407643882698
20
8.53318711614619
30
0
41
1
10
7.73388989746127
20
8.50569398593379
30
0
41
1
10
7.560556300005
20
8.43961519646044
30
0
41
1
10
7.47712437851851
20
8.40103674658539
30
0
41
1
10
7.23685194924877
20
8.26881408978045
30
0
41
1
10
7.08995403191665
20
8.15880154680096
30
0
41
1
10
6.8920478526488
20
7.95966358023412
30
0
41
1
10
6.83003595736361
20
7.88761301002452
30
0
41
1
10
6.71688153388374
20
7.73588666877049
30
0
41
1
10
6.61371410876538
20
7.57570674753725
30
0
41
1
10
6.53028191420003
20
7.39928208550927
30
0
41
1
10
6.45681122896349
20
7.21483275725859
30
0
41
1
10
6.42496097223472
20
7.11808645707117
30
0
41
1
10
6.34617927483714
20
6.82160884089868
30
0
41
1
10
6.31521340434441
20
6.61466868676584
30
0
41
1
10
6.29893926395192
20
6.29125067862662
30
0
41
1
10
6.29859843716537
20
6.18080495380707
30
0
41
1
10
6.30788081369687
20
5.95767686710138
30
0
41
1
10
6.3174360530075
20
5.84548724499527
30
0
41
1
10
6.35986065330908
20
5.50702031240004
30
0
41
1
10
6.40642238519942
20
5.27886735681631
30
0
41
1
10
6.50138734440654
20
4.93233183159356
30
0
41
1
10
6.53725186646801
20
4.81621964190506
30
0
41
1
10
6.61574630461965
20
4.58610511441034
30
0
41
1
10
6.65849801397988
20
4.47163403926791
30
0
41
1
10
6.79639333258874
20
4.12965688943285
30
0
41
1
10
6.90114292390805
20
3.90358179419996
30
0
41
1
10
7.01696123035489
20
3.67865174896139
30
0
0
SPLINE
5
1CF
100
AcDbEntity
8
1
62
256
6
ByLayer
370
-1
48
1
60
0
100
AcDbSpline
70
4
71
3
72
10
73
6
40
0
40
0
40
0
40
0
40
0.5
40
0.5
40
1
40
1
40
1
40
1
41
1
10
57.0308825794331
20
3.09949536197456
30
0
41
1
10
57.0465244908708
20
3.0750405904794
30
0
41
1
10
57.0628997079512
20
3.05219115148543
30
0
41
1
10
57.097165178374
20
3.00978273700323
30
0
41
1
10
57.1151634836776
20
2.99013356832461
30
0
41
1
10
57.13360756903
20
2.97256304688884
30
0
0
SPLINE
5
1D0
100
AcDbEntity
8
1
62
256
6
ByLayer
370
-1
48
1
60
0
100
AcDbSpline
70
4
71
3
72
10
73
6
40
0
40
0
40
0
40
0
40
0.5
40
0.5
40
1
40
1
40
1
40
1
41
1
10
57.1336075690302
20
2.97256304688881
30
0
41
1
10
57.1946419426315
20
2.93449674258852
30
0
41
1
10
57.2598122640182
20
2.90104593857592
30
0
41
1
10
57.3969650042109
20
2.84115982871842
30
0
41
1
10
57.4692972103791
20
2.81466008142948
30
0
41
1
10
57.5435091802247
20
2.79138628323062
30
0
0
SPLINE
5
1D1
100
AcDbEntity
8
1
62
256
6
ByLayer
370
-1
48
1
60
0
100
AcDbSpline
70
4
71
4
72
10
73
5
40
0
40
0
40
0
40
0
40
0
40
1
40
1
40
1
40
1
40
1
41
1
10
55.6187398754674
20
4.3299999999999
30
0
41
1
10
55.618739875469
20
4.42024500228871
30
0
41
1
10
55.6187398754706
20
4.51049000457749
30
0
41
1
10
55.6187398754721
20
4.60073500686627
30
0
41
1
10
55.6187398754735
20
4.69098000915508
30
0
0
SPLINE
5
1D2
100
AcDbEntity
8
1
62
256
6
ByLayer
370
-1
48
1
60
0
100
AcDbSpline
70
4
71
3
72
57
73
53
40
0
40
0
40
0
40
0
40
0.0258137746750939
40
0.0546184224757778
40
0.0834230702764615
40
0.112227718077145
40
0.141032365877829
40
0.169837013678513
40
0.184239337578855
40
0.198641661479197
40
0.227446309279881
40
0.241848633180223
40
0.256250957080565
40
0.285055604881248
40
0.29945792878159
40
0.313860252681932
40
0.342664900482616
40
0.357067224382958
40
0.3714695482833
40
0.400274196083984
40
0.414676519984325
40
0.429078843884667
40
0.457883491685351
40
0.472285815585693
40
0.486688139486035
40
0.515492787286719
40
0.544297435087403
40
0.573102082888087
40
0.587504406788429
40
0.601906730688771
40
0.609107892638941
40
0.616309054589113
40
0.630711378489454
40
0.659516026290138
40
0.688320674090822
40
0.702722997991164
40
0.717125321891506
40
0.74592996969219
40
0.760332293592532
40
0.774734617492873
40
0.803539265293557
40
0.832343913094241
40
0.861148560894925
40
0.889953208695609
40
0.904355532595951
40
0.918757856496293
40
0.933160180396635
40
0.947562504296977
40
0.961964828197318
40
0.97636715209766
40
0.990769475998003
40
1
40
1
40
1
40
1
41
1
10
11.941365273496
20
6.95839995287696
30
0
41
1
10
11.8972640454654
20
6.9352755579512
30
0
41
1
10
11.8027157821441
20
6.8841733247624
30
0
41
1
10
11.6546405032984
20
6.79912459266893
30
0
41
1
10
11.4976560105454
20
6.70341952283147
30
0
41
1
10
11.337563282866
20
6.60026108996013
30
0
41
1
10
11.1748545234961
20
6.4898031126223
30
0
41
1
10
11.0375550527015
20
6.39190128504151
30
0
41
1
10
10.9269728863273
20
6.31020537945102
30
0
41
1
10
10.8159981455715
20
6.22632504512416
30
0
41
1
10
10.7045882714092
20
6.13926586811414
30
0
41
1
10
10.5930507201726
20
6.04922344926362
30
0
41
1
10
10.4815339828501
20
5.95727436237311
30
0
41
1
10
10.370207364344
20
5.86258851320309
30
0
41
1
10
10.2593886605451
20
5.76541238131466
30
0
41
1
10
10.1490126512691
20
5.66667133404775
30
0
41
1
10
10.0394568108544
20
5.56572582336395
30
0
41
1
10
9.93103339345487
20
5.46286166856487
30
0
41
1
10
9.8234619469207
20
5.35882201231956
30
0
41
1
10
9.71731398996727
20
5.25317449585097
30
0
41
1
10
9.61288058916
20
5.14622990305108
30
0
41
1
10
9.50967564353766
20
5.03852715591543
30
0
41
1
10
9.40844150732386
20
4.92984702210381
30
0
41
1
10
9.30943443378104
20
4.82050919127161
30
0
41
1
10
9.2119830649882
20
4.71083809985964
30
0
41
1
10
9.093218918471
20
4.57332162969644
30
0
41
1
10
8.95600802362472
20
4.40824892066729
30
0
41
1
10
8.8463258879907
20
4.27109528370335
30
0
41
1
10
8.76151947108175
20
4.16188719122118
30
0
41
1
10
8.70980259241296
20
4.09395540811414
30
0
41
1
10
8.6692388248575
20
4.03986920698941
30
0
41
1
10
8.62908630968064
20
3.98578514373807
30
0
41
1
10
8.55956144619444
20
3.89069561250173
30
0
41
1
10
8.46246311157341
20
3.7536332423241
30
0
41
1
10
8.36878282729549
20
3.61540083686023
30
0
41
1
10
8.29616194114033
20
3.50438701630336
30
0
41
1
10
8.22517674728485
20
3.39318924454503
30
0
41
1
10
8.1567752890613
20
3.28186751536802
30
0
41
1
10
8.09121796083446
20
3.17072576753949
30
0
41
1
10
8.0276343317403
20
3.05981050154872
30
0
41
1
10
7.95200100462444
20
2.92179074926642
30
0
41
1
10
7.86786062169782
20
2.7578049404903
30
0
41
1
10
7.79072350545968
20
2.59609721098113
30
0
41
1
10
7.7325983450649
20
2.46377265686618
30
0
41
1
10
7.68993127232363
20
2.35967656714857
30
0
41
1
10
7.65988239397805
20
2.28256238196974
30
0
41
1
10
7.63181984026591
20
2.20648218422247
30
0
41
1
10
7.60576348405559
20
2.13150425762996
30
0
41
1
10
7.58173319821555
20
2.05769688591545
30
0
41
1
10
7.55974885561415
20
1.98512835280218
30
0
41
1
10
7.54221454234386
20
1.92239680982323
30
0
41
1
10
7.53224863311374
20
1.88403132096377
30
0
41
1
10
7.52849803087005
20
1.86914242800526
30
0
0
SPLINE
5
1D3
100
AcDbEntity
8
1
62
256
6
ByLayer
370
-1
48
1
60
0
100
AcDbSpline
70
4
71
3
72
12
73
8
40
0
40
0
40
0
40
0
40
0.499999999999999
40
0.499999999999999
40
0.75
40
0.75
40
1
40
1
40
1
40
1
41
1
10
56.3377144544269
20
4.32999999999993
30
0
41
1
10
56.2352265959465
20
4.41701426853328
30
0
41
1
10
56.1275802672479
20
4.49891932882906
30
0
41
1
10
55.9484700930823
20
4.59901343137716
30
0
41
1
10
55.8859067645639
20
4.62811466123421
30
0
41
1
10
55.7565262865107
20
4.67153016180032
30
0
41
1
10
55.6892848644579
20
4.68600970179796
30
0
41
1
10
55.6187398754664
20
4.69098000915594
30
0
0
SPLINE
5
1D4
100
AcDbEntity
8
1
62
256
6
ByLayer
370
-1
48
1
60
0
100
AcDbSpline
70
4
71
3
72
12
73
8
40
0
40
0
40
0
40
0
40
0.249999999999999
40
0.249999999999999
40
0.499999999999999
40
0.499999999999999
40
1
40
1
40
1
40
1
41
1
10
12.9922472960956
20
-4.46012610527546
30
0
41
1
10
13.096109970669
20
-4.53683421856988
30
0
41
1
10
13.2043335262404
20
-4.60845782205587
30
0
41
1
10
13.4299433190154
20
-4.74137968557218
30
0
41
1
10
13.5480121989116
20
-4.8029517666341
30
0
41
1
10
13.9098836295172
20
-4.96842443914215
30
0
41
1
10
14.1620478519893
20
-5.05410736728325
30
0
41
1
10
14.4253955817211
20
-5.11537382889469
30
0
0
SPLINE
5
1D5
100
AcDbEntity
8
1
62
256
6
ByLayer
370
-1
48
1
60
0
100
AcDbSpline
70
4
71
3
72
27
73
23
40
0
40
0
40
0
40
0
40
0.0624999999999995
40
0.0624999999999995
40
0.124999999999999
40
0.124999999999999
40
0.249999999999999
40
0.249999999999999
40
0.312499999999999
40
0.312499999999999
40
0.374999999999999
40
0.437499999999999
40
0.437499999999999
40
0.499999999999999
40
0.499999999999999
40
0.624999999999999
40
0.624999999999999
40
0.749999999999999
40
0.749999999999999
40
0.875
40
0.875
40
1
40
1
40
1
40
1
41
1
10
60.0422603082432
20
1.96724167034634
30
0
41
1
10
60.0833672343581
20
1.98060964249319
30
0
41
1
10
60.1222406596237
20
1.99441763202196
30
0
41
1
10
60.1954010159603
20
2.0229371868127
30
0
41
1
10
60.2297532246617
20
2.03769845942247
30
0
41
1
10
60.3234088475603
20
2.08230928219558
30
0
41
1
10
60.3743074719446
20
2.11279529978125
30
0
41
1
10
60.4333143744475
20
2.15964468427472
30
0
41
1
10
60.4501377760387
20
2.17554660133916
30
0
41
1
10
60.4771766624531
20
2.2071220610533
30
0
41
1
10
60.4977457796479
20
2.238504685023
30
0
41
1
10
60.5056832349301
20
2.26951081396709
30
0
41
1
10
60.5072470259858
20
2.30032697163955
30
0
41
1
10
60.504810105335
20
2.31571555674972
30
0
41
1
10
60.4877543728344
20
2.36103961148768
30
0
41
1
10
60.4637827122573
20
2.38977664989116
30
0
41
1
10
60.3914209802276
20
2.44438474071583
30
0
41
1
10
60.3423002489483
20
2.47042472745704
30
0
41
1
10
60.2235076976702
20
2.51730523269356
30
0
41
1
10
60.1536646342338
20
2.53844278062073
30
0
41
1
10
59.9927354856749
20
2.57603544139172
30
0
41
1
10
59.9033177739838
20
2.59206105703225
30
0
41
1
10
59.8062541349435
20
2.605179683215
30
0
0
SPLINE
5
1D6
100
AcDbEntity
8
1
62
256
6
ByLayer
370
-1
48
1
60
0
100
AcDbSpline
70
4
71
3
72
14
73
10
40
0
40
0
40
0
40
0
40
0.149902554871709
40
0.299805109743419
40
0.449707664615128
40
0.599610219486837
40
0.749512774358546
40
0.899415329230255
40
1
40
1
40
1
40
1
41
1
10
55.6187398754674
20
4.32999999999993
30
0
41
1
10
55.4141438540808
20
4.32434839270923
30
0
41
1
10
55.0048847698451
20
4.31167758074227
30
0
41
1
10
54.3908056562187
20
4.28841021103995
30
0
41
1
10
53.7766799302906
20
4.26078368139073
30
0
41
1
10
53.1627429364896
20
4.2286945735521
30
0
41
1
10
52.5489074472171
20
4.19204218069189
30
0
41
1
10
52.00219413352
20
4.15542557477812
30
0
41
1
10
51.6601766368329
20
4.13047094960035
30
0
41
1
10
51.5228374061609
20
4.12012360707843
30
0
0
SPLINE
5
1D7
100
AcDbEntity
8
1
62
256
6
ByLayer
370
-1
48
1
60
0
100
AcDbSpline
70
4
71
3
72
10
73
6
40
0
40
0
40
0
40
0
40
0.5
40
0.5
40
1
40
1
40
1
40
1
41
1
10
8.48088037176024
20
0.468365935628469
30
0
41
1
10
9.00172996804253
20
-0.11016942782922
30
0
41
1
10
9.52257664162411
20
-0.687567617843399
30
0
41
1
10
10.5587575201506
20
-1.8381956383144
30
0
41
1
10
11.0740619435052
20
-2.41143002851984
30
0
41
1
10
11.5845322043611
20
-2.98059815169523
30
0
0
SPLINE
5
1D8
100
AcDbEntity
8
1
62
256
6
ByLayer
370
-1
48
1
60
0
100
AcDbSpline
70
4
71
3
72
8
73
4
40
0
40
0
40
0
40
0
40
1
40
1
40
1
40
1
41
1
10
58.8376661273328
20
-7.67912246096031
30
0
41
1
10
59.1820722652685
20
-7.68670596717828
30
0
41
1
10
59.5094216240352
20
-7.69541399291037
30
0
41
1
10
59.8196858690389
20
-7.69872248295528
30
0
0
SPLINE
5
1D9
100
AcDbEntity
8
1
62
256
6
ByLayer
370
-1
48
1
60
0
100
AcDbSpline
70
4
71
3
72
14
73
10
40
0
40
0
40
0
40
0
40
0.307510070496027
40
0.307510070496027
40
0.615020140992054
40
0.615020140992054
40
0.922530211488081
40
0.922530211488081
40
1
40
1
40
1
40
1
41
1
10
64.7202775131283
20
2.75018656761037
30
0
41
1
10
64.7237863391456
20
2.75022088275656
30
0
41
1
10
64.7272737305908
20
2.75587817185354
30
0
41
1
10
64.734094752184
20
2.77803937098258
30
0
41
1
10
64.7374478628554
20
2.79482592600627
30
0
41
1
10
64.7434997908982
20
2.8378246977025
30
0
41
1
10
64.7462720851902
20
2.86437650828893
30
0
41
1
10
64.7491271642911
20
2.903201270397
30
0
41
1
10
64.749670171141
20
2.91125848175886
30
0
41
1
10
64.7501747392469
20
2.9195607235541
30
0
0
SPLINE
5
1DA
100
AcDbEntity
8
1
62
256
6
ByLayer
370
-1
48
1
60
0
100
AcDbSpline
70
4
71
3
72
8
73
4
40
0
40
0
40
0
40
0
40
1
40
1
40
1
40
1
41
1
10
15
20
-5.65087996385455
30
0
41
1
10
14.8089083977438
20
-5.59845714525676
30
0
41
1
10
14.6172644857421
20
-5.55505426456756
30
0
41
1
10
14.4253954070317
20
-5.52055976762043
30
0
0
SPLINE
5
1DB
100
AcDbEntity
8
1
62
256
6
ByLayer
370
-1
48
1
60
0
100
AcDbSpline
70
4
71
3
72
8
73
4
40
0
40
0
40
0
40
0
40
1
40
1
40
1
40
1
41
1
10
58.311397452211
20
1.63176124059623
30
0
41
1
10
58.1203678220574
20
1.62645678707276
30
0
41
1
10
57.9257342302959
20
1.63801527917534
30
0
41
1
10
57.7289944178016
20
1.66642354796849
30
0
0
SPLINE
5
1DC
100
AcDbEntity
8
1
62
256
6
ByLayer
370
-1
48
1
60
0
100
AcDbSpline
70
4
71
3
72
22
73
18
40
0
40
0
40
0
40
0
40
0.125
40
0.125
40
0.25
40
0.25
40
0.375
40
0.375
40
0.5
40
0.5
40
0.625
40
0.625
40
0.75
40
0.75
40
0.875
40
0.875
40
1
40
1
40
1
40
1
41
1
10
60.7500620967844
20
2.63667656595712
30
0
41
1
10
60.7551951626634
20
2.63667656595712
30
0
41
1
10
60.749962184898
20
2.64278564769833
30
0
41
1
10
60.7243676801242
20
2.66546277379919
30
0
41
1
10
60.7048746557658
20
2.68145919182453
30
0
41
1
10
60.6589277049787
20
2.7214097000913
30
0
41
1
10
60.6325586669585
20
2.74530548551667
30
0
41
1
10
60.5779979771672
20
2.79926943169346
30
0
41
1
10
60.5495341911665
20
2.82953185697139
30
0
41
1
10
60.4919149100209
20
2.89730760624533
30
0
41
1
10
60.4629103809714
20
2.9346999285834
30
0
41
1
10
60.4072145974397
20
3.01501685371716
30
0
41
1
10
60.3802736228799
20
3.05819997929692
30
0
41
1
10
60.3290175676241
20
3.1517297899309
30
0
41
1
10
60.3047982639987
20
3.20211111656118
30
0
41
1
10
60.262012979549
20
3.30595321021349
30
0
41
1
10
60.2431105131159
20
3.35996979672848
30
0
41
1
10
60.2269422100273
20
3.4163825354191
30
0
0
SPLINE
5
1DD
100
AcDbEntity
8
1
62
256
6
ByLayer
370
-1
48
1
60
0
100
AcDbSpline
70
4
71
3
72
12
73
8
40
0
40
0
40
0
40
0
40
0.5
40
0.5
40
0.75
40
0.75
40
1
40
1
40
1
40
1
41
1
10
11.5845322043612
20
-2.98059815169523
30
0
41
1
10
11.7559072927484
20
-3.2041775252267
30
0
41
1
10
11.9638017815775
20
-3.43734834952588
30
0
41
1
10
12.3212825730539
20
-3.81059436171819
30
0
41
1
10
12.4488357253023
20
-3.93939149784893
30
0
41
1
10
12.7130535831336
20
-4.19830896321906
30
0
41
1
10
12.8501965370584
20
-4.3289490620262
30
0
41
1
10
12.9922476597075
20
-4.46012426411065
30
0
0
SPLINE
5
1DE
100
AcDbEntity
8
1
62
256
6
ByLayer
370
-1
48
1
60
0
100
AcDbSpline
70
4
71
3
72
12
73
8
40
0
40
0
40
0
40
0
40
0.249999999999996
40
0.249999999999996
40
0.499999999999992
40
0.499999999999992
40
1
40
1
40
1
40
1
41
1
10
57.728994417801
20
1.66642354796866
30
0
41
1
10
57.6241838993371
20
1.68155767533784
30
0
41
1
10
57.5217012779787
20
1.69781962984791
30
0
41
1
10
57.3200041339776
20
1.73377568439088
30
0
41
1
10
57.2208025523635
20
1.75346189239588
30
0
41
1
10
56.9269982908237
20
1.8187895221121
30
0
41
1
10
56.7361263808652
20
1.87072469376474
30
0
41
1
10
56.5489515772835
20
1.93305256350561
30
0
0
SPLINE
5
1DF
100
AcDbEntity
8
1
62
256
6
ByLayer
370
-1
48
1
60
0
100
AcDbSpline
70
4
71
3
72
12
73
8
40
0
40
0
40
0
40
0
40
0.5
40
0.5
40
0.749999999999999
40
0.749999999999999
40
1
40
1
40
1
40
1
41
1
10
8.48088003924255
20
0.468364588277637
30
0
41
1
10
8.33666563817766
20
0.635638828209352
30
0
41
1
10
8.19721896196103
20
0.818282519141007
30
0
41
1
10
7.9939961938899
20
1.11440399405984
30
0
41
1
10
7.92725714260334
20
1.21683339691452
30
0
41
1
10
7.79570159294698
20
1.42935595638485
30
0
41
1
10
7.731060200949
20
1.5392093769965
30
0
41
1
10
7.66829618820589
20
1.65135893044828
30
0
0
SPLINE
5
1E0
100
AcDbEntity
8
1
62
256
6
ByLayer
370
-1
48
1
60
0
100
AcDbSpline
70
4
71
3
72
16
73
12
40
0
40
0
40
0
40
0
40
0.249999999999991
40
0.249999999999991
40
0.499999999999982
40
0.499999999999982
40
0.749999999999973
40
0.749999999999973
40
0.874999999999987
40
0.874999999999987
40
1
40
1
40
1
40
1
41
1
10
65.8756279979959
20
-3.87077917347745
30
0
41
1
10
65.8795368930901
20
-3.89254627975683
30
0
41
1
10
65.8822548903775
20
-3.91528461268527
30
0
41
1
10
65.8839080427664
20
-3.96368361622157
30
0
41
1
10
65.8829069839148
20
-3.98948247426341
30
0
41
1
10
65.8737381702433
20
-4.04518918630936
30
0
41
1
10
65.8658149865941
20
-4.07540580931231
30
0
41
1
10
65.8411926825963
20
-4.12465877358315
30
0
41
1
10
65.8307124351368
20
-4.14164678322911
30
0
41
1
10
65.8045854883916
20
-4.17425251920437
30
0
41
1
10
65.7892295870608
20
-4.18938012971964
30
0
41
1
10
65.7728026143275
20
-4.20219634523585
30
0
0
SPLINE
5
1E1
100
AcDbEntity
8
1
62
256
6
ByLayer
370
-1
48
1
60
0
100
AcDbSpline
70
4
71
3
72
8
73
4
40
0
40
0
40
0
40
0
40
1
40
1
40
1
40
1
41
1
10
65.7402292109396
20
-2.62287157870773
30
0
41
1
10
65.7390568650626
20
-2.62040632491178
30
0
41
1
10
65.7378823780672
20
-2.6179425849559
30
0
41
1
10
65.7367057588289
20
-2.61548035256496
30
0
0
SPLINE
5
1E2
100
AcDbEntity
8
1
62
256
6
ByLayer
370
-1
48
1
60
0
100
AcDbSpline
70
4
71
3
72
10
73
6
40
0
40
0
40
0
40
0
40
0.5
40
0.5
40
1
40
1
40
1
40
1
41
1
10
65.5266602312394
20
-0.583541685683997
30
0
41
1
10
65.5331098249679
20
-0.606214476344235
30
0
41
1
10
65.5358312217332
20
-0.625918764174259
30
0
41
1
10
65.5377595821519
20
-0.662396308303897
30
0
41
1
10
65.536829654753
20
-0.679122263476842
30
0
41
1
10
65.5347688267726
20
-0.694578863468422
30
0
0
SPLINE
5
1E3
100
AcDbEntity
8
1
62
256
6
ByLayer
370
-1
48
1
60
0
100
AcDbSpline
70
4
71
3
72
10
73
6
40
0
40
0
40
0
40
0
40
0.5
40
0.5
40
1
40
1
40
1
40
1
41
1
10
65.6314814754313
20
-4.32606971475138
30
0
41
1
10
65.6528029438077
20
-4.30520024684324
30
0
41
1
10
65.6753362928436
20
-4.28417793468577
30
0
41
1
10
65.7231132510177
20
-4.24217379170386
30
0
41
1
10
65.7483164020233
20
-4.22130032617983
30
0
41
1
10
65.7728026143275
20
-4.20219634523576
30
0
0
SPLINE
5
1E4
100
AcDbEntity
8
1
62
256
6
ByLayer
370
-1
48
1
60
0
100
AcDbSpline
70
4
71
3
72
8
73
4
40
0
40
0
40
0
40
0
40
1
40
1
40
1
40
1
41
1
10
65.7816196960177
20
-2.70570982674218
30
0
41
1
10
65.7677556414333
20
-2.67922467405589
30
0
41
1
10
65.7536739835577
20
-2.65114376133377
30
0
41
1
10
65.7402292109383
20
-2.62287157870867
30
0
0
SPLINE
5
1E5
100
AcDbEntity
8
1
62
256
6
ByLayer
370
-1
48
1
60
0
100
AcDbSpline
70
4
71
3
72
12
73
8
40
0
40
0
40
0
40
0
40
0.25
40
0.25
40
0.5
40
0.5
40
1
40
1
40
1
40
1
41
1
10
65.3418466315779
20
0.0091648472017027
30
0
41
1
10
65.3500009828464
20
0.0001824313886516
30
0
41
1
10
65.358029171413
20
-0.0097029632608212
30
0
41
1
10
65.3730602862322
20
-0.031083910343483
30
0
41
1
10
65.3797313707882
20
-0.0421446425354759
30
0
41
1
10
65.3964921824788
20
-0.074493693230437
30
0
41
1
10
65.403029848748
20
-0.0938192528629713
30
0
41
1
10
65.4073110417655
20
-0.110961198252653
30
0
0
SPLINE
5
1E6
100
AcDbEntity
8
1
62
256
6
ByLayer
370
-1
48
1
60
0
100
AcDbSpline
70
4
71
3
72
8
73
4
40
0
40
0
40
0
40
0
40
1
40
1
40
1
40
1
41
1
10
65.5266602312394
20
-0.58354168568394
30
0
41
1
10
65.5187098522403
20
-0.555593060344023
30
0
41
1
10
65.5120310906734
20
-0.530261461585241
30
0
41
1
10
65.5060770216427
20
-0.506421301668382
30
0
0
SPLINE
5
1E7
100
AcDbEntity
8
1
62
256
6
ByLayer
370
-1
48
1
60
0
100
AcDbSpline
70
4
71
3
72
12
73
8
40
0
40
0
40
0
40
0
40
0.250000000000008
40
0.250000000000008
40
0.500000000000017
40
0.500000000000017
40
1
40
1
40
1
40
1
41
1
10
65.781619696018
20
-2.70570982674207
30
0
41
1
10
65.7922825825753
20
-2.72607963824459
30
0
41
1
10
65.8020188052113
20
-2.74798821399645
30
0
41
1
10
65.8182596705456
20
-2.79281632121348
30
0
41
1
10
65.8249065525448
20
-2.81597481067862
30
0
41
1
10
65.8398614487913
20
-2.88760515821346
30
0
41
1
10
65.842355894446
20
-2.93506237065145
30
0
41
1
10
65.8386243119926
20
-2.97921904121023
30
0
0
SPLINE
5
1E8
100
AcDbEntity
8
1
62
256
6
ByLayer
370
-1
48
1
60
0
100
AcDbSpline
70
4
71
3
72
12
73
8
40
0
40
0
40
0
40
0
40
0.310616742709727
40
0.310616742709727
40
0.655308371354863
40
0.655308371354863
40
1
40
1
40
1
40
1
41
1
10
65.0652382194951
20
0.272470498010279
30
0
41
1
10
65.0782089377764
20
0.267250949022156
30
0
41
1
10
65.0917529768386
20
0.260845130308042
30
0
41
1
10
65.1216626412985
20
0.24391227350074
30
0
41
1
10
65.1381097075692
20
0.232879953346156
30
0
41
1
10
65.1701708819015
20
0.206197376427241
30
0
41
1
10
65.1853108195506
20
0.190854205046179
30
0
41
1
10
65.1984116311597
20
0.174718032366712
30
0
0
SPLINE
5
1E9
100
AcDbEntity
8
1
62
256
6
ByLayer
370
-1
48
1
60
0
100
AcDbSpline
70
4
71
3
72
10
73
6
40
0
40
0
40
0
40
0
40
0.5
40
0.5
40
1
40
1
40
1
40
1
41
1
10
65.3209912348254
20
0.032138084361776
30
0
41
1
10
65.3009162256279
20
0.0542516865511971
30
0
41
1
10
65.2804495198994
20
0.0773367873096618
30
0
41
1
10
65.2389173449366
20
0.125574065723413
30
0
41
1
10
65.2179398339287
20
0.150665289574761
30
0
41
1
10
65.1984116311597
20
0.174718032366769
30
0
0
SPLINE
5
1EA
100
AcDbEntity
8
1
62
256
6
ByLayer
370
-1
48
1
60
0
100
AcDbSpline
70
4
71
3
72
14
73
10
40
0
40
0
40
0
40
0
40
0.25
40
0.25
40
0.5
40
0.5
40
0.75
40
0.75
40
1
40
1
40
1
40
1
41
1
10
65.5347688267722
20
-0.694578863465608
30
0
41
1
10
65.5319837197682
20
-0.715467693251327
30
0
41
1
10
65.5293501022803
20
-0.737405909431885
30
0
41
1
10
65.5245643486263
20
-0.784617621757235
30
0
41
1
10
65.5223950679963
20
-0.809992488157235
30
0
41
1
10
65.518967947082
20
-0.86600512412258
30
0
41
1
10
65.5176974198878
20
-0.896800364070714
30
0
41
1
10
65.5170233083539
20
-0.96555620483656
30
0
41
1
10
65.5176884531367
20
-1.00404388968062
30
0
41
1
10
65.5197964804864
20
-1.04419242263916
30
0
0
SPLINE
5
1EB
100
AcDbEntity
8
1
62
256
6
ByLayer
370
-1
48
1
60
0
100
AcDbSpline
70
4
71
3
72
8
73
4
40
0
40
0
40
0
40
0
40
1
40
1
40
1
40
1
41
1
10
65.8335061620463
20
-3.06518456941456
30
0
41
1
10
65.8345390990726
20
-3.03566029473538
30
0
41
1
10
65.836336697538
20
-3.0062889074413
30
0
41
1
10
65.8386243119927
20
-2.97921904121023
30
0
0
SPLINE
5
1EC
100
AcDbEntity
8
1
62
256
6
ByLayer
370
-1
48
1
60
0
100
AcDbSpline
70
4
71
3
72
16
73
12
40
0
40
0
40
0
40
0
40
0.25
40
0.25
40
0.499999999999999
40
0.499999999999999
40
0.749999999999999
40
0.749999999999999
40
0.874999999999999
40
0.874999999999999
40
1
40
1
40
1
40
1
41
1
10
65.8756279979959
20
-3.87077917347779
30
0
41
1
10
65.8695232364358
20
-3.83678414662569
30
0
41
1
10
65.8635313934177
20
-3.80166399224916
30
0
41
1
10
65.851949373885
20
-3.727642974747
30
0
41
1
10
65.8463580548398
20
-3.68888360902747
30
0
41
1
10
65.8360314217211
20
-3.60433340978582
30
0
41
1
10
65.8312823964795
20
-3.55935593665563
30
0
41
1
10
65.8260242341803
20
-3.47972210168788
30
0
41
1
10
65.8246237275241
20
-3.4513961463814
30
0
41
1
10
65.8232357204805
20
-3.38937656651493
30
0
41
1
10
65.8233232346481
20
-3.35624156311715
30
0
41
1
10
65.8244822547797
20
-3.32311347509653
30
0
0
SPLINE
5
1ED
100
AcDbEntity
8
1
62
256
6
ByLayer
370
-1
48
1
60
0
100
AcDbSpline
70
4
71
3
72
12
73
8
40
0
40
0
40
0
40
0
40
0.249999999999943
40
0.249999999999943
40
0.499999999999887
40
0.499999999999887
40
1
40
1
40
1
40
1
41
1
10
65.6093311651646
20
-4.34775045367198
30
0
41
1
10
65.6006705094713
20
-4.35622750942005
30
0
41
1
10
65.5909918608643
20
-4.36446552246977
30
0
41
1
10
65.5696946408003
20
-4.37959205185706
30
0
41
1
10
65.5585051119266
20
-4.38614276754089
30
0
41
1
10
65.5253509638628
20
-4.40212905873938
30
0
41
1
10
65.5050030123438
20
-4.40767009208807
30
0
41
1
10
65.4867177446163
20
-4.41083408318985
30
0
0
SPLINE
5
1EE
100
AcDbEntity
8
1
62
256
6
ByLayer
370
-1
48
1
60
0
100
AcDbSpline
70
4
71
3
72
83
73
79
40
0
40
0
40
0
40
0
40
0.0019524496734453
40
0.0055614898932024
40
0.0091705301129596
40
0.0127795703327168
40
0.0163886105524739
40
0.0236066909919882
40
0.0308247714315025
40
0.0380428518710169
40
0.0957874953871314
40
0.153532138903246
40
0.182404460661303
40
0.21127678241936
40
0.218494862858875
40
0.225712943298389
40
0.238344584067539
40
0.240149104177418
40
0.243758144397175
40
0.247367184616932
40
0.253683005001507
40
0.254585265056446
40
0.256389785166325
40
0.258194305276204
40
0.261803345495961
40
0.263607865605839
40
0.265412385715718
40
0.269021425935475
40
0.297893747693532
40
0.326766069451589
40
0.355638391209647
40
0.384510712967704
40
0.413383034725761
40
0.442255356483819
40
0.471127678241876
40
0.499999999999933
40
0.514436160878963
40
0.52887232175799
40
0.557744643516048
40
0.572180804395077
40
0.586616965274106
40
0.615489287032162
40
0.629925447911192
40
0.644361608790219
40
0.673233930548277
40
0.687670091427305
40
0.702106252306334
40
0.716542413185362
40
0.730978574064391
40
0.732783094174269
40
0.734587614284148
40
0.736392134394028
40
0.738196654503906
40
0.740001174613784
40
0.741805694723664
40
0.74541473494342
40
0.749023775163178
40
0.752632815382933
40
0.756241855602692
40
0.759850895822448
40
0.763459936042206
40
0.767068976261963
40
0.774287056701476
40
0.788723217580506
40
0.795941298020019
40
0.817595539338563
40
0.84646786109662
40
0.904212504612735
40
0.933084826370792
40
0.961957148128849
40
0.969175228568364
40
0.976393309007878
40
0.983611389447393
40
0.989024949777028
40
0.990829469886907
40
0.994438510106664
40
0.998047550326421
40
1
40
1
40
1
40
1
41
1
10
65.605580085996
20
7.56284880395717
30
0
41
1
10
65.6055378938449
20
7.56324599908163
30
0
41
1
10
65.6054175688599
20
7.56437200270153
30
0
41
1
10
65.6052171942657
20
7.56620361466901
30
0
41
1
10
65.6049738044698
20
7.56834380856327
30
0
41
1
10
65.6047197902407
20
7.57047788278703
30
0
41
1
10
65.6043669274703
20
7.57331839598069
30
0
41
1
10
65.6038992458467
20
7.57686589000647
30
0
41
1
10
65.6032953955169
20
7.58113728962732
30
0
41
1
10
65.601139105917
20
7.5954123785005
30
0
41
1
10
65.5963656752704
20
7.61988013553673
30
0
41
1
10
65.5883087380031
20
7.64881528086397
30
0
41
1
10
65.5803480504408
20
7.67187326262797
30
0
41
1
10
65.5752978959743
20
7.68477327285433
30
0
41
1
10
65.5716909768426
20
7.69332894275726
30
0
41
1
10
65.5693766663154
20
7.69866416767778
30
0
41
1
10
65.5674592896487
20
7.70291798897432
30
0
41
1
10
65.5658215791
20
7.70645298921863
30
0
41
1
10
65.5649952448051
20
7.70821861154212
30
0
41
1
10
65.5637407917344
20
7.71086316636251
30
0
41
1
10
65.5627207895408
20
7.71297440831324
30
0
41
1
10
65.5618608317171
20
7.71473096520518
30
0
41
1
10
65.5614289862566
20
7.71560871266772
30
0
41
1
10
65.560734052404
20
7.71701195943416
30
0
41
1
10
65.5600331481605
20
7.71841345782661
30
0
41
1
10
65.5593262760911
20
7.71981315861808
30
0
41
1
10
65.5586154263262
20
7.72121164459992
30
0
41
1
10
65.5552105549542
20
7.72784568058074
30
0
41
1
10
65.5488135297567
20
7.73962041458407
30
0
41
1
10
65.5390305169755
20
7.75595016072245
30
0
41
1
10
65.5285068924701
20
7.771935786402
30
0
41
1
10
65.5172627705799
20
7.78752815759165
30
0
41
1
10
65.5053182656445
20
7.80267814026041
30
0
41
1
10
65.4927019803333
20
7.81734009836907
30
0
41
1
10
65.4794425173157
20
7.83146839587849
30
0
41
1
10
65.4678871830043
20
7.84276364477597
30
0
41
1
10
65.4583575662524
20
7.85149267536119
30
0
41
1
10
65.4486448190967
20
7.86001134767258
30
0
41
1
10
65.4386680300329
20
7.86820611369529
30
0
41
1
10
65.4284485064555
20
7.87606023567352
30
0
41
1
10
65.418075051012
20
7.88368301852589
30
0
41
1
10
65.4074825344837
20
7.89095242804524
30
0
41
1
10
65.3966946302994
20
7.89785573494308
30
0
41
1
10
65.3857848395
20
7.90451218766464
30
0
41
1
10
65.3747047765116
20
7.91079418047889
30
0
41
1
10
65.3634795568012
20
7.9166933561001
30
0
41
1
10
65.3549944618302
20
7.92092535613665
30
0
41
1
10
65.3464495848438
20
7.92496400141096
30
0
41
1
10
65.3403591500898
20
7.92768705958997
30
0
41
1
10
65.3367655291447
20
7.92924308486383
30
0
41
1
10
65.3356867209848
20
7.92970684108531
30
0
41
1
10
65.3346072032234
20
7.93016754616244
30
0
41
1
10
65.3335269881353
20
7.93062520031151
30
0
41
1
10
65.3324460879953
20
7.93107980374887
30
0
41
1
10
65.3310039907724
20
7.93168187433818
30
0
41
1
10
65.3291997179879
20
7.93242683687708
30
0
41
1
10
65.3270320468354
20
7.93330859253805
30
0
41
1
10
65.3248619300701
20
7.93417815054386
30
0
41
1
10
65.3226894658903
20
7.93503551262503
30
0
41
1
10
65.3205147524944
20
7.93588068051216
30
0
41
1
10
65.3183378880806
20
7.93671365593579
30
0
41
1
10
65.3154326651028
20
7.9378080355234
30
0
41
1
10
65.3103416837175
20
7.93968053829349
30
0
41
1
10
65.3045093534806
20
7.94172305712942
30
0
41
1
10
65.2957444729493
20
7.94464069195558
30
0
41
1
10
65.2840328133123
20
7.94827179775507
30
0
41
1
10
65.2620300686309
20
7.95423728527464
30
0
41
1
10
65.2385765921895
20
7.95907696406664
30
0
41
1
10
65.21531445689
20
7.96245620682677
30
0
41
1
10
65.2023303542045
20
7.96382548093055
30
0
41
1
10
65.1937284290445
20
7.96452356517239
30
0
41
1
10
65.18944152624
20
7.96483028776905
30
0
41
1
10
65.1855277153199
20
7.96507323796763
30
0
41
1
10
65.1826801200767
20
7.96522486035511
30
0
41
1
10
65.180540291126
20
7.96532759177424
30
0
41
1
10
65.1787537625776
20
7.96540628508771
30
0
41
1
10
65.176919587758
20
7.96547916832134
30
0
41
1
10
65.1757922079258
20
7.96552111266107
30
0
41
1
10
65.1753945449386
20
7.96553565587746
30
0
0
SPLINE
5
1EF
100
AcDbEntity
8
1
62
256
6
ByLayer
370
-1
48
1
60
0
100
AcDbSpline
70
4
71
3
72
20
73
16
40
0
40
0
40
0
40
0
40
0.0011113171582911
40
0.0024035405513593
40
0.0036957639444275
40
0.0049879873374957
40
0.007572434123632
40
0.0080893234808591
40
0.0086062128380865
40
0.0088630422374588
40
0.0907916206372234
40
0.17297702843636
40
0.338381622749088
40
0.669190811374544
40
1
40
1
40
1
40
1
41
1
10
61.4256147181859
20
3.99865637938484
30
0
41
1
10
61.425597207944
20
3.99915968336487
30
0
41
1
10
61.4255593370785
20
4.00024822131243
30
0
41
1
10
61.425501105684
20
4.00192199148989
30
0
41
1
10
61.425440024016
20
4.00367768966439
30
0
41
1
10
61.4253585819786
20
4.00601861713076
30
0
41
1
10
61.4252893564992
20
4.00800840082769
30
0
41
1
10
61.4252323474668
20
4.00964704280292
30
0
41
1
10
61.4252120125706
20
4.01023154013711
30
0
41
1
10
61.4239089514415
20
4.04768616839584
30
0
41
1
10
61.4213193401126
20
4.1221231423292
30
0
41
1
10
61.4161284904831
20
4.27133764139299
30
0
41
1
10
61.4070179544597
20
4.53323535600583
30
0
41
1
10
61.393989559038
20
4.90774083982163
30
0
41
1
10
61.3835671577339
20
5.20733942645569
30
0
41
1
10
61.3783559570819
20
5.35713871977271
30
0
0
SPLINE
5
1F0
100
AcDbEntity
8
1
62
256
6
ByLayer
370
-1
48
1
60
0
100
AcDbSpline
70
4
71
1
72
4
73
2
40
0
40
0
40
1
40
1
41
1
10
63.1271959345127
20
7.90974676159627
30
0
41
1
10
64.919254052269
20
7.97256585566077
30
0
0
SPLINE
5
1F1
100
AcDbEntity
8
1
62
256
6
ByLayer
370
-1
48
1
60
0
100
AcDbSpline
70
4
71
3
72
83
73
79
40
0
40
0
40
0
40
0
40
0.001952449673433
40
0.0055614898931902
40
0.0091705301129475
40
0.0127795703327047
40
0.0163886105524619
40
0.0236066909919764
40
0.0308247714314908
40
0.0380428518710053
40
0.0957874953871209
40
0.153532138903237
40
0.182404460661294
40
0.211276782419352
40
0.218494862858867
40
0.225712943298381
40
0.238344584067532
40
0.24014910417741
40
0.243758144397167
40
0.247367184616925
40
0.2536830050015
40
0.254585265056439
40
0.256389785166318
40
0.258194305276196
40
0.261803345495953
40
0.263607865605832
40
0.265412385715711
40
0.269021425935468
40
0.297893747693526
40
0.326766069451583
40
0.355638391209641
40
0.384510712967699
40
0.413383034725757
40
0.442255356483815
40
0.471127678241873
40
0.499999999999931
40
0.51443616087896
40
0.528872321757988
40
0.557744643516046
40
0.572180804395075
40
0.586616965274105
40
0.615489287032161
40
0.629925447911192
40
0.644361608790219
40
0.673233930548277
40
0.687670091427306
40
0.702106252306335
40
0.716542413185364
40
0.730978574064393
40
0.732783094174271
40
0.73458761428415
40
0.736392134394029
40
0.738196654503907
40
0.740001174613786
40
0.741805694723665
40
0.745414734943422
40
0.74902377516318
40
0.752632815382936
40
0.756241855602695
40
0.75985089582245
40
0.763459936042208
40
0.767068976261965
40
0.774287056701479
40
0.788723217580508
40
0.795941298020023
40
0.817595539338566
40
0.846467861096624
40
0.90421250461274
40
0.933084826370797
40
0.961957148128855
40
0.969175228568371
40
0.976393309007884
40
0.9836113894474
40
0.989024949777034
40
0.990829469886913
40
0.99443851010667
40
0.998047550326428
40
1
40
1
40
1
40
1
41
1
10
65.3474360735187
20
3.02009196195402
30
0
41
1
10
65.3478317571958
20
3.02013431527223
30
0
41
1
10
65.348953476032
20
3.02025509987914
30
0
41
1
10
65.350778118163
20
3.0204562398718
30
0
41
1
10
65.3529101679733
20
3.02070055937719
30
0
41
1
10
65.3550361214004
20
3.02095554389933
30
0
41
1
10
65.3578658255837
20
3.02130975454816
30
0
41
1
10
65.3613998203237
20
3.02177922263962
30
0
41
1
10
65.3656549659794
20
3.02238537957962
30
0
41
1
10
65.3798757338297
20
3.0245499058554
30
0
41
1
10
65.4042503836634
20
3.02934157023162
30
0
41
1
10
65.4330754220269
20
3.03742928369042
30
0
41
1
10
65.4560456612089
20
3.04542037978595
30
0
41
1
10
65.4688965830017
20
3.05048982502205
30
0
41
1
10
65.4774196959976
20
3.05411052199884
30
0
41
1
10
65.4827346187766
20
3.05643367281633
30
0
41
1
10
65.4869722529988
20
3.05835837355036
30
0
41
1
10
65.4904938015
20
3.06000233988732
30
0
41
1
10
65.4922527050975
20
3.06083183064496
30
0
41
1
10
65.4948871965884
20
3.06209107552257
30
0
41
1
10
65.496990404626
20
3.06311497395893
30
0
41
1
10
65.4987402772887
20
3.0639782166817
30
0
41
1
10
65.4996146846572
20
3.06441171172176
30
0
41
1
10
65.501012591646
20
3.06510930010876
30
0
41
1
10
65.502408756914
20
3.06581288169264
30
0
41
1
10
65.5038031314213
20
3.06652245389847
30
0
41
1
10
65.5051962957418
20
3.06723601899404
30
0
41
1
10
65.5118050872128
20
3.07065389642153
30
0
41
1
10
65.5235350147984
20
3.07707535721599
30
0
41
1
10
65.5398026213226
20
3.08689573951673
30
0
41
1
10
65.5557274168702
20
3.09745956255816
30
0
41
1
10
65.5712604543801
20
3.10874663516722
30
0
41
1
10
65.5863527867908
20
3.12073676617101
30
0
41
1
10
65.6009589517224
20
3.13340124364251
30
0
41
1
10
65.6150334867943
20
3.14671135565476
30
0
41
1
10
65.6262857538596
20
3.15831082946599
30
0
41
1
10
65.6349815678481
20
3.16787684780576
30
0
41
1
10
65.6434678240395
20
3.17762669607762
30
0
41
1
10
65.6516314065034
20
3.18764159485488
30
0
41
1
10
65.6594556411762
20
3.1979001553521
30
0
41
1
10
65.6670494170385
20
3.20831323571019
30
0
41
1
10
65.67429116426
20
3.21894621393082
30
0
41
1
10
65.6811682019909
20
3.22977532615658
30
0
41
1
10
65.6877993249002
20
3.24072679058443
30
0
41
1
10
65.6940574128352
20
3.25184917761339
30
0
41
1
10
65.6999341403122
20
3.26311727583948
30
0
41
1
10
65.7041500363109
20
3.2716347824948
30
0
41
1
10
65.7081733133206
20
3.28021229952316
30
0
41
1
10
65.7108860094411
20
3.28632599874845
30
0
41
1
10
65.7124361135691
20
3.28993334674183
30
0
41
1
10
65.7128981050581
20
3.29101627577359
30
0
41
1
10
65.7133570570134
20
3.29209991711744
30
0
41
1
10
65.7138129696502
20
3.29318425845167
30
0
41
1
10
65.7142658431843
20
3.29426928745462
30
0
41
1
10
65.7148656227132
20
3.29571689325465
30
0
41
1
10
65.7156077504447
20
3.29752805806808
30
0
41
1
10
65.7164861507592
20
3.29970400937222
30
0
41
1
10
65.7173523998342
20
3.30188241563104
30
0
41
1
10
65.7182064993939
20
3.30406317827104
30
0
41
1
10
65.719048451162
20
3.30624619871887
30
0
41
1
10
65.7198782568627
20
3.30843137840105
30
0
41
1
10
65.7209684720056
20
3.31134769885858
30
0
41
1
10
65.7228338493373
20
3.3164581269657
30
0
41
1
10
65.7248685957724
20
3.3223127357567
30
0
41
1
10
65.7277751281172
20
3.3311110967077
30
0
41
1
10
65.7313924164628
20
3.34286749298192
30
0
41
1
10
65.7373352035013
20
3.36495428457343
30
0
41
1
10
65.7421564658544
20
3.38849734948468
30
0
41
1
10
65.7455228495757
20
3.41184834236196
30
0
41
1
10
65.7468869131781
20
3.42488204221036
30
0
41
1
10
65.7475823409986
20
3.43351682532702
30
0
41
1
10
65.7478878964232
20
3.43782010340377
30
0
41
1
10
65.7481299221229
20
3.44174886444571
30
0
41
1
10
65.7482809675414
20
3.4446073370402
30
0
41
1
10
65.7483833080365
20
3.44675533978986
30
0
41
1
10
65.7484617018981
20
3.44854869258708
30
0
41
1
10
65.748534307789
20
3.45038987365652
30
0
41
1
10
65.7485760925179
20
3.45152155989646
30
0
41
1
10
65.7485905803929
20
3.45192074189174
30
0
0
SPLINE
5
1F2
100
AcDbEntity
8
1
62
256
6
ByLayer
370
-1
48
1
60
0
100
AcDbSpline
70
4
71
3
72
150
73
146
40
0
40
0
40
0
40
0
40
0.200919836739822
40
0.401839673479644
40
0.4520696326646
40
0.502299591849556
40
0.552215613789605
40
0.57717362475963
40
0.601975648161092
40
0.602131635729655
40
0.602445572974561
40
0.602759510219467
40
0.604329196443997
40
0.605114039556262
40
0.605898882668526
40
0.607468568893056
40
0.608253412005321
40
0.609038255117586
40
0.609430676673719
40
0.612177627566646
40
0.615317000015706
40
0.618456372464765
40
0.621595744913825
40
0.623165431138355
40
0.624735117362885
40
0.626304803587415
40
0.627089646699679
40
0.627874489811944
40
0.628266911368077
40
0.634153234710064
40
0.640431979608183
40
0.652989469404422
40
0.665546959200661
40
0.6781044489969
40
0.68438319389502
40
0.687522566344079
40
0.689877095680874
40
0.690661938793139
40
0.692231625017669
40
0.693016468129933
40
0.693801311242199
40
0.694586154354464
40
0.695370997466728
40
0.696155840578993
40
0.696940683691258
40
0.697333105247391
40
0.698510369915788
40
0.700080056140318
40
0.701649742364848
40
0.703219428589378
40
0.709498173487497
40
0.715776918385617
40
0.728334408181856
40
0.734613153079975
40
0.739322211753565
40
0.740891897978094
40
0.744031270427154
40
0.745600956651684
40
0.746385799763949
40
0.747170642876214
40
0.747955485988479
40
0.748740329100744
40
0.749525172213009
40
0.750310015325274
40
0.751094858437538
40
0.751487279993671
40
0.751879701549803
40
0.752272123105936
40
0.752664544662068
40
0.753056966218201
40
0.753449387774333
40
0.756588760223393
40
0.759728132672453
40
0.762867505121513
40
0.766006877570572
40
0.772285622468692
40
0.775424994917751
40
0.778564367366811
40
0.78484311226493
40
0.78798248471399
40
0.79112185716305
40
0.797400602061169
40
0.800539974510229
40
0.803679346959289
40
0.809958091857408
40
0.816236836755528
40
0.822515581653647
40
0.828794326551767
40
0.835073071449886
40
0.841351816348006
40
0.847630561246125
40
0.853909306144244
40
0.854694149256509
40
0.855086570812642
40
0.855478992368774
40
0.856263835481039
40
0.856656257037172
40
0.857048678593304
40
0.85724488937137
40
0.858618364817834
40
0.859403207930099
40
0.860188051042364
40
0.860580472598496
40
0.863327423491424
40
0.864897109715953
40
0.866466795940483
40
0.872745540838603
40
0.879024285736722
40
0.891581775532961
40
0.9041392653292
40
0.90570895155373
40
0.90727863777826
40
0.90884832400279
40
0.909633167115054
40
0.91041801022732
40
0.911202853339584
40
0.911987696451849
40
0.912772539564114
40
0.913557382676379
40
0.913949804232512
40
0.915127068900909
40
0.915911912013174
40
0.916696755125439
40
0.917089176681571
40
0.922975500023558
40
0.929254244921678
40
0.954369224514156
40
0.960647969412275
40
0.966926714310394
40
0.973205459208514
40
0.976344831657574
40
0.979091782550501
40
0.979484204106633
40
0.980269047218898
40
0.981053890331163
40
0.981838733443428
40
0.982623576555693
40
0.984193262780223
40
0.985762949004753
40
0.992041693902872
40
0.995181066351932
40
0.997535595688727
40
0.998320438800992
40
0.999890125025522
40
1
40
1
40
1
40
1
41
1
10
61.3783559570819
20
5.35713871977271
30
0
41
1
10
61.3731447564298
20
5.50693801308975
30
0
41
1
10
61.3627223551257
20
5.80653659972381
30
0
41
1
10
61.3509970537459
20
6.1435915440793
30
0
41
1
10
61.3431804276149
20
6.36827904886854
30
0
41
1
10
61.3392802452042
20
6.48038951462655
30
0
41
1
10
61.3360354621105
20
6.57366274787404
30
0
41
1
10
61.3334501307128
20
6.64798201943407
30
0
41
1
10
61.3321554156344
20
6.6852015364602
30
0
41
1
10
61.3314999072879
20
6.70404589960793
30
0
41
1
10
61.331479575328
20
6.70463039704504
30
0
41
1
10
61.3314225745718
20
6.7062690393104
30
0
41
1
10
61.3313533593041
20
6.7082588233653
30
0
41
1
10
61.3312719294938
20
6.71059975126028
30
0
41
1
10
61.3311904996309
20
6.71294068259292
30
0
41
1
10
61.331109069694
20
6.71528161876103
30
0
41
1
10
61.331027639693
20
6.71762255912264
30
0
41
1
10
61.3309767459177
20
6.7190856484622
30
0
41
1
10
61.3308749583332
20
6.72201182936101
30
0
41
1
10
61.3307120980597
20
6.72669372784182
30
0
41
1
10
61.3304779861674
20
6.73342397320604
30
0
41
1
10
61.3302336953768
20
6.74044684580264
30
0
41
1
10
61.3300301197485
20
6.74629923763064
30
0
41
1
10
61.3298672593429
20
6.75098114475568
30
0
41
1
10
61.3297451141067
20
6.75449257064679
30
0
41
1
10
61.329643326483
20
6.7574187541089
30
0
41
1
10
61.3295618964377
20
6.75975969736828
30
0
41
1
10
61.3295110026838
20
6.76122278530903
30
0
41
1
10
61.3293277852412
20
6.76648989722446
30
0
41
1
10
61.3290020660466
20
6.77585360573789
30
0
41
1
10
61.3283608105631
20
6.79428813344563
30
0
41
1
10
61.327546529247
20
6.81769631446866
30
0
41
1
10
61.3265694198976
20
6.84578428542585
30
0
41
1
10
61.3257551940079
20
6.86918884150657
30
0
41
1
10
61.3251852570309
20
6.88557064780355
30
0
41
1
10
61.3248799399034
20
6.89434620650812
30
0
41
1
10
61.3247171061391
20
6.89902637126178
30
0
41
1
10
61.3245949817183
20
6.90253643580587
30
0
41
1
10
61.3245135658939
20
6.90487644900369
30
0
41
1
10
61.3244321505354
20
6.90721643172796
30
0
41
1
10
61.324371089252
20
6.9089714033739
30
0
41
1
10
61.3243100282065
20
6.91072635946207
30
0
41
1
10
61.3242489674013
20
6.912481299832
30
0
41
1
10
61.3241879068389
20
6.91423622432316
30
0
41
1
10
61.3241370232412
20
6.9156986480331
30
0
41
1
10
61.3240759631099
20
6.91745354433519
30
0
41
1
10
61.3239945499332
20
6.91979338436465
30
0
41
1
10
61.3238826076259
20
6.92301061140117
30
0
41
1
10
61.3237604897751
20
6.92652024625588
30
0
41
1
10
61.323516256173
20
6.93353937866354
30
0
41
1
10
61.3231499137898
20
6.94406755276367
30
0
41
1
10
61.3224985977012
20
6.96278697120329
30
0
41
1
10
61.3218471251722
20
6.98151662100943
30
0
41
1
10
61.321236044271
20
6.99909694956028
30
0
41
1
10
61.3209103960653
20
7.00845601532305
30
0
41
1
10
61.3206663886579
20
7.01546035436115
30
0
41
1
10
61.3205038508644
20
7.02012116230179
30
0
41
1
10
61.3203613375824
20
7.02421851297689
30
0
41
1
10
61.3202797592464
20
7.02656915460153
30
0
41
1
10
61.3202184897715
20
7.02833774219718
30
0
41
1
10
61.3201571199379
20
7.03011289335643
30
0
41
1
10
61.3200958310184
20
7.03188275264253
30
0
41
1
10
61.320034804286
20
7.03363546461887
30
0
41
1
10
61.3199742210133
20
7.03535917384872
30
0
41
1
10
61.3199242555634
20
7.03676154972095
30
0
41
1
10
61.3198895179654
20
7.03786278785785
30
0
41
1
10
61.319867312747
20
7.03867832681274
30
0
41
1
10
61.3198501861074
20
7.03948341775251
30
0
41
1
10
61.3198377791468
20
7.04028256212297
30
0
41
1
10
61.3198297329649
20
7.04108026136993
30
0
41
1
10
61.3198172427511
20
7.04374038939724
30
0
41
1
10
61.3199040645283
20
7.04831675491653
30
0
41
1
10
61.3203113126862
20
7.05488094148737
30
0
41
1
10
61.3210167161025
20
7.06151609801353
30
0
41
1
10
61.3223703947943
20
7.07043599225224
30
0
41
1
10
61.3243671853786
20
7.07943300319178
30
0
41
1
10
61.3270284581213
20
7.08841250094963
30
0
41
1
10
61.3301398423916
20
7.09734877995894
30
0
41
1
10
61.3339370790861
20
7.1061729159041
30
0
41
1
10
61.3384034899019
20
7.11478150532432
30
0
41
1
10
61.3433104573643
20
7.12321192924097
30
0
41
1
10
61.3488699206452
20
7.13132340317185
30
0
41
1
10
61.355025069758
20
7.13902318742916
30
0
41
1
10
61.3615584060965
20
7.14641759867482
30
0
41
1
10
61.3703986713265
20
7.15503007603007
30
0
41
1
10
61.3819083435505
20
7.16422947559332
30
0
41
1
10
61.3941429719796
20
7.1721665873531
30
0
41
1
10
61.4068993653485
20
7.17879358273069
30
0
41
1
10
61.4199743323917
20
7.18406263314725
30
0
41
1
10
61.433176811379
20
7.188003335791
30
0
41
1
10
61.4463157405802
20
7.19064528785014
30
0
41
1
10
61.455481582096
20
7.19165670937633
30
0
41
1
10
61.4605002365083
20
7.19197160541901
30
0
41
1
10
61.4615602759521
20
7.19202936738998
30
0
41
1
10
61.462628633714
20
7.19208138088794
30
0
41
1
10
61.4637184658099
20
7.19212468089961
30
0
41
1
10
61.4648291968566
20
7.19216418030095
30
0
41
1
10
61.4655319917854
20
7.192188307355
30
0
41
1
10
61.4669502838726
20
7.19223725662917
30
0
41
1
10
61.4686899329624
20
7.19229805892169
30
0
41
1
10
61.4708938140294
20
7.19237566639254
30
0
41
1
10
61.4723674551894
20
7.19242764480396
30
0
41
1
10
61.4753065754344
20
7.19253115493373
30
0
41
1
10
61.4788093055717
20
7.19265404190008
30
0
41
1
10
61.4831690134875
20
7.19280662693643
30
0
41
1
10
61.4901380164926
20
7.19305040564018
30
0
41
1
10
61.5006241693013
20
7.19341786046797
30
0
41
1
10
61.5193051240815
20
7.19407324270199
30
0
41
1
10
61.5426280883187
20
7.19489092556822
30
0
41
1
10
61.5624381883537
20
7.19558516685225
30
0
41
1
10
61.5740922319784
20
7.19599360119241
30
0
41
1
10
61.5775885133621
20
7.19611613523216
30
0
41
1
10
61.5805021370309
20
7.19621824998845
30
0
41
1
10
61.5828330688368
20
7.19629994359244
30
0
41
1
10
61.584581283967
20
7.19636121468616
30
0
41
1
10
61.5863295152132
20
7.1964224866619
30
0
41
1
10
61.5880777624158
20
7.19648375951087
30
0
41
1
10
61.5898260254152
20
7.1965450332244
30
0
41
1
10
61.5912829242789
20
7.19659609536546
30
0
41
1
10
61.5930312145233
20
7.19665737057002
30
0
41
1
10
61.5947795201654
20
7.19671864661728
30
0
41
1
10
61.5968192321866
20
7.19679013654886
30
0
41
1
10
61.5982761818433
20
7.19684120146974
30
0
41
1
10
61.6035212339946
20
7.19702503701208
30
0
41
1
10
61.612846086009
20
7.19735187298542
30
0
41
1
10
61.640530904524
20
7.19832225835387
30
0
41
1
10
61.6685110730841
20
7.19930307343509
30
0
41
1
10
61.6964935375614
20
7.20028401416701
30
0
41
1
10
61.7104851472342
20
7.20077450518912
30
0
41
1
10
61.7221450683655
20
7.20118326119274
30
0
41
1
10
61.7311816108674
20
7.2015000527667
30
0
41
1
10
61.7358456598446
20
7.20166355957508
30
0
41
1
10
61.7387606976062
20
7.20176575172167
30
0
41
1
10
61.7402182177779
20
7.20181684786562
30
0
41
1
10
61.7419672438896
20
7.20187816334263
30
0
41
1
10
61.7437162717474
20
7.20193947891522
30
0
41
1
10
61.7460483110063
20
7.20202123312777
30
0
41
1
10
61.748963363647
20
7.20212342608866
30
0
41
1
10
61.7559594988437
20
7.20236868967964
30
0
41
1
10
61.7641216749616
20
7.20265483154213
30
0
41
1
10
61.7728668489818
20
7.20296141130584
30
0
41
1
10
61.7775309312654
20
7.20312491993701
30
0
41
1
10
61.7810289865503
20
7.20324755105861
30
0
41
1
10
61.7828596304353
20
7.20331172778074
30
0
41
1
10
61.7841072643972
20
7.20335546594382
30
0
41
1
10
61.7841888831785
20
7.20335832724408
30
0
0
SPLINE
5
1F3
100
AcDbEntity
8
1
62
256
6
ByLayer
370
-1
48
1
60
0
100
AcDbSpline
70
4
71
3
72
24
73
20
40
0
40
0
40
0
40
0
40
0.0052924630238042
40
0.0168225975867846
40
0.0283527321497651
40
0.0398828667127377
40
0.062943135838696
40
0.0744732704016712
40
0.109063674090607
40
0.155184212342516
40
0.247425288846341
40
0.431907441853987
40
0.616389594861632
40
0.800871747869277
40
0.893112824373099
40
0.979588833595439
40
0.985353900876923
40
0.9968840354399
40
1
40
1
40
1
40
1
41
1
10
61.2521513338525
20
2.87653519070148
30
0
41
1
10
61.2524887380654
20
2.87652285125165
30
0
41
1
10
61.2535655075852
20
2.87648404562833
30
0
41
1
10
61.2554035726005
20
2.87641987534755
30
0
41
1
10
61.2576858881872
20
2.87634001009627
30
0
41
1
10
61.2607674661039
20
2.87623200038769
30
0
41
1
10
61.2638847720249
20
2.87612257725704
30
0
41
1
10
61.2685482998199
20
2.87595893434258
30
0
41
1
10
61.2747458664256
20
2.87574155361386
30
0
41
1
10
61.28631517311
20
2.87533598750989
30
0
41
1
10
61.3078160227135
20
2.87458269653993
30
0
41
1
10
61.3386505731903
20
2.87350185684949
30
0
41
1
10
61.375715010601
20
2.87220235781803
30
0
41
1
10
61.4065482684498
20
2.87112156926477
30
0
41
1
10
61.4308357536189
20
2.87026875746764
30
0
41
1
10
61.4431729348944
20
2.86983681228122
30
0
41
1
10
61.4501124203335
20
2.86959468542526
30
0
41
1
10
61.4514773674064
20
2.86954709280275
30
0
41
1
10
61.4524567926731
20
2.8695135501635
30
0
41
1
10
61.4526651660954
20
2.86950644864527
30
0
0
SPLINE
5
1F4
100
AcDbEntity
8
1
62
256
6
ByLayer
370
-1
48
1
60
0
100
AcDbSpline
70
4
71
3
72
24
73
20
40
0
40
0
40
0
40
0
40
0.0052924630238473
40
0.0168225975868276
40
0.0283527321498078
40
0.0398828667127802
40
0.0629431358387381
40
0.0744732704017131
40
0.109063674090649
40
0.155184212342556
40
0.24742528884638
40
0.431907441854022
40
0.616389594861664
40
0.800871747869306
40
0.893112824373125
40
0.979588833595464
40
0.985353900876948
40
0.996884035439925
40
1
40
1
40
1
40
1
41
1
10
65.1753945449387
20
7.96553565587743
30
0
41
1
10
65.1750571407258
20
7.96554799532726
30
0
41
1
10
65.173980371206
20
7.96558680095058
30
0
41
1
10
65.1721423061906
20
7.96565097123136
30
0
41
1
10
65.169859990604
20
7.96573083648263
30
0
41
1
10
65.1667784126872
20
7.96583884619122
30
0
41
1
10
65.1636611067663
20
7.96594826932187
30
0
41
1
10
65.1589975789713
20
7.96611191223633
30
0
41
1
10
65.1528000123656
20
7.96632929296504
30
0
41
1
10
65.1412307056812
20
7.96673485906902
30
0
41
1
10
65.1197298560777
20
7.96748815003897
30
0
41
1
10
65.0888953056008
20
7.96856898972942
30
0
41
1
10
65.0518308681901
20
7.96986848876088
30
0
41
1
10
65.0209976103413
20
7.97094927731416
30
0
41
1
10
64.9967101251723
20
7.97180208911126
30
0
41
1
10
64.9843729438967
20
7.97223403429769
30
0
41
1
10
64.9774334584576
20
7.97247616115365
30
0
41
1
10
64.9760685113848
20
7.97252375377616
30
0
41
1
10
64.975089086118
20
7.9725572964154
30
0
41
1
10
64.9748807126958
20
7.97256439793364
30
0
0
SPLINE
5
1F5
100
AcDbEntity
8
1
62
256
6
ByLayer
370
-1
48
1
60
0
100
AcDbSpline
70
4
71
1
72
4
73
2
40
0
40
0
40
1
40
1
41
1
10
65.6304339312517
20
7.30684662690032
30
0
41
1
10
65.6930139796976
20
5.50794313826594
30
0
0
SPLINE
5
1F6
100
AcDbEntity
8
1
62
256
6
ByLayer
370
-1
48
1
60
0
100
AcDbSpline
70
4
71
1
72
4
73
2
40
0
40
0
40
1
40
1
41
1
10
60.7971119475395
20
3.53522421967858
30
0
41
1
10
60.7345318990935
20
5.33412770831296
30
0
0
SPLINE
5
1F7
100
AcDbEntity
8
1
62
256
6
ByLayer
370
-1
48
1
60
0
100
AcDbSpline
70
4
71
1
72
4
73
2
40
0
40
0
40
1
40
1
41
1
10
60.7975926151523
20
3.52140712194679
30
0
41
1
10
60.7971119475395
20
3.53522421967858
30
0
0
SPLINE
5
1F8
100
AcDbEntity
8
1
62
256
6
ByLayer
370
-1
48
1
60
0
100
AcDbSpline
70
4
71
1
72
4
73
2
40
0
40
0
40
1
40
1
41
1
10
64.919254052269
20
7.97256585566077
30
0
41
1
10
64.9330185717724
20
7.97304835934571
30
0
0
SPLINE
5
1F9
100
AcDbEntity
8
1
62
256
6
ByLayer
370
-1
48
1
60
0
100
AcDbSpline
70
4
71
1
72
4
73
2
40
0
40
0
40
1
40
1
41
1
10
65.7555940281436
20
3.70903964963159
30
0
41
1
10
65.7560746957564
20
3.6952225518998
30
0
0
SPLINE
5
1FA
100
AcDbEntity
8
1
62
256
6
ByLayer
370
-1
48
1
60
0
100
AcDbSpline
70
4
71
1
72
4
73
2
40
0
40
0
40
1
40
1
41
1
10
60.7345318990935
20
5.33412770831293
30
0
41
1
10
60.6719518506475
20
7.13303119694731
30
0
0
SPLINE
5
1FB
100
AcDbEntity
8
1
62
256
6
ByLayer
370
-1
48
1
60
0
100
AcDbSpline
70
4
71
3
72
25
73
21
40
0
40
0
40
0
40
0
40
0.0031159645604666
40
0.0146460991234393
40
0.0204111664049257
40
0.0607666373753302
40
0.106887175627221
40
0.199128252131003
40
0.291369328634784
40
0.383610405138566
40
0.752574711153693
40
0.844815787657474
40
0.93129179687977
40
0.937056864161256
40
0.948586998724229
40
0.960117133287201
40
0.97741233513166
40
0.983177402413147
40
0.994707536976119
40
1
40
1
40
1
40
1
41
1
10
60.8009937158596
20
3.47952119748317
30
0
41
1
10
60.8010153085165
20
3.47931303301124
30
0
41
1
10
60.8011169633715
20
3.47833460125955
30
0
41
1
10
60.8012594732923
20
3.47697109784733
30
0
41
1
10
60.8016620799365
20
3.47311991205774
30
0
41
1
10
60.8023066281452
20
3.46695796123092
30
0
41
1
10
60.8035564286487
20
3.45501924562478
30
0
41
1
10
60.8051702104968
20
3.43961519407785
30
0
41
1
10
60.8071056722121
20
3.42113347397165
30
0
41
1
10
60.8109772786659
20
3.38415706585462
30
0
41
1
10
60.8148576827497
20
3.34710010946361
30
0
41
1
10
60.8186719665509
20
3.3106644585489
30
0
41
1
10
60.8199644411189
20
3.2983212355519
30
0
41
1
10
60.8206966816087
20
3.29133034751297
30
0
41
1
10
60.8209003642167
20
3.28938584794611
30
0
41
1
10
60.8211846469204
20
3.28667154097963
30
0
41
1
10
60.8214258822635
20
3.2843672912262
30
0
41
1
10
60.8216633688762
20
3.28209736364505
30
0
41
1
10
60.8218163186844
20
3.2806345925535
30
0
41
1
10
60.8219299941165
20
3.2795590498682
30
0
41
1
10
60.8219657927952
20
3.27922204262174
30
0
0
SPLINE
5
1FC
100
AcDbEntity
8
1
62
256
6
ByLayer
370
-1
48
1
60
0
100
AcDbSpline
70
4
71
1
72
4
73
2
40
0
40
0
40
1
40
1
41
1
10
65.6299532636389
20
7.32066372463211
30
0
41
1
10
65.6304339312517
20
7.30684662690032
30
0
0
SPLINE
5
1FD
100
AcDbEntity
8
1
62
256
6
ByLayer
370
-1
48
1
60
0
100
AcDbSpline
70
4
71
3
72
20
73
16
40
0
40
0
40
0
40
0
40
0.0011113171582846
40
0.0024035405513528
40
0.003695763944421
40
0.0049879873374892
40
0.0075724341236256
40
0.0080893234808527
40
0.0086062128380801
40
0.0088630422374524
40
0.0907916206372175
40
0.172977028436355
40
0.338381622749084
40
0.669190811374542
40
1
40
1
40
1
40
1
41
1
10
64.6181218076076
20
3.63871251933483
30
0
41
1
10
64.6176204188512
20
3.63869494220657
30
0
41
1
10
64.6165360231192
20
3.63865692668057
30
0
41
1
10
64.6148686221426
20
3.63859847285155
30
0
41
1
10
64.6131196049297
20
3.63853715786155
30
0
41
1
10
64.6107875853991
20
3.63845540472869
30
0
41
1
10
64.6088053734298
20
3.63838591481925
30
0
41
1
10
64.607172966982
20
3.6383286880216
30
0
41
1
10
64.6065906938367
20
3.63830827544939
30
0
41
1
10
64.5692785917463
20
3.63700023683848
30
0
41
1
10
64.4951248729719
20
3.63440073361502
30
0
41
1
10
64.3464781801262
20
3.6291900557832
30
0
41
1
10
64.0855770653865
20
3.62004471899229
30
0
41
1
10
63.7124966880029
20
3.60696655721662
30
0
41
1
10
63.4140381644423
20
3.59650434403272
30
0
41
1
10
63.264808902662
20
3.59127323744079
30
0
0
SPLINE
5
1FE
100
AcDbEntity
8
1
62
256
6
ByLayer
370
-1
48
1
60
0
100
AcDbSpline
70
4
71
3
72
20
73
16
40
0
40
0
40
0
40
0
40
0.001111317158287
40
0.0024035405513552
40
0.0036957639444234
40
0.0049879873374916
40
0.007572434123628
40
0.0080893234808551
40
0.0086062128380824
40
0.0088630422374548
40
0.0907916206372197
40
0.172977028436357
40
0.338381622749085
40
0.669190811374543
40
1
40
1
40
1
40
1
41
1
10
61.7841888831785
20
7.20335832724408
30
0
41
1
10
61.7846902719349
20
7.20337590437234
30
0
41
1
10
61.7857746676669
20
7.20341391989834
30
0
41
1
10
61.7874420686435
20
7.20347237372735
30
0
41
1
10
61.7891910858564
20
7.20353368871736
30
0
41
1
10
61.7915231053871
20
7.20361544185022
30
0
41
1
10
61.7935053173563
20
7.20368493175965
30
0
41
1
10
61.7951377238041
20
7.2037421585573
30
0
41
1
10
61.7957199969495
20
7.20376257112952
30
0
41
1
10
61.8330320990398
20
7.20507060974043
30
0
41
1
10
61.9071858178142
20
7.20767011296388
30
0
41
1
10
62.05583251066
20
7.21288079079571
30
0
41
1
10
62.3167336253996
20
7.22202612758662
30
0
41
1
10
62.6898140027832
20
7.23510428936228
30
0
41
1
10
62.9882725263438
20
7.24556650254618
30
0
41
1
10
63.1375017881241
20
7.25079760913812
30
0
0
SPLINE
5
1FF
100
AcDbEntity
8
1
62
256
6
ByLayer
370
-1
48
1
60
0
100
AcDbSpline
70
4
71
1
72
4
73
2
40
0
40
0
40
1
40
1
41
1
10
61.5082918265222
20
2.86950499091813
30
0
41
1
10
61.4945273070187
20
2.86902248723319
30
0
0
SPLINE
5
200
100
AcDbEntity
8
1
62
256
6
ByLayer
370
-1
48
1
60
0
100
AcDbSpline
70
4
71
1
72
4
73
2
40
0
40
0
40
1
40
1
41
1
10
63.3003499442784
20
2.93232408498264
30
0
41
1
10
61.5082918265222
20
2.86950499091813
30
0
0
SPLINE
5
201
100
AcDbEntity
8
1
62
256
6
ByLayer
370
-1
48
1
60
0
100
AcDbSpline
70
4
71
3
72
83
73
79
40
0
40
0
40
0
40
0
40
0.001952449673442
40
0.0055614898931992
40
0.0091705301129564
40
0.0127795703327136
40
0.0163886105524708
40
0.0236066909919851
40
0.0308247714314995
40
0.0380428518710139
40
0.0957874953871289
40
0.153532138903244
40
0.182404460661301
40
0.211276782419359
40
0.218494862858873
40
0.225712943298388
40
0.238344584067538
40
0.240149104177416
40
0.243758144397174
40
0.247367184616931
40
0.253683005001506
40
0.254585265056445
40
0.256389785166324
40
0.258194305276202
40
0.26180334549596
40
0.263607865605838
40
0.265412385715717
40
0.269021425935474
40
0.297893747693531
40
0.326766069451589
40
0.355638391209646
40
0.384510712967704
40
0.413383034725761
40
0.442255356483819
40
0.471127678241876
40
0.499999999999934
40
0.514436160878963
40
0.528872321757991
40
0.557744643516049
40
0.572180804395078
40
0.586616965274107
40
0.615489287032164
40
0.629925447911194
40
0.644361608790221
40
0.673233930548279
40
0.687670091427307
40
0.702106252306336
40
0.716542413185364
40
0.730978574064394
40
0.732783094174272
40
0.734587614284151
40
0.736392134394031
40
0.738196654503908
40
0.740001174613787
40
0.741805694723666
40
0.745414734943423
40
0.749023775163181
40
0.752632815382936
40
0.756241855602695
40
0.759850895822451
40
0.763459936042209
40
0.767068976261966
40
0.774287056701479
40
0.788723217580509
40
0.795941298020022
40
0.817595539338566
40
0.846467861096624
40
0.904212504612739
40
0.933084826370796
40
0.961957148128854
40
0.969175228568369
40
0.976393309007883
40
0.983611389447398
40
0.989024949777033
40
0.990829469886911
40
0.994438510106669
40
0.998047550326426
40
1
40
1
40
1
40
1
41
1
10
60.8219657927952
20
3.27922204262174
30
0
41
1
10
60.8220079849462
20
3.27882484749728
30
0
41
1
10
60.8221283099312
20
3.27769884387737
30
0
41
1
10
60.8223286845255
20
3.2758672319099
30
0
41
1
10
60.8225720743214
20
3.27372703801564
30
0
41
1
10
60.8228260885505
20
3.27159296379187
30
0
41
1
10
60.8231789513209
20
3.26875245059821
30
0
41
1
10
60.8236466329445
20
3.26520495657243
30
0
41
1
10
60.8242504832743
20
3.26093355695158
30
0
41
1
10
60.8264067728741
20
3.24665846807841
30
0
41
1
10
60.8311802035207
20
3.22219071104217
30
0
41
1
10
60.8392371407881
20
3.19325556571494
30
0
41
1
10
60.8471978283504
20
3.17019758395094
30
0
41
1
10
60.8522479828168
20
3.15729757372458
30
0
41
1
10
60.8558549019485
20
3.14874190382167
30
0
41
1
10
60.8581692124758
20
3.14340667890113
30
0
41
1
10
60.8600865891424
20
3.13915285760459
30
0
41
1
10
60.8617242996912
20
3.13561785736027
30
0
41
1
10
60.8625506339861
20
3.13385223503678
30
0
41
1
10
60.8638050870567
20
3.13120768021639
30
0
41
1
10
60.8648250892504
20
3.12909643826566
30
0
41
1
10
60.865685047074
20
3.12733988137373
30
0
41
1
10
60.8661168925345
20
3.12646213391119
30
0
41
1
10
60.8668118263871
20
3.12505888714475
30
0
41
1
10
60.8675127306307
20
3.12365738875229
30
0
41
1
10
60.8682196027
20
3.12225768796083
30
0
41
1
10
60.868930452465
20
3.12085920197899
30
0
41
1
10
60.872335323837
20
3.11422516599816
30
0
41
1
10
60.8787323490344
20
3.10245043199484
30
0
41
1
10
60.8885153618157
20
3.08612068585646
30
0
41
1
10
60.8990389863211
20
3.07013506017691
30
0
41
1
10
60.9102831082112
20
3.05454268898725
30
0
41
1
10
60.9222276131466
20
3.0393927063185
30
0
41
1
10
60.9348438984578
20
3.02473074820983
30
0
41
1
10
60.9481033614754
20
3.01060245070042
30
0
41
1
10
60.9596586957869
20
2.99930720180294
30
0
41
1
10
60.9691883125388
20
2.99057817121772
30
0
41
1
10
60.9789010596944
20
2.98205949890632
30
0
41
1
10
60.9888778487583
20
2.97386473288361
30
0
41
1
10
60.9990973723356
20
2.96601061090539
30
0
41
1
10
61.0094708277791
20
2.95838782805302
30
0
41
1
10
61.0200633443075
20
2.95111841853367
30
0
41
1
10
61.0308512484918
20
2.94421511163586
30
0
41
1
10
61.0417610392912
20
2.93755865891427
30
0
41
1
10
61.0528411022796
20
2.93127666610002
30
0
41
1
10
61.0640663219899
20
2.92537749047881
30
0
41
1
10
61.0725514169609
20
2.92114549044226
30
0
41
1
10
61.0810962939474
20
2.91710684516795
30
0
41
1
10
61.0871867287013
20
2.91438378698893
30
0
41
1
10
61.0907803496465
20
2.91282776171508
30
0
41
1
10
61.0918591578064
20
2.9123640054936
30
0
41
1
10
61.0929386755677
20
2.91190330041647
30
0
41
1
10
61.0940188906558
20
2.9114456462674
30
0
41
1
10
61.0950997907959
20
2.91099104283003
30
0
41
1
10
61.0965418880187
20
2.91038897224073
30
0
41
1
10
61.0983461608033
20
2.90964400970182
30
0
41
1
10
61.1005138319558
20
2.90876225404085
30
0
41
1
10
61.1026839487211
20
2.90789269603505
30
0
41
1
10
61.1048564129009
20
2.90703533395387
30
0
41
1
10
61.1070311262968
20
2.90619016606675
30
0
41
1
10
61.1092079907106
20
2.90535719064312
30
0
41
1
10
61.1121132136883
20
2.9042628110555
30
0
41
1
10
61.1172041950736
20
2.90239030828542
30
0
41
1
10
61.1230365253106
20
2.90034778944948
30
0
41
1
10
61.1318014058419
20
2.89743015462332
30
0
41
1
10
61.1435130654789
20
2.89379904882384
30
0
41
1
10
61.1655158101602
20
2.88783356130426
30
0
41
1
10
61.1889692866017
20
2.88299388251227
30
0
41
1
10
61.2122314219012
20
2.87961463975213
30
0
41
1
10
61.2252155245866
20
2.87824536564835
30
0
41
1
10
61.2338174497467
20
2.87754728140652
30
0
41
1
10
61.2381043525511
20
2.87724055880986
30
0
41
1
10
61.2420181634712
20
2.87699760861128
30
0
41
1
10
61.2448657587145
20
2.8768459862238
30
0
41
1
10
61.2470055876652
20
2.87674325480467
30
0
41
1
10
61.2487921162136
20
2.8766645614912
30
0
41
1
10
61.2506262910331
20
2.87659167825757
30
0
41
1
10
61.2517536708653
20
2.87654973391784
30
0
41
1
10
61.2521513338526
20
2.87653519070145
30
0
0
SPLINE
5
202
100
AcDbEntity
8
1
62
256
6
ByLayer
370
-1
48
1
60
0
100
AcDbSpline
70
4
71
3
72
25
73
21
40
0
40
0
40
0
40
0
40
0.0031159645604536
40
0.0146460991234266
40
0.0204111664049131
40
0.0607666373753185
40
0.10688717562721
40
0.199128252130994
40
0.291369328634778
40
0.383610405138562
40
0.752574711153697
40
0.844815787657481
40
0.931291796879778
40
0.937056864161265
40
0.948586998724238
40
0.960117133287211
40
0.97741233513167
40
0.983177402413157
40
0.99470753697613
40
1
40
1
40
1
40
1
41
1
10
65.6265521629315
20
7.36254964909574
30
0
41
1
10
65.6265305702747
20
7.36275781356767
30
0
41
1
10
65.6264289154196
20
7.36373624531936
30
0
41
1
10
65.6262864054988
20
7.36509974873158
30
0
41
1
10
65.6258837988547
20
7.36895093452117
30
0
41
1
10
65.6252392506459
20
7.37511288534799
30
0
41
1
10
65.6239894501424
20
7.38705160095412
30
0
41
1
10
65.6223756682943
20
7.40245565250106
30
0
41
1
10
65.6204402065791
20
7.42093737260726
30
0
41
1
10
65.6165686001252
20
7.45791378072428
30
0
41
1
10
65.6126881960415
20
7.4949707371153
30
0
41
1
10
65.6088739122403
20
7.53140638803001
30
0
41
1
10
65.6075814376723
20
7.54374961102701
30
0
41
1
10
65.6068491971824
20
7.55074049906594
30
0
41
1
10
65.6066455145744
20
7.5526849986328
30
0
41
1
10
65.6063612318707
20
7.55539930559928
30
0
41
1
10
65.6061199965276
20
7.5577035553527
30
0
41
1
10
65.6058825099149
20
7.55997348293386
30
0
41
1
10
65.6057295601067
20
7.56143625402541
30
0
41
1
10
65.6056158846747
20
7.56251179671071
30
0
41
1
10
65.605580085996
20
7.56284880395717
30
0
0
SPLINE
5
203
100
AcDbEntity
8
1
62
256
6
ByLayer
370
-1
48
1
60
0
100
AcDbSpline
70
4
71
3
72
14
73
10
40
0
40
0
40
0
40
0
40
0.040346686444583
40
0.150922708497138
40
0.261498730549693
40
0.372074752602248
40
0.593226796707359
40
0.814378840812469
40
1
40
1
40
1
40
1
41
1
10
61.4526651660954
20
2.86950644864527
30
0
41
1
10
61.4532278456012
20
2.86948727211723
30
0
41
1
10
61.4553326372509
20
2.86941648582416
30
0
41
1
10
61.458979624561
20
2.8693034037467
30
0
41
1
10
61.4636074072296
20
2.869191121276
30
0
41
1
10
61.4697790769596
20
2.86907964144913
30
0
41
1
10
61.4774951542645
20
2.86900573100758
30
0
41
1
10
61.4862589613981
20
2.86902320376231
30
0
41
1
10
61.491935319488
20
2.86909632460839
30
0
41
1
10
61.4945253020791
20
2.86914229272264
30
0
0
SPLINE
5
204
100
AcDbEntity
8
1
62
256
6
ByLayer
370
-1
48
1
60
0
100
AcDbSpline
70
4
71
1
72
4
73
2
40
0
40
0
40
1
40
1
41
1
10
60.6719518506475
20
7.13303119694731
30
0
41
1
10
60.6714711830348
20
7.1468482946791
30
0
0
SPLINE
5
205
100
AcDbEntity
8
1
62
256
6
ByLayer
370
-1
48
1
60
0
100
AcDbSpline
70
4
71
3
72
25
73
21
40
0
40
0
40
0
40
0
40
0.0031159645604588
40
0.0146460991234314
40
0.0204111664049177
40
0.060766637375322
40
0.106887175627213
40
0.199128252130994
40
0.291369328634775
40
0.383610405138556
40
0.752574711153681
40
0.844815787657462
40
0.931291796879757
40
0.937056864161243
40
0.948586998724216
40
0.960117133287189
40
0.977412335131648
40
0.983177402413134
40
0.994707536976107
40
1
40
1
40
1
40
1
41
1
10
61.2796467613776
20
7.84303107148727
30
0
41
1
10
61.2794393890344
20
7.84300939634997
30
0
41
1
10
61.2784646805109
20
7.8429073531899
30
0
41
1
10
61.2771063656409
20
7.84276429890437
30
0
41
1
10
61.2732698347759
20
7.84236015436821
30
0
41
1
10
61.2671313320323
20
7.84171314409002
30
0
41
1
10
61.2552380468434
20
7.84045856955163
30
0
41
1
10
61.2398926123632
20
7.83883862331905
30
0
41
1
10
61.2214812207818
20
7.83689576845453
30
0
41
1
10
61.1846455190612
20
7.83300937309298
30
0
41
1
10
61.1477295755771
20
7.82911414649604
30
0
41
1
10
61.1114325733142
20
7.82528529275029
30
0
41
1
10
61.0991363200073
20
7.82398788113943
30
0
41
1
10
61.092172034408
20
7.82325284360994
30
0
41
1
10
61.090234934249
20
7.82304838296744
30
0
41
1
10
61.08753095604
20
7.82276301434996
30
0
41
1
10
61.0852354746526
20
7.82252085752702
30
0
41
1
10
61.0829741848312
20
7.82228246375408
30
0
41
1
10
61.0815169800252
20
7.8221289297025
30
0
41
1
10
61.0804455301046
20
7.82201482004874
30
0
41
1
10
61.0801098052725
20
7.82197888462488
30
0
0
SPLINE
5
206
100
AcDbEntity
8
1
62
256
6
ByLayer
370
-1
48
1
60
0
100
AcDbSpline
70
4
71
1
72
4
73
2
40
0
40
0
40
1
40
1
41
1
10
65.6930139796976
20
5.50794313826597
30
0
41
1
10
65.7555940281436
20
3.70903964963159
30
0
0
SPLINE
5
207
100
AcDbEntity
8
1
62
256
6
ByLayer
370
-1
48
1
60
0
100
AcDbSpline
70
4
71
3
72
83
73
79
40
0
40
0
40
0
40
0
40
0.0019524496734437
40
0.0055614898932008
40
0.009170530112958
40
0.0127795703327152
40
0.0163886105524724
40
0.0236066909919867
40
0.0308247714315011
40
0.0380428518710154
40
0.0957874953871303
40
0.153532138903245
40
0.182404460661303
40
0.21127678241936
40
0.218494862858874
40
0.225712943298389
40
0.238344584067539
40
0.240149104177417
40
0.243758144397174
40
0.247367184616932
40
0.253683005001507
40
0.254585265056446
40
0.256389785166325
40
0.258194305276203
40
0.26180334549596
40
0.263607865605839
40
0.265412385715718
40
0.269021425935475
40
0.297893747693532
40
0.32676606945159
40
0.355638391209647
40
0.384510712967704
40
0.413383034725762
40
0.442255356483819
40
0.471127678241877
40
0.499999999999934
40
0.514436160878963
40
0.528872321757992
40
0.557744643516049
40
0.572180804395078
40
0.586616965274107
40
0.615489287032164
40
0.629925447911193
40
0.64436160879022
40
0.673233930548279
40
0.687670091427306
40
0.702106252306337
40
0.716542413185363
40
0.730978574064394
40
0.732783094174271
40
0.734587614284151
40
0.73639213439403
40
0.738196654503908
40
0.740001174613787
40
0.741805694723665
40
0.745414734943423
40
0.74902377516318
40
0.752632815382936
40
0.756241855602694
40
0.759850895822451
40
0.763459936042209
40
0.767068976261966
40
0.774287056701478
40
0.788723217580509
40
0.795941298020021
40
0.817595539338566
40
0.846467861096624
40
0.904212504612738
40
0.933084826370796
40
0.961957148128853
40
0.969175228568368
40
0.976393309007882
40
0.983611389447396
40
0.989024949777032
40
0.990829469886911
40
0.994438510106668
40
0.998047550326425
40
1
40
1
40
1
40
1
41
1
10
61.0801098052725
20
7.82197888462488
30
0
41
1
10
61.0797141215953
20
7.82193653130668
30
0
41
1
10
61.0785924027592
20
7.82181574669977
30
0
41
1
10
61.0767677606282
20
7.8216146067071
30
0
41
1
10
61.0746357108179
20
7.82137028720172
30
0
41
1
10
61.0725097573908
20
7.82111530267957
30
0
41
1
10
61.0696800532074
20
7.82076109203075
30
0
41
1
10
61.0661460584674
20
7.82029162393928
30
0
41
1
10
61.0618909128117
20
7.81968546699929
30
0
41
1
10
61.0476701449614
20
7.81752094072351
30
0
41
1
10
61.0232954951277
20
7.81272927634728
30
0
41
1
10
60.9944704567642
20
7.80464156288849
30
0
41
1
10
60.9715002175823
20
7.79665046679298
30
0
41
1
10
60.9586492957894
20
7.79158102155688
30
0
41
1
10
60.9501261827935
20
7.78796032458007
30
0
41
1
10
60.9448112600146
20
7.78563717376258
30
0
41
1
10
60.9405736257923
20
7.78371247302854
30
0
41
1
10
60.9370520772912
20
7.78206850669159
30
0
41
1
10
60.9352931736937
20
7.78123901593395
30
0
41
1
10
60.9326586822028
20
7.77997977105633
30
0
41
1
10
60.9305554741651
20
7.77895587261997
30
0
41
1
10
60.9288056015025
20
7.7780926298972
30
0
41
1
10
60.927931194134
20
7.77765913485715
30
0
41
1
10
60.9265332871452
20
7.77696154647015
30
0
41
1
10
60.9251371218772
20
7.77625796488627
30
0
41
1
10
60.9237427473698
20
7.77554839268044
30
0
41
1
10
60.9223495830494
20
7.77483482758487
30
0
41
1
10
60.9157407915783
20
7.77141695015737
30
0
41
1
10
60.9040108639928
20
7.76499548936292
30
0
41
1
10
60.8877432574685
20
7.75517510706217
30
0
41
1
10
60.8718184619209
20
7.74461128402078
30
0
41
1
10
60.8562854244111
20
7.73332421141168
30
0
41
1
10
60.8411930920003
20
7.7213340804079
30
0
41
1
10
60.8265869270688
20
7.7086696029364
30
0
41
1
10
60.8125123919968
20
7.69535949092415
30
0
41
1
10
60.8012601249316
20
7.68376001711292
30
0
41
1
10
60.7925643109431
20
7.67419399877315
30
0
41
1
10
60.7840780547517
20
7.66444415050128
30
0
41
1
10
60.7759144722878
20
7.65442925172403
30
0
41
1
10
60.7680902376149
20
7.6441706912268
30
0
41
1
10
60.7604964617527
20
7.63375761086871
30
0
41
1
10
60.7532547145312
20
7.62312463264809
30
0
41
1
10
60.7463776768003
20
7.61229552042232
30
0
41
1
10
60.739746553891
20
7.60134405599447
30
0
41
1
10
60.7334884659559
20
7.59022166896551
30
0
41
1
10
60.727611738479
20
7.57895357073943
30
0
41
1
10
60.7233958424803
20
7.57043606408411
30
0
41
1
10
60.7193725654705
20
7.56185854705575
30
0
41
1
10
60.71665986935
20
7.55574484783045
30
0
41
1
10
60.7151097652221
20
7.55213749983707
30
0
41
1
10
60.714647773733
20
7.55105457080532
30
0
41
1
10
60.7141888217778
20
7.54997092946147
30
0
41
1
10
60.713732909141
20
7.54888658812723
30
0
41
1
10
60.7132800356069
20
7.54780155912428
30
0
41
1
10
60.712680256078
20
7.54635395332426
30
0
41
1
10
60.7119381283465
20
7.54454278851082
30
0
41
1
10
60.711059728032
20
7.54236683720669
30
0
41
1
10
60.7101934789569
20
7.54018843094786
30
0
41
1
10
60.7093393793973
20
7.53800766830787
30
0
41
1
10
60.7084974276291
20
7.53582464786004
30
0
41
1
10
60.7076676219285
20
7.53363946817785
30
0
41
1
10
60.7065774067856
20
7.53072314772032
30
0
41
1
10
60.7047120294539
20
7.52561271961321
30
0
41
1
10
60.7026772830188
20
7.51975811082221
30
0
41
1
10
60.699770750674
20
7.5109597498712
30
0
41
1
10
60.6961534623283
20
7.49920335359698
30
0
41
1
10
60.6902106752898
20
7.47711656200548
30
0
41
1
10
60.6853894129367
20
7.45357349709423
30
0
41
1
10
60.6820230292155
20
7.43022250421694
30
0
41
1
10
60.6806589656131
20
7.41718880436855
30
0
41
1
10
60.6799635377926
20
7.40855402125189
30
0
41
1
10
60.679657982368
20
7.40425074317514
30
0
41
1
10
60.6794159566683
20
7.40032198213319
30
0
41
1
10
60.6792649112497
20
7.39746350953871
30
0
41
1
10
60.6791625707547
20
7.39531550678905
30
0
41
1
10
60.679084176893
20
7.39352215399183
30
0
41
1
10
60.6790115710021
20
7.39168097292239
30
0
41
1
10
60.6789697862732
20
7.39054928668244
30
0
41
1
10
60.6789552983982
20
7.39015010468717
30
0
0
SPLINE
5
208
100
AcDbEntity
8
1
62
256
6
ByLayer
370
-1
48
1
60
0
100
AcDbSpline
70
4
71
3
72
150
73
146
40
0
40
0
40
0
40
0
40
0.200919836739822
40
0.401839673479644
40
0.452069632664599
40
0.502299591849555
40
0.552215613789604
40
0.577173624759629
40
0.601975648161091
40
0.602131635729654
40
0.60244557297456
40
0.602759510219466
40
0.604329196443996
40
0.605114039556261
40
0.605898882668526
40
0.607468568893055
40
0.60825341200532
40
0.609038255117585
40
0.609430676673718
40
0.612177627566645
40
0.615317000015705
40
0.618456372464764
40
0.621595744913824
40
0.623165431138354
40
0.624735117362884
40
0.626304803587414
40
0.627089646699679
40
0.627874489811944
40
0.628266911368076
40
0.634153234710063
40
0.640431979608182
40
0.652989469404421
40
0.66554695920066
40
0.678104448996899
40
0.684383193895019
40
0.687522566344078
40
0.689877095680873
40
0.690661938793138
40
0.692231625017668
40
0.693016468129933
40
0.693801311242198
40
0.694586154354463
40
0.695370997466727
40
0.696155840578992
40
0.696940683691257
40
0.69733310524739
40
0.698510369915787
40
0.700080056140317
40
0.701649742364847
40
0.703219428589377
40
0.709498173487496
40
0.715776918385616
40
0.728334408181855
40
0.734613153079974
40
0.739322211753564
40
0.740891897978093
40
0.744031270427153
40
0.745600956651683
40
0.746385799763948
40
0.747170642876213
40
0.747955485988478
40
0.748740329100743
40
0.749525172213008
40
0.750310015325273
40
0.751094858437537
40
0.75148727999367
40
0.751879701549802
40
0.752272123105935
40
0.752664544662067
40
0.7530569662182
40
0.753449387774332
40
0.756588760223392
40
0.759728132672452
40
0.762867505121512
40
0.766006877570571
40
0.772285622468691
40
0.77542499491775
40
0.77856436736681
40
0.784843112264929
40
0.787982484713989
40
0.791121857163049
40
0.797400602061168
40
0.800539974510228
40
0.803679346959288
40
0.809958091857407
40
0.816236836755527
40
0.822515581653646
40
0.828794326551766
40
0.835073071449885
40
0.841351816348004
40
0.847630561246124
40
0.853909306144243
40
0.854694149256508
40
0.855086570812641
40
0.855478992368773
40
0.856263835481038
40
0.856656257037171
40
0.857048678593303
40
0.857244889371369
40
0.858618364817833
40
0.859403207930098
40
0.860188051042363
40
0.860580472598495
40
0.863327423491422
40
0.864897109715952
40
0.866466795940482
40
0.872745540838602
40
0.879024285736721
40
0.89158177553296
40
0.904139265329199
40
0.905708951553729
40
0.907278637778258
40
0.908848324002788
40
0.909633167115053
40
0.910418010227318
40
0.911202853339583
40
0.911987696451848
40
0.912772539564113
40
0.913557382676378
40
0.91394980423251
40
0.915127068900908
40
0.915911912013173
40
0.916696755125438
40
0.91708917668157
40
0.922975500023557
40
0.929254244921677
40
0.954369224514154
40
0.960647969412274
40
0.966926714310393
40
0.973205459208513
40
0.976344831657572
40
0.9790917825505
40
0.979484204106632
40
0.980269047218897
40
0.981053890331162
40
0.981838733443427
40
0.982623576555692
40
0.984193262780222
40
0.985762949004751
40
0.992041693902871
40
0.995181066351931
40
0.997535595688725
40
0.99832043880099
40
0.99989012502552
40
1
40
1
40
1
40
1
41
1
10
65.0239547337043
20
5.4849321268062
30
0
41
1
10
65.0291659343563
20
5.33513283348915
30
0
41
1
10
65.0395883356604
20
5.03553424685509
30
0
41
1
10
65.0513136370402
20
4.69847930249961
30
0
41
1
10
65.0591302631712
20
4.47379179771036
30
0
41
1
10
65.0630304455819
20
4.36168133195235
30
0
41
1
10
65.0662752286756
20
4.26840809870487
30
0
41
1
10
65.0688605600733
20
4.19408882714484
30
0
41
1
10
65.0701552751517
20
4.15686931011871
30
0
41
1
10
65.0708107834982
20
4.13802494697097
30
0
41
1
10
65.0708311154581
20
4.13744044953387
30
0
41
1
10
65.0708881162143
20
4.13580180726851
30
0
41
1
10
65.070957331482
20
4.13381202321361
30
0
41
1
10
65.0710387612924
20
4.13147109531863
30
0
41
1
10
65.0711201911553
20
4.12913016398599
30
0
41
1
10
65.0712016210921
20
4.12678922781788
30
0
41
1
10
65.0712830510931
20
4.12444828745626
30
0
41
1
10
65.0713339448685
20
4.12298519811671
30
0
41
1
10
65.0714357324529
20
4.1200590172179
30
0
41
1
10
65.0715985927264
20
4.11537711873709
30
0
41
1
10
65.0718327046188
20
4.10864687337286
30
0
41
1
10
65.0720769954094
20
4.10162400077627
30
0
41
1
10
65.0722805710376
20
4.09577160894827
30
0
41
1
10
65.0724434314432
20
4.09108970182322
30
0
41
1
10
65.0725655766794
20
4.08757827593212
30
0
41
1
10
65.0726673643031
20
4.08465209247001
30
0
41
1
10
65.0727487943484
20
4.08231114921063
30
0
41
1
10
65.0727996881023
20
4.08084806126988
30
0
41
1
10
65.0729829055449
20
4.07558094935445
30
0
41
1
10
65.0733086247395
20
4.06621724084101
30
0
41
1
10
65.073949880223
20
4.04778271313327
30
0
41
1
10
65.0747641615392
20
4.02437453211024
30
0
41
1
10
65.0757412708884
20
3.99628656115306
30
0
41
1
10
65.0765554967782
20
3.97288200507236
30
0
41
1
10
65.0771254337552
20
3.95650019877536
30
0
41
1
10
65.0774307508827
20
3.94772464007079
30
0
41
1
10
65.077593584647
20
3.94304447531712
30
0
41
1
10
65.0777157090679
20
3.93953441077303
30
0
41
1
10
65.0777971248922
20
3.93719439757521
30
0
41
1
10
65.0778785402507
20
3.93485441485095
30
0
41
1
10
65.0779396015341
20
3.93309944320501
30
0
41
1
10
65.0780006625797
20
3.93134448711683
30
0
41
1
10
65.0780617233848
20
3.92958954674691
30
0
41
1
10
65.0781227839473
20
3.92783462225575
30
0
41
1
10
65.0781736675449
20
3.92637219854581
30
0
41
1
10
65.0782347276763
20
3.92461730224372
30
0
41
1
10
65.0783161408528
20
3.92227746221425
30
0
41
1
10
65.0784280831602
20
3.91906023517774
30
0
41
1
10
65.078550201011
20
3.91555060032303
30
0
41
1
10
65.0787944346131
20
3.90853146791537
30
0
41
1
10
65.0791607769963
20
3.89800329381524
30
0
41
1
10
65.0798120930849
20
3.87928387537562
30
0
41
1
10
65.0804635656139
20
3.86055422556947
30
0
41
1
10
65.0810746465152
20
3.84297389701862
30
0
41
1
10
65.0814002947208
20
3.83361483125586
30
0
41
1
10
65.0816443021283
20
3.82661049221775
30
0
41
1
10
65.0818068399217
20
3.82194968427712
30
0
41
1
10
65.0819493532038
20
3.81785233360202
30
0
41
1
10
65.0820309315396
20
3.8155016919774
30
0
41
1
10
65.0820922010146
20
3.81373310438173
30
0
41
1
10
65.0821535708482
20
3.81195795322248
30
0
41
1
10
65.0822148597677
20
3.81018809393637
30
0
41
1
10
65.0822758865002
20
3.80843538196004
30
0
41
1
10
65.0823364697728
20
3.80671167273019
30
0
41
1
10
65.0823864352228
20
3.80530929685796
30
0
41
1
10
65.0824211728207
20
3.80420805872106
30
0
41
1
10
65.0824433780392
20
3.80339251976616
30
0
41
1
10
65.0824605046787
20
3.8025874288264
30
0
41
1
10
65.0824729116393
20
3.80178828445594
30
0
41
1
10
65.0824809578212
20
3.80099058520898
30
0
41
1
10
65.0824934480351
20
3.79833045718169
30
0
41
1
10
65.0824066262579
20
3.79375409166238
30
0
41
1
10
65.0819993781
20
3.78718990509154
30
0
41
1
10
65.0812939746836
20
3.78055474856538
30
0
41
1
10
65.0799402959918
20
3.77163485432666
30
0
41
1
10
65.0779435054075
20
3.76263784338712
30
0
41
1
10
65.0752822326648
20
3.75365834562928
30
0
41
1
10
65.0721708483945
20
3.74472206661997
30
0
41
1
10
65.0683736117001
20
3.73589793067481
30
0
41
1
10
65.0639072008842
20
3.72728934125462
30
0
41
1
10
65.0590002334218
20
3.71885891733794
30
0
41
1
10
65.0534407701409
20
3.71074744340706
30
0
41
1
10
65.0472856210281
20
3.70304765914975
30
0
41
1
10
65.0407522846896
20
3.69565324790412
30
0
41
1
10
65.0319120194596
20
3.68704077054883
30
0
41
1
10
65.0204023472356
20
3.67784137098562
30
0
41
1
10
65.0081677188065
20
3.6699042592258
30
0
41
1
10
64.9954113254377
20
3.66327726384822
30
0
41
1
10
64.9823363583944
20
3.65800821343166
30
0
41
1
10
64.9691338794071
20
3.65406751078791
30
0
41
1
10
64.9559949502059
20
3.65142555872876
30
0
41
1
10
64.9468291086902
20
3.65041413720257
30
0
41
1
10
64.9418104542779
20
3.65009924115989
30
0
41
1
10
64.940750414834
20
3.65004147918893
30
0
41
1
10
64.9396820570722
20
3.64998946569097
30
0
41
1
10
64.9385922249762
20
3.64994616567932
30
0
41
1
10
64.9374814939296
20
3.64990666627796
30
0
41
1
10
64.9367786990007
20
3.64988253922391
30
0
41
1
10
64.9353604069136
20
3.64983358994974
30
0
41
1
10
64.9336207578237
20
3.64977278765721
30
0
41
1
10
64.9314168767568
20
3.64969518018637
30
0
41
1
10
64.9299432355967
20
3.64964320177495
30
0
41
1
10
64.9270041153517
20
3.64953969164517
30
0
41
1
10
64.9235013852144
20
3.64941680467882
30
0
41
1
10
64.9191416772986
20
3.64926421964247
30
0
41
1
10
64.9121726742935
20
3.64902044093873
30
0
41
1
10
64.9016865214848
20
3.64865298611093
30
0
41
1
10
64.8830055667046
20
3.64799760387692
30
0
41
1
10
64.8596826024675
20
3.64717992101069
30
0
41
1
10
64.8398725024324
20
3.64648567972665
30
0
41
1
10
64.8282184588077
20
3.64607724538649
30
0
41
1
10
64.8247221774241
20
3.64595471134675
30
0
41
1
10
64.8218085537552
20
3.64585259659046
30
0
41
1
10
64.8194776219493
20
3.64577090298647
30
0
41
1
10
64.8177294068191
20
3.64570963189274
30
0
41
1
10
64.8159811755729
20
3.645648359917
30
0
41
1
10
64.8142329283703
20
3.64558708706804
30
0
41
1
10
64.812484665371
20
3.64552581335454
30
0
41
1
10
64.8110277665073
20
3.64547475121344
30
0
41
1
10
64.8092794762628
20
3.64541347600888
30
0
41
1
10
64.8075311706207
20
3.64535219996162
30
0
41
1
10
64.8054914585995
20
3.64528071003005
30
0
41
1
10
64.8040345089428
20
3.64522964510917
30
0
41
1
10
64.7987894567915
20
3.64504580956682
30
0
41
1
10
64.7894646047771
20
3.64471897359348
30
0
41
1
10
64.7617797862621
20
3.64374858822504
30
0
41
1
10
64.7337996177019
20
3.64276777314382
30
0
41
1
10
64.7058171532248
20
3.6417868324119
30
0
41
1
10
64.6918255435519
20
3.64129634138979
30
0
41
1
10
64.6801656224206
20
3.6408875853862
30
0
41
1
10
64.6711290799187
20
3.6405707938122
30
0
41
1
10
64.6664650309415
20
3.64040728700382
30
0
41
1
10
64.66354999318
20
3.64030509485724
30
0
41
1
10
64.6620924730083
20
3.64025399871329
30
0
41
1
10
64.6603434468965
20
3.64019268323628
30
0
41
1
10
64.6585944190388
20
3.64013136766369
30
0
41
1
10
64.6562623797798
20
3.64004961345114
30
0
41
1
10
64.6533473271392
20
3.63994742049025
30
0
41
1
10
64.6463511919425
20
3.63970215689926
30
0
41
1
10
64.6381890158245
20
3.63941601503677
30
0
41
1
10
64.6294438418043
20
3.63910943527307
30
0
41
1
10
64.6247797595208
20
3.63894592664189
30
0
41
1
10
64.6212817042358
20
3.6388232955203
30
0
41
1
10
64.6194510603509
20
3.63875911879816
30
0
41
1
10
64.6182034263889
20
3.63871538063509
30
0
41
1
10
64.6181218076076
20
3.63871251933483
30
0
0
SPLINE
5
209
100
AcDbEntity
8
1
62
256
6
ByLayer
370
-1
48
1
60
0
100
AcDbSpline
70
4
71
3
72
40
73
36
40
0
40
0
40
0
40
0
40
0.015625
40
0.03125
40
0.03515625
40
0.0390625
40
0.046875
40
0.0625
40
0.125
40
0.1875
40
0.25
40
0.3125
40
0.34375
40
0.3515625
40
0.359375
40
0.375
40
0.4375
40
0.5
40
0.5625
40
0.59375
40
0.6015625
40
0.609375
40
0.625
40
0.640625
40
0.6484375
40
0.65625
40
0.6875
40
0.71875
40
0.75
40
0.78125
40
0.796875
40
0.8046875
40
0.8125
40
0.875
40
1
40
1
40
1
40
1
41
1
10
61.3783559570819
20
5.35713871977273
30
0
41
1
10
61.3747540521319
20
5.35701245801616
30
0
41
1
10
61.3675138847543
20
5.35675623119036
30
0
41
1
10
61.3598893304571
20
5.35648067443952
30
0
41
1
10
61.3552438790475
20
5.35631033253637
30
0
41
1
10
61.3522724638857
20
5.35620058921359
30
0
41
1
10
61.3470162979559
20
5.35600655169838
30
0
41
1
10
61.3305521093633
20
5.35539867087377
30
0
41
1
10
61.3035810325301
20
5.35440290748994
30
0
41
1
10
61.2676314468075
20
5.35307564196307
30
0
41
1
10
61.2316849660634
20
5.35174848506642
30
0
41
1
10
61.2017244207495
20
5.35064234465747
30
0
41
1
10
61.1822555199377
20
5.34992353543512
30
0
41
1
10
61.1732640369608
20
5.34959158321328
30
0
41
1
10
61.1672956205242
20
5.34937118252762
30
0
41
1
10
61.1507285772306
20
5.34876091242094
30
0
41
1
10
61.1221611038429
20
5.34771682991544
30
0
41
1
10
61.0817279693433
20
5.3462561874519
30
0
41
1
10
61.0466817846754
20
5.34500360221733
30
0
41
1
10
61.0235441740126
20
5.34418286536601
30
0
41
1
10
61.0128450203221
20
5.34380449238867
30
0
41
1
10
61.0056599434485
20
5.3435507128749
30
0
41
1
10
60.9966470521324
20
5.34323232114352
30
0
41
1
10
60.9876465269205
20
5.34291438392569
30
0
41
1
10
60.9804391910595
20
5.34265978628753
30
0
41
1
10
60.9696576972808
20
5.34227896265847
30
0
41
1
10
60.953360263843
20
5.34170515468907
30
0
41
1
10
60.9314566662427
20
5.3409376352632
30
0
41
1
10
60.9094798616878
20
5.34017122551856
30
0
41
1
10
60.8911824274839
20
5.33953620853828
30
0
41
1
10
60.8784384324973
20
5.33909551848521
30
0
41
1
10
60.8711607833394
20
5.33884431975372
30
0
41
1
10
60.8529412646506
20
5.33821534015132
30
0
41
1
10
60.8074016506206
20
5.33664327699074
30
0
41
1
10
60.7636792206972
20
5.33513391145493
30
0
41
1
10
60.7345318990935
20
5.33412770831299
30
0
0
SPLINE
5
20A
100
AcDbEntity
8
1
62
256
6
ByLayer
370
-1
48
1
60
0
100
AcDbSpline
70
4
71
3
72
150
73
146
40
0
40
0
40
0
40
0
40
0.200919836739823
40
0.401839673479645
40
0.452069632664601
40
0.502299591849557
40
0.552215613789606
40
0.577173624759631
40
0.601975648161093
40
0.602131635729656
40
0.602445572974563
40
0.602759510219468
40
0.604329196443998
40
0.605114039556263
40
0.605898882668528
40
0.607468568893058
40
0.608253412005322
40
0.609038255117588
40
0.60943067667372
40
0.612177627566647
40
0.615317000015707
40
0.618456372464767
40
0.621595744913827
40
0.623165431138356
40
0.624735117362886
40
0.626304803587416
40
0.627089646699681
40
0.627874489811946
40
0.628266911368078
40
0.634153234710066
40
0.640431979608185
40
0.652989469404424
40
0.665546959200663
40
0.678104448996902
40
0.684383193895021
40
0.687522566344081
40
0.689877095680876
40
0.690661938793141
40
0.692231625017671
40
0.693016468129935
40
0.6938013112422
40
0.694586154354465
40
0.69537099746673
40
0.696155840578995
40
0.69694068369126
40
0.697333105247393
40
0.69851036991579
40
0.70008005614032
40
0.701649742364849
40
0.70321942858938
40
0.709498173487499
40
0.715776918385618
40
0.728334408181857
40
0.734613153079977
40
0.739322211753567
40
0.740891897978096
40
0.744031270427156
40
0.745600956651686
40
0.746385799763951
40
0.747170642876216
40
0.747955485988481
40
0.748740329100746
40
0.74952517221301
40
0.750310015325276
40
0.75109485843754
40
0.751487279993673
40
0.751879701549805
40
0.752272123105938
40
0.75266454466207
40
0.753056966218203
40
0.753449387774335
40
0.756588760223395
40
0.759728132672455
40
0.762867505121515
40
0.766006877570574
40
0.772285622468694
40
0.775424994917753
40
0.778564367366813
40
0.784843112264932
40
0.787982484713992
40
0.791121857163052
40
0.797400602061171
40
0.800539974510231
40
0.803679346959291
40
0.80995809185741
40
0.81623683675553
40
0.822515581653649
40
0.828794326551769
40
0.835073071449888
40
0.841351816348008
40
0.847630561246127
40
0.853909306144247
40
0.854694149256512
40
0.855086570812644
40
0.855478992368776
40
0.856263835481041
40
0.856656257037174
40
0.857048678593306
40
0.857244889371373
40
0.858618364817836
40
0.859403207930101
40
0.860188051042366
40
0.860580472598498
40
0.863327423491426
40
0.864897109715956
40
0.866466795940485
40
0.872745540838605
40
0.879024285736724
40
0.891581775532963
40
0.904139265329202
40
0.905708951553732
40
0.907278637778262
40
0.908848324002792
40
0.909633167115057
40
0.910418010227322
40
0.911202853339587
40
0.911987696451852
40
0.912772539564117
40
0.913557382676381
40
0.913949804232514
40
0.915127068900911
40
0.915911912013176
40
0.916696755125441
40
0.917089176681574
40
0.922975500023561
40
0.92925424492168
40
0.954369224514158
40
0.960647969412277
40
0.966926714310397
40
0.973205459208516
40
0.976344831657576
40
0.979091782550503
40
0.979484204106636
40
0.980269047218901
40
0.981053890331166
40
0.981838733443431
40
0.982623576555696
40
0.984193262780225
40
0.985762949004755
40
0.992041693902875
40
0.995181066351934
40
0.997535595688729
40
0.998320438800994
40
0.999890125025524
40
1
40
1
40
1
40
1
41
1
10
63.264808902662
20
3.59127323744079
30
0
41
1
10
63.1155796408817
20
3.58604213084882
30
0
41
1
10
62.8171211173211
20
3.57557991766492
30
0
41
1
10
62.4813487687885
20
3.56380982753876
30
0
41
1
10
62.25751626779
20
3.55596334316581
30
0
41
1
10
62.1458324162012
20
3.55204826269184
30
0
41
1
10
62.0529141157662
20
3.54879108505392
30
0
41
1
10
61.9788776514721
20
3.54619587811024
30
0
41
1
10
61.9417997659451
20
3.54489621743062
30
0
41
1
10
61.9230271112884
20
3.54423820514873
30
0
41
1
10
61.9224448380405
20
3.54421779552399
30
0
41
1
10
61.9208124313037
20
3.54416057703415
30
0
41
1
10
61.9188302189779
20
3.54409109737543
30
0
41
1
10
61.9164981990203
20
3.54400935651643
30
0
41
1
10
61.9141661756381
20
3.54392761560465
30
0
41
1
10
61.9118341474389
20
3.54384587461865
30
0
41
1
10
61.9095021150621
20
3.54376413356829
30
0
41
1
10
61.9080445932192
20
3.54371304538705
30
0
41
1
10
61.9051295473221
20
3.5436108689905
30
0
41
1
10
61.9004654648786
20
3.5434473866172
30
0
41
1
10
61.8937608301299
20
3.54321238045546
30
0
41
1
10
61.8867646816838
20
3.54296715651375
30
0
41
1
10
61.8809345599735
20
3.54276280325971
30
0
41
1
10
61.8762704689186
20
3.54259932075377
30
0
41
1
10
61.8727724050631
20
3.54247670894264
30
0
41
1
10
61.8698573566126
20
3.54237453250676
30
0
41
1
10
61.867525321349
20
3.54229279141191
30
0
41
1
10
61.8660678008996
20
3.54224170325213
30
0
41
1
10
61.8608207319352
20
3.54205778594866
30
0
41
1
10
61.8514926551596
20
3.54173082255966
30
0
41
1
10
61.8331282763953
20
3.54108711758434
30
0
41
1
10
61.8098091705683
20
3.54026972584592
30
0
41
1
10
61.7818280828205
20
3.5392888840976
30
0
41
1
10
61.7585125881417
20
3.53847154799723
30
0
41
1
10
61.7421931195635
20
3.53789943395358
30
0
41
1
10
61.7334509545092
20
3.53759295056426
30
0
41
1
10
61.7287885991955
20
3.53742949480139
30
0
41
1
10
61.7252918915067
20
3.53730690388514
30
0
41
1
10
61.7229607827655
20
3.53722517706552
30
0
41
1
10
61.720629704382
20
3.53714345071361
30
0
41
1
10
61.718881410933
20
3.53708215618602
30
0
41
1
10
61.7171331329826
20
3.53702086189722
30
0
41
1
10
61.7153848706906
20
3.53695956784966
30
0
41
1
10
61.7136366242169
20
3.53689827404583
30
0
41
1
10
61.7121797654708
20
3.53684719608114
30
0
41
1
10
61.7104315470789
20
3.53678590270997
30
0
41
1
10
61.7081006108472
20
3.53670417854823
30
0
41
1
10
61.7048956263308
20
3.53659180863943
30
0
41
1
10
61.7013993466963
20
3.53646922431832
30
0
41
1
10
61.6944069242067
20
3.53622405778356
30
0
41
1
10
61.6839188129875
20
3.53585631603195
30
0
41
1
10
61.6652706275866
20
3.5352025120217
30
0
41
1
10
61.6466122497526
20
3.53454855097351
30
0
41
1
10
61.6290988196595
20
3.53393513584248
30
0
41
1
10
61.6197753679675
20
3.53360824371356
30
0
41
1
10
61.6127976825542
20
3.53336330423744
30
0
41
1
10
61.6081546103949
20
3.53320014557602
30
0
41
1
10
61.6040728513761
20
3.53305708791643
30
0
41
1
10
61.6017311546525
20
3.5329751979645
30
0
41
1
10
61.5999692970666
20
3.53291369445012
30
0
41
1
10
61.5982009008935
20
3.5328520901937
30
0
41
1
10
61.5964377764562
20
3.53279056716056
30
0
41
1
10
61.5946917340782
20
3.53272930731589
30
0
41
1
10
61.5929745840824
20
3.53266849262499
30
0
41
1
10
61.5915775446737
20
3.5326183363151
30
0
41
1
10
61.5904804970804
20
3.53258346602519
30
0
41
1
10
61.5896680614974
20
3.53256117598642
30
0
41
1
10
61.5888660341718
20
3.53254398392588
30
0
41
1
10
61.5880699307869
20
3.53253152957265
30
0
41
1
10
61.5872752670264
20
3.53252345265571
30
0
41
1
10
61.5846252615893
20
3.53251091473126
30
0
41
1
10
61.5800663105225
20
3.5325980681535
30
0
41
1
10
61.5735271026633
20
3.53300687193323
30
0
41
1
10
61.566917194911
20
3.53371496987609
30
0
41
1
10
61.5580312435628
20
3.53507381940048
30
0
41
1
10
61.5490684689662
20
3.53707823740044
30
0
41
1
10
61.5401231409083
20
3.53974967577272
30
0
41
1
10
61.5312208671385
20
3.54287294502544
30
0
41
1
10
61.5224303096948
20
3.54668468654722
30
0
41
1
10
61.5138544785562
20
3.55116815832676
30
0
41
1
10
61.5054561349478
20
3.55609386960774
30
0
41
1
10
61.4973755276242
20
3.56167456913514
30
0
41
1
10
61.4897050433706
20
3.5678532299176
30
0
41
1
10
61.4823387700922
20
3.57441152253961
30
0
41
1
10
61.4737590658134
20
3.58328555614659
30
0
41
1
10
61.4645946727429
20
3.59483919344862
30
0
41
1
10
61.4566877640896
20
3.60712055617074
30
0
41
1
10
61.4500859864302
20
3.61992567688992
30
0
41
1
10
61.4448369863413
20
3.6330505881831
30
0
41
1
10
61.4409112792608
20
3.64630349849531
30
0
41
1
10
61.4382793806269
20
3.65949261627156
30
0
41
1
10
61.4372718078649
20
3.66869346981289
30
0
41
1
10
61.4369581100968
20
3.67373129466975
30
0
41
1
10
61.4369005679275
20
3.67479538329201
30
0
41
1
10
61.4368487523566
20
3.67586782200698
30
0
41
1
10
61.4368056171146
20
3.67696181708448
30
0
41
1
10
61.4367662680204
20
3.67807679094329
30
0
41
1
10
61.4367422327771
20
3.67878227043454
30
0
41
1
10
61.4366934697696
20
3.6802059801671
30
0
41
1
10
61.4366328988482
20
3.6819522744338
30
0
41
1
10
61.4365555866972
20
3.68416457396842
30
0
41
1
10
61.4365038060794
20
3.68564384419835
30
0
41
1
10
61.4364006898369
20
3.68859419140514
30
0
41
1
10
61.4362782704926
20
3.69211030140255
30
0
41
1
10
61.4361262660883
20
3.69648666269436
30
0
41
1
10
61.4358834150361
20
3.70348228615876
30
0
41
1
10
61.4355173584849
20
3.71400849436768
30
0
41
1
10
61.4348644701781
20
3.73276080736025
30
0
41
1
10
61.4340498988421
20
3.75617286153181
30
0
41
1
10
61.4333582993558
20
3.7760586329307
30
0
41
1
10
61.4329514192316
20
3.78775719310877
30
0
41
1
10
61.4328293514708
20
3.79126682971935
30
0
41
1
10
61.432727625292
20
3.79419158295727
30
0
41
1
10
61.4326462425569
20
3.79653141854399
30
0
41
1
10
61.4325852046181
20
3.79828631157193
30
0
41
1
10
61.4325241658008
20
3.8000412207775
30
0
41
1
10
61.4324631261135
20
3.80179614600041
30
0
41
1
10
61.432402085565
20
3.80355108708042
30
0
41
1
10
61.4323512177307
20
3.80501355106108
30
0
41
1
10
61.4322901756968
20
3.80676851949028
30
0
41
1
10
61.4322291328234
20
3.80852350337585
30
0
41
1
10
61.4321579149326
20
3.81057100676566
30
0
41
1
10
61.4321070443292
20
3.81203352173333
30
0
41
1
10
61.4319239083366
20
3.81729860913174
30
0
41
1
10
61.4315983160728
20
3.82665908056595
30
0
41
1
10
61.4306316233136
20
3.85444965059014
30
0
41
1
10
61.4296545405299
20
3.88253669884855
30
0
41
1
10
61.4286773325736
20
3.91062605179417
30
0
41
1
10
61.428188708018
20
3.92467110714287
30
0
41
1
10
61.4277815074543
20
3.93637556727873
30
0
41
1
10
61.427465921368
20
3.94544662790489
30
0
41
1
10
61.4273030367523
20
3.95012849279149
30
0
41
1
10
61.4272012334777
20
3.95305466552375
30
0
41
1
10
61.42715033177
20
3.95451775318568
30
0
41
1
10
61.4270892496169
20
3.95627346029303
30
0
41
1
10
61.4270281673686
20
3.95802916915312
30
0
41
1
10
61.4269467242555
20
3.96037011642324
30
0
41
1
10
61.4268449201697
20
3.96329630409133
30
0
41
1
10
61.4266005898807
20
3.9703191633879
30
0
41
1
10
61.4263155368744
20
3.97851251769265
30
0
41
1
10
61.4260101237393
20
3.98729109685692
30
0
41
1
10
61.4258472373078
20
3.99197299517704
30
0
41
1
10
61.4257250728346
20
3.99548441246492
30
0
41
1
10
61.4256611403243
20
3.99732204911209
30
0
41
1
10
61.4256175685981
20
3.99857444883307
30
0
41
1
10
61.4256147181859
20
3.99865637938484
30
0
0
SPLINE
5
20B
100
AcDbEntity
8
1
62
256
6
ByLayer
370
-1
48
1
60
0
100
AcDbSpline
70
4
71
3
72
25
73
21
40
0
40
0
40
0
40
0
40
0.0031159645604902
40
0.0146460991234626
40
0.0204111664049488
40
0.0607666373753522
40
0.106887175627242
40
0.199128252131021
40
0.2913693286348
40
0.38361040513858
40
0.752574711153697
40
0.844815787657476
40
0.931291796879769
40
0.937056864161255
40
0.948586998724227
40
0.9601171332872
40
0.977412335131658
40
0.983177402413145
40
0.994707536976117
40
1
40
1
40
1
40
1
41
1
10
65.1478991174135
20
2.99903977509163
30
0
41
1
10
65.1481064897567
20
2.99906145022894
30
0
41
1
10
65.1490811982803
20
2.99916349338901
30
0
41
1
10
65.1504395131503
20
2.99930654767454
30
0
41
1
10
65.1542760440153
20
2.9997106922107
30
0
41
1
10
65.1604145467588
20
3.00035770248888
30
0
41
1
10
65.1723078319477
20
3.00161227702728
30
0
41
1
10
65.1876532664279
20
3.00323222325986
30
0
41
1
10
65.2060646580093
20
3.00517507812438
30
0
41
1
10
65.24290035973
20
3.00906147348593
30
0
41
1
10
65.2798163032141
20
3.01295670008287
30
0
41
1
10
65.3161133054769
20
3.01678555382861
30
0
41
1
10
65.3284095587838
20
3.01808296543948
30
0
41
1
10
65.3353738443832
20
3.01881800296897
30
0
41
1
10
65.3373109445421
20
3.01902246361146
30
0
41
1
10
65.3400149227512
20
3.01930783222895
30
0
41
1
10
65.3423104041386
20
3.01954998905188
30
0
41
1
10
65.34457169396
20
3.01978838282483
30
0
41
1
10
65.3460288987659
20
3.0199419168764
30
0
41
1
10
65.3471003486866
20
3.02005602653017
30
0
41
1
10
65.3474360735187
20
3.02009196195402
30
0
0
SPLINE
5
20C
100
AcDbEntity
8
1
62
256
6
ByLayer
370
-1
48
1
60
0
100
AcDbSpline
70
4
71
1
72
4
73
2
40
0
40
0
40
1
40
1
41
1
10
61.3351378167564
20
7.84692766753176
30
0
41
1
10
63.1271959345127
20
7.90974676159627
30
0
0
SPLINE
5
20D
100
AcDbEntity
8
1
62
256
6
ByLayer
370
-1
48
1
60
0
100
AcDbSpline
70
4
71
3
72
24
73
20
40
0
40
0
40
0
40
0
40
0.0052924630237951
40
0.0168225975867757
40
0.0283527321497563
40
0.039882866712729
40
0.0629431358386876
40
0.074473270401663
40
0.109063674090599
40
0.155184212342509
40
0.247425288846335
40
0.431907441853983
40
0.616389594861631
40
0.800871747869279
40
0.893112824373101
40
0.979588833595442
40
0.985353900876926
40
0.996884035439904
40
1
40
1
40
1
40
1
41
1
10
60.6789552983982
20
7.39015010468722
30
0
41
1
10
60.6789430059037
20
7.38981141164504
30
0
41
1
10
60.6789043479475
20
7.3887305290406
30
0
41
1
10
60.678840421854
20
7.38688544291551
30
0
41
1
10
60.6787608605142
20
7.38459440925411
30
0
41
1
10
60.6786532618151
20
7.38150106021035
30
0
41
1
10
60.6785442550725
20
7.3783718466872
30
0
41
1
10
60.6783812348688
20
7.37369050497364
30
0
41
1
10
60.6781646813393
20
7.36746926467038
30
0
41
1
10
60.6777606585368
20
7.35585576511392
30
0
41
1
10
60.6770102340664
20
7.33427278575789
30
0
41
1
10
60.6759335072973
20
7.30332045230753
30
0
41
1
10
60.674638953252
20
7.26611443476727
30
0
41
1
10
60.6735622774255
20
7.23516339888258
30
0
41
1
10
60.6727127108347
20
7.21078313946583
30
0
41
1
10
60.6722824093301
20
7.19839883216204
30
0
41
1
10
60.67204120384
20
7.1914328390159
30
0
41
1
10
60.6719937923218
20
7.19006267806699
30
0
41
1
10
60.6719603773224
20
7.18907951155489
30
0
41
1
10
60.6719533028276
20
7.18887034218002
30
0
0
SPLINE
5
20E
100
AcDbEntity
8
1
62
256
6
ByLayer
370
-1
48
1
60
0
100
AcDbSpline
70
4
71
3
72
14
73
10
40
0
40
0
40
0
40
0
40
0.0403466864447581
40
0.150922708497259
40
0.26149873054976
40
0.372074752602261
40
0.593226796707263
40
0.814378840812265
40
1
40
1
40
1
40
1
41
1
10
64.9748807126958
20
7.97256439793364
30
0
41
1
10
64.97431803319
20
7.97258357446168
30
0
41
1
10
64.9722132415402
20
7.97265436075475
30
0
41
1
10
64.9685662542301
20
7.97276744283224
30
0
41
1
10
64.9639384715616
20
7.9728797253029
30
0
41
1
10
64.9577668018316
20
7.97299120512977
30
0
41
1
10
64.9500507245267
20
7.97306511557136
30
0
41
1
10
64.941286917393
20
7.9730476428166
30
0
41
1
10
64.9356105593031
20
7.97297452197051
30
0
41
1
10
64.933020576712
20
7.97292855385626
30
0
0
SPLINE
5
20F
100
AcDbEntity
8
1
62
256
6
ByLayer
370
-1
48
1
60
0
100
AcDbSpline
70
4
71
3
72
14
73
10
40
0
40
0
40
0
40
0
40
0.040346686444562
40
0.150922708497077
40
0.261498730549592
40
0.372074752602106
40
0.593226796707136
40
0.814378840812166
40
1
40
1
40
1
40
1
41
1
10
60.6719533028276
20
7.18887034217997
30
0
41
1
10
60.671934199272
20
7.18830551332988
30
0
41
1
10
60.6718636823422
20
7.18619268171798
30
0
41
1
10
60.6717510305761
20
7.18253176350882
30
0
41
1
10
60.6716391753741
20
7.17788630346232
30
0
41
1
10
60.6715281197617
20
7.1716910589565
30
0
41
1
10
60.6714544905716
20
7.1639455074899
30
0
41
1
10
60.6714718968373
20
7.15514822403668
30
0
41
1
10
60.6715447394365
20
7.14945018318107
30
0
41
1
10
60.6715905326282
20
7.14685030727722
30
0
0
SPLINE
5
210
100
AcDbEntity
8
1
62
256
6
ByLayer
370
-1
48
1
60
0
100
AcDbSpline
70
4
71
3
72
14
73
10
40
0
40
0
40
0
40
0
40
0.185621159235442
40
0.627925247419594
40
0.738501269465631
40
0.849077291511669
40
0.904365302534688
40
0.959653313557707
40
1
40
1
40
1
40
1
41
1
10
61.3213796226066
20
7.84632550980592
30
0
41
1
10
61.3187927547104
20
7.84619000776888
30
0
41
1
10
61.3100438089961
20
7.84568903534745
30
0
41
1
10
61.2997637688462
20
7.84492688856079
30
0
41
1
10
61.2905404353389
20
7.84411183854331
30
0
41
1
10
61.2866998461738
20
7.84374845532
30
0
41
1
10
61.2836291278054
20
7.84344224900028
30
0
41
1
10
61.2815341081167
20
7.84322773955955
30
0
41
1
10
61.2802067376277
20
7.84308960177108
30
0
41
1
10
61.2796467613776
20
7.84303107148727
30
0
0
SPLINE
5
211
100
AcDbEntity
8
1
62
256
6
ByLayer
370
-1
48
1
60
0
100
AcDbSpline
70
4
71
3
72
14
73
10
40
0
40
0
40
0
40
0
40
0.18562115923549
40
0.627925247419724
40
0.738501269465783
40
0.849077291511842
40
0.904365302534871
40
0.959653313557901
40
1
40
1
40
1
40
1
41
1
10
65.1061662561846
20
2.99574533677298
30
0
41
1
10
65.1087531240807
20
2.99588083881005
30
0
41
1
10
65.1175020697951
20
2.99638181123146
30
0
41
1
10
65.127782109945
20
2.99714395801811
30
0
41
1
10
65.1370054434523
20
2.99795900803559
30
0
41
1
10
65.1408460326173
20
2.99832239125891
30
0
41
1
10
65.1439167509857
20
2.99862859757863
30
0
41
1
10
65.1460117706745
20
2.99884310701938
30
0
41
1
10
65.1473391411634
20
2.99898124480782
30
0
41
1
10
65.1478991174135
20
2.99903977509163
30
0
0
SPLINE
5
212
100
AcDbEntity
8
1
62
256
6
ByLayer
370
-1
48
1
60
0
100
AcDbSpline
70
4
71
3
72
14
73
10
40
0
40
0
40
0
40
0
40
0.0403466864445557
40
0.150922708497071
40
0.261498730549585
40
0.3720747526021
40
0.59322679670713
40
0.81437884081216
40
1
40
1
40
1
40
1
41
1
10
65.7555925759636
20
3.65320050439894
30
0
41
1
10
65.7556116795191
20
3.65376533324903
30
0
41
1
10
65.755682196449
20
3.65587816486092
30
0
41
1
10
65.755794848215
20
3.65953908307009
30
0
41
1
10
65.755906703417
20
3.66418454311659
30
0
41
1
10
65.7560177590295
20
3.67037978762241
30
0
41
1
10
65.7560913882195
20
3.67812533908901
30
0
41
1
10
65.7560739819538
20
3.68692262254223
30
0
41
1
10
65.7560011393547
20
3.69262066339783
30
0
41
1
10
65.755955346163
20
3.69522053930169
30
0
0
SPLINE
5
213
100
AcDbEntity
8
1
62
256
6
ByLayer
370
-1
48
1
60
0
100
AcDbSpline
70
4
71
1
72
4
73
2
40
0
40
0
40
1
40
1
41
1
10
65.1061725815382
20
2.99562568273208
30
0
41
1
10
65.0924080620348
20
2.99514317904715
30
0
0
SPLINE
5
214
100
AcDbEntity
8
1
62
256
6
ByLayer
370
-1
48
1
60
0
100
AcDbSpline
70
4
71
3
72
20
73
16
40
0
40
0
40
0
40
0
40
0.0011113171582908
40
0.002403540551359
40
0.0036957639444272
40
0.0049879873374954
40
0.0075724341236317
40
0.0080893234808588
40
0.0086062128380862
40
0.0088630422374586
40
0.0907916206372232
40
0.17297702843636
40
0.338381622749088
40
0.669190811374544
40
1
40
1
40
1
40
1
41
1
10
64.9766959726002
20
6.84341446719407
30
0
41
1
10
64.9767134828421
20
6.84291116321404
30
0
41
1
10
64.9767513537075
20
6.84182262526647
30
0
41
1
10
64.9768095851021
20
6.84014885508901
30
0
41
1
10
64.9768706667701
20
6.83839315691452
30
0
41
1
10
64.9769521088076
20
6.83605222944814
30
0
41
1
10
64.9770213342869
20
6.83406244575121
30
0
41
1
10
64.9770783433194
20
6.83242380377598
30
0
41
1
10
64.9770986782156
20
6.83183930644179
30
0
41
1
10
64.9784017393446
20
6.79438467818306
30
0
41
1
10
64.9809913506735
20
6.71994770424971
30
0
41
1
10
64.9861822003031
20
6.57073320518595
30
0
41
1
10
64.9952927363264
20
6.30883549057307
30
0
41
1
10
65.0083211317481
20
5.93433000675728
30
0
41
1
10
65.0187435330522
20
5.63473142012322
30
0
41
1
10
65.0239547337043
20
5.4849321268062
30
0
0
SPLINE
5
215
100
AcDbEntity
8
1
62
256
6
ByLayer
370
-1
48
1
60
0
100
AcDbSpline
70
4
71
3
72
40
73
36
40
0
40
0
40
0
40
0
40
0.015625
40
0.03125
40
0.03515625
40
0.0390625
40
0.046875
40
0.0625
40
0.125
40
0.1875
40
0.25
40
0.3125
40
0.34375
40
0.3515625
40
0.359375
40
0.375
40
0.4375
40
0.5
40
0.5625
40
0.59375
40
0.6015625
40
0.609375
40
0.625
40
0.640625
40
0.6484375
40
0.65625
40
0.6875
40
0.71875
40
0.75
40
0.78125
40
0.796875
40
0.8046875
40
0.8125
40
0.875
40
1
40
1
40
1
40
1
41
1
10
63.2648089026617
20
3.59127323744076
30
0
41
1
10
63.2649346839542
20
3.58765757379908
30
0
41
1
10
63.2652592237313
20
3.58032019751772
30
0
41
1
10
63.2657700632131
20
3.57242928460698
30
0
41
1
10
63.2661536973003
20
3.56755133072383
30
0
41
1
10
63.2664222867575
20
3.56440869313636
30
0
41
1
10
63.2668947832146
20
3.55885218570481
30
0
41
1
10
63.2683773510124
20
3.54144475644532
30
0
41
1
10
63.2708046729248
20
3.51292982397629
30
0
41
1
10
63.2740405823051
20
3.47492191217495
30
0
41
1
10
63.2772763895223
20
3.43691711113576
30
0
41
1
10
63.2799729566697
20
3.40524139421902
30
0
41
1
10
63.2817258044018
20
3.38465739126568
30
0
41
1
10
63.2825347056734
20
3.37515152336346
30
0
41
1
10
63.2830732841176
20
3.36884007350491
30
0
41
1
10
63.2845235371316
20
3.35136422415911
30
0
41
1
10
63.2867810110341
20
3.32146561308346
30
0
41
1
10
63.2894711227453
20
3.27963828554132
30
0
41
1
10
63.291405611184
20
3.24376893750582
30
0
41
1
10
63.2924990072167
20
3.22026610915248
30
0
41
1
10
63.2929707399468
20
3.20943092473789
30
0
41
1
10
63.2932781170641
20
3.20216363030372
30
0
41
1
10
63.2936652571495
20
3.19304608404076
30
0
41
1
10
63.2940513445182
20
3.1839415533428
30
0
41
1
10
63.2943606165255
20
3.17665083089167
30
0
41
1
10
63.2948223609308
20
3.16574546899344
30
0
41
1
10
63.2954657346789
20
3.14931375864566
30
0
41
1
10
63.2962219802634
20
3.12733487796703
30
0
41
1
10
63.2968722572437
20
3.10538777440098
30
0
41
1
10
63.2973227331352
20
3.08720326731498
30
0
41
1
10
63.2975894414081
20
3.07458355533569
30
0
41
1
10
63.2977280525713
20
3.06739016483655
30
0
41
1
10
63.2980781995826
20
3.04937854563261
30
0
41
1
10
63.2989513583041
20
3.00436054678983
30
0
41
1
10
63.299790649163
20
2.96113797300924
30
0
41
1
10
63.3003499442781
20
2.93232408498264
30
0
0
SPLINE
5
216
100
AcDbEntity
8
1
62
256
6
ByLayer
370
-1
48
1
60
0
100
AcDbSpline
70
4
71
3
72
40
73
36
40
0
40
0
40
0
40
0
40
0.015625
40
0.03125
40
0.03515625
40
0.0390625
40
0.046875
40
0.0625
40
0.125
40
0.1875
40
0.25
40
0.3125
40
0.34375
40
0.3515625
40
0.359375
40
0.375
40
0.4375
40
0.5
40
0.5625
40
0.59375
40
0.6015625
40
0.609375
40
0.625
40
0.640625
40
0.6484375
40
0.65625
40
0.6875
40
0.71875
40
0.75
40
0.78125
40
0.796875
40
0.8046875
40
0.8125
40
0.875
40
1
40
1
40
1
40
1
41
1
10
65.0239547337043
20
5.48493212680617
30
0
41
1
10
65.0275566386542
20
5.48505838856275
30
0
41
1
10
65.0349353819754
20
5.48531461538855
30
0
41
1
10
65.0430325988877
20
5.48559017213938
30
0
41
1
10
65.04810593107
20
5.48576051404251
30
0
41
1
10
65.0513958737135
20
5.48587025736532
30
0
41
1
10
65.0572104342701
20
5.48606429488052
30
0
41
1
10
65.075428623149
20
5.48667217570511
30
0
41
1
10
65.1052703954
20
5.48766793908894
30
0
41
1
10
65.1450473701215
20
5.48899520461583
30
0
41
1
10
65.1848212519719
20
5.49032236151248
30
0
41
1
10
65.2179710691594
20
5.49142850192143
30
0
41
1
10
65.2395135175628
20
5.49214731114378
30
0
41
1
10
65.2494614249959
20
5.4924792633656
30
0
41
1
10
65.256067874332
20
5.49269966405126
30
0
41
1
10
65.2743195279643
20
5.49330993415794
30
0
41
1
10
65.3053217302443
20
5.49435401666344
30
0
41
1
10
65.3482249196104
20
5.49581465912701
30
0
41
1
10
65.3846444436164
20
5.49706724436157
30
0
41
1
10
65.4083336189451
20
5.4978879812129
30
0
41
1
10
65.419222371788
20
5.49826635419023
30
0
41
1
10
65.4265165752839
20
5.49852013370401
30
0
41
1
10
65.4356693864613
20
5.49883852543539
30
0
41
1
10
65.4448086316693
20
5.49915646265322
30
0
41
1
10
65.4521272539104
20
5.49941106029135
30
0
41
1
10
65.4630734875392
20
5.49979188392044
30
0
41
1
10
65.4795144195595
20
5.50036569188984
30
0
41
1
10
65.5014013107634
20
5.5011332113157
30
0
41
1
10
65.5231516826304
20
5.50189962106035
30
0
41
1
10
65.5410848675195
20
5.5025346380406
30
0
41
1
10
65.5534842528633
20
5.5029753280937
30
0
41
1
10
65.5605386386585
20
5.50322652682519
30
0
41
1
10
65.5782052790797
20
5.50385550642758
30
0
41
1
10
65.6223590485815
20
5.50542756958814
30
0
41
1
10
65.6647528163342
20
5.50693693512397
30
0
41
1
10
65.6930139796976
20
5.50794313826592
30
0
0
SPLINE
5
217
100
AcDbEntity
8
1
62
256
6
ByLayer
370
-1
48
1
60
0
100
AcDbSpline
70
4
71
3
72
14
73
10
40
0
40
0
40
0
40
0
40
0.185621159235322
40
0.627925247419607
40
0.738501269465678
40
0.849077291511749
40
0.904365302534785
40
0.95965331355782
40
1
40
1
40
1
40
1
41
1
10
60.7977118138734
20
3.52141347146218
30
0
41
1
10
60.7978468002843
20
3.51881672215097
30
0
41
1
10
60.7983458663544
20
3.51003435688526
30
0
41
1
10
60.7991051129424
20
3.49971504865212
30
0
41
1
10
60.7999170614485
20
3.49045648350918
30
0
41
1
10
60.800279061889
20
3.48660122391743
30
0
41
1
10
60.8005841030012
20
3.48351877590375
30
0
41
1
10
60.8007977961688
20
3.48141575358011
30
0
41
1
10
60.8009354083012
20
3.48008331275156
30
0
41
1
10
60.8009937158596
20
3.47952119748317
30
0
0
SPLINE
5
218
100
AcDbEntity
8
1
62
256
6
ByLayer
370
-1
48
1
60
0
100
AcDbSpline
70
4
71
1
72
4
73
2
40
0
40
0
40
1
40
1
41
1
10
65.0924080620348
20
2.99514317904715
30
0
41
1
10
63.3003499442784
20
2.93232408498264
30
0
0
SPLINE
5
219
100
AcDbEntity
8
1
62
256
6
ByLayer
370
-1
48
1
60
0
100
AcDbSpline
70
4
71
3
72
40
73
36
40
0
40
0
40
0
40
0
40
0.125
40
0.1875
40
0.1953125
40
0.203125
40
0.21875
40
0.25
40
0.28125
40
0.3125
40
0.34375
40
0.3515625
40
0.359375
40
0.375
40
0.390625
40
0.3984375
40
0.40625
40
0.4375
40
0.5
40
0.5625
40
0.625
40
0.640625
40
0.6484375
40
0.65625
40
0.6875
40
0.75
40
0.8125
40
0.875
40
0.9375
40
0.953125
40
0.9609375
40
0.96484375
40
0.96875
40
0.984375
40
1
40
1
40
1
40
1
41
1
10
63.1271959345124
20
7.90974676159627
30
0
41
1
10
63.1286413878677
20
7.88093287356963
30
0
41
1
10
63.1308093408974
20
7.83771029978905
30
0
41
1
10
63.1330683441471
20
7.7926923009463
30
0
41
1
10
63.133971369426
20
7.77468068174232
30
0
41
1
10
63.1343332439518
20
7.76748729124321
30
0
41
1
10
63.1349445618677
20
7.7548675792639
30
0
41
1
10
63.1357592870741
20
7.7366830721779
30
0
41
1
10
63.1366359967421
20
7.71473596861188
30
0
41
1
10
63.137408948723
20
7.69275708793322
30
0
41
1
10
63.1379088238887
20
7.67632537758544
30
0
41
1
10
63.1382058284437
20
7.66542001568723
30
0
41
1
10
63.1384038140709
20
7.6581292932361
30
0
41
1
10
63.1386511814437
20
7.64902476253812
30
0
41
1
10
63.1388984016677
20
7.63990721627519
30
0
41
1
10
63.1390966521627
20
7.63263992184099
30
0
41
1
10
63.1393787857403
20
7.62180473742643
30
0
41
1
10
63.1399206171073
20
7.59830190907309
30
0
41
1
10
63.1404817662079
20
7.56243256103758
30
0
41
1
10
63.1407018230526
20
7.52060523349542
30
0
41
1
10
63.1405245680627
20
7.49070662241979
30
0
41
1
10
63.1402902107382
20
7.47323077307399
30
0
41
1
10
63.1401907562829
20
7.46691932321545
30
0
41
1
10
63.1400432330982
20
7.4574134553132
30
0
41
1
10
63.1397225332386
20
7.43682945235986
30
0
41
1
10
63.1392298285126
20
7.40515373544312
30
0
41
1
10
63.1386382346235
20
7.36714893440396
30
0
41
1
10
63.1380467550048
20
7.32914102260261
30
0
41
1
10
63.1376033814995
20
7.30062609013356
30
0
41
1
10
63.1373319490108
20
7.28321866087407
30
0
41
1
10
63.1372460508414
20
7.27766215344252
30
0
41
1
10
63.1371961128168
20
7.27451951585505
30
0
41
1
10
63.1371518661312
20
7.26964156197189
30
0
41
1
10
63.1371900429978
20
7.26175064906119
30
0
41
1
10
63.1373760068315
20
7.25441327277983
30
0
41
1
10
63.1375017881239
20
7.25079760913812
30
0
0
SPLINE
5
21A
100
AcDbEntity
8
1
62
256
6
ByLayer
370
-1
48
1
60
0
100
AcDbSpline
70
4
71
3
72
14
73
10
40
0
40
0
40
0
40
0
40
0.185621159235359
40
0.627925247419583
40
0.738501269465639
40
0.849077291511695
40
0.904365302534723
40
0.959653313557751
40
1
40
1
40
1
40
1
41
1
10
65.6298340649178
20
7.32065737511672
30
0
41
1
10
65.6296990785069
20
7.32325412442793
30
0
41
1
10
65.6292000124367
20
7.33203648969365
30
0
41
1
10
65.6284407658487
20
7.34235579792681
30
0
41
1
10
65.6276288173426
20
7.35161436306973
30
0
41
1
10
65.6272668169022
20
7.35546962266147
30
0
41
1
10
65.6269617757899
20
7.35855207067516
30
0
41
1
10
65.6267480826224
20
7.3606550929988
30
0
41
1
10
65.6266104704899
20
7.36198753382735
30
0
41
1
10
65.6265521629315
20
7.36254964909574
30
0
0
SPLINE
5
21B
100
AcDbEntity
8
1
62
256
6
ByLayer
370
-1
48
1
60
0
100
AcDbSpline
70
4
71
1
72
4
73
2
40
0
40
0
40
1
40
1
41
1
10
61.321373297253
20
7.84644516384682
30
0
41
1
10
61.3351378167564
20
7.84692766753176
30
0
0
SPLINE
5
21C
100
AcDbEntity
8
1
62
256
6
ByLayer
370
-1
48
1
60
0
100
AcDbSpline
70
4
71
3
72
24
73
20
40
0
40
0
40
0
40
0
40
0.0052924630238029
40
0.0168225975867834
40
0.0283527321497638
40
0.0398828667127365
40
0.0629431358386948
40
0.0744732704016701
40
0.109063674090606
40
0.155184212342515
40
0.247425288846341
40
0.431907441853986
40
0.616389594861632
40
0.800871747869278
40
0.893112824373099
40
0.97958883359544
40
0.985353900876924
40
0.996884035439902
40
1
40
1
40
1
40
1
41
1
10
65.7485905803929
20
3.45192074189168
30
0
41
1
10
65.7486028728874
20
3.45225943493387
30
0
41
1
10
65.7486415308437
20
3.45334031753831
30
0
41
1
10
65.7487054569371
20
3.45518540366339
30
0
41
1
10
65.748785018277
20
3.4574764373248
30
0
41
1
10
65.748892616976
20
3.46056978636855
30
0
41
1
10
65.7490016237186
20
3.4636989998917
30
0
41
1
10
65.7491646439224
20
3.4683803416053
30
0
41
1
10
65.7493811974518
20
3.47460158190853
30
0
41
1
10
65.7497852202544
20
3.48621508146499
30
0
41
1
10
65.7505356447247
20
3.50779806082102
30
0
41
1
10
65.7516123714938
20
3.53875039427137
30
0
41
1
10
65.7529069255392
20
3.57595641181163
30
0
41
1
10
65.7539836013657
20
3.60690744769633
30
0
41
1
10
65.7548331679564
20
3.63128770711307
30
0
41
1
10
65.755263469461
20
3.64367201441687
30
0
41
1
10
65.7555046749512
20
3.650638007563
30
0
41
1
10
65.7555520864694
20
3.65200816851191
30
0
41
1
10
65.7555855014688
20
3.65299133502401
30
0
41
1
10
65.7555925759636
20
3.65320050439888
30
0
0
SPLINE
5
21D
100
AcDbEntity
8
1
62
256
6
ByLayer
370
-1
48
1
60
0
100
AcDbSpline
70
4
71
3
72
150
73
146
40
0
40
0
40
0
40
0
40
0.200919836739823
40
0.401839673479645
40
0.452069632664601
40
0.502299591849557
40
0.552215613789606
40
0.577173624759631
40
0.601975648161093
40
0.602131635729656
40
0.602445572974562
40
0.602759510219468
40
0.604329196443998
40
0.605114039556263
40
0.605898882668528
40
0.607468568893057
40
0.608253412005322
40
0.609038255117588
40
0.60943067667372
40
0.612177627566647
40
0.615317000015707
40
0.618456372464767
40
0.621595744913826
40
0.623165431138356
40
0.624735117362886
40
0.626304803587416
40
0.627089646699681
40
0.627874489811946
40
0.628266911368078
40
0.634153234710065
40
0.640431979608185
40
0.652989469404424
40
0.665546959200663
40
0.678104448996902
40
0.684383193895021
40
0.687522566344081
40
0.689877095680876
40
0.690661938793141
40
0.692231625017671
40
0.693016468129935
40
0.6938013112422
40
0.694586154354465
40
0.69537099746673
40
0.696155840578995
40
0.69694068369126
40
0.697333105247392
40
0.69851036991579
40
0.70008005614032
40
0.701649742364849
40
0.703219428589379
40
0.709498173487499
40
0.715776918385618
40
0.728334408181857
40
0.734613153079977
40
0.739322211753566
40
0.740891897978096
40
0.744031270427156
40
0.745600956651686
40
0.746385799763951
40
0.747170642876216
40
0.74795548598848
40
0.748740329100746
40
0.74952517221301
40
0.750310015325275
40
0.75109485843754
40
0.751487279993673
40
0.751879701549805
40
0.752272123105938
40
0.75266454466207
40
0.753056966218203
40
0.753449387774335
40
0.756588760223395
40
0.759728132672455
40
0.762867505121514
40
0.766006877570574
40
0.772285622468694
40
0.775424994917753
40
0.778564367366813
40
0.784843112264932
40
0.787982484713992
40
0.791121857163052
40
0.797400602061171
40
0.800539974510231
40
0.803679346959291
40
0.80995809185741
40
0.81623683675553
40
0.822515581653649
40
0.828794326551769
40
0.835073071449888
40
0.841351816348007
40
0.847630561246127
40
0.853909306144246
40
0.854694149256511
40
0.855086570812644
40
0.855478992368776
40
0.856263835481041
40
0.856656257037174
40
0.857048678593306
40
0.857244889371372
40
0.858618364817836
40
0.859403207930101
40
0.860188051042366
40
0.860580472598498
40
0.863327423491426
40
0.864897109715955
40
0.866466795940485
40
0.872745540838605
40
0.879024285736724
40
0.891581775532963
40
0.904139265329202
40
0.905708951553732
40
0.907278637778262
40
0.908848324002792
40
0.909633167115057
40
0.910418010227322
40
0.911202853339587
40
0.911987696451851
40
0.912772539564116
40
0.913557382676381
40
0.913949804232514
40
0.915127068900911
40
0.915911912013176
40
0.916696755125441
40
0.917089176681574
40
0.922975500023561
40
0.92925424492168
40
0.954369224514158
40
0.960647969412277
40
0.966926714310397
40
0.973205459208516
40
0.976344831657576
40
0.979091782550503
40
0.979484204106636
40
0.980269047218901
40
0.981053890331166
40
0.98183873344343
40
0.982623576555695
40
0.984193262780225
40
0.985762949004755
40
0.992041693902875
40
0.995181066351934
40
0.997535595688729
40
0.998320438800994
40
0.999890125025524
40
1
40
1
40
1
40
1
41
1
10
63.1375017881241
20
7.25079760913812
30
0
41
1
10
63.2867310499045
20
7.25602871573008
30
0
41
1
10
63.5851895734651
20
7.26649092891398
30
0
41
1
10
63.9209619219976
20
7.27826101904014
30
0
41
1
10
64.1447944229961
20
7.28610750341309
30
0
41
1
10
64.2564782745849
20
7.29002258388707
30
0
41
1
10
64.3493965750199
20
7.29327976152499
30
0
41
1
10
64.423433039314
20
7.29587496846867
30
0
41
1
10
64.460510924841
20
7.29717462914829
30
0
41
1
10
64.4792835794977
20
7.29783264143018
30
0
41
1
10
64.4798658527456
20
7.29785305105491
30
0
41
1
10
64.4814982594824
20
7.29791026954476
30
0
41
1
10
64.4834804718083
20
7.29797974920348
30
0
41
1
10
64.4858124917658
20
7.29806149006248
30
0
41
1
10
64.488144515148
20
7.29814323097426
30
0
41
1
10
64.4904765433473
20
7.29822497196025
30
0
41
1
10
64.492808575724
20
7.29830671301062
30
0
41
1
10
64.4942660975669
20
7.29835780119186
30
0
41
1
10
64.497181143464
20
7.29845997758841
30
0
41
1
10
64.5018452259076
20
7.2986234599617
30
0
41
1
10
64.5085498606563
20
7.29885846612345
30
0
41
1
10
64.5155460091024
20
7.29910369006515
30
0
41
1
10
64.5213761308126
20
7.2993080433192
30
0
41
1
10
64.5260402218675
20
7.29947152582514
30
0
41
1
10
64.529538285723
20
7.29959413763626
30
0
41
1
10
64.5324533341736
20
7.29969631407218
30
0
41
1
10
64.5347853694371
20
7.299778055167
30
0
41
1
10
64.5362428898865
20
7.29982914332678
30
0
41
1
10
64.5414899588509
20
7.30001306063025
30
0
41
1
10
64.5508180356265
20
7.30034002401925
30
0
41
1
10
64.5691824143908
20
7.30098372899457
30
0
41
1
10
64.5925015202179
20
7.30180112073299
30
0
41
1
10
64.6204826079656
20
7.3027819624813
30
0
41
1
10
64.6437981026444
20
7.30359929858167
30
0
41
1
10
64.6601175712226
20
7.30417141262532
30
0
41
1
10
64.6688597362769
20
7.30447789601465
30
0
41
1
10
64.6735220915907
20
7.30464135177752
30
0
41
1
10
64.6770187992795
20
7.30476394269377
30
0
41
1
10
64.6793499080206
20
7.30484566951338
30
0
41
1
10
64.6816809864042
20
7.30492739586529
30
0
41
1
10
64.6834292798532
20
7.30498869039289
30
0
41
1
10
64.6851775578036
20
7.30504998468169
30
0
41
1
10
64.6869258200956
20
7.30511127872924
30
0
41
1
10
64.6886740665692
20
7.30517257253308
30
0
41
1
10
64.6901309253154
20
7.30522365049777
30
0
41
1
10
64.6918791437072
20
7.30528494386894
30
0
41
1
10
64.694210079939
20
7.30536666803067
30
0
41
1
10
64.6974150644553
20
7.30547903793948
30
0
41
1
10
64.7009113440898
20
7.30560162226058
30
0
41
1
10
64.7079037665795
20
7.30584678879535
30
0
41
1
10
64.7183918777986
20
7.30621453054695
30
0
41
1
10
64.7370400631996
20
7.30686833455721
30
0
41
1
10
64.7556984410336
20
7.30752229560539
30
0
41
1
10
64.7732118711266
20
7.30813571073642
30
0
41
1
10
64.7825353228186
20
7.30846260286535
30
0
41
1
10
64.789513008232
20
7.30870754234147
30
0
41
1
10
64.7941560803913
20
7.30887070100289
30
0
41
1
10
64.79823783941
20
7.30901375866247
30
0
41
1
10
64.8005795361336
20
7.3090956486144
30
0
41
1
10
64.8023413937195
20
7.30915715212879
30
0
41
1
10
64.8041097898927
20
7.30921875638521
30
0
41
1
10
64.8058729143298
20
7.30928027941835
30
0
41
1
10
64.8076189567079
20
7.30934153926302
30
0
41
1
10
64.8093361067038
20
7.30940235395391
30
0
41
1
10
64.8107331461125
20
7.30945251026381
30
0
41
1
10
64.8118301937058
20
7.30948738055372
30
0
41
1
10
64.8126426292887
20
7.30950967059249
30
0
41
1
10
64.8134446566144
20
7.30952686265303
30
0
41
1
10
64.8142407599992
20
7.30953931700626
30
0
41
1
10
64.8150354237597
20
7.3095473939232
30
0
41
1
10
64.8176854291968
20
7.30955993184765
30
0
41
1
10
64.8222443802636
20
7.3094727784254
30
0
41
1
10
64.8287835881228
20
7.30906397464568
30
0
41
1
10
64.8353934958752
20
7.30835587670282
30
0
41
1
10
64.8442794472233
20
7.30699702717843
30
0
41
1
10
64.8532422218199
20
7.30499260917847
30
0
41
1
10
64.8621875498778
20
7.30232117080621
30
0
41
1
10
64.8710898236476
20
7.29919790155347
30
0
41
1
10
64.8798803810914
20
7.29538616003168
30
0
41
1
10
64.8884562122298
20
7.29090268825215
30
0
41
1
10
64.8968545558383
20
7.28597697697117
30
0
41
1
10
64.904935163162
20
7.28039627744377
30
0
41
1
10
64.9126056474155
20
7.2742176166613
30
0
41
1
10
64.9199719206939
20
7.2676593240393
30
0
41
1
10
64.9285516249727
20
7.25878529043231
30
0
41
1
10
64.9377160180433
20
7.24723165313029
30
0
41
1
10
64.9456229266965
20
7.23495029040816
30
0
41
1
10
64.9522247043559
20
7.22214516968899
30
0
41
1
10
64.9574737044449
20
7.20902025839581
30
0
41
1
10
64.9613994115253
20
7.19576734808359
30
0
41
1
10
64.9640313101593
20
7.18257823030737
30
0
41
1
10
64.9650388829212
20
7.17337737676601
30
0
41
1
10
64.9653525806893
20
7.16833955190916
30
0
41
1
10
64.9654101228586
20
7.1672754632869
30
0
41
1
10
64.9654619384295
20
7.16620302457193
30
0
41
1
10
64.9655050736715
20
7.16510902949443
30
0
41
1
10
64.9655444227657
20
7.16399405563561
30
0
41
1
10
64.965568458009
20
7.16328857614437
30
0
41
1
10
64.9656172210165
20
7.1618648664118
30
0
41
1
10
64.9656777919379
20
7.16011857214511
30
0
41
1
10
64.9657551040889
20
7.15790627261049
30
0
41
1
10
64.9658068847068
20
7.15642700238055
30
0
41
1
10
64.9659100009492
20
7.15347665517376
30
0
41
1
10
64.9660324202936
20
7.14996054517636
30
0
41
1
10
64.9661844246978
20
7.14558418388455
30
0
41
1
10
64.96642727575
20
7.13858856042015
30
0
41
1
10
64.9667933323012
20
7.12806235221126
30
0
41
1
10
64.9674462206079
20
7.10931003921866
30
0
41
1
10
64.968260791944
20
7.0858979850471
30
0
41
1
10
64.9689523914304
20
7.06601221364821
30
0
41
1
10
64.9693592715546
20
7.05431365347013
30
0
41
1
10
64.9694813393153
20
7.05080401685956
30
0
41
1
10
64.9695830654941
20
7.04787926362164
30
0
41
1
10
64.9696644482293
20
7.04553942803491
30
0
41
1
10
64.969725486168
20
7.04378453500698
30
0
41
1
10
64.9697865249854
20
7.0420296258014
30
0
41
1
10
64.9698475646726
20
7.04027470057849
30
0
41
1
10
64.9699086052212
20
7.03851975949849
30
0
41
1
10
64.9699594730554
20
7.03705729551783
30
0
41
1
10
64.9700205150893
20
7.03530232708863
30
0
41
1
10
64.9700815579627
20
7.03354734320305
30
0
41
1
10
64.9701527758535
20
7.03149983981325
30
0
41
1
10
64.970203646457
20
7.03003732484558
30
0
41
1
10
64.9703867824495
20
7.02477223744717
30
0
41
1
10
64.9707123747133
20
7.01541176601296
30
0
41
1
10
64.9716790674725
20
6.98762119598877
30
0
41
1
10
64.9726561502562
20
6.95953414773035
30
0
41
1
10
64.9736333582125
20
6.93144479478474
30
0
41
1
10
64.9741219827682
20
6.91739973943604
30
0
41
1
10
64.9745291833318
20
6.90569527930018
30
0
41
1
10
64.9748447694182
20
6.89662421867402
30
0
41
1
10
64.9750076540338
20
6.89194235378741
30
0
41
1
10
64.9751094573084
20
6.88901618105515
30
0
41
1
10
64.9751603590161
20
6.88755309339322
30
0
41
1
10
64.9752214411692
20
6.88579738628587
30
0
41
1
10
64.9752825234175
20
6.88404167742578
30
0
41
1
10
64.9753639665306
20
6.88170073015567
30
0
41
1
10
64.9754657706164
20
6.87877454248758
30
0
41
1
10
64.9757101009054
20
6.87175168319101
30
0
41
1
10
64.9759951539118
20
6.86355832888626
30
0
41
1
10
64.9763005670469
20
6.85477974972198
30
0
41
1
10
64.9764634534783
20
6.85009785140187
30
0
41
1
10
64.9765856179515
20
6.84658643411399
30
0
41
1
10
64.9766495504618
20
6.84474879746682
30
0
41
1
10
64.976693122188
20
6.84349639774584
30
0
41
1
10
64.9766959726002
20
6.84341446719407
30
0
0
SPLINE
5
21E
100
AcDbEntity
8
SK1
62
256
6
ByLayer
370
-1
48
1
60
0
100
AcDbSpline
70
4
71
3
72
8
73
4
40
0
40
0
40
0
40
0
40
1
40
1
40
1
40
1
41
1
10
-49
20
-5.92285193129115
30
0
41
1
10
-49.3676239342109
20
-5.30236629245442
30
0
41
1
10
-49.7070222547918
20
-4.66800398302257
30
0
41
1
10
-50
20
-4.01081974164879
30
0
0
SPLINE
5
21F
100
AcDbEntity
8
SK1
62
256
6
ByLayer
370
-1
48
1
60
0
100
AcDbSpline
70
4
71
3
72
20
73
16
40
0
40
0
40
0
40
0
40
0.249999999999993
40
0.249999999999993
40
0.374999999999994
40
0.374999999999994
40
0.499999999999995
40
0.499999999999995
40
0.624999999999996
40
0.624999999999996
40
0.749999999999998
40
0.749999999999998
40
0.874999999999999
40
0.874999999999999
40
1
40
1
40
1
40
1
41
1
10
-48.516222729729
20
5.74651411012826
30
0
41
1
10
-48.4762911096295
20
5.66161871277322
30
0
41
1
10
-48.4283722366634
20
5.57893837743811
30
0
41
1
10
-48.3426850116238
20
5.46624297823843
30
0
41
1
10
-48.3114261194144
20
5.43013690581458
30
0
41
1
10
-48.2441155430023
20
5.36414748183782
30
0
41
1
10
-48.2081109043675
20
5.33418916709314
30
0
41
1
10
-48.1299068985677
20
5.28227885986365
30
0
41
1
10
-48.0869527159662
20
5.26011190276751
30
0
41
1
10
-47.9975349560404
20
5.22932367138964
30
0
41
1
10
-47.9502203463448
20
5.22040015827844
30
0
41
1
10
-47.8545747664299
20
5.21866533516589
30
0
41
1
10
-47.8075489790091
20
5.22575417310171
30
0
41
1
10
-47.7170288270798
20
5.25356891952413
30
0
41
1
10
-47.6737128978907
20
5.27430314624814
30
0
41
1
10
-47.6338144512151
20
5.29932072668754
30
0
0
SPLINE
5
220
100
AcDbEntity
8
SK1
62
256
6
ByLayer
370
-1
48
1
60
0
100
AcDbSpline
70
4
71
3
72
8
73
4
40
0
40
0
40
0
40
0
40
1
40
1
40
1
40
1
41
1
10
-47.6338144512151
20
5.29932072668754
30
0
41
1
10
-47.2923417749157
20
5.5134348303427
30
0
41
1
10
-46.94738484153
20
5.72075834496087
30
0
41
1
10
-46.6000000000004
20
5.92285193129214
30
0
0
SPLINE
5
221
100
AcDbEntity
8
SK1
62
256
6
ByLayer
370
-1
48
1
60
0
100
AcDbSpline
70
4
71
3
72
8
73
4
40
0
40
0
40
0
40
0
40
1
40
1
40
1
40
1
41
1
10
-48.6
20
5.92285193129126
30
0
41
1
10
-48.5718597554103
20
5.86419941966201
30
0
41
1
10
-48.5439308119344
20
5.80542202928868
30
0
41
1
10
-48.516222729729
20
5.74651411012826
30
0
0
SPLINE
5
222
100
AcDbEntity
8
SK1
62
256
6
ByLayer
370
-1
48
1
60
0
100
AcDbSpline
70
4
71
3
72
20
73
16
40
0
40
0
40
0
40
0
40
0.124999999999999
40
0.124999999999999
40
0.249999999999997
40
0.249999999999997
40
0.374999999999996
40
0.374999999999996
40
0.499999999999994
40
0.499999999999994
40
0.624999999999993
40
0.624999999999993
40
0.749999999999992
40
0.749999999999992
40
1
40
1
40
1
40
1
41
1
10
-47.633814451215
20
-5.29932072668728
30
0
41
1
10
-47.6738922636715
20
-5.27419067826415
30
0
41
1
10
-47.7166430277408
20
-5.2536833095611
30
0
41
1
10
-47.8080113883237
20
-5.22561624608014
30
0
41
1
10
-47.8558086398442
20
-5.21864267878075
30
0
41
1
10
-47.9498238136525
20
-5.22043840528849
30
0
41
1
10
-47.9974643733847
20
-5.22930496216131
30
0
41
1
10
-48.0869190094971
20
-5.26009470978795
30
0
41
1
10
-48.1294303248595
20
-5.28196037105604
30
0
41
1
10
-48.2086279314314
20
-5.33453450915434
30
0
41
1
10
-48.2447916817791
20
-5.36473843771279
30
0
41
1
10
-48.3120993158946
20
-5.43087025673137
30
0
41
1
10
-48.3433839743252
20
-5.46708425266206
30
0
41
1
10
-48.4290137419149
20
-5.57994089637941
30
0
41
1
10
-48.4760766654538
20
-5.66116280030394
30
0
41
1
10
-48.5162227297291
20
-5.74651411012809
30
0
0
SPLINE
5
223
100
AcDbEntity
8
SK1
62
256
6
ByLayer
370
-1
48
1
60
0
100
AcDbSpline
70
4
71
3
72
8
73
4
40
0
40
0
40
0
40
0
40
1
40
1
40
1
40
1
41
1
10
-48.516222729729
20
-5.74651411012815
30
0
41
1
10
-48.5439308119344
20
-5.80542202928857
30
0
41
1
10
-48.5718597554103
20
-5.8641994196619
30
0
41
1
10
-48.6
20
-5.92285193129118
30
0
0
SPLINE
5
224
100
AcDbEntity
8
SK1
62
256
6
ByLayer
370
-1
48
1
60
0
100
AcDbSpline
70
4
71
3
72
70
73
66
40
0
40
0
40
0
40
0
40
0.015625
40
0.015625
40
0.0312499999999999
40
0.0312499999999999
40
0.0468749999999999
40
0.0468749999999999
40
0.0624999999999998
40
0.0624999999999998
40
0.0937499999999997
40
0.0937499999999997
40
0.125
40
0.125
40
0.156249999999999
40
0.156249999999999
40
0.187499999999999
40
0.187499999999999
40
0.249999999999999
40
0.249999999999999
40
0.281249999999999
40
0.281249999999999
40
0.312499999999999
40
0.312499999999999
40
0.374999999999999
40
0.374999999999999
40
0.406249999999999
40
0.406249999999999
40
0.437499999999999
40
0.437499999999999
40
0.499999999999999
40
0.499999999999999
40
0.562499999999999
40
0.562499999999999
40
0.593749999999999
40
0.593749999999999
40
0.624999999999999
40
0.624999999999999
40
0.687499999999999
40
0.687499999999999
40
0.749999999999999
40
0.749999999999999
40
0.781249999999999
40
0.781249999999999
40
0.812499999999999
40
0.812499999999999
40
0.828124999999999
40
0.828124999999999
40
0.843749999999999
40
0.843749999999999
40
0.874999999999999
40
0.874999999999999
40
0.890624999999999
40
0.890624999999999
40
0.906249999999999
40
0.906249999999999
40
0.9375
40
0.9375
40
0.953125
40
0.953125
40
0.96875
40
0.96875
40
0.984375
40
0.984375
40
1
40
1
40
1
40
1
41
1
10
-6.5
20
-5.92285193129121
30
0
41
1
10
-6.4207001561935
20
-5.92285193129121
30
0
41
1
10
-6.34086123714724
20
-5.9185668895135
30
0
41
1
10
-6.18144914173817
20
-5.90119679294747
30
0
41
1
10
-6.10329779169277
20
-5.88829240949369
30
0
41
1
10
-5.94990088501589
20
-5.85451305048375
30
0
41
1
10
-5.87465633133542
20
-5.83363525531988
30
0
41
1
10
-5.72696960000087
20
-5.78406116811425
30
0
41
1
10
-5.65429253457478
20
-5.75520748082337
30
0
41
1
10
-5.44519110301013
20
-5.65925614820594
30
0
41
1
10
-5.31596620096835
20
-5.58241846129397
30
0
41
1
10
-5.07484414087321
20
-5.40540504402466
30
0
41
1
10
-4.96593256698816
20
-5.30735528286371
30
0
41
1
10
-4.76784635237644
20
-5.09639651205995
30
0
41
1
10
-4.67840953317994
20
-4.983217129438
30
0
41
1
10
-4.51537314962405
20
-4.74292412211906
30
0
41
1
10
-4.44295328505657
20
-4.61746994914878
30
0
41
1
10
-4.24868198160985
20
-4.23068443115997
30
0
41
1
10
-4.14844766983134
20
-3.95746366364494
30
0
41
1
10
-4.0262637687357
20
-3.52851959599104
30
0
41
1
10
-3.99045707400202
20
-3.38261304841748
30
0
41
1
10
-3.92745056712241
20
-3.08915292017716
30
0
41
1
10
-3.90009723356329
20
-2.94105776320953
30
0
41
1
10
-3.8278752392381
20
-2.49297350515943
30
0
41
1
10
-3.79269532434782
20
-2.18920722447757
30
0
41
1
10
-3.75266975157555
20
-1.72668593189553
30
0
41
1
10
-3.74149452812992
20
-1.57136096042274
30
0
41
1
10
-3.7227914524648
20
-1.25845966931755
30
0
41
1
10
-3.71525523181913
20
-1.10051711083781
30
0
41
1
10
-3.69757555686806
20
-0.627542985956865
30
0
41
1
10
-3.69216291533115
20
-0.312549998346725
30
0
41
1
10
-3.69221342580033
20
0.316814481428594
30
0
41
1
10
-3.69767917852337
20
0.631185932377917
30
0
41
1
10
-3.71533699604186
20
1.10226412810465
30
0
41
1
10
-3.72282689544929
20
1.25921004505511
30
0
41
1
10
-3.74159811083336
20
1.57293530507485
30
0
41
1
10
-3.75286596385365
20
1.72931583567794
30
0
41
1
10
-3.7931360613473
20
2.19356375631057
30
0
41
1
10
-3.82851600359484
20
2.49788201632404
30
0
41
1
10
-3.92509289084615
20
3.09518912355421
30
0
41
1
10
-3.98613026108981
20
3.38819589012314
30
0
41
1
10
-4.10872562486918
20
3.81772380638489
30
0
41
1
10
-4.15457050303766
20
3.95816262372668
30
0
41
1
10
-4.25798900802536
20
4.23138581985137
30
0
41
1
10
-4.31562107045932
20
4.36443286751282
30
0
41
1
10
-4.41324202900785
20
4.55806429666799
30
0
41
1
10
-4.44765197842653
20
4.62161604232489
30
0
41
1
10
-4.52071677173481
20
4.74659993544324
30
0
41
1
10
-4.55949059300505
20
4.80819083961242
30
0
41
1
10
-4.68167362759087
20
4.98750932801642
30
0
41
1
10
-4.77111361192291
20
5.10028531412462
30
0
41
1
10
-4.91992617419712
20
5.25814375735854
30
0
41
1
10
-4.97198266212237
20
5.3088730991264
30
0
41
1
10
-5.08163619478131
20
5.40624856211491
30
0
41
1
10
-5.13955477027798
20
5.4531151519183
30
0
41
1
10
-5.31981523628792
20
5.58481269193101
30
0
41
1
10
-5.44864000404647
20
5.66109472307599
30
0
41
1
10
-5.65716976919146
20
5.75639550475049
30
0
41
1
10
-5.7298085887667
20
5.78512422111541
30
0
41
1
10
-5.87748335724046
20
5.83446980910264
30
0
41
1
10
-5.95248390556498
20
5.85515796054099
30
0
41
1
10
-6.10485268754977
20
5.88855660979888
30
0
41
1
10
-6.18222037802389
20
5.90126892263172
30
0
41
1
10
-6.3394359509619
20
5.91842344284453
30
0
41
1
10
-6.41995776294141
20
5.92285193129121
30
0
41
1
10
-6.5
20
5.92285193129121
30
0
0
SPLINE
5
225
100
AcDbEntity
8
SK1
62
256
6
ByLayer
370
-1
48
1
60
0
100
AcDbSpline
70
4
71
3
72
8
73
4
40
0
40
0
40
0
40
0
40
1
40
1
40
1
40
1
41
1
10
-46.6000000000004
20
-5.92285193129203
30
0
41
1
10
-46.94738484153
20
-5.72075834496076
30
0
41
1
10
-47.2923417749157
20
-5.51343483034259
30
0
41
1
10
-47.6338144512151
20
-5.29932072668743
30
0
0
LINE
5
45
100
AcDbEntity
8
80
62
256
6
ByLayer
370
-1
48
1
60
0
100
AcDbLine
10
0
20
0
30
0
11
-7
21
0
31
0
39
0
210
0
220
0
230
1
0
LINE
5
46
100
AcDbEntity
8
81
62
256
6
ByLayer
370
-1
48
1
60
0
100
AcDbLine
10
66
20
0
30
0
11
73
21
0
31
0
39
0
210
0
220
0
230
1
0
LINE
5
47
100
AcDbEntity
8
SK1
62
256
6
ByLayer
370
-1
48
1
60
0
100
AcDbLine
10
-2
20
-9.99675
30
0
11
-1.551212
21
-9.787477
31
0
39
0
210
0
220
0
230
1
0
LINE
5
49
100
AcDbEntity
8
SK1
62
256
6
ByLayer
370
-1
48
1
60
0
100
AcDbLine
10
-1.551212
20
9.787477
30
0
11
-2
21
9.99675
31
0
39
0
210
0
220
0
230
1
0
LINE
5
4A
100
AcDbEntity
8
SK1
62
256
6
ByLayer
370
-1
48
1
60
0
100
AcDbLine
10
-2
20
9.99675
30
0
11
-46.6
21
9.99675
31
0
39
0
210
0
220
0
230
1
0
LINE
5
4B
100
AcDbEntity
8
SK1
62
256
6
ByLayer
370
-1
48
1
60
0
100
AcDbLine
10
-46.6
20
-9.99675
30
0
11
-2
21
-9.99675
31
0
39
0
210
0
220
0
230
1
0
LINE
5
4C
100
AcDbEntity
8
SK1
62
256
6
ByLayer
370
-1
48
1
60
0
100
AcDbLine
10
-0.15
20
9.75
30
0
11
-1.382165
21
9.75
31
0
39
0
210
0
220
0
230
1
0
LINE
5
4D
100
AcDbEntity
8
SK1
62
256
6
ByLayer
370
-1
48
1
60
0
100
AcDbLine
10
-1.382165
20
-9.75
30
0
11
-0.15
21
-9.75
31
0
39
0
210
0
220
0
230
1
0
LINE
5
4E
100
AcDbEntity
8
SK1
62
256
6
ByLayer
370
-1
48
1
60
0
100
AcDbLine
10
-48.6
20
9.99675
30
0
11
-49
21
9.99675
31
0
39
0
210
0
220
0
230
1
0
LINE
5
4F
100
AcDbEntity
8
SK1
62
256
6
ByLayer
370
-1
48
1
60
0
100
AcDbLine
10
-49
20
-9.99675
30
0
11
-48.6
21
-9.99675
31
0
39
0
210
0
220
0
230
1
0
LINE
5
50
100
AcDbEntity
8
SK1
62
256
6
ByLayer
370
-1
48
1
60
0
100
AcDbLine
10
-46.6
20
9.99675
30
0
11
-47.633814
21
9.640417
31
0
39
0
210
0
220
0
230
1
0
LINE
5
51
100
AcDbEntity
8
SK1
62
256
6
ByLayer
370
-1
48
1
60
0
100
AcDbLine
10
-47.633814
20
-9.640417
30
0
11
-46.6
21
-9.99675
31
0
39
0
210
0
220
0
230
1
0
LINE
5
52
100
AcDbEntity
8
SK1
62
256
6
ByLayer
370
-1
48
1
60
0
100
AcDbLine
10
-48.6
20
-9.99675
30
0
11
-48.516223
21
-9.893294
31
0
39
0
210
0
220
0
230
1
0
LINE
5
53
100
AcDbEntity
8
SK1
62
256
6
ByLayer
370
-1
48
1
60
0
100
AcDbLine
10
-48.516223
20
9.893294
30
0
11
-48.6
21
9.99675
31
0
39
0
210
0
220
0
230
1
0
LINE
5
54
100
AcDbEntity
8
SK1
62
256
6
ByLayer
370
-1
48
1
60
0
100
AcDbLine
10
-49
20
9.99675
30
0
11
-50
21
8.99675
31
0
39
0
210
0
220
0
230
1
0
LINE
5
55
100
AcDbEntity
8
SK1
62
256
6
ByLayer
370
-1
48
1
60
0
100
AcDbLine
10
-50
20
-8.99675
30
0
11
-49
21
-9.99675
31
0
39
0
210
0
220
0
230
1
0
LINE
5
56
100
AcDbEntity
8
1
62
256
6
ByLayer
370
-1
48
1
60
0
100
AcDbLine
10
5
20
12.5
30
0
11
0.2
21
12.5
31
0
39
0
210
0
220
0
230
1
0
LINE
5
58
100
AcDbEntity
8
1
62
256
6
ByLayer
370
-1
48
1
60
0
100
AcDbLine
10
0.2
20
-12.5
30
0
11
5
21
-12.5
31
0
39
0
210
0
220
0
230
1
0
LINE
5
59
100
AcDbEntity
8
1
62
256
6
ByLayer
370
-1
48
1
60
0
100
AcDbLine
10
0.2
20
12.5
30
0
11
0
21
12.3
31
0
39
0
210
0
220
0
230
1
0
LINE
5
5A
100
AcDbEntity
8
1
62
256
6
ByLayer
370
-1
48
1
60
0
100
AcDbLine
10
0
20
-12.3
30
0
11
0.2
21
-12.5
31
0
39
0
210
0
220
0
230
1
0
LINE
5
5B
100
AcDbEntity
8
1
62
256
6
ByLayer
370
-1
48
1
60
0
100
AcDbLine
10
32.319183
20
7.7
30
0
11
15
21
7.7
31
0
39
0
210
0
220
0
230
1
0
LINE
5
5C
100
AcDbEntity
8
1
62
256
6
ByLayer
370
-1
48
1
60
0
100
AcDbLine
10
60.454142
20
7.7
30
0
11
57.814289
21
7.7
31
0
39
0
210
0
220
0
230
1
0
LINE
5
5D
100
AcDbEntity
8
1
62
256
6
ByLayer
370
-1
48
1
60
0
100
AcDbLine
10
15
20
-7.7
30
0
11
29.236316
21
-7.7
31
0
39
0
210
0
220
0
230
1
0
LINE
5
5E
100
AcDbEntity
8
SK4
62
256
6
ByLayer
370
-1
48
0.05
60
0
100
AcDbLine
10
66
20
0
30
0
11
-50
21
0
31
0
39
0
210
0
220
0
230
1
0
LINE
5
60
100
AcDbEntity
8
4
62
256
6
ByLayer
370
-1
48
0.05
60
0
100
AcDbLine
10
66
20
0
30
0
11
0
21
0
31
0
39
0
210
0
220
0
230
1
0
LINE
5
62
100
AcDbEntity
8
1
62
256
6
ByLayer
370
-1
48
1
60
0
100
AcDbLine
10
56.548952
20
1.933053
30
0
11
56.400328
21
1.421755
31
0
39
0
210
0
220
0
230
1
0
LINE
5
63
100
AcDbEntity
8
1
62
256
6
ByLayer
370
-1
48
1
60
0
100
AcDbLine
10
65.062777
20
2.732168
30
0
11
64.84742
21
2.735203
31
0
39
0
210
0
220
0
230
1
0
LINE
5
64
100
AcDbEntity
8
1
62
256
6
ByLayer
370
-1
48
1
60
0
100
AcDbLine
10
15
20
7.7
30
0
11
15
21
5.573726
31
0
39
0
210
0
220
0
230
1
0
LINE
5
65
100
AcDbEntity
8
1
62
256
6
ByLayer
370
-1
48
1
60
0
100
AcDbLine
10
60.226942
20
3.416383
30
0
11
59.199494
21
3.380366
31
0
39
0
210
0
220
0
230
1
0
LINE
5
66
100
AcDbEntity
8
1
62
256
6
ByLayer
370
-1
48
1
60
0
100
AcDbLine
10
60.704775
20
2.636677
30
0
11
60.750062
21
2.636677
31
0
39
0
210
0
220
0
230
1
0
LINE
5
67
100
AcDbEntity
8
1
62
256
6
ByLayer
370
-1
48
1
60
0
100
AcDbLine
10
65.039437
20
0.289394
30
0
11
65.066753
21
0.274899
31
0
39
0
210
0
220
0
230
1
0
LINE
5
68
100
AcDbEntity
8
1
62
256
6
ByLayer
370
-1
48
1
60
0
100
AcDbLine
10
64.990012
20
-0.133815
30
0
11
64.347536
21
0.152454
31
0
39
0
210
0
220
0
230
1
0
LINE
5
69
100
AcDbEntity
8
1
62
256
6
ByLayer
370
-1
48
1
60
0
100
AcDbLine
10
60.187604
20
3.977523
30
0
11
60.379347
21
3.977523
31
0
39
0
210
0
220
0
230
1
0
LINE
5
6A
100
AcDbEntity
8
1
62
256
6
ByLayer
370
-1
48
1
60
0
100
AcDbLine
10
65.063116
20
0.264149
30
0
11
65.066753
21
0.274899
31
0
39
0
210
0
220
0
230
1
0
LINE
5
6B
100
AcDbEntity
8
1
62
256
6
ByLayer
370
-1
48
1
60
0
100
AcDbLine
10
65.488985
20
-4.728906
30
0
11
65.21154
21
-4.695393
31
0
39
0
210
0
220
0
230
1
0
LINE
5
6C
100
AcDbEntity
8
1
62
256
6
ByLayer
370
-1
48
1
60
0
100
AcDbLine
10
60.314309
20
4.882514
30
0
11
60.187604
21
3.977523
31
0
39
0
210
0
220
0
230
1
0
LINE
5
6D
100
AcDbEntity
8
1
62
256
6
ByLayer
370
-1
48
1
60
0
100
AcDbLine
10
62.141099
20
2.665018
30
0
11
64.570721
21
2.750186
31
0
39
0
210
0
220
0
230
1
0
LINE
5
6E
100
AcDbEntity
8
1
62
256
6
ByLayer
370
-1
48
1
60
0
100
AcDbLine
10
59.819686
20
-7.698722
30
0
11
65.225571
21
-7.698722
31
0
39
0
210
0
220
0
230
1
0
LINE
5
6F
100
AcDbEntity
8
1
62
256
6
ByLayer
370
-1
48
1
60
0
100
AcDbLine
10
58.82899
20
5.111524
30
0
11
52.376096
21
5.870293
31
0
39
0
210
0
220
0
230
1
0
LINE
5
70
100
AcDbEntity
8
1
62
256
6
ByLayer
370
-1
48
1
60
0
100
AcDbLine
10
64.906394
20
-3.912471
30
0
11
64.706661
21
-3.823475
31
0
39
0
210
0
220
0
230
1
0
LINE
5
71
100
AcDbEntity
8
1
62
256
6
ByLayer
370
-1
48
1
60
0
100
AcDbLine
10
0.2
20
12.5
30
0
11
0.2
21
-12.5
31
0
39
0
210
0
220
0
230
1
0
LINE
5
72
100
AcDbEntity
8
1
62
256
6
ByLayer
370
-1
48
1
60
0
100
AcDbLine
10
5
20
12.5
30
0
11
5
21
-12.5
31
0
39
0
210
0
220
0
230
1
0
LINE
5
73
100
AcDbEntity
8
1
62
256
6
ByLayer
370
-1
48
1
60
0
100
AcDbLine
10
58.689919
20
0.971665
30
0
11
58.897373
21
1.685351
31
0
39
0
210
0
220
0
230
1
0
LINE
5
74
100
AcDbEntity
8
1
62
256
6
ByLayer
370
-1
48
1
60
0
100
AcDbLine
10
0
20
12.3
30
0
11
0
21
-12.3
31
0
39
0
210
0
220
0
230
1
0
LINE
5
75
100
AcDbEntity
8
1
62
256
6
ByLayer
370
-1
48
1
60
0
100
AcDbLine
10
60.506051
20
4.882514
30
0
11
60.379347
21
3.977523
31
0
39
0
210
0
220
0
230
1
0
LINE
5
76
100
AcDbEntity
8
1
62
256
6
ByLayer
370
-1
48
1
60
0
100
AcDbLine
10
60.499549
20
5.353421
30
0
11
60.472223
21
5.353421
31
0
39
0
210
0
220
0
230
1
0
LINE
5
77
100
AcDbEntity
8
1
62
256
6
ByLayer
370
-1
48
1
60
0
100
AcDbLine
10
55.61874
20
4.33
30
0
11
56.337714
21
4.33
31
0
39
0
210
0
220
0
230
1
0
LINE
5
78
100
AcDbEntity
8
1
62
256
6
ByLayer
370
-1
48
1
60
0
100
AcDbLine
10
65.225571
20
-7.698722
30
0
11
65.488985
21
-4.728906
31
0
39
0
210
0
220
0
230
1
0
LINE
5
79
100
AcDbEntity
8
1
62
256
6
ByLayer
370
-1
48
1
60
0
100
AcDbLine
10
60.472223
20
5.353421
30
0
11
60.397773
21
7.688262
31
0
39
0
210
0
220
0
230
1
0
LINE
5
7A
100
AcDbEntity
8
1
62
256
6
ByLayer
370
-1
48
1
60
0
100
AcDbLine
10
60.42475
20
7.699176
30
0
11
60.499549
21
5.353421
31
0
39
0
210
0
220
0
230
1
0
LINE
5
7B
100
AcDbEntity
8
1
62
256
6
ByLayer
370
-1
48
1
60
0
100
AcDbLine
10
65.066753
20
0.274899
30
0
11
65.173437
21
2.938368
31
0
39
0
210
0
220
0
230
1
0
LINE
5
7C
100
AcDbEntity
8
1
62
256
6
ByLayer
370
-1
48
1
60
0
100
AcDbLine
10
60.314309
20
4.882514
30
0
11
60.506051
21
4.882514
31
0
39
0
210
0
220
0
230
1
0
LINE
5
7D
100
AcDbEntity
8
1
62
256
6
ByLayer
370
-1
48
1
60
0
100
AcDbLine
10
57.086193
20
1.785694
30
0
11
58.221634
21
1.652183
31
0
39
0
210
0
220
0
230
1
0
LINE
5
7E
100
AcDbEntity
8
1
62
256
6
ByLayer
370
-1
48
1
60
0
100
AcDbLine
10
65.015634
20
0.265804
30
0
11
65.063116
21
0.264149
31
0
39
0
210
0
220
0
230
1
0
LINE
5
7F
100
AcDbEntity
8
1
62
256
6
ByLayer
370
-1
48
1
60
0
100
AcDbLine
10
58.82899
20
5.111524
30
0
11
58.82899
21
7.694622
31
0
39
0
210
0
220
0
230
1
0
LINE
5
80
100
AcDbEntity
8
1
62
256
6
ByLayer
370
-1
48
1
60
0
100
AcDbLine
10
64.995301
20
-0.271684
30
0
11
65.192547
21
-4.028348
31
0
39
0
210
0
220
0
230
1
0
LINE
5
81
100
AcDbEntity
8
1
62
256
6
ByLayer
370
-1
48
1
60
0
100
AcDbLine
10
64.84742
20
2.735203
30
0
11
64.570721
21
2.750186
31
0
39
0
210
0
220
0
230
1
0
LINE
5
82
100
AcDbEntity
8
1
62
256
6
ByLayer
370
-1
48
1
60
0
100
AcDbLine
10
57.351681
20
3.740917
30
0
11
57.115497
21
3.846475
31
0
39
0
210
0
220
0
230
1
0
LINE
5
83
100
AcDbEntity
8
1
62
256
6
ByLayer
370
-1
48
1
60
0
100
AcDbLine
10
15
20
-7.7
30
0
11
15
21
-5.65088
31
0
39
0
210
0
220
0
230
1
0
LINE
5
84
100
AcDbEntity
8
1
62
256
6
ByLayer
370
-1
48
1
60
0
100
AcDbLine
10
64.295945
20
1.311125
30
0
11
64.84742
21
2.735203
31
0
39
0
210
0
220
0
230
1
0
LINE
5
85
100
AcDbEntity
8
1
62
256
6
ByLayer
370
-1
48
1
60
0
100
AcDbLine
10
65.193185
20
-4.040258
30
0
11
65.035409
21
-3.969957
31
0
39
0
210
0
220
0
230
1
0
LINE
5
86
100
AcDbEntity
8
1
62
256
6
ByLayer
370
-1
48
1
60
0
100
AcDbLine
10
64.720278
20
2.750187
30
0
11
65.062777
21
2.732168
31
0
39
0
210
0
220
0
230
1
0
LINE
5
87
100
AcDbEntity
8
1
62
256
6
ByLayer
370
-1
48
1
60
0
100
AcDbLine
10
65.030642
20
0.289701
30
0
11
65.039437
21
0.289394
31
0
39
0
210
0
220
0
230
1
0
LINE
5
88
100
AcDbEntity
8
1
62
256
6
ByLayer
370
-1
48
1
60
0
100
AcDbLine
10
60.704775
20
2.636677
30
0
11
59.806254
21
2.60518
31
0
39
0
210
0
220
0
230
1
0
LINE
5
89
100
AcDbEntity
8
1
62
256
6
ByLayer
370
-1
48
1
60
0
100
AcDbLine
10
64.570721
20
2.750186
30
0
11
64.72022
21
2.750186
31
0
39
0
210
0
220
0
230
1
0
LINE
5
8A
100
AcDbEntity
8
1
62
256
6
ByLayer
370
-1
48
1
60
0
100
AcDbLine
10
65.384911
20
0.009633
30
0
11
65.224214
21
0.200787
31
0
39
0
210
0
220
0
230
1
0
LINE
5
8B
100
AcDbEntity
8
1
62
256
6
ByLayer
370
-1
48
1
60
0
100
AcDbLine
10
65.181803
20
-4.605056
30
0
11
65.513887
21
-4.484413
31
0
39
0
210
0
220
0
230
1
0
LINE
5
8C
100
AcDbEntity
8
1
62
256
6
ByLayer
370
-1
48
1
60
0
100
AcDbLine
10
65.631481
20
-4.32607
30
0
11
65.254594
21
-3.644873
31
0
39
0
210
0
220
0
230
1
0
LINE
5
8D
100
AcDbEntity
8
1
62
256
6
ByLayer
370
-1
48
1
60
0
100
AcDbLine
10
65.634194
20
-4.415083
30
0
11
65.609331
21
-4.34775
31
0
39
0
210
0
220
0
230
1
0
LINE
5
8E
100
AcDbEntity
8
1
62
256
6
ByLayer
370
-1
48
1
60
0
100
AcDbLine
10
65.927152
20
-2.716592
30
0
11
65.884101
21
-2.626502
31
0
39
0
210
0
220
0
230
1
0
LINE
5
8F
100
AcDbEntity
8
1
62
256
6
ByLayer
370
-1
48
1
60
0
100
AcDbLine
10
65.071847
20
-0.706275
30
0
11
65.013515
21
-0.618675
31
0
39
0
210
0
220
0
230
1
0
LINE
5
90
100
AcDbEntity
8
1
62
256
6
ByLayer
370
-1
48
1
60
0
100
AcDbLine
10
65.968347
20
-3.962773
30
0
11
65.999756
21
-3.064999
31
0
39
0
210
0
220
0
230
1
0
LINE
5
91
100
AcDbEntity
8
1
62
256
6
ByLayer
370
-1
48
1
60
0
100
AcDbLine
10
65.824482
20
-3.323113
30
0
11
65.474695
21
-3.251704
31
0
39
0
210
0
220
0
230
1
0
LINE
5
92
100
AcDbEntity
8
1
62
256
6
ByLayer
370
-1
48
1
60
0
100
AcDbLine
10
65.174559
20
-4.464848
30
0
11
65.486718
21
-4.410834
31
0
39
0
210
0
220
0
230
1
0
LINE
5
93
100
AcDbEntity
8
1
62
256
6
ByLayer
370
-1
48
1
60
0
100
AcDbLine
10
65.884101
20
-2.626502
30
0
11
65.736706
21
-2.61548
31
0
39
0
210
0
220
0
230
1
0
LINE
5
94
100
AcDbEntity
8
1
62
256
6
ByLayer
370
-1
48
1
60
0
100
AcDbLine
10
65.21783
20
-1.908953
30
0
11
65.170276
21
-1.003259
31
0
39
0
210
0
220
0
230
1
0
LINE
5
95
100
AcDbEntity
8
1
62
256
6
ByLayer
370
-1
48
1
60
0
100
AcDbLine
10
65.824482
20
-3.323113
30
0
11
65.833506
21
-3.065185
31
0
39
0
210
0
220
0
230
1
0
LINE
5
96
100
AcDbEntity
8
1
62
256
6
ByLayer
370
-1
48
1
60
0
100
AcDbLine
10
65.21783
20
-1.908953
30
0
11
65.117967
21
-1.914177
31
0
39
0
210
0
220
0
230
1
0
LINE
5
97
100
AcDbEntity
8
1
62
256
6
ByLayer
370
-1
48
1
60
0
100
AcDbLine
10
65.224214
20
0.200787
30
0
11
65.198412
21
0.174718
31
0
39
0
210
0
220
0
230
1
0
LINE
5
98
100
AcDbEntity
8
1
62
256
6
ByLayer
370
-1
48
1
60
0
100
AcDbLine
10
65.825705
20
-4.254686
30
0
11
65.772803
21
-4.202196
31
0
39
0
210
0
220
0
230
1
0
LINE
5
99
100
AcDbEntity
8
1
62
256
6
ByLayer
370
-1
48
1
60
0
100
AcDbLine
10
65.609331
20
-4.34775
30
0
11
65.631481
21
-4.32607
31
0
39
0
210
0
220
0
230
1
0
LINE
5
9A
100
AcDbEntity
8
1
62
256
6
ByLayer
370
-1
48
1
60
0
100
AcDbLine
10
65.506077
20
-0.506421
30
0
11
65.407311
21
-0.110961
31
0
39
0
210
0
220
0
230
1
0
LINE
5
9B
100
AcDbEntity
8
1
62
256
6
ByLayer
370
-1
48
1
60
0
100
AcDbLine
10
65.384911
20
0.009633
30
0
11
65.341847
21
0.009165
31
0
39
0
210
0
220
0
230
1
0
LINE
5
9C
100
AcDbEntity
8
1
62
256
6
ByLayer
370
-1
48
1
60
0
100
AcDbLine
10
65.374756
20
-3.248221
30
0
11
65.38378
21
-2.990292
31
0
39
0
210
0
220
0
230
1
0
LINE
5
9D
100
AcDbEntity
8
1
62
256
6
ByLayer
370
-1
48
1
60
0
100
AcDbLine
10
65.506077
20
-0.506421
30
0
11
65.071847
21
-0.706275
31
0
39
0
210
0
220
0
230
1
0
LINE
5
9E
100
AcDbEntity
8
1
62
256
6
ByLayer
370
-1
48
1
60
0
100
AcDbLine
10
65.175178
20
-3.697558
30
0
11
65.254594
21
-3.644873
31
0
39
0
210
0
220
0
230
1
0
LINE
5
9F
100
AcDbEntity
8
1
62
256
6
ByLayer
370
-1
48
1
60
0
100
AcDbLine
10
65.474695
20
-3.251704
30
0
11
65.483719
21
-2.993775
31
0
39
0
210
0
220
0
230
1
0
LINE
5
A0
100
AcDbEntity
8
1
62
256
6
ByLayer
370
-1
48
1
60
0
100
AcDbLine
10
65.662711
20
-0.7328
30
0
11
65.73043
21
-2.02255
31
0
39
0
210
0
220
0
230
1
0
LINE
5
A1
100
AcDbEntity
8
1
62
256
6
ByLayer
370
-1
48
1
60
0
100
AcDbLine
10
65.634194
20
-4.415083
30
0
11
65.825705
21
-4.254686
31
0
39
0
210
0
220
0
230
1
0
LINE
5
A2
100
AcDbEntity
8
1
62
256
6
ByLayer
370
-1
48
1
60
0
100
AcDbLine
10
65.639136
20
-0.617143
30
0
11
65.45437
21
-0.110449
31
0
39
0
210
0
220
0
230
1
0
LINE
5
A3
100
AcDbEntity
8
1
62
256
6
ByLayer
370
-1
48
1
60
0
100
AcDbLine
10
65.662711
20
-0.7328
30
0
11
65.534769
21
-0.694579
31
0
39
0
210
0
220
0
230
1
0
LINE
5
A4
100
AcDbEntity
8
1
62
256
6
ByLayer
370
-1
48
1
60
0
100
AcDbLine
10
65.519796
20
-1.044192
30
0
11
65.170276
21
-1.003259
31
0
39
0
210
0
220
0
230
1
0
LINE
5
A5
100
AcDbEntity
8
1
62
256
6
ByLayer
370
-1
48
1
60
0
100
AcDbLine
10
65.567351
20
-1.949887
30
0
11
65.21783
21
-1.908953
31
0
39
0
210
0
220
0
230
1
0
LINE
5
A6
100
AcDbEntity
8
1
62
256
6
ByLayer
370
-1
48
1
60
0
100
AcDbLine
10
65.833506
20
-3.065185
30
0
11
65.483719
21
-2.993775
31
0
39
0
210
0
220
0
230
1
0
LINE
5
A7
100
AcDbEntity
8
1
62
256
6
ByLayer
370
-1
48
1
60
0
100
AcDbLine
10
65.341847
20
0.009165
30
0
11
65.320991
21
0.032138
31
0
39
0
210
0
220
0
230
1
0
LINE
5
A8
100
AcDbEntity
8
1
62
256
6
ByLayer
370
-1
48
1
60
0
100
AcDbLine
10
65.169091
20
-3.581747
30
0
11
65.19924
21
-3.561746
31
0
39
0
210
0
220
0
230
1
0
LINE
5
A9
100
AcDbEntity
8
1
62
256
6
ByLayer
370
-1
48
1
60
0
100
AcDbLine
10
65.999756
20
-3.064999
30
0
11
65.838624
21
-2.979219
31
0
39
0
210
0
220
0
230
1
0
LINE
5
AA
100
AcDbEntity
8
1
62
256
6
ByLayer
370
-1
48
1
60
0
100
AcDbLine
10
65.117967
20
-1.914177
30
0
11
65.070413
21
-1.008483
31
0
39
0
210
0
220
0
230
1
0
LINE
5
AB
100
AcDbEntity
8
1
62
256
6
ByLayer
370
-1
48
1
60
0
100
AcDbLine
10
65.968347
20
-3.962773
30
0
11
65.875628
21
-3.870779
31
0
39
0
210
0
220
0
230
1
0
LINE
5
AC
100
AcDbEntity
8
1
62
256
6
ByLayer
370
-1
48
1
60
0
100
AcDbLine
10
65.210681
20
-2.978154
30
0
11
65.201657
21
-3.236083
31
0
39
0
210
0
220
0
230
1
0
LINE
5
AD
100
AcDbEntity
8
1
62
256
6
ByLayer
370
-1
48
1
60
0
100
AcDbLine
10
65.639136
20
-0.617143
30
0
11
65.52666
21
-0.583542
31
0
39
0
210
0
220
0
230
1
0
LINE
5
AE
100
AcDbEntity
8
1
62
256
6
ByLayer
370
-1
48
1
60
0
100
AcDbLine
10
65.45437
20
-0.110449
30
0
11
65.407311
21
-0.110961
31
0
39
0
210
0
220
0
230
1
0
LINE
5
AF
100
AcDbEntity
8
1
62
256
6
ByLayer
370
-1
48
1
60
0
100
AcDbLine
10
65.519796
20
-1.044192
30
0
11
65.567351
21
-1.949887
31
0
39
0
210
0
220
0
230
1
0
LINE
5
B0
100
AcDbEntity
8
1
62
256
6
ByLayer
370
-1
48
1
60
0
100
AcDbLine
10
65.320991
20
0.032138
30
0
11
64.989769
21
-0.120306
31
0
39
0
210
0
220
0
230
1
0
LINE
5
B1
100
AcDbEntity
8
1
62
256
6
ByLayer
370
-1
48
1
60
0
100
AcDbLine
10
65.513887
20
-4.484413
30
0
11
65.486718
21
-4.410834
31
0
39
0
210
0
220
0
230
1
0
LINE
5
B2
100
AcDbEntity
8
1
62
256
6
ByLayer
370
-1
48
1
60
0
100
AcDbLine
10
65.927152
20
-2.716592
30
0
11
65.78162
21
-2.70571
31
0
39
0
210
0
220
0
230
1
0
LINE
5
B3
100
AcDbEntity
8
1
62
256
6
ByLayer
370
-1
48
1
60
0
100
AcDbLine
10
65.740229
20
-2.622872
30
0
11
65.425055
21
-2.71551
31
0
39
0
210
0
220
0
230
1
0
LINE
5
B4
100
AcDbEntity
8
1
62
256
6
ByLayer
370
-1
48
1
60
0
100
AcDbLine
10
65.73043
20
-2.02255
30
0
11
65.567351
21
-1.949887
31
0
39
0
210
0
220
0
230
1
0
LINE
5
B5
100
AcDbEntity
8
1
62
256
6
ByLayer
370
-1
48
1
60
0
100
AcDbLine
10
60.742117
20
3.428386
30
0
11
60.801147
21
3.431016
31
0
39
0
210
0
220
0
230
1
0
LINE
5
B6
100
AcDbEntity
8
1
62
256
6
ByLayer
370
-1
48
1
60
0
100
AcDbLine
10
61.198197
20
2.80422
30
0
11
61.197741
21
2.863991
31
0
39
0
210
0
220
0
230
1
0
LINE
5
B7
100
AcDbEntity
8
1
62
256
6
ByLayer
370
-1
48
1
60
0
100
AcDbLine
10
61.229162
20
7.902591
30
0
11
61.231326
21
7.842877
31
0
39
0
210
0
220
0
230
1
0
LINE
5
B8
100
AcDbEntity
8
1
62
256
6
ByLayer
370
-1
48
1
60
0
100
AcDbLine
10
60.608647
20
7.284715
30
0
11
60.667728
21
7.285672
31
0
39
0
210
0
220
0
230
1
0
LINE
5
B9
100
AcDbEntity
8
1
62
256
6
ByLayer
370
-1
48
1
60
0
100
AcDbLine
10
60.607371
20
7.444768
30
0
11
60.666459
21
7.444768
31
0
39
0
210
0
220
0
230
1
0
LINE
5
BA
100
AcDbEntity
8
1
62
256
6
ByLayer
370
-1
48
1
60
0
100
AcDbLine
10
61.130968
20
2.811909
30
0
11
61.143907
21
2.870149
31
0
39
0
210
0
220
0
230
1
0
LINE
5
BB
100
AcDbEntity
8
1
62
256
6
ByLayer
370
-1
48
1
60
0
100
AcDbLine
10
65.821087
20
3.397303
30
0
11
65.761087
21
3.397303
31
0
39
0
210
0
220
0
230
1
0
LINE
5
BC
100
AcDbEntity
8
1
62
256
6
ByLayer
370
-1
48
1
60
0
100
AcDbLine
10
64.931396
20
8.032784
30
0
11
64.933019
21
7.973048
31
0
39
0
210
0
220
0
230
1
0
LINE
5
BD
100
AcDbEntity
8
1
62
256
6
ByLayer
370
-1
48
1
60
0
100
AcDbLine
10
65.813427
20
3.329817
30
0
11
65.754953
21
3.343263
31
0
39
0
210
0
220
0
230
1
0
LINE
5
BE
100
AcDbEntity
8
1
62
256
6
ByLayer
370
-1
48
1
60
0
100
AcDbLine
10
65.022014
20
8.035546
30
0
11
65.023095
21
7.975794
31
0
39
0
210
0
220
0
230
1
0
LINE
5
BF
100
AcDbEntity
8
1
62
256
6
ByLayer
370
-1
48
1
60
0
100
AcDbLine
10
60.954732
20
7.87793
30
0
11
60.971685
21
7.82077
31
0
39
0
210
0
220
0
230
1
0
LINE
5
C0
100
AcDbEntity
8
1
62
256
6
ByLayer
370
-1
48
1
60
0
100
AcDbLine
10
65.683954
20
7.462626
30
0
11
65.624041
21
7.459411
31
0
39
0
210
0
220
0
230
1
0
LINE
5
C1
100
AcDbEntity
8
1
62
256
6
ByLayer
370
-1
48
1
60
0
100
AcDbLine
10
65.816038
20
3.697309
30
0
11
65.689917
21
7.32275
31
0
39
0
210
0
220
0
230
1
0
LINE
5
C2
100
AcDbEntity
8
1
62
256
6
ByLayer
370
-1
48
1
60
0
100
AcDbLine
10
65.674105
20
7.622378
30
0
11
65.61425
21
7.618209
31
0
39
0
210
0
220
0
230
1
0
LINE
5
C3
100
AcDbEntity
8
1
62
256
6
ByLayer
370
-1
48
1
60
0
100
AcDbLine
10
60.73854
20
3.519321
30
0
11
60.797593
21
3.521407
31
0
39
0
210
0
220
0
230
1
0
LINE
5
C4
100
AcDbEntity
8
1
62
256
6
ByLayer
370
-1
48
1
60
0
100
AcDbLine
10
60.615031
20
7.512254
30
0
11
60.672593
21
7.498808
31
0
39
0
210
0
220
0
230
1
0
LINE
5
C5
100
AcDbEntity
8
1
62
256
6
ByLayer
370
-1
48
1
60
0
100
AcDbLine
10
65.819811
20
3.557355
30
0
11
65.759818
21
3.556399
31
0
39
0
210
0
220
0
230
1
0
LINE
5
C6
100
AcDbEntity
8
1
62
256
6
ByLayer
370
-1
48
1
60
0
100
AcDbLine
10
60.754352
20
3.219693
30
0
11
60.813296
21
3.223862
31
0
39
0
210
0
220
0
230
1
0
LINE
5
C7
100
AcDbEntity
8
1
62
256
6
ByLayer
370
-1
48
1
60
0
100
AcDbLine
10
65.199296
20
2.93948
30
0
11
65.19622
21
2.999194
31
0
39
0
210
0
220
0
230
1
0
LINE
5
C8
100
AcDbEntity
8
1
62
256
6
ByLayer
370
-1
48
1
60
0
100
AcDbLine
10
65.473725
20
2.96414
30
0
11
65.45586
21
3.0213
31
0
39
0
210
0
220
0
230
1
0
LINE
5
C9
100
AcDbEntity
8
1
62
256
6
ByLayer
370
-1
48
1
60
0
100
AcDbLine
10
65.297489
20
8.030162
30
0
11
65.283639
21
7.971922
31
0
39
0
210
0
220
0
230
1
0
LINE
5
CA
100
AcDbEntity
8
1
62
256
6
ByLayer
370
-1
48
1
60
0
100
AcDbLine
10
65.407195
20
2.951763
30
0
11
65.402585
21
3.011389
31
0
39
0
210
0
220
0
230
1
0
LINE
5
CB
100
AcDbEntity
8
1
62
256
6
ByLayer
370
-1
48
1
60
0
100
AcDbLine
10
65.661774
20
7.689163
30
0
11
65.604376
21
7.671687
31
0
39
0
210
0
220
0
230
1
0
LINE
5
CC
100
AcDbEntity
8
1
62
256
6
ByLayer
370
-1
48
1
60
0
100
AcDbLine
10
65.070817
20
8.03657
30
0
11
65.071314
21
7.976806
31
0
39
0
210
0
220
0
230
1
0
LINE
5
CD
100
AcDbEntity
8
1
62
256
6
ByLayer
370
-1
48
1
60
0
100
AcDbLine
10
65.230261
20
8.037851
30
0
11
65.229805
21
7.978079
31
0
39
0
210
0
220
0
230
1
0
LINE
5
CE
100
AcDbEntity
8
1
62
256
6
ByLayer
370
-1
48
1
60
0
100
AcDbLine
10
60.612419
20
7.144762
30
0
11
60.671471
21
7.146848
31
0
39
0
210
0
220
0
230
1
0
LINE
5
CF
100
AcDbEntity
8
1
62
256
6
ByLayer
370
-1
48
1
60
0
100
AcDbLine
10
65.816038
20
3.697309
30
0
11
65.756075
21
3.695223
31
0
39
0
210
0
220
0
230
1
0
LINE
5
D0
100
AcDbEntity
8
1
62
256
6
ByLayer
370
-1
48
1
60
0
100
AcDbLine
10
61.319751
20
7.90618
30
0
11
61.321373
21
7.846445
31
0
39
0
210
0
220
0
230
1
0
LINE
5
D1
100
AcDbEntity
8
1
62
256
6
ByLayer
370
-1
48
1
60
0
100
AcDbLine
10
60.612419
20
7.144762
30
0
11
60.73854
21
3.519321
31
0
39
0
210
0
220
0
230
1
0
LINE
5
D2
100
AcDbEntity
8
1
62
256
6
ByLayer
370
-1
48
1
60
0
100
AcDbLine
10
60.609667
20
7.235726
30
0
11
60.668736
21
7.237269
31
0
39
0
210
0
220
0
230
1
0
LINE
5
D3
100
AcDbEntity
8
1
62
256
6
ByLayer
370
-1
48
1
60
0
100
AcDbLine
10
61.497061
20
2.809287
30
0
11
65.108706
21
2.93589
31
0
39
0
210
0
220
0
230
1
0
LINE
5
D4
100
AcDbEntity
8
1
62
256
6
ByLayer
370
-1
48
1
60
0
100
AcDbLine
10
65.108706
20
2.93589
30
0
11
65.106173
21
2.995626
31
0
39
0
210
0
220
0
230
1
0
LINE
5
D5
100
AcDbEntity
8
1
62
256
6
ByLayer
370
-1
48
1
60
0
100
AcDbLine
10
60.766683
20
3.152908
30
0
11
60.82317
21
3.170384
31
0
39
0
210
0
220
0
230
1
0
LINE
5
D6
100
AcDbEntity
8
1
62
256
6
ByLayer
370
-1
48
1
60
0
100
AcDbLine
10
61.406443
20
2.806525
30
0
11
61.404451
21
2.866277
31
0
39
0
210
0
220
0
230
1
0
LINE
5
D7
100
AcDbEntity
8
1
62
256
6
ByLayer
370
-1
48
1
60
0
100
AcDbLine
10
65.689917
20
7.32275
30
0
11
65.629953
21
7.320664
31
0
39
0
210
0
220
0
230
1
0
LINE
5
D8
100
AcDbEntity
8
1
62
256
6
ByLayer
370
-1
48
1
60
0
100
AcDbLine
10
61.180407
20
7.900195
30
0
11
61.183154
21
7.84051
31
0
39
0
210
0
220
0
230
1
0
LINE
5
D9
100
AcDbEntity
8
1
62
256
6
ByLayer
370
-1
48
1
60
0
100
AcDbLine
10
61.497061
20
2.809287
30
0
11
61.494527
21
2.869022
31
0
39
0
210
0
220
0
230
1
0
LINE
5
DA
100
AcDbEntity
8
1
62
256
6
ByLayer
370
-1
48
1
60
0
100
AcDbLine
10
61.357641
20
2.805501
30
0
11
61.356232
21
2.865265
31
0
39
0
210
0
220
0
230
1
0
LINE
5
DB
100
AcDbEntity
8
1
62
256
6
ByLayer
370
-1
48
1
60
0
100
AcDbLine
10
65.686341
20
7.413685
30
0
11
65.626398
21
7.411055
31
0
39
0
210
0
220
0
230
1
0
LINE
5
DC
100
AcDbEntity
8
1
62
256
6
ByLayer
370
-1
48
1
60
0
100
AcDbLine
10
65.24805
20
2.941876
30
0
11
65.244392
21
3.001561
31
0
39
0
210
0
220
0
230
1
0
LINE
5
DD
100
AcDbEntity
8
1
62
256
6
ByLayer
370
-1
48
1
60
0
100
AcDbLine
10
65.81879
20
3.606345
30
0
11
65.75881
21
3.604802
31
0
39
0
210
0
220
0
230
1
0
LINE
5
DE
100
AcDbEntity
8
1
62
256
6
ByLayer
370
-1
48
1
60
0
100
AcDbLine
10
64.931396
20
8.032784
30
0
11
61.319751
21
7.90618
31
0
39
0
210
0
220
0
230
1
0
LINE
5
DF
100
AcDbEntity
8
1
62
256
6
ByLayer
370
-1
48
1
60
0
100
AcDbLine
10
60.744503
20
3.379445
30
0
11
60.803505
21
3.382659
31
0
39
0
210
0
220
0
230
1
0
LINE
5
E0
100
AcDbEntity
8
1
62
256
6
ByLayer
370
-1
48
1
60
0
100
AcDbLine
10
61.021263
20
7.890308
30
0
11
61.02496
21
7.830682
31
0
39
0
210
0
220
0
230
1
0
LINE
5
E1
100
AcDbEntity
8
SK1
62
256
6
ByLayer
370
-1
48
1
60
0
100
AcDbLine
10
-48.6
20
-5.922852
30
0
11
-49
21
-5.922852
31
0
39
0
210
0
220
0
230
1
0
LINE
5
E2
100
AcDbEntity
8
SK1
62
256
6
ByLayer
370
-1
48
1
60
0
100
AcDbLine
10
-50
20
4.01082
30
0
11
-50
21
-4.01082
31
0
39
0
210
0
220
0
230
1
0
LINE
5
E3
100
AcDbEntity
8
SK1
62
256
6
ByLayer
370
-1
48
1
60
0
100
AcDbLine
10
-47.633814
20
-5.299321
30
0
11
-47.633814
21
-9.640417
31
0
39
0
210
0
220
0
230
1
0
LINE
5
E4
100
AcDbEntity
8
SK1
62
256
6
ByLayer
370
-1
48
1
60
0
100
AcDbLine
10
-47.633814
20
9.640417
30
0
11
-47.633814
21
5.299321
31
0
39
0
210
0
220
0
230
1
0
LINE
5
E5
100
AcDbEntity
8
SK1
62
256
6
ByLayer
370
-1
48
1
60
0
100
AcDbLine
10
-1.551212
20
9.787477
30
0
11
-1.551212
21
-9.787477
31
0
39
0
210
0
220
0
230
1
0
LINE
5
E6
100
AcDbEntity
8
SK1
62
256
6
ByLayer
370
-1
48
1
60
0
100
AcDbLine
10
-46.6
20
5.922852
30
0
11
-46.6
21
9.99675
31
0
39
0
210
0
220
0
230
1
0
LINE
5
E7
100
AcDbEntity
8
SK1
62
256
6
ByLayer
370
-1
48
1
60
0
100
AcDbLine
10
-46.6
20
-9.99675
30
0
11
-46.6
21
-5.922852
31
0
39
0
210
0
220
0
230
1
0
LINE
5
E8
100
AcDbEntity
8
SK1
62
256
6
ByLayer
370
-1
48
1
60
0
100
AcDbLine
10
-48.6
20
-9.99675
30
0
11
-48.6
21
-5.922852
31
0
39
0
210
0
220
0
230
1
0
LINE
5
E9
100
AcDbEntity
8
SK1
62
256
6
ByLayer
370
-1
48
1
60
0
100
AcDbLine
10
-48.6
20
5.922852
30
0
11
-48.6
21
9.99675
31
0
39
0
210
0
220
0
230
1
0
LINE
5
EA
100
AcDbEntity
8
SK1
62
256
6
ByLayer
370
-1
48
1
60
0
100
AcDbLine
10
-0.15
20
9.75
30
0
11
-0.15
21
-9.75
31
0
39
0
210
0
220
0
230
1
0
LINE
5
EB
100
AcDbEntity
8
SK1
62
256
6
ByLayer
370
-1
48
1
60
0
100
AcDbLine
10
-1.382165
20
9.75
30
0
11
-1.382165
21
-9.75
31
0
39
0
210
0
220
0
230
1
0
LINE
5
EC
100
AcDbEntity
8
SK1
62
256
6
ByLayer
370
-1
48
1
60
0
100
AcDbLine
10
-49
20
-5.922852
30
0
11
-49
21
-9.99675
31
0
39
0
210
0
220
0
230
1
0
LINE
5
ED
100
AcDbEntity
8
SK1
62
256
6
ByLayer
370
-1
48
1
60
0
100
AcDbLine
10
-49
20
9.99675
30
0
11
-49
21
5.922852
31
0
39
0
210
0
220
0
230
1
0
LINE
5
EE
100
AcDbEntity
8
SK1
62
256
6
ByLayer
370
-1
48
1
60
0
100
AcDbLine
10
-6.5
20
-5.922852
30
0
11
-46.6
21
-5.922852
31
0
39
0
210
0
220
0
230
1
0
LINE
5
EF
100
AcDbEntity
8
SK1
62
256
6
ByLayer
370
-1
48
1
60
0
100
AcDbLine
10
-50
20
-4.01082
30
0
11
-50
21
-8.99675
31
0
39
0
210
0
220
0
230
1
0
LINE
5
F0
100
AcDbEntity
8
SK1
62
256
6
ByLayer
370
-1
48
1
60
0
100
AcDbLine
10
-50
20
8.99675
30
0
11
-50
21
4.01082
31
0
39
0
210
0
220
0
230
1
0
LINE
5
F1
100
AcDbEntity
8
SK1
62
256
6
ByLayer
370
-1
48
1
60
0
100
AcDbLine
10
-6.5
20
5.922852
30
0
11
-6.5
21
-5.922852
31
0
39
0
210
0
220
0
230
1
0
LINE
5
F2
100
AcDbEntity
8
SK1
62
256
6
ByLayer
370
-1
48
1
60
0
100
AcDbLine
10
-46.6
20
5.922852
30
0
11
-6.5
21
5.922852
31
0
39
0
210
0
220
0
230
1
0
LINE
5
F3
100
AcDbEntity
8
SK1
62
256
6
ByLayer
370
-1
48
1
60
0
100
AcDbLine
10
-2
20
-9.99675
30
0
11
-2
21
9.99675
31
0
39
0
210
0
220
0
230
1
0
LINE
5
F4
100
AcDbEntity
8
SK1
62
256
6
ByLayer
370
-1
48
1
60
0
100
AcDbLine
10
-48.516223
20
-5.746514
30
0
11
-48.516223
21
-9.893294
31
0
39
0
210
0
220
0
230
1
0
LINE
5
F5
100
AcDbEntity
8
SK1
62
256
6
ByLayer
370
-1
48
1
60
0
100
AcDbLine
10
-48.516223
20
9.893294
30
0
11
-48.516223
21
5.746514
31
0
39
0
210
0
220
0
230
1
0
LINE
5
F6
100
AcDbEntity
8
SK1
62
256
6
ByLayer
370
-1
48
1
60
0
100
AcDbLine
10
-49
20
5.922852
30
0
11
-48.6
21
5.922852
31
0
39
0
210
0
220
0
230
1
0
MTEXT
5
226
100
AcDbEntity
8
SK6
62
256
6
ByLayer
370
-1
48
1
60
0
100
AcDbMText
10
0.79375
20
-80.79375
30
0
210
0
220
0
230
1
1
\W00.723;\fsimplex.shx,bigfont.shx;880-D1600L20-03 
40
3.175
41
0
44
1.084337
50
0
71
7
72
5
7
DEFAULT
0
DIMENSION
5
256
100
AcDbEntity
8
SK2
62
256
6
ByLayer
370
-3
48
1
60
0
100
AcDbDimension
2
DimnDraft3D1
10
66
20
-51.36955
30
0
11
8
21
-51.36955
31
0
70
32
71
5
72
1
41
1
210
0
220
0
230
1
3
Standard
100
AcDbAlignedDimension
13
-50
23
-11.5875
33
0
14
66
24
-9.5875
34
0
50
0
100
AcDbRotatedDimension
1001
ACAD
1000
DSTYLE
1002
{
1070
   279
1070
     0
1070
   172
1070
     1
1070
   173
1070
     1
1070
   340
1005
227
1070
   271
1070
     1
1070
   272
1070
     2
1070
    77
1070
     1
1070
    73
1070
     0
1070
   171
1070
     3
1070
   274
1070
     4
1070
   177
1070
   150
1070
   176
1070
     9
1070
   178
1070
    43
1070
    78
1070
     8
1070
    48
1040
-0.005
1070
    41
1041
4.175
1070
   147
1041
2.25
1070
    42
1041
1.5875
1070
    44
1041
3.175
1070
   140
1041
4.5
1070
   343
1005
0
1070
   344
1005
0
1002
}
0
DIMENSION
5
260
100
AcDbEntity
8
SK2
62
256
6
ByLayer
370
-3
48
1
60
0
100
AcDbDimension
2
DimnDraft3D2
10
0
20
-39.4008
30
0
11
-25
21
-39.4008
31
0
70
32
71
5
72
1
41
1
210
0
220
0
230
1
3
Standard
100
AcDbAlignedDimension
13
-50
23
-11.5875
33
0
14
0
24
-14.0875
34
0
50
0
100
AcDbRotatedDimension
1001
ACAD
1000
DSTYLE
1002
{
1070
   279
1070
     0
1070
   172
1070
     1
1070
   173
1070
     1
1070
   340
1005
227
1070
   271
1070
     1
1070
   272
1070
     2
1070
    77
1070
     1
1070
    73
1070
     0
1070
   171
1070
     3
1070
   274
1070
     4
1070
   177
1070
   150
1070
   176
1070
     9
1070
   178
1070
    43
1070
    78
1070
     8
1070
    48
1040
-0.005
1070
    41
1041
4.175
1070
   147
1041
2.25
1070
    42
1041
1.5875
1070
    44
1041
3.175
1070
   140
1041
4.5
1070
   343
1005
0
1070
   344
1005
0
1002
}
0
DIMENSION
5
26B
100
AcDbEntity
8
2
62
256
6
ByLayer
370
-3
48
1
60
0
100
AcDbDimension
2
DimnDraft3D3
10
66
20
-39.4008
30
0
11
33
21
-39.4008
31
0
70
32
71
5
72
1
41
1
210
0
220
0
230
1
3
Standard
100
AcDbAlignedDimension
13
0
23
-14.0875
33
0
14
66
24
-9.5875
34
0
50
0
100
AcDbRotatedDimension
1001
ACAD
1000
DSTYLE
1002
{
1070
   279
1070
     0
1070
   172
1070
     1
1070
   173
1070
     1
1070
   340
1005
227
1070
   271
1070
     1
1070
   272
1070
     2
1070
    77
1070
     1
1070
    73
1070
     0
1070
   171
1070
     3
1070
   274
1070
     4
1070
   177
1070
   150
1070
   176
1070
     9
1070
   178
1070
    43
1070
    78
1070
     8
1070
    48
1040
-0.005
1070
    41
1041
4.175
1070
   147
1041
2.25
1070
    42
1041
1.5875
1070
    44
1041
3.175
1070
   140
1041
4.5
1070
   343
1005
0
1070
   344
1005
0
1002
}
0
DIMENSION
5
275
100
AcDbEntity
8
SK2
62
256
6
ByLayer
370
-3
48
1
60
0
100
AcDbDimension
2
DimnDraft3D4
10
66
20
-29.4008
30
0
11
40.5
21
-29.4008
31
0
70
32
71
5
72
1
41
1
210
0
220
0
230
1
3
Standard
100
AcDbAlignedDimension
13
15
23
-11.5875
33
0
14
66
24
-9.5875
34
0
50
0
100
AcDbRotatedDimension
1001
ACAD
1000
DSTYLE
1002
{
1070
   279
1070
     0
1070
   172
1070
     1
1070
   173
1070
     1
1070
   340
1005
227
1070
   271
1070
     1
1070
   272
1070
     2
1070
    77
1070
     1
1070
    73
1070
     0
1070
   171
1070
     3
1070
   274
1070
     4
1070
   177
1070
   150
1070
   176
1070
     9
1070
   178
1070
    43
1070
    78
1070
     8
1070
    48
1040
-0.005
1070
    41
1041
4.175
1070
   147
1041
2.25
1070
    42
1041
1.5875
1070
    44
1041
3.175
1070
   140
1041
4.5
1070
   343
1005
0
1070
   344
1005
0
1002
}
0
DIMENSION
5
280
100
AcDbEntity
8
SK2
62
256
6
ByLayer
370
-3
48
1
60
0
100
AcDbDimension
2
DimnDraft3D5
10
-61.9
20
-10
30
0
11
-62.1
21
-27.370395
31
0
70
33
71
5
72
1
41
1
210
0
220
0
230
1
3
Standard
100
AcDbAlignedDimension
13
-51.5875
23
10
33
0
14
-51.5875
24
-10
34
0
1001
ACAD
1000
DSTYLE
1002
{
1070
   279
1070
     0
1070
    74
1070
     0
1070
   173
1070
     1
1070
   340
1005
227
1070
   271
1070
     2
1070
   272
1070
     2
1070
    77
1070
     1
1070
    73
1070
     0
1070
   171
1070
     3
1070
   274
1070
     4
1070
   177
1070
   150
1070
   176
1070
     9
1070
   178
1070
    43
1070
    78
1070
     8
1070
    48
1040
-0.005
1070
    41
1041
4.175
1070
   147
1041
2.25
1070
    42
1041
1.5875
1070
    44
1041
3.175
1070
   140
1041
4.5
1070
   343
1005
0
1070
   344
1005
0
1002
}
0
DIMENSION
5
28B
100
AcDbEntity
8
SK2
62
256
6
ByLayer
370
-3
48
1
60
0
100
AcDbDimension
2
DimnDraft3D6
10
-71.9
20
12.5
30
0
11
-72.1
21
4.121053
31
0
70
33
71
5
72
1
41
1
210
0
220
0
230
1
3
Standard
100
AcDbAlignedDimension
13
-1.5875
23
-12.5
33
0
14
-1.5875
24
12.5
34
0
1001
ACAD
1000
DSTYLE
1002
{
1070
   279
1070
     0
1070
    74
1070
     0
1070
   173
1070
     1
1070
   340
1005
227
1070
   271
1070
     1
1070
   272
1070
     2
1070
    77
1070
     1
1070
    73
1070
     0
1070
   171
1070
     3
1070
   274
1070
     4
1070
   177
1070
   150
1070
   176
1070
     9
1070
   178
1070
    43
1070
    78
1070
     8
1070
    48
1040
-0.005
1070
    41
1041
4.175
1070
   147
1041
2.25
1070
    42
1041
1.5875
1070
    44
1041
3.175
1070
   140
1041
4.5
1070
   343
1005
0
1070
   344
1005
0
1002
}
0
DIMENSION
5
296
100
AcDbEntity
8
2
62
256
6
ByLayer
370
-3
48
1
60
0
100
AcDbDimension
2
DimnDraft3D7
10
96.15
20
-8
30
0
11
89.6
21
-24.245395
31
0
70
33
71
5
72
1
41
1
210
0
220
0
230
1
3
Standard
100
AcDbAlignedDimension
13
67.5875
23
8
33
0
14
67.5875
24
-8
34
0
1001
ACAD
1000
DSTYLE
1002
{
1070
   279
1070
     0
1070
    74
1070
     0
1070
   173
1070
     1
1070
   340
1005
227
1070
   271
1070
     2
1070
   272
1070
     2
1070
    77
1070
     1
1070
    73
1070
     0
1070
   171
1070
     3
1070
   274
1070
     4
1070
   177
1070
   150
1070
   176
1070
     9
1070
   178
1070
    43
1070
    78
1070
     8
1070
    48
1040
-0.005
1070
    41
1041
4.175
1070
   147
1041
2.25
1070
    42
1041
1.5875
1070
    44
1041
3.175
1070
   140
1041
4.5
1070
   343
1005
0
1070
   344
1005
0
1002
}
0
ENDSEC
0
SECTION
2
OBJECTS
0
DICTIONARY
5
2c7
330
0
100
AcDbDictionary
280
0
281
1
3
ACAD_GROUP
350
2c8
3
ACAD_MLINESTYLE
350
2c9
0
DICTIONARY
5
2c8
330
0
100
AcDbDictionary
280
0
281
1
0
DICTIONARY
5
2c9
330
0
100
AcDbDictionary
280
0
281
1
3
Standard
350
18
0
MLINESTYLE
5
18
330
2c9
100
AcDbMlineStyle
2
Standard
70
0
3

62
256
51
90
52
90
71
2
49
-0.5
62
256
6
ByLayer
49
0.5
62
256
6
ByLayer
0
RASTERVARIABLES
5
2b5
330

100
AcDbRasterVariables
90
0
70
1
71
1
72
1
0
ENDSEC
0
EOF
