0
SECTION
2
HEADER
9
$ACADVER
1
AC1015
9
$DWGCODEPAGE
3
ANSI_1252
9
$HANDSEED
5
244
9
$ANGBASE
50
0
9
$ANGDIR
70
0
9
$ATTMODE
70
1
9
$AUNITS
70
0
9
$AUPREC
70
0
9
$CECOLOR
62
256
9
$CELTSCALE
40
1
9
$CELTYPE
6
ByLayer
9
$CELWEIGHT
370
18
9
$CLAYER
8
0
9
$CMLJUST
70
0
9
$CMLSCALE
40
1
9
$CMLSTYLE
2
Standard
9
$DIMSTYLE
2
Standard
9
$TEXTSIZE
40
0.2
9
$TEXTSTYLE
7
Standard
9
$LUNITS
70
2
9
$LUPREC
70
4
9
$EXTNAMES
290
1
9
$INSUNITS
70
4
9
$LTSCALE
40
1
9
$LWDISPLAY
290
1
9
$PDMODE
70
0
9
$PDSIZE
40
0
9
$PLINEGEN
70
0
0
ENDSEC
0
SECTION
2
CLASSES
0
CLASS
1
RASTERVARIABLES
2
AcDbRasterVariables
3
ISM
90
0
280
0
281
0
0
ENDSEC
0
SECTION
2
TABLES
0
TABLE
2
VPORT
5
23a
100
AcDbSymbolTable
0
VPORT
5
1
100
AcDbSymbolTableRecord
100
AcDbViewportTableRecord
2
*Active
70
0
10
0
20
0
11
1
21
1
12
-1
22
1
13
0
23
0
14
0.5
24
0.5
15
10
25
10
16
0
26
0
36
1
17
0
27
0
37
0
0
ENDTAB
0
TABLE
2
LTYPE
5
23b
100
AcDbSymbolTable
0
LTYPE
5
14
100
AcDbSymbolTableRecord
100
AcDbLinetypeTableRecord
70
0
2
ByBlock
3

72
65
73
0
40
0
0
LTYPE
5
15
100
AcDbSymbolTableRecord
100
AcDbLinetypeTableRecord
70
0
2
ByLayer
3

72
65
73
0
40
0
0
LTYPE
5
16
100
AcDbSymbolTableRecord
100
AcDbLinetypeTableRecord
70
0
2
CONTINUOUS
3
Solid line
72
65
73
0
40
0
0
LTYPE
5
6A
100
AcDbSymbolTableRecord
100
AcDbLinetypeTableRecord
70
0
2
CENTER
3
____ _ ____ _ ____ _ ____
72
65
73
4
40
47.5
49
22
74
0
49
-8.5
74
0
49
8.5
74
0
49
-8.5
74
0
0
LTYPE
5
6B
100
AcDbSymbolTableRecord
100
AcDbLinetypeTableRecord
70
0
2
DASHED
3
__ __ __ __ __ __ __ __ __
72
65
73
2
40
25.72
49
12.86
74
0
49
-12.86
74
0
0
ENDTAB
0
TABLE
2
LAYER
5
23c
100
AcDbSymbolTable
0
LAYER
5
10
100
AcDbSymbolTableRecord
100
AcDbLayerTableRecord
2
0
70
0
62
7
6
CONTINUOUS
290
1
370
-3
390
0
0
LAYER
5
6D
100
AcDbSymbolTableRecord
100
AcDbLayerTableRecord
2
80
70
0
62
-6
6
CONTINUOUS
290
1
370
-3
390
0
0
LAYER
5
6F
100
AcDbSymbolTableRecord
100
AcDbLayerTableRecord
2
81
70
0
62
-3
6
CONTINUOUS
290
1
370
-3
390
0
0
LAYER
5
72
100
AcDbSymbolTableRecord
100
AcDbLayerTableRecord
2
1
70
0
62
4
6
CONTINUOUS
290
1
370
-3
390
0
0
LAYER
5
93
100
AcDbSymbolTableRecord
100
AcDbLayerTableRecord
2
4
70
0
62
-2
6
CENTER
290
1
370
-3
390
0
0
LAYER
5
19A
100
AcDbSymbolTableRecord
100
AcDbLayerTableRecord
2
2
70
0
62
7
6
CONTINUOUS
290
1
370
-3
390
0
0
LAYER
5
226
100
AcDbSymbolTableRecord
100
AcDbLayerTableRecord
2
SK1
70
0
62
4
6
CONTINUOUS
290
1
370
-3
390
0
0
LAYER
5
227
100
AcDbSymbolTableRecord
100
AcDbLayerTableRecord
2
SK4
70
0
62
2
6
CENTER
290
1
370
-3
390
0
0
LAYER
5
228
100
AcDbSymbolTableRecord
100
AcDbLayerTableRecord
2
SK6
70
0
62
5
6
CONTINUOUS
290
1
370
-3
390
0
0
LAYER
5
229
100
AcDbSymbolTableRecord
100
AcDbLayerTableRecord
2
SK2
70
0
62
7
6
CONTINUOUS
290
1
370
-3
390
0
0
ENDTAB
0
TABLE
2
STYLE
5
23d
100
AcDbSymbolTable
0
STYLE
5
11
100
AcDbSymbolTableRecord
100
AcDbTextStyleTableRecord
2
Standard
3
txt
70
0
71
0
40
0
41
1
42
0
50
0
0
STYLE
5
195
100
AcDbSymbolTableRecord
100
AcDbTextStyleTableRecord
2
iso_b_vert
3
simplex.shx
70
0
71
0
40
0
41
1
42
0
50
0
0
STYLE
5
196
100
AcDbSymbolTableRecord
100
AcDbTextStyleTableRecord
2
DWGDirectTextStyle
3
simplex
70
0
71
0
40
0
41
1
42
0
50
0
0
ENDTAB
0
TABLE
2
DIMSTYLE
5
23e
100
AcDbSymbolTable
100
AcDbDimStyleTable
0
DIMSTYLE
105
27
100
AcDbSymbolTableRecord
100
AcDbDimStyleTableRecord
2
Standard
70
0
3
<>
41
0.18
42
0.0625
44
0.18
140
0.18
147
0.09
73
0
74
0
77
1
271
2
275
0
278
52
280
0
340
11
0
ENDTAB
0
TABLE
2
VIEW
5
23f
100
AcDbSymbolTable
0
ENDTAB
0
TABLE
2
UCS
5
240
100
AcDbSymbolTable
0
ENDTAB
0
TABLE
2
APPID
5
241
100
AcDbSymbolTable
0
APPID
5
12
100
AcDbSymbolTableRecord
100
AcDbRegAppTableRecord
2
ACAD
70
0
0
ENDTAB
0
TABLE
2
BLOCK_RECORD
5
242
100
AcDbSymbolTable
0
BLOCK_RECORD
5
1F
100
AcDbSymbolTableRecord
100
AcDbBlockTableRecord
2
*Model_Space
340
0
70
0
0
BLOCK_RECORD
5
1B
100
AcDbSymbolTableRecord
100
AcDbBlockTableRecord
2
*Paper_Space
340
0
70
0
0
BLOCK_RECORD
5
23
100
AcDbSymbolTableRecord
100
AcDbBlockTableRecord
2
*Paper_Space0
340
0
70
0
0
BLOCK_RECORD
5
198
100
AcDbSymbolTableRecord
100
AcDbBlockTableRecord
2
DimnDraft3D1
340
0
70
0
0
BLOCK_RECORD
5
1A3
100
AcDbSymbolTableRecord
100
AcDbBlockTableRecord
2
DimnDraft3D2
340
0
70
0
0
BLOCK_RECORD
5
1AD
100
AcDbSymbolTableRecord
100
AcDbBlockTableRecord
2
DimnDraft3D3
340
0
70
0
0
BLOCK_RECORD
5
1B8
100
AcDbSymbolTableRecord
100
AcDbBlockTableRecord
2
DimnDraft3D4
340
0
70
0
0
BLOCK_RECORD
5
1C2
100
AcDbSymbolTableRecord
100
AcDbBlockTableRecord
2
DimnDraft3D5
340
0
70
0
0
ENDTAB
0
ENDSEC
0
SECTION
2
BLOCKS
0
BLOCK
5
20
100
AcDbEntity
8
0
100
AcDbBlockBegin
2
*Model_Space
70
0
10
0
20
0
30
0
3
*Model_Space
0
ENDBLK
5
21
100
AcDbEntity
8
0
100
AcDbBlockEnd
0
BLOCK
5
1C
100
AcDbEntity
8
0
100
AcDbBlockBegin
2
*Paper_Space
70
0
10
0
20
0
30
0
3
*Paper_Space
0
ENDBLK
5
1D
100
AcDbEntity
8
0
100
AcDbBlockEnd
0
BLOCK
5
24
100
AcDbEntity
8
0
100
AcDbBlockBegin
2
*Paper_Space0
70
0
10
0
20
0
30
0
3
*Paper_Space0
0
ENDBLK
5
25
100
AcDbEntity
8
0
100
AcDbBlockEnd
0
BLOCK
5
1A0
100
AcDbEntity
8
0
100
AcDbBlockBegin
2
DimnDraft3D1
70
0
10
0
20
0
30
0
3
DimnDraft3D1
0
MTEXT
5
199
100
AcDbEntity
8
2
62
256
6
ByLayer
370
13
48
1
60
0
100
AcDbMText
10
134.60863
20
-25.249886
30
0
210
0
220
0
230
1
1
\W0.7468;223.0
40
3
41
0
44
1.084337
50
0
71
7
72
5
7
iso_b_vert
0
LINE
5
19B
100
AcDbEntity
8
2
62
256
6
ByLayer
370
13
48
1
60
0
100
AcDbLine
10
250
20
-1.5875
30
0
11
250
21
-28
31
0
39
0
210
0
220
0
230
1
0
LINE
5
19C
100
AcDbEntity
8
2
62
256
6
ByLayer
370
13
48
1
60
0
100
AcDbLine
10
27
20
-14.5875
30
0
11
27
21
-28
31
0
39
0
210
0
220
0
230
1
0
LINE
5
19D
100
AcDbEntity
8
2
62
256
6
ByLayer
370
13
48
1
60
0
100
AcDbLine
10
250
20
-26
30
0
11
27
21
-26
31
0
39
0
210
0
220
0
230
1
0
SOLID
5
19E
100
AcDbEntity
8
2
62
256
6
ByLayer
370
13
48
1
60
0
100
AcDbTrace
10
250
20
-26
30
0
11
246.500002
21
-26.460784
31
0
12
246.499998
22
-25.539216
32
0
13
250
23
-26
33
0
39
0
210
0
220
0
230
1
0
SOLID
5
19F
100
AcDbEntity
8
2
62
256
6
ByLayer
370
13
48
1
60
0
100
AcDbTrace
10
27
20
-26
30
0
11
30.499998
21
-25.539216
31
0
12
30.500002
22
-26.460784
32
0
13
27
23
-26
33
0
39
0
210
0
220
0
230
1
0
ENDBLK
5
1A1
100
AcDbEntity
8
0
100
AcDbBlockEnd
0
BLOCK
5
1AA
100
AcDbEntity
8
0
100
AcDbBlockBegin
2
DimnDraft3D2
70
0
10
0
20
0
30
0
3
DimnDraft3D2
0
MTEXT
5
1A4
100
AcDbEntity
8
2
62
256
6
ByLayer
370
13
48
1
60
0
100
AcDbMText
10
136.10863
20
20.750114
30
0
210
0
220
0
230
1
1
\W0.7468;220.0
40
3
41
0
44
1.084337
50
0
71
7
72
5
7
iso_b_vert
0
LINE
5
1A5
100
AcDbEntity
8
2
62
256
6
ByLayer
370
13
48
1
60
0
100
AcDbLine
10
250
20
1.5875
30
0
11
250
21
22
31
0
39
0
210
0
220
0
230
1
0
LINE
5
1A6
100
AcDbEntity
8
2
62
256
6
ByLayer
370
13
48
1
60
0
100
AcDbLine
10
30
20
14.5875
30
0
11
30
21
22
31
0
39
0
210
0
220
0
230
1
0
LINE
5
1A7
100
AcDbEntity
8
2
62
256
6
ByLayer
370
13
48
1
60
0
100
AcDbLine
10
250
20
20
30
0
11
30
21
20
31
0
39
0
210
0
220
0
230
1
0
SOLID
5
1A8
100
AcDbEntity
8
2
62
256
6
ByLayer
370
13
48
1
60
0
100
AcDbTrace
10
250
20
20
30
0
11
246.500002
21
19.539216
31
0
12
246.499998
22
20.460784
32
0
13
250
23
20
33
0
39
0
210
0
220
0
230
1
0
SOLID
5
1A9
100
AcDbEntity
8
2
62
256
6
ByLayer
370
13
48
1
60
0
100
AcDbTrace
10
30
20
20
30
0
11
33.499998
21
20.460784
31
0
12
33.500002
22
19.539216
32
0
13
30
23
20
33
0
39
0
210
0
220
0
230
1
0
ENDBLK
5
1AB
100
AcDbEntity
8
0
100
AcDbBlockEnd
0
BLOCK
5
1B5
100
AcDbEntity
8
0
100
AcDbBlockBegin
2
DimnDraft3D3
70
0
10
0
20
0
30
0
3
DimnDraft3D3
0
MTEXT
5
1AE
100
AcDbEntity
8
SK2
62
256
6
ByLayer
370
13
48
1
60
0
100
AcDbMText
10
-32.770456
20
-38.249886
30
0
210
0
220
0
230
1
1
\W0.7346;60.0
40
3
41
0
44
1.084337
50
0
71
7
72
5
7
iso_b_vert
0
LINE
5
1B0
100
AcDbEntity
8
SK2
62
256
6
ByLayer
370
13
48
1
60
0
100
AcDbLine
10
-60
20
-17.5875
30
0
11
-60
21
-41
31
0
39
0
210
0
220
0
230
1
0
LINE
5
1B1
100
AcDbEntity
8
SK2
62
256
6
ByLayer
370
13
48
1
60
0
100
AcDbLine
10
0
20
-21.5875
30
0
11
0
21
-41
31
0
39
0
210
0
220
0
230
1
0
LINE
5
1B2
100
AcDbEntity
8
SK2
62
256
6
ByLayer
370
13
48
1
60
0
100
AcDbLine
10
-60
20
-39
30
0
11
0
21
-39
31
0
39
0
210
0
220
0
230
1
0
SOLID
5
1B3
100
AcDbEntity
8
SK2
62
256
6
ByLayer
370
13
48
1
60
0
100
AcDbTrace
10
-60
20
-39
30
0
11
-56.500002
21
-38.539216
31
0
12
-56.499998
22
-39.460784
32
0
13
-60
23
-39
33
0
39
0
210
0
220
0
230
1
0
SOLID
5
1B4
100
AcDbEntity
8
SK2
62
256
6
ByLayer
370
13
48
1
60
0
100
AcDbTrace
10
0
20
-39
30
0
11
-3.499998
21
-39.460784
31
0
12
-3.500002
22
-38.539216
32
0
13
0
23
-39
33
0
39
0
210
0
220
0
230
1
0
ENDBLK
5
1B6
100
AcDbEntity
8
0
100
AcDbBlockEnd
0
BLOCK
5
1BF
100
AcDbEntity
8
0
100
AcDbBlockBegin
2
DimnDraft3D4
70
0
10
0
20
0
30
0
3
DimnDraft3D4
0
MTEXT
5
1B9
100
AcDbEntity
8
2
62
256
6
ByLayer
370
13
48
1
60
0
100
AcDbMText
10
121.10863
20
-38.249886
30
0
210
0
220
0
230
1
1
\W0.7468;250.0
40
3
41
0
44
1.084337
50
0
71
7
72
5
7
iso_b_vert
0
LINE
5
1BA
100
AcDbEntity
8
2
62
256
6
ByLayer
370
13
48
1
60
0
100
AcDbLine
10
0
20
-21.5875
30
0
11
0
21
-41
31
0
39
0
210
0
220
0
230
1
0
LINE
5
1BB
100
AcDbEntity
8
2
62
256
6
ByLayer
370
13
48
1
60
0
100
AcDbLine
10
250
20
-1.5875
30
0
11
250
21
-41
31
0
39
0
210
0
220
0
230
1
0
LINE
5
1BC
100
AcDbEntity
8
2
62
256
6
ByLayer
370
13
48
1
60
0
100
AcDbLine
10
0
20
-39
30
0
11
250
21
-39
31
0
39
0
210
0
220
0
230
1
0
SOLID
5
1BD
100
AcDbEntity
8
2
62
256
6
ByLayer
370
13
48
1
60
0
100
AcDbTrace
10
0
20
-39
30
0
11
3.499998
21
-38.539216
31
0
12
3.500002
22
-39.460784
32
0
13
0
23
-39
33
0
39
0
210
0
220
0
230
1
0
SOLID
5
1BE
100
AcDbEntity
8
2
62
256
6
ByLayer
370
13
48
1
60
0
100
AcDbTrace
10
250
20
-39
30
0
11
246.500002
21
-39.460784
31
0
12
246.499998
22
-38.539216
32
0
13
250
23
-39
33
0
39
0
210
0
220
0
230
1
0
ENDBLK
5
1C0
100
AcDbEntity
8
0
100
AcDbBlockEnd
0
BLOCK
5
1CA
100
AcDbEntity
8
0
100
AcDbBlockBegin
2
DimnDraft3D5
70
0
10
0
20
0
30
0
3
DimnDraft3D5
0
MTEXT
5
1C3
100
AcDbEntity
8
SK2
62
256
6
ByLayer
370
13
48
1
60
0
100
AcDbMText
10
-67.750114
20
0.229544
30
0
210
0
220
0
230
1
1
\W0.7346;32.0
40
3
41
0
44
1.084337
50
90
71
7
72
5
7
iso_b_vert
0
MTEXT
5
1C4
100
AcDbEntity
8
SK2
62
256
6
ByLayer
370
13
48
1
60
0
100
AcDbMText
10
-67.750114
20
-4.247019
30
0
210
0
220
0
230
1
1
%%c
40
3
41
0
44
1.084337
50
90
71
7
72
5
7
iso_b_vert
0
LINE
5
1C5
100
AcDbEntity
8
SK2
62
256
6
ByLayer
370
13
48
1
60
0
100
AcDbLine
10
-61.5875
20
16
30
0
11
-68.25
21
16
31
0
39
0
210
0
220
0
230
1
0
LINE
5
1C6
100
AcDbEntity
8
SK2
62
256
6
ByLayer
370
13
48
1
60
0
100
AcDbLine
10
-61.5875
20
-16
30
0
11
-68.25
21
-16
31
0
39
0
210
0
220
0
230
1
0
LINE
5
1C7
100
AcDbEntity
8
SK2
62
256
6
ByLayer
370
13
48
1
60
0
100
AcDbLine
10
-66.25
20
16
30
0
11
-66.25
21
-16
31
0
39
0
210
0
220
0
230
1
0
SOLID
5
1C8
100
AcDbEntity
8
SK2
62
256
6
ByLayer
370
13
48
1
60
0
100
AcDbTrace
10
-66.25
20
16
30
0
11
-65.789216
21
12.500002
31
0
12
-66.710784
22
12.499998
32
0
13
-66.25
23
16
33
0
39
0
210
0
220
0
230
1
0
SOLID
5
1C9
100
AcDbEntity
8
SK2
62
256
6
ByLayer
370
13
48
1
60
0
100
AcDbTrace
10
-66.25
20
-16
30
0
11
-66.710784
21
-12.500002
31
0
12
-65.789216
22
-12.499998
32
0
13
-66.25
23
-16
33
0
39
0
210
0
220
0
230
1
0
ENDBLK
5
1CB
100
AcDbEntity
8
0
100
AcDbBlockEnd
0
ENDSEC
0
SECTION
2
ENTITIES
0
ARC
5
E2
100
AcDbEntity
8
SK1
62
256
6
ByLayer
370
18
48
1
60
0
100
AcDbCircle
39
0
10
57.946236
20
-16.496
30
0
40
0.800000000000005
210
0
220
0
230
-1
100
AcDbArc
50
51
51
130.534532
0
ARC
5
E3
100
AcDbEntity
8
SK1
62
256
6
ByLayer
370
18
48
1
60
0
100
AcDbCircle
39
0
10
0.15
20
-16.146
30
0
40
0.4
210
0
220
0
230
-1
100
AcDbArc
50
90
51
112.024313
0
ARC
5
E4
100
AcDbEntity
8
SK1
62
256
6
ByLayer
370
18
48
1
60
0
100
AcDbCircle
39
0
10
0.975195
20
16.146
30
0
40
0.4
210
0
220
0
230
-1
100
AcDbArc
50
270
51
295
0
ARC
5
E5
100
AcDbEntity
8
1
62
256
6
ByLayer
370
18
48
1
60
0
100
AcDbCircle
39
0
10
-27
20
20.5
30
0
40
8
210
0
220
0
230
-1
100
AcDbArc
50
270
51
294.987592
0
ARC
5
E6
100
AcDbEntity
8
SK1
62
256
6
ByLayer
370
18
48
1
60
0
100
AcDbCircle
39
0
10
0.975195
20
-16.146
30
0
40
0.4
210
0
220
0
230
-1
100
AcDbArc
50
65
51
90
0
ARC
5
E7
100
AcDbEntity
8
SK1
62
256
6
ByLayer
370
18
48
1
60
0
100
AcDbCircle
39
0
10
0.15
20
16.146
30
0
40
0.4
210
0
220
0
230
-1
100
AcDbArc
50
247.975687
51
270
0
ARC
5
E8
100
AcDbEntity
8
1
62
256
6
ByLayer
370
18
48
1
60
0
100
AcDbCircle
39
0
10
-27
20
-20.5
30
0
40
8
210
0
220
0
230
-1
100
AcDbArc
50
65.012408
51
90
0
ARC
5
E9
100
AcDbEntity
8
SK1
62
256
6
ByLayer
370
18
48
1
60
0
100
AcDbCircle
39
0
10
57.946236
20
16.496
30
0
40
0.800000000000005
210
0
220
0
230
-1
100
AcDbArc
50
229.465468
51
309
0
ELLIPSE
5
EA
100
AcDbEntity
8
1
62
256
6
ByLayer
370
13
48
1
60
0
100
AcDbEllipse
10
248.595261
20
1.206892
30
0
11
-0.0544235218676504
21
-0.077865783676281
31
0
210
0
220
0
230
1
40
0.550074
41
-2.35740611969619
42
-1.67462492420246
0
ELLIPSE
5
EB
100
AcDbEntity
8
1
62
256
6
ByLayer
370
13
48
1
60
0
100
AcDbEllipse
10
248.572449
20
1.222952
30
0
11
-0.0549522107454297
21
-0.0774935773738048
31
0
210
0
220
0
230
1
40
0.55056
41
-2.3502758059768
42
-1.6708986552137
0
ELLIPSE
5
EC
100
AcDbEntity
8
1
62
256
6
ByLayer
370
18
48
1
60
0
100
AcDbEllipse
10
250.005664
20
0
30
0
11
5.15924320578605
21
12.6300248671905
31
0
210
0
220
0
230
1
40
0.349717
41
2.92427609963048
42
-2.98233229601778
0
ELLIPSE
5
ED
100
AcDbEntity
8
1
62
256
6
ByLayer
370
18
48
1
60
0
100
AcDbEllipse
10
230.215
20
0
30
0
11
12.7582499953908
21
-1.44563691206473E-14
31
0
210
0
220
0
230
1
40
1
41
-1.29096365047071
42
-1.21567962948635
0
ELLIPSE
5
EE
100
AcDbEntity
8
1
62
256
6
ByLayer
370
13
48
1
60
0
100
AcDbEllipse
10
218.07
20
13.161554
30
0
11
6.57473110895361
21
-6.14596703903841
31
0
210
0
220
0
230
1
40
0.230708
41
0.889568468856554
42
1.01199260439415
0
ELLIPSE
5
EF
100
AcDbEntity
8
1
62
256
6
ByLayer
370
18
48
1
60
0
100
AcDbEllipse
10
241.193166
20
-1.625241
30
0
11
0.4462991860142
21
-1.76253623244544
31
0
210
0
220
0
230
1
40
0.321546
41
0.684502979883029
42
-0.846984343191549
0
ELLIPSE
5
F0
100
AcDbEntity
8
1
62
256
6
ByLayer
370
18
48
1
60
0
100
AcDbEllipse
10
224.35201
20
-85.0918
30
0
11
78.9883554721829
21
-0.377951597283622
31
0
210
0
220
0
230
1
40
0.928679
41
1.45612244128986
42
1.45789152467995
0
ELLIPSE
5
F1
100
AcDbEntity
8
1
62
256
6
ByLayer
370
13
48
1
60
0
100
AcDbEllipse
10
246.347033
20
4.42244
30
0
11
-0.0928019702835869
21
-0.0203173401675578
31
0
210
0
220
0
230
1
40
0.128916
41
-1.68831595870529
42
-1.40158778669741
0
ELLIPSE
5
F2
100
AcDbEntity
8
1
62
256
6
ByLayer
370
18
48
1
60
0
100
AcDbEllipse
10
249.950102
20
0.259939
30
0
11
0.04462402612094
21
-0.146773165285399
31
0
210
0
220
0
230
1
40
0.05855
41
-2.43183944754871
42
-1.7490582604056
0
ELLIPSE
5
F3
100
AcDbEntity
8
1
62
256
6
ByLayer
370
18
48
1
60
0
100
AcDbEllipse
10
250.005664
20
0
30
0
11
5.15924320586878
21
-12.6300248673812
31
0
210
0
220
0
230
1
40
0.349717
41
2.98233229601887
42
2.99970199422139
0
ELLIPSE
5
F4
100
AcDbEntity
8
1
62
256
6
ByLayer
370
18
48
1
60
0
100
AcDbEllipse
10
260.192983
20
0
30
0
11
17.2217955163059
21
11.6737660208577
31
0
210
0
220
0
230
1
40
0.290406
41
2.95064303437569
42
-3.10737398501988
0
ELLIPSE
5
F5
100
AcDbEntity
8
1
62
256
6
ByLayer
370
18
48
1
60
0
100
AcDbEllipse
10
250.011102
20
0.015765
30
0
11
4.53280891425051
21
13.0172418800272
31
0
210
0
220
0
230
1
40
0.077207
41
-2.88758363522125
42
-2.78934807562428
0
ELLIPSE
5
F6
100
AcDbEntity
8
1
62
256
6
ByLayer
370
18
48
1
60
0
100
AcDbEllipse
10
228.08
20
-5.397157
30
0
11
-2.52999999999998
21
3.09825407517059E-16
31
0
210
0
220
0
230
1
40
0.702153
41
1.28864201660501
42
1.82605074067612
0
ELLIPSE
5
F7
100
AcDbEntity
8
1
62
256
6
ByLayer
370
18
48
1
60
0
100
AcDbEllipse
10
228.08
20
-5.397157
30
0
11
-2.52999999999998
21
3.09825407517059E-16
31
0
210
0
220
0
230
1
40
0.702153
41
-3.14159261820219
42
-4.99974598005131E-16
0
ELLIPSE
5
F8
100
AcDbEntity
8
1
62
256
6
ByLayer
370
13
48
1
60
0
100
AcDbEllipse
10
246.346362
20
4.425493
30
0
11
-0.092769927374078
21
-0.0204631516391855
31
0
210
0
220
0
230
1
40
0.128734
41
-1.68851840488388
42
-1.40179130300016
0
ELLIPSE
5
F9
100
AcDbEntity
8
1
62
256
6
ByLayer
370
18
48
1
60
0
100
AcDbEllipse
10
250.005308
20
0
30
0
11
4.44101882503931
21
12.7536417371832
31
0
210
0
220
0
230
1
40
0.077207
41
-3.09735009544769
42
-2.88554408727783
0
ELLIPSE
5
FA
100
AcDbEntity
8
1
62
256
6
ByLayer
370
18
48
1
60
0
100
AcDbEllipse
10
250.011102
20
-0.015765
30
0
11
4.53280891425051
21
-13.0172418800272
31
0
210
0
220
0
230
1
40
0.077207
41
2.78934807562428
42
2.88758363522126
0
ELLIPSE
5
FB
100
AcDbEntity
8
1
62
256
6
ByLayer
370
18
48
1
60
0
100
AcDbEllipse
10
250.005308
20
0
30
0
11
4.44101882465685
21
-12.7536417360501
31
0
210
0
220
0
230
1
40
0.077207
41
3.0359724412692
42
3.09735009544569
0
ELLIPSE
5
FC
100
AcDbEntity
8
1
62
256
6
ByLayer
370
18
48
1
60
0
100
AcDbEllipse
10
241.479026
20
-1.637405
30
0
11
0.00259068209313328
21
-1.75149397747377
31
0
210
0
220
0
230
1
40
0.343183
41
-0.76625127272993
42
0.765236050345884
0
ELLIPSE
5
FD
100
AcDbEntity
8
1
62
256
6
ByLayer
370
18
48
1
60
0
100
AcDbEllipse
10
249.950102
20
-0.259939
30
0
11
0.0446240261348419
21
0.146773165325091
31
0
210
0
220
0
230
1
40
0.05855
41
1.74905826057312
42
2.43183944755686
0
ELLIPSE
5
FE
100
AcDbEntity
8
1
62
256
6
ByLayer
370
18
48
1
60
0
100
AcDbEllipse
10
210.229289
20
-3E-06
30
0
11
50.9200511506295
21
-11.2225078516206
31
0
210
0
220
0
230
1
40
0.116755
41
-1.39642579870641
42
-1.36655154275736
0
ELLIPSE
5
FF
100
AcDbEntity
8
1
62
256
6
ByLayer
370
18
48
1
60
0
100
AcDbEllipse
10
26.900633
20
5.278202
30
0
11
5.86616390381464
21
6.8255491393427
31
0
210
0
220
0
230
1
40
0.482049
41
1.03855406193817
42
2.95743310052014
0
POINT
5
6C
100
AcDbEntity
8
80
62
256
6
ByLayer
370
18
48
1
60
0
100
AcDbPoint
10
0
20
0
30
0
39
0
210
0
220
0
230
1
50
360
0
POINT
5
6E
100
AcDbEntity
8
81
62
256
6
ByLayer
370
18
48
1
60
0
100
AcDbPoint
10
233.6
20
0
30
0
39
0
210
0
220
0
230
1
50
360
0
SPLINE
5
100
100
AcDbEntity
8
1
62
256
6
ByLayer
370
18
48
1
60
0
100
AcDbSpline
70
4
71
3
72
16
73
12
40
0
40
0
40
0
40
0
40
0.144460657252736
40
0.288821958881658
40
0.431937515280742
40
0.57252073454296
40
0.659247696132565
40
0.744763460531218
40
0.829460304463625
40
0.914125128673702
40
1
40
1
40
1
40
1
41
1
10
23.5299842374615
20
13.2910478842113
30
0
41
1
10
22.7839698379479
20
13.6510950199157
30
0
41
1
10
21.3091653751756
20
14.4014939326286
30
0
41
1
10
19.1747212357495
20
15.655760904857
30
0
41
1
10
17.0669243708217
20
16.908590553658
30
0
41
1
10
15.2086973766758
20
17.9362483589064
30
0
41
1
10
13.5885552143069
20
18.7046856892311
30
0
41
1
10
12.218177461183
20
19.2463851150451
30
0
41
1
10
10.8174447207449
20
19.6651679585127
30
0
41
1
10
9.37597497439801
20
19.9372309329499
30
0
41
1
10
8.40174482131611
20
19.9981444829132
30
0
41
1
10
7.9071
20
20
30
0
0
SPLINE
5
101
100
AcDbEntity
8
1
62
256
6
ByLayer
370
18
48
1
60
0
100
AcDbSpline
70
4
71
3
72
16
73
12
40
0
40
0
40
0
40
0
40
0.0910195725315875
40
0.180773971232326
40
0.270694488340718
40
0.361643897720373
40
0.454004307281267
40
0.547794347956067
40
0.697471485053943
40
0.848656280415399
40
1
40
1
40
1
40
1
41
1
10
7.9071
20
-20
30
0
41
1
10
8.43167435769753
20
-19.9977095209757
30
0
41
1
10
9.46403602017702
20
-19.9294926194535
30
0
41
1
10
10.9901453237031
20
-19.6246913031932
30
0
41
1
10
12.4708461232313
20
-19.1584419354027
30
0
41
1
10
13.9186786870754
20
-18.5590814064164
30
0
41
1
10
15.3432404946769
20
-17.8568244712785
30
0
41
1
10
17.0290999143633
20
-16.9288161320509
30
0
41
1
10
18.9739860548496
20
-15.7760369187656
30
0
41
1
10
21.205015718075
20
-14.4570734720585
30
0
41
1
10
22.7489199692412
20
-13.6692661973605
30
0
41
1
10
23.5299842374615
20
-13.2910478842113
30
0
0
SPLINE
5
102
100
AcDbEntity
8
1
62
256
6
ByLayer
370
18
48
1
60
0
100
AcDbSpline
70
4
71
2
72
6
73
3
40
0
40
0
40
0
40
1
40
1
40
1
41
1
10
192.06429497819
20
-2.71266448623044
30
0
41
1
10
192.249712214009
20
-2.77161716088227
30
0
41
1
10
192.443850821567
20
-2.8376692661866
30
0
0
SPLINE
5
103
100
AcDbEntity
8
1
62
256
6
ByLayer
370
18
48
1
60
0
100
AcDbSpline
70
4
71
3
72
44
73
40
40
0
40
0
40
0
40
0
40
0.0070219960994297
40
0.0400776844476237
40
0.0679734062334251
40
0.0907090734552006
40
0.108284199874592
40
0.121218783655965
40
0.130086986287506
40
0.139782331080408
40
0.150623037470025
40
0.162486025702375
40
0.175183534893582
40
0.1887135682869
40
0.208114586630306
40
0.225003480096494
40
0.238915348490844
40
0.25347359814814
40
0.284095081481854
40
0.314017028464946
40
0.342972128391929
40
0.375174439499465
40
0.438160570573087
40
0.494753002107068
40
0.548815713135001
40
0.597959507113371
40
0.628217929064615
40
0.664121840805354
40
0.702897449492017
40
0.743200177001398
40
0.782568951834586
40
0.808440133658735
40
0.830296506500945
40
0.85303107898065
40
0.877628547003892
40
0.903885290486125
40
0.948797801173444
40
0.994283041490125
40
1
40
1
40
1
40
1
41
1
10
184.670200719655
20
12.195588565954
30
0
41
1
10
184.580785643948
20
12.1955716526817
30
0
41
1
10
184.070453409547
20
12.1954932048762
30
0
41
1
10
183.204902055016
20
12.1956019847869
30
0
41
1
10
182.139263296427
20
12.195912085343
30
0
41
1
10
181.270752081823
20
12.1963578413658
30
0
41
1
10
180.592752613813
20
12.1967996268932
30
0
41
1
10
180.091335859031
20
12.1971366610326
30
0
41
1
10
179.690253380417
20
12.1973932309454
30
0
41
1
10
179.315831507548
20
12.1976110206287
30
0
41
1
10
178.903274640191
20
12.1978084279958
30
0
41
1
10
178.45248873371
20
12.1979495275827
30
0
41
1
10
177.967457647407
20
12.1979810646689
30
0
41
1
10
177.386440253905
20
12.197879897744
30
0
41
1
10
176.752052079282
20
12.1976075459683
30
0
41
1
10
176.112801187061
20
12.1972070516561
30
0
41
1
10
175.535216191648
20
12.1967901712337
30
0
41
1
10
174.782765457759
20
12.1962293390343
30
0
41
1
10
173.826448115985
20
12.1955240386154
30
0
41
1
10
172.686806609417
20
12.194799159125
30
0
41
1
10
171.527035781449
20
12.1942845651582
30
0
41
1
10
169.946237293584
20
12.193918982621
30
0
41
1
10
168.01351539552
20
12.194893548108
30
0
41
1
10
165.802431225222
20
12.1945552461619
30
0
41
1
10
163.767612766404
20
12.1912169686446
30
0
41
1
10
162.068119817293
20
12.1895303141379
30
0
41
1
10
160.599854674762
20
12.188934807871
30
0
41
1
10
159.263619217366
20
12.1891066272173
30
0
41
1
10
157.799478768071
20
12.1901930123657
30
0
41
1
10
156.2912166481
20
12.192380190888
30
0
41
1
10
154.947277771275
20
12.1939163900439
30
0
41
1
10
153.838222742293
20
12.1937446240486
30
0
41
1
10
152.940988008209
20
12.1930284013381
30
0
41
1
10
152.059969759705
20
12.192068837058
30
0
41
1
10
151.122917076941
20
12.1911083975205
30
0
41
1
10
149.903458602291
20
12.1901566566235
30
0
41
1
10
148.418024166596
20
12.1895678672453
30
0
41
1
10
147.194129689842
20
12.1897779821333
30
0
41
1
10
146.542153671978
20
12.190172795507
30
0
41
1
10
146.46935772405
20
12.190220032722
30
0
0
SPLINE
5
104
100
AcDbEntity
8
1
62
256
6
ByLayer
370
18
48
1
60
0
100
AcDbSpline
70
4
71
2
72
6
73
3
40
0
40
0
40
0
40
1
40
1
40
1
41
1
10
77.4963770503517
20
-2.71266268479255
30
0
41
1
10
77.6863389314129
20
-2.77292389332231
30
0
41
1
10
77.8762402565213
20
-2.83739275703027
30
0
0
SPLINE
5
105
100
AcDbEntity
8
1
62
256
6
ByLayer
370
18
48
1
60
0
100
AcDbSpline
70
4
71
3
72
36
73
32
40
0
40
0
40
0
40
0
40
0.009863369318159
40
0.0278354365533615
40
0.0676228667437126
40
0.101730461264948
40
0.127485349951337
40
0.150468896439692
40
0.178932310301507
40
0.211421102205447
40
0.243958910097012
40
0.276285694760429
40
0.375797906688716
40
0.475433376677358
40
0.503083721077816
40
0.532007806195323
40
0.56095922750487
40
0.588492365044655
40
0.614279942143772
40
0.635984648648214
40
0.652285716896088
40
0.667475741153591
40
0.686350186053005
40
0.708977855280802
40
0.735359130733213
40
0.779683480938396
40
0.824304449432324
40
0.868753543594353
40
0.913060574797986
40
0.960466815063644
40
1
40
1
40
1
40
1
41
1
10
71.7245708178377
20
12.1860470273932
30
0
41
1
10
71.6007822696621
20
12.1848179762047
30
0
41
1
10
71.2502535321926
20
12.1820901360536
30
0
41
1
10
70.3794660343152
20
12.1816335589282
30
0
41
1
10
69.2220343231784
20
12.1905585504933
30
0
41
1
10
67.9633216447394
20
12.1939100564082
30
0
41
1
10
66.9149714579288
20
12.1947792259288
30
0
41
1
10
65.9301315966111
20
12.1943669046432
30
0
41
1
10
64.8560645817573
20
12.1942656288893
30
0
41
1
10
63.6609131220711
20
12.194615671972
30
0
41
1
10
62.4158836645414
20
12.1952737012484
30
0
41
1
10
60.3137672601583
20
12.197220937177
30
0
41
1
10
57.3535203327938
20
12.1968510633285
30
0
41
1
10
54.4531018533772
20
12.1937888639971
30
0
41
1
10
52.4554019462941
20
12.1932933234742
30
0
41
1
10
51.3616498864148
20
12.1933127929044
30
0
41
1
10
50.2693963064579
20
12.1937654327091
30
0
41
1
10
49.2172531954841
20
12.1944270545387
30
0
41
1
10
48.2577849719097
20
12.1947779297685
30
0
41
1
10
47.441958898178
20
12.1945310062682
30
0
41
1
10
46.761660606563
20
12.1938980968803
30
0
41
1
10
46.1175585764714
20
12.193067839577
30
0
41
1
10
45.3925484601086
20
12.1919272231906
30
0
41
1
10
44.5244180990077
20
12.1904354304128
30
0
41
1
10
43.3308195606477
20
12.1884667480318
30
0
41
1
10
41.8559601167145
20
12.1864436832024
30
0
41
1
10
40.1500354106401
20
12.1853628326431
30
0
41
1
10
38.4443321935427
20
12.1862588990221
30
0
41
1
10
36.7030126939377
20
12.1894814596733
30
0
41
1
10
35.0245655131226
20
12.1940706637549
30
0
41
1
10
33.9127384961681
20
12.1971150804091
30
0
41
1
10
33.4071673782108
20
12.1985464984704
30
0
0
SPLINE
5
106
100
AcDbEntity
8
1
62
256
6
ByLayer
370
18
48
1
60
0
100
AcDbSpline
70
4
71
1
72
4
73
2
40
0
40
0
40
1
40
1
41
1
10
109.055612851392
20
5.89376337714515
30
0
41
1
10
108.689062108399
20
5.9979414810185
30
0
0
SPLINE
5
107
100
AcDbEntity
8
1
62
256
6
ByLayer
370
18
48
1
60
0
100
AcDbSpline
70
4
71
3
72
55
73
51
40
0
40
0
40
0
40
0
40
0.0256868498158418
40
0.0494867352248035
40
0.071844104480508
40
0.0931575642959554
40
0.113251310705982
40
0.132137845720005
40
0.150019486181948
40
0.167807577607097
40
0.190246324714848
40
0.211712866406541
40
0.23124482573074
40
0.252605344200851
40
0.278122208389959
40
0.317150736753343
40
0.351426060592402
40
0.386863154401796
40
0.423355705688923
40
0.46013952543332
40
0.496597033423917
40
0.524808356546395
40
0.554847759390496
40
0.584407396504917
40
0.611692428744871
40
0.635742650430651
40
0.649427317001495
40
0.662243276863087
40
0.675922207104671
40
0.690530116154855
40
0.706556169027167
40
0.726071659915443
40
0.7456415803694
40
0.767853351750419
40
0.789651685102453
40
0.809306993152852
40
0.825504209375758
40
0.837604248701764
40
0.849856247837355
40
0.864413043373131
40
0.874974725199857
40
0.883759188762414
40
0.890396467290625
40
0.895114668899668
40
0.902124373545735
40
0.913012718233296
40
0.931198984427173
40
0.954970669599564
40
0.98432772272925
40
1
40
1
40
1
40
1
41
1
10
136.38618215454
20
-12.1890726247013
30
0
41
1
10
136.784255776813
20
-12.1879831111258
30
0
41
1
10
137.559022790247
20
-12.1863569251905
30
0
41
1
10
138.713032543988
20
-12.1816797698595
30
0
41
1
10
139.802898827441
20
-12.1850729235555
30
0
41
1
10
140.813032386346
20
-12.1907017933301
30
0
41
1
10
141.777320804989
20
-12.1926583919638
30
0
41
1
10
142.688682577667
20
-12.1932743567829
30
0
41
1
10
143.565951558807
20
-12.192697220899
30
0
41
1
10
144.501846454906
20
-12.1917005844011
30
0
41
1
10
145.49510850121
20
-12.1908211778546
30
0
41
1
10
146.515510713666
20
-12.1901304429363
30
0
41
1
10
147.519855924362
20
-12.1897194025482
30
0
41
1
10
148.589271989687
20
-12.1896815266054
30
0
41
1
10
149.972699825017
20
-12.1901633567998
30
0
41
1
10
151.564101591945
20
-12.1914399124763
30
0
41
1
10
153.315238061666
20
-12.1935633879798
30
0
41
1
10
155.025554940476
20
-12.1941044273437
30
0
41
1
10
156.776265801212
20
-12.1915970521139
30
0
41
1
10
158.543409915326
20
-12.1894266457441
30
0
41
1
10
160.17719399346
20
-12.188859554832
30
0
41
1
10
161.702365574793
20
-12.1893145117992
30
0
41
1
10
163.116455971693
20
-12.1905100914274
30
0
41
1
10
164.515627194023
20
-12.1924595833296
30
0
41
1
10
165.818351004453
20
-12.1942130833956
30
0
41
1
10
166.865426012066
20
-12.19479870437
30
0
41
1
10
167.679491145659
20
-12.1947329744693
30
0
41
1
10
168.326537276706
20
-12.194550164172
30
0
41
1
10
168.988451905366
20
-12.1943129553138
30
0
41
1
10
169.702061948089
20
-12.1941209490906
30
0
41
1
10
170.509663965891
20
-12.1940882863297
30
0
41
1
10
171.397174169605
20
-12.1942526479058
30
0
41
1
10
172.384298883405
20
-12.1946479050938
30
0
41
1
10
173.408185927606
20
-12.1952431379631
30
0
41
1
10
174.433447807217
20
-12.1959665089131
30
0
41
1
10
175.361852099329
20
-12.1966632113654
30
0
41
1
10
176.134075975497
20
-12.1972264568911
30
0
41
1
10
176.787076307271
20
-12.1976201154199
30
0
41
1
10
177.413659091015
20
-12.1978886117647
30
0
41
1
10
178.0154645322
20
-12.197994151884
30
0
41
1
10
178.561436675703
20
-12.1979245043266
30
0
41
1
10
178.979857358958
20
-12.1977727052702
30
0
41
1
10
179.304219142172
20
-12.1976150949318
30
0
41
1
10
179.599726855974
20
-12.1974429138332
30
0
41
1
10
179.963867136586
20
-12.1972059031038
30
0
41
1
10
180.544918078529
20
-12.1968058255854
30
0
41
1
10
181.395935483799
20
-12.1962317854352
30
0
41
1
10
182.544384638767
20
-12.1957121110363
30
0
41
1
10
183.652356431478
20
-12.1954757397106
30
0
41
1
10
184.377489598524
20
-12.195548003289
30
0
41
1
10
184.629868065364
20
-12.1955968245912
30
0
0
SPLINE
5
108
100
AcDbEntity
8
1
62
256
6
ByLayer
370
18
48
1
60
0
100
AcDbSpline
70
4
71
3
72
34
73
30
40
0
40
0
40
0
40
0
40
0.058301089104868
40
0.110268188842277
40
0.159410649013498
40
0.208753178409547
40
0.247666152172751
40
0.286337809595505
40
0.320255058226232
40
0.34808814030712
40
0.367798192105512
40
0.38524674075833
40
0.407513039351053
40
0.434819517027873
40
0.464591792378369
40
0.495995909903742
40
0.527673506326475
40
0.557894140999531
40
0.69214150383043
40
0.827636336924836
40
0.850668622164502
40
0.873039114803544
40
0.892816951904236
40
0.909925020568342
40
0.925438545255115
40
0.944315133697404
40
0.961103774320198
40
0.980149569537528
40
1
40
1
40
1
40
1
41
1
10
32.900000000792
20
-12.1999999460864
30
0
41
1
10
33.618711676014
20
-12.1978889794469
30
0
41
1
10
34.9780526571588
20
-12.1941755877197
30
0
41
1
10
36.9432000552892
20
-12.188885651763
30
0
41
1
10
38.7979163173229
20
-12.1858115864832
30
0
41
1
10
40.491709024803
20
-12.185483375808
30
0
41
1
10
42.0564205776328
20
-12.1867221785096
30
0
41
1
10
43.4309720015877
20
-12.1886173141421
30
0
41
1
10
44.6689365431546
20
-12.1906807413027
30
0
41
1
10
45.6731486682103
20
-12.192401986305
30
0
41
1
10
46.4743405605956
20
-12.1935618884642
30
0
41
1
10
47.2069083748128
20
-12.1943571038692
30
0
41
1
10
48.0331229841041
20
-12.1947887322585
30
0
41
1
10
49.0112598757348
20
-12.1945420966468
30
0
41
1
10
50.1020443536359
20
-12.1938677923986
30
0
41
1
10
51.2467135211385
20
-12.1933277266607
30
0
41
1
10
52.3969085449434
20
-12.1932848681104
30
0
41
1
10
54.8149217402603
20
-12.1938303462889
30
0
41
1
10
58.5126704981746
20
-12.1990671896425
30
0
41
1
10
62.1221553377007
20
-12.1951638436508
30
0
41
1
10
64.3518536827757
20
-12.1944150272582
30
0
41
1
10
65.1553116393149
20
-12.1942830585445
30
0
41
1
10
65.8858161668235
20
-12.194386692647
30
0
41
1
10
66.5310712764836
20
-12.1946118225716
30
0
41
1
10
67.1614044013205
20
-12.1946029547412
30
0
41
1
10
67.7860223047618
20
-12.1940002821763
30
0
41
1
10
68.4525201171413
20
-12.1924952232288
30
0
41
1
10
69.1304771856191
20
-12.1901315793544
30
0
41
1
10
69.6023242792013
20
-12.1873031758586
30
0
41
1
10
69.8441199492639
20
-12.185932875766
30
0
0
SPLINE
5
109
100
AcDbEntity
8
1
62
256
6
ByLayer
370
18
48
1
60
0
100
AcDbSpline
70
4
71
3
72
9
73
5
40
0
40
0
40
0
40
0
40
0.312355816621543
40
1
40
1
40
1
40
1
41
1
10
71.1802304537105
20
-12.1825062928584
30
0
41
1
10
71.2374316297683
20
-12.182678217544
30
0
41
1
10
71.4201447944242
20
-12.1834154635181
30
0
41
1
10
71.6007822696619
20
-12.1848179762047
30
0
41
1
10
71.7245708178378
20
-12.1860470273932
30
0
0
SPLINE
5
10A
100
AcDbEntity
8
1
62
256
6
ByLayer
370
13
48
1
60
0
100
AcDbSpline
70
4
71
3
72
8
73
4
40
0
40
0
40
0
40
0
40
1
40
1
40
1
40
1
41
1
10
246.228657712577
20
-5.55287447509721
30
0
41
1
10
246.45696261329
20
-4.40075750052318
30
0
41
1
10
246.685267514003
20
-3.24864052594916
30
0
41
1
10
246.913572414716
20
-2.09652355137513
30
0
0
SPLINE
5
10B
100
AcDbEntity
8
1
62
256
6
ByLayer
370
18
48
1
60
0
100
AcDbSpline
70
4
71
3
72
8
73
4
40
0
40
0
40
0
40
0
40
1
40
1
40
1
40
1
41
1
10
245.958452623731
20
-12.4246883401629
30
0
41
1
10
245.931097579976
20
-12.5070060062886
30
0
41
1
10
245.903708928897
20
-12.5893545497785
30
0
41
1
10
245.876287351281
20
-12.6717317251407
30
0
0
SPLINE
5
10C
100
AcDbEntity
8
1
62
256
6
ByLayer
370
18
48
1
60
0
100
AcDbSpline
70
4
71
3
72
8
73
4
40
0
40
0
40
0
40
0
40
1
40
1
40
1
40
1
41
1
10
23.5299842374615
20
-4.18925100678703
30
0
41
1
10
23.5597211954661
20
-4.20527489427306
30
0
41
1
10
23.5899356639252
20
-4.22036904044364
30
0
41
1
10
23.6206241663829
20
-4.23455127935276
30
0
0
SPLINE
5
10D
100
AcDbEntity
8
1
62
256
6
ByLayer
370
18
48
1
60
0
100
AcDbSpline
70
2053
71
3
72
39
73
35
40
0
40
0
40
0
40
0
40
0.0303398922856595
40
0.0624408369054388
40
0.093643175888618
40
0.124892903833708
40
0.15620558507779
40
0.187374771925195
40
0.219464810607723
40
0.249877509429187
40
0.280288603503844
40
0.312405457809469
40
0.343571933131555
40
0.37490570980826
40
0.406072229562638
40
0.437386710013867
40
0.469512930920369
40
0.499829747759742
40
0.530244654991863
40
0.562500031219991
40
0.59371216795424
40
0.625031860720015
40
0.656198511496846
40
0.687531961429929
40
0.719613446050574
40
0.749977269245164
40
0.780321865708858
40
0.812410084142153
40
0.843741754162412
40
0.874904890621532
40
0.906216000588652
40
0.937483510960615
40
0.969664493118312
40
1
40
1
40
1
40
1
41
1
10
228.08
20
-7.01354274882434
30
0
41
1
10
227.918787068849
20
-7.01354555775839
30
0
41
1
10
227.587003350041
20
-7.04110291592153
30
0
41
1
10
227.108737499685
20
-7.16361031026455
30
0
41
1
10
226.665436157312
20
-7.36303199960318
30
0
41
1
10
226.280556423966
20
-7.62280092788112
30
0
41
1
10
225.964550384857
20
-7.93069618769263
30
0
41
1
10
225.72686289177
20
-8.27440606429087
30
0
41
1
10
225.582309462804
20
-8.63137229933639
30
0
41
1
10
225.534466941955
20
-8.98563475618442
30
0
41
1
10
225.581555277281
20
-9.3248984561624
30
0
41
1
10
225.725443853567
20
-9.63989185078768
30
0
41
1
10
225.962629862259
20
-9.91895752406032
30
0
41
1
10
226.277913150103
20
-10.1510353383691
30
0
41
1
10
226.66249545129
20
-10.3349926044643
30
0
41
1
10
227.105725277115
20
-10.4690541539515
30
0
41
1
10
227.584428901898
20
-10.5490459021518
30
0
41
1
10
228.077778629452
20
-10.5747708178051
30
0
41
1
10
228.571929702309
20
-10.5494894435721
30
0
41
1
10
229.05146954591
20
-10.4697144064511
30
0
41
1
10
229.495768041808
20
-10.3356738975584
30
0
41
1
10
229.880183802325
20
-10.1521579028065
30
0
41
1
10
230.19630372523
20
-9.91993448857878
30
0
41
1
10
230.433829738495
20
-9.64115813816301
30
0
41
1
10
230.578083950835
20
-9.32594811741433
30
0
41
1
10
230.625474680748
20
-8.98735385469672
30
0
41
1
10
230.5782524991
20
-8.6335687284224
30
0
41
1
10
230.434204646276
20
-8.27621785745444
30
0
41
1
10
230.196838505823
20
-7.93232153911555
30
0
41
1
10
229.880913293846
20
-7.62404746559889
30
0
41
1
10
229.496457952167
20
-7.36402297741398
30
0
41
1
10
229.052343235247
20
-7.16392432964994
30
0
41
1
10
228.573374542081
20
-7.04111512340467
30
0
41
1
10
228.24118962903
20
-7.01353994029631
30
0
41
1
10
228.08
20
-7.01354274882434
30
0
0
SPLINE
5
10E
100
AcDbEntity
8
1
62
256
6
ByLayer
370
18
48
1
60
0
100
AcDbSpline
70
4
71
3
72
10
73
6
40
0
40
0
40
0
40
0
40
0.750522158652935
40
0.750522158652935
40
1
40
1
40
1
40
1
41
1
10
220.997188444491
20
10.2513992026384
30
0
41
1
10
220.909916721225
20
9.470885877228
30
0
41
1
10
220.785542531748
20
8.7273414204459
30
0
41
1
10
220.576583580453
20
7.82292238369072
30
0
41
1
10
220.520870268986
20
7.60445944351019
30
0
41
1
10
220.461834059323
20
7.39400876584386
30
0
0
SPLINE
5
10F
100
AcDbEntity
8
1
62
256
6
ByLayer
370
18
48
1
60
0
100
AcDbSpline
70
4
71
3
72
24
73
20
40
0
40
0
40
0
40
0
40
0.125
40
0.125
40
0.25
40
0.25
40
0.375
40
0.375
40
0.4375
40
0.4375
40
0.5
40
0.5
40
0.75
40
0.75
40
0.8125
40
0.8125
40
0.875
40
0.875
40
1
40
1
40
1
40
1
41
1
10
233.6
20
9.66464667469319
30
0
41
1
10
233.6
20
9.33418285353349
30
0
41
1
10
233.6
20
9.00548744473292
30
0
41
1
10
233.6
20
8.36570548316027
30
0
41
1
10
233.6
20
8.05339660058806
30
0
41
1
10
233.6
20
7.44369044574717
30
0
41
1
10
233.6
20
7.14629238510804
30
0
41
1
10
233.6
20
6.71172078078681
30
0
41
1
10
233.6
20
6.56866431094798
30
0
41
1
10
233.6
20
6.28906980232532
30
0
41
1
10
233.6
20
6.15219094310507
30
0
41
1
10
233.6
20
5.48271003100731
30
0
41
1
10
233.6
20
5.00823923420401
30
0
41
1
10
233.6
20
4.48910546907487
30
0
41
1
10
233.6
20
4.38903151641904
30
0
41
1
10
233.6
20
4.19655195679454
30
0
41
1
10
233.6
20
4.10410228420389
30
0
41
1
10
233.6
20
3.84220250508437
30
0
41
1
10
233.6
20
3.68673015367531
30
0
41
1
10
233.6
20
3.54990918735709
30
0
0
SPLINE
5
110
100
AcDbEntity
8
1
62
256
6
ByLayer
370
13
48
1
60
0
100
AcDbSpline
70
4
71
3
72
14
73
10
40
0
40
0
40
0
40
0
40
0.25
40
0.25
40
0.5
40
0.5
40
0.75
40
0.75
40
1
40
1
40
1
40
1
41
1
10
248.535489027222
20
1.26079899572244
30
0
41
1
10
248.338265308034
20
1.0104640650363
30
0
41
1
10
248.149238000645
20
0.743194344123026
30
0
41
1
10
247.800126531878
20
0.187558070016621
30
0
41
1
10
247.640123502803
20
-0.100725559541729
30
0
41
1
10
247.359358088564
20
-0.682020235349597
30
0
41
1
10
247.238647111122
20
-0.97492369055891
30
0
41
1
10
247.04224366435
20
-1.54853941513323
30
0
41
1
10
246.966553437274
20
-1.82916032251651
30
0
41
1
10
246.913572414716
20
-2.09652355137513
30
0
0
SPLINE
5
111
100
AcDbEntity
8
1
62
256
6
ByLayer
370
18
48
1
60
0
100
AcDbSpline
70
4
71
3
72
12
73
8
40
0
40
0
40
0
40
0
40
0.412736376066352
40
0.412736376066352
40
0.706368130673118
40
0.706368130673118
40
1
40
1
40
1
40
1
41
1
10
233.599999999299
20
-12.4261265361855
30
0
41
1
10
233.586783462772
20
-12.4401613542344
30
0
41
1
10
233.573562997756
20
-12.4541944885976
30
0
41
1
10
233.550930481919
20
-12.4782083416848
30
0
41
1
10
233.541520350763
20
-12.4881898784717
30
0
41
1
10
233.522696173721
20
-12.5081513049769
30
0
41
1
10
233.513282126913
20
-12.5181311956693
30
0
41
1
10
233.503866137599
20
-12.5281102722674
30
0
0
SPLINE
5
112
100
AcDbEntity
8
1
62
256
6
ByLayer
370
18
48
1
60
0
100
AcDbSpline
70
4
71
3
72
8
73
4
40
0
40
0
40
0
40
0
40
1
40
1
40
1
40
1
41
1
10
220.839457185755
20
10.2235280815834
30
0
41
1
10
220.818199245408
20
10.3840474133351
30
0
41
1
10
220.797214515364
20
10.5436342748878
30
0
41
1
10
220.776567275987
20
10.7023027374237
30
0
0
SPLINE
5
113
100
AcDbEntity
8
1
62
256
6
ByLayer
370
13
48
1
60
0
100
AcDbSpline
70
4
71
3
72
8
73
4
40
0
40
0
40
0
40
0
40
1
40
1
40
1
40
1
41
1
10
248.453490998059
20
-3.17283446405187
30
0
41
1
10
247.940184803611
20
-2.81406415982627
30
0
41
1
10
247.426878609164
20
-2.45529385560067
30
0
41
1
10
246.913572414716
20
-2.09652355137507
30
0
0
SPLINE
5
114
100
AcDbEntity
8
1
62
256
6
ByLayer
370
18
48
1
60
0
100
AcDbSpline
70
4
71
3
72
8
73
4
40
0
40
0
40
0
40
0
40
1
40
1
40
1
40
1
41
1
10
29.6000000000001
20
-5.87086200232241
30
0
41
1
10
30.7004541195943
20
-6.21192260339646
30
0
41
1
10
31.8002007251006
20
-6.54507956121947
30
0
41
1
10
32.9000000003193
20
-6.86845652682746
30
0
0
SPLINE
5
115
100
AcDbEntity
8
1
62
256
6
ByLayer
370
13
48
1
60
0
100
AcDbSpline
70
4
71
3
72
18
73
14
40
0
40
0
40
0
40
0
40
0.124999999999994
40
0.124999999999994
40
0.187499999999991
40
0.187499999999991
40
0.249999999999988
40
0.249999999999988
40
0.499999999999992
40
0.499999999999992
40
0.749999999999996
40
0.749999999999996
40
1
40
1
40
1
40
1
41
1
10
246.328823081103
20
4.43081109120538
30
0
41
1
10
246.367461453192
20
4.2542705887148
30
0
41
1
10
246.416180018055
20
4.08254408437182
30
0
41
1
10
246.502876203768
20
3.83145335513697
30
0
41
1
10
246.534155344123
20
3.74861392826693
30
0
41
1
10
246.600442568819
20
3.58655868100334
30
0
41
1
10
246.635460265233
20
3.50726589858277
30
0
41
1
10
246.819236450751
20
3.11883693857547
30
0
41
1
10
246.993570721229
20
2.83336380801381
30
0
41
1
10
247.38596009803
20
2.30284268293468
30
0
41
1
10
247.598645331591
20
2.06493571675449
30
0
41
1
10
248.04955191195
20
1.63165339750608
30
0
41
1
10
248.288517859262
20
1.43599409534824
30
0
41
1
10
248.535489027222
20
1.2607989957225
30
0
0
SPLINE
5
116
100
AcDbEntity
8
1
62
256
6
ByLayer
370
18
48
1
60
0
100
AcDbSpline
70
4
71
3
72
76
73
72
40
0
40
0
40
0
40
0
40
0.0625000000000013
40
0.0625000000000013
40
0.125000000000002
40
0.125000000000002
40
0.187500000000004
40
0.187500000000004
40
0.218750000000005
40
0.218750000000005
40
0.250000000000006
40
0.250000000000006
40
0.281250000000007
40
0.281250000000007
40
0.312500000000008
40
0.312500000000008
40
0.328125000000008
40
0.328125000000008
40
0.343750000000009
40
0.343750000000009
40
0.375000000000009
40
0.375000000000009
40
0.382812500000009
40
0.382812500000009
40
0.390625000000009
40
0.390625000000009
40
0.406250000000009
40
0.406250000000009
40
0.421875000000009
40
0.421875000000009
40
0.429687500000009
40
0.429687500000009
40
0.437500000000008
40
0.437500000000008
40
0.468750000000009
40
0.468750000000009
40
0.500000000000009
40
0.500000000000009
40
0.515625000000009
40
0.515625000000009
40
0.531250000000009
40
0.531250000000009
40
0.546875000000008
40
0.546875000000008
40
0.562500000000008
40
0.562500000000008
40
0.593750000000008
40
0.593750000000008
40
0.609375000000008
40
0.609375000000008
40
0.625000000000008
40
0.625000000000008
40
0.656250000000008
40
0.656250000000008
40
0.671875000000008
40
0.671875000000008
40
0.687500000000008
40
0.687500000000008
40
0.718750000000007
40
0.718750000000007
40
0.750000000000007
40
0.750000000000007
40
0.812500000000006
40
0.812500000000006
40
0.843750000000005
40
0.843750000000005
40
0.875000000000004
40
0.875000000000004
40
0.937500000000002
40
0.937500000000002
40
1
40
1
40
1
40
1
41
1
10
23.5299842374615
20
11.7037915016198
30
0
41
1
10
22.7675431950201
20
11.9484522925079
30
0
41
1
10
22.0248074118751
20
12.2120182558018
30
0
41
1
10
20.5592621352247
20
12.7549502024783
30
0
41
1
10
19.8364071372241
20
13.034470828242
30
0
41
1
10
18.395582573377
20
13.5810957224578
30
0
41
1
10
17.67774373483
20
13.84836724088
30
0
41
1
10
16.5935880150408
20
14.2114874664582
30
0
41
1
10
16.2309770608023
20
14.3261353297189
30
0
41
1
10
15.5015081845334
20
14.5361591264267
30
0
41
1
10
15.1359677590528
20
14.6311385030178
30
0
41
1
10
14.4039975130563
20
14.7928895855823
30
0
41
1
10
14.0374013920038
20
14.8597355648777
30
0
41
1
10
13.3034813385634
20
14.955517315838
30
0
41
1
10
12.9361356991122
20
14.9845184377732
30
0
41
1
10
12.3858122628653
20
14.9897938696535
30
0
41
1
10
12.2024979286166
20
14.9851509093514
30
0
41
1
10
11.8365202317845
20
14.9608686593069
30
0
41
1
10
11.6541941372066
20
14.9411694257847
30
0
41
1
10
11.1182474915652
20
14.8575650565519
30
0
41
1
10
10.7727153508219
20
14.7692394608956
30
0
41
1
10
10.3625656918915
20
14.608494307217
30
0
41
1
10
10.2815113100015
20
14.5737336342986
30
0
41
1
10
10.1236491791317
20
14.4997235969515
30
0
41
1
10
10.0466276015915
20
14.460401055022
30
0
41
1
10
9.82155188677028
20
14.3353965850746
30
0
41
1
10
9.67947217028863
20
14.2426923921447
30
0
41
1
10
9.41292788505616
20
14.0378229160262
30
0
41
1
10
9.28845313066829
20
13.9256683622835
30
0
41
1
10
9.11663587965022
20
13.7418651066808
30
0
41
1
10
9.06173650207325
20
13.6778019332506
30
0
41
1
10
8.95896904509081
20
13.5465658183736
30
0
41
1
10
8.91086634723612
20
13.4791711110536
30
0
41
1
10
8.68670319775489
20
13.1335665085808
30
0
41
1
10
8.55915445230369
20
12.8298843600879
30
0
41
1
10
8.41427914946537
20
12.1680415132276
30
0
41
1
10
8.40053386762104
20
11.8265960484937
30
0
41
1
10
8.45926137742309
20
11.2994944190743
30
0
41
1
10
8.49248643563773
20
11.1207603150542
30
0
41
1
10
8.5825296866613
20
10.7669965841818
30
0
41
1
10
8.63939819006237
20
10.5908449497901
30
0
41
1
10
8.77478082457949
20
10.2393750790326
30
0
41
1
10
8.85352188728483
20
10.063632604739
30
0
41
1
10
9.03035406640197
20
9.71413878809483
30
0
41
1
10
9.12736692096424
20
9.5423812418054
30
0
41
1
10
9.4406417133594
20
9.03411714005205
30
0
41
1
10
9.67899527465762
20
8.70455398495227
30
0
41
1
10
10.0710555254037
20
8.218196892029
30
0
41
1
10
10.2080230935482
20
8.05692755302624
30
0
41
1
10
10.4879125678203
20
7.74111732163067
30
0
41
1
10
10.6312197052709
20
7.58604851401407
30
0
41
1
10
11.0693309560146
20
7.12755953437062
30
0
41
1
10
11.372242929268
20
6.83077715088709
30
0
41
1
10
11.8373048847393
20
6.39369843305087
30
0
41
1
10
11.9941312465274
20
6.24937726667719
30
0
41
1
10
12.3106982674151
20
5.9628321408872
30
0
41
1
10
12.4708193154623
20
5.82027775956996
30
0
41
1
10
12.951373337309
20
5.39785541875739
30
0
41
1
10
13.2718388673011
20
5.1232049782563
30
0
41
1
10
13.9109311415793
20
4.58280793558308
30
0
41
1
10
14.2295761011991
20
4.31708999813503
30
0
41
1
10
15.1813261110777
20
3.52852286439796
30
0
41
1
10
15.8101022660823
20
3.01394877929761
30
0
41
1
10
16.7436116288368
20
2.24843904003521
30
0
41
1
10
17.0534937027609
20
1.99419811443516
30
0
41
1
10
17.6681415322658
20
1.48892975523631
30
0
41
1
10
17.973117478342
20
1.23773792397498
30
0
41
1
10
18.881984586615
20
0.487192637415745
30
0
41
1
10
19.4798794120491
20
-0.0092152109036476
30
0
41
1
10
20.6636969684198
20
-0.997934805201936
30
0
41
1
10
21.2496389569677
20
-1.49019685110548
30
0
41
1
10
21.8305235608732
20
-1.98113991364727
30
0
0
SPLINE
5
117
100
AcDbEntity
8
1
62
256
6
ByLayer
370
18
48
1
60
0
100
AcDbSpline
70
4
71
3
72
16
73
12
40
0
40
0
40
0
40
0
40
0.276350200293462
40
0.276350200293462
40
0.414525300440186
40
0.414525300440186
40
0.55270040058691
40
0.55270040058691
40
0.829050600880372
40
0.829050600880372
40
1
40
1
40
1
40
1
41
1
10
234.319022247496
20
-12.7330871090944
30
0
41
1
10
235.284808921378
20
-12.8220948832997
30
0
41
1
10
236.249322316071
20
-12.8874610064354
30
0
41
1
10
237.693945670608
20
-12.9504981457079
30
0
41
1
10
238.175128971571
20
-12.9656588758583
30
0
41
1
10
239.13682262162
20
-12.9841829456123
30
0
41
1
10
239.617469466128
20
-12.9875189124457
30
0
41
1
10
241.060326366341
20
-12.9798560006949
30
0
41
1
10
242.022702009283
20
-12.9512870000143
30
0
41
1
10
243.580944508833
20
-12.8668555299642
30
0
41
1
10
244.176449606218
20
-12.825428399768
30
0
41
1
10
244.772624671217
20
-12.7750560553102
30
0
0
SPLINE
5
118
100
AcDbEntity
8
1
62
256
6
ByLayer
370
18
48
1
60
0
100
AcDbSpline
70
4
71
3
72
8
73
4
40
0
40
0
40
0
40
0
40
1
40
1
40
1
40
1
41
1
10
245.703604540161
20
-12.6892183991132
30
0
41
1
10
245.76115568334
20
-12.6834715223283
30
0
41
1
10
245.818716412749
20
-12.6776425671745
30
0
41
1
10
245.876287351281
20
-12.6717317251407
30
0
0
SPLINE
5
119
100
AcDbEntity
8
1
62
256
6
ByLayer
370
18
48
1
60
0
100
AcDbSpline
70
4
71
3
72
12
73
8
40
0
40
0
40
0
40
0
40
0.500000000000007
40
0.500000000000007
40
0.750000000000003
40
0.750000000000003
40
1
40
1
40
1
40
1
41
1
10
222.449161475254
20
-11.2409214151688
30
0
41
1
10
224.290104653237
20
-11.5588301015104
30
0
41
1
10
226.130156839132
20
-11.8273058735553
30
0
41
1
10
228.894217388388
20
-12.1511781023994
30
0
41
1
10
229.815751837937
20
-12.2459225938406
30
0
41
1
10
231.657977681078
20
-12.4086911296375
30
0
41
1
10
232.578937715571
20
-12.4767625734892
30
0
41
1
10
233.5
20
-12.5315173175869
30
0
0
SPLINE
5
11A
100
AcDbEntity
8
1
62
256
6
ByLayer
370
18
48
1
60
0
100
AcDbSpline
70
4
71
3
72
23
73
19
40
0
40
0
40
0
40
0
40
0.0232056666565918
40
0.0750523953805583
40
0.126899124104523
40
0.230592581552456
40
0.282439310276422
40
0.334286039000388
40
0.437979496448321
40
0.489826225172287
40
0.541672953896253
40
0.645366411344185
40
0.697213140068151
40
0.749059868792118
40
0.85275332624005
40
0.904600054964016
40
0.956446783687982
40
1
40
1
40
1
40
1
41
1
10
79.0983650800096
20
-0.0024310597861188
30
0
41
1
10
79.5415480431358
20
-0.150379890260609
30
0
41
1
10
80.9748256822127
20
-0.628784764216988
30
0
41
1
10
83.3977216521915
20
-1.43554736083323
30
0
41
1
10
87.3588690901877
20
-2.74858929871232
30
0
41
1
10
91.3184431331898
20
-4.02827036384193
30
0
41
1
10
95.2773879062821
20
-5.24422047048699
30
0
41
1
10
99.2391601513489
20
-6.41526063751658
30
0
41
1
10
103.200452631508
20
-7.50587609874856
30
0
41
1
10
107.160085068066
20
-8.49442975305402
30
0
41
1
10
111.121242614491
20
-9.40684917670927
30
0
41
1
10
115.080863618304
20
-10.2008605621575
30
0
41
1
10
119.039872206373
20
-10.8562890554523
30
0
41
1
10
123.001711608696
20
-11.4095691055946
30
0
41
1
10
126.96306608029
20
-11.8179437519491
30
0
41
1
10
130.922721739735
20
-12.0714494889674
30
0
41
1
10
133.735173901531
20
-12.1694051263098
30
0
41
1
10
135.556895291536
20
-12.1891889603971
30
0
41
1
10
136.388501888991
20
-12.1890723230747
30
0
0
SPLINE
5
11B
100
AcDbEntity
8
1
62
256
6
ByLayer
370
18
48
1
60
0
100
AcDbSpline
70
4
71
3
72
18
73
14
40
0
40
0
40
0
40
0
40
0.0417057859238388
40
0.0417057859238388
40
0.361137190615892
40
0.361137190615892
40
0.520852892961919
40
0.520852892961919
40
0.680568595307946
40
0.680568595307946
40
0.840284297653973
40
0.840284297653973
40
1
40
1
40
1
40
1
41
1
10
223.158007708977
20
6.65769694737577
30
0
41
1
10
223.391970115382
20
6.58949857778583
30
0
41
1
10
223.625926525976
20
6.52087147396469
30
0
41
1
10
225.651777634498
20
5.92300710090728
30
0
41
1
10
227.443547233281
20
5.36960932722852
30
0
41
1
10
230.133748242381
20
4.50946005861431
30
0
41
1
10
231.031072826128
20
4.21775940599125
30
0
41
1
10
232.824218008946
20
3.6265088702333
30
0
41
1
10
233.720370722865
20
3.32685208669301
30
0
41
1
10
235.512378739956
20
2.72084608163826
30
0
41
1
10
236.408232572849
20
2.41448149009483
30
0
41
1
10
238.200257981664
20
1.79671618864842
30
0
41
1
10
239.096733190794
20
1.48517427650648
30
0
41
1
10
239.992708964588
20
1.1722532975825
30
0
0
SPLINE
5
11C
100
AcDbEntity
8
1
62
256
6
ByLayer
370
18
48
1
60
0
100
AcDbSpline
70
4
71
3
72
8
73
4
40
0
40
0
40
0
40
0
40
1
40
1
40
1
40
1
41
1
10
233.6
20
12.6052274882531
30
0
41
1
10
233.6
20
11.6250328423227
30
0
41
1
10
233.6
20
10.6448391981841
30
0
41
1
10
233.6
20
9.66464667469319
30
0
0
SPLINE
5
11D
100
AcDbEntity
8
1
62
256
6
ByLayer
370
18
48
1
60
0
100
AcDbSpline
70
4
71
3
72
12
73
8
40
0
40
0
40
0
40
0
40
0.5
40
0.5
40
0.75
40
0.75
40
1
40
1
40
1
40
1
41
1
10
23.6206241663829
20
-4.23455127935276
30
0
41
1
10
23.8398857487722
20
-4.33587978664386
30
0
41
1
10
24.0760134663982
20
-4.40041130016618
30
0
41
1
10
24.4548872255876
20
-4.45600100997089
30
0
41
1
10
24.5859253289801
20
-4.46736435122131
30
0
41
1
10
24.8490595938266
20
-4.47614187513634
30
0
41
1
10
24.9820025288757
20
-4.47373353244987
30
0
41
1
10
25.1163401741563
20
-4.46481705837957
30
0
0
SPLINE
5
11E
100
AcDbEntity
8
1
62
256
6
ByLayer
370
18
48
1
60
0
100
AcDbSpline
70
4
71
3
72
8
73
4
40
0
40
0
40
0
40
0
40
1
40
1
40
1
40
1
41
1
10
222.449161475254
20
11.2409214151624
30
0
41
1
10
222.554510197168
20
11.2287352554033
30
0
41
1
10
222.657480378013
20
11.2116247545322
30
0
41
1
10
222.757984317574
20
11.1892497224685
30
0
0
SPLINE
5
11F
100
AcDbEntity
8
1
62
256
6
ByLayer
370
18
48
1
60
0
100
AcDbSpline
70
4
71
2
72
9
73
6
40
0
40
0
40
0
40
0.244278091041071
40
0.49618539402738
40
0.74809269701369
40
1
40
1
40
1
41
1
10
240.87599909148
20
-2.9695082400093
30
0
41
1
10
240.974310716413
20
-4.08119738709883
30
0
41
1
10
241.319005536024
20
-6.20324443748672
30
0
41
1
10
241.808580202512
20
-8.14098809257129
30
0
41
1
10
242.420874658777
20
-9.79531346745111
30
0
41
1
10
242.777945671133
20
-10.452073237453
30
0
0
SPLINE
5
120
100
AcDbEntity
8
1
62
256
6
ByLayer
370
18
48
1
60
0
100
AcDbSpline
70
4
71
3
72
8
73
4
40
0
40
0
40
0
40
0
40
1
40
1
40
1
40
1
41
1
10
223.486781199942
20
10.9235406934732
30
0
41
1
10
223.26787755784
20
11.0451990171976
30
0
41
1
10
223.022484240064
20
11.1303645258032
30
0
41
1
10
222.757984317575
20
11.1892497224666
30
0
0
SPLINE
5
121
100
AcDbEntity
8
1
62
256
6
ByLayer
370
18
48
1
60
0
100
AcDbSpline
70
4
71
3
72
8
73
4
40
0
40
0
40
0
40
0
40
1
40
1
40
1
40
1
41
1
10
218.705789730372
20
-7.7332383133033
30
0
41
1
10
218.895281629993
20
-7.77041135437079
30
0
41
1
10
219.084763536935
20
-7.80745898266144
30
0
41
1
10
219.274234313201
20
-7.84437883519408
30
0
0
SPLINE
5
122
100
AcDbEntity
8
1
62
256
6
ByLayer
370
18
48
1
60
0
100
AcDbSpline
70
4
71
1
72
4
73
2
40
0
40
0
40
1
40
1
41
1
10
240.875714081255
20
-2.90001680363059
30
0
41
1
10
240.875999795248
20
-2.96951619807092
30
0
0
SPLINE
5
123
100
AcDbEntity
8
1
62
256
6
ByLayer
370
13
48
1
60
0
100
AcDbSpline
70
4
71
3
72
8
73
4
40
0
40
0
40
0
40
0
40
1
40
1
40
1
40
1
41
1
10
246.328161190403
20
4.43382349708943
30
0
41
1
10
246.291256456161
20
4.4248288281799
30
0
41
1
10
246.254352786994
20
4.41577522845105
30
0
41
1
10
246.217465359701
20
4.40666563705241
30
0
0
SPLINE
5
124
100
AcDbEntity
8
1
62
256
6
ByLayer
370
18
48
1
60
0
100
AcDbSpline
70
4
71
1
72
4
73
2
40
0
40
0
40
1
40
1
41
1
10
242.485460417316
20
1.90381916542006
30
0
41
1
10
242.479133013439
20
1.91061291383443
30
0
0
SPLINE
5
125
100
AcDbEntity
8
1
62
256
6
ByLayer
370
13
48
1
60
0
100
AcDbSpline
70
4
71
3
72
8
73
4
40
0
40
0
40
0
40
0
40
1
40
1
40
1
40
1
41
1
10
246.315346368798
20
4.49191963452381
30
0
41
1
10
246.319617976001
20
4.47255425537935
30
0
41
1
10
246.323889583204
20
4.45318887623489
30
0
41
1
10
246.328161190407
20
4.43382349709043
30
0
0
SPLINE
5
126
100
AcDbEntity
8
1
62
256
6
ByLayer
370
18
48
1
60
0
100
AcDbSpline
70
4
71
3
72
14
73
10
40
0
40
0
40
0
40
0
40
0.25
40
0.25
40
0.5
40
0.5
40
0.75
40
0.75
40
1
40
1
40
1
40
1
41
1
10
24.6055701000649
20
-3.48716927193539
30
0
41
1
10
24.7476831762684
20
-3.44737435954153
30
0
41
1
10
24.913050556713
20
-3.32743849889232
30
0
41
1
10
25.2811600082925
20
-2.93390942994264
30
0
41
1
10
25.48388309864
20
-2.66033651313847
30
0
41
1
10
25.9154687817857
20
-1.97468446766322
30
0
41
1
10
26.1443091207785
20
-1.56264069319352
30
0
41
1
10
26.6154450043164
20
-0.622876506248474
30
0
41
1
10
26.8577162557335
20
-0.0952045507310686
30
0
41
1
10
27.1000000000007
20
0.475684525066953
30
0
0
SPLINE
5
127
100
AcDbEntity
8
1
62
256
6
ByLayer
370
13
48
1
60
0
100
AcDbSpline
70
4
71
3
72
8
73
4
40
0
40
0
40
0
40
0
40
1
40
1
40
1
40
1
41
1
10
248.535489027222
20
1.26079899572244
30
0
41
1
10
248.543072539489
20
1.25541989257278
30
0
41
1
10
248.550676357691
20
1.25006624395331
30
0
41
1
10
248.55829997516
20
1.24473779182134
30
0
0
SPLINE
5
128
100
AcDbEntity
8
1
62
256
6
ByLayer
370
18
48
1
60
0
100
AcDbSpline
70
4
71
3
72
8
73
4
40
0
40
0
40
0
40
0
40
1
40
1
40
1
40
1
41
1
10
27
20
11.1762912704125
30
0
41
1
10
27.0141380066628
20
11.1770557635484
30
0
41
1
10
27.0282730898667
20
11.1778101717023
30
0
41
1
10
27.0424052481289
20
11.1785544809666
30
0
0
SPLINE
5
129
100
AcDbEntity
8
1
62
256
6
ByLayer
370
18
48
1
60
0
100
AcDbSpline
70
4
71
3
72
8
73
4
40
0
40
0
40
0
40
0
40
1
40
1
40
1
40
1
41
1
10
234.319022247496
20
-12.9025005098905
30
0
41
1
10
234.079672660479
20
-12.8047356393113
30
0
41
1
10
233.840004953464
20
-12.7056263656462
30
0
41
1
10
233.6
20
-12.6052274882532
30
0
0
SPLINE
5
12A
100
AcDbEntity
8
1
62
256
6
ByLayer
370
18
48
1
60
0
100
AcDbSpline
70
4
71
3
72
8
73
4
40
0
40
0
40
0
40
0
40
1
40
1
40
1
40
1
41
1
10
234.651040764009
20
3.02972805128096
30
0
41
1
10
234.299092219615
20
3.19664951352638
30
0
41
1
10
233.948728480241
20
3.36997526290634
30
0
41
1
10
233.6
20
3.54990918735689
30
0
0
SPLINE
5
12B
100
AcDbEntity
8
1
62
256
6
ByLayer
370
18
48
1
60
0
100
AcDbSpline
70
4
71
3
72
21
73
17
40
0
40
0
40
0
40
0
40
0.25
40
0.25
40
0.375
40
0.375
40
0.5
40
0.5
40
0.625
40
0.625
40
0.75
40
0.75
40
0.875
40
0.875
40
0.9375
40
1
40
1
40
1
40
1
41
1
10
246.228657712577
20
-5.55287447509718
30
0
41
1
10
246.029498486846
20
-5.02088840638334
30
0
41
1
10
245.836439001568
20
-4.48671335444479
30
0
41
1
10
245.552521034725
20
-3.68341555955681
30
0
41
1
10
245.458977972404
20
-3.41525621862098
30
0
41
1
10
245.275621786183
20
-2.87759899247956
30
0
41
1
10
245.186411547541
20
-2.60786722773233
30
0
41
1
10
245.010978827312
20
-2.06756718661703
30
0
41
1
10
244.924727961349
20
-1.79697412987647
30
0
41
1
10
244.757835676847
20
-1.25409221421594
30
0
41
1
10
244.67654321874
20
-0.98200017224346
30
0
41
1
10
244.518879328305
20
-0.436328404109503
30
0
41
1
10
244.443465804871
20
-0.162441262769022
30
0
41
1
10
244.333741562563
20
0.249360759319671
30
0
41
1
10
244.261739593092
20
0.52414415121288
30
0
41
1
10
244.194162993384
20
0.799886681726804
30
0
41
1
10
244.160988230863
20
0.937890922843991
30
0
0
SPLINE
5
12C
100
AcDbEntity
8
1
62
256
6
ByLayer
370
18
48
1
60
0
100
AcDbSpline
70
4
71
3
72
8
73
4
40
0
40
0
40
0
40
0
40
1
40
1
40
1
40
1
41
1
10
234.651040764009
20
-11.9622107238819
30
0
41
1
10
234.668078594369
20
-11.9558924511351
30
0
41
1
10
234.685847292159
20
-11.9497980825075
30
0
41
1
10
234.704358970512
20
-11.9439406421206
30
0
0
SPLINE
5
12D
100
AcDbEntity
8
1
62
256
6
ByLayer
370
13
48
1
60
0
100
AcDbSpline
70
4
71
3
72
8
73
4
40
0
40
0
40
0
40
0
40
1
40
1
40
1
40
1
41
1
10
248.603540487124
20
1.2831609308877
30
0
41
1
10
248.974921277011
20
1.2569759772469
30
0
41
1
10
249.346302066899
20
1.23079102360609
30
0
41
1
10
249.717682856786
20
1.20460606996525
30
0
0
SPLINE
5
12E
100
AcDbEntity
8
1
62
256
6
ByLayer
370
18
48
1
60
0
100
AcDbSpline
70
4
71
3
72
22
73
18
40
0
40
0
40
0
40
0
40
0.185511608800496
40
0.185511608800496
40
0.278267413200743
40
0.278267413200743
40
0.371023217600991
40
0.371023217600991
40
0.463779022001239
40
0.463779022001239
40
0.556534826401487
40
0.556534826401487
40
0.742046435201987
40
0.742046435201987
40
0.927558044002483
40
0.927558044002483
40
1
40
1
40
1
40
1
41
1
10
215.41437335228
20
8.13214235721404
30
0
41
1
10
213.511004348099
20
8.60748717009025
30
0
41
1
10
211.608565496453
20
9.04727800968212
30
0
41
1
10
208.753366605483
20
9.64888268427103
30
0
41
1
10
207.800934719301
20
9.83988800916362
30
0
41
1
10
205.897380690751
20
10.2017381166443
30
0
41
1
10
204.946242591349
20
10.3725769325204
30
0
41
1
10
203.045228874816
20
10.6934376275545
30
0
41
1
10
202.095571094848
20
10.8436457457186
30
0
41
1
10
200.196603347936
20
11.1210030157732
30
0
41
1
10
199.247331334225
20
11.2483354096215
30
0
41
1
10
196.398862788548
20
11.5952484235253
30
0
41
1
10
194.498918435351
20
11.7796806209589
30
0
41
1
10
190.691820580982
20
12.0516389974534
30
0
41
1
10
188.790859493731
20
12.1374689696797
30
0
41
1
10
186.148294349714
20
12.1888460751935
30
0
41
1
10
185.406231998815
20
12.1959145474153
30
0
41
1
10
184.664147903662
20
12.1955978417392
30
0
0
SPLINE
5
12F
100
AcDbEntity
8
1
62
256
6
ByLayer
370
18
48
1
60
0
100
AcDbSpline
70
4
71
3
72
36
73
32
40
0
40
0
40
0
40
0
40
0.0336891180736755
40
0.0336891180736755
40
0.12153556188516
40
0.12153556188516
40
0.165458783790902
40
0.165458783790902
40
0.209382005696645
40
0.209382005696645
40
0.297228449508129
40
0.297228449508129
40
0.385074893319614
40
0.385074893319614
40
0.428998115225356
40
0.428998115225356
40
0.472921337131097
40
0.472921337131097
40
0.560767780942581
40
0.560767780942581
40
0.648614224754064
40
0.648614224754064
40
0.692537446659806
40
0.692537446659806
40
0.736460668565548
40
0.736460668565548
40
0.824307112377032
40
0.824307112377032
40
0.912153556188516
40
0.912153556188516
40
1
40
1
40
1
40
1
41
1
10
97.8331421072688
20
-8.85522803254247
30
0
41
1
10
97.1042006731597
20
-9.02309391333276
30
0
41
1
10
96.3754532651306
20
-9.18546575797365
30
0
41
1
10
93.7467776927658
20
-9.75025261697269
30
0
41
1
10
91.8472312432939
20
-10.1186789014636
30
0
41
1
10
88.9954022974769
20
-10.6093635182655
30
0
41
1
10
88.0443989586155
20
-10.7625534322399
30
0
41
1
10
86.1412912421042
20
-11.0475622685112
30
0
41
1
10
85.1888679090744
20
-11.1794552264874
30
0
41
1
10
82.3356054711578
20
-11.54031802869
30
0
41
1
10
80.4370911782851
20
-11.733897222386
30
0
41
1
10
76.6399920227646
20
-12.0229668621716
30
0
41
1
10
74.7413457537971
20
-12.118784140796
30
0
41
1
10
71.8892812019669
20
-12.1879631813144
30
0
41
1
10
70.9375197009412
20
-12.1983563932142
30
0
41
1
10
69.0341739552406
20
-12.1940554213621
30
0
41
1
10
68.0830843139447
20
-12.1795368014881
30
0
41
1
10
65.2308040012069
20
-12.1000339023338
30
0
41
1
10
63.3305472793703
20
-11.999253875927
30
0
41
1
10
59.5301901708636
20
-11.7012564775625
30
0
41
1
10
57.6305409166663
20
-11.5018695282198
30
0
41
1
10
54.7768176626339
20
-11.1315368347578
30
0
41
1
10
53.8254902664705
20
-10.9964272618162
30
0
41
1
10
51.9239302923324
20
-10.7045018462422
30
0
41
1
10
50.9733864562065
20
-10.5476611164224
30
0
41
1
10
48.1214865229738
20
-10.0461122837165
30
0
41
1
10
46.2199694311467
20
-9.66914733201506
30
0
41
1
10
42.4117324844793
20
-8.84077714441113
30
0
41
1
10
40.5089521487834
20
-8.39087585850149
30
0
41
1
10
36.7045479755008
20
-7.42704488338558
30
0
41
1
10
34.8030580624138
20
-6.91201251708563
30
0
41
1
10
32.9000000002585
20
-6.36672423569047
30
0
0
SPLINE
5
130
100
AcDbEntity
8
1
62
256
6
ByLayer
370
18
48
1
60
0
100
AcDbSpline
70
4
71
3
72
8
73
4
40
0
40
0
40
0
40
0
40
1
40
1
40
1
40
1
41
1
10
249.933732080391
20
0.283393081445155
30
0
41
1
10
249.945701146146
20
0.242479682346101
30
0
41
1
10
249.95772084359
20
0.201466246701841
30
0
41
1
10
249.969790840039
20
0.160354432700558
30
0
0
SPLINE
5
131
100
AcDbEntity
8
1
62
256
6
ByLayer
370
18
48
1
60
0
100
AcDbSpline
70
4
71
3
72
8
73
4
40
0
40
0
40
0
40
0
40
1
40
1
40
1
40
1
41
1
10
239.992708964609
20
1.17225329757136
30
0
41
1
10
239.939151521221
20
1.07476225169489
30
0
41
1
10
239.885148704867
20
0.978458652148703
30
0
41
1
10
239.830689964503
20
0.883370629956403
30
0
0
SPLINE
5
132
100
AcDbEntity
8
1
62
256
6
ByLayer
370
18
48
1
60
0
100
AcDbSpline
70
4
71
3
72
56
73
52
40
0
40
0
40
0
40
0
40
0.0705990206527038
40
0.0705990206527038
40
0.105898530979056
40
0.105898530979056
40
0.141198041305408
40
0.141198041305408
40
0.17649755163176
40
0.17649755163176
40
0.211797061958111
40
0.211797061958111
40
0.247096572284463
40
0.247096572284463
40
0.282396082610815
40
0.282396082610815
40
0.352995103263519
40
0.352995103263519
40
0.388294613589871
40
0.388294613589871
40
0.423594123916223
40
0.423594123916223
40
0.494193144568927
40
0.494193144568927
40
0.529492654895279
40
0.529492654895279
40
0.564792165221631
40
0.564792165221631
40
0.600091675547983
40
0.600091675547983
40
0.635391185874335
40
0.635391185874335
40
0.670690696200686
40
0.670690696200686
40
0.705990206527038
40
0.705990206527038
40
0.74128971685339
40
0.74128971685339
40
0.776589227179742
40
0.776589227179742
40
0.811888737506094
40
0.811888737506094
40
0.847188247832446
40
0.847188247832446
40
0.917787268485151
40
0.917787268485151
40
0.953086778811503
40
0.953086778811503
40
0.988386289137856
40
0.988386289137856
40
1
40
1
40
1
40
1
41
1
10
217.772902039791
20
-7.80200819030748
30
0
41
1
10
215.856468254973
20
-7.27514914758228
30
0
41
1
10
213.939574299258
20
-6.71547349923779
30
0
41
1
10
211.06568409199
20
-5.84113595086987
30
0
41
1
10
210.107865223181
20
-5.54354672000886
30
0
41
1
10
208.192490752492
20
-4.93608393396667
30
0
41
1
10
207.234961526081
20
-4.62612438709317
30
0
41
1
10
205.319180645208
20
-3.99638927268904
30
0
41
1
10
204.36117819036
20
-3.67665838623208
30
0
41
1
10
202.446009510953
20
-3.03167720511232
30
0
41
1
10
201.488419799243
20
-2.70660308817077
30
0
41
1
10
199.572851601834
20
-2.05241214023693
30
0
41
1
10
198.614978427745
20
-1.7229975346836
30
0
41
1
10
196.698690110507
20
-1.060556184418
30
0
41
1
10
195.739944249618
20
-0.727519963721818
30
0
41
1
10
192.865657368231
20
0.272610874825972
30
0
41
1
10
190.951184942816
20
0.941046680432294
30
0
41
1
10
188.076844567141
20
1.93125562034868
30
0
41
1
10
187.118259111362
20
2.26000645778458
30
0
41
1
10
185.201673742297
20
2.91359309458448
30
0
41
1
10
184.24405244397
20
3.23808848301064
30
0
41
1
10
181.371956989427
20
4.2011268597106
30
0
41
1
10
179.458375788722
20
4.82947152651337
30
0
41
1
10
176.58308583952
20
5.73381568496956
30
0
41
1
10
175.624555921091
20
6.02920065836821
30
0
41
1
10
173.708624673989
20
6.60710215302962
30
0
41
1
10
172.750954173512
20
6.88956893413871
30
0
41
1
10
170.835566545654
20
7.43995315980487
30
0
41
1
10
169.87785992153
20
7.70789366450424
30
0
41
1
10
167.961689268461
20
8.22752943852942
30
0
41
1
10
167.002977582187
20
8.47909663282098
30
0
41
1
10
165.086454981356
20
8.96297487922629
30
0
41
1
10
164.128432446518
20
9.19563757818179
30
0
41
1
10
162.212982449198
20
9.64258670148874
30
0
41
1
10
161.25550013736
20
9.85674092450822
30
0
41
1
10
159.34020050266
20
10.2647026604456
30
0
41
1
10
158.38204232699
20
10.4585736959559
30
0
41
1
10
156.466359658246
20
10.824049762848
30
0
41
1
10
155.508948636081
20
10.9955617422599
30
0
41
1
10
153.593705154424
20
11.3144917787009
30
0
41
1
10
152.635926289417
20
11.4620280388884
30
0
41
1
10
150.720096352477
20
11.7334216278763
30
0
41
1
10
149.762031758792
20
11.8572403581588
30
0
41
1
10
146.886437938992
20
12.1918702351183
30
0
41
1
10
144.971724656304
20
12.3654198388469
30
0
41
1
10
142.098329754245
20
12.5476777962965
30
0
41
1
10
141.140193750617
20
12.5954594364918
30
0
41
1
10
139.223458671554
20
12.6651571080146
30
0
41
1
10
138.264901848166
20
12.68703371581
30
0
41
1
10
136.992072673783
20
12.6985694170238
30
0
41
1
10
136.677030810536
20
12.6999915653763
30
0
41
1
10
136.36202664387
20
12.6999828161023
30
0
0
SPLINE
5
133
100
AcDbEntity
8
1
62
256
6
ByLayer
370
13
48
1
60
0
100
AcDbSpline
70
4
71
3
72
8
73
4
40
0
40
0
40
0
40
0
40
1
40
1
40
1
40
1
41
1
10
246.355312767424
20
4.43670311292271
30
0
41
1
10
246.355089915859
20
4.43772101533472
30
0
41
1
10
246.354866261867
20
4.4387387551532
30
0
41
1
10
246.354641805539
20
4.43975633043263
30
0
0
SPLINE
5
134
100
AcDbEntity
8
1
62
256
6
ByLayer
370
18
48
1
60
0
100
AcDbSpline
70
4
71
3
72
16
73
12
40
0
40
0
40
0
40
0
40
0.249999999999992
40
0.249999999999992
40
0.499999999999984
40
0.499999999999984
40
0.624999999999994
40
0.624999999999994
40
0.750000000000005
40
0.750000000000005
40
1
40
1
40
1
40
1
41
1
10
246.217465359701
20
4.40666563705238
30
0
41
1
10
245.991858462261
20
4.20805575319767
30
0
41
1
10
245.771963450677
20
4.01000897563245
30
0
41
1
10
245.350182722552
20
3.61031650013098
30
0
41
1
10
245.147781941485
20
3.40913661749173
30
0
41
1
10
244.857527470944
20
3.10620135423554
30
0
41
1
10
244.762673931202
20
3.00458017888866
30
0
41
1
10
244.579769070665
20
2.80305925944484
30
0
41
1
10
244.491924107696
20
2.70340898897871
30
0
41
1
10
244.23907213994
20
2.40816954198621
30
0
41
1
10
244.084592613968
20
2.21638184715883
30
0
41
1
10
243.945064038119
20
2.03016334529815
30
0
0
SPLINE
5
135
100
AcDbEntity
8
1
62
256
6
ByLayer
370
13
48
1
60
0
100
AcDbSpline
70
4
71
3
72
8
73
4
40
0
40
0
40
0
40
0
40
1
40
1
40
1
40
1
41
1
10
246.355312767434
20
4.43670311286709
30
0
41
1
10
247.160402884199
20
4.42608736698387
30
0
41
1
10
247.965493000965
20
4.41547162110064
30
0
41
1
10
248.77058311773
20
4.40485587521738
30
0
0
SPLINE
5
136
100
AcDbEntity
8
1
62
256
6
ByLayer
370
18
48
1
60
0
100
AcDbSpline
70
4
71
3
72
32
73
28
40
0
40
0
40
0
40
0
40
0.125572926779374
40
0.125572926779374
40
0.188359390169061
40
0.188359390169061
40
0.251145853558748
40
0.251145853558748
40
0.376718780338123
40
0.376718780338123
40
0.43950524372781
40
0.43950524372781
40
0.502291707117497
40
0.502291707117497
40
0.627864633896873
40
0.627864633896873
40
0.69065109728656
40
0.69065109728656
40
0.753437560676248
40
0.753437560676248
40
0.816224024065935
40
0.816224024065935
40
0.879010487455623
40
0.879010487455623
40
0.94179695084531
40
0.94179695084531
40
1
40
1
40
1
40
1
41
1
10
30.0300434391271
20
10.5838959420488
30
0
41
1
10
32.015317906674
20
10.2583343035874
30
0
41
1
10
33.9994967180022
20
9.88389671510546
30
0
41
1
10
36.9787840788975
20
9.25625489140435
30
0
41
1
10
37.9727563651063
20
9.03597989394569
30
0
41
1
10
39.959387458628
20
8.57866267527132
30
0
41
1
10
40.9522859386414
20
8.34172816904677
30
0
41
1
10
43.9302248263234
20
7.6105067554328
30
0
41
1
10
45.9143322755401
20
7.09468148421533
30
0
41
1
10
48.8925284537747
20
6.27827596567835
30
0
41
1
10
49.8856345106167
20
5.99915980113829
30
0
41
1
10
51.8732224663312
20
5.42857687190622
30
0
41
1
10
52.8681077761618
20
5.13694360922858
30
0
41
1
10
55.8522073664061
20
4.24724485775425
30
0
41
1
10
57.8404615398292
20
3.6341115205278
30
0
41
1
10
60.8249327992575
20
2.69217259730164
30
0
41
1
10
61.8199606256138
20
2.37466140191643
30
0
41
1
10
63.8090710914446
20
1.73516977060748
30
0
41
1
10
64.8034453216179
20
1.41313176376374
30
0
41
1
10
66.7921729631285
20
0.765913946883018
30
0
41
1
10
67.786804569571
20
0.440529160223491
30
0
41
1
10
69.7752588361641
20
-0.210760706887214
30
0
41
1
10
70.7686799977715
20
-0.536517085809805
30
0
41
1
10
72.7547156571222
20
-1.18544257240978
30
0
41
1
10
73.74734119689
20
-1.5085715803977
30
0
41
1
10
75.6601155526329
20
-2.12651188143175
30
0
41
1
10
76.5802815658117
20
-2.42158527282274
30
0
41
1
10
77.5006609762912
20
-2.71401962710579
30
0
0
SPLINE
5
137
100
AcDbEntity
8
1
62
256
6
ByLayer
370
18
48
1
60
0
100
AcDbSpline
70
4
71
3
72
10
73
6
40
0
40
0
40
0
40
0
40
0.216914585872627
40
0.216914585872627
40
1
40
1
40
1
40
1
41
1
10
213.226638574113
20
8.6514439476253
30
0
41
1
10
213.776672518241
20
8.77991722701611
30
0
41
1
10
214.326683369248
20
8.90560075620007
30
0
41
1
10
216.862535874302
20
9.47039408386129
30
0
41
1
10
218.849157739293
20
9.87058196666726
30
0
41
1
10
220.839457185755
20
10.2235280815834
30
0
0
SPLINE
5
138
100
AcDbEntity
8
1
62
256
6
ByLayer
370
18
48
1
60
0
100
AcDbSpline
70
4
71
3
72
8
73
4
40
0
40
0
40
0
40
0
40
1
40
1
40
1
40
1
41
1
10
217.772902039791
20
-7.80200819030756
30
0
41
1
10
218.070334372883
20
-7.7661740095304
30
0
41
1
10
218.382318795018
20
-7.74422580313248
30
0
41
1
10
218.705789729723
20
-7.7332383150121
30
0
0
SPLINE
5
139
100
AcDbEntity
8
1
62
256
6
ByLayer
370
13
48
1
60
0
100
AcDbSpline
70
4
71
3
72
18
73
14
40
0
40
0
40
0
40
0
40
0.249999999999984
40
0.249999999999984
40
0.374999999999981
40
0.374999999999981
40
0.499999999999978
40
0.499999999999978
40
0.749999999999984
40
0.749999999999984
40
0.874999999999992
40
0.874999999999992
40
1
40
1
40
1
40
1
41
1
10
233.6
20
9.66464667469319
30
0
41
1
10
234.731063871576
20
9.71656506629415
30
0
41
1
10
235.861852032667
20
9.73903886037706
30
0
41
1
10
237.557410860695
20
9.73569065179066
30
0
41
1
10
238.122627610696
20
9.7289073710578
30
0
41
1
10
239.253236364045
20
9.70479545515514
30
0
41
1
10
239.818747204437
20
9.68775891382234
30
0
41
1
10
241.515143464517
20
9.6149725020183
30
0
41
1
10
242.645673477522
20
9.5395667078206
30
0
41
1
10
244.341147456556
20
9.39322862934611
30
0
41
1
10
244.906516645803
20
9.33976218592798
30
0
41
1
10
246.037259165033
20
9.21945904244009
30
0
41
1
10
246.602660568561
20
9.15332711919825
30
0
41
1
10
247.168012106106
20
9.08138935064983
30
0
0
SPLINE
5
13A
100
AcDbEntity
8
1
62
256
6
ByLayer
370
18
48
1
60
0
100
AcDbSpline
70
4
71
3
72
18
73
14
40
0
40
0
40
0
40
0
40
0.250000000000001
40
0.250000000000001
40
0.375000000000001
40
0.375000000000001
40
0.500000000000001
40
0.500000000000001
40
0.625000000000001
40
0.625000000000001
40
0.750000000000001
40
0.750000000000001
40
1
40
1
40
1
40
1
41
1
10
28.4562107111382
20
11.21318056024
30
0
41
1
10
28.5742802572798
20
11.1432606973208
30
0
41
1
10
28.6958484037785
20
11.074926638236
30
0
41
1
10
28.8852251819023
20
10.9764658578548
30
0
41
1
10
28.949634317381
20
10.9442917913473
30
0
41
1
10
29.0792418057837
20
10.8826603039657
30
0
41
1
10
29.1446567773053
20
10.8530848533455
30
0
41
1
10
29.276926743309
20
10.796894779529
30
0
41
1
10
29.3437812537809
20
10.7702791557935
30
0
41
1
10
29.4792048092845
20
10.7206095180138
30
0
41
1
10
29.5481313291288
20
10.6974519468836
30
0
41
1
10
29.7551719490764
20
10.6352780238413
30
0
41
1
10
29.8927758671299
20
10.6036996979484
30
0
41
1
10
30.030043439316
20
10.5838959433708
30
0
0
SPLINE
5
13B
100
AcDbEntity
8
1
62
256
6
ByLayer
370
18
48
1
60
0
100
AcDbSpline
70
4
71
1
72
4
73
2
40
0
40
0
40
1
40
1
41
1
10
242.777955968627
20
-10.4520766625547
30
0
41
1
10
242.640784633686
20
-10.5123818901869
30
0
0
SPLINE
5
13C
100
AcDbEntity
8
1
62
256
6
ByLayer
370
18
48
1
60
0
100
AcDbSpline
70
4
71
3
72
82
73
78
40
0
40
0
40
0
40
0
40
0.0133333333333332
40
0.0266666666666666
40
0.0400000000000004
40
0.0533333333333333
40
0.0666666666666669
40
0.0800000000000001
40
0.093333333333333
40
0.106666666666667
40
0.12
40
0.133333333333333
40
0.146666666666667
40
0.16
40
0.173333333333333
40
0.186666666666666
40
0.2
40
0.213333333333333
40
0.226666666666667
40
0.24
40
0.253333333333334
40
0.266666666666667
40
0.28
40
0.293333333333333
40
0.306666666666667
40
0.32
40
0.333333333333333
40
0.346666666666667
40
0.36
40
0.373333333333333
40
0.386666666666667
40
0.4
40
0.413333333333333
40
0.426666666666667
40
0.44
40
0.453333333333333
40
0.466666666666667
40
0.48
40
0.493333333333333
40
0.506666666666667
40
0.52
40
0.533333333333333
40
0.546666666666667
40
0.56
40
0.573333333333333
40
0.586666666666667
40
0.6
40
0.613333333333333
40
0.626666666666667
40
0.64
40
0.653333333333334
40
0.666666666666667
40
0.68
40
0.693333333333333
40
0.706666666666667
40
0.72
40
0.733333333333333
40
0.746666666666667
40
0.76
40
0.773333333333333
40
0.786666666666667
40
0.8
40
0.813333333333333
40
0.826666666666667
40
0.84
40
0.853333333333334
40
0.866666666666667
40
0.88
40
0.893333333333334
40
0.906666666666667
40
0.92
40
0.933333333333334
40
0.946666666666667
40
0.96
40
0.973333333333333
40
0.986666666666667
40
1
40
1
40
1
40
1
41
1
10
27.1000000000007
20
0.475684525066953
30
0
41
1
10
27.1172142158416
20
0.516371385294946
30
0
41
1
10
27.1516426475234
20
0.597745105750903
30
0
41
1
10
27.203270775785
20
0.721422300195911
30
0
41
1
10
27.2548698696064
20
0.846238971114957
30
0
41
1
10
27.3064254219713
20
0.972278557976011
30
0
41
1
10
27.3579229381053
20
1.09947386449625
30
0
41
1
10
27.4093479395506
20
1.22779764006492
30
0
41
1
10
27.4606859682371
20
1.35721152632877
30
0
41
1
10
27.5119225905467
20
1.4876797497503
30
0
41
1
10
27.5630434013716
20
1.61916546564547
30
0
41
1
10
27.6140340281644
20
1.75163175084933
30
0
41
1
10
27.6648801349786
20
1.88504135088886
30
0
41
1
10
27.7155674264995
20
2.01935676098324
30
0
41
1
10
27.7660816520628
20
2.15454021769091
30
0
41
1
10
27.8164086096617
20
2.29055371459015
30
0
41
1
10
27.8665341499395
20
2.42735901160793
30
0
41
1
10
27.9164441801676
20
2.56491764613443
30
0
41
1
10
27.966124668208
20
2.7031909437394
30
0
41
1
10
28.015561646458
20
2.84214002907166
30
0
41
1
10
28.0647412157772
20
2.98172583678158
30
0
41
1
10
28.1136495493957
20
3.12190912250639
30
0
41
1
10
28.162272896801
20
3.26265047390302
30
0
41
1
10
28.2105975876041
20
3.40391032172903
30
0
41
1
10
28.2586100353827
20
3.5456489509674
30
0
41
1
10
28.3062967415018
20
3.68782651199234
30
0
41
1
10
28.3536442989075
20
3.83040303177299
30
0
41
1
10
28.4006393958977
20
3.97333842511176
30
0
41
1
10
28.4472688198636
20
4.11659250591427
30
0
41
1
10
28.4935194610052
20
4.26012499848756
30
0
41
1
10
28.5393783160168
20
4.40389554886355
30
0
41
1
10
28.5848324917425
20
4.54786373614456
30
0
41
1
10
28.6298692088019
20
4.69198908386758
30
0
41
1
10
28.6744758051821
20
4.8362310713841
30
0
41
1
10
28.7186397397985
20
4.98054914525255
30
0
41
1
10
28.7623485960198
20
5.12490273063972
30
0
41
1
10
28.8055900851598
20
5.26925124272842
30
0
41
1
10
28.8483520499316
20
5.41355409812778
30
0
41
1
10
28.8906224678662
20
5.55777072628328
30
0
41
1
10
28.9323894546922
20
5.70186058088311
30
0
41
1
10
28.973641267677
20
5.84578315125756
30
0
41
1
10
29.0143663089289
20
5.98949797376878
30
0
41
1
10
29.0545531286569
20
6.13296464318688
30
0
41
1
10
29.0941904283906
20
6.27614282404988
30
0
41
1
10
29.1332670641561
20
6.41899226200403
30
0
41
1
10
29.1717720496098
20
6.56147279512115
30
0
41
1
10
29.2096945591264
20
6.70354436519017
30
0
41
1
10
29.2470239308432
20
6.84516702897943
30
0
41
1
10
29.2837496696575
20
6.98630096946673
30
0
41
1
10
29.3198614501768
20
7.12690650703368
30
0
41
1
10
29.3553491196224
20
7.26694411062172
30
0
41
1
10
29.3902027006837
20
7.40637440884615
30
0
41
1
10
29.4244123943231
20
7.54515820106539
30
0
41
1
10
29.4579685825307
20
7.68325646840211
30
0
41
1
10
29.4908618310295
20
7.82063038471338
30
0
41
1
10
29.5230828919267
20
7.95724132750669
30
0
41
1
10
29.5546227063139
20
8.09305088879836
30
0
41
1
10
29.5854724068148
20
8.22802088591214
30
0
41
1
10
29.6156233200774
20
8.36211337221414
30
0
41
1
10
29.6450669692127
20
8.49529064778147
30
0
41
1
10
29.6737950761781
20
8.62751527000111
30
0
41
1
10
29.7017995641055
20
8.75875006409902
30
0
41
1
10
29.7290725595679
20
8.8889581335834
30
0
41
1
10
29.7556063948095
20
9.01810287064916
30
0
41
1
10
29.7813936098395
20
9.14614796635476
30
0
41
1
10
29.8064269547603
20
9.27305742126046
30
0
41
1
10
29.8306993909462
20
9.39879555394492
30
0
41
1
10
29.8542040962273
20
9.52332701702539
30
0
41
1
10
29.8769344548503
20
9.6466167847465
30
0
41
1
10
29.8988841039596
20
9.76863024623557
30
0
41
1
10
29.9200467688601
20
9.88933290395104
30
0
41
1
10
29.9404168862656
20
10.008691545103
30
0
41
1
10
29.9599872864508
20
10.126669915387
30
0
41
1
10
29.978757851431
20
10.2432449098711
30
0
41
1
10
29.9967032097532
20
10.358346192319
30
0
41
1
10
30.0138933084318
20
10.4720815829607
30
0
41
1
10
30.0246600623546
20
10.5466244899008
30
0
41
1
10
30.030043439316
20
10.5838959433708
30
0
0
SPLINE
5
13D
100
AcDbEntity
8
1
62
256
6
ByLayer
370
18
48
1
60
0
100
AcDbSpline
70
4
71
3
72
26
73
22
40
0
40
0
40
0
40
0
40
0.250000000000001
40
0.250000000000001
40
0.312499999999997
40
0.312499999999997
40
0.374999999999992
40
0.374999999999992
40
0.499999999999983
40
0.499999999999983
40
0.562499999999979
40
0.562499999999979
40
0.624999999999974
40
0.624999999999974
40
0.749999999999979
40
0.749999999999979
40
0.812499999999982
40
0.812499999999982
40
0.874999999999985
40
0.874999999999985
40
1
40
1
40
1
40
1
41
1
10
248.453490998059
20
-3.17283446405193
30
0
41
1
10
248.612354504333
20
-2.99839810388119
30
0
41
1
10
248.770132529325
20
-2.79401378168222
30
0
41
1
10
248.965576422905
20
-2.48946153043249
30
0
41
1
10
249.004408842268
20
-2.4262884047034
30
0
41
1
10
249.08045893384
20
-2.29707374201376
30
0
41
1
10
249.117834837677
20
-2.23078894465118
30
0
41
1
10
249.227985805005
20
-2.02682639218241
30
0
41
1
10
249.298789985481
20
-1.88405562269725
30
0
41
1
10
249.400837606452
20
-1.65915298439879
30
0
41
1
10
249.434255793474
20
-1.58212396218659
30
0
41
1
10
249.49834944116
20
-1.42760064606054
30
0
41
1
10
249.529189871226
20
-1.34976528207568
30
0
41
1
10
249.618263758509
20
-1.11461976234148
30
0
41
1
10
249.673059535806
20
-0.955674802628721
30
0
41
1
10
249.748852348879
20
-0.714213409027423
30
0
41
1
10
249.773027352373
20
-0.633246005022727
30
0
41
1
10
249.818672354631
20
-0.472661156551396
30
0
41
1
10
249.840239973136
20
-0.392740624045047
30
0
41
1
10
249.901465125405
20
-0.15400966401242
30
0
41
1
10
249.937658062828
20
0.0037740103340411
30
0
41
1
10
249.969790840039
20
0.160354432700558
30
0
0
SPLINE
5
13E
100
AcDbEntity
8
1
62
256
6
ByLayer
370
18
48
1
60
0
100
AcDbSpline
70
4
71
3
72
8
73
4
40
0
40
0
40
0
40
0
40
1
40
1
40
1
40
1
41
1
10
32.9000000002585
20
-6.36672696318115
30
0
41
1
10
32.9000000002709
20
-6.53350279366484
30
0
41
1
10
32.9000000002832
20
-6.70074613931271
30
0
41
1
10
32.9000000002957
20
-6.86845652682402
30
0
0
SPLINE
5
13F
100
AcDbEntity
8
1
62
256
6
ByLayer
370
18
48
1
60
0
100
AcDbSpline
70
4
71
3
72
29
73
25
40
0
40
0
40
0
40
0
40
0.0478366626000115
40
0.0954410522645466
40
0.142813923641924
40
0.189956042499275
40
0.23686818590418
40
0.283551142408926
40
0.330005712237359
40
0.376232707474398
40
0.422232952258147
40
0.468007282974651
40
0.513556548455239
40
0.558881610176505
40
0.603983342462851
40
0.648862632691624
40
0.693520381500791
40
0.737957502999167
40
0.782174924979114
40
0.826173589131743
40
0.869954451264506
40
0.913518481521232
40
0.956866664604442
40
1
40
1
40
1
40
1
41
1
10
240.759262015026
20
-2.97877493684857
30
0
41
1
10
240.739693043895
20
-2.91919348880393
30
0
41
1
10
240.700650119597
20
-2.80031989295185
30
0
41
1
10
240.64314450749
20
-2.62141034305407
30
0
41
1
10
240.586596938709
20
-2.44266679718862
30
0
41
1
10
240.531072200477
20
-2.26405548359284
30
0
41
1
10
240.476553059873
20
-2.0856385593863
30
0
41
1
10
240.423044100887
20
-1.90745175134444
30
0
41
1
10
240.370544104414
20
-1.72953689829745
30
0
41
1
10
240.319053394923
20
-1.5519332912875
30
0
41
1
10
240.268571886321
20
-1.37467997362751
30
0
41
1
10
240.219099601784
20
-1.19781512626474
30
0
41
1
10
240.170636535259
20
-1.02137622890692
30
0
41
1
10
240.123182689171
20
-0.845400015260651
30
0
41
1
10
240.07673806117
20
-0.669922483612254
30
0
41
1
10
240.031302659602
20
-0.494978892741671
30
0
41
1
10
239.986876455162
20
-0.320603763695828
30
0
41
1
10
239.943459557584
20
-0.146830874855453
30
0
41
1
10
239.901051561769
20
0.0263067200851879
30
0
41
1
10
239.859653969823
20
0.198776756494425
30
0
41
1
10
239.819261218903
20
0.370547516809097
30
0
41
1
10
239.779893917527
20
0.541588721884466
30
0
41
1
10
239.741475725938
20
0.711868222565926
30
0
41
1
10
239.716623318775
20
0.825146104922737
30
0
41
1
10
239.704227985848
20
0.881644336898091
30
0
0
SPLINE
5
140
100
AcDbEntity
8
1
62
256
6
ByLayer
370
18
48
1
60
0
100
AcDbSpline
70
4
71
3
72
12
73
8
40
0
40
0
40
0
40
0
40
0.5
40
0.5
40
0.75
40
0.75
40
1
40
1
40
1
40
1
41
1
10
248.613426609505
20
4.87360423533525
30
0
41
1
10
248.362192663415
20
5.56991630465245
30
0
41
1
10
248.1155460848
20
6.26945916983598
30
0
41
1
10
247.752907998114
20
7.32393710201163
30
0
41
1
10
247.633261734743
20
7.67629819419784
30
0
41
1
10
247.396682601578
20
8.3829313701776
30
0
41
1
10
247.280947772029
20
8.73362668127527
30
0
41
1
10
247.168012106106
20
9.08138935064983
30
0
0
SPLINE
5
141
100
AcDbEntity
8
1
62
256
6
ByLayer
370
18
48
1
60
0
100
AcDbSpline
70
4
71
3
72
8
73
4
40
0
40
0
40
0
40
0
40
1
40
1
40
1
40
1
41
1
10
246.315346368798
20
4.49191963452378
30
0
41
1
10
246.282534926436
20
4.46365639502739
30
0
41
1
10
246.249910273337
20
4.4352280640089
30
0
41
1
10
246.217465359701
20
4.40666563705238
30
0
0
SPLINE
5
142
100
AcDbEntity
8
1
62
256
6
ByLayer
370
18
48
1
60
0
100
AcDbSpline
70
4
71
3
72
16
73
12
40
0
40
0
40
0
40
0
40
0.288424871211001
40
0.288424871211001
40
0.576849742422003
40
0.576849742422003
40
0.721062178027503
40
0.721062178027503
40
0.865274613633004
40
0.865274613633004
40
1
40
1
40
1
40
1
41
1
10
223.311863267334
20
10.4694325689899
30
0
41
1
10
223.19058601714
20
10.0979880481635
30
0
41
1
10
223.064539830956
20
9.73691261490691
30
0
41
1
10
222.804548767378
20
9.03453473303117
30
0
41
1
10
222.670596772008
20
8.6932328942861
30
0
41
1
10
222.464971333069
20
8.19629448004321
30
0
41
1
10
222.395366449617
20
8.03253427872409
30
0
41
1
10
222.256902200826
20
7.71491699421907
30
0
41
1
10
222.187921381805
20
7.56069751792538
30
0
41
1
10
222.055563223416
20
7.27110562408319
30
0
41
1
10
221.992079071284
20
7.13514137412065
30
0
41
1
10
221.929142480935
20
7.00309794631178
30
0
0
SPLINE
5
143
100
AcDbEntity
8
1
62
256
6
ByLayer
370
18
48
1
60
0
100
AcDbSpline
70
4
71
3
72
14
73
10
40
0
40
0
40
0
40
0
40
0.500000000000001
40
0.500000000000001
40
0.625000000000001
40
0.625000000000001
40
0.75
40
0.75
40
1
40
1
40
1
40
1
41
1
10
220.776567275987
20
-10.7023027374236
30
0
41
1
10
221.074117178988
20
-10.7457957584996
30
0
41
1
10
221.351774902267
20
-10.8124008374004
30
0
41
1
10
221.673543889248
20
-10.9198754112133
30
0
41
1
10
221.736638408336
20
-10.9426290370163
30
0
41
1
10
221.858063630244
20
-10.9896705385834
30
0
41
1
10
221.916686658281
20
-11.0140507904594
30
0
41
1
10
222.08643220734
20
-11.0895035912082
30
0
41
1
10
222.191460988404
20
-11.1428792456831
30
0
41
1
10
222.288358497587
20
-11.1987566462578
30
0
0
SPLINE
5
144
100
AcDbEntity
8
1
62
256
6
ByLayer
370
18
48
1
60
0
100
AcDbSpline
70
4
71
3
72
38
73
34
40
0
40
0
40
0
40
0
40
0.0148996407292714
40
0.0148996407292714
40
0.0969913373351646
40
0.0969913373351646
40
0.138037185638111
40
0.138037185638111
40
0.179083033941058
40
0.179083033941058
40
0.261174730546951
40
0.261174730546951
40
0.343266427152845
40
0.343266427152845
40
0.384312275455792
40
0.384312275455792
40
0.425358123758739
40
0.425358123758739
40
0.466403972061686
40
0.466403972061686
40
0.507449820364633
40
0.507449820364633
40
0.589541516970528
40
0.589541516970528
40
0.671633213576422
40
0.671633213576422
40
0.753724910182317
40
0.753724910182317
40
0.835816606788211
40
0.835816606788211
40
0.917908303394106
40
0.917908303394106
40
1
40
1
40
1
40
1
41
1
10
97.4776020802035
20
-8.76750125827621
30
0
41
1
10
97.1169399538886
20
-8.84455138765085
30
0
41
1
10
96.7562719103483
20
-8.92027963996586
30
0
41
1
10
94.4083096495782
20
-9.40441051422835
30
0
41
1
10
92.4194731427582
20
-9.77272915510977
30
0
41
1
10
89.4380360906346
20
-10.256401213492
30
0
41
1
10
88.444339529354
20
-10.406205289549
30
0
41
1
10
86.4566652646049
20
-10.6827803962518
30
0
41
1
10
85.4623191058614
20
-10.8095895654648
30
0
41
1
10
82.4818906971401
20
-11.1549751871216
30
0
41
1
10
80.4980210978787
20
-11.3383877922456
30
0
41
1
10
76.5305428594097
20
-11.6026539131179
30
0
41
1
10
74.5468845042249
20
-11.6834799854421
30
0
41
1
10
71.5673622440752
20
-11.7254148637251
30
0
41
1
10
70.5731415337249
20
-11.7261629662872
30
0
41
1
10
68.584787448073
20
-11.7008144313472
30
0
41
1
10
67.5909021566051
20
-11.6748303996344
30
0
41
1
10
65.6031781993291
20
-11.5966104846968
30
0
41
1
10
64.609335288708
20
-11.5443385069968
30
0
41
1
10
62.6211827678367
20
-11.414356204704
30
0
41
1
10
61.6269036002463
20
-11.3366420776216
30
0
41
1
10
58.6457298301902
20
-11.0670747188606
30
0
41
1
10
56.6589987294594
20
-10.8383858653123
30
0
41
1
10
52.684116879036
20
-10.2863673376079
30
0
41
1
10
50.6995275108651
20
-9.9636406960748
30
0
41
1
10
46.7305719570213
20
-9.2334986228806
30
0
41
1
10
44.7462266799118
20
-8.82563933904495
30
0
41
1
10
40.7734380806369
20
-7.93479578243705
30
0
41
1
10
38.7836979566727
20
-7.45160572698955
30
0
41
1
10
34.8111081340948
20
-6.428948145985
30
0
41
1
10
32.8266903278396
20
-5.88912933929512
30
0
41
1
10
28.8566869474447
20
-4.762499950006
30
0
41
1
10
26.8710357874481
20
-4.17555277091205
30
0
41
1
10
24.8820397216754
20
-3.57126866768084
30
0
0
SPLINE
5
145
100
AcDbEntity
8
1
62
256
6
ByLayer
370
18
48
1
60
0
100
AcDbSpline
70
4
71
3
72
8
73
4
40
0
40
0
40
0
40
0
40
1
40
1
40
1
40
1
41
1
10
234.319022247496
20
-12.9025005098905
30
0
41
1
10
235.242725761316
20
-12.9489429033497
30
0
41
1
10
236.16551808065
20
-12.9735478539334
30
0
41
1
10
237.087182840036
20
-12.976712982428
30
0
0
SPLINE
5
146
100
AcDbEntity
8
1
62
256
6
ByLayer
370
18
48
1
60
0
100
AcDbSpline
70
4
71
3
72
8
73
4
40
0
40
0
40
0
40
0
40
1
40
1
40
1
40
1
41
1
10
24.8820397216787
20
-3.57126866768181
30
0
41
1
10
24.9616531992262
20
-3.86547993830294
30
0
41
1
10
25.0398965930371
20
-4.16340358010169
30
0
41
1
10
25.1163401741562
20
-4.4648170583796
30
0
0
SPLINE
5
147
100
AcDbEntity
8
1
62
256
6
ByLayer
370
18
48
1
60
0
100
AcDbSpline
70
4
71
3
72
8
73
4
40
0
40
0
40
0
40
0
40
1
40
1
40
1
40
1
41
1
10
233.4
20
5.05000000000001
30
0
41
1
10
233.4
20
4.6542699225609
30
0
41
1
10
233.4
20
4.30325768868974
30
0
41
1
10
233.4
20
3.99581633702454
30
0
0
SPLINE
5
148
100
AcDbEntity
8
1
62
256
6
ByLayer
370
18
48
1
60
0
100
AcDbSpline
70
4
71
3
72
10
73
6
40
0
40
0
40
0
40
0
40
0.524552295512285
40
0.524552295512285
40
1
40
1
40
1
40
1
41
1
10
246.315346368798
20
4.49191963452378
30
0
41
1
10
246.319054463696
20
4.49511372678759
30
0
41
1
10
246.323243220226
20
4.49788990691235
30
0
41
1
10
246.331808247329
20
4.50167622165861
30
0
41
1
10
246.336224005907
20
4.50285120558974
30
0
41
1
10
246.340631502174
20
4.5032721978157
30
0
0
SPLINE
5
149
100
AcDbEntity
8
1
62
256
6
ByLayer
370
18
48
1
60
0
100
AcDbSpline
70
4
71
2
72
7
73
4
40
0
40
0
40
0
40
0.5
40
1
40
1
40
1
41
1
10
239.830684728446
20
0.88339433865508
30
0
41
1
10
240.040572868781
20
-0.066974021146649
30
0
41
1
10
240.567073384163
20
-1.97320682867601
30
0
41
1
10
240.875714028669
20
-2.89999999999819
30
0
0
SPLINE
5
14A
100
AcDbEntity
8
1
62
256
6
ByLayer
370
18
48
1
60
0
100
AcDbSpline
70
4
71
3
72
8
73
4
40
0
40
0
40
0
40
0
40
1
40
1
40
1
40
1
41
1
10
249.933732080391
20
-0.283393081445155
30
0
41
1
10
249.945701146146
20
-0.242479682346101
30
0
41
1
10
249.95772084359
20
-0.201466246701841
30
0
41
1
10
249.969790840039
20
-0.160354432700558
30
0
0
SPLINE
5
14B
100
AcDbEntity
8
1
62
256
6
ByLayer
370
18
48
1
60
0
100
AcDbSpline
70
4
71
3
72
15
73
11
40
0
40
0
40
0
40
0
40
0.222925018073908
40
0.341494202826923
40
0.460063387579938
40
0.608274868521209
40
0.69720175708597
40
0.786128645650732
40
0.934340126592001
40
1
40
1
40
1
40
1
41
1
10
193.654894028474
20
-0.0018518229759366
30
0
41
1
10
195.516972992192
20
-0.624303080713389
30
0
41
1
10
198.369211892832
20
-1.57663366202922
30
0
41
1
10
202.210224505913
20
-2.83554922974957
30
0
41
1
10
205.427836783837
20
-3.87514891961422
30
0
41
1
10
208.397257096901
20
-4.80695750851146
30
0
41
1
10
211.11931537985
20
-5.62711047296094
30
0
41
1
10
213.842375505966
20
-6.4193405800286
30
0
41
1
10
216.37174992451
20
-7.12053673994853
30
0
41
1
10
218.157582468657
20
-7.5912433181708
30
0
41
1
10
218.705789663939
20
-7.73323830027093
30
0
0
SPLINE
5
14C
100
AcDbEntity
8
1
62
256
6
ByLayer
370
13
48
1
60
0
100
AcDbSpline
70
4
71
3
72
39
73
35
40
0
40
0
40
0
40
0
40
0.250000000000135
40
0.250000000000135
40
0.312500000000162
40
0.343750000000176
40
0.343750000000176
40
0.37500000000019
40
0.37500000000019
40
0.50000000000022
40
0.531250000000223
40
0.546875000000224
40
0.546875000000224
40
0.562500000000225
40
0.562500000000225
40
0.625000000000207
40
0.640625000000192
40
0.640625000000192
40
0.656250000000178
40
0.656250000000178
40
0.687500000000149
40
0.71875000000012
40
0.734375000000115
40
0.734375000000115
40
0.75000000000011
40
0.75000000000011
40
0.87500000000003
40
0.87500000000003
40
0.906250000000019
40
0.921875000000013
40
0.921875000000013
40
0.937500000000007
40
0.937500000000007
40
1
40
1
40
1
40
1
41
1
10
246.913572414716
20
-2.09652355137513
30
0
41
1
10
246.691244775158
20
-1.94112983950296
30
0
41
1
10
246.431194233736
20
-1.7391389461136
30
0
41
1
10
246.127285537693
20
-1.48029122950828
30
0
41
1
10
246.037699406862
20
-1.40215991355086
30
0
41
1
10
245.952414187153
20
-1.32477251815553
30
0
41
1
10
245.8967266316
20
-1.27350842756999
30
0
41
1
10
245.869682656915
20
-1.24824748683136
30
0
41
1
10
245.735662880592
20
-1.12099225313693
30
0
41
1
10
245.575801876
20
-0.96043093661109
30
0
41
1
10
245.414837915155
20
-0.788575451694925
30
0
41
1
10
245.373187455323
20
-0.743129464019631
30
0
41
1
10
245.346034834111
20
-0.713263463941729
30
0
41
1
10
245.333032940698
20
-0.698845331537797
30
0
41
1
10
245.266683738282
20
-0.624579691465016
30
0
41
1
10
245.187414069955
20
-0.53317330356407
30
0
41
1
10
245.115534208803
20
-0.447560173944851
30
0
41
1
10
245.087844215087
20
-0.414322740981248
30
0
41
1
10
245.074935994114
20
-0.398702580083523
30
0
41
1
10
245.035525526874
20
-0.350531416832581
30
0
41
1
10
244.977761036907
20
-0.278697536380605
30
0
41
1
10
244.902257363452
20
-0.182223497817631
30
0
41
1
10
244.85985512779
20
-0.126880623573555
30
0
41
1
10
244.83271864253
20
-0.0911667962808167
30
0
41
1
10
244.82005538011
20
-0.0743548668168899
30
0
41
1
10
244.705598240591
20
0.0792749816791911
30
0
41
1
10
244.583524783773
20
0.254776097484012
30
0
41
1
10
244.445239188385
20
0.46576413764538
30
0
41
1
10
244.404826377686
20
0.528431534699536
30
0
41
1
10
244.367140134821
20
0.588550278833765
30
0
41
1
10
244.34274605299
20
0.627884664391644
30
0
41
1
10
244.331263151333
20
0.646605196057266
30
0
41
1
10
244.271073676978
20
0.74598156140317
30
0
41
1
10
244.213111282376
20
0.845423949400924
30
0
41
1
10
244.160988230863
20
0.937890922843962
30
0
0
SPLINE
5
14D
100
AcDbEntity
8
1
62
256
6
ByLayer
370
18
48
1
60
0
100
AcDbSpline
70
4
71
3
72
8
73
4
40
0
40
0
40
0
40
0
40
1
40
1
40
1
40
1
41
1
10
233.4
20
5.05000000000001
30
0
41
1
10
233.466665139549
20
5.05000000000001
30
0
41
1
10
233.533331831615
20
5.05000000000001
30
0
41
1
10
233.6
20
5.05000000000001
30
0
0
SPLINE
5
14E
100
AcDbEntity
8
1
62
256
6
ByLayer
370
18
48
1
60
0
100
AcDbSpline
70
4
71
3
72
32
73
28
40
0
40
0
40
0
40
0
40
0.12499999999999
40
0.12499999999999
40
0.187499999999989
40
0.187499999999989
40
0.249999999999988
40
0.249999999999988
40
0.312499999999986
40
0.312499999999986
40
0.374999999999985
40
0.374999999999985
40
0.499999999999963
40
0.499999999999963
40
0.562499999999964
40
0.562499999999964
40
0.624999999999965
40
0.624999999999965
40
0.687499999999966
40
0.687499999999966
40
0.749999999999966
40
0.749999999999966
40
0.874999999999968
40
0.874999999999968
40
0.937499999999984
40
0.937499999999984
40
1
40
1
40
1
40
1
41
1
10
223
20
-5.65223811368026
30
0
41
1
10
223
20
-5.8575644617035
30
0
41
1
10
222.974122910718
20
-6.05605223466071
30
0
41
1
10
222.89776519477
20
-6.34420781375303
30
0
41
1
10
222.865876677176
20
-6.43893642616942
30
0
41
1
10
222.789440963629
20
-6.62396432601176
30
0
41
1
10
222.745438677068
20
-6.71305802284115
30
0
41
1
10
222.646275779143
20
-6.8848419042061
30
0
41
1
10
222.591113982125
20
-6.96753094963887
30
0
41
1
10
222.469590494878
20
-7.1267134524667
30
0
41
1
10
222.402861821034
20
-7.20357084394249
30
0
41
1
10
222.187749465409
20
-7.42225447496946
30
0
41
1
10
222.026907008485
20
-7.5504423649524
30
0
41
1
10
221.759943749789
20
-7.71858377425124
30
0
41
1
10
221.666048709361
20
-7.77083715511085
30
0
41
1
10
221.4721157162
20
-7.86569016416891
30
0
41
1
10
221.372536987708
20
-7.908152984325
30
0
41
1
10
221.168270435
20
-7.98364148035898
30
0
41
1
10
221.063582369798
20
-8.01666615489955
30
0
41
1
10
220.849013366329
20
-8.07335020958055
30
0
41
1
10
220.738432864073
20
-8.09711550812494
30
0
41
1
10
220.403893566547
20
-8.15300909713238
30
0
41
1
10
220.178988107722
20
-8.16996217624978
30
0
41
1
10
219.838850013776
20
-8.16574143343618
30
0
41
1
10
219.724469788331
20
-8.15927312083357
30
0
41
1
10
219.497629269368
20
-8.13613230003392
30
0
41
1
10
219.385357174536
20
-8.11953750982747
30
0
41
1
10
219.274234313201
20
-8.09784960195037
30
0
0
SPLINE
5
14F
100
AcDbEntity
8
1
62
256
6
ByLayer
370
18
48
1
60
0
100
AcDbSpline
70
4
71
3
72
16
73
12
40
0
40
0
40
0
40
0
40
0.249999999999996
40
0.249999999999996
40
0.499999999999991
40
0.499999999999991
40
0.749999999999987
40
0.749999999999987
40
0.874999999999993
40
0.874999999999993
40
1
40
1
40
1
40
1
41
1
10
234.704358970516
20
3.00601869013684
30
0
41
1
10
235.472312348675
20
2.91170101685108
30
0
41
1
10
236.240680077601
20
2.81966212858401
30
0
41
1
10
237.778355867127
20
2.64075584900988
30
0
41
1
10
238.547959355266
20
2.55551320635831
30
0
41
1
10
240.089412608507
20
2.39738166261185
30
0
41
1
10
240.860350536627
20
2.3212427584119
30
0
41
1
10
242.016914707327
20
2.2092480539774
30
0
41
1
10
242.402473447506
20
2.17243799523575
30
0
41
1
10
243.173683315764
20
2.10010787045115
30
0
41
1
10
243.559312245234
20
2.06427784993107
30
0
41
1
10
243.945064038119
20
2.03016334529715
30
0
0
SPLINE
5
150
100
AcDbEntity
8
1
62
256
6
ByLayer
370
18
48
1
60
0
100
AcDbSpline
70
4
71
3
72
23
73
19
40
0
40
0
40
0
40
0
40
0.0235863555185829
40
0.0471037254200393
40
0.0705904339405666
40
0.0940849553613058
40
0.117625725655993
40
0.141250955072083
40
0.211656908303033
40
0.281575124422574
40
0.352112854713497
40
0.421956513494665
40
0.561868758033043
40
0.701456577199683
40
0.840541076531588
40
0.909941281322171
40
0.979748850670354
40
1
40
1
40
1
40
1
41
1
10
233.500002151535
20
-12.1987376721962
30
0
41
1
10
233.500193846243
20
-12.1941587507456
30
0
41
1
10
233.500576674988
20
-12.1850143003212
30
0
41
1
10
233.503651696244
20
-12.1711018363407
30
0
41
1
10
233.508559877684
20
-12.1570859299993
30
0
41
1
10
233.515479422531
20
-12.1429530169957
30
0
41
1
10
233.524361493541
20
-12.1287094158505
30
0
41
1
10
233.542369386465
20
-12.10491872807
30
0
41
1
10
233.576172277466
20
-12.0715552081246
30
0
41
1
10
233.636370149548
20
-12.0292145138334
30
0
41
1
10
233.711998108294
20
-11.9883240633686
30
0
41
1
10
233.832589010163
20
-11.9369375817914
30
0
41
1
10
234.017894111198
20
-11.8807978435332
30
0
41
1
10
234.282991565801
20
-11.8346203192764
30
0
41
1
10
234.525078465355
20
-11.8194596839036
30
0
41
1
10
234.71882278703
20
-11.8226978240632
30
0
41
1
10
234.828244573212
20
-11.8301918633463
30
0
41
1
10
234.888307517696
20
-11.8365936706274
30
0
41
1
10
234.901813635436
20
-11.8380332198142
30
0
0
SPLINE
5
151
100
AcDbEntity
8
1
62
256
6
ByLayer
370
13
48
1
60
0
100
AcDbSpline
70
4
71
3
72
10
73
6
40
0
40
0
40
0
40
0
40
0.0018141874777539
40
0.0018141874777539
40
1
40
1
40
1
40
1
41
1
10
248.603540487155
20
1.28316093088551
30
0
41
1
10
248.603526657356
20
1.28317042980186
30
0
41
1
10
248.603512827495
20
1.2831799286374
30
0
41
1
10
248.595889725379
20
1.28841587939411
30
0
41
1
10
248.588299366209
20
1.29366664320634
30
0
41
1
10
248.58072841375
20
1.29894198197655
30
0
0
SPLINE
5
152
100
AcDbEntity
8
1
62
256
6
ByLayer
370
18
48
1
60
0
100
AcDbSpline
70
4
71
3
72
8
73
4
40
0
40
0
40
0
40
0
40
1
40
1
40
1
40
1
41
1
10
234.319022247496
20
-12.7330871090944
30
0
41
1
10
234.128032473113
20
-12.6468822128316
30
0
41
1
10
233.936836039767
20
-12.5598197319589
30
0
41
1
10
233.745421537682
20
-12.4719276141433
30
0
0
SPLINE
5
153
100
AcDbEntity
8
1
62
256
6
ByLayer
370
18
48
1
60
0
100
AcDbSpline
70
4
71
3
72
8
73
4
40
0
40
0
40
0
40
0
40
1
40
1
40
1
40
1
41
1
10
233.503866138357
20
12.5281102711415
30
0
41
1
10
233.50257741371
20
12.5292460734518
30
0
41
1
10
233.501288700918
20
12.5303817556121
30
0
41
1
10
233.5
20
12.5315173175869
30
0
0
SPLINE
5
154
100
AcDbEntity
8
1
62
256
6
ByLayer
370
18
48
1
60
0
100
AcDbSpline
70
4
71
3
72
10
73
6
40
0
40
0
40
0
40
0
40
0.709972626230884
40
0.709972626230884
40
1
40
1
40
1
40
1
41
1
10
220.776567275987
20
10.7023027374236
30
0
41
1
10
218.78727759156
20
10.3312849107529
30
0
41
1
10
216.800527285044
20
9.91185014934101
30
0
41
1
10
214.001998515196
20
9.25789852298084
30
0
41
1
10
213.190157129397
20
9.06076960755368
30
0
41
1
10
212.378873246605
20
8.85712294915311
30
0
0
SPLINE
5
155
100
AcDbEntity
8
1
62
256
6
ByLayer
370
18
48
1
60
0
100
AcDbSpline
70
4
71
3
72
52
73
48
40
0
40
0
40
0
40
0
40
0.0150815348844528
40
0.0150815348844528
40
0.0458602369193137
40
0.0458602369193137
40
0.0766389389541744
40
0.0766389389541744
40
0.138196343023895
40
0.138196343023895
40
0.199753747093616
40
0.199753747093616
40
0.230532449128476
40
0.230532449128476
40
0.261311151163337
40
0.261311151163337
40
0.322868555233058
40
0.322868555233058
40
0.353647257267919
40
0.353647257267919
40
0.38442595930278
40
0.38442595930278
40
0.445983363372502
40
0.445983363372502
40
0.507540767442225
40
0.507540767442225
40
0.538319469477086
40
0.538319469477086
40
0.569098171511948
40
0.569098171511948
40
0.630655575581669
40
0.630655575581669
40
0.66143427761653
40
0.66143427761653
40
0.692212979651391
40
0.692212979651391
40
0.753770383721113
40
0.753770383721113
40
0.815327787790834
40
0.815327787790834
40
0.846106489825695
40
0.846106489825695
40
0.876885191860556
40
0.876885191860556
40
0.938442595930278
40
0.938442595930278
40
1
40
1
40
1
40
1
41
1
10
126.936024548758
20
-12.6999852287905
30
0
41
1
10
126.449774383782
20
-12.699961710515
30
0
41
1
10
125.963439420148
20
-12.6965590447069
30
0
41
1
10
124.484177756623
20
-12.6759051732287
30
0
41
1
10
123.490890585443
20
-12.6479603668415
30
0
41
1
10
121.502866639149
20
-12.5637459008506
30
0
41
1
10
120.509592733312
20
-12.5075335237904
30
0
41
1
10
117.532334244654
20
-12.2970698537821
30
0
41
1
10
115.55029074984
20
-12.1006532607337
30
0
41
1
10
111.582530803274
20
-11.6044280742977
30
0
41
1
10
109.597242113908
20
-11.3046279332315
30
0
41
1
10
106.61486312682
20
-10.7802577925061
30
0
41
1
10
105.620798231785
20
-10.5931765949899
30
0
41
1
10
103.634810617678
20
-10.1961682912752
30
0
41
1
10
102.642457767257
20
-9.98617745123974
30
0
41
1
10
99.6660248777422
20
-9.32411853799738
30
0
41
1
10
97.6830035447097
20
-8.83917999429858
30
0
41
1
10
94.7066042268505
20
-8.05330234576635
30
0
41
1
10
93.714116948458
20
-7.78168140949572
30
0
41
1
10
91.7273478400419
20
-7.22149967044908
30
0
41
1
10
90.733374472058
20
-6.93303563434449
30
0
41
1
10
87.7541285578728
20
-6.04894737037719
30
0
41
1
10
85.7696569228775
20
-5.43301726618529
30
0
41
1
10
81.8010685446302
20
-4.15630841080559
30
0
41
1
10
79.8168745813987
20
-3.49562778482107
30
0
41
1
10
76.8358097110304
20
-2.48449531336792
30
0
41
1
10
75.8412762076827
20
-2.14394134354916
30
0
41
1
10
73.8551008113112
20
-1.4587333303902
30
0
41
1
10
72.8628305840048
20
-1.11396363026077
30
0
41
1
10
69.8873852000593
20
-0.0763057884574039
30
0
41
1
10
67.9055937937151
20
0.619979816858319
30
0
41
1
10
64.9287167203623
20
1.65111508769201
30
0
41
1
10
63.9357749584972
20
1.9927539592974
30
0
41
1
10
61.9483962145537
20
2.67132084443634
30
0
41
1
10
60.9535385030732
20
3.00828177295085
30
0
41
1
10
57.9729427413313
20
4.00747779896858
30
0
41
1
10
55.9891576785678
20
4.65872867187358
30
0
41
1
10
52.0215466277526
20
5.91354027512469
30
0
41
1
10
50.0380752552217
20
6.51809332476023
30
0
41
1
10
47.0597136013059
20
7.38086202334753
30
0
41
1
10
46.0657351790729
20
7.66116850009956
30
0
41
1
10
44.079202288849
20
8.20324976388324
30
0
41
1
10
43.0867049429604
20
8.46500898736718
30
0
41
1
10
40.1097061792536
20
9.2188740528787
30
0
41
1
10
38.1254679582898
20
9.67938614887228
30
0
41
1
10
34.1569723889548
20
10.5152988371499
30
0
41
1
10
32.1726923086329
20
10.8903722531259
30
0
41
1
10
30.185469056147
20
11.2167075482003
30
0
0
SPLINE
5
156
100
AcDbEntity
8
1
62
256
6
ByLayer
370
18
48
1
60
0
100
AcDbSpline
70
4
71
3
72
12
73
8
40
0
40
0
40
0
40
0
40
0.499999999999982
40
0.499999999999982
40
0.749999999999991
40
0.749999999999991
40
1
40
1
40
1
40
1
41
1
10
29.6
20
11.3006495212671
30
0
41
1
10
29.4094644705035
20
11.3033189708153
30
0
41
1
10
29.2187739729686
20
11.2970438799252
30
0
41
1
10
28.9324948051754
20
11.275166760859
30
0
41
1
10
28.8370281505218
20
11.2657737680229
30
0
41
1
10
28.6460161312609
20
11.2426752974179
30
0
41
1
10
28.5501345504705
20
11.2288933741668
30
0
41
1
10
28.4562107111383
20
11.21318056024
30
0
0
SPLINE
5
157
100
AcDbEntity
8
1
62
256
6
ByLayer
370
18
48
1
60
0
100
AcDbSpline
70
4
71
3
72
8
73
4
40
0
40
0
40
0
40
0
40
1
40
1
40
1
40
1
41
1
10
247.168012106106
20
9.08138935064983
30
0
41
1
10
246.819357299043
20
10.1550017068779
30
0
41
1
10
246.464553678325
20
11.2354324414291
30
0
41
1
10
246.103343473607
20
12.3229673941152
30
0
0
SPLINE
5
158
100
AcDbEntity
8
1
62
256
6
ByLayer
370
18
48
1
60
0
100
AcDbSpline
70
4
71
3
72
8
73
4
40
0
40
0
40
0
40
0
40
1
40
1
40
1
40
1
41
1
10
223.311863267332
20
10.4694325689918
30
0
41
1
10
223.362444574606
20
10.6243515617385
30
0
41
1
10
223.420500173449
20
10.7758423633463
30
0
41
1
10
223.486781199941
20
10.9235406934732
30
0
0
SPLINE
5
159
100
AcDbEntity
8
1
62
256
6
ByLayer
370
18
48
1
60
0
100
AcDbSpline
70
4
71
3
72
22
73
18
40
0
40
0
40
0
40
0
40
0.250000000000007
40
0.250000000000007
40
0.375000000000006
40
0.375000000000006
40
0.500000000000004
40
0.500000000000004
40
0.562500000000006
40
0.562500000000006
40
0.625000000000009
40
0.625000000000009
40
0.750000000000006
40
0.750000000000006
40
0.875000000000003
40
0.875000000000003
40
1
40
1
40
1
40
1
41
1
10
24.6055701106677
20
-3.48716927476158
30
0
41
1
10
24.3356241129873
20
-3.41521155362878
30
0
41
1
10
24.0845603988861
20
-3.34022607528226
30
0
41
1
10
23.7352521910207
20
-3.22271172927751
30
0
41
1
10
23.6256688436034
20
-3.18339133323607
30
0
41
1
10
23.4217041302199
20
-3.10501926104689
30
0
41
1
10
23.3268412587621
20
-3.06580305694786
30
0
41
1
10
23.1947236432818
20
-3.00653772563587
30
0
41
1
10
23.1524148681995
20
-2.98671355516862
30
0
41
1
10
23.0722341059699
20
-2.94739305442195
30
0
41
1
10
23.0342018295
20
-2.9278265143391
30
0
41
1
10
22.9259740546169
20
-2.86929241644782
30
0
41
1
10
22.861620762823
20
-2.83048712880188
30
0
41
1
10
22.7476398788742
20
-2.75279374642955
30
0
41
1
10
22.6980621136861
20
-2.71385898689869
30
0
41
1
10
22.6150537142403
20
-2.6371905567797
30
0
41
1
10
22.5812694868668
20
-2.59923593901797
30
0
41
1
10
22.55483150811
20
-2.56148838606421
30
0
0
SPLINE
5
15A
100
AcDbEntity
8
1
62
256
6
ByLayer
370
18
48
1
60
0
100
AcDbSpline
70
4
71
3
72
12
73
8
40
0
40
0
40
0
40
0
40
0.500000000000035
40
0.500000000000035
40
0.750000000000018
40
0.750000000000018
40
1
40
1
40
1
40
1
41
1
10
246.340631502177
20
4.50327219781025
30
0
41
1
10
246.723911467471
20
4.53988207241764
30
0
41
1
10
247.105819105411
20
4.5841830319473
30
0
41
1
10
247.674933244018
20
4.67163597879394
30
0
41
1
10
247.864004541408
20
4.70433688101639
30
0
41
1
10
248.240323611173
20
4.77995846698917
30
0
41
1
10
248.427588976169
20
4.82278055448285
30
0
41
1
10
248.613426609505
20
4.87360423533167
30
0
0
SPLINE
5
15B
100
AcDbEntity
8
1
62
256
6
ByLayer
370
18
48
1
60
0
100
AcDbSpline
70
4
71
3
72
8
73
4
40
0
40
0
40
0
40
0
40
1
40
1
40
1
40
1
41
1
10
222.449161475253
20
11.2409214151706
30
0
41
1
10
222.395777258265
20
11.2266857120778
30
0
41
1
10
222.342175897807
20
11.2126276355595
30
0
41
1
10
222.288358497587
20
11.1987566462578
30
0
0
SPLINE
5
15C
100
AcDbEntity
8
1
62
256
6
ByLayer
370
18
48
1
60
0
100
AcDbSpline
70
4
71
3
72
18
73
14
40
0
40
0
40
0
40
0
40
0.25
40
0.25
40
0.375
40
0.375
40
0.5
40
0.5
40
0.625
40
0.625
40
0.75
40
0.75
40
1
40
1
40
1
40
1
41
1
10
249.717682856786
20
-1.20460606996528
30
0
41
1
10
249.672386549326
20
-1.40061575501056
30
0
41
1
10
249.616934813121
20
-1.61986088253502
30
0
41
1
10
249.519116242514
20
-1.98222684738698
30
0
41
1
10
249.484160715424
20
-2.10819093568006
30
0
41
1
10
249.410775664572
20
-2.36635796256201
30
0
41
1
10
249.372201427908
20
-2.49909174628749
30
0
41
1
10
249.291396606419
20
-2.77165214433367
30
0
41
1
10
249.249162072728
20
-2.91148641893062
30
0
41
1
10
249.161042618928
20
-3.19823623372861
30
0
41
1
10
249.114950461513
20
-3.34579049333405
30
0
41
1
10
248.973406907183
20
-3.79196409905845
30
0
41
1
10
248.874319216741
20
-4.09544376721706
30
0
41
1
10
248.77058311773
20
-4.40485587521738
30
0
0
SPLINE
5
15D
100
AcDbEntity
8
1
62
256
6
ByLayer
370
18
48
1
60
0
100
AcDbSpline
70
4
71
3
72
8
73
4
40
0
40
0
40
0
40
0
40
1
40
1
40
1
40
1
41
1
10
27
20
-4.87128769613449
30
0
41
1
10
26.3710583495317
20
-4.67251659240804
30
0
41
1
10
25.7420273380543
20
-4.53795946497846
30
0
41
1
10
25.1163401741562
20
-4.4648170583796
30
0
0
SPLINE
5
15E
100
AcDbEntity
8
1
62
256
6
ByLayer
370
18
48
1
60
0
100
AcDbSpline
70
4
71
3
72
14
73
10
40
0
40
0
40
0
40
0
40
0.124362993797271
40
0.124362993797271
40
0.29949039503782
40
0.29949039503782
40
0.64974519751891
40
0.64974519751891
40
1
40
1
40
1
40
1
41
1
10
33.3994674699458
20
-12.1987179600593
30
0
41
1
10
33.359388524147
20
-12.217605756797
30
0
41
1
10
33.3214189139949
20
-12.236380006511
30
0
41
1
10
33.235165779353
20
-12.2811719679281
30
0
41
1
10
33.1891175513313
20
-12.3069810318933
30
0
41
1
10
33.0668394201294
20
-12.381252729693
30
0
41
1
10
33.0051793999778
20
-12.4271421411857
30
0
41
1
10
32.9216348123011
20
-12.5100497068684
30
0
41
1
10
32.8999999999311
20
-12.5471604836267
30
0
41
1
10
32.899999999931
20
-12.5782119716354
30
0
0
SPLINE
5
15F
100
AcDbEntity
8
1
62
256
6
ByLayer
370
18
48
1
60
0
100
AcDbSpline
70
4
71
3
72
18
73
14
40
0
40
0
40
0
40
0
40
0.24999999999996
40
0.24999999999996
40
0.374999999999941
40
0.374999999999941
40
0.499999999999922
40
0.499999999999922
40
0.749999999999961
40
0.749999999999961
40
0.87499999999998
40
0.87499999999998
40
1
40
1
40
1
40
1
41
1
10
215.414373344402
20
8.13214235991114
30
0
41
1
10
215.576820566759
20
8.07652406740544
30
0
41
1
10
215.743908647845
20
8.03328684837291
30
0
41
1
10
216.001412538656
20
7.98747525620348
30
0
41
1
10
216.088399305563
20
7.97539321748803
30
0
41
1
10
216.264752064333
20
7.9578839133257
30
0
41
1
10
216.35415515705
20
7.95249403091904
30
0
41
1
10
216.62137430744
20
7.94683879895973
30
0
41
1
10
216.800453565674
20
7.95703890524479
30
0
41
1
10
217.063652691636
20
7.99262891477017
30
0
41
1
10
217.15091406274
20
8.00791930551983
30
0
41
1
10
217.322432972226
20
8.04486141332447
30
0
41
1
10
217.406773973558
20
8.06650340057047
30
0
41
1
10
217.489712366545
20
8.0912208133112
30
0
0
SPLINE
5
160
100
AcDbEntity
8
1
62
256
6
ByLayer
370
18
48
1
60
0
100
AcDbSpline
70
4
71
3
72
12
73
8
40
0
40
0
40
0
40
0
40
0.0823374168701844
40
0.0823374168701844
40
0.541168708435092
40
0.541168708435092
40
1
40
1
40
1
40
1
41
1
10
239.580674204793
20
12.9854370061868
30
0
41
1
10
239.753232957131
20
12.9860393673018
30
0
41
1
10
239.925807688852
20
12.9858813497811
30
0
41
1
10
241.060326366341
20
12.9798560006949
30
0
41
1
10
242.022702009284
20
12.9512870000144
30
0
41
1
10
243.948125718231
20
12.8469602637953
30
0
41
1
10
244.91077080967
20
12.7708618748998
30
0
41
1
10
245.876287351281
20
12.6717317251407
30
0
0
SPLINE
5
161
100
AcDbEntity
8
1
62
256
6
ByLayer
370
18
48
1
60
0
100
AcDbSpline
70
4
71
3
72
8
73
4
40
0
40
0
40
0
40
0
40
1
40
1
40
1
40
1
41
1
10
247.168012106106
20
-9.08138935064983
30
0
41
1
10
246.819357299043
20
-10.1550017068779
30
0
41
1
10
246.464553678325
20
-11.2354324414292
30
0
41
1
10
246.103343473607
20
-12.3229673941152
30
0
0
SPLINE
5
162
100
AcDbEntity
8
1
62
256
6
ByLayer
370
18
48
1
60
0
100
AcDbSpline
70
4
71
3
72
8
73
4
40
0
40
0
40
0
40
0
40
1
40
1
40
1
40
1
41
1
10
239.704230448127
20
0.881625431260971
30
0
41
1
10
239.746382791299
20
0.882098060404161
30
0
41
1
10
239.788535126372
20
0.882679853984484
30
0
41
1
10
239.830687454106
20
0.883370587079952
30
0
0
SPLINE
5
163
100
AcDbEntity
8
1
62
256
6
ByLayer
370
18
48
1
60
0
100
AcDbSpline
70
4
71
3
72
8
73
4
40
0
40
0
40
0
40
0
40
1
40
1
40
1
40
1
41
1
10
233.6
20
-12.1026846195379
30
0
41
1
10
233.566666666667
20
-12.1347023037166
30
0
41
1
10
233.533333333333
20
-12.1667199878953
30
0
41
1
10
233.5
20
-12.1987376720739
30
0
0
SPLINE
5
164
100
AcDbEntity
8
1
62
256
6
ByLayer
370
18
48
1
60
0
100
AcDbSpline
70
4
71
3
72
12
73
8
40
0
40
0
40
0
40
0
40
0.500000000000001
40
0.500000000000001
40
0.750000000000001
40
0.750000000000001
40
1
40
1
40
1
40
1
41
1
10
248.613426609505
20
-4.87360423533525
30
0
41
1
10
248.362192663415
20
-5.56991630465245
30
0
41
1
10
248.1155460848
20
-6.26945916983598
30
0
41
1
10
247.752907998114
20
-7.32393710201163
30
0
41
1
10
247.633261734744
20
-7.67629819419784
30
0
41
1
10
247.396682601578
20
-8.3829313701776
30
0
41
1
10
247.280947772029
20
-8.73362668127527
30
0
41
1
10
247.168012106106
20
-9.08138935064983
30
0
0
SPLINE
5
165
100
AcDbEntity
8
1
62
256
6
ByLayer
370
18
48
1
60
0
100
AcDbSpline
70
4
71
3
72
8
73
4
40
0
40
0
40
0
40
0
40
1
40
1
40
1
40
1
41
1
10
233.503866138357
20
-12.5281102711415
30
0
41
1
10
233.50257741371
20
-12.5292460734518
30
0
41
1
10
233.501288700918
20
-12.5303817556121
30
0
41
1
10
233.5
20
-12.5315173175869
30
0
0
SPLINE
5
166
100
AcDbEntity
8
1
62
256
6
ByLayer
370
18
48
1
60
0
100
AcDbSpline
70
4
71
3
72
58
73
54
40
0
40
0
40
0
40
0
40
0.0237744151708395
40
0.0237744151708395
40
0.052697046942188
40
0.052697046942188
40
0.0816196787135366
40
0.0816196787135366
40
0.110542310484885
40
0.110542310484885
40
0.139464942256234
40
0.139464942256234
40
0.168387574027582
40
0.168387574027582
40
0.197310205798931
40
0.197310205798931
40
0.255155469341629
40
0.255155469341629
40
0.284078101112978
40
0.284078101112978
40
0.313000732884328
40
0.313000732884328
40
0.341923364655677
40
0.341923364655677
40
0.370845996427026
40
0.370845996427026
40
0.428691259969725
40
0.428691259969725
40
0.486536523512423
40
0.486536523512423
40
0.544381787055122
40
0.544381787055122
40
0.573304418826471
40
0.573304418826471
40
0.60222705059782
40
0.60222705059782
40
0.660072314140519
40
0.660072314140519
40
0.717917577683217
40
0.717917577683217
40
0.775762841225916
40
0.775762841225916
40
0.804685472997265
40
0.804685472997265
40
0.833608104768614
40
0.833608104768614
40
0.891453368311312
40
0.891453368311312
40
0.920376000082661
40
0.920376000082661
40
0.949298631854011
40
0.949298631854011
40
1
40
1
40
1
40
1
41
1
10
212.069786356378
20
-8.77382254903804
30
0
41
1
10
211.25375724305
20
-8.94727979980843
30
0
41
1
10
210.437674431438
20
-9.11371002613893
30
0
41
1
10
208.628321207933
20
-9.46648469827934
30
0
41
1
10
207.634589833865
20
-9.64932120594216
30
0
41
1
10
205.648677509231
20
-9.99275820626315
30
0
41
1
10
204.656275727712
20
-10.1532041949699
30
0
41
1
10
202.672100050613
20
-10.4537586403084
30
0
41
1
10
201.680346973687
20
-10.5938619570393
30
0
41
1
10
199.696807381041
20
-10.8502749228038
30
0
41
1
10
198.705028136429
20
-10.9669202834575
30
0
41
1
10
196.720782557254
20
-11.175852360028
30
0
41
1
10
195.728312399316
20
-11.2681140299792
30
0
41
1
10
193.742054833765
20
-11.4275012891607
30
0
41
1
10
192.747877311155
20
-11.4946470258951
30
0
41
1
10
189.765755042599
20
-11.6568257777651
30
0
41
1
10
187.778581277964
20
-11.712105646262
30
0
41
1
10
184.796001625337
20
-11.7155416383406
30
0
41
1
10
183.801628008844
20
-11.703444883509
30
0
41
1
10
181.813856370716
20
-11.653526414085
30
0
41
1
10
180.820201603928
20
-11.615700650117
30
0
41
1
10
178.832876065265
20
-11.5151469598896
30
0
41
1
10
177.838910718457
20
-11.4523657285222
30
0
41
1
10
175.851601310938
20
-11.3016078101765
30
0
41
1
10
174.858713995143
20
-11.2137566454139
30
0
41
1
10
171.881254540844
20
-10.9132227989427
30
0
41
1
10
169.897848457299
20
-10.6634879172416
30
0
41
1
10
165.928670627257
20
-10.0715641721889
30
0
41
1
10
163.942750270128
20
-9.72889227776955
30
0
41
1
10
159.965129939449
20
-8.95758527953453
30
0
41
1
10
157.977895969208
20
-8.52996091771556
30
0
41
1
10
154.996424637097
20
-7.83472239144726
30
0
41
1
10
154.002300659215
20
-7.59392028353517
30
0
41
1
10
152.01496768965
20
-7.09602974989568
30
0
41
1
10
151.021593736692
20
-6.83895527267663
30
0
41
1
10
148.041214176248
20
-6.04580164089964
30
0
41
1
10
146.052514408917
20
-5.48739067298524
30
0
41
1
10
142.080405692225
20
-4.33015710760111
30
0
41
1
10
140.096084317254
20
-3.73085909996433
30
0
41
1
10
136.126694242872
20
-2.50365307329952
30
0
41
1
10
134.141575808194
20
-1.87590134003352
30
0
41
1
10
131.160434150588
20
-0.922856458645441
30
0
41
1
10
130.166437033458
20
-0.603314447251165
30
0
41
1
10
128.179516487585
20
0.0363780014253052
30
0
41
1
10
127.186254732451
20
0.356642534937663
30
0
41
1
10
124.205920413277
20
1.31511966102815
30
0
41
1
10
122.217894579931
20
1.95098334466328
30
0
41
1
10
119.236897980402
20
2.88494819245861
30
0
41
1
10
118.24315610673
20
3.19306937168943
30
0
41
1
10
116.254984740586
20
3.80122967127596
30
0
41
1
10
115.260518276665
20
4.10131228212583
30
0
41
1
10
112.525532123484
20
4.91300501111627
30
0
41
1
10
110.785836540996
20
5.4139865203137
30
0
41
1
10
109.046615758194
20
5.89625116569519
30
0
0
SPLINE
5
167
100
AcDbEntity
8
1
62
256
6
ByLayer
370
18
48
1
60
0
100
AcDbSpline
70
4
71
3
72
9
73
5
40
0
40
0
40
0
40
0
40
0.497166272490296
40
1
40
1
40
1
40
1
41
1
10
233.600000001669
20
11.6783067539704
30
0
41
1
10
233.584512543705
20
11.7108549367236
30
0
41
1
10
233.553361078249
20
11.7763223357695
30
0
41
1
10
233.521242146379
20
11.8413709004818
30
0
41
1
10
233.505091664143
20
11.8740795127453
30
0
0
SPLINE
5
168
100
AcDbEntity
8
1
62
256
6
ByLayer
370
18
48
1
60
0
100
AcDbSpline
70
2053
71
3
72
39
73
35
40
0
40
0
40
0
40
0
40
0.0312274986300879
40
0.0623406575480002
40
0.0935505474024165
40
0.124837589765488
40
0.15601556854507
40
0.187400999425906
40
0.218629040411416
40
0.250022797136315
40
0.281372037317239
40
0.31265707996804
40
0.344044224832047
40
0.375225641073741
40
0.406521179261952
40
0.437675755721588
40
0.468933495856175
40
0.500169731272859
40
0.531274746015378
40
0.562437292360311
40
0.593694179786609
40
0.624836827084457
40
0.656185637017864
40
0.687405690682116
40
0.718762916570266
40
0.750122934511725
40
0.781400696560151
40
0.812814613614219
40
0.844037125517218
40
0.875364557691911
40
0.906590061164648
40
0.937734797568818
40
0.968961938611426
40
1
40
1
40
1
40
1
41
1
10
228.08
20
-7.00121363661334
30
0
41
1
10
228.251846984909
20
-7.00121445922174
30
0
41
1
10
228.594920414484
20
-7.03044857885732
30
0
41
1
10
229.088679575222
20
-7.15885735943596
30
0
41
1
10
229.542449216808
20
-7.36352928798775
30
0
41
1
10
229.939308103338
20
-7.63252275374424
30
0
41
1
10
230.265388190026
20
-7.95161401202546
30
0
41
1
10
230.507895309278
20
-8.30422860917474
30
0
41
1
10
230.65791161455
20
-8.67466580694776
30
0
41
1
10
230.708676497946
20
-9.04536563704514
30
0
41
1
10
230.657806527055
20
-9.40105433197945
30
0
41
1
10
230.507671792805
20
-9.72826491205041
30
0
41
1
10
230.26483627538
20
-10.0163459548508
30
0
41
1
10
229.938555337794
20
-10.2588683611295
30
0
41
1
10
229.541736124548
20
-10.4508129835385
30
0
41
1
10
229.08743883009
20
-10.5899166381683
30
0
41
1
10
228.593036567475
20
-10.6740515285114
30
0
41
1
10
228.07788895428
20
-10.7020073040631
30
0
41
1
10
227.563393713109
20
-10.6735839069224
30
0
41
1
10
227.069829309188
20
-10.5892775876377
30
0
41
1
10
226.616471832553
20
-10.4500983678711
30
0
41
1
10
226.219479979136
20
-10.2576959812508
30
0
41
1
10
225.894063353798
20
-10.0153245029908
30
0
41
1
10
225.651480465285
20
-9.72684245803688
30
0
41
1
10
225.501776895792
20
-9.39980551675347
30
0
41
1
10
225.451382369267
20
-9.04413803149913
30
0
41
1
10
225.502468722001
20
-8.67312462605892
30
0
41
1
10
225.652733650283
20
-8.30304588321542
30
0
41
1
10
225.896045539727
20
-7.94993062567897
30
0
41
1
10
226.222207820356
20
-7.63123377228564
30
0
41
1
10
226.61950853744
20
-7.36250280660906
30
0
41
1
10
227.073370093966
20
-7.1581109792391
30
0
41
1
10
227.566554600017
20
-7.03023115407811
30
0
41
1
10
227.909195500727
20
-7.00121281899519
30
0
41
1
10
228.08
20
-7.00121363661334
30
0
0
SPLINE
5
169
100
AcDbEntity
8
1
62
256
6
ByLayer
370
18
48
1
60
0
100
AcDbSpline
70
4
71
3
72
12
73
8
40
0
40
0
40
0
40
0
40
0.500000000000007
40
0.500000000000007
40
0.750000000000003
40
0.750000000000003
40
1
40
1
40
1
40
1
41
1
10
222.449161475255
20
11.2409214151689
30
0
41
1
10
224.290104653237
20
11.5588301015104
30
0
41
1
10
226.130156839132
20
11.8273058735553
30
0
41
1
10
228.894217388388
20
12.1511781023995
30
0
41
1
10
229.815751837937
20
12.2459225938406
30
0
41
1
10
231.657977681078
20
12.4086911296375
30
0
41
1
10
232.578937715571
20
12.4767625734892
30
0
41
1
10
233.5
20
12.5315173175869
30
0
0
SPLINE
5
16A
100
AcDbEntity
8
1
62
256
6
ByLayer
370
18
48
1
60
0
100
AcDbSpline
70
4
71
3
72
8
73
4
40
0
40
0
40
0
40
0
40
1
40
1
40
1
40
1
41
1
10
29.6
20
-5.87086200232238
30
0
41
1
10
28.734109283302
20
-5.53924802636044
30
0
41
1
10
27.8676005261793
20
-5.20564827459694
30
0
41
1
10
27
20
-4.87128769613446
30
0
0
SPLINE
5
16B
100
AcDbEntity
8
1
62
256
6
ByLayer
370
18
48
1
60
0
100
AcDbSpline
70
4
71
3
72
8
73
4
40
0
40
0
40
0
40
0
40
1
40
1
40
1
40
1
41
1
10
223
20
6.70354015207829
30
0
41
1
10
221.376068841846
20
7.18576925559273
30
0
41
1
10
219.753047563786
20
7.64488826796543
30
0
41
1
10
218.129113508859
20
8.07711626916574
30
0
0
SPLINE
5
16C
100
AcDbEntity
8
1
62
256
6
ByLayer
370
13
48
1
60
0
100
AcDbSpline
70
4
71
3
72
10
73
6
40
0
40
0
40
0
40
0
40
0.0192914967995626
40
0.0192914967995626
40
1
40
1
40
1
40
1
41
1
10
246.328161190411
20
4.43382349709151
30
0
41
1
10
246.32816546229
20
4.43380412902715
30
0
41
1
10
246.328169734475
20
4.43378476102538
30
0
41
1
10
246.328391157016
20
4.43278078875323
30
0
41
1
10
246.328607515443
20
4.43179602088031
30
0
41
1
10
246.328823081099
20
4.43081109120408
30
0
0
SPLINE
5
16D
100
AcDbEntity
8
1
62
256
6
ByLayer
370
18
48
1
60
0
100
AcDbSpline
70
4
71
3
72
12
73
8
40
0
40
0
40
0
40
0
40
0.41273637606682
40
0.41273637606682
40
0.70636813067277
40
0.70636813067277
40
1
40
1
40
1
40
1
41
1
10
233.599999999299
20
12.4261265361855
30
0
41
1
10
233.586783462772
20
12.4401613542344
30
0
41
1
10
233.573562997756
20
12.4541944885976
30
0
41
1
10
233.550930481919
20
12.4782083416847
30
0
41
1
10
233.541520350763
20
12.4881898784717
30
0
41
1
10
233.522696173721
20
12.5081513049769
30
0
41
1
10
233.513282126913
20
12.5181311956693
30
0
41
1
10
233.503866137599
20
12.5281102722673
30
0
0
SPLINE
5
16E
100
AcDbEntity
8
1
62
256
6
ByLayer
370
18
48
1
60
0
100
AcDbSpline
70
4
71
3
72
8
73
4
40
0
40
0
40
0
40
0
40
1
40
1
40
1
40
1
41
1
10
240.875999397058
20
-2.96950776757521
30
0
41
1
10
240.837079342287
20
-2.97254231888419
30
0
41
1
10
240.798161230629
20
-2.97551137522879
30
0
41
1
10
240.759245062982
20
-2.97841490744628
30
0
0
SPLINE
5
16F
100
AcDbEntity
8
1
62
256
6
ByLayer
370
18
48
1
60
0
100
AcDbSpline
70
4
71
3
72
28
73
24
40
0
40
0
40
0
40
0
40
0.0624999999999977
40
0.0624999999999977
40
0.124999999999995
40
0.124999999999995
40
0.249999999999991
40
0.249999999999991
40
0.312499999999988
40
0.312499999999988
40
0.374999999999986
40
0.374999999999986
40
0.499999999999981
40
0.499999999999981
40
0.624999999999977
40
0.624999999999977
40
0.687499999999978
40
0.687499999999978
40
0.74999999999998
40
0.74999999999998
40
0.87499999999999
40
0.87499999999999
40
1
40
1
40
1
40
1
41
1
10
242.479134206368
20
1.91061037142947
30
0
41
1
10
242.455973080865
20
1.80648637781084
30
0
41
1
10
242.430482535074
20
1.70644458734944
30
0
41
1
10
242.374714059175
20
1.51527200126276
30
0
41
1
10
242.344748853268
20
1.42520183283483
30
0
41
1
10
242.248691305211
20
1.17132506082419
30
0
41
1
10
242.176461551578
20
1.02378719718897
30
0
41
1
10
242.055706066413
20
0.835378467713468
30
0
41
1
10
242.013379700904
20
0.778074635961758
30
0
41
1
10
241.924479970761
20
0.674724702938562
30
0
41
1
10
241.877799032763
20
0.628590862686565
30
0
41
1
10
241.731853664315
20
0.508264256552053
30
0
41
1
10
241.628389804804
20
0.453310542790064
30
0
41
1
10
241.409697256748
20
0.391599882483831
30
0
41
1
10
241.294466563986
20
0.384851146570554
30
0
41
1
10
241.112770350433
20
0.410984395811738
30
0
41
1
10
241.050502679281
20
0.42585739152787
30
0
41
1
10
240.924766176334
20
0.467262345379908
30
0
41
1
10
240.861160509672
20
0.493772755331463
30
0
41
1
10
240.668213210767
20
0.590082366782156
30
0
41
1
10
240.536749740769
20
0.676593309177264
30
0
41
1
10
240.268367446705
20
0.892581939878511
30
0
41
1
10
240.130911228021
20
1.02272854365199
30
0
41
1
10
239.992708964606
20
1.17225329757963
30
0
0
SPLINE
5
170
100
AcDbEntity
8
1
62
256
6
ByLayer
370
18
48
1
60
0
100
AcDbSpline
70
4
71
3
72
60
73
56
40
0
40
0
40
0
40
0
40
0.0305962174065542
40
0.0305962174065542
40
0.0944715328630522
40
0.0944715328630522
40
0.126409190591302
40
0.126409190591302
40
0.158346848319551
40
0.158346848319551
40
0.1902845060478
40
0.1902845060478
40
0.22222216377605
40
0.22222216377605
40
0.254159821504299
40
0.254159821504299
40
0.286097479232549
40
0.286097479232549
40
0.318035136960798
40
0.318035136960798
40
0.349972794689048
40
0.349972794689048
40
0.381910452417297
40
0.381910452417297
40
0.413848110145546
40
0.413848110145546
40
0.477723425602045
40
0.477723425602045
40
0.509661083330295
40
0.509661083330295
40
0.541598741058544
40
0.541598741058544
40
0.605474056515044
40
0.605474056515044
40
0.637411714243294
40
0.637411714243294
40
0.669349371971544
40
0.669349371971544
40
0.733224687428045
40
0.733224687428045
40
0.797100002884546
40
0.797100002884546
40
0.829037660612796
40
0.829037660612796
40
0.860975318341046
40
0.860975318341046
40
0.892912976069296
40
0.892912976069296
40
0.924850633797547
40
0.924850633797547
40
0.956788291525797
40
0.956788291525797
40
0.988725949254047
40
0.988725949254047
40
1
40
1
40
1
40
1
41
1
10
98.7213841340533
20
8.64137447503933
30
0
41
1
10
99.674217549586
20
8.85558454545082
30
0
41
1
10
100.626611048545
20
9.06023092257257
30
0
41
1
10
103.565711824841
20
9.66344339174816
30
0
41
1
10
105.551018287542
20
10.0319519617702
30
0
41
1
10
108.529698951938
20
10.5111952541401
30
0
41
1
10
109.522744014887
20
10.6587194441448
30
0
41
1
10
111.509676048663
20
10.9295737984842
30
0
41
1
10
112.503591789678
20
11.0526700516254
30
0
41
1
10
114.492526622726
20
11.2765520243443
30
0
41
1
10
115.487112117781
20
11.3776818493004
30
0
41
1
10
117.475262107708
20
11.5549105406951
30
0
41
1
10
118.469125465313
20
11.6310184268068
30
0
41
1
10
120.457321856057
20
11.7559191640758
30
0
41
1
10
121.45193609031
20
11.8046624650055
30
0
41
1
10
123.441017603316
20
11.8748767869197
30
0
41
1
10
124.435346147095
20
11.8961330444358
30
0
41
1
10
126.424137787869
20
11.9131660734457
30
0
41
1
10
127.418559400323
20
11.9092910790608
30
0
41
1
10
129.408051551826
20
11.8746465113868
30
0
41
1
10
130.403066161361
20
11.8438427546236
30
0
41
1
10
132.391045448344
20
11.7545254143422
30
0
41
1
10
133.384435108397
20
11.6959640928025
30
0
41
1
10
135.37061773561
20
11.5526398743009
30
0
41
1
10
136.363427002186
20
11.4676722901893
30
0
41
1
10
139.341560676432
20
11.1777298321637
30
0
41
1
10
141.326333716437
20
10.9384754110219
30
0
41
1
10
144.307862325005
20
10.5040269922808
30
0
41
1
10
145.302684885866
20
10.3466765645971
30
0
41
1
10
147.291300721081
20
10.0091551295566
30
0
41
1
10
148.285492505298
20
9.82878801985513
30
0
41
1
10
151.268534996738
20
9.2570867735989
30
0
41
1
10
153.258479837006
20
8.83525740526028
30
0
41
1
10
156.241609953936
20
8.1430825870527
30
0
41
1
10
157.235915286265
20
7.90255301651484
30
0
41
1
10
159.224947175891
20
7.40400734250005
30
0
41
1
10
160.220025562804
20
7.14580576764459
30
0
41
1
10
163.202361127374
20
6.34982188672029
30
0
41
1
10
165.1874252418
20
5.79043051556556
30
0
41
1
10
169.157455967953
20
4.62342944409443
30
0
41
1
10
171.142678121768
20
4.01637373646153
30
0
41
1
10
174.124671816202
20
3.08426223194007
30
0
41
1
10
175.119670217347
20
2.76982268600307
30
0
41
1
10
177.109186813323
20
2.13559962604049
30
0
41
1
10
178.103639706221
20
1.81585392160946
30
0
41
1
10
180.092593395446
20
1.1729561495689
30
0
41
1
10
181.087108267026
20
0.849838556347521
30
0
41
1
10
183.076765190061
20
0.202110902083064
30
0
41
1
10
184.071757717374
20
-0.122389762421506
30
0
41
1
10
186.060662000534
20
-0.77101100982253
30
0
41
1
10
187.054784028588
20
-1.09538684693661
30
0
41
1
10
189.043155188162
20
-1.74165757418351
30
0
41
1
10
190.037755885674
20
-2.06364077485551
30
0
41
1
10
191.383047041951
20
-2.49522363818554
30
0
41
1
10
191.733950149445
20
-2.60741029456486
30
0
41
1
10
192.084781628188
20
-2.71914668474483
30
0
0
SPLINE
5
171
100
AcDbEntity
8
1
62
256
6
ByLayer
370
18
48
1
60
0
100
AcDbSpline
70
4
71
3
72
12
73
8
40
0
40
0
40
0
40
0
40
0.249999999999998
40
0.249999999999998
40
0.499999999999996
40
0.499999999999996
40
1
40
1
40
1
40
1
41
1
10
223
20
6.70311855814518
30
0
41
1
10
224.39267934085
20
6.26540862720447
30
0
41
1
10
225.785523790842
20
5.81143918692368
30
0
41
1
10
228.5736276136
20
4.87592591062793
30
0
41
1
10
229.970289472374
20
4.39372663268429
30
0
41
1
10
234.15040717291
20
2.92248140842858
30
0
41
1
10
236.927279467877
20
1.90621639346054
30
0
41
1
10
239.704240921378
20
0.881650090207899
30
0
0
SPLINE
5
172
100
AcDbEntity
8
1
62
256
6
ByLayer
370
18
48
1
60
0
100
AcDbSpline
70
4
71
3
72
64
73
60
40
0
40
0
40
0
40
0
40
0.0484437401157086
40
0.0484437401157086
40
0.0726656101735623
40
0.0726656101735623
40
0.096887480231416
40
0.096887480231416
40
0.12110935028927
40
0.12110935028927
40
0.145331220347123
40
0.145331220347123
40
0.169553090404977
40
0.169553090404977
40
0.193774960462831
40
0.193774960462831
40
0.242218700578538
40
0.242218700578538
40
0.290662440694245
40
0.290662440694245
40
0.314884310752099
40
0.314884310752099
40
0.339106180809952
40
0.339106180809952
40
0.387549920925658
40
0.387549920925658
40
0.411771790983511
40
0.411771790983511
40
0.435993661041365
40
0.435993661041365
40
0.484437401157071
40
0.484437401157071
40
0.532881141272777
40
0.532881141272777
40
0.55710301133063
40
0.55710301133063
40
0.581324881388483
40
0.581324881388483
40
0.62976862150419
40
0.62976862150419
40
0.678212361619896
40
0.678212361619896
40
0.726656101735602
40
0.726656101735602
40
0.775099841851308
40
0.775099841851308
40
0.799321711909162
40
0.799321711909162
40
0.823543581967015
40
0.823543581967015
40
0.871987322082722
40
0.871987322082722
40
0.92043106219843
40
0.92043106219843
40
0.944652932256284
40
0.944652932256284
40
0.968874802314137
40
0.968874802314137
40
1
40
1
40
1
40
1
41
1
10
220.776567275987
20
-10.7023027374236
30
0
41
1
10
218.78727759156
20
-10.3312849107529
30
0
41
1
10
216.800527285045
20
-9.91185014934103
30
0
41
1
10
213.820209054577
20
-9.21541851894875
30
0
41
1
10
212.826482850828
20
-8.97209114757851
30
0
41
1
10
210.841203450065
20
-8.46654345914422
30
0
41
1
10
209.849442428938
20
-8.20372272066874
30
0
41
1
10
207.864666320592
20
-7.66497972401049
30
0
41
1
10
206.872284490653
20
-7.38769609114544
30
0
41
1
10
204.887846087254
20
-6.81665379665048
30
0
41
1
10
203.895658810538
20
-6.52318908214107
30
0
41
1
10
201.910775632438
20
-5.92170385714624
30
0
41
1
10
200.918058807721
20
-5.61373032779412
30
0
41
1
10
198.931231461147
20
-4.98541404811752
30
0
41
1
10
197.936622155533
20
-4.66493369480602
30
0
41
1
10
194.956138398493
20
-3.69039141590838
30
0
41
1
10
192.972425736831
20
-3.02145550944371
30
0
41
1
10
189.006358869413
20
-1.6595001120526
30
0
41
1
10
187.023864060862
20
-0.966824480230969
30
0
41
1
10
184.044067098574
20
0.0698544915751427
30
0
41
1
10
183.049300450013
20
0.415506380309608
30
0
41
1
10
181.061571192325
20
1.10447629985788
30
0
41
1
10
180.068447520702
20
1.44777376048765
30
0
41
1
10
177.090608203235
20
2.4721126171392
30
0
41
1
10
175.107401923847
20
3.14749801244062
30
0
41
1
10
172.130720147805
20
4.13542122041792
30
0
41
1
10
171.138252895463
20
4.46074534347665
30
0
41
1
10
169.152351767774
20
5.10203830562222
30
0
41
1
10
168.158309889765
20
5.41812072346303
30
0
41
1
10
165.178224631186
20
6.34754234902093
30
0
41
1
10
163.195245910273
20
6.94151848117477
30
0
41
1
10
159.227527550578
20
8.05633361913777
30
0
41
1
10
157.243274360836
20
8.57859522390854
30
0
41
1
10
154.263908661234
20
9.30408854775587
30
0
41
1
10
153.269803885812
20
9.53626815445909
30
0
41
1
10
151.281831848158
20
9.97901117936223
30
0
41
1
10
150.288725030509
20
10.1893875332058
30
0
41
1
10
147.310765345051
20
10.7854223860849
30
0
41
1
10
145.327728943927
20
11.1367613759806
30
0
41
1
10
141.361092803425
20
11.7390083568943
30
0
41
1
10
139.376956827082
20
11.989507933234
30
0
41
1
10
135.400377720078
20
12.3797581924192
30
0
41
1
10
133.414797908913
20
12.5197283309217
30
0
41
1
10
129.445930354945
20
12.688744518752
30
0
41
1
10
127.462558835639
20
12.7174901757579
30
0
41
1
10
124.484177756623
20
12.6759051732287
30
0
41
1
10
123.490890585443
20
12.6479603668415
30
0
41
1
10
121.502866639149
20
12.5637459008506
30
0
41
1
10
120.509592733312
20
12.5075335237904
30
0
41
1
10
117.532334244654
20
12.2970698537821
30
0
41
1
10
115.55029074984
20
12.1006532607337
30
0
41
1
10
111.582530803274
20
11.6044280742977
30
0
41
1
10
109.597242113908
20
11.3046279332315
30
0
41
1
10
106.614863126821
20
10.7802577925062
30
0
41
1
10
105.620798231785
20
10.5931765949899
30
0
41
1
10
103.634810617678
20
10.1961682912753
30
0
41
1
10
102.642457767257
20
9.98617745123974
30
0
41
1
10
100.375404172343
20
9.48190838318908
30
0
41
1
10
99.1010180099548
20
9.18034121995862
30
0
41
1
10
97.8264886879061
20
8.86200601616918
30
0
0
SPLINE
5
173
100
AcDbEntity
8
1
62
256
6
ByLayer
370
18
48
1
60
0
100
AcDbSpline
70
4
71
3
72
18
73
14
40
0
40
0
40
0
40
0
40
0.24999999999999
40
0.24999999999999
40
0.374999999999992
40
0.374999999999992
40
0.499999999999993
40
0.499999999999993
40
0.624999999999995
40
0.624999999999995
40
0.749999999999997
40
0.749999999999997
40
1
40
1
40
1
40
1
41
1
10
23.5299842374615
20
-4.18925100678703
30
0
41
1
10
23.3905118959347
20
-4.11409573677952
30
0
41
1
10
23.2647127697932
20
-4.02176193249278
30
0
41
1
10
23.0958668887603
20
-3.85611102312501
30
0
41
1
10
23.0426188036774
20
-3.79594229458692
30
0
41
1
10
22.9443384191113
20
-3.66787137353538
30
0
41
1
10
22.8995998439941
20
-3.60048092778823
30
0
41
1
10
22.8182211296992
20
-3.45929594173756
30
0
41
1
10
22.7815832313851
20
-3.38550017584612
30
0
41
1
10
22.7159029689909
20
-3.23168601806543
30
0
41
1
10
22.6867345831977
20
-3.15116375560268
30
0
41
1
10
22.6115186487457
20
-2.90561297923838
30
0
41
1
10
22.5770994763322
20
-2.73600800184562
30
0
41
1
10
22.55483150811
20
-2.56148838606421
30
0
0
SPLINE
5
174
100
AcDbEntity
8
1
62
256
6
ByLayer
370
18
48
1
60
0
100
AcDbSpline
70
4
71
3
72
8
73
4
40
0
40
0
40
0
40
0
40
1
40
1
40
1
40
1
41
1
10
29.6000000000001
20
11.3006495212671
30
0
41
1
10
29.8028701258489
20
11.2822685458876
30
0
41
1
10
29.9979243349205
20
11.2544173450013
30
0
41
1
10
30.1854690561469
20
11.2167075482003
30
0
0
SPLINE
5
175
100
AcDbEntity
8
1
62
256
6
ByLayer
370
18
48
1
60
0
100
AcDbSpline
70
4
71
3
72
18
73
14
40
0
40
0
40
0
40
0
40
0.249999999999933
40
0.249999999999933
40
0.374999999999944
40
0.374999999999944
40
0.499999999999955
40
0.499999999999955
40
0.749999999999976
40
0.749999999999976
40
0.874999999999988
40
0.874999999999988
40
1
40
1
40
1
40
1
41
1
10
220.997188440288
20
10.2513992017898
30
0
41
1
10
221.129738665806
20
10.278166763506
30
0
41
1
10
221.256980944815
20
10.3211973352528
30
0
41
1
10
221.440423910428
20
10.4083316324461
30
0
41
1
10
221.500544995166
20
10.4412791100347
30
0
41
1
10
221.61741175958
20
10.5138587105193
30
0
41
1
10
221.673544049139
20
10.5530650507028
30
0
41
1
10
221.835862538039
20
10.6783243510408
30
0
41
1
10
221.936018856314
20
10.7719552819387
30
0
41
1
10
222.076310523341
20
10.9246207694398
30
0
41
1
10
222.121474599605
20
10.9776733104655
30
0
41
1
10
222.207693814719
20
11.0862361171512
30
0
41
1
10
222.248888860951
20
11.1418855469687
30
0
41
1
10
222.288358497587
20
11.1987566462577
30
0
0
SPLINE
5
176
100
AcDbEntity
8
1
62
256
6
ByLayer
370
18
48
1
60
0
100
AcDbSpline
70
4
71
3
72
12
73
8
40
0
40
0
40
0
40
0
40
0.51993711144189
40
0.51993711144189
40
0.779905667162834
40
0.779905667162834
40
1
40
1
40
1
40
1
41
1
10
233.745421537682
20
-12.4719276141433
30
0
41
1
10
234.765613231868
20
-12.5712840223758
30
0
41
1
10
235.784664576881
20
-12.6444840702776
30
0
41
1
10
237.311152173287
20
-12.7159498140867
30
0
41
1
10
237.819640204639
20
-12.7333600942297
30
0
41
1
10
238.757998306094
20
-12.7536053697173
30
0
41
1
10
239.187911411791
20
-12.758248482728
30
0
41
1
10
239.618020367098
20
-12.7582485986085
30
0
0
SPLINE
5
177
100
AcDbEntity
8
1
62
256
6
ByLayer
370
18
48
1
60
0
100
AcDbSpline
70
4
71
3
72
31
73
27
40
0
40
0
40
0
40
0
40
0.0197918803555744
40
0.0394604733039289
40
0.0590059268059623
40
0.0784283916374194
40
0.0977280214571362
40
0.116904972877276
40
0.135959405535554
40
0.154891482169574
40
0.173701368693312
40
0.19238923427582
40
0.21095525142223
40
0.229399596057136
40
0.247722447610405
40
0.265923989105532
40
0.399430400454889
40
0.528665392277623
40
0.660027135048946
40
0.788526710741537
40
0.824091772773867
40
0.859525314121057
40
0.894830098460083
40
0.930008919814119
40
0.965064602325437
40
1
40
1
40
1
40
1
41
1
10
242.640784393615
20
-10.51238383023
30
0
41
1
10
242.622763242307
20
-10.4781900843609
30
0
41
1
10
242.586833196887
20
-10.4100155920038
30
0
41
1
10
242.533728695927
20
-10.3052815357455
30
0
41
1
10
242.481418187278
20
-10.1992065626466
30
0
41
1
10
242.429945493469
20
-10.0916450533048
30
0
41
1
10
242.37929898224
20
-9.98270488107045
30
0
41
1
10
242.329481740727
20
-9.87242600812459
30
0
41
1
10
242.280492948866
20
-9.7608657730899
30
0
41
1
10
242.232332825193
20
-9.64807623987957
30
0
41
1
10
242.185001306616
20
-9.53411017469679
30
0
41
1
10
242.138498426921
20
-9.41901950317111
30
0
41
1
10
242.092824112346
20
-9.30285547927073
30
0
41
1
10
242.047978620108
20
-9.1856694533061
30
0
41
1
10
242.003961001962
20
-9.06750959254131
30
0
41
1
10
241.869485826502
20
-8.69672393982455
30
0
41
1
10
241.65879288692
20
-8.04751553621597
30
0
41
1
10
241.394700977358
20
-7.0565112371547
30
0
41
1
10
241.167992437409
20
-6.0070662831402
30
0
41
1
10
241.023526949723
20
-5.16342531098269
30
0
41
1
10
240.938696928187
20
-4.57755849557211
30
0
41
1
10
240.89645826871
20
-4.26177215282118
30
0
41
1
10
240.857333979094
20
-3.94382813387361
30
0
41
1
10
240.821398328893
20
-3.62390686747503
30
0
41
1
10
240.788372417717
20
-3.30246455972599
30
0
41
1
10
240.768953048867
20
-3.0864279823482
30
0
41
1
10
240.759260051251
20
-2.97859533106032
30
0
0
SPLINE
5
178
100
AcDbEntity
8
1
62
256
6
ByLayer
370
18
48
1
60
0
100
AcDbSpline
70
4
71
3
72
8
73
4
40
0
40
0
40
0
40
0
40
1
40
1
40
1
40
1
41
1
10
233.4
20
3.40369133702455
30
0
41
1
10
233.4
20
3.58132198339007
30
0
41
1
10
233.4
20
3.77874008310479
30
0
41
1
10
233.4
20
3.99581633702454
30
0
0
SPLINE
5
179
100
AcDbEntity
8
1
62
256
6
ByLayer
370
18
48
1
60
0
100
AcDbSpline
70
4
71
3
72
76
73
72
40
0
40
0
40
0
40
0
40
0.0190367542173648
40
0.0190367542173648
40
0.0393104696414598
40
0.0393104696414598
40
0.0595841850655547
40
0.0595841850655547
40
0.0798579004896496
40
0.0798579004896496
40
0.100131615913745
40
0.100131615913745
40
0.140679046761933
40
0.140679046761933
40
0.181226477610122
40
0.181226477610122
40
0.221773908458311
40
0.221773908458311
40
0.242047623882405
40
0.242047623882405
40
0.2623213393065
40
0.2623213393065
40
0.302868770154688
40
0.302868770154688
40
0.343416201002877
40
0.343416201002877
40
0.363689916426971
40
0.363689916426971
40
0.383963631851066
40
0.383963631851066
40
0.40423734727516
40
0.40423734727516
40
0.424511062699254
40
0.424511062699254
40
0.465058493547443
40
0.465058493547443
40
0.505605924395631
40
0.505605924395631
40
0.54615335524382
40
0.54615335524382
40
0.566427070667914
40
0.566427070667914
40
0.586700786092008
40
0.586700786092008
40
0.627248216940197
40
0.627248216940197
40
0.667795647788385
40
0.667795647788385
40
0.688069363212479
40
0.688069363212479
40
0.708343078636573
40
0.708343078636573
40
0.748890509484761
40
0.748890509484761
40
0.789437940332949
40
0.789437940332949
40
0.809711655757044
40
0.809711655757044
40
0.829985371181138
40
0.829985371181138
40
0.870532802029327
40
0.870532802029327
40
0.890806517453421
40
0.890806517453421
40
0.911080232877515
40
0.911080232877515
40
0.951627663725704
40
0.951627663725704
40
0.992175094573893
40
0.992175094573893
40
1
40
1
40
1
40
1
41
1
10
212.385617440538
20
-8.85817144337565
30
0
41
1
10
211.492202842978
20
-9.06321344535229
30
0
41
1
10
210.598764402186
20
-9.26004814651483
30
0
41
1
10
208.753366605483
20
-9.64888268427106
30
0
41
1
10
207.800934719301
20
-9.83988800916362
30
0
41
1
10
205.897380690751
20
-10.2017381166443
30
0
41
1
10
204.946242591349
20
-10.3725769325204
30
0
41
1
10
203.045228874816
20
-10.6934376275545
30
0
41
1
10
202.095571094848
20
-10.8436457457186
30
0
41
1
10
200.196603347936
20
-11.1210030157732
30
0
41
1
10
199.247331334225
20
-11.2483354096215
30
0
41
1
10
196.398862788548
20
-11.5952484235253
30
0
41
1
10
194.498918435351
20
-11.7796806209589
30
0
41
1
10
190.691820580982
20
-12.0516389974534
30
0
41
1
10
188.790859493731
20
-12.1374689696797
30
0
41
1
10
184.989969890902
20
-12.2113663744847
30
0
41
1
10
183.089905390703
20
-12.2000497131463
30
0
41
1
10
180.238370516346
20
-12.1100406948049
30
0
41
1
10
179.287667151819
20
-12.0677637252151
30
0
41
1
10
177.385395373812
20
-11.9573365775152
30
0
41
1
10
176.433676539052
20
-11.8892337462489
30
0
41
1
10
173.58205156399
20
-11.6483211081046
30
0
41
1
10
171.683450332117
20
-11.4388171923926
30
0
41
1
10
167.885110020277
20
-10.9307286450051
30
0
41
1
10
165.985483189794
20
-10.6314213372662
30
0
41
1
10
163.132066396997
20
-10.1195558524429
30
0
41
1
10
162.179767738704
20
-9.93862568605857
30
0
41
1
10
160.276136699088
20
-9.55777782875546
30
0
41
1
10
159.32494974833
20
-9.35788939299155
30
0
41
1
10
157.423537928478
20
-8.93971285114728
30
0
41
1
10
156.473302154503
20
-8.72148866210483
30
0
41
1
10
154.573613199989
20
-8.26628628582134
30
0
41
1
10
153.624153004097
20
-8.02920307757725
30
0
41
1
10
150.775507152784
20
-7.2927853654451
30
0
41
1
10
148.875999048327
20
-6.7685498880717
30
0
41
1
10
145.06988347197
20
-5.67039680300101
30
0
41
1
10
143.168786780602
20
-5.09794500419375
30
0
41
1
10
139.368342535206
20
-3.91827935082026
30
0
41
1
10
137.468446689764
20
-3.31200891828436
30
0
41
1
10
134.616564096845
20
-2.3856190661528
30
0
41
1
10
133.665618344478
20
-2.07392540223731
30
0
41
1
10
131.762803069983
20
-1.44534887641714
30
0
41
1
10
130.810784515949
20
-1.12814737321321
30
0
41
1
10
127.958659704655
20
-0.17343012182576
30
0
41
1
10
126.060287025111
20
0.467265082777317
30
0
41
1
10
122.262758997407
20
1.73666859671039
30
0
41
1
10
120.36361455712
20
2.36546130081797
30
0
41
1
10
117.510922101049
20
3.28946596908875
30
0
41
1
10
116.558873938893
20
3.59436898443499
30
0
41
1
10
114.65533838627
20
4.1955925331776
30
0
41
1
10
113.704157252717
20
4.491819300467
30
0
41
1
10
110.851767443133
20
5.36574987962547
30
0
41
1
10
108.951733184492
20
5.92907452683363
30
0
41
1
10
105.152700283077
20
7.00809398249311
30
0
41
1
10
103.253315337814
20
7.52260455591244
30
0
41
1
10
100.399270518025
20
8.24513346099016
30
0
41
1
10
99.4480597043219
20
8.47755918594694
30
0
41
1
10
97.5469677919654
20
8.92390638431132
30
0
41
1
10
96.5968052573469
20
9.13790694252629
30
0
41
1
10
93.7467776927659
20
9.75025261697263
30
0
41
1
10
91.8472312432941
20
10.1186789014636
30
0
41
1
10
88.995402297477
20
10.6093635182655
30
0
41
1
10
88.0443989586157
20
10.7625534322399
30
0
41
1
10
86.1412912421044
20
11.0475622685111
30
0
41
1
10
85.1888679090746
20
11.1794552264873
30
0
41
1
10
82.335605471158
20
11.5403180286899
30
0
41
1
10
80.4370911782853
20
11.7338972223859
30
0
41
1
10
76.6399920227648
20
12.0229668621716
30
0
41
1
10
74.7413457537974
20
12.118784140796
30
0
41
1
10
72.4730388567273
20
12.1738036860724
30
0
41
1
10
72.1059484381916
20
12.1808169790088
30
0
41
1
10
71.7387649374497
20
12.1859504387546
30
0
0
SPLINE
5
17A
100
AcDbEntity
8
1
62
256
6
ByLayer
370
18
48
1
60
0
100
AcDbSpline
70
4
71
3
72
8
73
4
40
0
40
0
40
0
40
0
40
1
40
1
40
1
40
1
41
1
10
21.8305235608735
20
-1.9811399136473
30
0
41
1
10
22.062608623743
20
-2.19221355834711
30
0
41
1
10
22.3036684442857
20
-2.385409032105
30
0
41
1
10
22.55483150811
20
-2.56148838606421
30
0
0
SPLINE
5
17B
100
AcDbEntity
8
1
62
256
6
ByLayer
370
18
48
1
60
0
100
AcDbSpline
70
4
71
3
72
8
73
4
40
0
40
0
40
0
40
0
40
1
40
1
40
1
40
1
41
1
10
222.449161475253
20
-11.2409214151705
30
0
41
1
10
222.395777258264
20
-11.2266857120778
30
0
41
1
10
222.342175897807
20
-11.2126276355594
30
0
41
1
10
222.288358497587
20
-11.1987566462578
30
0
0
SPLINE
5
17C
100
AcDbEntity
8
1
62
256
6
ByLayer
370
18
48
1
60
0
100
AcDbSpline
70
4
71
3
72
32
73
28
40
0
40
0
40
0
40
0
40
0.0624999999999754
40
0.0624999999999754
40
0.124999999999951
40
0.124999999999951
40
0.249999999999932
40
0.249999999999932
40
0.312499999999938
40
0.312499999999938
40
0.374999999999944
40
0.374999999999944
40
0.43749999999995
40
0.43749999999995
40
0.499999999999956
40
0.499999999999956
40
0.624999999999967
40
0.624999999999967
40
0.687499999999972
40
0.687499999999972
40
0.749999999999978
40
0.749999999999978
40
0.812499999999984
40
0.812499999999984
40
0.87499999999999
40
0.87499999999999
40
1
40
1
40
1
40
1
41
1
10
219.274234313201
20
-7.84437883519408
30
0
41
1
10
219.38537603938
20
-7.86603566387035
30
0
41
1
10
219.497662964892
20
-7.8826240998647
30
0
41
1
10
219.724524852821
20
-7.90580896398257
30
0
41
1
10
219.838970214654
20
-7.91233147202269
30
0
41
1
10
220.179218904949
20
-7.91678490477406
30
0
41
1
10
220.404132209806
20
-7.90009140403387
30
0
41
1
10
220.73858979066
20
-7.84478054537573
30
0
41
1
10
220.849214521936
20
-7.821223432908
30
0
41
1
10
221.063794651247
20
-7.76500352673145
30
0
41
1
10
221.168469158687
20
-7.7322344289131
30
0
41
1
10
221.372678672333
20
-7.65730301194068
30
0
41
1
10
221.472213887959
20
-7.6151416603266
30
0
41
1
10
221.666037113865
20
-7.52093593209224
30
0
41
1
10
221.759949355574
20
-7.46898244588914
30
0
41
1
10
222.026885941609
20
-7.30176952997277
30
0
41
1
10
222.187679049548
20
-7.17421987315791
30
0
41
1
10
222.402715322087
20
-6.95646269296739
30
0
41
1
10
222.469472292706
20
-6.87984584622984
30
0
41
1
10
222.591014298655
20
-6.72112788560523
30
0
41
1
10
222.646183894602
20
-6.63864830909881
30
0
41
1
10
222.745361645844
20
-6.46722686084266
30
0
41
1
10
222.789370976534
20
-6.37828615827863
30
0
41
1
10
222.865821080065
20
-6.19349558178195
30
0
41
1
10
222.897731263563
20
-6.09880632782475
30
0
41
1
10
222.974118057982
20
-5.81071737778382
30
0
41
1
10
223
20
-5.61213068636306
30
0
41
1
10
223
20
-5.40654638183622
30
0
0
SPLINE
5
17D
100
AcDbEntity
8
1
62
256
6
ByLayer
370
18
48
1
60
0
100
AcDbSpline
70
4
71
1
72
4
73
2
40
0
40
0
40
1
40
1
41
1
10
30.1854690561469
20
11.2167075482003
30
0
41
1
10
30.0300434154979
20
10.5838959459238
30
0
0
SPLINE
5
17E
100
AcDbEntity
8
1
62
256
6
ByLayer
370
18
48
1
60
0
100
AcDbSpline
70
4
71
3
72
14
73
10
40
0
40
0
40
0
40
0
40
0.499999999999994
40
0.499999999999994
40
0.624999999999996
40
0.624999999999996
40
0.749999999999997
40
0.749999999999997
40
1
40
1
40
1
40
1
41
1
10
23.6206241663829
20
11.6746565015937
30
0
41
1
10
24.1467957317117
20
11.5052392521445
30
0
41
1
10
24.6913407361631
20
11.3833274082379
30
0
41
1
10
25.39744163746
20
11.2813339275426
30
0
41
1
10
25.5399534758309
20
11.2634852214357
30
0
41
1
10
25.8277111851604
20
11.2327718494564
30
0
41
1
10
25.9733208834976
20
11.2198844630287
30
0
41
1
10
26.4116057436472
20
11.1887647031975
30
0
41
1
10
26.705100441437
20
11.1780527311485
30
0
41
1
10
27
20
11.1762912704124
30
0
0
SPLINE
5
17F
100
AcDbEntity
8
1
62
256
6
ByLayer
370
18
48
1
60
0
100
AcDbSpline
70
4
71
3
72
12
73
8
40
0
40
0
40
0
40
0
40
0.249999999999996
40
0.249999999999996
40
0.499999999999993
40
0.499999999999993
40
1
40
1
40
1
40
1
41
1
10
233.505091665053
20
11.8740795109119
30
0
41
1
10
232.669528586087
20
11.83784632732
30
0
41
1
10
231.834192663789
20
11.7914389069142
30
0
41
1
10
230.163503533312
20
11.6770074164921
30
0
41
1
10
229.328038320701
20
11.6089572298955
30
0
41
1
10
226.823632517567
20
11.3711560151588
30
0
41
1
10
225.155710767697
20
11.1680378948921
30
0
41
1
10
223.486781199941
20
10.9235406934731
30
0
0
SPLINE
5
180
100
AcDbEntity
8
1
62
256
6
ByLayer
370
18
48
1
60
0
100
AcDbSpline
70
4
71
3
72
8
73
4
40
0
40
0
40
0
40
0
40
1
40
1
40
1
40
1
41
1
10
24.605570100063
20
-3.48716927193479
30
0
41
1
10
24.6982190123213
20
-3.51449009103516
30
0
41
1
10
24.7903761901847
20
-3.5424963015505
30
0
41
1
10
24.8820397216786
20
-3.57126866768181
30
0
0
SPLINE
5
181
100
AcDbEntity
8
1
62
256
6
ByLayer
370
18
48
1
60
0
100
AcDbSpline
70
4
71
3
72
14
73
10
40
0
40
0
40
0
40
0
40
0.500000000000039
40
0.500000000000039
40
0.625000000000029
40
0.625000000000029
40
0.75000000000002
40
0.75000000000002
40
1
40
1
40
1
40
1
41
1
10
220.776567275987
20
10.7023027374236
30
0
41
1
10
221.074117178987
20
10.7457957584996
30
0
41
1
10
221.351774902267
20
10.8124008374004
30
0
41
1
10
221.673543889248
20
10.9198754112133
30
0
41
1
10
221.736638408336
20
10.9426290370162
30
0
41
1
10
221.858063630244
20
10.9896705385834
30
0
41
1
10
221.916686658281
20
11.0140507904594
30
0
41
1
10
222.08643220734
20
11.0895035912082
30
0
41
1
10
222.191460988404
20
11.1428792456831
30
0
41
1
10
222.288358497587
20
11.1987566462578
30
0
0
SPLINE
5
182
100
AcDbEntity
8
1
62
256
6
ByLayer
370
18
48
1
60
0
100
AcDbSpline
70
4
71
3
72
8
73
4
40
0
40
0
40
0
40
0
40
1
40
1
40
1
40
1
41
1
10
220.997188444491
20
10.2513992026384
30
0
41
1
10
220.944464605821
20
10.2385231523622
30
0
41
1
10
220.891884804549
20
10.229287361011
30
0
41
1
10
220.839457185755
20
10.2235280815834
30
0
0
SPLINE
5
183
100
AcDbEntity
8
1
62
256
6
ByLayer
370
18
48
1
60
0
100
AcDbSpline
70
4
71
3
72
8
73
4
40
0
40
0
40
0
40
0
40
1
40
1
40
1
40
1
41
1
10
218.129113508859
20
8.07711626916571
30
0
41
1
10
217.916645656531
20
8.0759590271345
30
0
41
1
10
217.702561014937
20
8.08066823607385
30
0
41
1
10
217.489712366545
20
8.0912208133112
30
0
0
SPLINE
5
184
100
AcDbEntity
8
1
62
256
6
ByLayer
370
18
48
1
60
0
100
AcDbSpline
70
4
71
3
72
68
73
64
40
0
40
0
40
0
40
0
40
0.0303144717023797
40
0.0303144717023797
40
0.0558325119207379
40
0.0558325119207379
40
0.0813505521390959
40
0.0813505521390959
40
0.132386632575812
40
0.132386632575812
40
0.157904672794169
40
0.157904672794169
40
0.183422713012527
40
0.183422713012527
40
0.234458793449243
40
0.234458793449243
40
0.285494873885959
40
0.285494873885959
40
0.311012914104317
40
0.311012914104317
40
0.336530954322675
40
0.336530954322675
40
0.387567034759392
40
0.387567034759392
40
0.41308507497775
40
0.41308507497775
40
0.438603115196109
40
0.438603115196109
40
0.464121155414467
40
0.464121155414467
40
0.489639195632825
40
0.489639195632825
40
0.540675276069542
40
0.540675276069542
40
0.566193316287901
40
0.566193316287901
40
0.591711356506259
40
0.591711356506259
40
0.642747436942976
40
0.642747436942976
40
0.668265477161335
40
0.668265477161335
40
0.693783517379694
40
0.693783517379694
40
0.719301557598053
40
0.719301557598053
40
0.744819597816411
40
0.744819597816411
40
0.77033763803477
40
0.77033763803477
40
0.795855678253129
40
0.795855678253129
40
0.846891758689846
40
0.846891758689846
40
0.872409798908205
40
0.872409798908205
40
0.897927839126564
40
0.897927839126564
40
0.923445879344923
40
0.923445879344923
40
0.948963919563282
40
0.948963919563282
40
1
40
1
40
1
40
1
41
1
10
146.469355585938
20
-12.2158491754435
30
0
41
1
10
145.331473099094
20
-12.3242194738505
30
0
41
1
10
144.193956400459
20
-12.4147532783884
30
0
41
1
10
142.098329754245
20
-12.5476777962965
30
0
41
1
10
141.140193750617
20
-12.5954594364918
30
0
41
1
10
139.223458671554
20
-12.6651571080146
30
0
41
1
10
138.264901848166
20
-12.68703371581
30
0
41
1
10
135.39170882625
20
-12.7130735779514
30
0
41
1
10
133.47832743403
20
-12.6774570220549
30
0
41
1
10
130.605106440087
20
-12.5454776758128
30
0
41
1
10
129.646350638365
20
-12.4885114181532
30
0
41
1
10
127.729714768064
20
-12.3490819464369
30
0
41
1
10
126.771812323267
20
-12.2665749100091
30
0
41
1
10
123.89855314338
20
-11.9812395549629
30
0
41
1
10
121.983474286893
20
-11.7402991119392
30
0
41
1
10
118.149512304472
20
-11.163572114827
30
0
41
1
10
116.233659695162
20
-10.8294559206893
30
0
41
1
10
113.360860245325
20
-10.2605777020658
30
0
41
1
10
112.403302189686
20
-10.0598040368415
30
0
41
1
10
110.487431349413
20
-9.63722502132077
30
0
41
1
10
109.529419755021
20
-9.41539547355876
30
0
41
1
10
106.656754419504
20
-8.72246393012776
30
0
41
1
10
104.741514556596
20
-8.22519659087109
30
0
41
1
10
101.867059838709
20
-7.42990401421264
30
0
41
1
10
100.908311574205
20
-7.15654933690908
30
0
41
1
10
98.9921343562872
20
-6.59570962980547
30
0
41
1
10
98.034498667576
20
-6.30809163826177
30
0
41
1
10
96.1192560323037
20
-5.72064541206777
30
0
41
1
10
95.1615422567865
20
-5.42109305694382
30
0
41
1
10
93.2453193574318
20
-4.81199243617175
30
0
41
1
10
92.2866788878221
20
-4.50198472883733
30
0
41
1
10
89.4117480471889
20
-3.55681932366073
30
0
41
1
10
87.4978766914468
20
-2.90761653808025
30
0
41
1
10
84.6259518758876
20
-1.91961038253817
30
0
41
1
10
83.6683515882034
20
-1.58821404777612
30
0
41
1
10
81.7515334063295
20
-0.924304260579333
30
0
41
1
10
80.793020286699
20
-0.591653061490632
30
0
41
1
10
77.9191165121233
20
0.407368139052522
30
0
41
1
10
76.0043699157812
20
1.0746864394248
30
0
41
1
10
73.1301026904761
20
2.06629025424894
30
0
41
1
10
72.1714332158992
20
2.39513941661184
30
0
41
1
10
70.2549739653177
20
3.04546284261863
30
0
41
1
10
69.2969386360623
20
3.36729523369797
30
0
41
1
10
67.3814336327338
20
4.00478186582802
30
0
41
1
10
66.4239276846387
20
4.32032508795618
30
0
41
1
10
64.5085916414522
20
4.9427073086288
30
0
41
1
10
63.5504150542741
20
5.24965058420142
30
0
41
1
10
61.634764280198
20
5.85192781728611
30
0
41
1
10
60.6774001434852
20
6.14717408667531
30
0
41
1
10
58.7622775215416
20
6.72266572776061
30
0
41
1
10
57.804526481629
20
7.00295709299823
30
0
41
1
10
54.9307915841886
20
7.8218182552562
30
0
41
1
10
53.0135102714236
20
8.33856721264544
30
0
41
1
10
50.1388959906555
20
9.05902262080809
30
0
41
1
10
49.180547162013
20
9.29019100333645
30
0
41
1
10
47.2635984468
20
9.73203197458957
30
0
41
1
10
46.3052574888241
20
9.94256737362863
30
0
41
1
10
44.3889409641657
20
10.3431531108218
30
0
41
1
10
43.4310205688513
20
10.5332774072168
30
0
41
1
10
41.5150428367812
20
10.8919748844312
30
0
41
1
10
40.5566992729084
20
11.0605655987867
30
0
41
1
10
37.6832789569052
20
11.5313686173257
30
0
41
1
10
35.7692937293321
20
11.7985127594836
30
0
41
1
10
33.8525834475881
20
12.0145616055061
30
0
0
SPLINE
5
185
100
AcDbEntity
8
1
62
256
6
ByLayer
370
18
48
1
60
0
100
AcDbSpline
70
4
71
3
72
12
73
8
40
0
40
0
40
0
40
0
40
0.207287534992142
40
0.410754198401618
40
0.610401801118969
40
0.908343184434523
40
1
40
1
40
1
40
1
41
1
10
242.479134022738
20
1.91061039721762
30
0
41
1
10
242.03721622808
20
1.95118070678765
30
0
41
1
10
241.16152638252
20
2.03157350506655
30
0
41
1
10
239.860446987156
20
2.15364010764208
30
0
41
1
10
238.366384328387
20
2.29642603036501
30
0
41
1
10
237.110872165141
20
2.41921987621345
30
0
41
1
10
236.280987523106
20
2.50276056562186
30
0
41
1
10
236.085758224419
20
2.5225063105384
30
0
0
SPLINE
5
186
100
AcDbEntity
8
1
62
256
6
ByLayer
370
18
48
1
60
0
100
AcDbSpline
70
4
71
3
72
16
73
12
40
0
40
0
40
0
40
0
40
0.249999999999986
40
0.249999999999986
40
0.374999999999984
40
0.374999999999984
40
0.499999999999983
40
0.499999999999983
40
0.749999999999991
40
0.749999999999991
40
1
40
1
40
1
40
1
41
1
10
234.319022247496
20
12.9025005098905
30
0
41
1
10
235.303584947814
20
12.9520028097403
30
0
41
1
10
236.287112428143
20
12.9766953047549
30
0
41
1
10
237.760457801464
20
12.9772415985682
30
0
41
1
10
238.2510844587
20
12.9713130458167
30
0
41
1
10
239.231722021753
20
12.9471450208576
30
0
41
1
10
239.721612691639
20
12.9288656184681
30
0
41
1
10
241.192449895786
20
12.8559621571969
30
0
41
1
10
242.173668292789
20
12.7832356512693
30
0
41
1
10
244.137229846261
20
12.589473945668
30
0
41
1
10
245.118812193946
20
12.4678299040215
30
0
41
1
10
246.103343473607
20
12.3229673941152
30
0
0
SPLINE
5
187
100
AcDbEntity
8
1
62
256
6
ByLayer
370
18
48
1
60
0
100
AcDbSpline
70
4
71
3
72
18
73
14
40
0
40
0
40
0
40
0
40
0.25
40
0.25
40
0.375
40
0.375
40
0.5
40
0.5
40
0.625
40
0.625
40
0.75
40
0.75
40
1
40
1
40
1
40
1
41
1
10
249.717682856786
20
1.20460606996525
30
0
41
1
10
249.672386549326
20
1.40061575501056
30
0
41
1
10
249.61693481312
20
1.61986088253505
30
0
41
1
10
249.519116242514
20
1.98222684738698
30
0
41
1
10
249.484160715424
20
2.10819093568009
30
0
41
1
10
249.410775664572
20
2.36635796256203
30
0
41
1
10
249.372201427908
20
2.49909174628752
30
0
41
1
10
249.291396606419
20
2.77165214433373
30
0
41
1
10
249.249162072728
20
2.91148641893065
30
0
41
1
10
249.161042618929
20
3.19823623372866
30
0
41
1
10
249.114950461513
20
3.34579049333408
30
0
41
1
10
248.973406907183
20
3.79196409905845
30
0
41
1
10
248.874319216741
20
4.09544376721709
30
0
41
1
10
248.77058311773
20
4.40485587521738
30
0
0
SPLINE
5
188
100
AcDbEntity
8
1
62
256
6
ByLayer
370
18
48
1
60
0
100
AcDbSpline
70
4
71
3
72
8
73
4
40
0
40
0
40
0
40
0
40
1
40
1
40
1
40
1
41
1
10
233.738762782917
20
-12.261975326685
30
0
41
1
10
233.743198169687
20
-12.2831398644243
30
0
41
1
10
233.745421537682
20
-12.3036568993021
30
0
41
1
10
233.745421537682
20
-12.3235231732525
30
0
0
SPLINE
5
189
100
AcDbEntity
8
1
62
256
6
ByLayer
370
18
48
1
60
0
100
AcDbSpline
70
4
71
3
72
8
73
4
40
0
40
0
40
0
40
0
40
1
40
1
40
1
40
1
41
1
10
244.160988230863
20
0.937890922843962
30
0
41
1
10
244.074278842588
20
1.29859473554163
30
0
41
1
10
244.003536894938
20
1.66380580448887
30
0
41
1
10
243.945064038118
20
2.03016334529846
30
0
0
SPLINE
5
18A
100
AcDbEntity
8
1
62
256
6
ByLayer
370
18
48
1
60
0
100
AcDbSpline
70
4
71
3
72
8
73
4
40
0
40
0
40
0
40
0
40
1
40
1
40
1
40
1
41
1
10
233.4
20
3.99581633702451
30
0
41
1
10
232.714708350387
20
4.04495446496878
30
0
41
1
10
232.029245013182
20
4.09036521376274
30
0
41
1
10
231.343539867199
20
4.1321155222804
30
0
0
SPLINE
5
18B
100
AcDbEntity
8
1
62
256
6
ByLayer
370
13
48
1
60
0
100
AcDbSpline
70
4
71
3
72
20
73
16
40
0
40
0
40
0
40
0
40
0.249999999999996
40
0.249999999999996
40
0.499999999999992
40
0.499999999999992
40
0.749999999999988
40
0.749999999999988
40
0.812499999999991
40
0.812499999999991
40
0.874999999999994
40
0.874999999999994
40
0.937499999999997
40
0.937499999999997
40
1
40
1
40
1
40
1
41
1
10
248.58072841375
20
1.29894198197655
30
0
41
1
10
248.332595921968
20
1.47183739522191
30
0
41
1
10
248.09223560695
20
1.66495047281438
30
0
41
1
10
247.638334438436
20
2.09284045756593
30
0
41
1
10
247.424004014915
20
2.3278754387764
30
0
41
1
10
247.028122948148
20
2.85253013949429
30
0
41
1
10
246.851950782339
20
3.13507155699585
30
0
41
1
10
246.666020289967
20
3.52005227378868
30
0
41
1
10
246.630554442302
20
3.59865221025049
30
0
41
1
10
246.56342924046
20
3.75937380892623
30
0
41
1
10
246.53176049632
20
3.84157395715547
30
0
41
1
10
246.473202331391
20
4.00770541695098
30
0
41
1
10
246.446192715755
20
4.09186284235054
30
0
41
1
10
246.397046454258
20
4.26250796463748
30
0
41
1
10
246.374802250196
20
4.34948021917452
30
0
41
1
10
246.355312767761
20
4.43670311286277
30
0
0
SPLINE
5
18C
100
AcDbEntity
8
1
62
256
6
ByLayer
370
18
48
1
60
0
100
AcDbSpline
70
4
71
3
72
8
73
4
40
0
40
0
40
0
40
0
40
1
40
1
40
1
40
1
41
1
10
27.0424052481289
20
11.1785544809666
30
0
41
1
10
27.5200047680041
20
11.2081703504406
30
0
41
1
10
27.9911553822403
20
11.2198394054653
30
0
41
1
10
28.4562107111383
20
11.21318056024
30
0
0
SPLINE
5
18D
100
AcDbEntity
8
1
62
256
6
ByLayer
370
18
48
1
60
0
100
AcDbSpline
70
4
71
3
72
16
73
12
40
0
40
0
40
0
40
0
40
0.250000000000002
40
0.250000000000002
40
0.375000000000004
40
0.375000000000004
40
0.500000000000005
40
0.500000000000005
40
0.750000000000003
40
0.750000000000003
40
1
40
1
40
1
40
1
41
1
10
33.8525834475872
20
12.0145616055056
30
0
41
1
10
33.701488721419
20
12.0679590405436
30
0
41
1
10
33.5673063970722
20
12.1221076897656
30
0
41
1
10
33.3907453264977
20
12.2022495635238
30
0
41
1
10
33.3360390465359
20
12.2287876515733
30
0
41
1
10
33.235165779353
20
12.2811719679281
30
0
41
1
10
33.1891175513313
20
12.3069810318933
30
0
41
1
10
33.0668394201294
20
12.381252729693
30
0
41
1
10
33.0051793999778
20
12.4271421411857
30
0
41
1
10
32.9216348123011
20
12.5100497068684
30
0
41
1
10
32.8999999999311
20
12.5471604836267
30
0
41
1
10
32.899999999931
20
12.5782119716354
30
0
0
SPLINE
5
18E
100
AcDbEntity
8
1
62
256
6
ByLayer
370
18
48
1
60
0
100
AcDbSpline
70
4
71
3
72
8
73
4
40
0
40
0
40
0
40
0
40
1
40
1
40
1
40
1
41
1
10
234.651040764009
20
3.02972805128093
30
0
41
1
10
234.668020191597
20
3.02167508181597
30
0
41
1
10
234.685912238225
20
3.01372170057411
30
0
41
1
10
234.704358970515
20
3.00601869013633
30
0
0
SPLINE
5
18F
100
AcDbEntity
8
1
62
256
6
ByLayer
370
18
48
1
60
0
100
AcDbSpline
70
4
71
3
72
8
73
4
40
0
40
0
40
0
40
0
40
1
40
1
40
1
40
1
41
1
10
233.505091663202
20
11.8740795109024
30
0
41
1
10
233.504684776309
20
12.0924770972774
30
0
41
1
10
233.504276285108
20
12.3104891886021
30
0
41
1
10
233.503866230103
20
12.5281101902835
30
0
0
SPLINE
5
190
100
AcDbEntity
8
1
62
256
6
ByLayer
370
18
48
1
60
0
100
AcDbSpline
70
4
71
3
72
8
73
4
40
0
40
0
40
0
40
0
40
1
40
1
40
1
40
1
41
1
10
234.319022247496
20
12.9025005098905
30
0
41
1
10
234.079672660479
20
12.8047356393113
30
0
41
1
10
233.840004953464
20
12.7056263656462
30
0
41
1
10
233.6
20
12.6052274882531
30
0
0
SPLINE
5
191
100
AcDbEntity
8
1
62
256
6
ByLayer
370
18
48
1
60
0
100
AcDbSpline
70
4
71
3
72
8
73
4
40
0
40
0
40
0
40
0
40
1
40
1
40
1
40
1
41
1
10
23.5299842374615
20
11.7037915016198
30
0
41
1
10
23.5601946972938
20
11.6940972241816
30
0
41
1
10
23.5904080207116
20
11.6843855265465
30
0
41
1
10
23.6206241663829
20
11.6746565015937
30
0
0
SPLINE
5
192
100
AcDbEntity
8
SK1
62
256
6
ByLayer
370
18
48
1
60
0
100
AcDbSpline
70
4
71
3
72
70
73
66
40
0
40
0
40
0
40
0
40
0.0312500000000009
40
0.0312500000000009
40
0.0468750000000009
40
0.0468750000000009
40
0.0625000000000008
40
0.0625000000000008
40
0.0781250000000008
40
0.0781250000000008
40
0.0937500000000008
40
0.0937500000000008
40
0.125000000000001
40
0.125000000000001
40
0.156250000000001
40
0.156250000000001
40
0.1875
40
0.1875
40
0.21875
40
0.21875
40
0.25
40
0.25
40
0.3125
40
0.3125
40
0.34375
40
0.34375
40
0.375
40
0.375
40
0.4375
40
0.4375
40
0.5
40
0.5
40
0.5625
40
0.5625
40
0.59375
40
0.59375
40
0.625
40
0.625
40
0.687499999999999
40
0.687499999999999
40
0.749999999999999
40
0.749999999999999
40
0.781249999999999
40
0.781249999999999
40
0.812499999999999
40
0.812499999999999
40
0.843749999999999
40
0.843749999999999
40
0.859374999999999
40
0.859374999999999
40
0.874999999999999
40
0.874999999999999
40
0.90625
40
0.90625
40
0.921875
40
0.921875
40
0.9375
40
0.9375
40
0.953125
40
0.953125
40
0.96875
40
0.96875
40
0.984375
40
0.984375
40
1
40
1
40
1
40
1
41
1
10
-6.5
20
-8.08217792429738
30
0
41
1
10
-6.28762555995463
20
-8.08217792429738
30
0
41
1
10
-6.0810498691127
20
-8.05368849473035
30
0
41
1
10
-5.77910858566648
20
-7.97161548876423
30
0
41
1
10
-5.68022589061654
20
-7.93763423525914
30
0
41
1
10
-5.49054490854958
20
-7.85917405972873
30
0
41
1
10
-5.398995235009
20
-7.81450307998708
30
0
41
1
10
-5.22185646564661
20
-7.71512651881918
30
0
41
1
10
-5.13594421810531
20
-7.66012522444171
30
0
41
1
10
-4.9730710583807
20
-7.54325327411436
30
0
41
1
10
-4.89566707429053
20
-7.48118572785879
30
0
41
1
10
-4.6739132088681
20
-7.28529466076768
30
0
41
1
10
-4.53991230602644
20
-7.14180694426813
30
0
41
1
10
-4.29416855767026
20
-6.83312930612388
30
0
41
1
10
-4.18521185387127
20
-6.6715007799863
30
0
41
1
10
-3.98806828865871
20
-6.33636750757177
30
0
41
1
10
-3.89994716555164
20
-6.16283546371301
30
0
41
1
10
-3.74020554839619
20
-5.80545940076314
30
0
41
1
10
-3.6683892050804
20
-5.62093024300796
30
0
41
1
10
-3.53937133315314
20
-5.24594125113808
30
0
41
1
10
-3.48231441550429
20
-5.05612691162614
30
0
41
1
10
-3.32871181677947
20
-4.48051810886963
30
0
41
1
10
-3.24948709448095
20
-4.08860232749163
30
0
41
1
10
-3.15366535436109
20
-3.49035454453516
30
0
41
1
10
-3.1256376318379
20
-3.28919601457946
30
0
41
1
10
-3.07615885164303
20
-2.8835794753536
30
0
41
1
10
-3.05468247616594
20
-2.6788066175184
30
0
41
1
10
-2.99892560884548
20
-2.06183265419932
30
0
41
1
10
-2.97341374459452
20
-1.65021464829943
30
0
41
1
10
-2.93990884487631
20
-0.826427708852918
30
0
41
1
10
-2.93195209632363
20
-0.414258490969502
30
0
41
1
10
-2.93190451240991
20
0.410616418566406
30
0
41
1
10
-2.93981190900011
20
0.823322087871986
30
0
41
1
10
-2.96496313204877
20
1.44279742981084
30
0
41
1
10
-2.97558958394542
20
1.64935895031218
30
0
41
1
10
-3.00193375507486
20
2.06262743969191
30
0
41
1
10
-3.01768796297789
20
2.26962385434214
30
0
41
1
10
-3.07336906956125
20
2.88522451010573
30
0
41
1
10
-3.12161720280069
20
3.29012272731185
30
0
41
1
10
-3.24933181748246
20
4.08777686756457
30
0
41
1
10
-3.32863739699849
20
4.48055429019126
30
0
41
1
10
-3.48310032098841
20
5.05891332672573
30
0
41
1
10
-3.54076942872437
20
5.25033331669707
30
0
41
1
10
-3.66965942312491
20
5.62428672514505
30
0
41
1
10
-3.74096306693001
20
5.80730424563461
30
0
41
1
10
-3.90070915193935
20
6.16438864035223
30
0
41
1
10
-3.98911623857579
20
6.33846735616979
30
0
41
1
10
-4.13836234295802
20
6.59169519349339
30
0
41
1
10
-4.19087366086718
20
6.67469064307952
30
0
41
1
10
-4.30098015289811
20
6.83590272214585
30
0
41
1
10
-4.35870319203545
20
6.91434756669076
30
0
41
1
10
-4.54085622294416
20
7.14267001525303
30
0
41
1
10
-4.67411746978665
20
7.28563237868227
30
0
41
1
10
-4.89762414313628
20
7.48283481508952
30
0
41
1
10
-4.97599664741573
20
7.54549364627977
30
0
41
1
10
-5.13838907908936
20
7.66173374977816
30
0
41
1
10
-5.22276337997239
20
7.71564866991193
30
0
41
1
10
-5.39862205954024
20
7.81428032092916
30
0
41
1
10
-5.49010121423035
20
7.85900465123581
30
0
41
1
10
-5.68125471270633
20
7.93804563435424
30
0
41
1
10
-5.77882786643026
20
7.97148061306467
30
0
41
1
10
-5.97815227640164
20
8.02577693282768
30
0
41
1
10
-6.07990178078997
20
8.04664365567402
30
0
41
1
10
-6.28791316484741
20
8.07490697119016
30
0
41
1
10
-6.39402083858315
20
8.08217792429738
30
0
41
1
10
-6.5
20
8.08217792429738
30
0
0
SPLINE
5
193
100
AcDbEntity
8
SK1
62
256
6
ByLayer
370
18
48
1
60
0
100
AcDbSpline
70
4
71
3
72
70
73
66
40
0
40
0
40
0
40
0
40
0.03125
40
0.03125
40
0.0468749999999999
40
0.0468749999999999
40
0.0624999999999999
40
0.0624999999999999
40
0.0781249999999998
40
0.0781249999999998
40
0.0937499999999998
40
0.0937499999999998
40
0.125
40
0.125
40
0.15625
40
0.15625
40
0.1875
40
0.1875
40
0.218749999999999
40
0.218749999999999
40
0.249999999999999
40
0.249999999999999
40
0.312499999999999
40
0.312499999999999
40
0.343749999999999
40
0.343749999999999
40
0.374999999999999
40
0.374999999999999
40
0.437499999999999
40
0.437499999999999
40
0.499999999999999
40
0.499999999999999
40
0.562499999999999
40
0.562499999999999
40
0.593749999999999
40
0.593749999999999
40
0.624999999999999
40
0.624999999999999
40
0.687499999999999
40
0.687499999999999
40
0.749999999999999
40
0.749999999999999
40
0.781249999999999
40
0.781249999999999
40
0.812499999999999
40
0.812499999999999
40
0.843749999999999
40
0.843749999999999
40
0.859374999999999
40
0.859374999999999
40
0.874999999999999
40
0.874999999999999
40
0.906249999999999
40
0.906249999999999
40
0.921875
40
0.921875
40
0.9375
40
0.9375
40
0.953125
40
0.953125
40
0.96875
40
0.96875
40
0.984375
40
0.984375
40
1
40
1
40
1
40
1
41
1
10
-53.5
20
8.08217792429738
30
0
41
1
10
-53.7123744400454
20
8.08217792429738
30
0
41
1
10
-53.9189501308873
20
8.05368849473035
30
0
41
1
10
-54.2208914143335
20
7.9716154887642
30
0
41
1
10
-54.3197741093835
20
7.93763423525914
30
0
41
1
10
-54.5094550914504
20
7.85917405972873
30
0
41
1
10
-54.601004764991
20
7.81450307998708
30
0
41
1
10
-54.7781435343534
20
7.71512651881918
30
0
41
1
10
-54.8640557818947
20
7.66012522444171
30
0
41
1
10
-55.0269289416193
20
7.54325327411436
30
0
41
1
10
-55.1043329257095
20
7.48118572785879
30
0
41
1
10
-55.3260867911319
20
7.28529466076768
30
0
41
1
10
-55.4600876939736
20
7.14180694426813
30
0
41
1
10
-55.7058314423298
20
6.83312930612388
30
0
41
1
10
-55.8147881461287
20
6.6715007799863
30
0
41
1
10
-56.0119317113413
20
6.33636750757177
30
0
41
1
10
-56.1000528344483
20
6.16283546371301
30
0
41
1
10
-56.2597944516038
20
5.80545940076314
30
0
41
1
10
-56.3316107949196
20
5.62093024300796
30
0
41
1
10
-56.4606286668468
20
5.24594125113808
30
0
41
1
10
-56.5176855844957
20
5.05612691162611
30
0
41
1
10
-56.6712881832205
20
4.48051810886963
30
0
41
1
10
-56.750512905519
20
4.08860232749163
30
0
41
1
10
-56.8463346456389
20
3.49035454453516
30
0
41
1
10
-56.8743623681621
20
3.28919601457946
30
0
41
1
10
-56.923841148357
20
2.8835794753536
30
0
41
1
10
-56.9453175238341
20
2.6788066175184
30
0
41
1
10
-57.0010743911545
20
2.06183265419932
30
0
41
1
10
-57.0265862554055
20
1.65021464829943
30
0
41
1
10
-57.0600911551237
20
0.826427708852918
30
0
41
1
10
-57.0680479036764
20
0.414258490969502
30
0
41
1
10
-57.0680954875901
20
-0.410616418566406
30
0
41
1
10
-57.0601880909999
20
-0.823322087871986
30
0
41
1
10
-57.0350368679512
20
-1.44279742981084
30
0
41
1
10
-57.0244104160546
20
-1.64935895031215
30
0
41
1
10
-56.9980662449251
20
-2.06262743969191
30
0
41
1
10
-56.9823120370221
20
-2.26962385434214
30
0
41
1
10
-56.9266309304388
20
-2.88522451010573
30
0
41
1
10
-56.8783827971993
20
-3.29012272731185
30
0
41
1
10
-56.7506681825175
20
-4.08777686756457
30
0
41
1
10
-56.6713626030015
20
-4.48055429019126
30
0
41
1
10
-56.5168996790116
20
-5.05891332672573
30
0
41
1
10
-56.4592305712756
20
-5.25033331669707
30
0
41
1
10
-56.3303405768751
20
-5.62428672514505
30
0
41
1
10
-56.25903693307
20
-5.80730424563461
30
0
41
1
10
-56.0992908480606
20
-6.16438864035223
30
0
41
1
10
-56.0108837614242
20
-6.33846735616979
30
0
41
1
10
-55.861637657042
20
-6.59169519349339
30
0
41
1
10
-55.8091263391328
20
-6.67469064307952
30
0
41
1
10
-55.6990198471019
20
-6.83590272214585
30
0
41
1
10
-55.6412968079646
20
-6.91434756669076
30
0
41
1
10
-55.4591437770559
20
-7.14267001525306
30
0
41
1
10
-55.3258825302133
20
-7.28563237868227
30
0
41
1
10
-55.1023758568637
20
-7.48283481508952
30
0
41
1
10
-55.0240033525843
20
-7.54549364627977
30
0
41
1
10
-54.8616109209106
20
-7.66173374977816
30
0
41
1
10
-54.7772366200276
20
-7.71564866991193
30
0
41
1
10
-54.6013779404598
20
-7.81428032092916
30
0
41
1
10
-54.5098987857697
20
-7.85900465123581
30
0
41
1
10
-54.3187452872937
20
-7.93804563435424
30
0
41
1
10
-54.2211721335697
20
-7.97148061306467
30
0
41
1
10
-54.0218477235983
20
-8.02577693282768
30
0
41
1
10
-53.92009821921
20
-8.04664365567402
30
0
41
1
10
-53.7120868351526
20
-8.07490697119016
30
0
41
1
10
-53.6059791614169
20
-8.08217792429738
30
0
41
1
10
-53.5
20
-8.08217792429738
30
0
0
LINE
5
70
100
AcDbEntity
8
81
62
256
6
ByLayer
370
18
48
1
60
0
100
AcDbLine
10
233.6
20
0
30
0
11
238.6
21
0
31
0
39
0
210
0
220
0
230
1
0
LINE
5
71
100
AcDbEntity
8
1
62
256
6
ByLayer
370
18
48
1
60
0
100
AcDbLine
10
7.9071
20
20
30
0
11
0.2
21
20
31
0
39
0
210
0
220
0
230
1
0
LINE
5
73
100
AcDbEntity
8
1
62
256
6
ByLayer
370
18
48
1
60
0
100
AcDbLine
10
0.2
20
-20
30
0
11
7.9071
21
-20
31
0
39
0
210
0
220
0
230
1
0
LINE
5
74
100
AcDbEntity
8
1
62
256
6
ByLayer
370
18
48
1
60
0
100
AcDbLine
10
0.2
20
20
30
0
11
0
21
19.8
31
0
39
0
210
0
220
0
230
1
0
LINE
5
75
100
AcDbEntity
8
1
62
256
6
ByLayer
370
18
48
1
60
0
100
AcDbLine
10
0
20
-19.8
30
0
11
0.2
21
-20
31
0
39
0
210
0
220
0
230
1
0
LINE
5
76
100
AcDbEntity
8
SK1
62
256
6
ByLayer
370
18
48
1
60
0
100
AcDbLine
10
-59
20
15.996
30
0
11
-60
21
14.996
31
0
39
0
210
0
220
0
230
1
0
LINE
5
78
100
AcDbEntity
8
SK1
62
256
6
ByLayer
370
18
48
1
60
0
100
AcDbLine
10
-60
20
-14.996
30
0
11
-59
21
-15.996
31
0
39
0
210
0
220
0
230
1
0
LINE
5
79
100
AcDbEntity
8
SK1
62
256
6
ByLayer
370
18
48
1
60
0
100
AcDbLine
10
-1.6
20
-15.996
30
0
11
-1.144243
21
-15.783477
31
0
39
0
210
0
220
0
230
1
0
LINE
5
7A
100
AcDbEntity
8
SK1
62
256
6
ByLayer
370
18
48
1
60
0
100
AcDbLine
10
-1.144243
20
15.783477
30
0
11
-1.6
21
15.996
31
0
39
0
210
0
220
0
230
1
0
LINE
5
7B
100
AcDbEntity
8
SK1
62
256
6
ByLayer
370
18
48
1
60
0
100
AcDbLine
10
-58.6
20
15.996
30
0
11
-59
21
15.996
31
0
39
0
210
0
220
0
230
1
0
LINE
5
7C
100
AcDbEntity
8
SK1
62
256
6
ByLayer
370
18
48
1
60
0
100
AcDbLine
10
-59
20
-15.996
30
0
11
-58.6
21
-15.996
31
0
39
0
210
0
220
0
230
1
0
LINE
5
7D
100
AcDbEntity
8
SK1
62
256
6
ByLayer
370
18
48
1
60
0
100
AcDbLine
10
-57.3
20
15.996
30
0
11
-57.426311
21
15.887988
31
0
39
0
210
0
220
0
230
1
0
LINE
5
7E
100
AcDbEntity
8
SK1
62
256
6
ByLayer
370
18
48
1
60
0
100
AcDbLine
10
-57.426311
20
-15.887988
30
0
11
-57.3
21
-15.996
31
0
39
0
210
0
220
0
230
1
0
LINE
5
7F
100
AcDbEntity
8
SK1
62
256
6
ByLayer
370
18
48
1
60
0
100
AcDbLine
10
-58.6
20
-15.996
30
0
11
-58.449692
21
-15.874283
31
0
39
0
210
0
220
0
230
1
0
LINE
5
80
100
AcDbEntity
8
SK1
62
256
6
ByLayer
370
18
48
1
60
0
100
AcDbLine
10
-58.449692
20
15.874283
30
0
11
-58.6
21
15.996
31
0
39
0
210
0
220
0
230
1
0
LINE
5
81
100
AcDbEntity
8
SK1
62
256
6
ByLayer
370
18
48
1
60
0
100
AcDbLine
10
-0.975195
20
-15.746
30
0
11
-0.15
21
-15.746
31
0
39
0
210
0
220
0
230
1
0
LINE
5
82
100
AcDbEntity
8
SK1
62
256
6
ByLayer
370
18
48
1
60
0
100
AcDbLine
10
-0.15
20
15.746
30
0
11
-0.975195
21
15.746
31
0
39
0
210
0
220
0
230
1
0
LINE
5
83
100
AcDbEntity
8
1
62
256
6
ByLayer
370
18
48
1
60
0
100
AcDbLine
10
29.6
20
-12.7
30
0
11
32.9
21
-12.7
31
0
39
0
210
0
220
0
230
1
0
LINE
5
84
100
AcDbEntity
8
1
62
256
6
ByLayer
370
18
48
1
60
0
100
AcDbLine
10
136.36373
20
12.7
30
0
11
126.942318
21
12.7
31
0
39
0
210
0
220
0
230
1
0
LINE
5
85
100
AcDbEntity
8
1
62
256
6
ByLayer
370
18
48
1
60
0
100
AcDbLine
10
126.942318
20
-12.7
30
0
11
136.36373
21
-12.7
31
0
39
0
210
0
220
0
230
1
0
LINE
5
86
100
AcDbEntity
8
1
62
256
6
ByLayer
370
18
48
1
60
0
100
AcDbLine
10
32.9
20
12.7
30
0
11
29.6
21
12.7
31
0
39
0
210
0
220
0
230
1
0
LINE
5
87
100
AcDbEntity
8
1
62
256
6
ByLayer
370
18
48
1
60
0
100
AcDbLine
10
23.529984
20
-13.291048
30
0
11
23.620624
21
-13.248806
31
0
39
0
210
0
220
0
230
1
0
LINE
5
88
100
AcDbEntity
8
1
62
256
6
ByLayer
370
18
48
1
60
0
100
AcDbLine
10
23.620624
20
13.248806
30
0
11
23.529984
21
13.291048
31
0
39
0
210
0
220
0
230
1
0
LINE
5
89
100
AcDbEntity
8
1
62
256
6
ByLayer
370
18
48
1
60
0
100
AcDbLine
10
239.617626
20
-12.75825
30
0
11
245.522919
21
-12.75825
31
0
39
0
210
0
220
0
230
1
0
LINE
5
8A
100
AcDbEntity
8
1
62
256
6
ByLayer
370
18
48
1
60
0
100
AcDbLine
10
239.579999
20
12.985437
30
0
11
237.08403
21
12.976701
31
0
39
0
210
0
220
0
230
1
0
LINE
5
8B
100
AcDbEntity
8
1
62
256
6
ByLayer
370
18
48
1
60
0
100
AcDbLine
10
245.522919
20
12.75825
30
0
11
244.774976
21
12.75825
31
0
39
0
210
0
220
0
230
1
0
LINE
5
8C
100
AcDbEntity
8
1
62
256
6
ByLayer
370
18
48
1
60
0
100
AcDbLine
10
237.08403
20
-12.976701
30
0
11
239.579999
21
-12.985437
31
0
39
0
210
0
220
0
230
1
0
LINE
5
8D
100
AcDbEntity
8
SK1
62
256
6
ByLayer
370
18
48
1
60
0
100
AcDbLine
10
-1.6
20
15.996
30
0
11
-57.3
21
15.996
31
0
39
0
210
0
220
0
230
1
0
LINE
5
8E
100
AcDbEntity
8
SK1
62
256
6
ByLayer
370
18
48
1
60
0
100
AcDbLine
10
-57.3
20
-15.996
30
0
11
-1.6
21
-15.996
31
0
39
0
210
0
220
0
230
1
0
LINE
5
8F
100
AcDbEntity
8
1
62
256
6
ByLayer
370
18
48
1
60
0
100
AcDbLine
10
27
20
-12.5
30
0
11
29.6
21
-12.7
31
0
39
0
210
0
220
0
230
1
0
LINE
5
90
100
AcDbEntity
8
1
62
256
6
ByLayer
370
18
48
1
60
0
100
AcDbLine
10
29.6
20
12.7
30
0
11
27
21
12.5
31
0
39
0
210
0
220
0
230
1
0
LINE
5
91
100
AcDbEntity
8
80
62
256
6
ByLayer
370
18
48
1
60
0
100
AcDbLine
10
0
20
0
30
0
11
-5
21
0
31
0
39
0
210
0
220
0
230
1
0
LINE
5
92
100
AcDbEntity
8
4
62
256
6
ByLayer
370
18
48
0.05
60
0
100
AcDbLine
10
233.6
20
0
30
0
11
0
21
0
31
0
39
0
210
0
220
0
230
1
0
LINE
5
94
100
AcDbEntity
8
SK4
62
256
6
ByLayer
370
18
48
0.05
60
0
100
AcDbLine
10
255
20
0
30
0
11
-65
21
0
31
0
39
0
210
0
220
0
230
1
0
LINE
5
96
100
AcDbEntity
8
1
62
256
6
ByLayer
370
13
48
1
60
0
100
AcDbLine
10
23.529984
20
13.291048
30
0
11
23.529984
21
11.703792
31
0
39
0
210
0
220
0
230
1
0
LINE
5
97
100
AcDbEntity
8
1
62
256
6
ByLayer
370
18
48
1
60
0
100
AcDbLine
10
249.910654
20
0.369567
30
0
11
249.717683
21
1.204606
31
0
39
0
210
0
220
0
230
1
0
LINE
5
98
100
AcDbEntity
8
1
62
256
6
ByLayer
370
13
48
1
60
0
100
AcDbLine
10
246.354642
20
4.439756
30
0
11
246.340632
21
4.503272
31
0
39
0
210
0
220
0
230
1
0
LINE
5
99
100
AcDbEntity
8
1
62
256
6
ByLayer
370
18
48
1
60
0
100
AcDbLine
10
249.969791
20
0.160354
30
0
11
250.005308
21
0.000285
31
0
39
0
210
0
220
0
230
1
0
LINE
5
9A
100
AcDbEntity
8
1
62
256
6
ByLayer
370
18
48
1
60
0
100
AcDbLine
10
223
20
-5.652238
30
0
11
223
21
6.703119
31
0
39
0
210
0
220
0
230
1
0
LINE
5
9B
100
AcDbEntity
8
1
62
256
6
ByLayer
370
18
48
1
60
0
100
AcDbLine
10
245.612185
20
-12.756327
30
0
11
250.005308
21
0.000285
31
0
39
0
210
0
220
0
230
1
0
LINE
5
9C
100
AcDbEntity
8
1
62
256
6
ByLayer
370
13
48
1
60
0
100
AcDbLine
10
248.5583
20
1.244738
30
0
11
249.933732
21
0.283393
31
0
39
0
210
0
220
0
230
1
0
LINE
5
9D
100
AcDbEntity
8
1
62
256
6
ByLayer
370
18
48
1
60
0
100
AcDbLine
10
243.665798
20
-2.901398
30
0
11
243.665684
21
-2.9
31
0
39
0
210
0
220
0
230
1
0
LINE
5
9E
100
AcDbEntity
8
1
62
256
6
ByLayer
370
18
48
1
60
0
100
AcDbLine
10
233.5
20
-12.531517
30
0
11
233.5
21
-12.198738
31
0
39
0
210
0
220
0
230
1
0
LINE
5
9F
100
AcDbEntity
8
1
62
256
6
ByLayer
370
18
48
1
60
0
100
AcDbLine
10
233.6
20
-12.272398
30
0
11
233.6
21
-12.246576
31
0
39
0
210
0
220
0
230
1
0
LINE
5
A0
100
AcDbEntity
8
1
62
256
6
ByLayer
370
13
48
1
60
0
100
AcDbLine
10
7.9071
20
0
30
0
11
7.9071
21
-20
31
0
39
0
210
0
220
0
230
1
0
LINE
5
A1
100
AcDbEntity
8
1
62
256
6
ByLayer
370
13
48
1
60
0
100
AcDbLine
10
7.9071
20
20
30
0
11
7.9071
21
0
31
0
39
0
210
0
220
0
230
1
0
LINE
5
A2
100
AcDbEntity
8
1
62
256
6
ByLayer
370
18
48
1
60
0
100
AcDbLine
10
246.245342
20
-5.597441
30
0
11
246.228658
21
-5.552874
31
0
39
0
210
0
220
0
230
1
0
LINE
5
A3
100
AcDbEntity
8
1
62
256
6
ByLayer
370
18
48
1
60
0
100
AcDbLine
10
233.6
20
3.35
30
0
11
233.6
21
3.549909
31
0
39
0
210
0
220
0
230
1
0
LINE
5
A4
100
AcDbEntity
8
1
62
256
6
ByLayer
370
13
48
1
60
0
100
AcDbLine
10
23.620624
20
13.248806
30
0
11
23.620624
21
11.674657
31
0
39
0
210
0
220
0
230
1
0
LINE
5
A5
100
AcDbEntity
8
1
62
256
6
ByLayer
370
18
48
1
60
0
100
AcDbLine
10
234.90185
20
-11.838037
30
0
11
243.097252
21
-11.838037
31
0
39
0
210
0
220
0
230
1
0
LINE
5
A6
100
AcDbEntity
8
1
62
256
6
ByLayer
370
18
48
1
60
0
100
AcDbLine
10
27
20
12.5
30
0
11
27
21
11.176291
31
0
39
0
210
0
220
0
230
1
0
LINE
5
A7
100
AcDbEntity
8
1
62
256
6
ByLayer
370
18
48
1
60
0
100
AcDbLine
10
233.6
20
-12.605227
30
0
11
233.6
21
-12.272398
31
0
39
0
210
0
220
0
230
1
0
LINE
5
A8
100
AcDbEntity
8
1
62
256
6
ByLayer
370
18
48
1
60
0
100
AcDbLine
10
0.2
20
0
30
0
11
0.2
21
-20
31
0
39
0
210
0
220
0
230
1
0
LINE
5
A9
100
AcDbEntity
8
1
62
256
6
ByLayer
370
18
48
1
60
0
100
AcDbLine
10
0.2
20
20
30
0
11
0.2
21
0
31
0
39
0
210
0
220
0
230
1
0
LINE
5
AA
100
AcDbEntity
8
1
62
256
6
ByLayer
370
18
48
1
60
0
100
AcDbLine
10
32.9
20
12.7
30
0
11
32.9
21
12.578212
31
0
39
0
210
0
220
0
230
1
0
LINE
5
AB
100
AcDbEntity
8
1
62
256
6
ByLayer
370
13
48
1
60
0
100
AcDbLine
10
234.651041
20
-11.824707
30
0
11
234.651041
21
-11.962211
31
0
39
0
210
0
220
0
230
1
0
LINE
5
AC
100
AcDbEntity
8
1
62
256
6
ByLayer
370
18
48
1
60
0
100
AcDbLine
10
32.9
20
-12.7
30
0
11
32.9
21
-6.868457
31
0
39
0
210
0
220
0
230
1
0
LINE
5
AD
100
AcDbEntity
8
1
62
256
6
ByLayer
370
18
48
1
60
0
100
AcDbLine
10
241.897269
20
-2.9
30
0
11
243.665684
21
-2.9
31
0
39
0
210
0
220
0
230
1
0
LINE
5
AE
100
AcDbEntity
8
1
62
256
6
ByLayer
370
13
48
1
60
0
100
AcDbLine
10
233.745422
20
-12.323523
30
0
11
233.6
21
-12.272398
31
0
39
0
210
0
220
0
230
1
0
LINE
5
AF
100
AcDbEntity
8
1
62
256
6
ByLayer
370
13
48
1
60
0
100
AcDbLine
10
219.274234
20
-7.844379
30
0
11
219.274234
21
-8.09785
31
0
39
0
210
0
220
0
230
1
0
LINE
5
B0
100
AcDbEntity
8
1
62
256
6
ByLayer
370
18
48
1
60
0
100
AcDbLine
10
0
20
19.8
30
0
11
0
21
-19.8
31
0
39
0
210
0
220
0
230
1
0
LINE
5
B1
100
AcDbEntity
8
1
62
256
6
ByLayer
370
18
48
1
60
0
100
AcDbLine
10
243.097252
20
-11.838037
30
0
11
243.10514
21
-11.834578
31
0
39
0
210
0
220
0
230
1
0
LINE
5
B2
100
AcDbEntity
8
1
62
256
6
ByLayer
370
18
48
1
60
0
100
AcDbLine
10
27
20
-12.5
30
0
11
27
21
-4.871288
31
0
39
0
210
0
220
0
230
1
0
LINE
5
B3
100
AcDbEntity
8
1
62
256
6
ByLayer
370
18
48
1
60
0
100
AcDbLine
10
250.005308
20
-0.000285
30
0
11
250.005308
21
0.000285
31
0
39
0
210
0
220
0
230
1
0
LINE
5
B4
100
AcDbEntity
8
1
62
256
6
ByLayer
370
18
48
1
60
0
100
AcDbLine
10
234.319022
20
-12.902501
30
0
11
234.319022
21
-12.733087
31
0
39
0
210
0
220
0
230
1
0
LINE
5
B5
100
AcDbEntity
8
1
62
256
6
ByLayer
370
18
48
1
60
0
100
AcDbLine
10
29.6
20
-12.7
30
0
11
29.6
21
-5.870862
31
0
39
0
210
0
220
0
230
1
0
LINE
5
B6
100
AcDbEntity
8
1
62
256
6
ByLayer
370
13
48
1
60
0
100
AcDbLine
10
233.4
20
4.05
30
0
11
233.605013
21
4.05
31
0
39
0
210
0
220
0
230
1
0
LINE
5
B7
100
AcDbEntity
8
1
62
256
6
ByLayer
370
18
48
1
60
0
100
AcDbLine
10
248.770583
20
-4.404856
30
0
11
248.613427
21
-4.873604
31
0
39
0
210
0
220
0
230
1
0
LINE
5
B8
100
AcDbEntity
8
1
62
256
6
ByLayer
370
18
48
1
60
0
100
AcDbLine
10
250.005308
20
-0.000285
30
0
11
249.969791
21
-0.160354
31
0
39
0
210
0
220
0
230
1
0
LINE
5
B9
100
AcDbEntity
8
1
62
256
6
ByLayer
370
18
48
1
60
0
100
AcDbLine
10
242.777945
20
-10.452076
30
0
11
243.665798
21
-11.339928
31
0
39
0
210
0
220
0
230
1
0
LINE
5
BA
100
AcDbEntity
8
1
62
256
6
ByLayer
370
18
48
1
60
0
100
AcDbLine
10
248.770583
20
4.404856
30
0
11
248.613427
21
4.873604
31
0
39
0
210
0
220
0
230
1
0
LINE
5
BB
100
AcDbEntity
8
1
62
256
6
ByLayer
370
18
48
1
60
0
100
AcDbLine
10
243.662286
20
-11.346431
30
0
11
243.665798
21
-11.339928
31
0
39
0
210
0
220
0
230
1
0
LINE
5
BC
100
AcDbEntity
8
1
62
256
6
ByLayer
370
18
48
1
60
0
100
AcDbLine
10
244.015432
20
-11.943941
30
0
11
246.245342
21
-5.597441
31
0
39
0
210
0
220
0
230
1
0
LINE
5
BD
100
AcDbEntity
8
1
62
256
6
ByLayer
370
13
48
1
60
0
100
AcDbLine
10
249.910654
20
0.369567
30
0
11
248.60354
21
1.283161
31
0
39
0
210
0
220
0
230
1
0
LINE
5
BE
100
AcDbEntity
8
1
62
256
6
ByLayer
370
13
48
1
60
0
100
AcDbLine
10
23.620624
20
-4.234551
30
0
11
23.620624
21
-13.248806
31
0
39
0
210
0
220
0
230
1
0
LINE
5
BF
100
AcDbEntity
8
1
62
256
6
ByLayer
370
18
48
1
60
0
100
AcDbLine
10
240.875714
20
-2.9
30
0
11
241.064079
21
-2.9
31
0
39
0
210
0
220
0
230
1
0
LINE
5
C0
100
AcDbEntity
8
1
62
256
6
ByLayer
370
18
48
1
60
0
100
AcDbLine
10
29.6
20
12.7
30
0
11
29.6
21
11.30065
31
0
39
0
210
0
220
0
230
1
0
LINE
5
C1
100
AcDbEntity
8
1
62
256
6
ByLayer
370
18
48
1
60
0
100
AcDbLine
10
243.665684
20
-2.9
30
0
11
242.485457
21
1.903822
31
0
39
0
210
0
220
0
230
1
0
LINE
5
C2
100
AcDbEntity
8
1
62
256
6
ByLayer
370
18
48
1
60
0
100
AcDbLine
10
233.6
20
-12.246576
30
0
11
233.6
21
-12.136794
31
0
39
0
210
0
220
0
230
1
0
LINE
5
C3
100
AcDbEntity
8
1
62
256
6
ByLayer
370
18
48
1
60
0
100
AcDbLine
10
246.245342
20
-5.597441
30
0
11
248.453491
21
-3.172834
31
0
39
0
210
0
220
0
230
1
0
LINE
5
C4
100
AcDbEntity
8
1
62
256
6
ByLayer
370
18
48
1
60
0
100
AcDbLine
10
234.704359
20
-11.943941
30
0
11
234.704359
21
-11.82691
31
0
39
0
210
0
220
0
230
1
0
LINE
5
C5
100
AcDbEntity
8
1
62
256
6
ByLayer
370
13
48
1
60
0
100
AcDbLine
10
23.529984
20
-4.189251
30
0
11
23.529984
21
-13.291048
31
0
39
0
210
0
220
0
230
1
0
LINE
5
C6
100
AcDbEntity
8
1
62
256
6
ByLayer
370
18
48
1
60
0
100
AcDbLine
10
233.6
20
-12.102685
30
0
11
233.6
21
-12.136794
31
0
39
0
210
0
220
0
230
1
0
LINE
5
C7
100
AcDbEntity
8
1
62
256
6
ByLayer
370
18
48
1
60
0
100
AcDbLine
10
243.665798
20
-11.339928
30
0
11
243.665798
21
-2.901398
31
0
39
0
210
0
220
0
230
1
0
LINE
5
C8
100
AcDbEntity
8
1
62
256
6
ByLayer
370
18
48
1
60
0
100
AcDbLine
10
243.10514
20
-11.834578
30
0
11
243.662286
21
-11.346431
31
0
39
0
210
0
220
0
230
1
0
LINE
5
C9
100
AcDbEntity
8
1
62
256
6
ByLayer
370
18
48
1
60
0
100
AcDbLine
10
249.910654
20
-0.369567
30
0
11
249.717683
21
-1.204606
31
0
39
0
210
0
220
0
230
1
0
LINE
5
CA
100
AcDbEntity
8
1
62
256
6
ByLayer
370
18
48
1
60
0
100
AcDbLine
10
233.745422
20
-12.471928
30
0
11
233.745422
21
-12.323523
31
0
39
0
210
0
220
0
230
1
0
LINE
5
CB
100
AcDbEntity
8
1
62
256
6
ByLayer
370
18
48
1
60
0
100
AcDbLine
10
234.704359
20
-11.943941
30
0
11
244.015432
21
-11.943941
31
0
39
0
210
0
220
0
230
1
0
LINE
5
CC
100
AcDbEntity
8
SK1
62
256
6
ByLayer
370
18
48
1
60
0
100
AcDbLine
10
-1.6
20
-15.996
30
0
11
-1.6
21
0
31
0
39
0
210
0
220
0
230
1
0
LINE
5
CD
100
AcDbEntity
8
SK1
62
256
6
ByLayer
370
18
48
1
60
0
100
AcDbLine
10
-1.6
20
0
30
0
11
-1.6
21
15.996
31
0
39
0
210
0
220
0
230
1
0
LINE
5
CE
100
AcDbEntity
8
SK1
62
256
6
ByLayer
370
13
48
1
60
0
100
AcDbLine
10
-0.15
20
0
30
0
11
-0.15
21
-15.746
31
0
39
0
210
0
220
0
230
1
0
LINE
5
CF
100
AcDbEntity
8
SK1
62
256
6
ByLayer
370
13
48
1
60
0
100
AcDbLine
10
-0.15
20
15.746
30
0
11
-0.15
21
0
31
0
39
0
210
0
220
0
230
1
0
LINE
5
D0
100
AcDbEntity
8
SK1
62
256
6
ByLayer
370
13
48
1
60
0
100
AcDbLine
10
-57.426311
20
-15.887988
30
0
11
-57.426311
21
0
31
0
39
0
210
0
220
0
230
1
0
LINE
5
D1
100
AcDbEntity
8
SK1
62
256
6
ByLayer
370
13
48
1
60
0
100
AcDbLine
10
-57.426311
20
0
30
0
11
-57.426311
21
15.887988
31
0
39
0
210
0
220
0
230
1
0
LINE
5
D2
100
AcDbEntity
8
SK1
62
256
6
ByLayer
370
18
48
1
60
0
100
AcDbLine
10
-58.6
20
-15.996
30
0
11
-58.6
21
15.996
31
0
39
0
210
0
220
0
230
1
0
LINE
5
D3
100
AcDbEntity
8
SK1
62
256
6
ByLayer
370
13
48
1
60
0
100
AcDbLine
10
-1.144243
20
0
30
0
11
-1.144243
21
-15.783477
31
0
39
0
210
0
220
0
230
1
0
LINE
5
D4
100
AcDbEntity
8
SK1
62
256
6
ByLayer
370
13
48
1
60
0
100
AcDbLine
10
-1.144243
20
15.783477
30
0
11
-1.144243
21
0
31
0
39
0
210
0
220
0
230
1
0
LINE
5
D5
100
AcDbEntity
8
SK1
62
256
6
ByLayer
370
13
48
1
60
0
100
AcDbLine
10
-6.5
20
-8.082178
30
0
11
-6.5
21
8.082178
31
0
39
0
210
0
220
0
230
1
0
LINE
5
D6
100
AcDbEntity
8
SK1
62
256
6
ByLayer
370
13
48
1
60
0
100
AcDbLine
10
-53.5
20
8.082178
30
0
11
-53.5
21
-8.082178
31
0
39
0
210
0
220
0
230
1
0
LINE
5
D7
100
AcDbEntity
8
SK1
62
256
6
ByLayer
370
18
48
1
60
0
100
AcDbLine
10
-53.5
20
-8.082178
30
0
11
-6.5
21
-8.082178
31
0
39
0
210
0
220
0
230
1
0
LINE
5
D8
100
AcDbEntity
8
SK1
62
256
6
ByLayer
370
18
48
1
60
0
100
AcDbLine
10
-60
20
0
30
0
11
-60
21
-14.996
31
0
39
0
210
0
220
0
230
1
0
LINE
5
D9
100
AcDbEntity
8
SK1
62
256
6
ByLayer
370
18
48
1
60
0
100
AcDbLine
10
-60
20
14.996
30
0
11
-60
21
0
31
0
39
0
210
0
220
0
230
1
0
LINE
5
DA
100
AcDbEntity
8
SK1
62
256
6
ByLayer
370
13
48
1
60
0
100
AcDbLine
10
-0.975195
20
15.746
30
0
11
-0.975195
21
-15.746
31
0
39
0
210
0
220
0
230
1
0
LINE
5
DB
100
AcDbEntity
8
SK1
62
256
6
ByLayer
370
18
48
1
60
0
100
AcDbLine
10
-6.5
20
8.082178
30
0
11
-53.5
21
8.082178
31
0
39
0
210
0
220
0
230
1
0
LINE
5
DC
100
AcDbEntity
8
SK1
62
256
6
ByLayer
370
13
48
1
60
0
100
AcDbLine
10
-58.449692
20
-15.874283
30
0
11
-58.449692
21
0
31
0
39
0
210
0
220
0
230
1
0
LINE
5
DD
100
AcDbEntity
8
SK1
62
256
6
ByLayer
370
13
48
1
60
0
100
AcDbLine
10
-58.449692
20
0
30
0
11
-58.449692
21
15.874283
31
0
39
0
210
0
220
0
230
1
0
LINE
5
DE
100
AcDbEntity
8
SK1
62
256
6
ByLayer
370
18
48
1
60
0
100
AcDbLine
10
-59
20
0
30
0
11
-59
21
-15.996
31
0
39
0
210
0
220
0
230
1
0
LINE
5
DF
100
AcDbEntity
8
SK1
62
256
6
ByLayer
370
18
48
1
60
0
100
AcDbLine
10
-59
20
15.996
30
0
11
-59
21
0
31
0
39
0
210
0
220
0
230
1
0
LINE
5
E0
100
AcDbEntity
8
SK1
62
256
6
ByLayer
370
18
48
1
60
0
100
AcDbLine
10
-57.3
20
0
30
0
11
-57.3
21
-15.996
31
0
39
0
210
0
220
0
230
1
0
LINE
5
E1
100
AcDbEntity
8
SK1
62
256
6
ByLayer
370
18
48
1
60
0
100
AcDbLine
10
-57.3
20
15.996
30
0
11
-57.3
21
0
31
0
39
0
210
0
220
0
230
1
0
MTEXT
5
194
100
AcDbEntity
8
SK6
62
256
6
ByLayer
370
13
48
1
60
0
100
AcDbMText
10
75.47627
20
35.375134
30
0
210
0
220
0
230
1
1
\W0.7373;870-2600-26L32-8
40
3.5
41
0
44
1.084337
50
0
71
7
72
5
7
iso_b_vert
0
DIMENSION
5
1A2
100
AcDbEntity
8
2
62
256
6
ByLayer
370
13
48
1
60
0
100
AcDbDimension
2
DimnDraft3D1
10
27
20
-26
30
0
11
138.5
21
-26
31
0
70
32
71
5
72
1
41
1
210
0
220
0
230
1
3
Standard
100
AcDbAlignedDimension
13
250
23
-1.5875
33
0
14
27
24
-14.5875
34
0
50
0
100
AcDbRotatedDimension
1001
ACAD
1000
DSTYLE
1002
{
1070
   279
1070
     0
1070
   172
1070
     1
1070
   173
1070
     1
1070
   340
1005
195
1070
   271
1070
     1
1070
   272
1070
     2
1070
    77
1070
     1
1070
    73
1070
     0
1070
   171
1070
     3
1070
   274
1070
     4
1070
   177
1070
     7
1070
   176
1070
     7
1070
   178
1070
     7
1070
    48
1040
-0.005
1070
    41
1041
3.5
1070
   147
1041
1.5
1070
    42
1041
1.5875
1070
    44
1041
2.0
1070
   140
1041
3.0
1070
   343
1005
0
1070
   344
1005
0
1002
}
0
DIMENSION
5
1AC
100
AcDbEntity
8
2
62
256
6
ByLayer
370
13
48
1
60
0
100
AcDbDimension
2
DimnDraft3D2
10
30
20
20
30
0
11
140
21
20
31
0
70
32
71
5
72
1
41
1
210
0
220
0
230
1
3
Standard
100
AcDbAlignedDimension
13
250
23
1.5875
33
0
14
30
24
14.5875
34
0
50
0
100
AcDbRotatedDimension
1001
ACAD
1000
DSTYLE
1002
{
1070
   279
1070
     0
1070
   172
1070
     1
1070
   173
1070
     1
1070
   340
1005
195
1070
   271
1070
     1
1070
   272
1070
     2
1070
    77
1070
     1
1070
    73
1070
     0
1070
   171
1070
     3
1070
   274
1070
     4
1070
   177
1070
     7
1070
   176
1070
     7
1070
   178
1070
     7
1070
    48
1040
-0.005
1070
    41
1041
3.5
1070
   147
1041
1.5
1070
    42
1041
1.5875
1070
    44
1041
2.0
1070
   140
1041
3.0
1070
   343
1005
0
1070
   344
1005
0
1002
}
0
DIMENSION
5
1B7
100
AcDbEntity
8
SK2
62
256
6
ByLayer
370
13
48
1
60
0
100
AcDbDimension
2
DimnDraft3D3
10
0
20
-39
30
0
11
-30
21
-39
31
0
70
32
71
5
72
1
41
1
210
0
220
0
230
1
3
Standard
100
AcDbAlignedDimension
13
-60
23
-17.5875
33
0
14
0
24
-21.5875
34
0
50
0
100
AcDbRotatedDimension
1001
ACAD
1000
DSTYLE
1002
{
1070
   279
1070
     0
1070
   172
1070
     1
1070
   173
1070
     1
1070
   340
1005
195
1070
   271
1070
     1
1070
   272
1070
     2
1070
    77
1070
     1
1070
    73
1070
     0
1070
   171
1070
     3
1070
   274
1070
     4
1070
   177
1070
     7
1070
   176
1070
     7
1070
   178
1070
     7
1070
    48
1040
-0.005
1070
    41
1041
3.5
1070
   147
1041
1.5
1070
    42
1041
1.5875
1070
    44
1041
2.0
1070
   140
1041
3.0
1070
   343
1005
0
1070
   344
1005
0
1002
}
0
DIMENSION
5
1C1
100
AcDbEntity
8
2
62
256
6
ByLayer
370
13
48
1
60
0
100
AcDbDimension
2
DimnDraft3D4
10
250
20
-39
30
0
11
125
21
-39
31
0
70
32
71
5
72
1
41
1
210
0
220
0
230
1
3
Standard
100
AcDbAlignedDimension
13
0
23
-21.5875
33
0
14
250
24
-1.5875
34
0
50
0
100
AcDbRotatedDimension
1001
ACAD
1000
DSTYLE
1002
{
1070
   279
1070
     0
1070
   172
1070
     1
1070
   173
1070
     1
1070
   340
1005
195
1070
   271
1070
     1
1070
   272
1070
     2
1070
    77
1070
     1
1070
    73
1070
     0
1070
   171
1070
     3
1070
   274
1070
     4
1070
   177
1070
     7
1070
   176
1070
     7
1070
   178
1070
     7
1070
    48
1040
-0.005
1070
    41
1041
3.5
1070
   147
1041
1.5
1070
    42
1041
1.5875
1070
    44
1041
2.0
1070
   140
1041
3.0
1070
   343
1005
0
1070
   344
1005
0
1002
}
0
DIMENSION
5
1CC
100
AcDbEntity
8
SK2
62
256
6
ByLayer
370
13
48
1
60
0
100
AcDbDimension
2
DimnDraft3D5
10
-68.25
20
-16
30
0
11
-68.5
21
-0.520456
31
0
70
33
71
5
72
1
41
1
210
0
220
0
230
1
3
Standard
100
AcDbAlignedDimension
13
-61.5875
23
16
33
0
14
-61.5875
24
-16
34
0
1001
ACAD
1000
DSTYLE
1002
{
1070
   279
1070
     0
1070
    74
1070
     0
1070
   173
1070
     1
1070
   340
1005
195
1070
   271
1070
     1
1070
   272
1070
     2
1070
    77
1070
     1
1070
    73
1070
     0
1070
   171
1070
     3
1070
   274
1070
     4
1070
   177
1070
     7
1070
   176
1070
     7
1070
   178
1070
     7
1070
    48
1040
-0.005
1070
    41
1041
3.5
1070
   147
1041
1.5
1070
    42
1041
1.5875
1070
    44
1041
2.0
1070
   140
1041
3.0
1070
   343
1005
0
1070
   344
1005
0
1002
}
0
ENDSEC
0
SECTION
2
OBJECTS
0
DICTIONARY
5
237
330
0
100
AcDbDictionary
280
0
281
1
3
ACAD_GROUP
350
238
3
ACAD_MLINESTYLE
350
239
0
DICTIONARY
5
238
330
0
100
AcDbDictionary
280
0
281
1
0
DICTIONARY
5
239
330
0
100
AcDbDictionary
280
0
281
1
3
Standard
350
18
0
MLINESTYLE
5
18
330
239
100
AcDbMlineStyle
2
Standard
70
0
3

62
256
51
90
52
90
71
2
49
-0.5
62
256
6
ByLayer
49
0.5
62
256
6
ByLayer
0
RASTERVARIABLES
5
225
330

100
AcDbRasterVariables
90
0
70
1
71
1
72
1
0
ENDSEC
0
EOF
