0
SECTION
2
HEADER
9
$ACADVER
1
AC1015
9
$DWGCODEPAGE
3
ANSI_1252
9
$HANDSEED
5
237
9
$ANGBASE
50
0
9
$ANGDIR
70
0
9
$ATTMODE
70
1
9
$AUNITS
70
0
9
$AUPREC
70
0
9
$CECOLOR
62
256
9
$CELTSCALE
40
1
9
$CELTYPE
6
ByLayer
9
$CELWEIGHT
370
18
9
$CLAYER
8
0
9
$CMLJUST
70
0
9
$CMLSCALE
40
1
9
$CMLSTYLE
2
Standard
9
$DIMSTYLE
2
Standard
9
$TEXTSIZE
40
0.2
9
$TEXTSTYLE
7
Standard
9
$LUNITS
70
2
9
$LUPREC
70
4
9
$EXTNAMES
290
1
9
$INSUNITS
70
4
9
$LTSCALE
40
1
9
$LWDISPLAY
290
1
9
$PDMODE
70
0
9
$PDSIZE
40
0
9
$PLINEGEN
70
0
0
ENDSEC
0
SECTION
2
CLASSES
0
CLASS
1
RASTERVARIABLES
2
AcDbRasterVariables
3
ISM
90
0
280
0
281
0
0
ENDSEC
0
SECTION
2
TABLES
0
TABLE
2
VPORT
5
22d
100
AcDbSymbolTable
0
VPORT
5
1
100
AcDbSymbolTableRecord
100
AcDbViewportTableRecord
2
*Active
70
0
10
0
20
0
11
1
21
1
12
-1
22
1
13
0
23
0
14
0.5
24
0.5
15
10
25
10
16
0
26
0
36
1
17
0
27
0
37
0
0
ENDTAB
0
TABLE
2
LTYPE
5
22e
100
AcDbSymbolTable
0
LTYPE
5
14
100
AcDbSymbolTableRecord
100
AcDbLinetypeTableRecord
70
0
2
ByBlock
3

72
65
73
0
40
0
0
LTYPE
5
15
100
AcDbSymbolTableRecord
100
AcDbLinetypeTableRecord
70
0
2
ByLayer
3

72
65
73
0
40
0
0
LTYPE
5
16
100
AcDbSymbolTableRecord
100
AcDbLinetypeTableRecord
70
0
2
CONTINUOUS
3
Solid line
72
65
73
0
40
0
0
LTYPE
5
6A
100
AcDbSymbolTableRecord
100
AcDbLinetypeTableRecord
70
0
2
CENTER
3
____ _ ____ _ ____ _ ____
72
65
73
4
40
47.5
49
22
74
0
49
-8.5
74
0
49
8.5
74
0
49
-8.5
74
0
0
LTYPE
5
6B
100
AcDbSymbolTableRecord
100
AcDbLinetypeTableRecord
70
0
2
DASHED
3
__ __ __ __ __ __ __ __ __
72
65
73
2
40
25.72
49
12.86
74
0
49
-12.86
74
0
0
ENDTAB
0
TABLE
2
LAYER
5
22f
100
AcDbSymbolTable
0
LAYER
5
10
100
AcDbSymbolTableRecord
100
AcDbLayerTableRecord
2
0
70
0
62
7
6
CONTINUOUS
290
1
370
-3
390
0
0
LAYER
5
6D
100
AcDbSymbolTableRecord
100
AcDbLayerTableRecord
2
80
70
0
62
-6
6
CONTINUOUS
290
1
370
-3
390
0
0
LAYER
5
6F
100
AcDbSymbolTableRecord
100
AcDbLayerTableRecord
2
81
70
0
62
-3
6
CONTINUOUS
290
1
370
-3
390
0
0
LAYER
5
72
100
AcDbSymbolTableRecord
100
AcDbLayerTableRecord
2
1
70
0
62
4
6
CONTINUOUS
290
1
370
-3
390
0
0
LAYER
5
91
100
AcDbSymbolTableRecord
100
AcDbLayerTableRecord
2
4
70
0
62
-2
6
CENTER
290
1
370
-3
390
0
0
LAYER
5
18D
100
AcDbSymbolTableRecord
100
AcDbLayerTableRecord
2
2
70
0
62
7
6
CONTINUOUS
290
1
370
-3
390
0
0
LAYER
5
219
100
AcDbSymbolTableRecord
100
AcDbLayerTableRecord
2
SK1
70
0
62
4
6
CONTINUOUS
290
1
370
-3
390
0
0
LAYER
5
21a
100
AcDbSymbolTableRecord
100
AcDbLayerTableRecord
2
SK4
70
0
62
2
6
CENTER
290
1
370
-3
390
0
0
LAYER
5
21b
100
AcDbSymbolTableRecord
100
AcDbLayerTableRecord
2
SK6
70
0
62
5
6
CONTINUOUS
290
1
370
-3
390
0
0
LAYER
5
21c
100
AcDbSymbolTableRecord
100
AcDbLayerTableRecord
2
SK2
70
0
62
7
6
CONTINUOUS
290
1
370
-3
390
0
0
ENDTAB
0
TABLE
2
STYLE
5
230
100
AcDbSymbolTable
0
STYLE
5
11
100
AcDbSymbolTableRecord
100
AcDbTextStyleTableRecord
2
Standard
3
txt
70
0
71
0
40
0
41
1
42
0
50
0
0
STYLE
5
188
100
AcDbSymbolTableRecord
100
AcDbTextStyleTableRecord
2
iso_b_vert
3
simplex.shx
70
0
71
0
40
0
41
1
42
0
50
0
0
STYLE
5
189
100
AcDbSymbolTableRecord
100
AcDbTextStyleTableRecord
2
DWGDirectTextStyle
3
simplex
70
0
71
0
40
0
41
1
42
0
50
0
0
ENDTAB
0
TABLE
2
DIMSTYLE
5
231
100
AcDbSymbolTable
100
AcDbDimStyleTable
0
DIMSTYLE
105
27
100
AcDbSymbolTableRecord
100
AcDbDimStyleTableRecord
2
Standard
70
0
3
<>
41
0.18
42
0.0625
44
0.18
140
0.18
147
0.09
73
0
74
0
77
1
271
2
275
0
278
52
280
0
340
11
0
ENDTAB
0
TABLE
2
VIEW
5
232
100
AcDbSymbolTable
0
ENDTAB
0
TABLE
2
UCS
5
233
100
AcDbSymbolTable
0
ENDTAB
0
TABLE
2
APPID
5
234
100
AcDbSymbolTable
0
APPID
5
12
100
AcDbSymbolTableRecord
100
AcDbRegAppTableRecord
2
ACAD
70
0
0
ENDTAB
0
TABLE
2
BLOCK_RECORD
5
235
100
AcDbSymbolTable
0
BLOCK_RECORD
5
1F
100
AcDbSymbolTableRecord
100
AcDbBlockTableRecord
2
*Model_Space
340
0
70
0
0
BLOCK_RECORD
5
1B
100
AcDbSymbolTableRecord
100
AcDbBlockTableRecord
2
*Paper_Space
340
0
70
0
0
BLOCK_RECORD
5
23
100
AcDbSymbolTableRecord
100
AcDbBlockTableRecord
2
*Paper_Space0
340
0
70
0
0
BLOCK_RECORD
5
18B
100
AcDbSymbolTableRecord
100
AcDbBlockTableRecord
2
DimnDraft3D1
340
0
70
0
0
BLOCK_RECORD
5
196
100
AcDbSymbolTableRecord
100
AcDbBlockTableRecord
2
DimnDraft3D2
340
0
70
0
0
BLOCK_RECORD
5
1A0
100
AcDbSymbolTableRecord
100
AcDbBlockTableRecord
2
DimnDraft3D3
340
0
70
0
0
BLOCK_RECORD
5
1AB
100
AcDbSymbolTableRecord
100
AcDbBlockTableRecord
2
DimnDraft3D4
340
0
70
0
0
BLOCK_RECORD
5
1B5
100
AcDbSymbolTableRecord
100
AcDbBlockTableRecord
2
DimnDraft3D5
340
0
70
0
0
ENDTAB
0
ENDSEC
0
SECTION
2
BLOCKS
0
BLOCK
5
20
100
AcDbEntity
8
0
100
AcDbBlockBegin
2
*Model_Space
70
0
10
0
20
0
30
0
3
*Model_Space
0
ENDBLK
5
21
100
AcDbEntity
8
0
100
AcDbBlockEnd
0
BLOCK
5
1C
100
AcDbEntity
8
0
100
AcDbBlockBegin
2
*Paper_Space
70
0
10
0
20
0
30
0
3
*Paper_Space
0
ENDBLK
5
1D
100
AcDbEntity
8
0
100
AcDbBlockEnd
0
BLOCK
5
24
100
AcDbEntity
8
0
100
AcDbBlockBegin
2
*Paper_Space0
70
0
10
0
20
0
30
0
3
*Paper_Space0
0
ENDBLK
5
25
100
AcDbEntity
8
0
100
AcDbBlockEnd
0
BLOCK
5
193
100
AcDbEntity
8
0
100
AcDbBlockBegin
2
DimnDraft3D1
70
0
10
0
20
0
30
0
3
DimnDraft3D1
0
MTEXT
5
18C
100
AcDbEntity
8
2
62
256
6
ByLayer
370
13
48
1
60
0
100
AcDbMText
10
68.729544
20
-25.249886
30
0
210
0
220
0
230
1
1
\W0.7346;89.0
40
3
41
0
44
1.084337
50
0
71
7
72
5
7
iso_b_vert
0
LINE
5
18E
100
AcDbEntity
8
2
62
256
6
ByLayer
370
13
48
1
60
0
100
AcDbLine
10
116
20
-1.5875
30
0
11
116
21
-28
31
0
39
0
210
0
220
0
230
1
0
LINE
5
18F
100
AcDbEntity
8
2
62
256
6
ByLayer
370
13
48
1
60
0
100
AcDbLine
10
27
20
-14.5875
30
0
11
27
21
-28
31
0
39
0
210
0
220
0
230
1
0
LINE
5
190
100
AcDbEntity
8
2
62
256
6
ByLayer
370
13
48
1
60
0
100
AcDbLine
10
116
20
-26
30
0
11
27
21
-26
31
0
39
0
210
0
220
0
230
1
0
SOLID
5
191
100
AcDbEntity
8
2
62
256
6
ByLayer
370
13
48
1
60
0
100
AcDbTrace
10
116
20
-26
30
0
11
112.500002
21
-26.460784
31
0
12
112.499998
22
-25.539216
32
0
13
116
23
-26
33
0
39
0
210
0
220
0
230
1
0
SOLID
5
192
100
AcDbEntity
8
2
62
256
6
ByLayer
370
13
48
1
60
0
100
AcDbTrace
10
27
20
-26
30
0
11
30.499998
21
-25.539216
31
0
12
30.500002
22
-26.460784
32
0
13
27
23
-26
33
0
39
0
210
0
220
0
230
1
0
ENDBLK
5
194
100
AcDbEntity
8
0
100
AcDbBlockEnd
0
BLOCK
5
19D
100
AcDbEntity
8
0
100
AcDbBlockBegin
2
DimnDraft3D2
70
0
10
0
20
0
30
0
3
DimnDraft3D2
0
MTEXT
5
197
100
AcDbEntity
8
2
62
256
6
ByLayer
370
13
48
1
60
0
100
AcDbMText
10
70.229544
20
20.750114
30
0
210
0
220
0
230
1
1
\W0.7346;86.0
40
3
41
0
44
1.084337
50
0
71
7
72
5
7
iso_b_vert
0
LINE
5
198
100
AcDbEntity
8
2
62
256
6
ByLayer
370
13
48
1
60
0
100
AcDbLine
10
116
20
1.5875
30
0
11
116
21
22
31
0
39
0
210
0
220
0
230
1
0
LINE
5
199
100
AcDbEntity
8
2
62
256
6
ByLayer
370
13
48
1
60
0
100
AcDbLine
10
30
20
14.5875
30
0
11
30
21
22
31
0
39
0
210
0
220
0
230
1
0
LINE
5
19A
100
AcDbEntity
8
2
62
256
6
ByLayer
370
13
48
1
60
0
100
AcDbLine
10
116
20
20
30
0
11
30
21
20
31
0
39
0
210
0
220
0
230
1
0
SOLID
5
19B
100
AcDbEntity
8
2
62
256
6
ByLayer
370
13
48
1
60
0
100
AcDbTrace
10
116
20
20
30
0
11
112.500002
21
19.539216
31
0
12
112.499998
22
20.460784
32
0
13
116
23
20
33
0
39
0
210
0
220
0
230
1
0
SOLID
5
19C
100
AcDbEntity
8
2
62
256
6
ByLayer
370
13
48
1
60
0
100
AcDbTrace
10
30
20
20
30
0
11
33.499998
21
20.460784
31
0
12
33.500002
22
19.539216
32
0
13
30
23
20
33
0
39
0
210
0
220
0
230
1
0
ENDBLK
5
19E
100
AcDbEntity
8
0
100
AcDbBlockEnd
0
BLOCK
5
1A8
100
AcDbEntity
8
0
100
AcDbBlockBegin
2
DimnDraft3D3
70
0
10
0
20
0
30
0
3
DimnDraft3D3
0
MTEXT
5
1A1
100
AcDbEntity
8
SK2
62
256
6
ByLayer
370
13
48
1
60
0
100
AcDbMText
10
-32.770456
20
-38.249886
30
0
210
0
220
0
230
1
1
\W0.7346;60.0
40
3
41
0
44
1.084337
50
0
71
7
72
5
7
iso_b_vert
0
LINE
5
1A3
100
AcDbEntity
8
SK2
62
256
6
ByLayer
370
13
48
1
60
0
100
AcDbLine
10
-60
20
-17.5875
30
0
11
-60
21
-41
31
0
39
0
210
0
220
0
230
1
0
LINE
5
1A4
100
AcDbEntity
8
SK2
62
256
6
ByLayer
370
13
48
1
60
0
100
AcDbLine
10
0
20
-21.5875
30
0
11
0
21
-41
31
0
39
0
210
0
220
0
230
1
0
LINE
5
1A5
100
AcDbEntity
8
SK2
62
256
6
ByLayer
370
13
48
1
60
0
100
AcDbLine
10
-60
20
-39
30
0
11
0
21
-39
31
0
39
0
210
0
220
0
230
1
0
SOLID
5
1A6
100
AcDbEntity
8
SK2
62
256
6
ByLayer
370
13
48
1
60
0
100
AcDbTrace
10
-60
20
-39
30
0
11
-56.500002
21
-38.539216
31
0
12
-56.499998
22
-39.460784
32
0
13
-60
23
-39
33
0
39
0
210
0
220
0
230
1
0
SOLID
5
1A7
100
AcDbEntity
8
SK2
62
256
6
ByLayer
370
13
48
1
60
0
100
AcDbTrace
10
0
20
-39
30
0
11
-3.499998
21
-39.460784
31
0
12
-3.500002
22
-38.539216
32
0
13
0
23
-39
33
0
39
0
210
0
220
0
230
1
0
ENDBLK
5
1A9
100
AcDbEntity
8
0
100
AcDbBlockEnd
0
BLOCK
5
1B2
100
AcDbEntity
8
0
100
AcDbBlockBegin
2
DimnDraft3D4
70
0
10
0
20
0
30
0
3
DimnDraft3D4
0
MTEXT
5
1AC
100
AcDbEntity
8
2
62
256
6
ByLayer
370
13
48
1
60
0
100
AcDbMText
10
54.858515
20
-38.249886
30
0
210
0
220
0
230
1
1
\W0.6261;116.0
40
3
41
0
44
1.084337
50
0
71
7
72
5
7
iso_b_vert
0
LINE
5
1AD
100
AcDbEntity
8
2
62
256
6
ByLayer
370
13
48
1
60
0
100
AcDbLine
10
0
20
-21.5875
30
0
11
0
21
-41
31
0
39
0
210
0
220
0
230
1
0
LINE
5
1AE
100
AcDbEntity
8
2
62
256
6
ByLayer
370
13
48
1
60
0
100
AcDbLine
10
116
20
-1.5875
30
0
11
116
21
-41
31
0
39
0
210
0
220
0
230
1
0
LINE
5
1AF
100
AcDbEntity
8
2
62
256
6
ByLayer
370
13
48
1
60
0
100
AcDbLine
10
0
20
-39
30
0
11
116
21
-39
31
0
39
0
210
0
220
0
230
1
0
SOLID
5
1B0
100
AcDbEntity
8
2
62
256
6
ByLayer
370
13
48
1
60
0
100
AcDbTrace
10
0
20
-39
30
0
11
3.499998
21
-38.539216
31
0
12
3.500002
22
-39.460784
32
0
13
0
23
-39
33
0
39
0
210
0
220
0
230
1
0
SOLID
5
1B1
100
AcDbEntity
8
2
62
256
6
ByLayer
370
13
48
1
60
0
100
AcDbTrace
10
116
20
-39
30
0
11
112.500002
21
-39.460784
31
0
12
112.499998
22
-38.539216
32
0
13
116
23
-39
33
0
39
0
210
0
220
0
230
1
0
ENDBLK
5
1B3
100
AcDbEntity
8
0
100
AcDbBlockEnd
0
BLOCK
5
1BD
100
AcDbEntity
8
0
100
AcDbBlockBegin
2
DimnDraft3D5
70
0
10
0
20
0
30
0
3
DimnDraft3D5
0
MTEXT
5
1B6
100
AcDbEntity
8
SK2
62
256
6
ByLayer
370
13
48
1
60
0
100
AcDbMText
10
-67.750114
20
0.229544
30
0
210
0
220
0
230
1
1
\W0.7346;32.0
40
3
41
0
44
1.084337
50
90
71
7
72
5
7
iso_b_vert
0
MTEXT
5
1B7
100
AcDbEntity
8
SK2
62
256
6
ByLayer
370
13
48
1
60
0
100
AcDbMText
10
-67.750114
20
-4.247019
30
0
210
0
220
0
230
1
1
%%c
40
3
41
0
44
1.084337
50
90
71
7
72
5
7
iso_b_vert
0
LINE
5
1B8
100
AcDbEntity
8
SK2
62
256
6
ByLayer
370
13
48
1
60
0
100
AcDbLine
10
-61.5875
20
16
30
0
11
-68.25
21
16
31
0
39
0
210
0
220
0
230
1
0
LINE
5
1B9
100
AcDbEntity
8
SK2
62
256
6
ByLayer
370
13
48
1
60
0
100
AcDbLine
10
-61.5875
20
-16
30
0
11
-68.25
21
-16
31
0
39
0
210
0
220
0
230
1
0
LINE
5
1BA
100
AcDbEntity
8
SK2
62
256
6
ByLayer
370
13
48
1
60
0
100
AcDbLine
10
-66.25
20
16
30
0
11
-66.25
21
-16
31
0
39
0
210
0
220
0
230
1
0
SOLID
5
1BB
100
AcDbEntity
8
SK2
62
256
6
ByLayer
370
13
48
1
60
0
100
AcDbTrace
10
-66.25
20
16
30
0
11
-65.789216
21
12.500002
31
0
12
-66.710784
22
12.499998
32
0
13
-66.25
23
16
33
0
39
0
210
0
220
0
230
1
0
SOLID
5
1BC
100
AcDbEntity
8
SK2
62
256
6
ByLayer
370
13
48
1
60
0
100
AcDbTrace
10
-66.25
20
-16
30
0
11
-66.710784
21
-12.500002
31
0
12
-65.789216
22
-12.499998
32
0
13
-66.25
23
-16
33
0
39
0
210
0
220
0
230
1
0
ENDBLK
5
1BE
100
AcDbEntity
8
0
100
AcDbBlockEnd
0
ENDSEC
0
SECTION
2
ENTITIES
0
ARC
5
E0
100
AcDbEntity
8
SK1
62
256
6
ByLayer
370
18
48
1
60
0
100
AcDbCircle
39
0
10
57.946236
20
-16.496
30
0
40
0.800000000000005
210
0
220
0
230
-1
100
AcDbArc
50
51
51
130.534532
0
ARC
5
E1
100
AcDbEntity
8
SK1
62
256
6
ByLayer
370
18
48
1
60
0
100
AcDbCircle
39
0
10
57.946236
20
16.496
30
0
40
0.800000000000005
210
0
220
0
230
-1
100
AcDbArc
50
229.465468
51
309
0
ARC
5
E2
100
AcDbEntity
8
SK1
62
256
6
ByLayer
370
18
48
1
60
0
100
AcDbCircle
39
0
10
0.975195
20
16.146
30
0
40
0.4
210
0
220
0
230
-1
100
AcDbArc
50
270
51
295
0
ARC
5
E3
100
AcDbEntity
8
SK1
62
256
6
ByLayer
370
18
48
1
60
0
100
AcDbCircle
39
0
10
0.975195
20
-16.146
30
0
40
0.4
210
0
220
0
230
-1
100
AcDbArc
50
65
51
90
0
ARC
5
E4
100
AcDbEntity
8
1
62
256
6
ByLayer
370
18
48
1
60
0
100
AcDbCircle
39
0
10
-27
20
20.5
30
0
40
8
210
0
220
0
230
-1
100
AcDbArc
50
270
51
294.987592
0
ARC
5
E5
100
AcDbEntity
8
1
62
256
6
ByLayer
370
18
48
1
60
0
100
AcDbCircle
39
0
10
-27
20
-20.5
30
0
40
8
210
0
220
0
230
-1
100
AcDbArc
50
65.012408
51
90
0
ARC
5
E6
100
AcDbEntity
8
SK1
62
256
6
ByLayer
370
18
48
1
60
0
100
AcDbCircle
39
0
10
0.15
20
16.146
30
0
40
0.4
210
0
220
0
230
-1
100
AcDbArc
50
247.975687
51
270
0
ARC
5
E7
100
AcDbEntity
8
SK1
62
256
6
ByLayer
370
18
48
1
60
0
100
AcDbCircle
39
0
10
0.15
20
-16.146
30
0
40
0.4
210
0
220
0
230
-1
100
AcDbArc
50
90
51
112.024313
0
ELLIPSE
5
E8
100
AcDbEntity
8
1
62
256
6
ByLayer
370
18
48
1
60
0
100
AcDbEllipse
10
107.479026
20
-1.637405
30
0
11
0.00259068209314873
21
-1.7514939774758
31
0
210
0
220
0
230
1
40
0.343183
41
-0.766251272729472
42
0.765236050345416
0
ELLIPSE
5
E9
100
AcDbEntity
8
1
62
256
6
ByLayer
370
18
48
1
60
0
100
AcDbEllipse
10
94.08
20
-5.397157
30
0
11
-2.53000000000001
21
3.09825407517063E-16
31
0
210
0
220
0
230
1
40
0.702153
41
1.28864201660505
42
1.82605074067617
0
ELLIPSE
5
EA
100
AcDbEntity
8
1
62
256
6
ByLayer
370
13
48
1
60
0
100
AcDbEllipse
10
112.346362
20
4.425493
30
0
11
-0.0927699273740793
21
-0.0204631516391796
31
0
210
0
220
0
230
1
40
0.128734
41
-1.68851840488297
42
-1.40179130300016
0
ELLIPSE
5
EB
100
AcDbEntity
8
1
62
256
6
ByLayer
370
18
48
1
60
0
100
AcDbEllipse
10
116.011102
20
0.015765
30
0
11
4.53280892443657
21
13.0172419108426
31
0
210
0
220
0
230
1
40
0.077207
41
-2.8875836355273
42
-2.789348076048
0
ELLIPSE
5
EC
100
AcDbEntity
8
1
62
256
6
ByLayer
370
13
48
1
60
0
100
AcDbEllipse
10
84.07
20
13.161554
30
0
11
6.57473110895359
21
-6.14596703903843
31
0
210
0
220
0
230
1
40
0.230708
41
0.889568468856545
42
1.01199260439416
0
ELLIPSE
5
ED
100
AcDbEntity
8
1
62
256
6
ByLayer
370
18
48
1
60
0
100
AcDbEllipse
10
116.011102
20
-0.015765
30
0
11
4.53280891844104
21
-13.0172418924503
31
0
210
0
220
0
230
1
40
0.077207
41
2.78934807579796
42
2.88758363534851
0
ELLIPSE
5
EE
100
AcDbEntity
8
1
62
256
6
ByLayer
370
13
48
1
60
0
100
AcDbEllipse
10
114.595261
20
1.206892
30
0
11
-0.0544235218676437
21
-0.0778657836762857
31
0
210
0
220
0
230
1
40
0.550074
41
-2.35740611969723
42
-1.67462492420277
0
ELLIPSE
5
EF
100
AcDbEntity
8
1
62
256
6
ByLayer
370
13
48
1
60
0
100
AcDbEllipse
10
114.572449
20
1.222952
30
0
11
-0.0549522107454297
21
-0.0774935773738048
31
0
210
0
220
0
230
1
40
0.55056
41
-2.35027580597636
42
-1.6708986552137
0
ELLIPSE
5
F0
100
AcDbEntity
8
1
62
256
6
ByLayer
370
18
48
1
60
0
100
AcDbEllipse
10
107.193166
20
-1.625241
30
0
11
0.446299186014219
21
-1.76253623244548
31
0
210
0
220
0
230
1
40
0.321546
41
0.684502979883095
42
-0.846984343191614
0
ELLIPSE
5
F1
100
AcDbEntity
8
1
62
256
6
ByLayer
370
18
48
1
60
0
100
AcDbEllipse
10
126.192983
20
0
30
0
11
17.2217955143467
21
11.6737660196172
31
0
210
0
220
0
230
1
40
0.290406
41
2.95064303436399
42
-3.10737398501897
0
ELLIPSE
5
F2
100
AcDbEntity
8
1
62
256
6
ByLayer
370
18
48
1
60
0
100
AcDbEllipse
10
115.950102
20
0.259939
30
0
11
0.044624025905699
21
-0.146773164673474
31
0
210
0
220
0
230
1
40
0.05855
41
-2.43183944710841
42
-1.74905825761555
0
ELLIPSE
5
F3
100
AcDbEntity
8
1
62
256
6
ByLayer
370
18
48
1
60
0
100
AcDbEllipse
10
26.900633
20
-1.752537
30
0
11
3.13485827476599
21
8.43638925116256
31
0
210
0
220
0
230
1
40
0.705355
41
0.463784126979013
42
2.77260059445886
0
ELLIPSE
5
F4
100
AcDbEntity
8
1
62
256
6
ByLayer
370
18
48
1
60
0
100
AcDbEllipse
10
116.005664
20
0
30
0
11
5.15924320581652
21
-12.6300248672646
31
0
210
0
220
0
230
1
40
0.349717
41
2.98233229601823
42
2.99970199422083
0
ELLIPSE
5
F5
100
AcDbEntity
8
1
62
256
6
ByLayer
370
18
48
1
60
0
100
AcDbEllipse
10
116.005664
20
0
30
0
11
5.15924320574096
21
12.6300248670735
31
0
210
0
220
0
230
1
40
0.349717
41
2.92427609962954
42
-2.98233229601697
0
ELLIPSE
5
F6
100
AcDbEntity
8
1
62
256
6
ByLayer
370
18
48
1
60
0
100
AcDbEllipse
10
76.227974
20
-3E-06
30
0
11
50.9200525327388
21
-11.2225011340391
31
0
210
0
220
0
230
1
40
0.116756
41
-1.39764933739788
42
-1.36652526410906
0
ELLIPSE
5
F7
100
AcDbEntity
8
1
62
256
6
ByLayer
370
18
48
1
60
0
100
AcDbEllipse
10
116.005308
20
0
30
0
11
4.4410188200575
21
-12.75364172235
31
0
210
0
220
0
230
1
40
0.077207
41
3.03597244121196
42
3.09735009542171
0
ELLIPSE
5
F8
100
AcDbEntity
8
1
62
256
6
ByLayer
370
18
48
1
60
0
100
AcDbEllipse
10
29.462247
20
-1E-06
30
0
11
27.0718635939452
21
-9.03928895465515
31
0
210
0
220
0
230
1
40
0.329524
41
1.4481608317148
42
1.47756818055217
0
ELLIPSE
5
F9
100
AcDbEntity
8
1
62
256
6
ByLayer
370
18
48
1
60
0
100
AcDbEllipse
10
116.005308
20
0
30
0
11
4.44101882015612
21
12.753641722654
31
0
210
0
220
0
230
1
40
0.077207
41
-3.09735009542216
42
-2.88554408713088
0
ELLIPSE
5
FA
100
AcDbEntity
8
1
62
256
6
ByLayer
370
18
48
1
60
0
100
AcDbEllipse
10
96.215
20
0
30
0
11
4.00373130712644
21
-12.1137558267488
31
0
210
0
220
0
230
1
40
1
41
-0.0393757616208579
42
0.0359082591550998
0
ELLIPSE
5
FB
100
AcDbEntity
8
1
62
256
6
ByLayer
370
13
48
1
60
0
100
AcDbEllipse
10
112.347033
20
4.42244
30
0
11
-0.0928019702835856
21
-0.0203173401675636
31
0
210
0
220
0
230
1
40
0.128916
41
-1.68831595870499
42
-1.4015877866968
0
ELLIPSE
5
FC
100
AcDbEntity
8
1
62
256
6
ByLayer
370
18
48
1
60
0
100
AcDbEllipse
10
115.950102
20
-0.259939
30
0
11
0.0446240259027904
21
0.146773164665195
31
0
210
0
220
0
230
1
40
0.05855
41
1.7490582575753
42
2.43183944709863
0
ELLIPSE
5
FD
100
AcDbEntity
8
1
62
256
6
ByLayer
370
18
48
1
60
0
100
AcDbEllipse
10
90.369248
20
-84.957194
30
0
11
78.9138001948197
21
-0.487558200163531
31
0
210
0
220
0
230
1
40
0.927843
41
1.4575190275565
42
1.4592897478917
0
POINT
5
6C
100
AcDbEntity
8
80
62
256
6
ByLayer
370
18
48
1
60
0
100
AcDbPoint
10
0
20
0
30
0
39
0
210
0
220
0
230
1
50
360
0
POINT
5
6E
100
AcDbEntity
8
81
62
256
6
ByLayer
370
18
48
1
60
0
100
AcDbPoint
10
99.6
20
0
30
0
39
0
210
0
220
0
230
1
50
360
0
SPLINE
5
FE
100
AcDbEntity
8
1
62
256
6
ByLayer
370
18
48
1
60
0
100
AcDbSpline
70
4
71
3
72
16
73
12
40
0
40
0
40
0
40
0
40
0.144460657252736
40
0.288821958881658
40
0.431937515280742
40
0.57252073454296
40
0.659247696132565
40
0.744763460531218
40
0.829460304463625
40
0.914125128673702
40
1
40
1
40
1
40
1
41
1
10
23.5299842374616
20
13.2910478842113
30
0
41
1
10
22.7839698379479
20
13.6510950199157
30
0
41
1
10
21.3091653751755
20
14.4014939326286
30
0
41
1
10
19.1747212357496
20
15.655760904857
30
0
41
1
10
17.0669243708217
20
16.908590553658
30
0
41
1
10
15.2086973766758
20
17.9362483589064
30
0
41
1
10
13.5885552143069
20
18.7046856892311
30
0
41
1
10
12.218177461183
20
19.2463851150451
30
0
41
1
10
10.817444720745
20
19.6651679585127
30
0
41
1
10
9.37597497439802
20
19.9372309329499
30
0
41
1
10
8.40174482131613
20
19.9981444829132
30
0
41
1
10
7.90710000000001
20
20
30
0
0
SPLINE
5
FF
100
AcDbEntity
8
1
62
256
6
ByLayer
370
18
48
1
60
0
100
AcDbSpline
70
4
71
3
72
16
73
12
40
0
40
0
40
0
40
0
40
0.0910195725315875
40
0.180773971232326
40
0.270694488340718
40
0.361643897720373
40
0.454004307281267
40
0.547794347956067
40
0.697471485053943
40
0.848656280415399
40
1
40
1
40
1
40
1
41
1
10
7.90710000000001
20
-20
30
0
41
1
10
8.43167435769755
20
-19.9977095209757
30
0
41
1
10
9.46403602017705
20
-19.9294926194535
30
0
41
1
10
10.9901453237031
20
-19.6246913031932
30
0
41
1
10
12.4708461232313
20
-19.1584419354027
30
0
41
1
10
13.9186786870754
20
-18.5590814064164
30
0
41
1
10
15.3432404946769
20
-17.8568244712785
30
0
41
1
10
17.0290999143633
20
-16.9288161320509
30
0
41
1
10
18.9739860548497
20
-15.7760369187656
30
0
41
1
10
21.205015718075
20
-14.4570734720585
30
0
41
1
10
22.7489199692412
20
-13.6692661973605
30
0
41
1
10
23.5299842374615
20
-13.2910478842113
30
0
0
SPLINE
5
100
100
AcDbEntity
8
1
62
256
6
ByLayer
370
18
48
1
60
0
100
AcDbSpline
70
4
71
3
72
22
73
18
40
0
40
0
40
0
40
0
40
0.0536750901803933
40
0.110510959670889
40
0.17021272339562
40
0.234245838406928
40
0.298348108530866
40
0.360154969763898
40
0.419672020316532
40
0.483620152372319
40
0.545851236164331
40
0.611375551456993
40
0.681561790831068
40
0.745954575622717
40
0.820482444094963
40
0.90515837920174
40
1
40
1
40
1
40
1
41
1
10
52.4997625368577
20
12.1772411005943
30
0
41
1
10
52.1793901396424
20
12.1671785470637
30
0
41
1
10
51.5035725303916
20
12.1491985170028
30
0
41
1
10
50.3934834708239
20
12.1247677840134
30
0
41
1
10
49.1970140731222
20
12.1203493223857
30
0
41
1
10
47.9716169066051
20
12.1381017869793
30
0
41
1
10
46.7393275920323
20
12.1536186626426
30
0
41
1
10
45.5323481934746
20
12.1644682460771
30
0
41
1
10
44.3251373977779
20
12.1723012674362
30
0
41
1
10
43.113201313133
20
12.1774754229552
30
0
41
1
10
41.8595066132746
20
12.1804354869813
30
0
41
1
10
40.556128642529
20
12.1816295212741
30
0
41
1
10
39.2366284705269
20
12.1830918312513
30
0
41
1
10
37.8580258386611
20
12.185415631012
30
0
41
1
10
36.3838172256559
20
12.1887527040098
30
0
41
1
10
34.7088769309163
20
12.1936013321067
30
0
41
1
10
33.5252996405398
20
12.1976600261674
30
0
41
1
10
32.8999999998685
20
12.1999995971765
30
0
0
SPLINE
5
101
100
AcDbEntity
8
1
62
256
6
ByLayer
370
18
48
1
60
0
100
AcDbSpline
70
4
71
1
72
4
73
2
40
0
40
0
40
1
40
1
41
1
10
58.0361459419562
20
-2.70613896120887
30
0
41
1
10
58.4360968004161
20
-2.83720983214045
30
0
0
SPLINE
5
102
100
AcDbEntity
8
1
62
256
6
ByLayer
370
18
48
1
60
0
100
AcDbSpline
70
4
71
3
72
18
73
14
40
0
40
0
40
0
40
0
40
0.124804686449633
40
0.235976020849564
40
0.33353787949095
40
0.41750773865175
40
0.490228732603657
40
0.622290214412112
40
0.750740032750011
40
0.827736651852846
40
0.907695576364615
40
0.990624048634841
40
1
40
1
40
1
40
1
41
1
10
32.8999999998685
20
-12.1999995971765
30
0
41
1
10
33.5360479497877
20
-12.1976187722534
30
0
41
1
10
34.7386649462629
20
-12.193500704117
30
0
41
1
10
36.4384844284883
20
-12.1886072560081
30
0
41
1
10
37.9302168491274
20
-12.1852695191525
30
0
41
1
10
39.2259196027129
20
-12.1831341931622
30
0
41
1
10
40.697701621224
20
-12.1814519407348
30
0
41
1
10
42.3933441161325
20
-12.1800909312829
30
0
41
1
10
44.094566584903
20
-12.1737800890733
30
0
41
1
10
45.5324115263606
20
-12.1644715917702
30
0
41
1
10
46.7393096536915
20
-12.1536177127555
30
0
41
1
10
47.6032062454916
20
-12.1427406565999
30
0
41
1
10
48.0675356555628
20
-12.1364028147966
30
0
41
1
10
48.1147185226812
20
-12.1357600938463
30
0
0
SPLINE
5
103
100
AcDbEntity
8
1
62
256
6
ByLayer
370
18
48
1
60
0
100
AcDbSpline
70
4
71
3
72
8
73
4
40
0
40
0
40
0
40
0
40
1
40
1
40
1
40
1
41
1
10
51.9928836543227
20
-12.1624970207242
30
0
41
1
10
52.1640813908037
20
-12.1671260744461
30
0
41
1
10
52.3327681875861
20
-12.1719979019952
30
0
41
1
10
52.4993270217338
20
-12.17722917968
30
0
0
SPLINE
5
104
100
AcDbEntity
8
1
62
256
6
ByLayer
370
18
48
1
60
0
100
AcDbSpline
70
4
71
3
72
8
73
4
40
0
40
0
40
0
40
0
40
1
40
1
40
1
40
1
41
1
10
99.5038661383568
20
-12.5281102711415
30
0
41
1
10
99.5025774137104
20
-12.5292460734518
30
0
41
1
10
99.5012887009181
20
-12.5303817556121
30
0
41
1
10
99.5
20
-12.5315173175869
30
0
0
SPLINE
5
105
100
AcDbEntity
8
1
62
256
6
ByLayer
370
18
48
1
60
0
100
AcDbSpline
70
4
71
3
72
32
73
28
40
0
40
0
40
0
40
0
40
0.125000000000011
40
0.125000000000011
40
0.187500000000014
40
0.187500000000014
40
0.250000000000018
40
0.250000000000018
40
0.312500000000022
40
0.312500000000022
40
0.375000000000026
40
0.375000000000026
40
0.500000000000034
40
0.500000000000034
40
0.562500000000032
40
0.562500000000032
40
0.625000000000029
40
0.625000000000029
40
0.687500000000027
40
0.687500000000027
40
0.750000000000025
40
0.750000000000025
40
0.87500000000002
40
0.87500000000002
40
0.93750000000001
40
0.93750000000001
40
1
40
1
40
1
40
1
41
1
10
89.0000000000001
20
-5.65254614963987
30
0
41
1
10
89
20
-5.85786986233202
30
0
41
1
10
88.9741228119385
20
-6.05635487732903
30
0
41
1
10
88.8977649646196
20
-6.34450618434573
30
0
41
1
10
88.8658764086812
20
-6.43923333762982
30
0
41
1
10
88.7894406300789
20
-6.62425833922546
30
0
41
1
10
88.7454383213912
20
-6.71335060304796
30
0
41
1
10
88.6462754109032
20
-6.88513166259062
30
0
41
1
10
88.5911136233897
20
-6.9678193191593
30
0
41
1
10
88.4695901943061
20
-7.12699910121711
30
0
41
1
10
88.402861577657
20
-7.20385514660558
30
0
41
1
10
88.1877493858095
20
-7.4225349629657
30
0
41
1
10
88.0269070847954
20
-7.55072057034494
30
0
41
1
10
87.7599440922967
20
-7.71885897364103
30
0
41
1
10
87.6660491621623
20
-7.77111141173987
30
0
41
1
10
87.472116246734
20
-7.86596277386843
30
0
41
1
10
87.3725375566971
20
-7.90842485378263
30
0
41
1
10
87.168271075322
20
-7.98391203447747
30
0
41
1
10
87.0635830430041
20
-8.01693613392473
30
0
41
1
10
86.8490140948043
20
-8.07361920720686
30
0
41
1
10
86.7384336366219
20
-8.097384096372
30
0
41
1
10
86.4038940962268
20
-8.15327678234985
30
0
41
1
10
86.1789885133667
20
-8.17022958356426
30
0
41
1
10
85.838850291508
20
-8.16600894413847
30
0
41
1
10
85.7244700400885
20
-8.15954075659315
30
0
41
1
10
85.4976293675728
20
-8.13640034999591
30
0
41
1
10
85.3853572149183
20
-8.11980585261443
30
0
41
1
10
85.274234313201
20
-8.09811832729193
30
0
0
SPLINE
5
106
100
AcDbEntity
8
1
62
256
6
ByLayer
370
18
48
1
60
0
100
AcDbSpline
70
4
71
3
72
12
73
8
40
0
40
0
40
0
40
0
40
0.5
40
0.5
40
0.75
40
0.75
40
1
40
1
40
1
40
1
41
1
10
29.6
20
6.78841859251551
30
0
41
1
10
29.4092823327496
20
6.80974487533658
30
0
41
1
10
29.2184045879378
20
6.81459191718207
30
0
41
1
10
28.931837165878
20
6.79857023372836
30
0
41
1
10
28.8362731882791
20
6.78931326304232
30
0
41
1
10
28.6450640056987
20
6.76280560933731
30
0
41
1
10
28.5490885975224
20
6.74544312834485
30
0
41
1
10
28.4550780251773
20
6.72439072970559
30
0
0
SPLINE
5
107
100
AcDbEntity
8
1
62
256
6
ByLayer
370
18
48
1
60
0
100
AcDbSpline
70
4
71
3
72
11
73
7
40
0
40
0
40
0
40
0
40
0.051802721628993
40
0.332000131002192
40
0.61219754037539
40
1
40
1
40
1
40
1
41
1
10
59.6610896254308
20
-0.0033572488399329
30
0
41
1
10
60.0933362086345
20
-0.14750383159182
30
0
41
1
10
62.8635465022391
20
-1.07169432203318
30
0
41
1
10
67.9705608304368
20
-2.77278594791696
30
0
41
1
10
75.8838740940957
20
-5.28897617181582
30
0
41
1
10
81.4538282423172
20
-6.88199311340509
30
0
41
1
10
84.6857910693817
20
-7.72190583019704
30
0
0
SPLINE
5
108
100
AcDbEntity
8
1
62
256
6
ByLayer
370
18
48
1
60
0
100
AcDbSpline
70
4
71
3
72
8
73
4
40
0
40
0
40
0
40
0
40
1
40
1
40
1
40
1
41
1
10
23.5299842374615
20
6.87971067155152
30
0
41
1
10
23.560194707678
20
6.87730434128923
30
0
41
1
10
23.5904080103373
20
6.87487193184117
30
0
41
1
10
23.6206241663829
20
6.87241350921934
30
0
0
SPLINE
5
109
100
AcDbEntity
8
1
62
256
6
ByLayer
370
18
48
1
60
0
100
AcDbSpline
70
4
71
3
72
16
73
12
40
0
40
0
40
0
40
0
40
0.288414511134675
40
0.288414511134675
40
0.576829022269351
40
0.576829022269351
40
0.721036277836685
40
0.721036277836685
40
0.865243533404019
40
0.865243533404019
40
1
40
1
40
1
40
1
41
1
10
89.3118632673338
20
10.4694325689899
30
0
41
1
10
89.1905860171395
20
10.0979880481634
30
0
41
1
10
89.0645398309566
20
9.73691261490688
30
0
41
1
10
88.8045487673786
20
9.03453473303114
30
0
41
1
10
88.670596772008
20
8.69323289428613
30
0
41
1
10
88.464971333069
20
8.19629448004321
30
0
41
1
10
88.3953664496175
20
8.03253427872409
30
0
41
1
10
88.256902200826
20
7.71491699421907
30
0
41
1
10
88.1879213818046
20
7.56069751792535
30
0
41
1
10
88.0555461787237
20
7.27106833129588
30
0
41
1
10
87.9920452187394
20
7.13506887220635
30
0
41
1
10
87.9290921401632
20
7.00299232999538
30
0
0
SPLINE
5
10A
100
AcDbEntity
8
1
62
256
6
ByLayer
370
18
48
1
60
0
100
AcDbSpline
70
4
71
3
72
12
73
8
40
0
40
0
40
0
40
0
40
0.25
40
0.25
40
0.5
40
0.5
40
1
40
1
40
1
40
1
41
1
10
99.5050916650533
20
11.8740795109119
30
0
41
1
10
98.6695285860865
20
11.83784632732
30
0
41
1
10
97.8341926637889
20
11.7914389069142
30
0
41
1
10
96.1635035333123
20
11.6770074164921
30
0
41
1
10
95.3280383207013
20
11.6089572298955
30
0
41
1
10
92.8236325175665
20
11.3711560151589
30
0
41
1
10
91.155710767697
20
11.168037894892
30
0
41
1
10
89.4867811999413
20
10.9235406934731
30
0
0
SPLINE
5
10B
100
AcDbEntity
8
1
62
256
6
ByLayer
370
18
48
1
60
0
100
AcDbSpline
70
4
71
3
72
8
73
4
40
0
40
0
40
0
40
0
40
1
40
1
40
1
40
1
41
1
10
29.6
20
6.78841859251551
30
0
41
1
10
29.8028765767882
20
6.75432895700416
30
0
41
1
10
29.9979306950091
20
6.70286191217355
30
0
41
1
10
30.1854690559079
20
6.63424881036221
30
0
0
SPLINE
5
10C
100
AcDbEntity
8
1
62
256
6
ByLayer
370
18
48
1
60
0
100
AcDbSpline
70
4
71
3
72
8
73
4
40
0
40
0
40
0
40
0
40
1
40
1
40
1
40
1
41
1
10
86.8392982094061
20
10.2234110495724
30
0
41
1
10
86.8179518873716
20
10.3839740943033
30
0
41
1
10
86.796878381815
20
10.543605871935
30
0
41
1
10
86.7761418123924
20
10.702320418589
30
0
0
SPLINE
5
10D
100
AcDbEntity
8
1
62
256
6
ByLayer
370
18
48
1
60
0
100
AcDbSpline
70
4
71
3
72
18
73
14
40
0
40
0
40
0
40
0
40
0.250000000000001
40
0.250000000000001
40
0.375000000000001
40
0.375000000000001
40
0.5
40
0.5
40
0.625
40
0.625
40
0.75
40
0.75
40
1
40
1
40
1
40
1
41
1
10
23.5299842374615
20
-10.0175461543551
30
0
41
1
10
23.3904450389888
20
-10.0003261122127
30
0
41
1
10
23.2645838100174
20
-9.9679310580708
30
0
41
1
10
23.0956534399463
20
-9.89417233058344
30
0
41
1
10
23.0423775724
20
-9.8651565823256
30
0
41
1
10
22.9440523761643
20
-9.7989879234176
30
0
41
1
10
22.8992936549469
20
-9.76212444162812
30
0
41
1
10
22.8178792451175
20
-9.68102822234013
30
0
41
1
10
22.7812257982083
20
-9.63679442805568
30
0
41
1
10
22.7155192367512
20
-9.54102619824477
30
0
41
1
10
22.6863406356806
20
-9.48914795563661
30
0
41
1
10
22.6111060249047
20
-9.32606015678749
30
0
41
1
10
22.5766831289115
20
-9.20713770397603
30
0
41
1
10
22.5544191542603
20
-9.07943065336306
30
0
0
SPLINE
5
10E
100
AcDbEntity
8
1
62
256
6
ByLayer
370
18
48
1
60
0
100
AcDbSpline
70
4
71
3
72
16
73
12
40
0
40
0
40
0
40
0
40
0.276350200294875
40
0.276350200294875
40
0.414525300442316
40
0.414525300442316
40
0.552700400589757
40
0.552700400589757
40
0.829050600884632
40
0.829050600884632
40
1
40
1
40
1
40
1
41
1
10
100.319022247496
20
-12.7330871090944
30
0
41
1
10
101.284808921377
20
-12.8220948832997
30
0
41
1
10
102.249322316071
20
-12.8874610064354
30
0
41
1
10
103.693945670608
20
-12.9504981457079
30
0
41
1
10
104.175128971571
20
-12.9656588758583
30
0
41
1
10
105.13682262162
20
-12.9841829456123
30
0
41
1
10
105.617469466128
20
-12.9875189124457
30
0
41
1
10
107.060326366341
20
-12.9798560006949
30
0
41
1
10
108.022702009284
20
-12.9512870000143
30
0
41
1
10
109.580944508816
20
-12.8668555299652
30
0
41
1
10
110.176449606182
20
-12.8254283997706
30
0
41
1
10
110.772624671163
20
-12.7750560553148
30
0
0
SPLINE
5
10F
100
AcDbEntity
8
1
62
256
6
ByLayer
370
18
48
1
60
0
100
AcDbSpline
70
4
71
3
72
8
73
4
40
0
40
0
40
0
40
0
40
1
40
1
40
1
40
1
41
1
10
111.703604540269
20
-12.6892183991025
30
0
41
1
10
111.761155683412
20
-12.683471522321
30
0
41
1
10
111.818716412785
20
-12.6776425671708
30
0
41
1
10
111.876287351281
20
-12.6717317251407
30
0
0
SPLINE
5
110
100
AcDbEntity
8
1
62
256
6
ByLayer
370
18
48
1
60
0
100
AcDbSpline
70
4
71
3
72
8
73
4
40
0
40
0
40
0
40
0
40
1
40
1
40
1
40
1
41
1
10
100.319022247496
20
12.9025005098905
30
0
41
1
10
100.079672660479
20
12.8047356393113
30
0
41
1
10
99.8400049534636
20
12.7056263656462
30
0
41
1
10
99.6
20
12.6052274882531
30
0
0
SPLINE
5
111
100
AcDbEntity
8
1
62
256
6
ByLayer
370
18
48
1
60
0
100
AcDbSpline
70
4
71
3
72
10
73
6
40
0
40
0
40
0
40
0
40
0.524552295512754
40
0.524552295512754
40
1
40
1
40
1
40
1
41
1
10
112.315346368798
20
4.49191963452378
30
0
41
1
10
112.319054463697
20
4.49511372678759
30
0
41
1
10
112.323243220226
20
4.49788990691235
30
0
41
1
10
112.331808247329
20
4.50167622165861
30
0
41
1
10
112.336224005907
20
4.50285120558974
30
0
41
1
10
112.340631502175
20
4.5032721978157
30
0
0
SPLINE
5
112
100
AcDbEntity
8
1
62
256
6
ByLayer
370
18
48
1
60
0
100
AcDbSpline
70
4
71
3
72
16
73
12
40
0
40
0
40
0
40
0
40
0.25
40
0.25
40
0.375
40
0.375
40
0.5
40
0.5
40
0.75
40
0.75
40
1
40
1
40
1
40
1
41
1
10
81.4169959819295
20
8.12979579007623
30
0
41
1
10
81.5786981395342
20
8.07461132349121
30
0
41
1
10
81.7449789029188
20
8.03170051969971
30
0
41
1
10
82.0011790275333
20
7.98620159190065
30
0
41
1
10
82.0877156019545
20
7.97419401178433
30
0
41
1
10
82.263134918352
20
7.95676742514351
30
0
41
1
10
82.3520976114521
20
7.95138190480182
30
0
41
1
10
82.6180088081157
20
7.94564338302953
30
0
41
1
10
82.7962429119518
20
7.95565486044529
30
0
41
1
10
83.1456229566382
20
8.00249362013503
30
0
41
1
10
83.3174311358289
20
8.03937614275668
30
0
41
1
10
83.4827127599552
20
8.088299610771
30
0
0
SPLINE
5
113
100
AcDbEntity
8
1
62
256
6
ByLayer
370
18
48
1
60
0
100
AcDbSpline
70
4
71
3
72
18
73
14
40
0
40
0
40
0
40
0
40
0.0417057859219617
40
0.0417057859219617
40
0.361137190614641
40
0.361137190614641
40
0.520852892960981
40
0.520852892960981
40
0.680568595307321
40
0.680568595307321
40
0.84028429765366
40
0.84028429765366
40
1
40
1
40
1
40
1
41
1
10
89.1580077089438
20
6.65769694738543
30
0
41
1
10
89.3919701153371
20
6.58949857779891
30
0
41
1
10
89.6259265259195
20
6.52087147398112
30
0
41
1
10
91.6517776344326
20
5.92300710092721
30
0
41
1
10
93.4435472332416
20
5.36960932724111
30
0
41
1
10
96.1337482424165
20
4.50946005860303
30
0
41
1
10
97.0310728261589
20
4.21775940598124
30
0
41
1
10
98.82421800895
20
3.62650887023193
30
0
41
1
10
99.7203707228604
20
3.3268520866946
30
0
41
1
10
101.512378739943
20
2.72084608164266
30
0
41
1
10
102.408232572837
20
2.41448149009906
30
0
41
1
10
104.200257981662
20
1.79671618864916
30
0
41
1
10
105.096733190801
20
1.48517427650396
30
0
41
1
10
105.992708964586
20
1.17225329758301
30
0
0
SPLINE
5
114
100
AcDbEntity
8
1
62
256
6
ByLayer
370
18
48
1
60
0
100
AcDbSpline
70
4
71
3
72
8
73
4
40
0
40
0
40
0
40
0
40
1
40
1
40
1
40
1
41
1
10
99.6
20
-12.1026846195379
30
0
41
1
10
99.5666666666667
20
-12.1347023037166
30
0
41
1
10
99.5333333333333
20
-12.1667199878953
30
0
41
1
10
99.5
20
-12.1987376720739
30
0
0
SPLINE
5
115
100
AcDbEntity
8
1
62
256
6
ByLayer
370
18
48
1
60
0
100
AcDbSpline
70
4
71
3
72
8
73
4
40
0
40
0
40
0
40
0
40
1
40
1
40
1
40
1
41
1
10
83.709943050299
20
-7.78975330228167
30
0
41
1
10
84.0207879048074
20
-7.75307464783126
30
0
41
1
10
84.3472652330515
20
-7.73162245029894
30
0
41
1
10
84.6857910709579
20
-7.72190583055249
30
0
0
SPLINE
5
116
100
AcDbEntity
8
1
62
256
6
ByLayer
370
18
48
1
60
0
100
AcDbSpline
70
4
71
3
72
8
73
4
40
0
40
0
40
0
40
0
40
1
40
1
40
1
40
1
41
1
10
84.1367172552734
20
8.07458300727075
30
0
41
1
10
83.9194132212493
20
8.0730316791205
30
0
41
1
10
83.7004144296137
20
8.07760873919528
30
0
41
1
10
83.4827127599551
20
8.08829961077097
30
0
0
SPLINE
5
117
100
AcDbEntity
8
1
62
256
6
ByLayer
370
18
48
1
60
0
100
AcDbSpline
70
4
71
3
72
8
73
4
40
0
40
0
40
0
40
0
40
1
40
1
40
1
40
1
41
1
10
99.4
20
5.05000000000001
30
0
41
1
10
99.4666651395492
20
5.05000000000001
30
0
41
1
10
99.5333318316147
20
5.05000000000001
30
0
41
1
10
99.6
20
5.05000000000001
30
0
0
SPLINE
5
118
100
AcDbEntity
8
1
62
256
6
ByLayer
370
18
48
1
60
0
100
AcDbSpline
70
4
71
3
72
8
73
4
40
0
40
0
40
0
40
0
40
1
40
1
40
1
40
1
41
1
10
27
20
6.78128292995447
30
0
41
1
10
27.0141380066629
20
6.78148300322457
30
0
41
1
10
27.028273089867
20
6.78166444446765
30
0
41
1
10
27.0424052481293
20
6.78182723644792
30
0
0
SPLINE
5
119
100
AcDbEntity
8
1
62
256
6
ByLayer
370
18
48
1
60
0
100
AcDbSpline
70
4
71
3
72
23
73
19
40
0
40
0
40
0
40
0
40
0.023586355462004
40
0.0471037253295612
40
0.0705904338388137
40
0.0940849552707347
40
0.117625725598787
40
0.141250955070047
40
0.211656908163383
40
0.281575124421378
40
0.35211285458529
40
0.421956513492556
40
0.561868758030819
40
0.701456577197396
40
0.840541076529152
40
0.909941281305071
40
0.979748850667539
40
1
40
1
40
1
40
1
41
1
10
99.5000021515351
20
-12.1987376721962
30
0
41
1
10
99.5001938462432
20
-12.1941587507566
30
0
41
1
10
99.5005766749891
20
-12.1850143003499
30
0
41
1
10
99.5036516962464
20
-12.1711018363901
30
0
41
1
10
99.5085598776867
20
-12.1570859300563
30
0
41
1
10
99.5154794225344
20
-12.1429530170467
30
0
41
1
10
99.5243614935474
20
-12.1287094158815
30
0
41
1
10
99.5423693864101
20
-12.1049187281075
30
0
41
1
10
99.5761722774143
20
-12.0715552081507
30
0
41
1
10
99.6363701494619
20
-12.0292145138855
30
0
41
1
10
99.7119981082612
20
-11.988324063397
30
0
41
1
10
99.8325890100866
20
-11.9369375818091
30
0
41
1
10
100.017894111201
20
-11.8807978435339
30
0
41
1
10
100.2829915658
20
-11.8346203192766
30
0
41
1
10
100.525078465345
20
-11.819459683903
30
0
41
1
10
100.718822787019
20
-11.822697824065
30
0
41
1
10
100.828244573203
20
-11.8301918633466
30
0
41
1
10
100.888307517701
20
-11.836593670627
30
0
41
1
10
100.901813635442
20
-11.8380332198135
30
0
0
SPLINE
5
11A
100
AcDbEntity
8
1
62
256
6
ByLayer
370
18
48
1
60
0
100
AcDbSpline
70
4
71
3
72
18
73
14
40
0
40
0
40
0
40
0
40
0.253340928995337
40
0.253340928995337
40
0.380011393493006
40
0.380011393493006
40
0.506681857990675
40
0.506681857990675
40
0.760022786986012
40
0.760022786986012
40
0.886693251483681
40
0.886693251483681
40
1
40
1
40
1
40
1
41
1
10
30.0300434538382
20
6.20351645102073
30
0
41
1
10
32.3950583831175
20
5.51801960695303
30
0
41
1
10
34.7579381387892
20
4.79447449079791
30
0
41
1
10
38.307999905419
20
3.6755584763894
30
0
41
1
10
39.4914699292696
20
3.29741650273408
30
0
41
1
10
41.8570272521191
20
2.53633372118151
30
0
41
1
10
43.0395468953528
20
2.1532581110088
30
0
41
1
10
46.5872773897465
20
1.00000925671347
30
0
41
1
10
48.9523738651992
20
0.224780848781478
30
0
41
1
10
52.5056143369808
20
-0.932123537027309
30
0
41
1
10
53.6915027903637
20
-1.31672747199593
30
0
41
1
10
55.9353315003319
20
-2.03858138245747
30
0
41
1
10
56.9941054888607
20
-2.37660082042686
30
0
41
1
10
58.0524904798617
20
-2.71130114483245
30
0
0
SPLINE
5
11B
100
AcDbEntity
8
1
62
256
6
ByLayer
370
18
48
1
60
0
100
AcDbSpline
70
4
71
3
72
8
73
4
40
0
40
0
40
0
40
0
40
1
40
1
40
1
40
1
41
1
10
99.6
20
12.6052274882531
30
0
41
1
10
99.6
20
11.6250328423227
30
0
41
1
10
99.6
20
10.6448391981841
30
0
41
1
10
99.6
20
9.66464667469319
30
0
0
SPLINE
5
11C
100
AcDbEntity
8
1
62
256
6
ByLayer
370
13
48
1
60
0
100
AcDbSpline
70
4
71
3
72
8
73
4
40
0
40
0
40
0
40
0
40
1
40
1
40
1
40
1
41
1
10
112.328161190403
20
4.43382349708943
30
0
41
1
10
112.291256456161
20
4.4248288281799
30
0
41
1
10
112.254352786994
20
4.41577522845105
30
0
41
1
10
112.217465359701
20
4.40666563705238
30
0
0
SPLINE
5
11D
100
AcDbEntity
8
1
62
256
6
ByLayer
370
18
48
1
60
0
100
AcDbSpline
70
4
71
3
72
8
73
4
40
0
40
0
40
0
40
0
40
1
40
1
40
1
40
1
41
1
10
24.8822240238156
20
-8.77590025520448
30
0
41
1
10
24.9620128369815
20
-9.14957144813948
30
0
41
1
10
25.0404315892326
20
-9.52433442006026
30
0
41
1
10
25.1170525264462
20
-9.90006985286448
30
0
0
SPLINE
5
11E
100
AcDbEntity
8
1
62
256
6
ByLayer
370
18
48
1
60
0
100
AcDbSpline
70
4
71
3
72
12
73
8
40
0
40
0
40
0
40
0
40
0.207287534982776
40
0.410754198392368
40
0.610401801119341
40
0.908343184424703
40
1
40
1
40
1
40
1
41
1
10
108.479134022738
20
1.91061039721765
30
0
41
1
10
108.037216228101
20
1.95118070678581
30
0
41
1
10
107.16152638256
20
2.03157350506274
30
0
41
1
10
105.860446987197
20
2.15364010763801
30
0
41
1
10
104.366384328429
20
2.29642603036095
30
0
41
1
10
103.110872165165
20
2.41921987621117
30
0
41
1
10
102.280987523131
20
2.50276056561941
30
0
41
1
10
102.085758224423
20
2.52250631053806
30
0
0
SPLINE
5
11F
100
AcDbEntity
8
1
62
256
6
ByLayer
370
18
48
1
60
0
100
AcDbSpline
70
4
71
1
72
4
73
2
40
0
40
0
40
1
40
1
41
1
10
108.485460417317
20
1.90381916542009
30
0
41
1
10
108.479133013439
20
1.91061291383446
30
0
0
SPLINE
5
120
100
AcDbEntity
8
1
62
256
6
ByLayer
370
18
48
1
60
0
100
AcDbSpline
70
4
71
3
72
8
73
4
40
0
40
0
40
0
40
0
40
1
40
1
40
1
40
1
41
1
10
105.704230448127
20
0.881625431260971
30
0
41
1
10
105.746382791299
20
0.882098060404161
30
0
41
1
10
105.788535126372
20
0.882679853984484
30
0
41
1
10
105.830687454106
20
0.883370587079952
30
0
0
SPLINE
5
121
100
AcDbEntity
8
1
62
256
6
ByLayer
370
18
48
1
60
0
100
AcDbSpline
70
4
71
3
72
16
73
12
40
0
40
0
40
0
40
0
40
0.25
40
0.25
40
0.5
40
0.5
40
0.75
40
0.75
40
0.875
40
0.875
40
1
40
1
40
1
40
1
41
1
10
100.704358970516
20
3.00601869013684
30
0
41
1
10
101.472312348675
20
2.91170101685108
30
0
41
1
10
102.240680077601
20
2.81966212858401
30
0
41
1
10
103.778355867127
20
2.64075584900988
30
0
41
1
10
104.547959355267
20
2.55551320635831
30
0
41
1
10
106.089412608507
20
2.39738166261185
30
0
41
1
10
106.860350536627
20
2.3212427584119
30
0
41
1
10
108.016914707327
20
2.2092480539774
30
0
41
1
10
108.402473447506
20
2.17243799523575
30
0
41
1
10
109.173683315764
20
2.10010787045113
30
0
41
1
10
109.559312245234
20
2.06427784993107
30
0
41
1
10
109.945064038119
20
2.03016334529715
30
0
0
SPLINE
5
122
100
AcDbEntity
8
1
62
256
6
ByLayer
370
13
48
1
60
0
100
AcDbSpline
70
4
71
3
72
10
73
6
40
0
40
0
40
0
40
0
40
0.0018141874783332
40
0.0018141874783332
40
1
40
1
40
1
40
1
41
1
10
114.603540487155
20
1.28316093088551
30
0
41
1
10
114.603526657356
20
1.28317042980186
30
0
41
1
10
114.603512827495
20
1.2831799286374
30
0
41
1
10
114.595889725379
20
1.28841587939411
30
0
41
1
10
114.588299366209
20
1.29366664320634
30
0
41
1
10
114.58072841375
20
1.29894198197655
30
0
0
SPLINE
5
123
100
AcDbEntity
8
1
62
256
6
ByLayer
370
18
48
1
60
0
100
AcDbSpline
70
4
71
3
72
8
73
4
40
0
40
0
40
0
40
0
40
1
40
1
40
1
40
1
41
1
10
89.3118632673319
20
10.4694325689917
30
0
41
1
10
89.3624445746059
20
10.6243515617384
30
0
41
1
10
89.4205001734489
20
10.7758423633462
30
0
41
1
10
89.4867811999412
20
10.9235406934732
30
0
0
SPLINE
5
124
100
AcDbEntity
8
1
62
256
6
ByLayer
370
13
48
1
60
0
100
AcDbSpline
70
4
71
3
72
18
73
14
40
0
40
0
40
0
40
0
40
0.250000000000004
40
0.250000000000004
40
0.375000000000003
40
0.375000000000003
40
0.500000000000003
40
0.500000000000003
40
0.750000000000001
40
0.750000000000001
40
0.875000000000001
40
0.875000000000001
40
1
40
1
40
1
40
1
41
1
10
99.5999999999999
20
9.66464667469319
30
0
41
1
10
100.731063871576
20
9.71656506629415
30
0
41
1
10
101.861852032667
20
9.73903886037709
30
0
41
1
10
103.557410860695
20
9.73569065179066
30
0
41
1
10
104.122627610696
20
9.7289073710578
30
0
41
1
10
105.253236364045
20
9.70479545515514
30
0
41
1
10
105.818747204437
20
9.68775891382234
30
0
41
1
10
107.515143464517
20
9.6149725020183
30
0
41
1
10
108.645673477522
20
9.53956670782057
30
0
41
1
10
110.341147456556
20
9.39322862934614
30
0
41
1
10
110.906516645803
20
9.33976218592798
30
0
41
1
10
112.037259165033
20
9.21945904244009
30
0
41
1
10
112.602660568561
20
9.15332711919825
30
0
41
1
10
113.168012106106
20
9.08138935064983
30
0
0
SPLINE
5
125
100
AcDbEntity
8
1
62
256
6
ByLayer
370
18
48
1
60
0
100
AcDbSpline
70
4
71
3
72
10
73
6
40
0
40
0
40
0
40
0
40
0.750451634769128
40
0.750451634769128
40
1
40
1
40
1
40
1
41
1
10
86.9971884444905
20
10.2513992026385
30
0
41
1
10
86.9099167212248
20
9.47088587722803
30
0
41
1
10
86.7855425317475
20
8.7273414204459
30
0
41
1
10
86.5765639434821
20
7.82283739068106
30
0
41
1
10
86.5208282954296
20
7.60429485988612
30
0
41
1
10
86.4617673432516
20
7.3937709466567
30
0
0
SPLINE
5
126
100
AcDbEntity
8
1
62
256
6
ByLayer
370
18
48
1
60
0
100
AcDbSpline
70
4
71
3
72
8
73
4
40
0
40
0
40
0
40
0
40
1
40
1
40
1
40
1
41
1
10
88.4491614752513
20
-11.2409214151702
30
0
41
1
10
88.3961566570628
20
-11.2267868844645
30
0
41
1
10
88.3429377705898
20
-11.2128274643149
30
0
41
1
10
88.289505897076
20
-11.1990524157567
30
0
0
SPLINE
5
127
100
AcDbEntity
8
1
62
256
6
ByLayer
370
18
48
1
60
0
100
AcDbSpline
70
4
71
3
72
8
73
4
40
0
40
0
40
0
40
0
40
1
40
1
40
1
40
1
41
1
10
100.319022247496
20
-12.9025005098905
30
0
41
1
10
100.079672660479
20
-12.8047356393113
30
0
41
1
10
99.8400049534636
20
-12.7056263656462
30
0
41
1
10
99.6
20
-12.6052274882532
30
0
0
SPLINE
5
128
100
AcDbEntity
8
1
62
256
6
ByLayer
370
18
48
1
60
0
100
AcDbSpline
70
4
71
3
72
21
73
17
40
0
40
0
40
0
40
0
40
0.250000000000004
40
0.250000000000004
40
0.375000000000004
40
0.375000000000004
40
0.500000000000004
40
0.500000000000004
40
0.625000000000003
40
0.625000000000003
40
0.750000000000003
40
0.750000000000003
40
0.875000000000003
40
0.875000000000003
40
0.937500000000002
40
1
40
1
40
1
40
1
41
1
10
112.228657712577
20
-5.55287447509721
30
0
41
1
10
112.029498486845
20
-5.02088840638336
30
0
41
1
10
111.836439001569
20
-4.48671335444482
30
0
41
1
10
111.552521034725
20
-3.68341555955686
30
0
41
1
10
111.458977972404
20
-3.41525621862098
30
0
41
1
10
111.275621786183
20
-2.87759899247959
30
0
41
1
10
111.186411547541
20
-2.60786722773236
30
0
41
1
10
111.010978827312
20
-2.067567186617
30
0
41
1
10
110.924727961349
20
-1.79697412987647
30
0
41
1
10
110.757835676847
20
-1.25409221421597
30
0
41
1
10
110.676543218739
20
-0.982000172243517
30
0
41
1
10
110.518879328305
20
-0.436328404109531
30
0
41
1
10
110.443465804871
20
-0.16244126276905
30
0
41
1
10
110.333741562563
20
0.249360759319671
30
0
41
1
10
110.261740413672
20
0.524144329062551
30
0
41
1
10
110.194162993384
20
0.799886681726804
30
0
41
1
10
110.160988230863
20
0.937890922843962
30
0
0
SPLINE
5
129
100
AcDbEntity
8
1
62
256
6
ByLayer
370
18
48
1
60
0
100
AcDbSpline
70
4
71
3
72
30
73
26
40
0
40
0
40
0
40
0
40
0.124999999999999
40
0.124999999999999
40
0.249999999999998
40
0.249999999999998
40
0.312499999999998
40
0.312499999999998
40
0.374999999999998
40
0.374999999999998
40
0.437499999999998
40
0.437499999999998
40
0.499999999999998
40
0.499999999999998
40
0.624999999999999
40
0.624999999999999
40
0.687499999999999
40
0.687499999999999
40
0.749999999999999
40
0.749999999999999
40
0.812499999999999
40
0.812499999999999
40
0.875
40
0.875
40
1
40
1
40
1
40
1
41
1
10
83.7099430502989
20
-7.7897533022817
30
0
41
1
10
81.7090226889971
20
-7.24167634123188
30
0
41
1
10
79.7079339602008
20
-6.65760819381748
30
0
41
1
10
75.7100134433411
20
-5.43320406942058
30
0
41
1
10
73.7128268985082
20
-4.79233611742271
30
0
41
1
10
70.7144881319047
20
-3.80138926123953
30
0
41
1
10
69.7145552280056
20
-3.46621862989659
30
0
41
1
10
67.7160404299364
20
-2.78959664383424
30
0
41
1
10
66.7170748755355
20
-2.44800242423028
30
0
41
1
10
64.7189781114039
20
-1.76037449561474
30
0
41
1
10
63.7198466121862
20
-1.41434132789951
30
0
41
1
10
61.720630337583
20
-0.720094975692888
30
0
41
1
10
60.7202217988479
20
-0.371785991891329
30
0
41
1
10
57.7206297476347
20
0.671536863342681
30
0
41
1
10
55.7220487957675
20
1.36526586683792
30
0
41
1
10
52.7218906592473
20
2.39166401326727
30
0
41
1
10
51.7211269224982
20
2.73162581694029
30
0
41
1
10
49.7204748471298
20
3.40519352583806
30
0
41
1
10
48.7206863126518
20
3.73876836825713
30
0
41
1
10
46.7216662823973
20
4.3979959176321
30
0
41
1
10
45.7224543727799
20
4.7236971937472
30
0
41
1
10
43.7237270707507
20
5.36475089820485
30
0
41
1
10
42.7239064467862
20
5.68016544700092
30
0
41
1
10
39.7262787088735
20
6.60567236248596
30
0
41
1
10
37.7294078809277
20
7.19517769017449
30
0
41
1
10
35.7301963902023
20
7.74807359509697
30
0
0
SPLINE
5
12A
100
AcDbEntity
8
1
62
256
6
ByLayer
370
18
48
1
60
0
100
AcDbSpline
70
4
71
3
72
8
73
4
40
0
40
0
40
0
40
0
40
1
40
1
40
1
40
1
41
1
10
111.958452623731
20
-12.4246883401629
30
0
41
1
10
111.931097579976
20
-12.5070060062886
30
0
41
1
10
111.903708928897
20
-12.5893545497785
30
0
41
1
10
111.876287351281
20
-12.6717317251407
30
0
0
SPLINE
5
12B
100
AcDbEntity
8
1
62
256
6
ByLayer
370
18
48
1
60
0
100
AcDbSpline
70
4
71
3
72
30
73
26
40
0
40
0
40
0
40
0
40
0.0670554324181742
40
0.0670554324181742
40
0.133694330102589
40
0.133694330102589
40
0.200333227787004
40
0.200333227787004
40
0.26697212547142
40
0.26697212547142
40
0.333611023155836
40
0.333611023155836
40
0.400249920840252
40
0.400249920840252
40
0.466888818524668
40
0.466888818524668
40
0.600166613893501
40
0.600166613893501
40
0.666805511577918
40
0.666805511577918
40
0.733444409262334
40
0.733444409262334
40
0.866722204631167
40
0.866722204631167
40
1
40
1
40
1
40
1
41
1
10
78.0573408684502
20
-8.77772901996599
30
0
41
1
10
76.869083338253
20
-9.03105845601473
30
0
41
1
10
75.6807768214867
20
-9.26977288494581
30
0
41
1
10
73.3102790769594
20
-9.7143065355738
30
0
41
1
10
72.1288508864572
20
-9.92002828280638
30
0
41
1
10
69.7677764551662
20
-10.2982641649452
30
0
41
1
10
68.5876943090629
20
-10.4703709518872
30
0
41
1
10
66.2275564305965
20
-10.7838348738477
30
0
41
1
10
65.0475593982429
20
-10.9255190749532
30
0
41
1
10
62.6865997256969
20
-11.1731931302039
30
0
41
1
10
61.5056657177969
20
-11.2798941672543
30
0
41
1
10
59.1419163521703
20
-11.4577996386715
30
0
41
1
10
57.9585772165086
20
-11.5289530966364
30
0
41
1
10
55.5948771592172
20
-11.6351189985164
30
0
41
1
10
54.4139024499804
20
-11.6702169830859
30
0
41
1
10
50.8723317717671
20
-11.7208858861719
30
0
41
1
10
48.5131307391666
20
-11.6812118716704
30
0
41
1
10
44.9705853640472
20
-11.5134470490607
30
0
41
1
10
43.7891010685497
20
-11.4394955163326
30
0
41
1
10
41.4238569990528
20
-11.2569376853346
30
0
41
1
10
40.2406286396504
20
-11.1483515515157
30
0
41
1
10
36.6950869997726
20
-10.7741975097952
30
0
41
1
10
34.334177420495
20
-10.4603595484443
30
0
41
1
10
29.6111718226157
20
-9.70950272699244
30
0
41
1
10
27.2489838404454
20
-9.27168839905238
30
0
41
1
10
24.8822240238156
20
-8.77590025520448
30
0
0
SPLINE
5
12C
100
AcDbEntity
8
1
62
256
6
ByLayer
370
18
48
1
60
0
100
AcDbSpline
70
4
71
3
72
18
73
14
40
0
40
0
40
0
40
0
40
0.249999999999985
40
0.249999999999985
40
0.374999999999988
40
0.374999999999988
40
0.49999999999999
40
0.49999999999999
40
0.624999999999993
40
0.624999999999993
40
0.749999999999995
40
0.749999999999995
40
1
40
1
40
1
40
1
41
1
10
28.4550780251773
20
6.72439072970559
30
0
41
1
10
28.5732283694131
20
6.68508706610962
30
0
41
1
10
28.6948832141824
20
6.6436103966164
30
0
41
1
10
28.8844031090064
20
6.57847915359076
30
0
41
1
10
28.9488594183954
20
6.5562490473784
30
0
41
1
10
29.0785620050842
20
6.51158639461329
30
0
41
1
10
29.1440258956804
20
6.48907915280148
30
0
41
1
10
29.2763970225927
20
6.44389649246889
30
0
41
1
10
29.3433037726082
20
6.42122109690723
30
0
41
1
10
29.4788359189123
20
6.37590110462256
30
0
41
1
10
29.5478222394897
20
6.35314077866809
30
0
41
1
10
29.7550003375921
20
6.28615043506457
30
0
41
1
10
29.8926922762212
20
6.24345884782858
30
0
41
1
10
30.0300434538941
20
6.20351645117793
30
0
0
SPLINE
5
12D
100
AcDbEntity
8
1
62
256
6
ByLayer
370
13
48
1
60
0
100
AcDbSpline
70
4
71
3
72
18
73
14
40
0
40
0
40
0
40
0
40
0.124999999999988
40
0.124999999999988
40
0.187499999999986
40
0.187499999999986
40
0.249999999999983
40
0.249999999999983
40
0.499999999999989
40
0.499999999999989
40
0.749999999999994
40
0.749999999999994
40
1
40
1
40
1
40
1
41
1
10
112.328823081103
20
4.43081109120538
30
0
41
1
10
112.367461453192
20
4.25427058871483
30
0
41
1
10
112.416180018055
20
4.08254408437182
30
0
41
1
10
112.502876203768
20
3.83145335513703
30
0
41
1
10
112.534155344123
20
3.74861392826699
30
0
41
1
10
112.600442568819
20
3.58655868100342
30
0
41
1
10
112.635460265233
20
3.50726589858286
30
0
41
1
10
112.81923645075
20
3.11883693857553
30
0
41
1
10
112.993570721229
20
2.83336380801396
30
0
41
1
10
113.385960098029
20
2.30284268293474
30
0
41
1
10
113.598645331591
20
2.06493571675446
30
0
41
1
10
114.049551911951
20
1.6316533975062
30
0
41
1
10
114.288517859351
20
1.43599409539266
30
0
41
1
10
114.535489027222
20
1.2607989957225
30
0
0
SPLINE
5
12E
100
AcDbEntity
8
1
62
256
6
ByLayer
370
18
48
1
60
0
100
AcDbSpline
70
4
71
3
72
14
73
10
40
0
40
0
40
0
40
0
40
0.500000000000019
40
0.500000000000019
40
0.625000000000014
40
0.625000000000014
40
0.750000000000009
40
0.750000000000009
40
1
40
1
40
1
40
1
41
1
10
86.7761418123924
20
10.702320418589
30
0
41
1
10
87.074026645557
20
10.7457778200685
30
0
41
1
10
87.351960699365
20
10.8123887133694
30
0
41
1
10
87.6741013740831
20
10.9199394949727
30
0
41
1
10
87.7372572354067
20
10.9427073095565
30
0
41
1
10
87.8587993228359
20
10.989780608633
30
0
41
1
10
87.9174789940702
20
11.0141790322192
30
0
41
1
10
88.0873883554502
20
11.0896928225022
30
0
41
1
10
88.1925182889644
20
11.1431177471028
30
0
41
1
10
88.289505897076
20
11.1990524157567
30
0
0
SPLINE
5
12F
100
AcDbEntity
8
1
62
256
6
ByLayer
370
18
48
1
60
0
100
AcDbSpline
70
4
71
3
72
12
73
8
40
0
40
0
40
0
40
0
40
0.500000000000018
40
0.500000000000018
40
0.750000000000009
40
0.750000000000009
40
1
40
1
40
1
40
1
41
1
10
112.340631502177
20
4.50327219781025
30
0
41
1
10
112.723911467471
20
4.53988207241761
30
0
41
1
10
113.105819105411
20
4.5841830319473
30
0
41
1
10
113.674933244018
20
4.67163597879394
30
0
41
1
10
113.864004541408
20
4.70433688101639
30
0
41
1
10
114.240323611173
20
4.77995846698914
30
0
41
1
10
114.427588976169
20
4.8227805544829
30
0
41
1
10
114.613426609505
20
4.87360423533167
30
0
0
SPLINE
5
130
100
AcDbEntity
8
1
62
256
6
ByLayer
370
18
48
1
60
0
100
AcDbSpline
70
4
71
3
72
12
73
8
40
0
40
0
40
0
40
0
40
0.0823374168593754
40
0.0823374168593754
40
0.541168708429688
40
0.541168708429688
40
1
40
1
40
1
40
1
41
1
10
105.580674204867
20
12.9854370061871
30
0
41
1
10
105.75323295718
20
12.9860393673017
30
0
41
1
10
105.925807688877
20
12.985881349781
30
0
41
1
10
107.060326366341
20
12.9798560006949
30
0
41
1
10
108.022702009284
20
12.9512870000143
30
0
41
1
10
109.948125718231
20
12.8469602637953
30
0
41
1
10
110.91077080967
20
12.7708618748998
30
0
41
1
10
111.876287351281
20
12.6717317251407
30
0
0
SPLINE
5
131
100
AcDbEntity
8
1
62
256
6
ByLayer
370
18
48
1
60
0
100
AcDbSpline
70
4
71
3
72
16
73
12
40
0
40
0
40
0
40
0
40
0.25
40
0.25
40
0.5
40
0.5
40
0.625
40
0.625
40
0.75
40
0.75
40
1
40
1
40
1
40
1
41
1
10
112.217465359701
20
4.40666563705238
30
0
41
1
10
111.991858462261
20
4.20805575319767
30
0
41
1
10
111.771963450677
20
4.01000897563245
30
0
41
1
10
111.350182722552
20
3.61031650013095
30
0
41
1
10
111.147781941485
20
3.40913661749175
30
0
41
1
10
110.857527470944
20
3.10620135423557
30
0
41
1
10
110.762673931202
20
3.00458017888866
30
0
41
1
10
110.579769070665
20
2.80305925944481
30
0
41
1
10
110.491924107696
20
2.70340898897862
30
0
41
1
10
110.239072139939
20
2.40816954198616
30
0
41
1
10
110.084592613968
20
2.2163818471588
30
0
41
1
10
109.945064038119
20
2.03016334529815
30
0
0
SPLINE
5
132
100
AcDbEntity
8
1
62
256
6
ByLayer
370
18
48
1
60
0
100
AcDbSpline
70
4
71
1
72
4
73
2
40
0
40
0
40
1
40
1
41
1
10
30.1854690559078
20
6.63424881036224
30
0
41
1
10
30.0300434468995
20
6.20351645321199
30
0
0
SPLINE
5
133
100
AcDbEntity
8
1
62
256
6
ByLayer
370
18
48
1
60
0
100
AcDbSpline
70
4
71
3
72
8
73
4
40
0
40
0
40
0
40
0
40
1
40
1
40
1
40
1
41
1
10
29.6
20
-10.7763653181227
30
0
41
1
10
28.7340660906035
20
-10.5409206426536
30
0
41
1
10
27.8675345271497
20
-10.2965208142895
30
0
41
1
10
27
20
-10.0440882915837
30
0
0
SPLINE
5
134
100
AcDbEntity
8
1
62
256
6
ByLayer
370
18
48
1
60
0
100
AcDbSpline
70
2053
71
3
72
39
73
35
40
0
40
0
40
0
40
0
40
0.0312274986300872
40
0.0623406575480024
40
0.0935505474024168
40
0.124837589765489
40
0.156015568545071
40
0.187400999425907
40
0.218629040411416
40
0.250022797136315
40
0.281372037317239
40
0.312657079968041
40
0.344044224832046
40
0.375225641073739
40
0.406521179261956
40
0.437675755721588
40
0.468933495856178
40
0.50016973127286
40
0.531274746015379
40
0.56243729236031
40
0.59369417978661
40
0.624836827084459
40
0.656185637017865
40
0.687405690682117
40
0.718762916570267
40
0.750122934511726
40
0.781400696560153
40
0.81281461361422
40
0.844037125517217
40
0.875364557691911
40
0.90659006116465
40
0.937734797568819
40
0.968961938611427
40
1
40
1
40
1
40
1
41
1
10
94.08
20
-7.00121363661329
30
0
41
1
10
94.2518469849094
20
-7.00121445922168
30
0
41
1
10
94.5949204144837
20
-7.03044857885726
30
0
41
1
10
95.0886795752216
20
-7.1588573594359
30
0
41
1
10
95.5424492168081
20
-7.36352928798772
30
0
41
1
10
95.9393081033376
20
-7.63252275374421
30
0
41
1
10
96.2653881900262
20
-7.9516140120254
30
0
41
1
10
96.5078953092784
20
-8.30422860917471
30
0
41
1
10
96.65791161455
20
-8.67466580694773
30
0
41
1
10
96.7086764979465
20
-9.04536563704511
30
0
41
1
10
96.6578065270547
20
-9.40105433197945
30
0
41
1
10
96.5076717928047
20
-9.72826491205038
30
0
41
1
10
96.2648362753795
20
-10.0163459548508
30
0
41
1
10
95.9385553377938
20
-10.2588683611296
30
0
41
1
10
95.5417361245481
20
-10.4508129835385
30
0
41
1
10
95.0874388300899
20
-10.5899166381684
30
0
41
1
10
94.5930365674749
20
-10.6740515285114
30
0
41
1
10
94.0778889542801
20
-10.7020073040632
30
0
41
1
10
93.5633937131092
20
-10.6735839069224
30
0
41
1
10
93.0698293091878
20
-10.5892775876377
30
0
41
1
10
92.6164718325533
20
-10.4500983678711
30
0
41
1
10
92.2194799791361
20
-10.2576959812508
30
0
41
1
10
91.8940633537977
20
-10.0153245029908
30
0
41
1
10
91.6514804652854
20
-9.72684245803688
30
0
41
1
10
91.5017768957916
20
-9.3998055167535
30
0
41
1
10
91.4513823692671
20
-9.04413803149913
30
0
41
1
10
91.5024687220012
20
-8.67312462605892
30
0
41
1
10
91.6527336502831
20
-8.30304588321545
30
0
41
1
10
91.8960455397265
20
-7.94993062567895
30
0
41
1
10
92.2222078203565
20
-7.63123377228564
30
0
41
1
10
92.6195085374396
20
-7.36250280660903
30
0
41
1
10
93.0733700939661
20
-7.15811097923907
30
0
41
1
10
93.5665546000173
20
-7.03023115407808
30
0
41
1
10
93.9091955007271
20
-7.00121281899514
30
0
41
1
10
94.08
20
-7.00121363661329
30
0
0
SPLINE
5
135
100
AcDbEntity
8
1
62
256
6
ByLayer
370
18
48
1
60
0
100
AcDbSpline
70
4
71
3
72
8
73
4
40
0
40
0
40
0
40
0
40
1
40
1
40
1
40
1
41
1
10
23.5299842374615
20
-10.0175461543551
30
0
41
1
10
23.5597215206191
20
-10.0212159279727
30
0
41
1
10
23.5899359901836
20
-10.0240951250956
30
0
41
1
10
23.6206241663829
20
-10.0262032991309
30
0
0
SPLINE
5
136
100
AcDbEntity
8
1
62
256
6
ByLayer
370
18
48
1
60
0
100
AcDbSpline
70
4
71
3
72
8
73
4
40
0
40
0
40
0
40
0
40
1
40
1
40
1
40
1
41
1
10
100.319022247496
20
-12.7330871090944
30
0
41
1
10
100.128032473113
20
-12.6468822128316
30
0
41
1
10
99.9368360397668
20
-12.5598197319589
30
0
41
1
10
99.7454215376824
20
-12.4719276141433
30
0
0
SPLINE
5
137
100
AcDbEntity
8
1
62
256
6
ByLayer
370
18
48
1
60
0
100
AcDbSpline
70
4
71
3
72
10
73
6
40
0
40
0
40
0
40
0
40
0.842720619398836
40
0.842720619398836
40
1
40
1
40
1
40
1
41
1
10
86.7761418123925
20
10.702320418589
30
0
41
1
10
84.4128135526254
20
10.2622173187405
30
0
41
1
10
82.0522982168859
20
9.75523204609473
30
0
41
1
10
79.2501413449326
20
9.08052061058211
30
0
41
1
10
78.8096078073486
20
8.97232465071758
30
0
41
1
10
78.3692396327519
20
8.86214794409321
30
0
0
SPLINE
5
138
100
AcDbEntity
8
1
62
256
6
ByLayer
370
18
48
1
60
0
100
AcDbSpline
70
4
71
3
72
8
73
4
40
0
40
0
40
0
40
0
40
1
40
1
40
1
40
1
41
1
10
32.8999999999448
20
-10.7677097715422
30
0
41
1
10
32.8999999999421
20
-10.9584567538604
30
0
41
1
10
32.8999999999394
20
-11.149179237904
30
0
41
1
10
32.8999999999367
20
-11.3398772456725
30
0
0
SPLINE
5
139
100
AcDbEntity
8
1
62
256
6
ByLayer
370
13
48
1
60
0
100
AcDbSpline
70
4
71
3
72
14
73
10
40
0
40
0
40
0
40
0
40
0.25
40
0.25
40
0.5
40
0.5
40
0.75
40
0.75
40
1
40
1
40
1
40
1
41
1
10
114.535489027222
20
1.26079899572244
30
0
41
1
10
114.338265308034
20
1.01046406503633
30
0
41
1
10
114.149238000645
20
0.743194344123054
30
0
41
1
10
113.800126531878
20
0.18755807001665
30
0
41
1
10
113.640123502803
20
-0.100725559541701
30
0
41
1
10
113.359358088564
20
-0.682020235349597
30
0
41
1
10
113.238647111122
20
-0.97492369055891
30
0
41
1
10
113.042243664349
20
-1.54853941513323
30
0
41
1
10
112.966553437274
20
-1.82916032251651
30
0
41
1
10
112.913572414716
20
-2.09652355137513
30
0
0
SPLINE
5
13A
100
AcDbEntity
8
1
62
256
6
ByLayer
370
13
48
1
60
0
100
AcDbSpline
70
4
71
3
72
8
73
4
40
0
40
0
40
0
40
0
40
1
40
1
40
1
40
1
41
1
10
112.355312767424
20
4.43670311292271
30
0
41
1
10
112.355089915859
20
4.43772101533472
30
0
41
1
10
112.354866261867
20
4.4387387551532
30
0
41
1
10
112.354641805539
20
4.43975633043263
30
0
0
SPLINE
5
13B
100
AcDbEntity
8
1
62
256
6
ByLayer
370
18
48
1
60
0
100
AcDbSpline
70
4
71
3
72
8
73
4
40
0
40
0
40
0
40
0
40
1
40
1
40
1
40
1
41
1
10
29.6
20
-10.7763653181226
30
0
41
1
10
30.7004792578883
20
-10.9791435211563
30
0
41
1
10
31.8002843843068
20
-11.1672623397597
30
0
41
1
10
32.8999999999368
20
-11.3398772456725
30
0
0
SPLINE
5
13C
100
AcDbEntity
8
1
62
256
6
ByLayer
370
13
48
1
60
0
100
AcDbSpline
70
4
71
3
72
8
73
4
40
0
40
0
40
0
40
0
40
1
40
1
40
1
40
1
41
1
10
114.535489027222
20
1.26079899572244
30
0
41
1
10
114.54307253949
20
1.25541989257278
30
0
41
1
10
114.550676357691
20
1.25006624395329
30
0
41
1
10
114.55829997516
20
1.24473779182134
30
0
0
SPLINE
5
13D
100
AcDbEntity
8
1
62
256
6
ByLayer
370
18
48
1
60
0
100
AcDbSpline
70
4
71
3
72
8
73
4
40
0
40
0
40
0
40
0
40
1
40
1
40
1
40
1
41
1
10
110.160988230863
20
0.937890922843962
30
0
41
1
10
110.074278842588
20
1.29859473554163
30
0
41
1
10
110.003536894938
20
1.66380580448887
30
0
41
1
10
109.945064038118
20
2.03016334529846
30
0
0
SPLINE
5
13E
100
AcDbEntity
8
1
62
256
6
ByLayer
370
13
48
1
60
0
100
AcDbSpline
70
4
71
3
72
8
73
4
40
0
40
0
40
0
40
0
40
1
40
1
40
1
40
1
41
1
10
112.315346368798
20
4.49191963452378
30
0
41
1
10
112.319617976001
20
4.47255425537932
30
0
41
1
10
112.323889583204
20
4.45318887623489
30
0
41
1
10
112.328161190407
20
4.43382349709043
30
0
0
SPLINE
5
13F
100
AcDbEntity
8
1
62
256
6
ByLayer
370
18
48
1
60
0
100
AcDbSpline
70
4
71
3
72
12
73
8
40
0
40
0
40
0
40
0
40
0.500000000000003
40
0.500000000000003
40
0.750000000000002
40
0.750000000000002
40
1
40
1
40
1
40
1
41
1
10
88.4491614752529
20
-11.2409214151686
30
0
41
1
10
90.2905223410543
20
-11.5589022311594
30
0
41
1
10
92.130991788028
20
-11.8274276513576
30
0
41
1
10
94.8956813106383
20
-12.1513376494621
30
0
41
1
10
95.8173130137753
20
-12.2460735566035
30
0
41
1
10
97.6591254155006
20
-12.4087794915143
30
0
41
1
10
98.5796335450303
20
-12.4768039387309
30
0
41
1
10
99.5
20
-12.5315173175869
30
0
0
SPLINE
5
140
100
AcDbEntity
8
1
62
256
6
ByLayer
370
18
48
1
60
0
100
AcDbSpline
70
4
71
3
72
29
73
25
40
0
40
0
40
0
40
0
40
0.0478366626000857
40
0.0954410522646937
40
0.142813923642134
40
0.189956042499536
40
0.236868185904491
40
0.283551142409275
40
0.330005712237741
40
0.376232707474803
40
0.422232952258569
40
0.468007282975082
40
0.513556548455674
40
0.558881610176935
40
0.603983342463269
40
0.648862632692024
40
0.693520381501167
40
0.737957502999509
40
0.782174924979418
40
0.826173589131997
40
0.869954451264709
40
0.913518481521373
40
0.956866664604514
40
1
40
1
40
1
40
1
41
1
10
106.759262015067
20
-2.97877493697135
30
0
41
1
10
106.739693043934
20
-2.91919348892483
30
0
41
1
10
106.700650119635
20
-2.800319893069
30
0
41
1
10
106.643144507525
20
-2.62141034316559
30
0
41
1
10
106.586596938742
20
-2.44266679729452
30
0
41
1
10
106.531072200508
20
-2.26405548369303
30
0
41
1
10
106.476553059902
20
-2.08563855948083
30
0
41
1
10
106.423044100914
20
-1.90745175143326
30
0
41
1
10
106.370544104438
20
-1.72953689838059
30
0
41
1
10
106.319053394945
20
-1.55193329136492
30
0
41
1
10
106.268571886341
20
-1.37467997369924
30
0
41
1
10
106.219099601803
20
-1.1978151263308
30
0
41
1
10
106.170636535276
20
-1.02137622896731
30
0
41
1
10
106.123182689185
20
-0.84540001531542
30
0
41
1
10
106.076738061184
20
-0.669922483661395
30
0
41
1
10
106.031302659613
20
-0.494978892785213
30
0
41
1
10
105.986876455171
20
-0.3206037637338
30
0
41
1
10
105.943459557592
20
-0.146830874887883
30
0
41
1
10
105.901051561775
20
0.0263067200582725
30
0
41
1
10
105.859653969828
20
0.198776756472967
30
0
41
1
10
105.819261218906
20
0.370547516793067
30
0
41
1
10
105.77989391753
20
0.541588721873808
30
0
41
1
10
105.741475725939
20
0.711868222560582
30
0
41
1
10
105.716623318775
20
0.825146104920947
30
0
41
1
10
105.704227985848
20
0.881644336898063
30
0
0
SPLINE
5
141
100
AcDbEntity
8
1
62
256
6
ByLayer
370
18
48
1
60
0
100
AcDbSpline
70
4
71
3
72
9
73
5
40
0
40
0
40
0
40
0
40
0.497166272492496
40
1
40
1
40
1
40
1
41
1
10
99.600000001674
20
11.678306753959
30
0
41
1
10
99.5845125437096
20
11.7108549367143
30
0
41
1
10
99.5533610782516
20
11.776322335764
30
0
41
1
10
99.5212421463795
20
11.84137090048
30
0
41
1
10
99.5050916641427
20
11.8740795127452
30
0
0
SPLINE
5
142
100
AcDbEntity
8
1
62
256
6
ByLayer
370
18
48
1
60
0
100
AcDbSpline
70
4
71
3
72
8
73
4
40
0
40
0
40
0
40
0
40
1
40
1
40
1
40
1
41
1
10
88.4491614752527
20
11.2409214151625
30
0
41
1
10
88.5545108182843
20
11.2287351835559
30
0
41
1
10
88.6574809811873
20
11.2116246202484
30
0
41
1
10
88.7579843175743
20
11.1892497224685
30
0
0
SPLINE
5
143
100
AcDbEntity
8
1
62
256
6
ByLayer
370
18
48
1
60
0
100
AcDbSpline
70
4
71
3
72
28
73
24
40
0
40
0
40
0
40
0
40
0.0624999999999986
40
0.0624999999999986
40
0.124999999999997
40
0.124999999999997
40
0.249999999999994
40
0.249999999999994
40
0.312499999999994
40
0.312499999999994
40
0.374999999999994
40
0.374999999999994
40
0.499999999999996
40
0.499999999999996
40
0.624999999999999
40
0.624999999999999
40
0.6875
40
0.6875
40
0.750000000000002
40
0.750000000000002
40
0.875000000000001
40
0.875000000000001
40
1
40
1
40
1
40
1
41
1
10
108.479134206368
20
1.91061037142944
30
0
41
1
10
108.455973080865
20
1.80648637781081
30
0
41
1
10
108.430482535075
20
1.70644458734944
30
0
41
1
10
108.374714059176
20
1.51527200126273
30
0
41
1
10
108.344748853268
20
1.42520183283477
30
0
41
1
10
108.248691305211
20
1.17132506082413
30
0
41
1
10
108.176461551578
20
1.02378719718888
30
0
41
1
10
108.055706066412
20
0.835378467713383
30
0
41
1
10
108.013379700904
20
0.778074635961701
30
0
41
1
10
107.924479970761
20
0.674724702938505
30
0
41
1
10
107.877799032763
20
0.628590862686508
30
0
41
1
10
107.731853664314
20
0.508264256551996
30
0
41
1
10
107.628389804805
20
0.453310542790007
30
0
41
1
10
107.409697256747
20
0.391599882483803
30
0
41
1
10
107.294466563985
20
0.384851146570583
30
0
41
1
10
107.112770350433
20
0.410984395811795
30
0
41
1
10
107.050502679281
20
0.425857391527927
30
0
41
1
10
106.924766176334
20
0.467262345379993
30
0
41
1
10
106.861160509671
20
0.493772755331605
30
0
41
1
10
106.668213210766
20
0.590082366782326
30
0
41
1
10
106.536749740768
20
0.676593309177434
30
0
41
1
10
106.268367446704
20
0.892581939878795
30
0
41
1
10
106.130911228021
20
1.02272854365231
30
0
41
1
10
105.992708964605
20
1.17225329758
30
0
0
SPLINE
5
144
100
AcDbEntity
8
1
62
256
6
ByLayer
370
18
48
1
60
0
100
AcDbSpline
70
4
71
3
72
14
73
10
40
0
40
0
40
0
40
0
40
0.499999999999994
40
0.499999999999994
40
0.624999999999995
40
0.624999999999995
40
0.749999999999997
40
0.749999999999997
40
1
40
1
40
1
40
1
41
1
10
23.6206241663829
20
6.87241350921931
30
0
41
1
10
24.1467957317117
20
6.82960356088509
30
0
41
1
10
24.6913407361631
20
6.80933784964822
30
0
41
1
10
25.39744163746
20
6.79616863091985
30
0
41
1
10
25.5399534758309
20
6.79413939766363
30
0
41
1
10
25.8277111851604
20
6.79084741243858
30
0
41
1
10
25.9733208834977
20
6.7895827814917
30
0
41
1
10
26.4116057436472
20
6.78622512067182
30
0
41
1
10
26.705100441437
20
6.78458690822546
30
0
41
1
10
27
20
6.78128292995447
30
0
0
SPLINE
5
145
100
AcDbEntity
8
1
62
256
6
ByLayer
370
18
48
1
60
0
100
AcDbSpline
70
4
71
3
72
22
73
18
40
0
40
0
40
0
40
0
40
0.209183304388099
40
0.209183304388099
40
0.31377495658215
40
0.31377495658215
40
0.418366608776201
40
0.418366608776201
40
0.522958260970251
40
0.522958260970251
40
0.627549913164302
40
0.627549913164302
40
0.732141565358353
40
0.732141565358353
40
0.836733217552404
40
0.836733217552404
40
1
40
1
40
1
40
1
41
1
10
81.4169959898082
20
8.12979578738745
30
0
41
1
10
79.3908851112166
20
8.63498830720019
30
0
41
1
10
77.3661696976144
20
9.10184702156261
30
0
41
1
10
74.3271272326159
20
9.73651538652115
30
0
41
1
10
73.3134241324638
20
9.93711586941842
30
0
41
1
10
71.2878368533328
20
10.3144347179021
30
0
41
1
10
70.2756417171711
20
10.4912407924031
30
0
41
1
10
68.2518910854503
20
10.8202578056877
30
0
41
1
10
67.2403270475728
20
10.9724724182352
30
0
41
1
10
65.2179744541307
20
11.2521981281818
30
0
41
1
10
64.2068002746841
20
11.3792107184313
30
0
41
1
10
62.1838055219163
20
11.6064878998459
30
0
41
1
10
61.1719886092846
20
11.7067289322128
30
0
41
1
10
59.1469696574062
20
11.8792771349227
30
0
41
1
10
58.133084191464
20
11.9516569628246
30
0
41
1
10
55.5411593609596
20
12.1006409486174
30
0
41
1
10
53.9645308930796
20
12.1567734613893
30
0
41
1
10
52.3897006790463
20
12.1789647733967
30
0
0
SPLINE
5
146
100
AcDbEntity
8
1
62
256
6
ByLayer
370
18
48
1
60
0
100
AcDbSpline
70
4
71
2
72
7
73
4
40
0
40
0
40
0
40
0.5
40
1
40
1
40
1
41
1
10
105.830684728446
20
0.883394338655052
30
0
41
1
10
106.040572868791
20
-0.0669740211926069
30
0
41
1
10
106.567073384178
20
-1.97320682872072
30
0
41
1
10
106.87571402867
20
-2.89999999999816
30
0
0
SPLINE
5
147
100
AcDbEntity
8
1
62
256
6
ByLayer
370
18
48
1
60
0
100
AcDbSpline
70
4
71
3
72
14
73
10
40
0
40
0
40
0
40
0
40
0.25
40
0.25
40
0.5
40
0.5
40
0.75
40
0.75
40
1
40
1
40
1
40
1
41
1
10
24.6055701159515
20
-8.7176881257538
30
0
41
1
10
24.7476831925566
20
-8.33135752286697
30
0
41
1
10
24.9130505728196
20
-7.8807846622438
30
0
41
1
10
25.2811600230481
20
-6.87604140977265
30
0
41
1
10
25.4838831122269
20
-6.32192282538909
30
0
41
1
10
25.9154687923207
20
-5.14079797893081
30
0
41
1
10
26.1443091294313
20
-4.51385261906495
30
0
41
1
10
26.6154450088295
20
-3.22182478570983
30
0
41
1
10
26.8577162579903
20
-2.55680893290781
30
0
41
1
10
27.1000000000007
20
-1.89115691842062
30
0
0
SPLINE
5
148
100
AcDbEntity
8
1
62
256
6
ByLayer
370
18
48
1
60
0
100
AcDbSpline
70
4
71
3
72
16
73
12
40
0
40
0
40
0
40
0
40
0.250000000000004
40
0.250000000000004
40
0.375000000000004
40
0.375000000000004
40
0.500000000000003
40
0.500000000000003
40
0.750000000000001
40
0.750000000000001
40
1
40
1
40
1
40
1
41
1
10
100.319022247496
20
12.9025005098905
30
0
41
1
10
101.303584947814
20
12.9520028097403
30
0
41
1
10
102.287112428143
20
12.9766953047549
30
0
41
1
10
103.760457801464
20
12.9772415985682
30
0
41
1
10
104.2510844587
20
12.9713130458167
30
0
41
1
10
105.231722021753
20
12.9471450208576
30
0
41
1
10
105.721612691639
20
12.9288656184681
30
0
41
1
10
107.192449895786
20
12.8559621571969
30
0
41
1
10
108.173668292789
20
12.7832356512692
30
0
41
1
10
110.137229846261
20
12.5894739456679
30
0
41
1
10
111.118812193946
20
12.4678299040214
30
0
41
1
10
112.103343473607
20
12.3229673941152
30
0
0
SPLINE
5
149
100
AcDbEntity
8
1
62
256
6
ByLayer
370
18
48
1
60
0
100
AcDbSpline
70
4
71
3
72
12
73
8
40
0
40
0
40
0
40
0
40
0.500000000000011
40
0.500000000000011
40
0.750000000000005
40
0.750000000000005
40
1
40
1
40
1
40
1
41
1
10
23.6206241663829
20
-10.0262032991309
30
0
41
1
10
23.8399981770743
20
-10.0412735525844
30
0
41
1
10
24.0762437495465
20
-10.0321179772201
30
0
41
1
10
24.4553042784907
20
-9.99703571588861
30
0
41
1
10
24.586403840901
20
-9.98148153458837
30
0
41
1
10
24.8496557752373
20
-9.9448647293749
30
0
41
1
10
24.9826570419064
20
-9.92374146237862
30
0
41
1
10
25.1170525264462
20
-9.90006985286448
30
0
0
SPLINE
5
14A
100
AcDbEntity
8
1
62
256
6
ByLayer
370
18
48
1
60
0
100
AcDbSpline
70
4
71
3
72
8
73
4
40
0
40
0
40
0
40
0
40
1
40
1
40
1
40
1
41
1
10
99.4
20
3.40369133702453
30
0
41
1
10
99.4
20
3.58132198339004
30
0
41
1
10
99.4000000000001
20
3.77874008310476
30
0
41
1
10
99.4000000000001
20
3.99581633702454
30
0
0
SPLINE
5
14B
100
AcDbEntity
8
1
62
256
6
ByLayer
370
18
48
1
60
0
100
AcDbSpline
70
4
71
3
72
26
73
22
40
0
40
0
40
0
40
0
40
0.250000000000003
40
0.250000000000003
40
0.312500000000005
40
0.312500000000005
40
0.375000000000008
40
0.375000000000008
40
0.500000000000006
40
0.500000000000006
40
0.562500000000005
40
0.562500000000005
40
0.625000000000004
40
0.625000000000004
40
0.750000000000003
40
0.750000000000003
40
0.875000000000003
40
0.875000000000003
40
0.937500000000001
40
0.937500000000001
40
1
40
1
40
1
40
1
41
1
10
34.9481812979759
20
8.04059744855635
30
0
41
1
10
34.6417970494576
20
8.1535003429112
30
0
41
1
10
34.3632598256968
20
8.29552628462821
30
0
41
1
10
34.0483458197427
20
8.50364152795316
30
0
41
1
10
33.9868533440646
20
8.54698078759859
30
0
41
1
10
33.8683742707478
20
8.63597089801857
30
0
41
1
10
33.8115755818994
20
8.6814572135506
30
0
41
1
10
33.6483125713387
20
8.82063044419019
30
0
41
1
10
33.5489450574678
20
8.91701620681906
30
0
41
1
10
33.4140371059607
20
9.06628335006567
30
0
41
1
10
33.371434107744
20
9.11682453120306
30
0
41
1
10
33.2910628250911
20
9.21940424074467
30
0
41
1
10
33.2531691545904
20
9.27164991415677
30
0
41
1
10
33.1484858922785
20
9.42825195221067
30
0
41
1
10
33.090241665877
20
9.53285797199402
30
0
41
1
10
32.9962337459917
20
9.74179769290745
30
0
41
1
10
32.9604693155435
20
9.84613352384099
30
0
41
1
10
32.9242714631516
20
10.0020912225055
30
0
41
1
10
32.9151482771969
20
10.0539863354421
30
0
41
1
10
32.9030333170165
20
10.1563414729262
30
0
41
1
10
32.9000000104814
20
10.2069559088163
30
0
41
1
10
32.900000010477
20
10.2569986096302
30
0
0
SPLINE
5
14C
100
AcDbEntity
8
1
62
256
6
ByLayer
370
18
48
1
60
0
100
AcDbSpline
70
4
71
3
72
32
73
28
40
0
40
0
40
0
40
0
40
0.0624999999999996
40
0.0624999999999996
40
0.124999999999999
40
0.124999999999999
40
0.249999999999983
40
0.249999999999983
40
0.312499999999983
40
0.312499999999983
40
0.374999999999982
40
0.374999999999982
40
0.437499999999981
40
0.437499999999981
40
0.499999999999981
40
0.499999999999981
40
0.624999999999979
40
0.624999999999979
40
0.687499999999983
40
0.687499999999983
40
0.749999999999987
40
0.749999999999987
40
0.812499999999991
40
0.812499999999991
40
0.874999999999995
40
0.874999999999995
40
1
40
1
40
1
40
1
41
1
10
85.274234313201
20
-7.83801235670475
30
0
41
1
10
85.3854044755158
20
-7.85987006037695
30
0
41
1
10
85.4977150059448
20
-7.87665547164568
30
0
41
1
10
85.7246131649977
20
-7.90023122540896
30
0
41
1
10
85.8390852352871
20
-7.90694829545555
30
0
41
1
10
86.1793815187334
20
-7.9119725675223
30
0
41
1
10
86.4042931822908
20
-7.89564885116337
30
0
41
1
10
86.7387019909089
20
-7.84090920419538
30
0
41
1
10
86.8493318825408
20
-7.81753883527753
30
0
41
1
10
87.0638994305328
20
-7.76168841691384
30
0
41
1
10
87.1685612545398
20
-7.72910303016613
30
0
41
1
10
87.3727356661808
20
-7.65454018529977
30
0
41
1
10
87.4722484526806
20
-7.61256367713005
30
0
41
1
10
87.6660198554336
20
-7.51873133588052
30
0
41
1
10
87.7599314493094
20
-7.46695050028163
30
0
41
1
10
88.0268463728445
20
-7.30024434264016
30
0
41
1
10
88.1876193348892
20
-7.17301545744076
30
0
41
1
10
88.4026298183206
20
-6.9557098587714
30
0
41
1
10
88.4693972096147
20
-6.87921701865915
30
0
41
1
10
88.5909488366266
20
-6.72073479822546
30
0
41
1
10
88.6461233227586
20
-6.63836261909296
30
0
41
1
10
88.7453112513496
20
-6.46713370893701
30
0
41
1
10
88.7893258688442
20
-6.37827815054777
30
0
41
1
10
88.8657867802858
20
-6.1936335604002
30
0
41
1
10
88.8977073699011
20
-6.09898931721136
30
0
41
1
10
88.9741121496793
20
-5.81101717011936
30
0
41
1
10
89.0000000000001
20
-5.6124592375968
30
0
41
1
10
89.0000000000001
20
-5.40685422003503
30
0
0
SPLINE
5
14D
100
AcDbEntity
8
1
62
256
6
ByLayer
370
18
48
1
60
0
100
AcDbSpline
70
4
71
3
72
12
73
8
40
0
40
0
40
0
40
0
40
0.412736376066759
40
0.412736376066759
40
0.706368130673173
40
0.706368130673173
40
1
40
1
40
1
40
1
41
1
10
99.5999999992988
20
12.4261265361855
30
0
41
1
10
99.5867834627724
20
12.4401613542344
30
0
41
1
10
99.5735629977564
20
12.4541944885976
30
0
41
1
10
99.550930481919
20
12.4782083416848
30
0
41
1
10
99.5415203507632
20
12.4881898784717
30
0
41
1
10
99.5226961737206
20
12.5081513049769
30
0
41
1
10
99.5132821269129
20
12.5181311956693
30
0
41
1
10
99.5038661375991
20
12.5281102722673
30
0
0
SPLINE
5
14E
100
AcDbEntity
8
1
62
256
6
ByLayer
370
18
48
1
60
0
100
AcDbSpline
70
4
71
3
72
8
73
4
40
0
40
0
40
0
40
0
40
1
40
1
40
1
40
1
41
1
10
27.0000000000001
20
-10.0440882915837
30
0
41
1
10
26.371230296395
20
-9.91598687075671
30
0
41
1
10
25.7424409162787
20
-9.86680320365082
30
0
41
1
10
25.1170525264462
20
-9.9000698528645
30
0
0
SPLINE
5
14F
100
AcDbEntity
8
1
62
256
6
ByLayer
370
18
48
1
60
0
100
AcDbSpline
70
4
71
3
72
8
73
4
40
0
40
0
40
0
40
0
40
1
40
1
40
1
40
1
41
1
10
100.651040764009
20
3.02972805128096
30
0
41
1
10
100.299092219615
20
3.19664951352638
30
0
41
1
10
99.9487284802412
20
3.36997526290634
30
0
41
1
10
99.5999999999997
20
3.54990918735689
30
0
0
SPLINE
5
150
100
AcDbEntity
8
1
62
256
6
ByLayer
370
18
48
1
60
0
100
AcDbSpline
70
4
71
3
72
8
73
4
40
0
40
0
40
0
40
0
40
1
40
1
40
1
40
1
41
1
10
99.5038661383568
20
12.5281102711415
30
0
41
1
10
99.5025774137104
20
12.5292460734518
30
0
41
1
10
99.5012887009181
20
12.5303817556121
30
0
41
1
10
99.5
20
12.5315173175869
30
0
0
SPLINE
5
151
100
AcDbEntity
8
1
62
256
6
ByLayer
370
18
48
1
60
0
100
AcDbSpline
70
4
71
3
72
34
73
30
40
0
40
0
40
0
40
0
40
0.125
40
0.125
40
0.187499999999999
40
0.187499999999999
40
0.218749999999999
40
0.218749999999999
40
0.249999999999999
40
0.249999999999999
40
0.281249999999998
40
0.281249999999998
40
0.312499999999998
40
0.312499999999998
40
0.374999999999999
40
0.374999999999999
40
0.437499999999999
40
0.437499999999999
40
0.5
40
0.5
40
0.625
40
0.625
40
0.6875
40
0.6875
40
0.75
40
0.75
40
0.875
40
0.875
40
1
40
1
40
1
40
1
41
1
10
86.7761418123924
20
-10.702320418589
30
0
41
1
10
84.4128135526254
20
-10.2622173187405
30
0
41
1
10
82.0522982168859
20
-9.7552320460947
30
0
41
1
10
78.5101451547081
20
-8.9023421878187
30
0
41
1
10
77.3307765176191
20
-8.60313275033295
30
0
41
1
10
75.5630953893095
20
-8.13474758863967
30
0
41
1
10
74.9740645493324
20
-7.97535007029194
30
0
41
1
10
73.7962047748503
20
-7.65044843805708
30
0
41
1
10
73.2074934026122
20
-7.48465751862827
30
0
41
1
10
72.0289219016902
20
-7.15019833469211
30
0
41
1
10
71.439469646176
20
-6.98059418856846
30
0
41
1
10
70.2607720914859
20
-6.63534969480756
30
0
41
1
10
69.671429093198
20
-6.45993884585209
30
0
41
1
10
67.9031940981794
20
-5.92585058786878
30
0
41
1
10
66.7240981664584
20
-5.55930778919486
30
0
41
1
10
64.3641310267589
20
-4.80816973814115
30
0
41
1
10
63.1831880459647
20
-4.42361697656438
30
0
41
1
10
60.8249848244633
20
-3.64353610955314
30
0
41
1
10
59.6468215137278
20
-3.24773462216368
30
0
41
1
10
56.1128933324594
20
-2.04947356141884
30
0
41
1
10
53.7583271802951
20
-1.23437838356898
30
0
41
1
10
50.2230468627329
20
-0.0030783345919474
30
0
41
1
10
49.0439905867747
20
0.408635717854338
30
0
41
1
10
46.6831188245103
20
1.23026260354607
30
0
41
1
10
45.5029588940311
20
1.63956120015999
30
0
41
1
10
41.9661522206456
20
2.85417133721759
30
0
41
1
10
39.6107100579711
20
3.64630699598595
30
0
41
1
10
34.9005705479495
20
5.18392088037635
30
0
41
1
10
32.5457601925545
20
5.92888533284304
30
0
41
1
10
30.1854690559078
20
6.63424881036224
30
0
0
SPLINE
5
152
100
AcDbEntity
8
1
62
256
6
ByLayer
370
18
48
1
60
0
100
AcDbSpline
70
4
71
3
72
12
73
8
40
0
40
0
40
0
40
0
40
0.519937111443425
40
0.519937111443425
40
0.779905667165137
40
0.779905667165137
40
1
40
1
40
1
40
1
41
1
10
99.7454215376824
20
-12.4719276141433
30
0
41
1
10
100.765613231868
20
-12.5712840223758
30
0
41
1
10
101.784664576881
20
-12.6444840702775
30
0
41
1
10
103.311152173287
20
-12.7159498140867
30
0
41
1
10
103.819640204639
20
-12.7333600942297
30
0
41
1
10
104.757998306088
20
-12.7536053697171
30
0
41
1
10
105.187911411779
20
-12.7582484827279
30
0
41
1
10
105.618020367081
20
-12.7582485986085
30
0
0
SPLINE
5
153
100
AcDbEntity
8
1
62
256
6
ByLayer
370
18
48
1
60
0
100
AcDbSpline
70
4
71
3
72
18
73
14
40
0
40
0
40
0
40
0
40
0.250000000000003
40
0.250000000000003
40
0.375000000000003
40
0.375000000000003
40
0.500000000000002
40
0.500000000000002
40
0.625000000000002
40
0.625000000000002
40
0.750000000000001
40
0.750000000000001
40
1
40
1
40
1
40
1
41
1
10
115.717682856786
20
-1.20460606996528
30
0
41
1
10
115.672386549326
20
-1.40061575501056
30
0
41
1
10
115.61693481312
20
-1.61986088253505
30
0
41
1
10
115.519116242514
20
-1.98222684738698
30
0
41
1
10
115.484160715424
20
-2.10819093568009
30
0
41
1
10
115.410775664572
20
-2.36635796256203
30
0
41
1
10
115.372201427908
20
-2.49909174628749
30
0
41
1
10
115.291396606419
20
-2.7716521443337
30
0
41
1
10
115.249162072728
20
-2.91148641893065
30
0
41
1
10
115.161042618929
20
-3.19823623372864
30
0
41
1
10
115.114950461513
20
-3.34579049333408
30
0
41
1
10
114.973406907183
20
-3.79196409905847
30
0
41
1
10
114.874319216741
20
-4.09544376721709
30
0
41
1
10
114.77058311773
20
-4.40485587521738
30
0
0
SPLINE
5
154
100
AcDbEntity
8
1
62
256
6
ByLayer
370
18
48
1
60
0
100
AcDbSpline
70
4
71
3
72
8
73
4
40
0
40
0
40
0
40
0
40
1
40
1
40
1
40
1
41
1
10
99.4
20
3.99581633702456
30
0
41
1
10
98.7147083503866
20
4.04495446496881
30
0
41
1
10
98.0292450131818
20
4.09036521376277
30
0
41
1
10
97.3435398671991
20
4.1321155222804
30
0
0
SPLINE
5
155
100
AcDbEntity
8
1
62
256
6
ByLayer
370
18
48
1
60
0
100
AcDbSpline
70
4
71
2
72
9
73
6
40
0
40
0
40
0
40
0.24427809104129
40
0.496185394027527
40
0.748092697013763
40
1
40
1
40
1
41
1
10
106.87599909148
20
-2.96950824000928
30
0
41
1
10
106.974310716417
20
-4.08119738714043
30
0
41
1
10
107.319005536018
20
-6.20324443742814
30
0
41
1
10
107.808580202481
20
-8.14098809248054
30
0
41
1
10
108.420874658771
20
-9.79531346743954
30
0
41
1
10
108.777945671133
20
-10.452073237453
30
0
0
SPLINE
5
156
100
AcDbEntity
8
1
62
256
6
ByLayer
370
18
48
1
60
0
100
AcDbSpline
70
4
71
3
72
12
73
8
40
0
40
0
40
0
40
0
40
0.412736376066669
40
0.412736376066669
40
0.706368130672917
40
0.706368130672917
40
1
40
1
40
1
40
1
41
1
10
99.5999999992988
20
-12.4261265361855
30
0
41
1
10
99.5867834627724
20
-12.4401613542344
30
0
41
1
10
99.5735629977564
20
-12.4541944885976
30
0
41
1
10
99.550930481919
20
-12.4782083416848
30
0
41
1
10
99.5415203507632
20
-12.4881898784717
30
0
41
1
10
99.5226961737206
20
-12.5081513049769
30
0
41
1
10
99.5132821269129
20
-12.5181311956693
30
0
41
1
10
99.5038661375991
20
-12.5281102722673
30
0
0
SPLINE
5
157
100
AcDbEntity
8
1
62
256
6
ByLayer
370
13
48
1
60
0
100
AcDbSpline
70
4
71
3
72
8
73
4
40
0
40
0
40
0
40
0
40
1
40
1
40
1
40
1
41
1
10
112.228657712577
20
-5.55287447509718
30
0
41
1
10
112.45696261329
20
-4.40075750052318
30
0
41
1
10
112.685267514003
20
-3.24864052594916
30
0
41
1
10
112.913572414716
20
-2.09652355137513
30
0
0
SPLINE
5
158
100
AcDbEntity
8
1
62
256
6
ByLayer
370
13
48
1
60
0
100
AcDbSpline
70
4
71
3
72
8
73
4
40
0
40
0
40
0
40
0
40
1
40
1
40
1
40
1
41
1
10
112.355312767434
20
4.43670311286709
30
0
41
1
10
113.1604028842
20
4.42608736698387
30
0
41
1
10
113.965493000965
20
4.41547162110064
30
0
41
1
10
114.77058311773
20
4.40485587521738
30
0
0
SPLINE
5
159
100
AcDbEntity
8
1
62
256
6
ByLayer
370
13
48
1
60
0
100
AcDbSpline
70
4
71
3
72
39
73
35
40
0
40
0
40
0
40
0
40
0.249999999999923
40
0.249999999999923
40
0.3124999999999
40
0.343749999999895
40
0.343749999999895
40
0.374999999999891
40
0.374999999999891
40
0.499999999999884
40
0.53124999999989
40
0.546874999999899
40
0.546874999999899
40
0.562499999999908
40
0.562499999999908
40
0.62499999999992
40
0.640624999999924
40
0.640624999999924
40
0.656249999999927
40
0.656249999999927
40
0.687499999999943
40
0.71874999999996
40
0.734374999999968
40
0.734374999999968
40
0.749999999999977
40
0.749999999999977
40
0.875000000000005
40
0.875000000000005
40
0.90625000000001
40
0.921875000000012
40
0.921875000000012
40
0.937500000000015
40
0.937500000000015
40
1
40
1
40
1
40
1
41
1
10
112.913572414716
20
-2.09652355137513
30
0
41
1
10
112.691244775158
20
-1.94112983950296
30
0
41
1
10
112.431194233736
20
-1.7391389461136
30
0
41
1
10
112.127285537693
20
-1.48029122950828
30
0
41
1
10
112.037699406862
20
-1.40215991355083
30
0
41
1
10
111.952414187153
20
-1.32477251815553
30
0
41
1
10
111.8967266316
20
-1.27350842756999
30
0
41
1
10
111.869682656915
20
-1.24824748683136
30
0
41
1
10
111.735662880592
20
-1.12099225313693
30
0
41
1
10
111.575801876
20
-0.96043093661109
30
0
41
1
10
111.414837915155
20
-0.788575451694925
30
0
41
1
10
111.373187455324
20
-0.743129464019631
30
0
41
1
10
111.346034834111
20
-0.713263463941701
30
0
41
1
10
111.333032940698
20
-0.698845331537797
30
0
41
1
10
111.266683738282
20
-0.624579691465016
30
0
41
1
10
111.187414069955
20
-0.533173303564041
30
0
41
1
10
111.115534208804
20
-0.447560173944822
30
0
41
1
10
111.087844215087
20
-0.414322740981248
30
0
41
1
10
111.074935994114
20
-0.398702580083523
30
0
41
1
10
111.035525526874
20
-0.350531416832581
30
0
41
1
10
110.977761118748
20
-0.278697637345374
30
0
41
1
10
110.902257363452
20
-0.182223497817631
30
0
41
1
10
110.85985512779
20
-0.126880623573555
30
0
41
1
10
110.83271864253
20
-0.0911667962807883
30
0
41
1
10
110.82005538011
20
-0.0743548668168899
30
0
41
1
10
110.705598240591
20
0.0792749816791911
30
0
41
1
10
110.583524783773
20
0.254776097484012
30
0
41
1
10
110.445239188385
20
0.465764137645408
30
0
41
1
10
110.404826377686
20
0.528431534699536
30
0
41
1
10
110.367140134821
20
0.588550278833765
30
0
41
1
10
110.34274605299
20
0.627884664391672
30
0
41
1
10
110.331263151333
20
0.646605196057266
30
0
41
1
10
110.271073676978
20
0.745981561403198
30
0
41
1
10
110.213111282376
20
0.845423949400924
30
0
41
1
10
110.160988230863
20
0.937890922843991
30
0
0
SPLINE
5
15A
100
AcDbEntity
8
1
62
256
6
ByLayer
370
18
48
1
60
0
100
AcDbSpline
70
4
71
1
72
4
73
2
40
0
40
0
40
1
40
1
41
1
10
106.875714081255
20
-2.90001680363059
30
0
41
1
10
106.875999795247
20
-2.96951619807069
30
0
0
SPLINE
5
15B
100
AcDbEntity
8
1
62
256
6
ByLayer
370
18
48
1
60
0
100
AcDbSpline
70
4
71
3
72
8
73
4
40
0
40
0
40
0
40
0
40
1
40
1
40
1
40
1
41
1
10
105.992708964609
20
1.17225329757113
30
0
41
1
10
105.939151521221
20
1.07476225169475
30
0
41
1
10
105.885148704867
20
0.978458652148646
30
0
41
1
10
105.830689964503
20
0.883370629956374
30
0
0
SPLINE
5
15C
100
AcDbEntity
8
1
62
256
6
ByLayer
370
18
48
1
60
0
100
AcDbSpline
70
4
71
3
72
8
73
4
40
0
40
0
40
0
40
0
40
1
40
1
40
1
40
1
41
1
10
27.0424052481293
20
6.78182723644792
30
0
41
1
10
27.5196170259735
20
6.7956852043927
30
0
41
1
10
27.9903903277824
20
6.77631404571861
30
0
41
1
10
28.4550780251773
20
6.72439072970559
30
0
0
SPLINE
5
15D
100
AcDbEntity
8
1
62
256
6
ByLayer
370
18
48
1
60
0
100
AcDbSpline
70
4
71
3
72
8
73
4
40
0
40
0
40
0
40
0
40
1
40
1
40
1
40
1
41
1
10
89.4867811999413
20
10.9235406934732
30
0
41
1
10
89.26787755784
20
11.0451990171975
30
0
41
1
10
89.0224842400635
20
11.1303645258032
30
0
41
1
10
88.7579843175753
20
11.1892497224667
30
0
0
SPLINE
5
15E
100
AcDbEntity
8
1
62
256
6
ByLayer
370
18
48
1
60
0
100
AcDbSpline
70
4
71
3
72
8
73
4
40
0
40
0
40
0
40
0
40
1
40
1
40
1
40
1
41
1
10
21.8305235608735
20
-8.82356296618542
30
0
41
1
10
22.0624816102629
20
-8.92625976074569
30
0
41
1
10
22.3034046413803
20
-9.01089521439749
30
0
41
1
10
22.5544191542603
20
-9.07943065336306
30
0
0
SPLINE
5
15F
100
AcDbEntity
8
1
62
256
6
ByLayer
370
18
48
1
60
0
100
AcDbSpline
70
4
71
3
72
8
73
4
40
0
40
0
40
0
40
0
40
1
40
1
40
1
40
1
41
1
10
99.4
20
5.05000000000001
30
0
41
1
10
99.4
20
4.6542699225609
30
0
41
1
10
99.3999999999999
20
4.30325768868974
30
0
41
1
10
99.3999999999999
20
3.99581633702454
30
0
0
SPLINE
5
160
100
AcDbEntity
8
1
62
256
6
ByLayer
370
13
48
1
60
0
100
AcDbSpline
70
4
71
3
72
8
73
4
40
0
40
0
40
0
40
0
40
1
40
1
40
1
40
1
41
1
10
114.603540487124
20
1.2831609308877
30
0
41
1
10
114.974921277011
20
1.2569759772469
30
0
41
1
10
115.346302066899
20
1.23079102360609
30
0
41
1
10
115.717682856786
20
1.20460606996528
30
0
0
SPLINE
5
161
100
AcDbEntity
8
1
62
256
6
ByLayer
370
18
48
1
60
0
100
AcDbSpline
70
4
71
3
72
12
73
8
40
0
40
0
40
0
40
0
40
0.5
40
0.5
40
0.75
40
0.75
40
1
40
1
40
1
40
1
41
1
10
114.613426609505
20
-4.87360423533525
30
0
41
1
10
114.362192663415
20
-5.56991630465245
30
0
41
1
10
114.1155460848
20
-6.26945916983598
30
0
41
1
10
113.752907998114
20
-7.32393710201163
30
0
41
1
10
113.633261734743
20
-7.67629819419784
30
0
41
1
10
113.396682601578
20
-8.3829313701776
30
0
41
1
10
113.280947772029
20
-8.73362668127524
30
0
41
1
10
113.168012106106
20
-9.08138935064983
30
0
0
SPLINE
5
162
100
AcDbEntity
8
1
62
256
6
ByLayer
370
18
48
1
60
0
100
AcDbSpline
70
4
71
3
72
26
73
22
40
0
40
0
40
0
40
0
40
0.0663709426172539
40
0.0663709426172539
40
0.133058732430307
40
0.133058732430307
40
0.19974652224336
40
0.19974652224336
40
0.266434312056413
40
0.266434312056413
40
0.333122101869466
40
0.333122101869466
40
0.399809891682519
40
0.399809891682519
40
0.466497681495573
40
0.466497681495573
40
0.733248840747786
40
0.733248840747786
40
0.866624420373893
40
0.866624420373893
40
1
40
1
40
1
40
1
41
1
10
78.3641031511633
20
-8.86147450162471
30
0
41
1
10
77.3562185141883
20
-9.09302437304967
30
0
41
1
10
76.3483425071969
20
-9.31440828919625
30
0
41
1
10
74.3271272326159
20
-9.73651538652118
30
0
41
1
10
73.3134241324637
20
-9.93711586941839
30
0
41
1
10
71.2878368533329
20
-10.3144347179021
30
0
41
1
10
70.2756417171711
20
-10.4912407924031
30
0
41
1
10
68.2518910854503
20
-10.8202578056877
30
0
41
1
10
67.2403270475727
20
-10.9724724182352
30
0
41
1
10
65.2179744541307
20
-11.2521981281818
30
0
41
1
10
64.2068002746841
20
-11.3792107184313
30
0
41
1
10
62.1838055219164
20
-11.6064878998459
30
0
41
1
10
61.1719886092846
20
-11.7067289322128
30
0
41
1
10
59.1469696574062
20
-11.8792771349228
30
0
41
1
10
58.133084191464
20
-11.9516569628246
30
0
41
1
10
53.0726928554972
20
-12.2425285429069
30
0
41
1
10
49.045510651955
20
-12.2475264279622
30
0
41
1
10
43.0005985385368
20
-11.9320488436097
30
0
41
1
10
40.9850038084771
20
-11.7732557041004
30
0
41
1
10
36.9480505237773
20
-11.3500111411685
30
0
41
1
10
34.9267929822594
20
-11.0854085168636
30
0
41
1
10
32.8999999999447
20
-10.7677070839003
30
0
0
SPLINE
5
163
100
AcDbEntity
8
1
62
256
6
ByLayer
370
18
48
1
60
0
100
AcDbSpline
70
4
71
3
72
8
73
4
40
0
40
0
40
0
40
0
40
1
40
1
40
1
40
1
41
1
10
115.933732080391
20
0.283393081445155
30
0
41
1
10
115.945701146146
20
0.242479682346101
30
0
41
1
10
115.95772084359
20
0.201466246701841
30
0
41
1
10
115.969790840039
20
0.160354432700558
30
0
0
SPLINE
5
164
100
AcDbEntity
8
1
62
256
6
ByLayer
370
18
48
1
60
0
100
AcDbSpline
70
4
71
3
72
82
73
78
40
0
40
0
40
0
40
0
40
0.0133333333333333
40
0.0266666666666665
40
0.0399999999999998
40
0.0533333333333331
40
0.0666666666666661
40
0.0800000000000001
40
0.0933333333333333
40
0.106666666666667
40
0.12
40
0.133333333333333
40
0.146666666666666
40
0.16
40
0.173333333333333
40
0.186666666666666
40
0.2
40
0.213333333333333
40
0.226666666666666
40
0.239999999999999
40
0.253333333333334
40
0.266666666666666
40
0.28
40
0.293333333333333
40
0.306666666666666
40
0.32
40
0.333333333333333
40
0.346666666666667
40
0.36
40
0.373333333333333
40
0.386666666666666
40
0.4
40
0.413333333333333
40
0.426666666666667
40
0.44
40
0.453333333333333
40
0.466666666666666
40
0.48
40
0.493333333333333
40
0.506666666666666
40
0.52
40
0.533333333333333
40
0.546666666666666
40
0.56
40
0.573333333333333
40
0.586666666666667
40
0.6
40
0.613333333333333
40
0.626666666666667
40
0.64
40
0.653333333333333
40
0.666666666666667
40
0.68
40
0.693333333333333
40
0.706666666666667
40
0.72
40
0.733333333333333
40
0.746666666666667
40
0.76
40
0.773333333333333
40
0.786666666666667
40
0.8
40
0.813333333333334
40
0.826666666666667
40
0.84
40
0.853333333333334
40
0.866666666666667
40
0.88
40
0.893333333333333
40
0.906666666666667
40
0.92
40
0.933333333333333
40
0.946666666666667
40
0.96
40
0.973333333333333
40
0.986666666666667
40
1
40
1
40
1
40
1
41
1
10
27.1000000000007
20
-1.89115691842062
30
0
41
1
10
27.1172142160519
20
-1.84386071713249
30
0
41
1
10
27.1516426481543
20
-1.74926831455622
30
0
41
1
10
27.2032707770462
20
-1.60739659605792
30
0
41
1
10
27.2548698714968
20
-1.4655878145235
30
0
41
1
10
27.3064254244893
20
-1.3238801875159
30
0
41
1
10
27.3579229412488
20
-1.18231399854062
30
0
41
1
10
27.409347943317
20
-1.04092893015013
30
0
41
1
10
27.4606859726232
20
-0.899764764344894
30
0
41
1
10
27.5119225955487
20
-0.75886118072745
30
0
41
1
10
27.5630434069854
20
-0.618257796434051
30
0
41
1
10
27.6140340343851
20
-0.477994141307533
30
0
41
1
10
27.6648801418011
20
-0.338109650451429
30
0
41
1
10
27.7155674339178
20
-0.198643652160115
30
0
41
1
10
27.7660816600707
20
-0.0596353571248756
30
0
41
1
10
27.8164086182524
20
0.078876152660456
30
0
41
1
10
27.8665341591055
20
0.216851934868657
30
0
41
1
10
27.9164441899013
20
0.354253197792616
30
0
41
1
10
27.9661246785009
20
0.491041311250285
30
0
41
1
10
28.0155616573013
20
0.62717781744584
30
0
41
1
10
28.0647412271615
20
0.762624441781952
30
0
41
1
10
28.1136495613112
20
0.897343103620642
30
0
41
1
10
28.1622729092374
20
1.03129592698969
30
0
41
1
10
28.2105976005506
20
1.16444525123123
30
0
41
1
10
28.2586100488282
20
1.29675364159022
30
0
41
1
10
28.3062967554343
20
1.42818389973897
30
0
41
1
10
28.353644313315
20
1.55869907423553
30
0
41
1
10
28.4006394107674
20
1.68826247091249
30
0
41
1
10
28.4472688351825
20
1.81683766319353
30
0
41
1
10
28.4935194767597
20
1.94438850233465
30
0
41
1
10
28.5393783321928
20
2.07087912758735
30
0
41
1
10
28.5848325083257
20
2.19627397628093
30
0
41
1
10
28.6298692257773
20
2.32053779382073
30
0
41
1
10
28.6744758225345
20
2.4436356436
30
0
41
1
10
28.7186397575122
20
2.56553291682238
30
0
41
1
10
28.7623486140788
20
2.68619534223183
30
0
41
1
10
28.8055901035474
20
2.80558899574825
30
0
41
1
10
28.8483520686311
20
2.92368031000507
30
0
41
1
10
28.8906224868602
20
3.0404360837866
30
0
41
1
10
28.9323894739631
20
3.15582349136264
30
0
41
1
10
28.9736412872069
20
3.26981009171729
30
0
41
1
10
29.0143663286993
20
3.38236383766972
30
0
41
1
10
29.0545531486492
20
3.49345308488424
30
0
41
1
10
29.0941904485857
20
3.60304660076702
30
0
41
1
10
29.1332670845346
20
3.71111357324708
30
0
41
1
10
29.171772070152
20
3.8176236194391
30
0
41
1
10
29.2096945798124
20
3.92254679418554
30
0
41
1
10
29.2470239516526
20
4.02585359847561
30
0
41
1
10
29.2837496905697
20
4.12751498773892
30
0
41
1
10
29.319861471171
20
4.22750238001134
30
0
41
1
10
29.3553491406775
20
4.3257876639708
30
0
41
1
10
29.3902027217782
20
4.42234320684062
30
0
41
1
10
29.4244124154351
20
4.51714186215858
30
0
41
1
10
29.4579686036387
20
4.61015697740908
30
0
41
1
10
29.4908618521112
20
4.7013624015164
30
0
41
1
10
29.5230829129596
20
4.79073249219707
30
0
41
1
10
29.5546227272758
20
4.87824212316914
30
0
41
1
10
29.5854724276827
20
4.96386669121654
30
0
41
1
10
29.6156233408283
20
5.04758212310597
30
0
41
1
10
29.6450669898236
20
5.12936488235545
30
0
41
1
10
29.6737950966257
20
5.20919197585067
30
0
41
1
10
29.7017995843665
20
5.28704096031265
30
0
41
1
10
29.7290725796186
20
5.36288994859561
30
0
41
1
10
29.7556064146261
20
5.4367176158857
30
0
41
1
10
29.7813936293984
20
5.50850320552755
30
0
41
1
10
29.8064269740374
20
5.57822653549044
30
0
41
1
10
29.8306994099178
20
5.64586800168968
30
0
41
1
10
29.854204114869
20
5.71140859227839
30
0
41
1
10
29.876934473138
20
5.77482986022545
30
0
41
1
10
29.8988841218691
20
5.83611405079014
30
0
41
1
10
29.9200467863672
20
5.89524365012841
30
0
41
1
10
29.9404169033459
20
5.95220309347008
30
0
41
1
10
29.9599873030801
20
6.00697241286753
30
0
41
1
10
29.978757867585
20
6.05955096606567
30
0
41
1
10
29.9967032254072
20
6.10986890028605
30
0
41
1
10
30.0138933235632
20
6.15811759419569
30
0
41
1
10
30.0246600771171
20
6.18838349885053
30
0
41
1
10
30.0300434538941
20
6.20351645117793
30
0
0
SPLINE
5
165
100
AcDbEntity
8
1
62
256
6
ByLayer
370
18
48
1
60
0
100
AcDbSpline
70
4
71
3
72
8
73
4
40
0
40
0
40
0
40
0
40
1
40
1
40
1
40
1
41
1
10
99.7387627829168
20
-12.261975326685
30
0
41
1
10
99.7431981696869
20
-12.2831398644243
30
0
41
1
10
99.7454215376824
20
-12.3036568993021
30
0
41
1
10
99.7454215376824
20
-12.3235231732525
30
0
0
SPLINE
5
166
100
AcDbEntity
8
1
62
256
6
ByLayer
370
18
48
1
60
0
100
AcDbSpline
70
4
71
3
72
8
73
4
40
0
40
0
40
0
40
0
40
1
40
1
40
1
40
1
41
1
10
115.933732080391
20
-0.283393081445155
30
0
41
1
10
115.945701146146
20
-0.242479682346101
30
0
41
1
10
115.95772084359
20
-0.201466246701841
30
0
41
1
10
115.969790840039
20
-0.160354432700558
30
0
0
SPLINE
5
167
100
AcDbEntity
8
1
62
256
6
ByLayer
370
18
48
1
60
0
100
AcDbSpline
70
4
71
3
72
18
73
14
40
0
40
0
40
0
40
0
40
0.249999999999992
40
0.249999999999992
40
0.374999999999988
40
0.374999999999988
40
0.499999999999983
40
0.499999999999983
40
0.749999999999975
40
0.749999999999975
40
0.874999999999987
40
0.874999999999987
40
1
40
1
40
1
40
1
41
1
10
86.9971884402886
20
10.2513992017935
30
0
41
1
10
87.1298521022946
20
10.2780764797612
30
0
41
1
10
87.2572136968025
20
10.3210478165882
30
0
41
1
10
87.4408399260831
20
10.4081498489943
30
0
41
1
10
87.5010289515586
20
10.4410998211135
30
0
41
1
10
87.618001258423
20
10.5136849808947
30
0
41
1
10
87.6741845227482
20
10.5529018650512
30
0
41
1
10
87.8366506000016
20
10.6782137337798
30
0
41
1
10
87.9368982290163
20
10.7719074723385
30
0
41
1
10
88.0773162401777
20
10.924702151399
30
0
41
1
10
88.1225147726453
20
10.9777971878101
30
0
41
1
10
88.2087908833195
20
11.0864415573426
30
0
41
1
10
88.2500121127467
20
11.1421348087088
30
0
41
1
10
88.289505897076
20
11.1990524157567
30
0
0
SPLINE
5
168
100
AcDbEntity
8
1
62
256
6
ByLayer
370
18
48
1
60
0
100
AcDbSpline
70
4
71
3
72
18
73
14
40
0
40
0
40
0
40
0
40
0.249999999999997
40
0.249999999999997
40
0.374999999999997
40
0.374999999999997
40
0.499999999999998
40
0.499999999999998
40
0.624999999999998
40
0.624999999999998
40
0.749999999999999
40
0.749999999999999
40
1
40
1
40
1
40
1
41
1
10
115.717682856786
20
1.20460606996525
30
0
41
1
10
115.672386549326
20
1.40061575501056
30
0
41
1
10
115.61693481312
20
1.61986088253502
30
0
41
1
10
115.519116242514
20
1.98222684738695
30
0
41
1
10
115.484160715423
20
2.10819093568006
30
0
41
1
10
115.410775664572
20
2.36635796256201
30
0
41
1
10
115.372201427908
20
2.49909174628749
30
0
41
1
10
115.291396606419
20
2.7716521443337
30
0
41
1
10
115.249162072728
20
2.91148641893062
30
0
41
1
10
115.161042618929
20
3.19823623372864
30
0
41
1
10
115.114950461513
20
3.34579049333408
30
0
41
1
10
114.973406907183
20
3.79196409905847
30
0
41
1
10
114.874319216741
20
4.09544376721709
30
0
41
1
10
114.77058311773
20
4.40485587521738
30
0
0
SPLINE
5
169
100
AcDbEntity
8
1
62
256
6
ByLayer
370
18
48
1
60
0
100
AcDbSpline
70
4
71
3
72
8
73
4
40
0
40
0
40
0
40
0
40
1
40
1
40
1
40
1
41
1
10
100.319022247496
20
-12.9025005098905
30
0
41
1
10
101.242725761316
20
-12.9489429033497
30
0
41
1
10
102.16551808065
20
-12.9735478539333
30
0
41
1
10
103.087182840036
20
-12.976712982428
30
0
0
SPLINE
5
16A
100
AcDbEntity
8
1
62
256
6
ByLayer
370
18
48
1
60
0
100
AcDbSpline
70
4
71
3
72
8
73
4
40
0
40
0
40
0
40
0
40
1
40
1
40
1
40
1
41
1
10
99.5050916632018
20
11.8740795109024
30
0
41
1
10
99.5046847763086
20
12.0924770972775
30
0
41
1
10
99.5042762851081
20
12.3104891886021
30
0
41
1
10
99.5038662301025
20
12.5281101902836
30
0
0
SPLINE
5
16B
100
AcDbEntity
8
1
62
256
6
ByLayer
370
18
48
1
60
0
100
AcDbSpline
70
4
71
3
72
31
73
27
40
0
40
0
40
0
40
0
40
0.01979188030578
40
0.0394604732120221
40
0.0590059266796259
40
0.0784283914843313
40
0.0977280212849798
40
0.116904972693731
40
0.1359594053483
40
0.154891481986292
40
0.173701368521678
40
0.192389234123511
40
0.210955251296924
40
0.229399595966505
40
0.247722447562122
40
0.265923989107267
40
0.399430400129528
40
0.528665392281195
40
0.660027135364285
40
0.78852671074743
40
0.82409177293733
40
0.859525314378761
40
0.89483009874862
40
0.930008920070015
40
0.965064602485167
40
1
40
1
40
1
40
1
41
1
10
108.640784393616
20
-10.51238383023
30
0
41
1
10
108.622763242353
20
-10.4781900844476
30
0
41
1
10
108.586833197017
20
-10.4100155922508
30
0
41
1
10
108.533728696173
20
-10.3052815362249
30
0
41
1
10
108.481418187618
20
-10.1992065633247
30
0
41
1
10
108.429945493883
20
-10.0916450541459
30
0
41
1
10
108.379298982707
20
-9.9827048820361
30
0
41
1
10
108.329481741225
20
-9.87242600917403
30
0
41
1
10
108.280492949375
20
-9.76086577417999
30
0
41
1
10
108.232332825692
20
-9.64807624096488
30
0
41
1
10
108.185001307083
20
-9.53411017572969
30
0
41
1
10
108.138498427336
20
-9.41901950410184
30
0
41
1
10
108.092824112687
20
-9.30285548004747
30
0
41
1
10
108.047978620355
20
-9.18566945387511
30
0
41
1
10
108.003961002094
20
-9.0675095928467
30
0
41
1
10
107.869485826755
20
-8.69672394066282
30
0
41
1
10
107.658792887151
20
-8.04751553701334
30
0
41
1
10
107.394700977404
20
-7.05651123724778
30
0
41
1
10
107.167992436991
20
-6.00706628230918
30
0
41
1
10
107.023526949394
20
-5.16342530963712
30
0
41
1
10
106.93869692814
20
-4.57755849435327
30
0
41
1
10
106.896458268606
20
-4.2617721507404
30
0
41
1
10
106.857333978976
20
-3.94382813149338
30
0
41
1
10
106.821398328796
20
-3.62390686537552
30
0
41
1
10
106.788372417678
20
-3.30246455849965
30
0
41
1
10
106.768953048871
20
-3.08642798191411
30
0
41
1
10
106.759260051286
20
-2.97859533112049
30
0
0
SPLINE
5
16C
100
AcDbEntity
8
1
62
256
6
ByLayer
370
18
48
1
60
0
100
AcDbSpline
70
4
71
3
72
22
73
18
40
0
40
0
40
0
40
0
40
0.249999999999988
40
0.249999999999988
40
0.374999999999982
40
0.374999999999982
40
0.499999999999975
40
0.499999999999975
40
0.562499999999976
40
0.562499999999976
40
0.624999999999977
40
0.624999999999977
40
0.749999999999985
40
0.749999999999985
40
0.874999999999992
40
0.874999999999992
40
1
40
1
40
1
40
1
41
1
10
24.6055701265541
20
-8.71768812709837
30
0
41
1
10
24.335562600004
20
-8.6834468391757
30
0
41
1
10
24.084435768012
20
-8.66934128179983
30
0
41
1
10
23.7350338016682
20
-8.67646650845836
30
0
41
1
10
23.62542703035
20
-8.6835639441835
30
0
41
1
10
23.4214135931077
20
-8.70574522169349
30
0
41
1
10
23.3265280525361
20
-8.72084162734637
30
0
41
1
10
23.1943793633291
20
-8.74878107795979
30
0
41
1
10
23.1520629314964
20
-8.75898398625878
30
0
41
1
10
23.071867814321
20
-8.78074449927254
30
0
41
1
10
23.0338288930195
20
-8.79233363464175
30
0
41
1
10
22.9255828178561
20
-8.82901758475555
30
0
41
1
10
22.8612194905141
20
-8.8560176001352
30
0
41
1
10
22.7472233878003
20
-8.91431235504132
30
0
41
1
10
22.6976434849414
20
-8.94567096463894
30
0
41
1
10
22.6146350689651
20
-9.01069041776137
30
0
41
1
10
22.5808527899295
20
-9.04451340364938
30
0
41
1
10
22.5544191542603
20
-9.07943065336306
30
0
0
SPLINE
5
16D
100
AcDbEntity
8
1
62
256
6
ByLayer
370
18
48
1
60
0
100
AcDbSpline
70
4
71
3
72
12
73
8
40
0
40
0
40
0
40
0
40
0.5
40
0.5
40
0.75
40
0.75
40
1
40
1
40
1
40
1
41
1
10
114.613426609505
20
4.87360423533525
30
0
41
1
10
114.362192663415
20
5.56991630465245
30
0
41
1
10
114.1155460848
20
6.26945916983598
30
0
41
1
10
113.752907998114
20
7.32393710201163
30
0
41
1
10
113.633261734743
20
7.67629819419784
30
0
41
1
10
113.396682601578
20
8.3829313701776
30
0
41
1
10
113.280947772029
20
8.73362668127524
30
0
41
1
10
113.168012106106
20
9.08138935064983
30
0
0
SPLINE
5
16E
100
AcDbEntity
8
1
62
256
6
ByLayer
370
18
48
1
60
0
100
AcDbSpline
70
4
71
3
72
8
73
4
40
0
40
0
40
0
40
0
40
1
40
1
40
1
40
1
41
1
10
106.875999397058
20
-2.96950776757521
30
0
41
1
10
106.837079342299
20
-2.97254231888326
30
0
41
1
10
106.798161230652
20
-2.97551137522697
30
0
41
1
10
106.759245063017
20
-2.97841490744361
30
0
0
SPLINE
5
16F
100
AcDbEntity
8
1
62
256
6
ByLayer
370
18
48
1
60
0
100
AcDbSpline
70
4
71
3
72
8
73
4
40
0
40
0
40
0
40
0
40
1
40
1
40
1
40
1
41
1
10
88.4491614752519
20
11.2409214151703
30
0
41
1
10
88.3961566570631
20
11.2267868844646
30
0
41
1
10
88.3429377705899
20
11.212827464315
30
0
41
1
10
88.289505897076
20
11.1990524157567
30
0
0
SPLINE
5
170
100
AcDbEntity
8
1
62
256
6
ByLayer
370
18
48
1
60
0
100
AcDbSpline
70
4
71
3
72
8
73
4
40
0
40
0
40
0
40
0
40
1
40
1
40
1
40
1
41
1
10
100.651040764008
20
3.02972805128096
30
0
41
1
10
100.668020191598
20
3.02167508181597
30
0
41
1
10
100.685912238225
20
3.01372170057411
30
0
41
1
10
100.704358970515
20
3.00601869013633
30
0
0
SPLINE
5
171
100
AcDbEntity
8
1
62
256
6
ByLayer
370
13
48
1
60
0
100
AcDbSpline
70
4
71
3
72
10
73
6
40
0
40
0
40
0
40
0
40
0.019291496801468
40
0.019291496801468
40
1
40
1
40
1
40
1
41
1
10
112.328161190411
20
4.43382349709151
30
0
41
1
10
112.32816546229
20
4.43380412902715
30
0
41
1
10
112.328169734475
20
4.43378476102538
30
0
41
1
10
112.328391157016
20
4.43278078875323
30
0
41
1
10
112.328607515443
20
4.43179602088031
30
0
41
1
10
112.328823081099
20
4.43081109120408
30
0
0
SPLINE
5
172
100
AcDbEntity
8
1
62
256
6
ByLayer
370
18
48
1
60
0
100
AcDbSpline
70
4
71
3
72
8
73
4
40
0
40
0
40
0
40
0
40
1
40
1
40
1
40
1
41
1
10
84.6857910709731
20
-7.72190583061061
30
0
41
1
10
84.8819492354289
20
-7.76074628473603
30
0
41
1
10
85.0780973827504
20
-7.7994489255133
30
0
41
1
10
85.274234313201
20
-7.83801235670475
30
0
0
SPLINE
5
173
100
AcDbEntity
8
1
62
256
6
ByLayer
370
18
48
1
60
0
100
AcDbSpline
70
4
71
3
72
14
73
10
40
0
40
0
40
0
40
0
40
0.499999999999944
40
0.499999999999944
40
0.624999999999958
40
0.624999999999958
40
0.749999999999972
40
0.749999999999972
40
1
40
1
40
1
40
1
41
1
10
86.7761418123924
20
-10.702320418589
30
0
41
1
10
87.0740266455569
20
-10.7457778200685
30
0
41
1
10
87.351960699365
20
-10.8123887133694
30
0
41
1
10
87.6741013740831
20
-10.9199394949727
30
0
41
1
10
87.7372572354067
20
-10.9427073095565
30
0
41
1
10
87.8587993228359
20
-10.9897806086329
30
0
41
1
10
87.9174789940702
20
-11.0141790322192
30
0
41
1
10
88.0873883554502
20
-11.0896928225022
30
0
41
1
10
88.1925182889644
20
-11.1431177471028
30
0
41
1
10
88.289505897076
20
-11.1990524157567
30
0
0
SPLINE
5
174
100
AcDbEntity
8
1
62
256
6
ByLayer
370
18
48
1
60
0
100
AcDbSpline
70
4
71
3
72
8
73
4
40
0
40
0
40
0
40
0
40
1
40
1
40
1
40
1
41
1
10
89
20
6.70354015207832
30
0
41
1
10
87.3785179729769
20
7.18504245512062
30
0
41
1
10
85.7580864560034
20
7.64333735674521
30
0
41
1
10
84.1367172552734
20
8.07458300727077
30
0
0
SPLINE
5
175
100
AcDbEntity
8
1
62
256
6
ByLayer
370
18
48
1
60
0
100
AcDbSpline
70
4
71
3
72
24
73
20
40
0
40
0
40
0
40
0
40
0.125
40
0.125
40
0.25
40
0.25
40
0.375
40
0.375
40
0.4375
40
0.4375
40
0.5
40
0.5
40
0.75
40
0.75
40
0.8125
40
0.8125
40
0.875
40
0.875
40
1
40
1
40
1
40
1
41
1
10
99.6000000000001
20
9.66464667469319
30
0
41
1
10
99.6000000000001
20
9.33418285353349
30
0
41
1
10
99.6
20
9.00548744473292
30
0
41
1
10
99.6
20
8.36570548316027
30
0
41
1
10
99.5999999999999
20
8.05339660058806
30
0
41
1
10
99.5999999999999
20
7.44369044574717
30
0
41
1
10
99.6
20
7.14629238510804
30
0
41
1
10
99.6
20
6.71172078078681
30
0
41
1
10
99.6
20
6.56866431094798
30
0
41
1
10
99.6
20
6.28906980232532
30
0
41
1
10
99.6
20
6.15219094310504
30
0
41
1
10
99.6
20
5.48271003100731
30
0
41
1
10
99.5999999999999
20
5.00823923420401
30
0
41
1
10
99.5999999999999
20
4.48910546907487
30
0
41
1
10
99.6
20
4.38903151641904
30
0
41
1
10
99.6
20
4.19655195679454
30
0
41
1
10
99.6
20
4.10410228420389
30
0
41
1
10
99.6
20
3.84220250508437
30
0
41
1
10
99.6000000000002
20
3.68673015367531
30
0
41
1
10
99.6000000000001
20
3.54990918735709
30
0
0
SPLINE
5
176
100
AcDbEntity
8
1
62
256
6
ByLayer
370
13
48
1
60
0
100
AcDbSpline
70
4
71
3
72
20
73
16
40
0
40
0
40
0
40
0
40
0.249999999999996
40
0.249999999999996
40
0.499999999999992
40
0.499999999999992
40
0.749999999999988
40
0.749999999999988
40
0.812499999999991
40
0.812499999999991
40
0.874999999999994
40
0.874999999999994
40
0.937499999999997
40
0.937499999999997
40
1
40
1
40
1
40
1
41
1
10
114.58072841375
20
1.29894198197655
30
0
41
1
10
114.332595921968
20
1.47183739522191
30
0
41
1
10
114.092235606951
20
1.66495047281435
30
0
41
1
10
113.638334438437
20
2.0928404575659
30
0
41
1
10
113.424004014915
20
2.32787543877629
30
0
41
1
10
113.028122948148
20
2.85253013949432
30
0
41
1
10
112.851950782339
20
3.13507155699577
30
0
41
1
10
112.666020289968
20
3.52005227378865
30
0
41
1
10
112.630554442302
20
3.59865221025046
30
0
41
1
10
112.56342924046
20
3.7593738089262
30
0
41
1
10
112.53176049632
20
3.84157395715547
30
0
41
1
10
112.473202331391
20
4.00770541695098
30
0
41
1
10
112.446192715755
20
4.09186284235054
30
0
41
1
10
112.397046454258
20
4.26250796463748
30
0
41
1
10
112.374802250195
20
4.34948021917452
30
0
41
1
10
112.355312767761
20
4.43670311286277
30
0
0
SPLINE
5
177
100
AcDbEntity
8
1
62
256
6
ByLayer
370
18
48
1
60
0
100
AcDbSpline
70
4
71
3
72
76
73
72
40
0
40
0
40
0
40
0
40
0.0625000000000048
40
0.0625000000000048
40
0.125000000000009
40
0.125000000000009
40
0.187500000000014
40
0.187500000000014
40
0.218750000000017
40
0.218750000000017
40
0.25000000000002
40
0.25000000000002
40
0.281250000000023
40
0.281250000000023
40
0.312500000000025
40
0.312500000000025
40
0.328125000000027
40
0.328125000000027
40
0.343750000000028
40
0.343750000000028
40
0.37500000000003
40
0.37500000000003
40
0.38281250000003
40
0.38281250000003
40
0.39062500000003
40
0.39062500000003
40
0.40625000000003
40
0.40625000000003
40
0.421875000000029
40
0.421875000000029
40
0.429687500000029
40
0.429687500000029
40
0.437500000000029
40
0.437500000000029
40
0.468750000000028
40
0.468750000000028
40
0.500000000000028
40
0.500000000000028
40
0.515625000000028
40
0.515625000000028
40
0.531250000000027
40
0.531250000000027
40
0.546875000000027
40
0.546875000000027
40
0.562500000000027
40
0.562500000000027
40
0.593750000000026
40
0.593750000000026
40
0.609375000000026
40
0.609375000000026
40
0.625000000000025
40
0.625000000000025
40
0.656250000000023
40
0.656250000000023
40
0.671875000000022
40
0.671875000000022
40
0.687500000000022
40
0.687500000000022
40
0.71875000000002
40
0.71875000000002
40
0.750000000000018
40
0.750000000000018
40
0.812500000000014
40
0.812500000000014
40
0.843750000000012
40
0.843750000000012
40
0.875000000000009
40
0.875000000000009
40
0.937500000000005
40
0.937500000000005
40
1
40
1
40
1
40
1
41
1
10
23.5299842374615
20
6.87971067155152
30
0
41
1
10
22.7675431950201
20
6.94044077407861
30
0
41
1
10
22.0248074118751
20
7.00295231660712
30
0
41
1
10
20.5592621352247
20
7.12557091583778
30
0
41
1
10
19.8364071372241
20
7.1856722303404
30
0
41
1
10
18.395582573377
20
7.28592434578272
30
0
41
1
10
17.67774373483
20
7.32626753428775
30
0
41
1
10
16.5935880150408
20
7.34855721484959
30
0
41
1
10
16.2309770608023
20
7.34949569864705
30
0
41
1
10
15.5015081845333
20
7.33234085977335
30
0
41
1
10
15.1359677590528
20
7.31427197012829
30
0
41
1
10
14.4039975130563
20
7.25167634651953
30
0
41
1
10
14.0374013920038
20
7.20718509845057
30
0
41
1
10
13.3034813385634
20
7.08171621139522
30
0
41
1
10
12.9361356991122
20
7.0008222493841
30
0
41
1
10
12.3858122628653
20
6.84139753681751
30
0
41
1
10
12.2024979286166
20
6.78186895688373
30
0
41
1
10
11.8365202317844
20
6.64752897922011
30
0
41
1
10
11.6541941372066
20
6.57275556959493
30
0
41
1
10
11.1182474915652
20
6.32563406241928
30
0
41
1
10
10.772715350822
20
6.12980645711039
30
0
41
1
10
10.3625656918916
20
5.83433198463121
30
0
41
1
10
10.2815113100015
20
5.77255711136581
30
0
41
1
10
10.1236491791317
20
5.64501332222218
30
0
41
1
10
10.0466276015915
20
5.57910237411434
30
0
41
1
10
9.82155188677029
20
5.37477170003055
30
0
41
1
10
9.67947217028865
20
5.22976899221106
30
0
41
1
10
9.41292788505615
20
4.92095033942394
30
0
41
1
10
9.2884531306683
20
4.75714502184405
30
0
41
1
10
9.11663587965018
20
4.49595307935326
30
0
41
1
10
9.06173650207325
20
4.40604087499861
30
0
41
1
10
8.95896904509081
20
4.22394506131286
30
0
41
1
10
8.91086634723609
20
4.13144019465764
30
0
41
1
10
8.68670319775487
20
3.66172454965613
30
0
41
1
10
8.55915445230366
20
3.26321600463538
30
0
41
1
10
8.41427914946536
20
2.41888546803426
30
0
41
1
10
8.40053386762105
20
1.99436192769591
30
0
41
1
10
8.4592613774231
20
1.35426481026317
30
0
41
1
10
8.49248643563774
20
1.13978869156202
30
0
41
1
10
8.5825296866613
20
0.720431992522549
30
0
41
1
10
8.63939819006242
20
0.514174993927128
30
0
41
1
10
8.77478082457955
20
0.107905684284333
30
0
41
1
10
8.85352188728487
20
-0.0925810876913715
30
0
41
1
10
9.03035406640197
20
-0.485667288023677
30
0
41
1
10
9.12736692096428
20
-0.676037420150379
30
0
41
1
10
9.44064171335947
20
-1.2308950600007
30
0
41
1
10
9.67899527465767
20
-1.57922777871391
30
0
41
1
10
10.0710555254037
20
-2.0753446190806
30
0
41
1
10
10.2080230935483
20
-2.23676255340652
30
0
41
1
10
10.4879125678204
20
-2.54680449390111
30
0
41
1
10
10.631219705271
20
-2.69598667411989
30
0
41
1
10
11.0693309560146
20
-3.12829219258435
30
0
41
1
10
11.372242929268
20
-3.39626080349424
30
0
41
1
10
11.8373048847393
20
-3.77470143886814
30
0
41
1
10
11.9941312465275
20
-3.8969043655425
30
0
41
1
10
12.3106982674151
20
-4.13432208891459
30
0
41
1
10
12.4708193154623
20
-4.24979497466714
30
0
41
1
10
12.951373337309
20
-4.584636123362
30
0
41
1
10
13.2718388673012
20
-4.79254781448304
30
0
41
1
10
13.9109311415794
20
-5.18559553456979
30
0
41
1
10
14.2295761011992
20
-5.37069754731382
30
0
41
1
10
15.1813261110778
20
-5.90011163940022
30
0
41
1
10
15.8101022660824
20
-6.21898939278069
30
0
41
1
10
16.743611628837
20
-6.66747146001106
30
0
41
1
10
17.053493702761
20
-6.8119785878225
30
0
41
1
10
17.668141532266
20
-7.09208090754459
30
0
41
1
10
17.9731174783421
20
-7.22777765477232
30
0
41
1
10
18.8819845866151
20
-7.6247303907131
30
0
41
1
10
19.4798794120492
20
-7.87603995976053
30
0
41
1
10
20.6636969684199
20
-8.36164038933404
30
0
41
1
10
21.249638956968
20
-8.5958690678593
30
0
41
1
10
21.8305235608735
20
-8.82356296618556
30
0
0
SPLINE
5
178
100
AcDbEntity
8
1
62
256
6
ByLayer
370
18
48
1
60
0
100
AcDbSpline
70
4
71
3
72
12
73
8
40
0
40
0
40
0
40
0
40
0.499999999999997
40
0.499999999999997
40
0.749999999999998
40
0.749999999999998
40
1
40
1
40
1
40
1
41
1
10
88.4491614752534
20
11.2409214151687
30
0
41
1
10
90.290104653236
20
11.5588301015102
30
0
41
1
10
92.1301568391318
20
11.8273058735552
30
0
41
1
10
94.8942173883881
20
12.1511781023994
30
0
41
1
10
95.8157518379367
20
12.2459225938405
30
0
41
1
10
97.6579776810779
20
12.4086911296375
30
0
41
1
10
98.5789377155712
20
12.4767625734892
30
0
41
1
10
99.5
20
12.5315173175869
30
0
0
SPLINE
5
179
100
AcDbEntity
8
1
62
256
6
ByLayer
370
18
48
1
60
0
100
AcDbSpline
70
4
71
3
72
12
73
8
40
0
40
0
40
0
40
0
40
0.249999999999999
40
0.249999999999999
40
0.499999999999998
40
0.499999999999998
40
1
40
1
40
1
40
1
41
1
10
89.0000000000001
20
6.70311855814521
30
0
41
1
10
90.3926793408495
20
6.26540862720438
30
0
41
1
10
91.7855237908424
20
5.81143918692374
30
0
41
1
10
94.5736276135999
20
4.8759259106279
30
0
41
1
10
95.9702894723735
20
4.39372663268426
30
0
41
1
10
100.15040717291
20
2.92248140842858
30
0
41
1
10
102.927279467877
20
1.90621639346051
30
0
41
1
10
105.704240921378
20
0.881650090207842
30
0
0
SPLINE
5
17A
100
AcDbEntity
8
1
62
256
6
ByLayer
370
18
48
1
60
0
100
AcDbSpline
70
4
71
3
72
8
73
4
40
0
40
0
40
0
40
0
40
1
40
1
40
1
40
1
41
1
10
113.168012106106
20
-9.08138935064983
30
0
41
1
10
112.819357299043
20
-10.1550017068779
30
0
41
1
10
112.464553678325
20
-11.2354324414292
30
0
41
1
10
112.103343473607
20
-12.3229673941152
30
0
0
SPLINE
5
17B
100
AcDbEntity
8
1
62
256
6
ByLayer
370
18
48
1
60
0
100
AcDbSpline
70
4
71
3
72
10
73
6
40
0
40
0
40
0
40
0
40
0.0656388205087984
40
0.0656388205087984
40
1
40
1
40
1
40
1
41
1
10
79.2354994538647
20
8.65718979404608
30
0
41
1
10
79.4017118064768
20
8.69591196800096
30
0
41
1
10
79.5679257804028
20
8.73436291425847
30
0
41
1
10
82.1002285990176
20
9.31590084086642
30
0
41
1
10
84.4672505806412
20
9.80151026314752
30
0
41
1
10
86.8392982094067
20
10.2234110495726
30
0
0
SPLINE
5
17C
100
AcDbEntity
8
1
62
256
6
ByLayer
370
18
48
1
60
0
100
AcDbSpline
70
4
71
3
72
26
73
22
40
0
40
0
40
0
40
0
40
0.250000000000001
40
0.250000000000001
40
0.312499999999999
40
0.312499999999999
40
0.374999999999996
40
0.374999999999996
40
0.499999999999992
40
0.499999999999992
40
0.562499999999989
40
0.562499999999989
40
0.624999999999987
40
0.624999999999987
40
0.74999999999999
40
0.74999999999999
40
0.812499999999991
40
0.812499999999991
40
0.874999999999992
40
0.874999999999992
40
1
40
1
40
1
40
1
41
1
10
114.453490998059
20
-3.17283446405193
30
0
41
1
10
114.612354504334
20
-2.99839810388119
30
0
41
1
10
114.770132529325
20
-2.79401378168228
30
0
41
1
10
114.965576422905
20
-2.48946153043252
30
0
41
1
10
115.004408842268
20
-2.4262884047034
30
0
41
1
10
115.08045893384
20
-2.29707374201374
30
0
41
1
10
115.117834837677
20
-2.23078894465115
30
0
41
1
10
115.227985805005
20
-2.02682639218239
30
0
41
1
10
115.298789985481
20
-1.88405562269722
30
0
41
1
10
115.400837606452
20
-1.65915298439876
30
0
41
1
10
115.434255793474
20
-1.58212396218656
30
0
41
1
10
115.498349441159
20
-1.42760064606051
30
0
41
1
10
115.529189871226
20
-1.34976528207571
30
0
41
1
10
115.618263758509
20
-1.11461976234151
30
0
41
1
10
115.673059535807
20
-0.955674802628749
30
0
41
1
10
115.748852348879
20
-0.714213409027451
30
0
41
1
10
115.773027352374
20
-0.633246005022727
30
0
41
1
10
115.818672354631
20
-0.472661156551396
30
0
41
1
10
115.840239973136
20
-0.392740624045047
30
0
41
1
10
115.901465125405
20
-0.154009664012392
30
0
41
1
10
115.937658062828
20
0.0037740103340411
30
0
41
1
10
115.969790840039
20
0.160354432700558
30
0
0
SPLINE
5
17D
100
AcDbEntity
8
1
62
256
6
ByLayer
370
18
48
1
60
0
100
AcDbSpline
70
4
71
3
72
8
73
4
40
0
40
0
40
0
40
0
40
1
40
1
40
1
40
1
41
1
10
113.168012106106
20
9.08138935064983
30
0
41
1
10
112.819357299043
20
10.1550017068779
30
0
41
1
10
112.464553678325
20
11.2354324414292
30
0
41
1
10
112.103343473607
20
12.3229673941152
30
0
0
SPLINE
5
17E
100
AcDbEntity
8
1
62
256
6
ByLayer
370
18
48
1
60
0
100
AcDbSpline
70
2053
71
3
72
39
73
35
40
0
40
0
40
0
40
0
40
0.0303398922860199
40
0.0624408369054302
40
0.0936431758886053
40
0.124892903833691
40
0.156205585077769
40
0.187374771925167
40
0.219464810563744
40
0.249877509429199
40
0.280288603486078
40
0.312405457809475
40
0.343571933131554
40
0.374905709808254
40
0.406072229562629
40
0.437386710013852
40
0.469512930904259
40
0.499829747759711
40
0.530244654978268
40
0.56250003121996
40
0.593712167954204
40
0.625031860719975
40
0.656198511496802
40
0.687531961429879
40
0.719613446019694
40
0.749977269245167
40
0.780321865722289
40
0.812410084142174
40
0.843741754162427
40
0.874904890621543
40
0.906216000588654
40
0.937483510960614
40
0.969664493113363
40
1
40
1
40
1
40
1
41
1
10
94.08
20
-7.01354274882431
30
0
41
1
10
93.9187870688469
20
-7.01354555775889
30
0
41
1
10
93.5870033500396
20
-7.04110291592124
30
0
41
1
10
93.1087374996828
20
-7.16361031026543
30
0
41
1
10
92.6654361573121
20
-7.36303199960315
30
0
41
1
10
92.2805564239665
20
-7.62280092788092
30
0
41
1
10
91.9645503848569
20
-7.93069618769337
30
0
41
1
10
91.7268628918799
20
-8.2744060641283
30
0
41
1
10
91.5823094628521
20
-8.63137229917626
30
0
41
1
10
91.5344669419414
20
-8.98563475595171
30
0
41
1
10
91.581555277262
20
-9.3248984561055
30
0
41
1
10
91.7254438535227
20
-9.63989185073356
30
0
41
1
10
91.9626298622591
20
-9.91895752406086
30
0
41
1
10
92.2779131501034
20
-10.1510353383688
30
0
41
1
10
92.6624954512901
20
-10.3349926044648
30
0
41
1
10
93.1057252770399
20
-10.4690541539268
30
0
41
1
10
93.5844289018111
20
-10.5490459021495
30
0
41
1
10
94.0777786292954
20
-10.5747708178062
30
0
41
1
10
94.5719297022365
20
-10.5494894435708
30
0
41
1
10
95.0514695458464
20
-10.4697144064727
30
0
41
1
10
95.4957680418074
20
-10.3356738975579
30
0
41
1
10
95.8801838023249
20
-10.1521579028062
30
0
41
1
10
96.1963037252302
20
-9.91993448858074
30
0
41
1
10
96.4338297384184
20
-9.64115813824637
30
0
41
1
10
96.578083950801
20
-9.32594811755206
30
0
41
1
10
96.6254746807714
20
-8.98735385475598
30
0
41
1
10
96.5782524990851
20
-8.63356872838136
30
0
41
1
10
96.4342046462427
20
-8.27621785740271
30
0
41
1
10
96.1968385058226
20
-7.93232153911626
30
0
41
1
10
95.8809132938464
20
-7.62404746559875
30
0
41
1
10
95.4964579521675
20
-7.36402297741373
30
0
41
1
10
95.0523432352697
20
-7.16392432966137
30
0
41
1
10
94.5733745421079
20
-7.04111512340529
30
0
41
1
10
94.2411896290569
20
-7.01353994029574
30
0
41
1
10
94.08
20
-7.01354274882431
30
0
0
SPLINE
5
17F
100
AcDbEntity
8
1
62
256
6
ByLayer
370
13
48
1
60
0
100
AcDbSpline
70
4
71
3
72
8
73
4
40
0
40
0
40
0
40
0
40
1
40
1
40
1
40
1
41
1
10
114.453490998059
20
-3.17283446405187
30
0
41
1
10
113.940184803611
20
-2.81406415982627
30
0
41
1
10
113.426878609164
20
-2.45529385560064
30
0
41
1
10
112.913572414716
20
-2.09652355137504
30
0
0
SPLINE
5
180
100
AcDbEntity
8
1
62
256
6
ByLayer
370
18
48
1
60
0
100
AcDbSpline
70
4
71
3
72
8
73
4
40
0
40
0
40
0
40
0
40
1
40
1
40
1
40
1
41
1
10
100.651040764009
20
-11.9622107238819
30
0
41
1
10
100.668078594369
20
-11.9558924511351
30
0
41
1
10
100.685847292159
20
-11.9497980825075
30
0
41
1
10
100.704358970512
20
-11.9439406421206
30
0
0
SPLINE
5
181
100
AcDbEntity
8
1
62
256
6
ByLayer
370
18
48
1
60
0
100
AcDbSpline
70
4
71
3
72
8
73
4
40
0
40
0
40
0
40
0
40
1
40
1
40
1
40
1
41
1
10
86.9971884444905
20
10.2513992026385
30
0
41
1
10
86.9444153473855
20
10.2384803994114
30
0
41
1
10
86.8917824712267
20
10.2292050346301
30
0
41
1
10
86.8392982094062
20
10.2234110495725
30
0
0
SPLINE
5
182
100
AcDbEntity
8
1
62
256
6
ByLayer
370
18
48
1
60
0
100
AcDbSpline
70
4
71
3
72
8
73
4
40
0
40
0
40
0
40
0
40
1
40
1
40
1
40
1
41
1
10
112.315346368798
20
4.49191963452378
30
0
41
1
10
112.282534926436
20
4.46365639502739
30
0
41
1
10
112.249910273337
20
4.4352280640089
30
0
41
1
10
112.217465359701
20
4.40666563705238
30
0
0
SPLINE
5
183
100
AcDbEntity
8
1
62
256
6
ByLayer
370
18
48
1
60
0
100
AcDbSpline
70
4
71
1
72
4
73
2
40
0
40
0
40
1
40
1
41
1
10
108.777955968627
20
-10.4520766625546
30
0
41
1
10
108.640784633686
20
-10.5123818901867
30
0
0
SPLINE
5
184
100
AcDbEntity
8
1
62
256
6
ByLayer
370
18
48
1
60
0
100
AcDbSpline
70
4
71
3
72
8
73
4
40
0
40
0
40
0
40
0
40
1
40
1
40
1
40
1
41
1
10
24.6055701159519
20
-8.71768812575382
30
0
41
1
10
24.6982746131468
20
-8.73278553220757
30
0
41
1
10
24.7904933920273
20
-8.7522790195398
30
0
41
1
10
24.8822240238156
20
-8.77590025520448
30
0
0
SPLINE
5
185
100
AcDbEntity
8
SK1
62
256
6
ByLayer
370
18
48
1
60
0
100
AcDbSpline
70
4
71
3
72
70
73
66
40
0
40
0
40
0
40
0
40
0.0312500000000009
40
0.0312500000000009
40
0.0468750000000009
40
0.0468750000000009
40
0.0625000000000008
40
0.0625000000000008
40
0.0781250000000008
40
0.0781250000000008
40
0.0937500000000008
40
0.0937500000000008
40
0.125000000000001
40
0.125000000000001
40
0.156250000000001
40
0.156250000000001
40
0.1875
40
0.1875
40
0.21875
40
0.21875
40
0.25
40
0.25
40
0.3125
40
0.3125
40
0.34375
40
0.34375
40
0.375
40
0.375
40
0.4375
40
0.4375
40
0.5
40
0.5
40
0.5625
40
0.5625
40
0.59375
40
0.59375
40
0.625
40
0.625
40
0.687499999999999
40
0.687499999999999
40
0.749999999999999
40
0.749999999999999
40
0.781249999999999
40
0.781249999999999
40
0.812499999999999
40
0.812499999999999
40
0.843749999999999
40
0.843749999999999
40
0.859374999999999
40
0.859374999999999
40
0.874999999999999
40
0.874999999999999
40
0.90625
40
0.90625
40
0.921875
40
0.921875
40
0.9375
40
0.9375
40
0.953125
40
0.953125
40
0.96875
40
0.96875
40
0.984375
40
0.984375
40
1
40
1
40
1
40
1
41
1
10
-6.5
20
-8.08217792429738
30
0
41
1
10
-6.28762555995462
20
-8.08217792429738
30
0
41
1
10
-6.08104986911269
20
-8.05368849473035
30
0
41
1
10
-5.77910858566645
20
-7.97161548876423
30
0
41
1
10
-5.68022589061653
20
-7.93763423525914
30
0
41
1
10
-5.49054490854957
20
-7.85917405972873
30
0
41
1
10
-5.39899523500898
20
-7.81450307998708
30
0
41
1
10
-5.2218564656466
20
-7.71512651881918
30
0
41
1
10
-5.13594421810529
20
-7.66012522444171
30
0
41
1
10
-4.9730710583807
20
-7.54325327411436
30
0
41
1
10
-4.89566707429051
20
-7.48118572785879
30
0
41
1
10
-4.6739132088681
20
-7.28529466076768
30
0
41
1
10
-4.53991230602642
20
-7.14180694426813
30
0
41
1
10
-4.29416855767025
20
-6.83312930612388
30
0
41
1
10
-4.18521185387124
20
-6.6715007799863
30
0
41
1
10
-3.98806828865869
20
-6.33636750757177
30
0
41
1
10
-3.89994716555162
20
-6.16283546371301
30
0
41
1
10
-3.74020554839618
20
-5.80545940076314
30
0
41
1
10
-3.66838920508039
20
-5.62093024300796
30
0
41
1
10
-3.53937133315313
20
-5.24594125113808
30
0
41
1
10
-3.48231441550428
20
-5.05612691162614
30
0
41
1
10
-3.32871181677945
20
-4.48051810886963
30
0
41
1
10
-3.24948709448094
20
-4.08860232749163
30
0
41
1
10
-3.15366535436107
20
-3.49035454453516
30
0
41
1
10
-3.12563763183789
20
-3.28919601457946
30
0
41
1
10
-3.07615885164302
20
-2.8835794753536
30
0
41
1
10
-3.05468247616591
20
-2.6788066175184
30
0
41
1
10
-2.99892560884547
20
-2.06183265419932
30
0
41
1
10
-2.97341374459449
20
-1.65021464829943
30
0
41
1
10
-2.9399088448763
20
-0.826427708852918
30
0
41
1
10
-2.93195209632361
20
-0.414258490969502
30
0
41
1
10
-2.93190451240991
20
0.410616418566406
30
0
41
1
10
-2.9398119090001
20
0.823322087871986
30
0
41
1
10
-2.96496313204875
20
1.44279742981084
30
0
41
1
10
-2.97558958394541
20
1.64935895031218
30
0
41
1
10
-3.00193375507485
20
2.06262743969191
30
0
41
1
10
-3.01768796297787
20
2.26962385434214
30
0
41
1
10
-3.07336906956124
20
2.88522451010573
30
0
41
1
10
-3.12161720280068
20
3.29012272731185
30
0
41
1
10
-3.24933181748244
20
4.08777686756457
30
0
41
1
10
-3.32863739699849
20
4.48055429019126
30
0
41
1
10
-3.4831003209884
20
5.05891332672573
30
0
41
1
10
-3.54076942872436
20
5.25033331669707
30
0
41
1
10
-3.6696594231249
20
5.62428672514505
30
0
41
1
10
-3.74096306692999
20
5.80730424563461
30
0
41
1
10
-3.90070915193934
20
6.16438864035223
30
0
41
1
10
-3.98911623857577
20
6.33846735616979
30
0
41
1
10
-4.138362342958
20
6.59169519349339
30
0
41
1
10
-4.19087366086717
20
6.67469064307952
30
0
41
1
10
-4.30098015289809
20
6.83590272214585
30
0
41
1
10
-4.35870319203542
20
6.91434756669076
30
0
41
1
10
-4.54085622294414
20
7.14267001525303
30
0
41
1
10
-4.67411746978664
20
7.28563237868227
30
0
41
1
10
-4.89762414313628
20
7.48283481508952
30
0
41
1
10
-4.97599664741571
20
7.54549364627977
30
0
41
1
10
-5.13838907908934
20
7.66173374977816
30
0
41
1
10
-5.22276337997238
20
7.71564866991193
30
0
41
1
10
-5.39862205954023
20
7.81428032092916
30
0
41
1
10
-5.49010121423032
20
7.85900465123581
30
0
41
1
10
-5.68125471270633
20
7.93804563435424
30
0
41
1
10
-5.77882786643025
20
7.97148061306467
30
0
41
1
10
-5.97815227640163
20
8.02577693282768
30
0
41
1
10
-6.07990178078995
20
8.04664365567402
30
0
41
1
10
-6.2879131648474
20
8.07490697119016
30
0
41
1
10
-6.39402083858312
20
8.08217792429738
30
0
41
1
10
-6.5
20
8.08217792429738
30
0
0
SPLINE
5
186
100
AcDbEntity
8
SK1
62
256
6
ByLayer
370
18
48
1
60
0
100
AcDbSpline
70
4
71
3
72
70
73
66
40
0
40
0
40
0
40
0
40
0.03125
40
0.03125
40
0.0468749999999999
40
0.0468749999999999
40
0.0624999999999999
40
0.0624999999999999
40
0.0781249999999998
40
0.0781249999999998
40
0.0937499999999998
40
0.0937499999999998
40
0.125
40
0.125
40
0.15625
40
0.15625
40
0.1875
40
0.1875
40
0.218749999999999
40
0.218749999999999
40
0.249999999999999
40
0.249999999999999
40
0.312499999999999
40
0.312499999999999
40
0.343749999999999
40
0.343749999999999
40
0.374999999999999
40
0.374999999999999
40
0.437499999999999
40
0.437499999999999
40
0.499999999999999
40
0.499999999999999
40
0.562499999999999
40
0.562499999999999
40
0.593749999999999
40
0.593749999999999
40
0.624999999999999
40
0.624999999999999
40
0.687499999999999
40
0.687499999999999
40
0.749999999999999
40
0.749999999999999
40
0.781249999999999
40
0.781249999999999
40
0.812499999999999
40
0.812499999999999
40
0.843749999999999
40
0.843749999999999
40
0.859374999999999
40
0.859374999999999
40
0.874999999999999
40
0.874999999999999
40
0.906249999999999
40
0.906249999999999
40
0.921875
40
0.921875
40
0.9375
40
0.9375
40
0.953125
40
0.953125
40
0.96875
40
0.96875
40
0.984375
40
0.984375
40
1
40
1
40
1
40
1
41
1
10
-53.5
20
8.08217792429738
30
0
41
1
10
-53.7123744400454
20
8.08217792429738
30
0
41
1
10
-53.9189501308873
20
8.05368849473035
30
0
41
1
10
-54.2208914143335
20
7.9716154887642
30
0
41
1
10
-54.3197741093835
20
7.93763423525914
30
0
41
1
10
-54.5094550914504
20
7.85917405972873
30
0
41
1
10
-54.601004764991
20
7.81450307998708
30
0
41
1
10
-54.7781435343534
20
7.71512651881918
30
0
41
1
10
-54.8640557818947
20
7.66012522444171
30
0
41
1
10
-55.0269289416193
20
7.54325327411436
30
0
41
1
10
-55.1043329257095
20
7.48118572785879
30
0
41
1
10
-55.3260867911319
20
7.28529466076768
30
0
41
1
10
-55.4600876939735
20
7.14180694426813
30
0
41
1
10
-55.7058314423297
20
6.83312930612388
30
0
41
1
10
-55.8147881461287
20
6.6715007799863
30
0
41
1
10
-56.0119317113413
20
6.33636750757177
30
0
41
1
10
-56.1000528344483
20
6.16283546371301
30
0
41
1
10
-56.2597944516038
20
5.80545940076314
30
0
41
1
10
-56.3316107949196
20
5.62093024300796
30
0
41
1
10
-56.4606286668468
20
5.24594125113808
30
0
41
1
10
-56.5176855844957
20
5.05612691162611
30
0
41
1
10
-56.6712881832205
20
4.48051810886963
30
0
41
1
10
-56.750512905519
20
4.08860232749163
30
0
41
1
10
-56.8463346456389
20
3.49035454453516
30
0
41
1
10
-56.8743623681621
20
3.28919601457946
30
0
41
1
10
-56.923841148357
20
2.8835794753536
30
0
41
1
10
-56.945317523834
20
2.6788066175184
30
0
41
1
10
-57.0010743911545
20
2.06183265419932
30
0
41
1
10
-57.0265862554054
20
1.65021464829943
30
0
41
1
10
-57.0600911551237
20
0.826427708852918
30
0
41
1
10
-57.0680479036763
20
0.414258490969502
30
0
41
1
10
-57.0680954875901
20
-0.410616418566406
30
0
41
1
10
-57.0601880909999
20
-0.823322087871986
30
0
41
1
10
-57.0350368679512
20
-1.44279742981084
30
0
41
1
10
-57.0244104160545
20
-1.64935895031215
30
0
41
1
10
-56.9980662449251
20
-2.06262743969191
30
0
41
1
10
-56.9823120370221
20
-2.26962385434214
30
0
41
1
10
-56.9266309304387
20
-2.88522451010573
30
0
41
1
10
-56.8783827971993
20
-3.29012272731185
30
0
41
1
10
-56.7506681825175
20
-4.08777686756457
30
0
41
1
10
-56.6713626030015
20
-4.48055429019126
30
0
41
1
10
-56.5168996790116
20
-5.05891332672573
30
0
41
1
10
-56.4592305712756
20
-5.25033331669707
30
0
41
1
10
-56.3303405768751
20
-5.62428672514505
30
0
41
1
10
-56.25903693307
20
-5.80730424563461
30
0
41
1
10
-56.0992908480606
20
-6.16438864035223
30
0
41
1
10
-56.0108837614242
20
-6.33846735616979
30
0
41
1
10
-55.861637657042
20
-6.59169519349339
30
0
41
1
10
-55.8091263391328
20
-6.67469064307952
30
0
41
1
10
-55.6990198471019
20
-6.83590272214585
30
0
41
1
10
-55.6412968079646
20
-6.91434756669076
30
0
41
1
10
-55.4591437770558
20
-7.14267001525306
30
0
41
1
10
-55.3258825302133
20
-7.28563237868227
30
0
41
1
10
-55.1023758568637
20
-7.48283481508952
30
0
41
1
10
-55.0240033525843
20
-7.54549364627977
30
0
41
1
10
-54.8616109209106
20
-7.66173374977816
30
0
41
1
10
-54.7772366200276
20
-7.71564866991193
30
0
41
1
10
-54.6013779404598
20
-7.81428032092916
30
0
41
1
10
-54.5098987857696
20
-7.85900465123581
30
0
41
1
10
-54.3187452872937
20
-7.93804563435424
30
0
41
1
10
-54.2211721335697
20
-7.97148061306467
30
0
41
1
10
-54.0218477235983
20
-8.02577693282768
30
0
41
1
10
-53.92009821921
20
-8.04664365567402
30
0
41
1
10
-53.7120868351526
20
-8.07490697119016
30
0
41
1
10
-53.6059791614168
20
-8.08217792429738
30
0
41
1
10
-53.5
20
-8.08217792429738
30
0
0
LINE
5
70
100
AcDbEntity
8
81
62
256
6
ByLayer
370
18
48
1
60
0
100
AcDbLine
10
99.6
20
0
30
0
11
104.6
21
0
31
0
39
0
210
0
220
0
230
1
0
LINE
5
71
100
AcDbEntity
8
1
62
256
6
ByLayer
370
18
48
1
60
0
100
AcDbLine
10
7.9071
20
20
30
0
11
0.2
21
20
31
0
39
0
210
0
220
0
230
1
0
LINE
5
73
100
AcDbEntity
8
1
62
256
6
ByLayer
370
18
48
1
60
0
100
AcDbLine
10
0.2
20
-20
30
0
11
7.9071
21
-20
31
0
39
0
210
0
220
0
230
1
0
LINE
5
74
100
AcDbEntity
8
1
62
256
6
ByLayer
370
18
48
1
60
0
100
AcDbLine
10
0.2
20
20
30
0
11
0
21
19.8
31
0
39
0
210
0
220
0
230
1
0
LINE
5
75
100
AcDbEntity
8
1
62
256
6
ByLayer
370
18
48
1
60
0
100
AcDbLine
10
0
20
-19.8
30
0
11
0.2
21
-20
31
0
39
0
210
0
220
0
230
1
0
LINE
5
76
100
AcDbEntity
8
SK1
62
256
6
ByLayer
370
18
48
1
60
0
100
AcDbLine
10
-1.6
20
-15.996
30
0
11
-1.144243
21
-15.783477
31
0
39
0
210
0
220
0
230
1
0
LINE
5
78
100
AcDbEntity
8
SK1
62
256
6
ByLayer
370
18
48
1
60
0
100
AcDbLine
10
-1.144243
20
15.783477
30
0
11
-1.6
21
15.996
31
0
39
0
210
0
220
0
230
1
0
LINE
5
79
100
AcDbEntity
8
SK1
62
256
6
ByLayer
370
18
48
1
60
0
100
AcDbLine
10
-58.6
20
15.996
30
0
11
-59
21
15.996
31
0
39
0
210
0
220
0
230
1
0
LINE
5
7A
100
AcDbEntity
8
SK1
62
256
6
ByLayer
370
18
48
1
60
0
100
AcDbLine
10
-59
20
-15.996
30
0
11
-58.6
21
-15.996
31
0
39
0
210
0
220
0
230
1
0
LINE
5
7B
100
AcDbEntity
8
SK1
62
256
6
ByLayer
370
18
48
1
60
0
100
AcDbLine
10
-59
20
15.996
30
0
11
-60
21
14.996
31
0
39
0
210
0
220
0
230
1
0
LINE
5
7C
100
AcDbEntity
8
SK1
62
256
6
ByLayer
370
18
48
1
60
0
100
AcDbLine
10
-60
20
-14.996
30
0
11
-59
21
-15.996
31
0
39
0
210
0
220
0
230
1
0
LINE
5
7D
100
AcDbEntity
8
SK1
62
256
6
ByLayer
370
18
48
1
60
0
100
AcDbLine
10
-58.6
20
-15.996
30
0
11
-58.449692
21
-15.874283
31
0
39
0
210
0
220
0
230
1
0
LINE
5
7E
100
AcDbEntity
8
SK1
62
256
6
ByLayer
370
18
48
1
60
0
100
AcDbLine
10
-58.449692
20
15.874283
30
0
11
-58.6
21
15.996
31
0
39
0
210
0
220
0
230
1
0
LINE
5
7F
100
AcDbEntity
8
SK1
62
256
6
ByLayer
370
18
48
1
60
0
100
AcDbLine
10
-57.3
20
15.996
30
0
11
-57.426311
21
15.887988
31
0
39
0
210
0
220
0
230
1
0
LINE
5
80
100
AcDbEntity
8
SK1
62
256
6
ByLayer
370
18
48
1
60
0
100
AcDbLine
10
-57.426311
20
-15.887988
30
0
11
-57.3
21
-15.996
31
0
39
0
210
0
220
0
230
1
0
LINE
5
81
100
AcDbEntity
8
SK1
62
256
6
ByLayer
370
18
48
1
60
0
100
AcDbLine
10
-0.975195
20
-15.746
30
0
11
-0.15
21
-15.746
31
0
39
0
210
0
220
0
230
1
0
LINE
5
82
100
AcDbEntity
8
SK1
62
256
6
ByLayer
370
18
48
1
60
0
100
AcDbLine
10
-0.15
20
15.746
30
0
11
-0.975195
21
15.746
31
0
39
0
210
0
220
0
230
1
0
LINE
5
83
100
AcDbEntity
8
1
62
256
6
ByLayer
370
18
48
1
60
0
100
AcDbLine
10
23.620624
20
13.248806
30
0
11
23.529984
21
13.291048
31
0
39
0
210
0
220
0
230
1
0
LINE
5
84
100
AcDbEntity
8
1
62
256
6
ByLayer
370
18
48
1
60
0
100
AcDbLine
10
29.6
20
12.7
30
0
11
27
21
12.5
31
0
39
0
210
0
220
0
230
1
0
LINE
5
85
100
AcDbEntity
8
1
62
256
6
ByLayer
370
18
48
1
60
0
100
AcDbLine
10
23.529984
20
-13.291048
30
0
11
23.620624
21
-13.248806
31
0
39
0
210
0
220
0
230
1
0
LINE
5
86
100
AcDbEntity
8
1
62
256
6
ByLayer
370
18
48
1
60
0
100
AcDbLine
10
27
20
-12.5
30
0
11
29.6
21
-12.7
31
0
39
0
210
0
220
0
230
1
0
LINE
5
87
100
AcDbEntity
8
1
62
256
6
ByLayer
370
18
48
1
60
0
100
AcDbLine
10
105.617626
20
-12.75825
30
0
11
111.522919
21
-12.75825
31
0
39
0
210
0
220
0
230
1
0
LINE
5
88
100
AcDbEntity
8
1
62
256
6
ByLayer
370
18
48
1
60
0
100
AcDbLine
10
105.579999
20
12.985437
30
0
11
103.08403
21
12.976701
31
0
39
0
210
0
220
0
230
1
0
LINE
5
89
100
AcDbEntity
8
1
62
256
6
ByLayer
370
18
48
1
60
0
100
AcDbLine
10
111.522919
20
12.75825
30
0
11
110.774976
21
12.75825
31
0
39
0
210
0
220
0
230
1
0
LINE
5
8A
100
AcDbEntity
8
1
62
256
6
ByLayer
370
18
48
1
60
0
100
AcDbLine
10
103.08403
20
-12.976701
30
0
11
105.579999
21
-12.985437
31
0
39
0
210
0
220
0
230
1
0
LINE
5
8B
100
AcDbEntity
8
SK1
62
256
6
ByLayer
370
18
48
1
60
0
100
AcDbLine
10
-1.6
20
15.996
30
0
11
-57.3
21
15.996
31
0
39
0
210
0
220
0
230
1
0
LINE
5
8C
100
AcDbEntity
8
SK1
62
256
6
ByLayer
370
18
48
1
60
0
100
AcDbLine
10
-57.3
20
-15.996
30
0
11
-1.6
21
-15.996
31
0
39
0
210
0
220
0
230
1
0
LINE
5
8D
100
AcDbEntity
8
1
62
256
6
ByLayer
370
18
48
1
60
0
100
AcDbLine
10
32.9
20
12.7
30
0
11
29.6
21
12.7
31
0
39
0
210
0
220
0
230
1
0
LINE
5
8E
100
AcDbEntity
8
1
62
256
6
ByLayer
370
18
48
1
60
0
100
AcDbLine
10
29.6
20
-12.7
30
0
11
32.9
21
-12.7
31
0
39
0
210
0
220
0
230
1
0
LINE
5
8F
100
AcDbEntity
8
80
62
256
6
ByLayer
370
18
48
1
60
0
100
AcDbLine
10
0
20
0
30
0
11
-5
21
0
31
0
39
0
210
0
220
0
230
1
0
LINE
5
90
100
AcDbEntity
8
4
62
256
6
ByLayer
370
18
48
0.05
60
0
100
AcDbLine
10
99.6
20
0
30
0
11
0
21
0
31
0
39
0
210
0
220
0
230
1
0
LINE
5
92
100
AcDbEntity
8
SK4
62
256
6
ByLayer
370
18
48
0.05
60
0
100
AcDbLine
10
121
20
0
30
0
11
-65
21
0
31
0
39
0
210
0
220
0
230
1
0
LINE
5
94
100
AcDbEntity
8
1
62
256
6
ByLayer
370
18
48
1
60
0
100
AcDbLine
10
100.319022
20
-12.902501
30
0
11
100.319022
21
-12.733087
31
0
39
0
210
0
220
0
230
1
0
LINE
5
95
100
AcDbEntity
8
1
62
256
6
ByLayer
370
13
48
1
60
0
100
AcDbLine
10
99.745422
20
-12.323523
30
0
11
99.6
21
-12.272398
31
0
39
0
210
0
220
0
230
1
0
LINE
5
96
100
AcDbEntity
8
1
62
256
6
ByLayer
370
18
48
1
60
0
100
AcDbLine
10
114.770583
20
-4.404856
30
0
11
114.613427
21
-4.873604
31
0
39
0
210
0
220
0
230
1
0
LINE
5
97
100
AcDbEntity
8
1
62
256
6
ByLayer
370
18
48
1
60
0
100
AcDbLine
10
106.875714
20
-2.9
30
0
11
107.064079
21
-2.9
31
0
39
0
210
0
220
0
230
1
0
LINE
5
98
100
AcDbEntity
8
1
62
256
6
ByLayer
370
18
48
1
60
0
100
AcDbLine
10
115.969791
20
0.160354
30
0
11
116.005308
21
0.000285
31
0
39
0
210
0
220
0
230
1
0
LINE
5
99
100
AcDbEntity
8
1
62
256
6
ByLayer
370
18
48
1
60
0
100
AcDbLine
10
107.897269
20
-2.9
30
0
11
109.665684
21
-2.9
31
0
39
0
210
0
220
0
230
1
0
LINE
5
9A
100
AcDbEntity
8
1
62
256
6
ByLayer
370
18
48
1
60
0
100
AcDbLine
10
99.6
20
-12.102685
30
0
11
99.6
21
-12.136794
31
0
39
0
210
0
220
0
230
1
0
LINE
5
9B
100
AcDbEntity
8
1
62
256
6
ByLayer
370
18
48
1
60
0
100
AcDbLine
10
99.6
20
-12.246576
30
0
11
99.6
21
-12.136794
31
0
39
0
210
0
220
0
230
1
0
LINE
5
9C
100
AcDbEntity
8
1
62
256
6
ByLayer
370
18
48
1
60
0
100
AcDbLine
10
89
20
-5.652546
30
0
11
89
21
6.703119
31
0
39
0
210
0
220
0
230
1
0
LINE
5
9D
100
AcDbEntity
8
1
62
256
6
ByLayer
370
18
48
1
60
0
100
AcDbLine
10
115.910654
20
-0.369567
30
0
11
115.717683
21
-1.204606
31
0
39
0
210
0
220
0
230
1
0
LINE
5
9E
100
AcDbEntity
8
1
62
256
6
ByLayer
370
18
48
1
60
0
100
AcDbLine
10
110.015432
20
-11.943941
30
0
11
112.245342
21
-5.597441
31
0
39
0
210
0
220
0
230
1
0
LINE
5
9F
100
AcDbEntity
8
1
62
256
6
ByLayer
370
13
48
1
60
0
100
AcDbLine
10
23.529984
20
13.291048
30
0
11
23.529984
21
6.879711
31
0
39
0
210
0
220
0
230
1
0
LINE
5
A0
100
AcDbEntity
8
1
62
256
6
ByLayer
370
18
48
1
60
0
100
AcDbLine
10
109.662286
20
-11.346431
30
0
11
109.665798
21
-11.339928
31
0
39
0
210
0
220
0
230
1
0
LINE
5
A1
100
AcDbEntity
8
1
62
256
6
ByLayer
370
18
48
1
60
0
100
AcDbLine
10
99.6
20
3.35
30
0
11
99.6
21
3.549909
31
0
39
0
210
0
220
0
230
1
0
LINE
5
A2
100
AcDbEntity
8
1
62
256
6
ByLayer
370
18
48
1
60
0
100
AcDbLine
10
32.9
20
12.7
30
0
11
32.9
21
10.256999
31
0
39
0
210
0
220
0
230
1
0
LINE
5
A3
100
AcDbEntity
8
1
62
256
6
ByLayer
370
18
48
1
60
0
100
AcDbLine
10
99.6
20
-12.605227
30
0
11
99.6
21
-12.272398
31
0
39
0
210
0
220
0
230
1
0
LINE
5
A4
100
AcDbEntity
8
1
62
256
6
ByLayer
370
18
48
1
60
0
100
AcDbLine
10
109.665684
20
-2.9
30
0
11
108.485457
21
1.903822
31
0
39
0
210
0
220
0
230
1
0
LINE
5
A5
100
AcDbEntity
8
1
62
256
6
ByLayer
370
18
48
1
60
0
100
AcDbLine
10
111.612185
20
-12.756327
30
0
11
116.005308
21
0.000285
31
0
39
0
210
0
220
0
230
1
0
LINE
5
A6
100
AcDbEntity
8
1
62
256
6
ByLayer
370
13
48
1
60
0
100
AcDbLine
10
23.620624
20
-13.248806
30
0
11
23.620624
21
-10.026203
31
0
39
0
210
0
220
0
230
1
0
LINE
5
A7
100
AcDbEntity
8
1
62
256
6
ByLayer
370
13
48
1
60
0
100
AcDbLine
10
112.354642
20
4.439756
30
0
11
112.340632
21
4.503272
31
0
39
0
210
0
220
0
230
1
0
LINE
5
A8
100
AcDbEntity
8
1
62
256
6
ByLayer
370
18
48
1
60
0
100
AcDbLine
10
27
20
6.781283
30
0
11
27
21
12.5
31
0
39
0
210
0
220
0
230
1
0
LINE
5
A9
100
AcDbEntity
8
1
62
256
6
ByLayer
370
18
48
1
60
0
100
AcDbLine
10
114.770583
20
4.404856
30
0
11
114.613427
21
4.873604
31
0
39
0
210
0
220
0
230
1
0
LINE
5
AA
100
AcDbEntity
8
1
62
256
6
ByLayer
370
18
48
1
60
0
100
AcDbLine
10
115.910654
20
0.369567
30
0
11
115.717683
21
1.204606
31
0
39
0
210
0
220
0
230
1
0
LINE
5
AB
100
AcDbEntity
8
1
62
256
6
ByLayer
370
18
48
1
60
0
100
AcDbLine
10
116.005308
20
-0.000285
30
0
11
116.005308
21
0.000285
31
0
39
0
210
0
220
0
230
1
0
LINE
5
AC
100
AcDbEntity
8
1
62
256
6
ByLayer
370
18
48
1
60
0
100
AcDbLine
10
109.10514
20
-11.834578
30
0
11
109.662286
21
-11.346431
31
0
39
0
210
0
220
0
230
1
0
LINE
5
AD
100
AcDbEntity
8
1
62
256
6
ByLayer
370
18
48
1
60
0
100
AcDbLine
10
109.665798
20
-11.339928
30
0
11
109.665798
21
-2.901398
31
0
39
0
210
0
220
0
230
1
0
LINE
5
AE
100
AcDbEntity
8
1
62
256
6
ByLayer
370
18
48
1
60
0
100
AcDbLine
10
100.704359
20
-11.943941
30
0
11
110.015432
21
-11.943941
31
0
39
0
210
0
220
0
230
1
0
LINE
5
AF
100
AcDbEntity
8
1
62
256
6
ByLayer
370
18
48
1
60
0
100
AcDbLine
10
27
20
-12.5
30
0
11
27
21
-10.044088
31
0
39
0
210
0
220
0
230
1
0
LINE
5
B0
100
AcDbEntity
8
1
62
256
6
ByLayer
370
18
48
1
60
0
100
AcDbLine
10
100.90185
20
-11.838037
30
0
11
109.097252
21
-11.838037
31
0
39
0
210
0
220
0
230
1
0
LINE
5
B1
100
AcDbEntity
8
1
62
256
6
ByLayer
370
13
48
1
60
0
100
AcDbLine
10
99.4
20
4.05
30
0
11
99.605013
21
4.05
31
0
39
0
210
0
220
0
230
1
0
LINE
5
B2
100
AcDbEntity
8
1
62
256
6
ByLayer
370
13
48
1
60
0
100
AcDbLine
10
23.620624
20
13.248806
30
0
11
23.620624
21
6.872414
31
0
39
0
210
0
220
0
230
1
0
LINE
5
B3
100
AcDbEntity
8
1
62
256
6
ByLayer
370
18
48
1
60
0
100
AcDbLine
10
29.6
20
-10.776365
30
0
11
29.6
21
-12.7
31
0
39
0
210
0
220
0
230
1
0
LINE
5
B4
100
AcDbEntity
8
1
62
256
6
ByLayer
370
13
48
1
60
0
100
AcDbLine
10
115.910654
20
0.369567
30
0
11
114.60354
21
1.283161
31
0
39
0
210
0
220
0
230
1
0
LINE
5
B5
100
AcDbEntity
8
1
62
256
6
ByLayer
370
13
48
1
60
0
100
AcDbLine
10
85.274234
20
-7.838012
30
0
11
85.274234
21
-8.098118
31
0
39
0
210
0
220
0
230
1
0
LINE
5
B6
100
AcDbEntity
8
1
62
256
6
ByLayer
370
18
48
1
60
0
100
AcDbLine
10
29.6
20
12.7
30
0
11
29.6
21
6.788419
31
0
39
0
210
0
220
0
230
1
0
LINE
5
B7
100
AcDbEntity
8
1
62
256
6
ByLayer
370
13
48
1
60
0
100
AcDbLine
10
100.651041
20
-11.824707
30
0
11
100.651041
21
-11.962211
31
0
39
0
210
0
220
0
230
1
0
LINE
5
B8
100
AcDbEntity
8
1
62
256
6
ByLayer
370
18
48
1
60
0
100
AcDbLine
10
109.665798
20
-2.901398
30
0
11
109.665684
21
-2.9
31
0
39
0
210
0
220
0
230
1
0
LINE
5
B9
100
AcDbEntity
8
1
62
256
6
ByLayer
370
18
48
1
60
0
100
AcDbLine
10
109.097252
20
-11.838037
30
0
11
109.10514
21
-11.834578
31
0
39
0
210
0
220
0
230
1
0
LINE
5
BA
100
AcDbEntity
8
1
62
256
6
ByLayer
370
18
48
1
60
0
100
AcDbLine
10
112.245342
20
-5.597441
30
0
11
112.228658
21
-5.552874
31
0
39
0
210
0
220
0
230
1
0
LINE
5
BB
100
AcDbEntity
8
1
62
256
6
ByLayer
370
18
48
1
60
0
100
AcDbLine
10
32.9
20
-11.339877
30
0
11
32.9
21
-12.7
31
0
39
0
210
0
220
0
230
1
0
LINE
5
BC
100
AcDbEntity
8
1
62
256
6
ByLayer
370
18
48
1
60
0
100
AcDbLine
10
0.2
20
0
30
0
11
0.2
21
-20
31
0
39
0
210
0
220
0
230
1
0
LINE
5
BD
100
AcDbEntity
8
1
62
256
6
ByLayer
370
18
48
1
60
0
100
AcDbLine
10
0.2
20
20
30
0
11
0.2
21
0
31
0
39
0
210
0
220
0
230
1
0
LINE
5
BE
100
AcDbEntity
8
1
62
256
6
ByLayer
370
18
48
1
60
0
100
AcDbLine
10
99.5
20
-12.531517
30
0
11
99.5
21
-12.198738
31
0
39
0
210
0
220
0
230
1
0
LINE
5
BF
100
AcDbEntity
8
1
62
256
6
ByLayer
370
18
48
1
60
0
100
AcDbLine
10
99.6
20
-12.272398
30
0
11
99.6
21
-12.246576
31
0
39
0
210
0
220
0
230
1
0
LINE
5
C0
100
AcDbEntity
8
1
62
256
6
ByLayer
370
18
48
1
60
0
100
AcDbLine
10
108.777945
20
-10.452076
30
0
11
109.665798
21
-11.339928
31
0
39
0
210
0
220
0
230
1
0
LINE
5
C1
100
AcDbEntity
8
1
62
256
6
ByLayer
370
18
48
1
60
0
100
AcDbLine
10
116.005308
20
-0.000285
30
0
11
115.969791
21
-0.160354
31
0
39
0
210
0
220
0
230
1
0
LINE
5
C2
100
AcDbEntity
8
1
62
256
6
ByLayer
370
13
48
1
60
0
100
AcDbLine
10
114.5583
20
1.244738
30
0
11
115.933732
21
0.283393
31
0
39
0
210
0
220
0
230
1
0
LINE
5
C3
100
AcDbEntity
8
1
62
256
6
ByLayer
370
18
48
1
60
0
100
AcDbLine
10
0
20
19.8
30
0
11
0
21
-19.8
31
0
39
0
210
0
220
0
230
1
0
LINE
5
C4
100
AcDbEntity
8
1
62
256
6
ByLayer
370
13
48
1
60
0
100
AcDbLine
10
7.9071
20
0
30
0
11
7.9071
21
-20
31
0
39
0
210
0
220
0
230
1
0
LINE
5
C5
100
AcDbEntity
8
1
62
256
6
ByLayer
370
13
48
1
60
0
100
AcDbLine
10
7.9071
20
20
30
0
11
7.9071
21
0
31
0
39
0
210
0
220
0
230
1
0
LINE
5
C6
100
AcDbEntity
8
1
62
256
6
ByLayer
370
18
48
1
60
0
100
AcDbLine
10
112.245342
20
-5.597441
30
0
11
114.453491
21
-3.172834
31
0
39
0
210
0
220
0
230
1
0
LINE
5
C7
100
AcDbEntity
8
1
62
256
6
ByLayer
370
18
48
1
60
0
100
AcDbLine
10
100.704359
20
-11.943941
30
0
11
100.704359
21
-11.82691
31
0
39
0
210
0
220
0
230
1
0
LINE
5
C8
100
AcDbEntity
8
1
62
256
6
ByLayer
370
18
48
1
60
0
100
AcDbLine
10
99.745422
20
-12.471928
30
0
11
99.745422
21
-12.323523
31
0
39
0
210
0
220
0
230
1
0
LINE
5
C9
100
AcDbEntity
8
1
62
256
6
ByLayer
370
13
48
1
60
0
100
AcDbLine
10
23.529984
20
-13.291048
30
0
11
23.529984
21
-10.017546
31
0
39
0
210
0
220
0
230
1
0
LINE
5
CA
100
AcDbEntity
8
SK1
62
256
6
ByLayer
370
13
48
1
60
0
100
AcDbLine
10
-6.5
20
-8.082178
30
0
11
-6.5
21
8.082178
31
0
39
0
210
0
220
0
230
1
0
LINE
5
CB
100
AcDbEntity
8
SK1
62
256
6
ByLayer
370
13
48
1
60
0
100
AcDbLine
10
-0.15
20
0
30
0
11
-0.15
21
-15.746
31
0
39
0
210
0
220
0
230
1
0
LINE
5
CC
100
AcDbEntity
8
SK1
62
256
6
ByLayer
370
13
48
1
60
0
100
AcDbLine
10
-0.15
20
15.746
30
0
11
-0.15
21
0
31
0
39
0
210
0
220
0
230
1
0
LINE
5
CD
100
AcDbEntity
8
SK1
62
256
6
ByLayer
370
13
48
1
60
0
100
AcDbLine
10
-1.144243
20
0
30
0
11
-1.144243
21
-15.783477
31
0
39
0
210
0
220
0
230
1
0
LINE
5
CE
100
AcDbEntity
8
SK1
62
256
6
ByLayer
370
13
48
1
60
0
100
AcDbLine
10
-1.144243
20
15.783477
30
0
11
-1.144243
21
0
31
0
39
0
210
0
220
0
230
1
0
LINE
5
CF
100
AcDbEntity
8
SK1
62
256
6
ByLayer
370
18
48
1
60
0
100
AcDbLine
10
-59
20
0
30
0
11
-59
21
-15.996
31
0
39
0
210
0
220
0
230
1
0
LINE
5
D0
100
AcDbEntity
8
SK1
62
256
6
ByLayer
370
18
48
1
60
0
100
AcDbLine
10
-59
20
15.996
30
0
11
-59
21
0
31
0
39
0
210
0
220
0
230
1
0
LINE
5
D1
100
AcDbEntity
8
SK1
62
256
6
ByLayer
370
18
48
1
60
0
100
AcDbLine
10
-58.6
20
-15.996
30
0
11
-58.6
21
15.996
31
0
39
0
210
0
220
0
230
1
0
LINE
5
D2
100
AcDbEntity
8
SK1
62
256
6
ByLayer
370
18
48
1
60
0
100
AcDbLine
10
-6.5
20
8.082178
30
0
11
-53.5
21
8.082178
31
0
39
0
210
0
220
0
230
1
0
LINE
5
D3
100
AcDbEntity
8
SK1
62
256
6
ByLayer
370
18
48
1
60
0
100
AcDbLine
10
-57.3
20
0
30
0
11
-57.3
21
-15.996
31
0
39
0
210
0
220
0
230
1
0
LINE
5
D4
100
AcDbEntity
8
SK1
62
256
6
ByLayer
370
18
48
1
60
0
100
AcDbLine
10
-57.3
20
15.996
30
0
11
-57.3
21
0
31
0
39
0
210
0
220
0
230
1
0
LINE
5
D5
100
AcDbEntity
8
SK1
62
256
6
ByLayer
370
13
48
1
60
0
100
AcDbLine
10
-0.975195
20
15.746
30
0
11
-0.975195
21
-15.746
31
0
39
0
210
0
220
0
230
1
0
LINE
5
D6
100
AcDbEntity
8
SK1
62
256
6
ByLayer
370
18
48
1
60
0
100
AcDbLine
10
-53.5
20
-8.082178
30
0
11
-6.5
21
-8.082178
31
0
39
0
210
0
220
0
230
1
0
LINE
5
D7
100
AcDbEntity
8
SK1
62
256
6
ByLayer
370
18
48
1
60
0
100
AcDbLine
10
-1.6
20
-15.996
30
0
11
-1.6
21
0
31
0
39
0
210
0
220
0
230
1
0
LINE
5
D8
100
AcDbEntity
8
SK1
62
256
6
ByLayer
370
18
48
1
60
0
100
AcDbLine
10
-1.6
20
0
30
0
11
-1.6
21
15.996
31
0
39
0
210
0
220
0
230
1
0
LINE
5
D9
100
AcDbEntity
8
SK1
62
256
6
ByLayer
370
13
48
1
60
0
100
AcDbLine
10
-58.449692
20
-15.874283
30
0
11
-58.449692
21
0
31
0
39
0
210
0
220
0
230
1
0
LINE
5
DA
100
AcDbEntity
8
SK1
62
256
6
ByLayer
370
13
48
1
60
0
100
AcDbLine
10
-58.449692
20
0
30
0
11
-58.449692
21
15.874283
31
0
39
0
210
0
220
0
230
1
0
LINE
5
DB
100
AcDbEntity
8
SK1
62
256
6
ByLayer
370
13
48
1
60
0
100
AcDbLine
10
-57.426311
20
-15.887988
30
0
11
-57.426311
21
0
31
0
39
0
210
0
220
0
230
1
0
LINE
5
DC
100
AcDbEntity
8
SK1
62
256
6
ByLayer
370
13
48
1
60
0
100
AcDbLine
10
-57.426311
20
0
30
0
11
-57.426311
21
15.887988
31
0
39
0
210
0
220
0
230
1
0
LINE
5
DD
100
AcDbEntity
8
SK1
62
256
6
ByLayer
370
18
48
1
60
0
100
AcDbLine
10
-60
20
0
30
0
11
-60
21
-14.996
31
0
39
0
210
0
220
0
230
1
0
LINE
5
DE
100
AcDbEntity
8
SK1
62
256
6
ByLayer
370
18
48
1
60
0
100
AcDbLine
10
-60
20
14.996
30
0
11
-60
21
0
31
0
39
0
210
0
220
0
230
1
0
LINE
5
DF
100
AcDbEntity
8
SK1
62
256
6
ByLayer
370
13
48
1
60
0
100
AcDbLine
10
-53.5
20
8.082178
30
0
11
-53.5
21
-8.082178
31
0
39
0
210
0
220
0
230
1
0
MTEXT
5
187
100
AcDbEntity
8
SK6
62
256
6
ByLayer
370
13
48
1
60
0
100
AcDbMText
10
8.47627
20
35.375134
30
0
210
0
220
0
230
1
1
\W0.7373;870-2600-26L32-3
40
3.5
41
0
44
1.084337
50
0
71
7
72
5
7
iso_b_vert
0
DIMENSION
5
195
100
AcDbEntity
8
2
62
256
6
ByLayer
370
13
48
1
60
0
100
AcDbDimension
2
DimnDraft3D1
10
27
20
-26
30
0
11
71.5
21
-26
31
0
70
32
71
5
72
1
41
1
210
0
220
0
230
1
3
Standard
100
AcDbAlignedDimension
13
116
23
-1.5875
33
0
14
27
24
-14.5875
34
0
50
0
100
AcDbRotatedDimension
1001
ACAD
1000
DSTYLE
1002
{
1070
   279
1070
     0
1070
   172
1070
     1
1070
   173
1070
     1
1070
   340
1005
188
1070
   271
1070
     1
1070
   272
1070
     2
1070
    77
1070
     1
1070
    73
1070
     0
1070
   171
1070
     3
1070
   274
1070
     4
1070
   177
1070
     7
1070
   176
1070
     7
1070
   178
1070
     7
1070
    48
1040
-0.005
1070
    41
1041
3.5
1070
   147
1041
1.5
1070
    42
1041
1.5875
1070
    44
1041
2.0
1070
   140
1041
3.0
1070
   343
1005
0
1070
   344
1005
0
1002
}
0
DIMENSION
5
19F
100
AcDbEntity
8
2
62
256
6
ByLayer
370
13
48
1
60
0
100
AcDbDimension
2
DimnDraft3D2
10
30
20
20
30
0
11
73
21
20
31
0
70
32
71
5
72
1
41
1
210
0
220
0
230
1
3
Standard
100
AcDbAlignedDimension
13
116
23
1.5875
33
0
14
30
24
14.5875
34
0
50
0
100
AcDbRotatedDimension
1001
ACAD
1000
DSTYLE
1002
{
1070
   279
1070
     0
1070
   172
1070
     1
1070
   173
1070
     1
1070
   340
1005
188
1070
   271
1070
     1
1070
   272
1070
     2
1070
    77
1070
     1
1070
    73
1070
     0
1070
   171
1070
     3
1070
   274
1070
     4
1070
   177
1070
     7
1070
   176
1070
     7
1070
   178
1070
     7
1070
    48
1040
-0.005
1070
    41
1041
3.5
1070
   147
1041
1.5
1070
    42
1041
1.5875
1070
    44
1041
2.0
1070
   140
1041
3.0
1070
   343
1005
0
1070
   344
1005
0
1002
}
0
DIMENSION
5
1AA
100
AcDbEntity
8
SK2
62
256
6
ByLayer
370
13
48
1
60
0
100
AcDbDimension
2
DimnDraft3D3
10
0
20
-39
30
0
11
-30
21
-39
31
0
70
32
71
5
72
1
41
1
210
0
220
0
230
1
3
Standard
100
AcDbAlignedDimension
13
-60
23
-17.5875
33
0
14
0
24
-21.5875
34
0
50
0
100
AcDbRotatedDimension
1001
ACAD
1000
DSTYLE
1002
{
1070
   279
1070
     0
1070
   172
1070
     1
1070
   173
1070
     1
1070
   340
1005
188
1070
   271
1070
     1
1070
   272
1070
     2
1070
    77
1070
     1
1070
    73
1070
     0
1070
   171
1070
     3
1070
   274
1070
     4
1070
   177
1070
     7
1070
   176
1070
     7
1070
   178
1070
     7
1070
    48
1040
-0.005
1070
    41
1041
3.5
1070
   147
1041
1.5
1070
    42
1041
1.5875
1070
    44
1041
2.0
1070
   140
1041
3.0
1070
   343
1005
0
1070
   344
1005
0
1002
}
0
DIMENSION
5
1B4
100
AcDbEntity
8
2
62
256
6
ByLayer
370
13
48
1
60
0
100
AcDbDimension
2
DimnDraft3D4
10
116
20
-39
30
0
11
58
21
-39
31
0
70
32
71
5
72
1
41
1
210
0
220
0
230
1
3
Standard
100
AcDbAlignedDimension
13
0
23
-21.5875
33
0
14
116
24
-1.5875
34
0
50
0
100
AcDbRotatedDimension
1001
ACAD
1000
DSTYLE
1002
{
1070
   279
1070
     0
1070
   172
1070
     1
1070
   173
1070
     1
1070
   340
1005
188
1070
   271
1070
     1
1070
   272
1070
     2
1070
    77
1070
     1
1070
    73
1070
     0
1070
   171
1070
     3
1070
   274
1070
     4
1070
   177
1070
     7
1070
   176
1070
     7
1070
   178
1070
     7
1070
    48
1040
-0.005
1070
    41
1041
3.5
1070
   147
1041
1.5
1070
    42
1041
1.5875
1070
    44
1041
2.0
1070
   140
1041
3.0
1070
   343
1005
0
1070
   344
1005
0
1002
}
0
DIMENSION
5
1BF
100
AcDbEntity
8
SK2
62
256
6
ByLayer
370
13
48
1
60
0
100
AcDbDimension
2
DimnDraft3D5
10
-68.25
20
-16
30
0
11
-68.5
21
-0.520456
31
0
70
33
71
5
72
1
41
1
210
0
220
0
230
1
3
Standard
100
AcDbAlignedDimension
13
-61.5875
23
16
33
0
14
-61.5875
24
-16
34
0
1001
ACAD
1000
DSTYLE
1002
{
1070
   279
1070
     0
1070
    74
1070
     0
1070
   173
1070
     1
1070
   340
1005
188
1070
   271
1070
     1
1070
   272
1070
     2
1070
    77
1070
     1
1070
    73
1070
     0
1070
   171
1070
     3
1070
   274
1070
     4
1070
   177
1070
     7
1070
   176
1070
     7
1070
   178
1070
     7
1070
    48
1040
-0.005
1070
    41
1041
3.5
1070
   147
1041
1.5
1070
    42
1041
1.5875
1070
    44
1041
2.0
1070
   140
1041
3.0
1070
   343
1005
0
1070
   344
1005
0
1002
}
0
ENDSEC
0
SECTION
2
OBJECTS
0
DICTIONARY
5
22a
330
0
100
AcDbDictionary
280
0
281
1
3
ACAD_GROUP
350
22b
3
ACAD_MLINESTYLE
350
22c
0
DICTIONARY
5
22b
330
0
100
AcDbDictionary
280
0
281
1
0
DICTIONARY
5
22c
330
0
100
AcDbDictionary
280
0
281
1
3
Standard
350
18
0
MLINESTYLE
5
18
330
22c
100
AcDbMlineStyle
2
Standard
70
0
3

62
256
51
90
52
90
71
2
49
-0.5
62
256
6
ByLayer
49
0.5
62
256
6
ByLayer
0
RASTERVARIABLES
5
218
330

100
AcDbRasterVariables
90
0
70
1
71
1
72
1
0
ENDSEC
0
EOF
