0
SECTION
2
HEADER
9
$ACADVER
1
AC1015
9
$DWGCODEPAGE
3
ANSI_1252
9
$HANDSEED
5
22f
9
$ANGBASE
50
0
9
$ANGDIR
70
0
9
$ATTMODE
70
1
9
$AUNITS
70
0
9
$AUPREC
70
0
9
$CECOLOR
62
256
9
$CELTSCALE
40
1
9
$CELTYPE
6
ByLayer
9
$CELWEIGHT
370
18
9
$CLAYER
8
0
9
$CMLJUST
70
0
9
$CMLSCALE
40
1
9
$CMLSTYLE
2
Standard
9
$DIMSTYLE
2
Standard
9
$TEXTSIZE
40
0.2
9
$TEXTSTYLE
7
Standard
9
$LUNITS
70
2
9
$LUPREC
70
4
9
$EXTNAMES
290
1
9
$INSUNITS
70
4
9
$LTSCALE
40
1
9
$LWDISPLAY
290
1
9
$PDMODE
70
0
9
$PDSIZE
40
0
9
$PLINEGEN
70
0
0
ENDSEC
0
SECTION
2
CLASSES
0
CLASS
1
RASTERVARIABLES
2
AcDbRasterVariables
3
ISM
90
0
280
0
281
0
0
ENDSEC
0
SECTION
2
TABLES
0
TABLE
2
VPORT
5
225
100
AcDbSymbolTable
0
VPORT
5
1
100
AcDbSymbolTableRecord
100
AcDbViewportTableRecord
2
*Active
70
0
10
0
20
0
11
1
21
1
12
-1
22
1
13
0
23
0
14
0.5
24
0.5
15
10
25
10
16
0
26
0
36
1
17
0
27
0
37
0
0
ENDTAB
0
TABLE
2
LTYPE
5
226
100
AcDbSymbolTable
0
LTYPE
5
14
100
AcDbSymbolTableRecord
100
AcDbLinetypeTableRecord
70
0
2
ByBlock
3

72
65
73
0
40
0
0
LTYPE
5
15
100
AcDbSymbolTableRecord
100
AcDbLinetypeTableRecord
70
0
2
ByLayer
3

72
65
73
0
40
0
0
LTYPE
5
16
100
AcDbSymbolTableRecord
100
AcDbLinetypeTableRecord
70
0
2
CONTINUOUS
3
Solid line
72
65
73
0
40
0
0
LTYPE
5
6A
100
AcDbSymbolTableRecord
100
AcDbLinetypeTableRecord
70
0
2
CENTER
3
____ _ ____ _ ____ _ ____
72
65
73
4
40
47.5
49
22
74
0
49
-8.5
74
0
49
8.5
74
0
49
-8.5
74
0
0
LTYPE
5
6B
100
AcDbSymbolTableRecord
100
AcDbLinetypeTableRecord
70
0
2
DASHED
3
__ __ __ __ __ __ __ __ __
72
65
73
2
40
25.72
49
12.86
74
0
49
-12.86
74
0
0
ENDTAB
0
TABLE
2
LAYER
5
227
100
AcDbSymbolTable
0
LAYER
5
10
100
AcDbSymbolTableRecord
100
AcDbLayerTableRecord
2
0
70
0
62
7
6
CONTINUOUS
290
1
370
-3
390
0
0
LAYER
5
6D
100
AcDbSymbolTableRecord
100
AcDbLayerTableRecord
2
80
70
0
62
-6
6
CONTINUOUS
290
1
370
-3
390
0
0
LAYER
5
6F
100
AcDbSymbolTableRecord
100
AcDbLayerTableRecord
2
81
70
0
62
-3
6
CONTINUOUS
290
1
370
-3
390
0
0
LAYER
5
72
100
AcDbSymbolTableRecord
100
AcDbLayerTableRecord
2
1
70
0
62
4
6
CONTINUOUS
290
1
370
-3
390
0
0
LAYER
5
91
100
AcDbSymbolTableRecord
100
AcDbLayerTableRecord
2
4
70
0
62
-2
6
CENTER
290
1
370
-3
390
0
0
LAYER
5
185
100
AcDbSymbolTableRecord
100
AcDbLayerTableRecord
2
2
70
0
62
7
6
CONTINUOUS
290
1
370
-3
390
0
0
LAYER
5
211
100
AcDbSymbolTableRecord
100
AcDbLayerTableRecord
2
SK1
70
0
62
4
6
CONTINUOUS
290
1
370
-3
390
0
0
LAYER
5
212
100
AcDbSymbolTableRecord
100
AcDbLayerTableRecord
2
SK4
70
0
62
2
6
CENTER
290
1
370
-3
390
0
0
LAYER
5
213
100
AcDbSymbolTableRecord
100
AcDbLayerTableRecord
2
SK6
70
0
62
5
6
CONTINUOUS
290
1
370
-3
390
0
0
LAYER
5
214
100
AcDbSymbolTableRecord
100
AcDbLayerTableRecord
2
SK2
70
0
62
7
6
CONTINUOUS
290
1
370
-3
390
0
0
ENDTAB
0
TABLE
2
STYLE
5
228
100
AcDbSymbolTable
0
STYLE
5
11
100
AcDbSymbolTableRecord
100
AcDbTextStyleTableRecord
2
Standard
3
txt
70
0
71
0
40
0
41
1
42
0
50
0
0
STYLE
5
180
100
AcDbSymbolTableRecord
100
AcDbTextStyleTableRecord
2
iso_b_vert
3
simplex.shx
70
0
71
0
40
0
41
1
42
0
50
0
0
STYLE
5
181
100
AcDbSymbolTableRecord
100
AcDbTextStyleTableRecord
2
DWGDirectTextStyle
3
simplex
70
0
71
0
40
0
41
1
42
0
50
0
0
ENDTAB
0
TABLE
2
DIMSTYLE
5
229
100
AcDbSymbolTable
100
AcDbDimStyleTable
0
DIMSTYLE
105
27
100
AcDbSymbolTableRecord
100
AcDbDimStyleTableRecord
2
Standard
70
0
3
<>
41
0.18
42
0.0625
44
0.18
140
0.18
147
0.09
73
0
74
0
77
1
271
2
275
0
278
52
280
0
340
11
0
ENDTAB
0
TABLE
2
VIEW
5
22a
100
AcDbSymbolTable
0
ENDTAB
0
TABLE
2
UCS
5
22b
100
AcDbSymbolTable
0
ENDTAB
0
TABLE
2
APPID
5
22c
100
AcDbSymbolTable
0
APPID
5
12
100
AcDbSymbolTableRecord
100
AcDbRegAppTableRecord
2
ACAD
70
0
0
ENDTAB
0
TABLE
2
BLOCK_RECORD
5
22d
100
AcDbSymbolTable
0
BLOCK_RECORD
5
1F
100
AcDbSymbolTableRecord
100
AcDbBlockTableRecord
2
*Model_Space
340
0
70
0
0
BLOCK_RECORD
5
1B
100
AcDbSymbolTableRecord
100
AcDbBlockTableRecord
2
*Paper_Space
340
0
70
0
0
BLOCK_RECORD
5
23
100
AcDbSymbolTableRecord
100
AcDbBlockTableRecord
2
*Paper_Space0
340
0
70
0
0
BLOCK_RECORD
5
183
100
AcDbSymbolTableRecord
100
AcDbBlockTableRecord
2
DimnDraft3D1
340
0
70
0
0
BLOCK_RECORD
5
18E
100
AcDbSymbolTableRecord
100
AcDbBlockTableRecord
2
DimnDraft3D2
340
0
70
0
0
BLOCK_RECORD
5
198
100
AcDbSymbolTableRecord
100
AcDbBlockTableRecord
2
DimnDraft3D3
340
0
70
0
0
BLOCK_RECORD
5
1A3
100
AcDbSymbolTableRecord
100
AcDbBlockTableRecord
2
DimnDraft3D4
340
0
70
0
0
BLOCK_RECORD
5
1AD
100
AcDbSymbolTableRecord
100
AcDbBlockTableRecord
2
DimnDraft3D5
340
0
70
0
0
ENDTAB
0
ENDSEC
0
SECTION
2
BLOCKS
0
BLOCK
5
20
100
AcDbEntity
8
0
100
AcDbBlockBegin
2
*Model_Space
70
0
10
0
20
0
30
0
3
*Model_Space
0
ENDBLK
5
21
100
AcDbEntity
8
0
100
AcDbBlockEnd
0
BLOCK
5
1C
100
AcDbEntity
8
0
100
AcDbBlockBegin
2
*Paper_Space
70
0
10
0
20
0
30
0
3
*Paper_Space
0
ENDBLK
5
1D
100
AcDbEntity
8
0
100
AcDbBlockEnd
0
BLOCK
5
24
100
AcDbEntity
8
0
100
AcDbBlockBegin
2
*Paper_Space0
70
0
10
0
20
0
30
0
3
*Paper_Space0
0
ENDBLK
5
25
100
AcDbEntity
8
0
100
AcDbBlockEnd
0
BLOCK
5
18B
100
AcDbEntity
8
0
100
AcDbBlockBegin
2
DimnDraft3D1
70
0
10
0
20
0
30
0
3
DimnDraft3D1
0
MTEXT
5
184
100
AcDbEntity
8
2
62
256
6
ByLayer
370
13
48
1
60
0
100
AcDbMText
10
65.729544
20
-24.749886
30
0
210
0
220
0
230
1
1
\W0.7346;85.0
40
3
41
0
44
1.084337
50
0
71
7
72
5
7
iso_b_vert
0
LINE
5
186
100
AcDbEntity
8
2
62
256
6
ByLayer
370
13
48
1
60
0
100
AcDbLine
10
111
20
-1.5875
30
0
11
111
21
-27.5
31
0
39
0
210
0
220
0
230
1
0
LINE
5
187
100
AcDbEntity
8
2
62
256
6
ByLayer
370
13
48
1
60
0
100
AcDbLine
10
26
20
-14.0875
30
0
11
26
21
-27.5
31
0
39
0
210
0
220
0
230
1
0
LINE
5
188
100
AcDbEntity
8
2
62
256
6
ByLayer
370
13
48
1
60
0
100
AcDbLine
10
111
20
-25.5
30
0
11
26
21
-25.5
31
0
39
0
210
0
220
0
230
1
0
SOLID
5
189
100
AcDbEntity
8
2
62
256
6
ByLayer
370
13
48
1
60
0
100
AcDbTrace
10
111
20
-25.5
30
0
11
107.500002
21
-25.960784
31
0
12
107.499998
22
-25.039216
32
0
13
111
23
-25.5
33
0
39
0
210
0
220
0
230
1
0
SOLID
5
18A
100
AcDbEntity
8
2
62
256
6
ByLayer
370
13
48
1
60
0
100
AcDbTrace
10
26
20
-25.5
30
0
11
29.499998
21
-25.039216
31
0
12
29.500002
22
-25.960784
32
0
13
26
23
-25.5
33
0
39
0
210
0
220
0
230
1
0
ENDBLK
5
18C
100
AcDbEntity
8
0
100
AcDbBlockEnd
0
BLOCK
5
195
100
AcDbEntity
8
0
100
AcDbBlockBegin
2
DimnDraft3D2
70
0
10
0
20
0
30
0
3
DimnDraft3D2
0
MTEXT
5
18F
100
AcDbEntity
8
2
62
256
6
ByLayer
370
13
48
1
60
0
100
AcDbMText
10
67.554486
20
20.250114
30
0
210
0
220
0
230
1
1
\W0.7208;82.1
40
3
41
0
44
1.084337
50
0
71
7
72
5
7
iso_b_vert
0
LINE
5
190
100
AcDbEntity
8
2
62
256
6
ByLayer
370
13
48
1
60
0
100
AcDbLine
10
111
20
1.5875
30
0
11
111
21
21.5
31
0
39
0
210
0
220
0
230
1
0
LINE
5
191
100
AcDbEntity
8
2
62
256
6
ByLayer
370
13
48
1
60
0
100
AcDbLine
10
28.9
20
14.0875
30
0
11
28.9
21
21.5
31
0
39
0
210
0
220
0
230
1
0
LINE
5
192
100
AcDbEntity
8
2
62
256
6
ByLayer
370
13
48
1
60
0
100
AcDbLine
10
111
20
19.5
30
0
11
28.9
21
19.5
31
0
39
0
210
0
220
0
230
1
0
SOLID
5
193
100
AcDbEntity
8
2
62
256
6
ByLayer
370
13
48
1
60
0
100
AcDbTrace
10
111
20
19.5
30
0
11
107.500002
21
19.039216
31
0
12
107.499998
22
19.960784
32
0
13
111
23
19.5
33
0
39
0
210
0
220
0
230
1
0
SOLID
5
194
100
AcDbEntity
8
2
62
256
6
ByLayer
370
13
48
1
60
0
100
AcDbTrace
10
28.9
20
19.5
30
0
11
32.399998
21
19.960784
31
0
12
32.400002
22
19.039216
32
0
13
28.9
23
19.5
33
0
39
0
210
0
220
0
230
1
0
ENDBLK
5
196
100
AcDbEntity
8
0
100
AcDbBlockEnd
0
BLOCK
5
1A0
100
AcDbEntity
8
0
100
AcDbBlockBegin
2
DimnDraft3D3
70
0
10
0
20
0
30
0
3
DimnDraft3D3
0
MTEXT
5
199
100
AcDbEntity
8
SK2
62
256
6
ByLayer
370
13
48
1
60
0
100
AcDbMText
10
-32.770456
20
-38.249886
30
0
210
0
220
0
230
1
1
\W0.7346;60.0
40
3
41
0
44
1.084337
50
0
71
7
72
5
7
iso_b_vert
0
LINE
5
19B
100
AcDbEntity
8
SK2
62
256
6
ByLayer
370
13
48
1
60
0
100
AcDbLine
10
-60
20
-17.5875
30
0
11
-60
21
-41
31
0
39
0
210
0
220
0
230
1
0
LINE
5
19C
100
AcDbEntity
8
SK2
62
256
6
ByLayer
370
13
48
1
60
0
100
AcDbLine
10
0
20
-21.5875
30
0
11
0
21
-41
31
0
39
0
210
0
220
0
230
1
0
LINE
5
19D
100
AcDbEntity
8
SK2
62
256
6
ByLayer
370
13
48
1
60
0
100
AcDbLine
10
-60
20
-39
30
0
11
0
21
-39
31
0
39
0
210
0
220
0
230
1
0
SOLID
5
19E
100
AcDbEntity
8
SK2
62
256
6
ByLayer
370
13
48
1
60
0
100
AcDbTrace
10
-60
20
-39
30
0
11
-56.500002
21
-38.539216
31
0
12
-56.499998
22
-39.460784
32
0
13
-60
23
-39
33
0
39
0
210
0
220
0
230
1
0
SOLID
5
19F
100
AcDbEntity
8
SK2
62
256
6
ByLayer
370
13
48
1
60
0
100
AcDbTrace
10
0
20
-39
30
0
11
-3.499998
21
-39.460784
31
0
12
-3.500002
22
-38.539216
32
0
13
0
23
-39
33
0
39
0
210
0
220
0
230
1
0
ENDBLK
5
1A1
100
AcDbEntity
8
0
100
AcDbBlockEnd
0
BLOCK
5
1AA
100
AcDbEntity
8
0
100
AcDbBlockBegin
2
DimnDraft3D4
70
0
10
0
20
0
30
0
3
DimnDraft3D4
0
MTEXT
5
1A4
100
AcDbEntity
8
2
62
256
6
ByLayer
370
13
48
1
60
0
100
AcDbMText
10
52.733458
20
-38.249886
30
0
210
0
220
0
230
1
1
\W0.5657;111.0
40
3
41
0
44
1.084337
50
0
71
7
72
5
7
iso_b_vert
0
LINE
5
1A5
100
AcDbEntity
8
2
62
256
6
ByLayer
370
13
48
1
60
0
100
AcDbLine
10
0
20
-21.5875
30
0
11
0
21
-41
31
0
39
0
210
0
220
0
230
1
0
LINE
5
1A6
100
AcDbEntity
8
2
62
256
6
ByLayer
370
13
48
1
60
0
100
AcDbLine
10
111
20
-1.5875
30
0
11
111
21
-41
31
0
39
0
210
0
220
0
230
1
0
LINE
5
1A7
100
AcDbEntity
8
2
62
256
6
ByLayer
370
13
48
1
60
0
100
AcDbLine
10
0
20
-39
30
0
11
111
21
-39
31
0
39
0
210
0
220
0
230
1
0
SOLID
5
1A8
100
AcDbEntity
8
2
62
256
6
ByLayer
370
13
48
1
60
0
100
AcDbTrace
10
0
20
-39
30
0
11
3.499998
21
-38.539216
31
0
12
3.500002
22
-39.460784
32
0
13
0
23
-39
33
0
39
0
210
0
220
0
230
1
0
SOLID
5
1A9
100
AcDbEntity
8
2
62
256
6
ByLayer
370
13
48
1
60
0
100
AcDbTrace
10
111
20
-39
30
0
11
107.500002
21
-39.460784
31
0
12
107.499998
22
-38.539216
32
0
13
111
23
-39
33
0
39
0
210
0
220
0
230
1
0
ENDBLK
5
1AB
100
AcDbEntity
8
0
100
AcDbBlockEnd
0
BLOCK
5
1B5
100
AcDbEntity
8
0
100
AcDbBlockBegin
2
DimnDraft3D5
70
0
10
0
20
0
30
0
3
DimnDraft3D5
0
MTEXT
5
1AE
100
AcDbEntity
8
SK2
62
256
6
ByLayer
370
13
48
1
60
0
100
AcDbMText
10
-67.750114
20
0.229544
30
0
210
0
220
0
230
1
1
\W0.7346;32.0
40
3
41
0
44
1.084337
50
90
71
7
72
5
7
iso_b_vert
0
MTEXT
5
1AF
100
AcDbEntity
8
SK2
62
256
6
ByLayer
370
13
48
1
60
0
100
AcDbMText
10
-67.750114
20
-4.247019
30
0
210
0
220
0
230
1
1
%%c
40
3
41
0
44
1.084337
50
90
71
7
72
5
7
iso_b_vert
0
LINE
5
1B0
100
AcDbEntity
8
SK2
62
256
6
ByLayer
370
13
48
1
60
0
100
AcDbLine
10
-61.5875
20
16
30
0
11
-68.25
21
16
31
0
39
0
210
0
220
0
230
1
0
LINE
5
1B1
100
AcDbEntity
8
SK2
62
256
6
ByLayer
370
13
48
1
60
0
100
AcDbLine
10
-61.5875
20
-16
30
0
11
-68.25
21
-16
31
0
39
0
210
0
220
0
230
1
0
LINE
5
1B2
100
AcDbEntity
8
SK2
62
256
6
ByLayer
370
13
48
1
60
0
100
AcDbLine
10
-66.25
20
16
30
0
11
-66.25
21
-16
31
0
39
0
210
0
220
0
230
1
0
SOLID
5
1B3
100
AcDbEntity
8
SK2
62
256
6
ByLayer
370
13
48
1
60
0
100
AcDbTrace
10
-66.25
20
16
30
0
11
-65.789216
21
12.500002
31
0
12
-66.710784
22
12.499998
32
0
13
-66.25
23
16
33
0
39
0
210
0
220
0
230
1
0
SOLID
5
1B4
100
AcDbEntity
8
SK2
62
256
6
ByLayer
370
13
48
1
60
0
100
AcDbTrace
10
-66.25
20
-16
30
0
11
-66.710784
21
-12.500002
31
0
12
-65.789216
22
-12.499998
32
0
13
-66.25
23
-16
33
0
39
0
210
0
220
0
230
1
0
ENDBLK
5
1B6
100
AcDbEntity
8
0
100
AcDbBlockEnd
0
ENDSEC
0
SECTION
2
ENTITIES
0
ARC
5
DD
100
AcDbEntity
8
SK1
62
256
6
ByLayer
370
18
48
1
60
0
100
AcDbCircle
39
0
10
57.946236
20
-16.496
30
0
40
0.800000000000005
210
0
220
0
230
-1
100
AcDbArc
50
51
51
130.534532
0
ARC
5
DE
100
AcDbEntity
8
SK1
62
256
6
ByLayer
370
18
48
1
60
0
100
AcDbCircle
39
0
10
57.946236
20
16.496
30
0
40
0.800000000000005
210
0
220
0
230
-1
100
AcDbArc
50
229.465468
51
309
0
ARC
5
DF
100
AcDbEntity
8
SK1
62
256
6
ByLayer
370
18
48
1
60
0
100
AcDbCircle
39
0
10
0.975195
20
16.146
30
0
40
0.4
210
0
220
0
230
-1
100
AcDbArc
50
270
51
295
0
ARC
5
E0
100
AcDbEntity
8
SK1
62
256
6
ByLayer
370
18
48
1
60
0
100
AcDbCircle
39
0
10
0.975195
20
-16.146
30
0
40
0.4
210
0
220
0
230
-1
100
AcDbArc
50
65
51
90
0
ARC
5
E1
100
AcDbEntity
8
1
62
256
6
ByLayer
370
18
48
1
60
0
100
AcDbCircle
39
0
10
-26
20
20.05
30
0
40
7.99999999999999
210
0
220
0
230
-1
100
AcDbArc
50
270
51
297.301733
0
ARC
5
E2
100
AcDbEntity
8
1
62
256
6
ByLayer
370
18
48
1
60
0
100
AcDbCircle
39
0
10
-26
20
-20.05
30
0
40
7.99999999999999
210
0
220
0
230
-1
100
AcDbArc
50
62.698267
51
90
0
ARC
5
E3
100
AcDbEntity
8
SK1
62
256
6
ByLayer
370
18
48
1
60
0
100
AcDbCircle
39
0
10
0.15
20
16.146
30
0
40
0.4
210
0
220
0
230
-1
100
AcDbArc
50
247.975687
51
270
0
ARC
5
E4
100
AcDbEntity
8
SK1
62
256
6
ByLayer
370
18
48
1
60
0
100
AcDbCircle
39
0
10
0.15
20
-16.146
30
0
40
0.4
210
0
220
0
230
-1
100
AcDbArc
50
90
51
112.024313
0
ELLIPSE
5
E5
100
AcDbEntity
8
1
62
256
6
ByLayer
370
18
48
1
60
0
100
AcDbEllipse
10
90.26
20
-5.297474
30
0
11
-2.53000000000001
21
3.09825407517063E-16
31
0
210
0
220
0
230
1
40
0.702153
41
1.13607863410299
42
2.01395736940274
0
ELLIPSE
5
E6
100
AcDbEntity
8
1
62
256
6
ByLayer
370
18
48
1
60
0
100
AcDbEllipse
10
110.951078
20
0.255715
30
0
11
0.0446240257955118
21
-0.146773164358739
31
0
210
0
220
0
230
1
40
0.05855
41
-2.43183944705552
42
-1.74905825629611
0
ELLIPSE
5
E7
100
AcDbEntity
8
1
62
256
6
ByLayer
370
18
48
1
60
0
100
AcDbEllipse
10
72.602868
20
-4E-06
30
0
11
49.1168490352852
21
-10.9563477520845
31
0
210
0
220
0
230
1
40
0.111553
41
-1.39351615583867
42
-1.36849732413579
0
ELLIPSE
5
E8
100
AcDbEntity
8
1
62
256
6
ByLayer
370
13
48
1
60
0
100
AcDbEllipse
10
107.489979
20
4.259984
30
0
11
-0.0928031744461399
21
-0.0203118392254206
31
0
210
0
220
0
230
1
40
0.128923
41
-1.6883083168953
42
-1.40158009088303
0
ELLIPSE
5
E9
100
AcDbEntity
8
1
62
256
6
ByLayer
370
18
48
1
60
0
100
AcDbEllipse
10
25.912032
20
-0.389237
30
0
11
3.46768597163144
21
7.20937958510651
31
0
210
0
220
0
230
1
40
0.675531
41
0.460499655802036
42
2.95304334389541
0
ELLIPSE
5
EA
100
AcDbEntity
8
1
62
256
6
ByLayer
370
18
48
1
60
0
100
AcDbEllipse
10
111.005308
20
0
30
0
11
4.2669738373831
21
12.2538223245787
31
0
210
0
220
0
230
1
40
0.077207
41
-3.09735372667196
42
-2.88888358352467
0
ELLIPSE
5
EB
100
AcDbEntity
8
1
62
256
6
ByLayer
370
18
48
1
60
0
100
AcDbEllipse
10
111.005308
20
0
30
0
11
4.2669738360203
21
-12.2538223205013
31
0
210
0
220
0
230
1
40
0.077207
41
3.05476721667379
42
3.09735372666463
0
ELLIPSE
5
EC
100
AcDbEntity
8
1
62
256
6
ByLayer
370
18
48
1
60
0
100
AcDbEllipse
10
86.063674
20
-84.702508
30
0
11
79.0315036579222
21
-0.29958355055435
31
0
210
0
220
0
230
1
40
0.92926
41
1.4554029613859
42
1.45718297754463
0
ELLIPSE
5
ED
100
AcDbEntity
8
1
62
256
6
ByLayer
370
18
48
1
60
0
100
AcDbEllipse
10
111.01088
20
-0.015159
30
0
11
4.35858981200783
21
-12.516922496256
31
0
210
0
220
0
230
1
40
0.077207
41
2.79237091799452
42
2.89097962647497
0
ELLIPSE
5
EE
100
AcDbEntity
8
1
62
256
6
ByLayer
370
18
48
1
60
0
100
AcDbEllipse
10
111.01088
20
0.015159
30
0
11
4.35858982014338
21
12.5169225214576
31
0
210
0
220
0
230
1
40
0.077207
41
-2.8909796267219
42
-2.79237091834447
0
ELLIPSE
5
EF
100
AcDbEntity
8
1
62
256
6
ByLayer
370
13
48
1
60
0
100
AcDbEllipse
10
81
20
12.192688
30
0
11
5.87451546511645
21
-5.43047585853193
31
0
210
0
220
0
230
1
40
0.204506
41
0.947911258964408
42
1.05039041685768
0
ELLIPSE
5
F0
100
AcDbEntity
8
1
62
256
6
ByLayer
370
18
48
1
60
0
100
AcDbEllipse
10
111.005664
20
0
30
0
11
4.95705077316408
21
-12.1350500520662
31
0
210
0
220
0
230
1
40
0.349717
41
2.98233592726316
42
2.99970028987593
0
ELLIPSE
5
F1
100
AcDbEntity
8
1
62
256
6
ByLayer
370
18
48
1
60
0
100
AcDbEllipse
10
102.307686
20
-1.622073
30
0
11
0.38348963263306
21
-1.51112764102914
31
0
210
0
220
0
230
1
40
0.321534
41
0
42
6.28318530717959
0
ELLIPSE
5
F2
100
AcDbEntity
8
1
62
256
6
ByLayer
370
13
48
1
60
0
100
AcDbEllipse
10
109.6337
20
1.176603
30
0
11
-0.0549721374346119
21
-0.0774794431179661
31
0
210
0
220
0
230
1
40
0.550578
41
-2.35000729893895
42
-1.67075779202504
0
ELLIPSE
5
F3
100
AcDbEntity
8
1
62
256
6
ByLayer
370
18
48
1
60
0
100
AcDbEllipse
10
110.951078
20
-0.255715
30
0
11
0.0446240258505433
21
0.146773164515449
31
0
210
0
220
0
230
1
40
0.05855
41
1.7490582570277
42
2.43183944719381
0
ELLIPSE
5
F4
100
AcDbEntity
8
1
62
256
6
ByLayer
370
18
48
1
60
0
100
AcDbEllipse
10
111.005664
20
0
30
0
11
4.95705077312927
21
12.1350500519816
31
0
210
0
220
0
230
1
40
0.349717
41
2.92220410672516
42
-2.98233592726261
0
ELLIPSE
5
F5
100
AcDbEntity
8
1
62
256
6
ByLayer
370
18
48
1
60
0
100
AcDbEllipse
10
92.065
20
0
30
0
11
3.89159278291108
21
-11.6241215057463
31
0
210
0
220
0
230
1
40
1
41
-0.0441553302255813
42
0.0348823121814632
0
ELLIPSE
5
F6
100
AcDbEntity
8
1
62
256
6
ByLayer
370
18
48
1
60
0
100
AcDbEllipse
10
120.791694
20
0
30
0
11
16.61157441359
21
11.2601286410504
31
0
210
0
220
0
230
1
40
0.290406
41
2.9460926213224
42
-3.10850794433385
0
ELLIPSE
5
F7
100
AcDbEntity
8
1
62
256
6
ByLayer
370
13
48
1
60
0
100
AcDbEllipse
10
107.489308
20
4.263038
30
0
11
-0.0927699273740789
21
-0.0204631516391813
31
0
210
0
220
0
230
1
40
0.128734
41
-1.68851840493269
42
-1.40179130305266
0
ELLIPSE
5
F8
100
AcDbEntity
8
1
62
256
6
ByLayer
370
18
48
1
60
0
100
AcDbEllipse
10
28.463342
20
0
30
0
11
26.1143028414424
21
-8.20239642013301
31
0
210
0
220
0
230
1
40
0.348412
41
1.44211581909293
42
1.47724268794971
0
ELLIPSE
5
F9
100
AcDbEntity
8
1
62
256
6
ByLayer
370
13
48
1
60
0
100
AcDbEllipse
10
109.656509
20
1.160541
30
0
11
-0.0544235218676435
21
-0.0778657836762858
31
0
210
0
220
0
230
1
40
0.550074
41
-2.35740612017462
42
-1.67462492420246
0
POINT
5
6C
100
AcDbEntity
8
80
62
256
6
ByLayer
370
18
48
1
60
0
100
AcDbPoint
10
0
20
0
30
0
39
0
210
0
220
0
230
1
50
360
0
POINT
5
6E
100
AcDbEntity
8
81
62
256
6
ByLayer
370
18
48
1
60
0
100
AcDbPoint
10
95.3
20
0
30
0
39
0
210
0
220
0
230
1
50
360
0
SPLINE
5
FA
100
AcDbEntity
8
1
62
256
6
ByLayer
370
18
48
1
60
0
100
AcDbSpline
70
4
71
3
72
16
73
12
40
0
40
0
40
0
40
0
40
0.145425161631391
40
0.290691882576509
40
0.434449620838865
40
0.575156230984066
40
0.661618670185091
40
0.746611863955629
40
0.830608922626458
40
0.914567565139337
40
1
40
1
40
1
40
1
41
1
10
22.2417282462436
20
12.9870407459114
30
0
41
1
10
21.5379655435681
20
13.3635851491826
30
0
41
1
10
20.1507963019218
20
14.1483425664111
30
0
41
1
10
18.1601853639922
20
15.458671376918
30
0
41
1
10
16.2014347332604
20
16.7670576514522
30
0
41
1
10
14.4732329945719
20
17.8415597288681
30
0
41
1
10
12.9611920693675
20
18.6455182273079
30
0
41
1
10
11.6784285851111
20
19.2119910290378
30
0
41
1
10
10.360486646751
20
19.6501889115738
30
0
41
1
10
8.99522600010152
20
19.93471038085
30
0
41
1
10
8.06977932647942
20
19.9982638682553
30
0
41
1
10
7.59829999999999
20
20
30
0
0
SPLINE
5
FB
100
AcDbEntity
8
1
62
256
6
ByLayer
370
18
48
1
60
0
100
AcDbSpline
70
4
71
3
72
16
73
12
40
0
40
0
40
0
40
0
40
0.0905374353309542
40
0.179533703316366
40
0.268731745263512
40
0.359180809707888
40
0.451340136764583
40
0.545226401578888
40
0.695524607122843
40
0.847646298356393
40
1
40
1
40
1
40
1
41
1
10
7.59830000000002
20
-20
30
0
41
1
10
8.09829844917044
20
-19.9978304321436
30
0
41
1
10
9.07877394201637
20
-19.9266663144218
30
0
41
1
10
10.5236233812854
20
-19.6078303534287
30
0
41
1
10
11.9157099642841
20
-19.1199220528537
30
0
41
1
10
13.2697269353107
20
-18.49316612479
30
0
41
1
10
14.59697802592
20
-17.7591638545815
30
0
41
1
10
16.1655531086249
20
-16.7888001292102
30
0
41
1
10
17.9735416330558
20
-15.5841552244472
30
0
41
1
10
20.0530979303896
20
-14.2064288739663
30
0
41
1
10
21.5049988791037
20
-13.3825700928306
30
0
41
1
10
22.2417282462436
20
-12.9870407459114
30
0
0
SPLINE
5
FC
100
AcDbEntity
8
1
62
256
6
ByLayer
370
18
48
1
60
0
100
AcDbSpline
70
4
71
3
72
28
73
24
40
0
40
0
40
0
40
0
40
0.0116894158554979
40
0.0706315514651683
40
0.125543829303016
40
0.180325794763446
40
0.236861867711615
40
0.29529824728195
40
0.355773300946484
40
0.414544933999966
40
0.443879173601324
40
0.470610700066786
40
0.494750222840627
40
0.5163121388637
40
0.53531654031049
40
0.554191125203448
40
0.580194200569085
40
0.613820573753246
40
0.666912661612006
40
0.732063413074148
40
0.809284174123163
40
0.898589809094169
40
1
40
1
40
1
40
1
41
1
10
53.355981947331
20
11.7401083453484
30
0
41
1
10
53.2750780337075
20
11.7396672048358
30
0
41
1
10
52.784668253008
20
11.7368098315714
30
0
41
1
10
51.8875345952383
20
11.7244851068641
30
0
41
1
10
50.6687663734755
20
11.7169231036651
30
0
41
1
10
49.463085669767
20
11.7146499295263
30
0
41
1
10
48.2332785631848
20
11.7164493404552
30
0
41
1
10
46.965975816554
20
11.7218742713485
30
0
41
1
10
45.6901904520126
20
11.7292115359355
30
0
41
1
10
44.6281968976845
20
11.7335044440624
30
0
41
1
10
43.8033513985974
20
11.7347225530109
30
0
41
1
10
43.2261203467273
20
11.7350448700738
30
0
41
1
10
42.7035464234904
20
11.7349996420997
30
0
41
1
10
42.2356779402633
20
11.7348264608284
30
0
41
1
10
41.8050047260493
20
11.7346544924401
30
0
41
1
10
41.3419458772818
20
11.7345258080668
30
0
41
1
10
40.7729643955233
20
11.7344542843392
30
0
41
1
10
39.9559517070857
20
11.7345393156926
30
0
41
1
10
38.8552066731495
20
11.7350640238839
30
0
41
1
10
37.4384874481955
20
11.7366228534309
30
0
41
1
10
35.7592995887066
20
11.7396732662815
30
0
41
1
10
33.8173114508556
20
11.7444839048288
30
0
41
1
10
32.435014534893
20
11.7480095545774
30
0
41
1
10
31.6999999994479
20
11.749998099921
30
0
0
SPLINE
5
FD
100
AcDbEntity
8
1
62
256
6
ByLayer
370
18
48
1
60
0
100
AcDbSpline
70
4
71
2
72
6
73
3
40
0
40
0
40
0
40
1
40
1
40
1
41
1
10
58.2389498443
20
-3.12509688291533
30
0
41
1
10
58.4343585402572
20
-3.18894073700076
30
0
41
1
10
58.6297666892984
20
-3.25763052430955
30
0
0
SPLINE
5
FE
100
AcDbEntity
8
1
62
256
6
ByLayer
370
18
48
1
60
0
100
AcDbSpline
70
4
71
3
72
26
73
22
40
0
40
0
40
0
40
0
40
0.105698429708761
40
0.199526898188488
40
0.281503349490276
40
0.351641673923629
40
0.409952452761528
40
0.456443601448711
40
0.497581219185236
40
0.532293892947733
40
0.563106224564277
40
0.590175872390647
40
0.619222469282174
40
0.653272014946889
40
0.692452284728669
40
0.736846109799217
40
0.786509530897601
40
0.840871878059141
40
0.915556737827079
40
0.99941571863435
40
1
40
1
40
1
40
1
41
1
10
31.6999999994479
20
-11.749998099921
30
0
41
1
10
32.3742430914342
20
-11.7481937317225
30
0
41
1
10
33.6470124891891
20
-11.7449396786631
30
0
41
1
10
35.4427041799607
20
-11.740407214459
30
0
41
1
10
37.0115664077638
20
-11.7373261367438
30
0
41
1
10
38.3538677693171
20
-11.735528137977
30
0
41
1
10
39.4698108118677
20
-11.7347242814021
30
0
41
1
10
40.400761072495
20
-11.7344574240229
30
0
41
1
10
41.1811725237785
20
-11.7344819811777
30
0
41
1
10
41.8615864231875
20
-11.7346637185933
30
0
41
1
10
42.4522078192765
20
-11.7349263051945
30
0
41
1
10
43.0068568653223
20
-11.735241001218
30
0
41
1
10
43.5814819751701
20
-11.7356472487266
30
0
41
1
10
44.2279422025782
20
-11.735718849459
30
0
41
1
10
44.9647988953074
20
-11.7342199834216
30
0
41
1
10
45.7935501337493
20
-11.7295538940795
30
0
41
1
10
46.7042453563784
20
-11.7180203417008
30
0
41
1
10
47.8179695648864
20
-11.7003386369347
30
0
41
1
10
49.1833107639412
20
-11.6970727415762
30
0
41
1
10
50.1953552864798
20
-11.7057124020261
30
0
41
1
10
50.7293793656793
20
-11.7119752627067
30
0
41
1
10
50.7330742488976
20
-11.7120186757677
30
0
0
SPLINE
5
FF
100
AcDbEntity
8
1
62
256
6
ByLayer
370
18
48
1
60
0
100
AcDbSpline
70
4
71
3
72
9
73
5
40
0
40
0
40
0
40
0
40
0.0622907657389423
40
1
40
1
40
1
40
1
41
1
10
52.4399054136658
20
-11.732782449315
30
0
41
1
10
52.4577874879396
20
-11.7329533357559
30
0
41
1
10
52.7447487741869
20
-11.7356439051104
30
0
41
1
10
53.0298681697051
20
-11.737444250524
30
0
41
1
10
53.2959412573385
20
-11.7388476602708
30
0
0
SPLINE
5
100
100
AcDbEntity
8
1
62
256
6
ByLayer
370
18
48
1
60
0
100
AcDbSpline
70
4
71
3
72
16
73
12
40
0
40
0
40
0
40
0
40
0.249999999999984
40
0.249999999999984
40
0.499999999999969
40
0.499999999999969
40
0.624999999999971
40
0.624999999999971
40
0.749999999999973
40
0.749999999999973
40
1
40
1
40
1
40
1
41
1
10
27.0453632757956
20
7.09763226528165
30
0
41
1
10
27.1762847655405
20
7.05907524892956
30
0
41
1
10
27.3111733661685
20
7.01800083009448
30
0
41
1
10
27.5909558193793
20
6.93127824175662
30
0
41
1
10
27.7331941696797
20
6.88645851748245
30
0
41
1
10
27.9496315759587
20
6.81841814041422
30
0
41
1
10
28.0223614470905
20
6.7955828369922
30
0
41
1
10
28.1691756061543
20
6.74977545131119
30
0
41
1
10
28.2435912590766
20
6.72670224945693
30
0
41
1
10
28.4666975394327
20
6.65831215039032
30
0
41
1
10
28.6142140462601
20
6.61415983985572
30
0
41
1
10
28.7605151266994
20
6.57211012520716
30
0
0
SPLINE
5
101
100
AcDbEntity
8
1
62
256
6
ByLayer
370
18
48
1
60
0
100
AcDbSpline
70
4
71
3
72
14
73
10
40
0
40
0
40
0
40
0
40
0.375446300171482
40
0.375446300171482
40
0.750892600342964
40
0.750892600342964
40
0.938615750428705
40
0.938615750428705
40
1
40
1
40
1
40
1
41
1
10
85.3290800857939
20
10.0004073104671
30
0
41
1
10
85.1826208094402
20
9.63961460511345
30
0
41
1
10
85.0294102592967
20
9.28868015240499
30
0
41
1
10
84.7118726159645
20
8.60525497933284
30
0
41
1
10
84.5473898771694
20
8.27280453920088
30
0
41
1
10
84.2965898210948
20
7.78716533458461
30
0
41
1
10
84.2127999076289
20
7.62833275506205
30
0
41
1
10
84.1039091441285
20
7.42401405038072
30
0
41
1
10
84.0772278490375
20
7.37412102769753
30
0
41
1
10
84.0507417720741
20
7.32467606719149
30
0
0
SPLINE
5
102
100
AcDbEntity
8
1
62
256
6
ByLayer
370
18
48
1
60
0
100
AcDbSpline
70
4
71
3
72
8
73
4
40
0
40
0
40
0
40
0
40
1
40
1
40
1
40
1
41
1
10
96.0244332292631
20
12.4090519755869
30
0
41
1
10
95.7832974855369
20
12.3107545410732
30
0
41
1
10
95.541826790549
20
12.2110404593165
30
0
41
1
10
95.3
20
12.1099703127866
30
0
0
SPLINE
5
103
100
AcDbEntity
8
1
62
256
6
ByLayer
370
18
48
1
60
0
100
AcDbSpline
70
2053
71
3
72
39
73
35
40
0
40
0
40
0
40
0
40
0.0303321893067479
40
0.0624411383859058
40
0.093636119937831
40
0.124893885659364
40
0.156203440749523
40
0.187376037192062
40
0.219463628929683
40
0.249875810101776
40
0.280285473159286
40
0.312402490958778
40
0.343572318255516
40
0.37490542131028
40
0.406072255690244
40
0.437389531187864
40
0.469520326250718
40
0.499832450482636
40
0.530236354509072
40
0.562487907377921
40
0.593712002968932
40
0.625026839338946
40
0.656197111422735
40
0.687532964892297
40
0.719612201649093
40
0.749979203536883
40
0.780328385619463
40
0.812408973942179
40
0.843740068621973
40
0.874900581048774
40
0.906217342278624
40
0.937478447859648
40
0.969661923197347
40
1
40
1
40
1
40
1
41
1
10
90.26
20
-6.68631771976311
30
0
41
1
10
90.0987923165538
20
-6.68631962023392
30
0
41
1
10
89.7669338509066
20
-6.71408102429751
30
0
41
1
10
89.2886636706681
20
-6.83742795256259
30
0
41
1
10
88.84537943584
20
-7.03810374807588
30
0
41
1
10
88.4605968370298
20
-7.29923782162348
30
0
41
1
10
88.1446201223216
20
-7.60849429883103
30
0
41
1
10
87.906927902467
20
-7.95335498723287
30
0
41
1
10
87.7623284877026
20
-8.31112969518301
30
0
41
1
10
87.7144603869342
20
-8.66573354988662
30
0
41
1
10
87.7615632290975
20
-9.00479247682648
30
0
41
1
10
87.9054915506868
20
-9.31904750946433
30
0
41
1
10
88.1426903622434
20
-9.59689080094262
30
0
41
1
10
88.4579261086195
20
-9.8275104803146
30
0
41
1
10
88.8424233559231
20
-10.0100067291927
30
0
41
1
10
89.285630018646
20
-10.142831725859
30
0
41
1
10
89.7643877883343
20
-10.2220233777233
30
0
41
1
10
90.2577881662528
20
-10.2474481751429
30
0
41
1
10
90.7519439093251
20
-10.2224594070257
30
0
41
1
10
91.2315127898055
20
-10.1434978532272
30
0
41
1
10
91.6757772468827
20
-10.0107076070781
30
0
41
1
10
92.0601461410217
20
-9.82863919993704
30
0
41
1
10
92.3762204601903
20
-9.59788576651587
30
0
41
1
10
92.6137652855303
20
-9.32033129692871
30
0
41
1
10
92.7580704964028
20
-9.00586671948849
30
0
41
1
10
92.8054862631827
20
-8.66744756481143
30
0
41
1
10
92.7582275644278
20
-8.3133092187644
30
0
41
1
10
92.6141320003148
20
-7.95516642402347
30
0
41
1
10
92.3767881714828
20
-7.61015160812846
30
0
41
1
10
92.0609202907253
20
-7.30053019383249
30
0
41
1
10
91.6765754005925
20
-7.03913601934937
30
0
41
1
10
91.2325184654901
20
-6.83778062028347
30
0
41
1
10
90.7535246506709
20
-6.714110535115
30
0
41
1
10
90.421238973953
20
-6.68631581892342
30
0
41
1
10
90.26
20
-6.68631771976311
30
0
0
SPLINE
5
104
100
AcDbEntity
8
1
62
256
6
ByLayer
370
18
48
1
60
0
100
AcDbSpline
70
4
71
3
72
8
73
4
40
0
40
0
40
0
40
0
40
1
40
1
40
1
40
1
41
1
10
80.8996975560179
20
-7.24836193399287
30
0
41
1
10
81.0245478918266
20
-7.27342871078051
30
0
41
1
10
81.1493936060569
20
-7.29843798826857
30
0
41
1
10
81.274234313201
20
-7.32338904825514
30
0
0
SPLINE
5
105
100
AcDbEntity
8
1
62
256
6
ByLayer
370
18
48
1
60
0
100
AcDbSpline
70
4
71
3
72
8
73
4
40
0
40
0
40
0
40
0
40
1
40
1
40
1
40
1
41
1
10
26.8542134016771
20
7.11015543935815
30
0
41
1
10
26.91807433382
20
7.1066441690887
30
0
41
1
10
26.9817905729954
20
7.10246965354528
30
0
41
1
10
27.0453632757957
20
7.09763226528165
30
0
0
SPLINE
5
106
100
AcDbEntity
8
1
62
256
6
ByLayer
370
18
48
1
60
0
100
AcDbSpline
70
4
71
3
72
21
73
17
40
0
40
0
40
0
40
0
40
0.26697810772678
40
0.26697810772678
40
0.333722634658476
40
0.333722634658476
40
0.400467161590171
40
0.400467161590171
40
0.533956215453561
40
0.667445269316951
40
0.667445269316951
40
0.734189796248646
40
0.734189796248646
40
0.800934323180341
40
0.800934323180341
40
1
40
1
40
1
40
1
41
1
10
95.3
20
9.30740050762859
30
0
41
1
10
95.3
20
8.67195285280135
30
0
41
1
10
95.3
20
8.06101262480982
30
0
41
1
10
95.3
20
7.32697595309958
30
0
41
1
10
95.3
20
7.18167250971274
30
0
41
1
10
95.3
20
6.89413764178846
30
0
41
1
10
95.3
20
6.75173525588821
30
0
41
1
10
95.3000000000001
20
6.33512780810662
30
0
41
1
10
95.3000000000001
20
5.80382808217195
30
0
41
1
10
95.3
20
5.31965257952535
30
0
41
1
10
95.3000000000001
20
4.97456605141042
30
0
41
1
10
95.3
20
4.86224180010942
30
0
41
1
10
95.3
20
4.64530233857096
30
0
41
1
10
95.3
20
4.5410494838313
30
0
41
1
10
95.3
20
4.1422834750862
30
0
41
1
10
95.3
20
3.87979075088072
30
0
41
1
10
95.3
20
3.65421250765473
30
0
0
SPLINE
5
107
100
AcDbEntity
8
1
62
256
6
ByLayer
370
18
48
1
60
0
100
AcDbSpline
70
4
71
3
72
10
73
6
40
0
40
0
40
0
40
0
40
0.52907241721103
40
0.52907241721103
40
1
40
1
40
1
40
1
41
1
10
107.461072057465
20
4.31686130941816
30
0
41
1
10
107.464834410317
20
4.32003957500055
30
0
41
1
10
107.469081003588
20
4.32278896273837
30
0
41
1
10
107.477670990375
20
4.32647628124582
30
0
41
1
10
107.482042379216
20
4.32760319835981
30
0
41
1
10
107.486403344247
20
4.32800463573224
30
0
0
SPLINE
5
108
100
AcDbEntity
8
1
62
256
6
ByLayer
370
18
48
1
60
0
100
AcDbSpline
70
4
71
3
72
16
73
12
40
0
40
0
40
0
40
0
40
0.270413640221488
40
0.270413640221488
40
0.405620460332228
40
0.405620460332228
40
0.540827280442968
40
0.540827280442968
40
0.811240920664449
40
0.811240920664449
40
1
40
1
40
1
40
1
41
1
10
96.0244332292631
20
-12.2470835293385
30
0
41
1
10
96.9439820708417
20
-12.3311288150944
30
0
41
1
10
97.8622876580521
20
-12.3929962586132
30
0
41
1
10
99.2376421326034
20
-12.452881375606
30
0
41
1
10
99.695752829509
20
-12.4673387085086
30
0
41
1
10
100.611408814293
20
-12.485155598611
30
0
41
1
10
101.069058458362
20
-12.4884919228281
30
0
41
1
10
102.442946817725
20
-12.4818981955442
30
0
41
1
10
103.359279413638
20
-12.4554588956901
30
0
41
1
10
104.915667405503
20
-12.3728620880957
30
0
41
1
10
105.555425543096
20
-12.3279353220168
30
0
41
1
10
106.196093351609
20
-12.2723301134932
30
0
0
SPLINE
5
109
100
AcDbEntity
8
1
62
256
6
ByLayer
370
18
48
1
60
0
100
AcDbSpline
70
4
71
3
72
8
73
4
40
0
40
0
40
0
40
0
40
1
40
1
40
1
40
1
41
1
10
106.845279374674
20
-12.212376248878
30
0
41
1
10
106.906212756048
20
-12.2064118931423
30
0
41
1
10
106.967157270951
20
-12.2003520564302
30
0
41
1
10
107.028113742084
20
-12.1941969908282
30
0
0
SPLINE
5
10A
100
AcDbEntity
8
1
62
256
6
ByLayer
370
18
48
1
60
0
100
AcDbSpline
70
4
71
3
72
14
73
10
40
0
40
0
40
0
40
0
40
0.25
40
0.25
40
0.5
40
0.5
40
0.75
40
0.75
40
1
40
1
40
1
40
1
41
1
10
83.4475477778582
20
10.348681580902
30
0
41
1
10
83.5710771941715
20
10.3676385753238
30
0
41
1
10
83.6914196553423
20
10.3907211190933
30
0
41
1
10
83.924235480848
20
10.4440872112274
30
0
41
1
10
84.0370026283782
20
10.4744182610308
30
0
41
1
10
84.2552259494031
20
10.5418638430251
30
0
41
1
10
84.3613905926453
20
10.5792894516853
30
0
41
1
10
84.5613209470874
20
10.6586324052992
30
0
41
1
10
84.6553611840661
20
10.700558917552
30
0
41
1
10
84.7436830437493
20
10.7443225927429
30
0
0
SPLINE
5
10B
100
AcDbEntity
8
1
62
256
6
ByLayer
370
18
48
1
60
0
100
AcDbSpline
70
4
71
3
72
82
73
78
40
0
40
0
40
0
40
0
40
0.0625000000000041
40
0.0625000000000041
40
0.125000000000008
40
0.125000000000008
40
0.187500000000012
40
0.187500000000012
40
0.218750000000014
40
0.218750000000014
40
0.250000000000016
40
0.250000000000016
40
0.265625000000017
40
0.265625000000017
40
0.281250000000017
40
0.281250000000017
40
0.312500000000019
40
0.312500000000019
40
0.34375000000002
40
0.34375000000002
40
0.35156250000002
40
0.35156250000002
40
0.359375000000021
40
0.359375000000021
40
0.375000000000022
40
0.375000000000022
40
0.382812500000022
40
0.382812500000022
40
0.390625000000022
40
0.390625000000022
40
0.406250000000021
40
0.406250000000021
40
0.421875000000021
40
0.421875000000021
40
0.43750000000002
40
0.43750000000002
40
0.453125000000019
40
0.453125000000019
40
0.460937500000019
40
0.460937500000019
40
0.468750000000019
40
0.468750000000019
40
0.500000000000018
40
0.500000000000018
40
0.507812500000018
40
0.507812500000018
40
0.515625000000017
40
0.515625000000017
40
0.531250000000017
40
0.531250000000017
40
0.546875000000017
40
0.546875000000017
40
0.562500000000017
40
0.562500000000017
40
0.593750000000017
40
0.593750000000017
40
0.609375000000017
40
0.609375000000017
40
0.625000000000016
40
0.625000000000016
40
0.656250000000015
40
0.656250000000015
40
0.671875000000015
40
0.671875000000015
40
0.687500000000015
40
0.687500000000015
40
0.718750000000014
40
0.718750000000014
40
0.750000000000013
40
0.750000000000013
40
0.81250000000001
40
0.81250000000001
40
0.875000000000006
40
0.875000000000006
40
0.937500000000003
40
0.937500000000003
40
1
40
1
40
1
40
1
41
1
10
22.2417282462436
20
7.437691195214
30
0
41
1
10
21.4971255377957
20
7.55528720844003
30
0
41
1
10
20.7765077975047
20
7.68153197501243
30
0
41
1
10
19.3590109624325
20
7.94198951788485
30
0
41
1
10
18.6622946451874
20
8.07617776066195
30
0
41
1
10
17.2724360632395
20
8.33043136576143
30
0
41
1
10
16.5793758195498
20
8.45075432799629
30
0
41
1
10
15.5273956484593
20
8.59252002351289
30
0
41
1
10
15.1745998432034
20
8.63316930820349
30
0
41
1
10
14.4645328116575
20
8.69382282592949
30
0
41
1
10
14.1070440171544
20
8.71389966461953
30
0
41
1
10
13.5658388949209
20
8.72127383149709
30
0
41
1
10
13.3846106697704
20
8.71991790612034
30
0
41
1
10
13.0203237733382
20
8.70797225296303
30
0
41
1
10
12.8371680853828
20
8.69735121161168
30
0
41
1
10
12.2893455173365
20
8.64925348194575
30
0
41
1
10
11.9248931074854
20
8.59569996547575
30
0
41
1
10
11.2010906958299
20
8.42970205644534
30
0
41
1
10
10.8416668440884
20
8.31746703861083
30
0
41
1
10
10.399869310463
20
8.12565505097282
30
0
41
1
10
10.3119983083839
20
8.08470921447571
30
0
41
1
10
10.1392071124392
20
7.99819965381542
30
0
41
1
10
10.054044081885
20
7.95253427310112
30
0
41
1
10
9.80255786748683
20
7.80796726142694
30
0
41
1
10
9.64022241009869
20
7.70151401451142
30
0
41
1
10
9.40614722446361
20
7.52509575094246
30
0
41
1
10
9.32969688846472
20
7.46349573449797
30
0
41
1
10
9.18023958453722
20
7.33436742491696
30
0
41
1
10
9.10698049634249
20
7.26656915942866
30
0
41
1
10
8.89570168140438
20
7.05659515311572
30
0
41
1
10
8.7655900676769
20
6.90750474907591
30
0
41
1
10
8.52795391299222
20
6.59092997173869
30
0
41
1
10
8.42041849198938
20
6.42345403329682
30
0
41
1
10
8.22972497555563
20
6.06930154464285
30
0
41
1
10
8.14633051121859
20
5.88128154544006
30
0
41
1
10
8.01090198240004
20
5.49874043391372
30
0
41
1
10
7.95795612239385
20
5.30293810380914
30
0
41
1
10
7.90031922896066
20
5.00268259190287
30
0
41
1
10
7.88474641445458
20
4.90150145981042
30
0
41
1
10
7.86092856618933
20
4.6969410253094
30
0
41
1
10
7.85267303288694
20
4.593146799583
30
0
41
1
10
7.83020007540068
20
4.07431899729013
30
0
41
1
10
7.87109534162414
20
3.66167291484811
30
0
41
1
10
7.98756882415091
20
3.14796573265437
30
0
41
1
10
8.01416361532677
20
3.04548320950084
30
0
41
1
10
8.07304780551988
20
2.84324517091341
30
0
41
1
10
8.1054064520182
20
2.74316698025396
30
0
41
1
10
8.2107492898491
20
2.44585962594732
30
0
41
1
10
8.29197959876001
20
2.25155066438626
30
0
41
1
10
8.47451468043187
20
1.86990447237699
30
0
41
1
10
8.57644849969427
20
1.68163877615535
30
0
41
1
10
8.79479559581205
20
1.31813102110371
30
0
41
1
10
8.91131909005171
20
1.14239111511043
30
0
41
1
10
9.27971977687017
20
0.630787246378048
30
0
41
1
10
9.55031063194591
20
0.310450348302851
30
0
41
1
10
9.98437532703016
20
-0.145879858428941
30
0
41
1
10
10.1331044965787
20
-0.293158406233772
30
0
41
1
10
10.4339560250793
20
-0.576440265778643
30
0
41
1
10
10.586572752238
20
-0.712962837695898
30
0
41
1
10
11.0493835489592
20
-1.1094834420021
30
0
41
1
10
11.364458948746
20
-1.35652609210246
30
0
41
1
10
11.8422811016681
20
-1.7081248093412
30
0
41
1
10
12.0024454401399
20
-1.82213748352376
30
0
41
1
10
12.3240114857444
20
-2.04469659694144
30
0
41
1
10
12.4854668814645
20
-2.15326172472734
30
0
41
1
10
12.9664667799464
20
-2.46900735483519
30
0
41
1
10
13.2842598348369
20
-2.66748220778987
30
0
41
1
10
13.91380776186
20
-3.04752510094076
30
0
41
1
10
14.2255781782699
20
-3.2290573979889
30
0
41
1
10
15.1524543641756
20
-3.75547963513193
30
0
41
1
10
15.7590961529226
20
-4.08260663419412
30
0
41
1
10
16.9559855576092
20
-4.71250279240337
30
0
41
1
10
17.5463330751704
20
-5.01501340688648
30
0
41
1
10
18.7171235606652
20
-5.60749339470496
30
0
41
1
10
19.2967888320784
20
-5.89695263790907
30
0
41
1
10
20.4491706313914
20
-6.46884172230469
30
0
41
1
10
21.022092217773
20
-6.7513264786167
30
0
41
1
10
21.5929695042593
20
-7.03177627920545
30
0
0
SPLINE
5
10C
100
AcDbEntity
8
1
62
256
6
ByLayer
370
18
48
1
60
0
100
AcDbSpline
70
4
71
3
72
16
73
12
40
0
40
0
40
0
40
0
40
0.25
40
0.25
40
0.375
40
0.375
40
0.5
40
0.5
40
0.75
40
0.75
40
1
40
1
40
1
40
1
41
1
10
96.0244332292631
20
12.4090519755869
30
0
41
1
10
96.9619391496784
20
12.4553741084151
30
0
41
1
10
97.8984822437639
20
12.4783772911355
30
0
41
1
10
99.3014827861593
20
12.4785642110263
30
0
41
1
10
99.7686891660292
20
12.472879823469
30
0
41
1
10
100.702539152992
20
12.4499366515166
30
0
41
1
10
101.169044841998
20
12.4326368191352
30
0
41
1
10
102.569669885583
20
12.363745100298
30
0
41
1
10
103.504054827878
20
12.2951276347456
30
0
41
1
10
105.373899815783
20
12.1124780646721
30
0
41
1
10
106.308618371891
20
11.9978692100902
30
0
41
1
10
107.24604575122
20
11.861377305021
30
0
0
SPLINE
5
10D
100
AcDbEntity
8
1
62
256
6
ByLayer
370
13
48
1
60
0
100
AcDbSpline
70
4
71
3
72
14
73
10
40
0
40
0
40
0
40
0
40
0.25
40
0.25
40
0.5
40
0.5
40
0.75
40
0.75
40
1
40
1
40
1
40
1
41
1
10
109.596740024974
20
1.21445073010199
30
0
41
1
10
109.399516055914
20
0.964115688576243
30
0
41
1
10
109.210488489442
20
0.696845804315416
30
0
41
1
10
108.861376523711
20
0.141209119691041
30
0
41
1
10
108.70137325718
20
-0.147074756765733
30
0
41
1
10
108.42060742746
20
-0.728369968493098
30
0
41
1
10
108.299896272317
20
-1.02127371222409
30
0
41
1
10
108.103492553697
20
-1.59489000582551
30
0
41
1
10
108.027802232535
20
-1.87551119324886
30
0
41
1
10
107.974821159543
20
-2.1428746766193
30
0
0
SPLINE
5
10E
100
AcDbEntity
8
1
62
256
6
ByLayer
370
18
48
1
60
0
100
AcDbSpline
70
4
71
3
72
32
73
28
40
0
40
0
40
0
40
0
40
0.125000000000001
40
0.125000000000001
40
0.187500000000003
40
0.187500000000003
40
0.250000000000005
40
0.250000000000005
40
0.312500000000007
40
0.312500000000007
40
0.375000000000009
40
0.375000000000009
40
0.500000000000013
40
0.500000000000013
40
0.562500000000015
40
0.562500000000015
40
0.625000000000017
40
0.625000000000017
40
0.687500000000019
40
0.687500000000019
40
0.750000000000021
40
0.750000000000021
40
0.875000000000011
40
0.875000000000011
40
0.937500000000005
40
0.937500000000005
40
1
40
1
40
1
40
1
41
1
10
85.0000000000001
20
-5.07798300973317
30
0
41
1
10
85
20
-5.28662875351756
30
0
41
1
10
84.9741530219067
20
-5.48846241203341
30
0
41
1
10
84.8978223311767
20
-5.78165653227825
30
0
41
1
10
84.8659335866309
20
-5.87808816526527
30
0
41
1
10
84.7895126540475
20
-6.06642952934067
30
0
41
1
10
84.7455146513418
20
-6.15714446449701
30
0
41
1
10
84.6463497714132
20
-6.33209773255626
30
0
41
1
10
84.5911817355163
20
-6.4163349357284
30
0
41
1
10
84.4696312600024
20
-6.5785355674264
30
0
41
1
10
84.4028677064774
20
-6.65688315458931
30
0
41
1
10
84.1877567457543
20
-6.87972691677459
30
0
41
1
10
84.026898367062
20
-7.01042278608463
30
0
41
1
10
83.759866708731
20
-7.18190936383968
30
0
41
1
10
83.6659248020784
20
-7.23521942768915
30
0
41
1
10
83.4720341185957
20
-7.33193613661851
30
0
41
1
10
83.3724689486015
20
-7.37524475965358
30
0
41
1
10
83.1682111413115
20
-7.45225027730498
30
0
41
1
10
83.0635182814227
20
-7.4859462007569
30
0
41
1
10
82.8489175008738
20
-7.54378927768619
30
0
41
1
10
82.7382912136497
20
-7.56804580039071
30
0
41
1
10
82.4038693123583
20
-7.62505701811369
30
0
41
1
10
82.1789929331196
20
-7.64236451597182
30
0
41
1
10
81.8388215440091
20
-7.63805470993375
30
0
41
1
10
81.7244075834394
20
-7.63144857156283
30
0
41
1
10
81.4976087398632
20
-7.60783301608527
30
0
41
1
10
81.3853503307072
20
-7.59089888235678
30
0
41
1
10
81.274234313201
20
-7.568767854897
30
0
0
SPLINE
5
10F
100
AcDbEntity
8
1
62
256
6
ByLayer
370
18
48
1
60
0
100
AcDbSpline
70
4
71
3
72
12
73
8
40
0
40
0
40
0
40
0
40
0.5
40
0.5
40
0.75
40
0.75
40
1
40
1
40
1
40
1
41
1
10
28.5
20
7.17599178288523
30
0
41
1
10
28.259950616828
20
7.21345059930988
30
0
41
1
10
28.0175585459255
20
7.22475385085008
30
0
41
1
10
27.6505482026054
20
7.20490845107909
30
0
41
1
10
27.5267640452418
20
7.19190701971746
30
0
41
1
10
27.283087266485
20
7.15369010854937
30
0
41
1
10
27.1632500780399
20
7.1285990401737
30
0
41
1
10
27.0453632757957
20
7.09763226528165
30
0
0
SPLINE
5
110
100
AcDbEntity
8
1
62
256
6
ByLayer
370
18
48
1
60
0
100
AcDbSpline
70
4
71
3
72
12
73
8
40
0
40
0
40
0
40
0
40
0.5
40
0.5
40
0.75
40
0.75
40
1
40
1
40
1
40
1
41
1
10
84.7436830437493
20
-10.7443225927429
30
0
41
1
10
86.4858921968722
20
-11.07273736522
30
0
41
1
10
88.2267910048683
20
-11.3501957114678
30
0
41
1
10
90.8420027199961
20
-11.6849018446797
30
0
41
1
10
91.7146285208595
20
-11.7828845652998
30
0
41
1
10
93.4579163543182
20
-11.9509818336449
30
0
41
1
10
94.329059471433
20
-12.0211880328394
30
0
41
1
10
95.2
20
-12.0775748361718
30
0
0
SPLINE
5
111
100
AcDbEntity
8
1
62
256
6
ByLayer
370
18
48
1
60
0
100
AcDbSpline
70
4
71
3
72
16
73
12
40
0
40
0
40
0
40
0
40
0.24999999999997
40
0.24999999999997
40
0.374999999999975
40
0.374999999999975
40
0.49999999999998
40
0.49999999999998
40
0.74999999999999
40
0.74999999999999
40
1
40
1
40
1
40
1
41
1
10
78.5290299345556
20
8.39741175219575
30
0
41
1
10
78.684671512875
20
8.3457632798048
30
0
41
1
10
78.844891407837
20
8.30489619932129
30
0
41
1
10
79.0920327568048
20
8.26038296713247
30
0
41
1
10
79.1755547147723
20
8.24835414525748
30
0
41
1
10
79.3449554282623
20
8.23017289650113
30
0
41
1
10
79.431000407218
20
8.22404111217486
30
0
41
1
10
79.688446607082
20
8.21503944733846
30
0
41
1
10
79.8613370478763
20
8.22148057443596
30
0
41
1
10
80.2010542966295
20
8.25865611936615
30
0
41
1
10
80.3686611474524
20
8.28948675031234
30
0
41
1
10
80.5297063736147
20
8.3310333385422
30
0
0
SPLINE
5
112
100
AcDbEntity
8
1
62
256
6
ByLayer
370
18
48
1
60
0
100
AcDbSpline
70
4
71
3
72
8
73
4
40
0
40
0
40
0
40
0
40
1
40
1
40
1
40
1
41
1
10
22.2417282462436
20
-8.15245093669918
30
0
41
1
10
22.2701582072873
20
-8.17394789801756
30
0
41
1
10
22.2997695002288
20
-8.19398788344554
30
0
41
1
10
22.3305885824537
20
-8.21257143536062
30
0
0
SPLINE
5
113
100
AcDbEntity
8
1
62
256
6
ByLayer
370
18
48
1
60
0
100
AcDbSpline
70
4
71
3
72
8
73
4
40
0
40
0
40
0
40
0
40
1
40
1
40
1
40
1
41
1
10
100.717812335152
20
1.41510485849514
30
0
41
1
10
100.759006055566
20
1.41308237982995
30
0
41
1
10
100.800199756194
20
1.41117400971544
30
0
41
1
10
100.84139343875
20
1.40937951801402
30
0
0
SPLINE
5
114
100
AcDbEntity
8
1
62
256
6
ByLayer
370
18
48
1
60
0
100
AcDbSpline
70
4
71
3
72
36
73
32
40
0
40
0
40
0
40
0
40
0.125000000000001
40
0.125000000000001
40
0.187500000000001
40
0.187500000000001
40
0.218750000000001
40
0.218750000000001
40
0.25
40
0.25
40
0.28125
40
0.28125
40
0.312499999999999
40
0.312499999999999
40
0.374999999999999
40
0.374999999999999
40
0.4375
40
0.4375
40
0.5
40
0.5
40
0.625000000000001
40
0.625000000000001
40
0.687500000000001
40
0.687500000000001
40
0.71875
40
0.71875
40
0.75
40
0.75
40
0.875
40
0.875
40
1
40
1
40
1
40
1
41
1
10
83.447547777858
20
-10.348681580902
30
0
41
1
10
81.1694563942734
20
-9.90827890338304
30
0
41
1
10
78.8946562794104
20
-9.39744921968853
30
0
41
1
10
75.4809053177573
20
-8.53439867581875
30
0
41
1
10
74.3440216382756
20
-8.23101868117359
30
0
41
1
10
72.6407646641438
20
-7.7557855024684
30
0
41
1
10
72.0732573518669
20
-7.59398902934021
30
0
41
1
10
70.9385212344693
20
-7.26409165371595
30
0
41
1
10
70.371419379165
20
-7.09569108257134
30
0
41
1
10
69.2360164348939
20
-6.75600429716241
30
0
41
1
10
68.6681632173108
20
-6.58372334269927
30
0
41
1
10
67.5327269935172
20
-6.23296408357879
30
0
41
1
10
66.9650383716282
20
-6.05472579301474
30
0
41
1
10
65.2618056265162
20
-5.51200223060255
30
0
41
1
10
64.1260967307846
20
-5.13949832951266
30
0
41
1
10
61.852835195351
20
-4.37634521702446
30
0
41
1
10
60.7143318556451
20
-3.98544424335725
30
0
41
1
10
58.4408029847918
20
-3.19307947727376
30
0
41
1
10
57.3052122457266
20
-2.79145074961744
30
0
41
1
10
53.8994543388777
20
-1.57711561226682
30
0
41
1
10
51.6309930592589
20
-0.753087826803153
30
0
41
1
10
48.2249772868507
20
0.487088358569167
30
0
41
1
10
47.0890218383166
20
0.900998274390474
30
0
41
1
10
45.3828984742685
20
1.5191169654145
30
0
41
1
10
44.8136877794434
20
1.7247472802097
30
0
41
1
10
43.6763782030275
20
2.1336970323201
30
0
41
1
10
43.1080384410325
20
2.33710346390532
30
0
41
1
10
40.2673762915143
20
3.34737158797975
30
0
41
1
10
37.997817246416
20
4.13313982416679
30
0
41
1
10
33.4596774770891
20
5.64680408767643
30
0
41
1
10
31.1909642751406
20
6.37410209401273
30
0
41
1
10
28.9161688566035
20
7.05527464804439
30
0
0
SPLINE
5
115
100
AcDbEntity
8
1
62
256
6
ByLayer
370
18
48
1
60
0
100
AcDbSpline
70
4
71
2
72
9
73
6
40
0
40
0
40
0
40
0.25
40
0.5
40
0.75
40
1
40
1
40
1
41
1
10
100.841392898096
20
1.40938560289848
30
0
41
1
10
100.971325393961
20
0.7723671603421
30
0
41
1
10
101.283149796807
20
-0.512630920475516
30
0
41
1
10
101.642335919322
20
-1.78948858067625
30
0
41
1
10
102.046186036656
20
-3.0485514265925
30
0
41
1
10
102.26745533556
20
-3.65979784218103
30
0
0
SPLINE
5
116
100
AcDbEntity
8
1
62
256
6
ByLayer
370
18
48
1
60
0
100
AcDbSpline
70
4
71
3
72
8
73
4
40
0
40
0
40
0
40
0
40
1
40
1
40
1
40
1
41
1
10
96.0244332292631
20
-12.4090519755869
30
0
41
1
10
96.8986564903203
20
-12.4522473145585
30
0
41
1
10
97.7720425216586
20
-12.4751655615606
30
0
41
1
10
98.6443913876332
20
-12.478163802938
30
0
0
SPLINE
5
117
100
AcDbEntity
8
1
62
256
6
ByLayer
370
18
48
1
60
0
100
AcDbSpline
70
4
71
3
72
23
73
19
40
0
40
0
40
0
40
0
40
0.0235851114049583
40
0.0471016657119587
40
0.0705880352511804
40
0.0940827402495888
40
0.117624260017098
40
0.141250845130896
40
0.211655211817796
40
0.281576778419454
40
0.352111423422186
40
0.421954333391232
40
0.561849238280846
40
0.701408268738429
40
0.840456347135951
40
0.909839611471016
40
0.979630800483126
40
1
40
1
40
1
40
1
41
1
10
95.2000026093398
20
-11.7737176861975
30
0
41
1
10
95.2001945593684
20
-11.769170705494
30
0
41
1
10
95.2005779014659
20
-11.7600899612303
30
0
41
1
10
95.2036559202577
20
-11.7462640017357
30
0
41
1
10
95.2085687180896
20
-11.7323276867275
30
0
41
1
10
95.2154946736755
20
-11.7182669234949
30
0
41
1
10
95.2243848703631
20
-11.7040882945247
30
0
41
1
10
95.2424083347839
20
-11.6803947957674
30
0
41
1
10
95.2762368709666
20
-11.6471346050255
30
0
41
1
10
95.3364678810833
20
-11.604870782541
30
0
41
1
10
95.4121273326851
20
-11.5640066601382
30
0
41
1
10
95.5327464961301
20
-11.5126036949209
30
0
41
1
10
95.7180617359611
20
-11.4563670317957
30
0
41
1
10
95.9831605187186
20
-11.4100496182304
30
0
41
1
10
96.2252574484504
20
-11.3948404446133
30
0
41
1
10
96.4190003419711
20
-11.3981051226616
30
0
41
1
10
96.5285022495038
20
-11.4056408587433
30
0
41
1
10
96.588638562069
20
-11.4120822003802
30
0
41
1
10
96.602224667551
20
-11.4135374400381
30
0
0
SPLINE
5
118
100
AcDbEntity
8
1
62
256
6
ByLayer
370
13
48
1
60
0
100
AcDbSpline
70
4
71
3
72
8
73
4
40
0
40
0
40
0
40
0
40
1
40
1
40
1
40
1
41
1
10
109.596740024974
20
1.21445073010196
30
0
41
1
10
109.604322019859
20
1.20906971570838
30
0
41
1
10
109.611925100046
20
1.20371512042578
30
0
41
1
10
109.619548719986
20
1.19838666657719
30
0
0
SPLINE
5
119
100
AcDbEntity
8
1
62
256
6
ByLayer
370
18
48
1
60
0
100
AcDbSpline
70
4
71
3
72
8
73
4
40
0
40
0
40
0
40
0
40
1
40
1
40
1
40
1
41
1
10
108.267258148917
20
8.75528579079543
30
0
41
1
10
107.932750303956
20
9.78420346087862
30
0
41
1
10
107.592427731167
20
10.8194781330148
30
0
41
1
10
107.24604575122
20
11.861377305021
30
0
0
SPLINE
5
11A
100
AcDbEntity
8
1
62
256
6
ByLayer
370
18
48
1
60
0
100
AcDbSpline
70
4
71
3
72
12
73
8
40
0
40
0
40
0
40
0
40
0.5
40
0.5
40
0.75
40
0.75
40
1
40
1
40
1
40
1
41
1
10
85.0000000000001
20
7.10396235969645
30
0
41
1
10
87.6194989666382
20
6.26757886869245
30
0
41
1
10
90.2371399552218
20
5.35688139925753
30
0
41
1
10
94.1770855153004
20
3.91544674532665
30
0
41
1
10
95.4876235332254
20
3.42465216513187
30
0
41
1
10
98.1047413528585
20
2.42874716198986
30
0
41
1
10
99.4114342265451
20
1.92355343932135
30
0
41
1
10
100.717815439693
20
1.41511102509224
30
0
0
SPLINE
5
11B
100
AcDbEntity
8
1
62
256
6
ByLayer
370
13
48
1
60
0
100
AcDbSpline
70
4
71
3
72
8
73
4
40
0
40
0
40
0
40
0
40
1
40
1
40
1
40
1
41
1
10
107.321056870144
20
-5.44202827706394
30
0
41
1
10
107.538978299944
20
-4.34231041024907
30
0
41
1
10
107.756899729743
20
-3.24259254343417
30
0
41
1
10
107.974821159543
20
-2.1428746766193
30
0
0
SPLINE
5
11C
100
AcDbEntity
8
1
62
256
6
ByLayer
370
18
48
1
60
0
100
AcDbSpline
70
4
71
3
72
12
73
8
40
0
40
0
40
0
40
0
40
0.5
40
0.5
40
0.75
40
0.75
40
1
40
1
40
1
40
1
41
1
10
109.67300245891
20
4.66874047263377
30
0
41
1
10
109.428879128209
20
5.34415424119916
30
0
41
1
10
109.189094499748
20
6.02316135113321
30
0
41
1
10
108.836351736805
20
7.04741494873085
30
0
41
1
10
108.71988058181
20
7.38996754538491
30
0
41
1
10
108.489737814098
20
8.07651253007759
30
0
41
1
10
108.377150755562
20
8.41726548277609
30
0
41
1
10
108.267258148917
20
8.75528579079543
30
0
0
SPLINE
5
11D
100
AcDbEntity
8
1
62
256
6
ByLayer
370
18
48
1
60
0
100
AcDbSpline
70
4
71
3
72
8
73
4
40
0
40
0
40
0
40
0
40
1
40
1
40
1
40
1
41
1
10
85
20
7.06607717748912
30
0
41
1
10
83.5094696312164
20
7.51371642752835
30
0
41
1
10
82.0200478894695
20
7.93650822410052
30
0
41
1
10
80.5297063736147
20
8.3310333385422
30
0
0
SPLINE
5
11E
100
AcDbEntity
8
1
62
256
6
ByLayer
370
18
48
1
60
0
100
AcDbSpline
70
4
71
3
72
14
73
10
40
0
40
0
40
0
40
0
40
0.25
40
0.25
40
0.5
40
0.5
40
0.75
40
0.75
40
1
40
1
40
1
40
1
41
1
10
83.4475477778581
20
-10.348681580902
30
0
41
1
10
83.5710771941714
20
-10.3676385753238
30
0
41
1
10
83.6914196553421
20
-10.3907211190933
30
0
41
1
10
83.9242354808479
20
-10.4440872112274
30
0
41
1
10
84.037002628378
20
-10.4744182610308
30
0
41
1
10
84.255225949403
20
-10.5418638430251
30
0
41
1
10
84.3613905926452
20
-10.5792894516853
30
0
41
1
10
84.5613209470874
20
-10.6586324052992
30
0
41
1
10
84.6553611840661
20
-10.700558917552
30
0
41
1
10
84.7436830437493
20
-10.7443225927429
30
0
0
SPLINE
5
11F
100
AcDbEntity
8
1
62
256
6
ByLayer
370
18
48
1
60
0
100
AcDbSpline
70
4
71
1
72
4
73
2
40
0
40
0
40
1
40
1
41
1
10
28.9161688566035
20
7.05527464804439
30
0
41
1
10
28.7605151243047
20
6.57211012589548
30
0
0
SPLINE
5
120
100
AcDbEntity
8
1
62
256
6
ByLayer
370
13
48
1
60
0
100
AcDbSpline
70
4
71
3
72
10
73
6
40
0
40
0
40
0
40
0
40
0.0018148869440888
40
0.0018148869440888
40
1
40
1
40
1
40
1
41
1
10
109.664789232047
20
1.23680980563466
30
0
41
1
10
109.664775396976
20
1.23681930190205
30
0
41
1
10
109.66476156184
20
1.23682879808555
30
0
41
1
10
109.657138494009
20
1.242061272972
30
0
41
1
10
109.64954886428
20
1.24730946260536
30
0
41
1
10
109.641979369116
20
1.25258314660269
30
0
0
SPLINE
5
121
100
AcDbEntity
8
1
62
256
6
ByLayer
370
18
48
1
60
0
100
AcDbSpline
70
4
71
3
72
8
73
4
40
0
40
0
40
0
40
0
40
1
40
1
40
1
40
1
41
1
10
83.5043368998793
20
9.88754865251028
30
0
41
1
10
83.4851050447614
20
10.0422705938498
30
0
41
1
10
83.4661512666791
20
10.1959755394664
30
0
41
1
10
83.4475477778581
20
10.348681580902
30
0
0
SPLINE
5
122
100
AcDbEntity
8
1
62
256
6
ByLayer
370
18
48
1
60
0
100
AcDbSpline
70
4
71
3
72
8
73
4
40
0
40
0
40
0
40
0
40
1
40
1
40
1
40
1
41
1
10
31.699999999832
20
-9.58480794382092
30
0
41
1
10
31.699999999821
20
-9.77866236182513
30
0
41
1
10
31.6999999998099
20
-9.97259144072976
30
0
41
1
10
31.6999999997988
20
-10.1665951067531
30
0
0
SPLINE
5
123
100
AcDbEntity
8
1
62
256
6
ByLayer
370
18
48
1
60
0
100
AcDbSpline
70
4
71
3
72
8
73
4
40
0
40
0
40
0
40
0
40
1
40
1
40
1
40
1
41
1
10
102.26961605937
20
-3.72861184368855
30
0
41
1
10
102.230113354658
20
-3.7316996745387
30
0
41
1
10
102.190614891779
20
-3.73468801486356
30
0
41
1
10
102.151120674442
20
-3.73757677944073
30
0
0
SPLINE
5
124
100
AcDbEntity
8
1
62
256
6
ByLayer
370
18
48
1
60
0
100
AcDbSpline
70
4
71
3
72
24
73
20
40
0
40
0
40
0
40
0
40
0.232537935018187
40
0.232537935018187
40
0.348806902527278
40
0.348806902527278
40
0.46507587003637
40
0.46507587003637
40
0.581344837545462
40
0.581344837545462
40
0.697613805054554
40
0.697613805054554
40
0.813882772563646
40
0.813882772563646
40
0.872017256318191
40
0.872017256318191
40
0.930151740072737
40
0.930151740072737
40
1
40
1
40
1
40
1
41
1
10
78.5290299350648
20
8.39741175202681
30
0
41
1
10
76.5729207075294
20
8.87493887789981
30
0
41
1
10
74.6185916418656
20
9.3089983865236
30
0
41
1
10
71.6850077658083
20
9.8866646585397
30
0
41
1
10
70.7062887523746
20
10.0669712840742
30
0
41
1
10
68.7507355797945
20
10.4012213412876
30
0
41
1
10
67.7736831183685
20
10.5552489643594
30
0
41
1
10
65.8203519226149
20
10.8364787592757
30
0
41
1
10
64.8440712082438
20
10.9637102899738
30
0
41
1
10
62.8924446697807
20
11.1911906897992
30
0
41
1
10
61.9166809514947
20
11.2910036214889
30
0
41
1
10
59.9645561355771
20
11.461743671618
30
0
41
1
10
58.988196777452
20
11.5326598408587
30
0
41
1
10
57.5226015339601
20
11.6164451328003
30
0
41
1
10
57.0338895300858
20
11.640620840285
30
0
41
1
10
56.0559960780789
20
11.6814726660518
30
0
41
1
10
55.5666181789451
20
11.69815222528
30
0
41
1
10
54.4903722691044
20
11.7265915197569
30
0
41
1
10
53.9035464402319
20
11.7366965067491
30
0
41
1
10
53.3171819897765
20
11.7414392149791
30
0
0
SPLINE
5
125
100
AcDbEntity
8
1
62
256
6
ByLayer
370
18
48
1
60
0
100
AcDbSpline
70
4
71
3
72
8
73
4
40
0
40
0
40
0
40
0
40
1
40
1
40
1
40
1
41
1
10
95.1
20
4.65000000000001
30
0
41
1
10
95.1
20
4.35180800130215
30
0
41
1
10
95.1
20
4.09152649635465
30
0
41
1
10
95.1
20
3.86844263365393
30
0
0
SPLINE
5
126
100
AcDbEntity
8
1
62
256
6
ByLayer
370
18
48
1
60
0
100
AcDbSpline
70
4
71
3
72
10
73
6
40
0
40
0
40
0
40
0
40
0.879113088960256
40
0.879113088960256
40
1
40
1
40
1
40
1
41
1
10
83.6580780837866
20
9.91553425698811
30
0
41
1
10
83.5949241769522
20
9.16938888546562
30
0
41
1
10
83.4937572129701
20
8.4559054606402
30
0
41
1
10
83.3402803006379
20
7.71561087490787
30
0
41
1
10
83.3210892616795
20
7.62730714833828
30
0
41
1
10
83.3012789834904
20
7.54025594370091
30
0
0
SPLINE
5
127
100
AcDbEntity
8
1
62
256
6
ByLayer
370
18
48
1
60
0
100
AcDbSpline
70
4
71
3
72
11
73
7
40
0
40
0
40
0
40
0
40
0.272404977624999
40
0.538479610528082
40
0.798225890756859
40
1
40
1
40
1
40
1
41
1
10
103.499190324329
20
1.88289632163693
30
0
41
1
10
103.093909323231
20
1.92186471003595
30
0
41
1
10
102.292765535302
20
1.99889591112108
30
0
41
1
10
101.105453285233
20
2.11595804318259
30
0
41
1
10
100.023417974335
20
2.2248370450063
30
0
41
1
10
99.3372015309429
20
2.29517698102501
30
0
41
1
10
99.0372239939327
20
2.32624041773664
30
0
0
SPLINE
5
128
100
AcDbEntity
8
1
62
256
6
ByLayer
370
13
48
1
60
0
100
AcDbSpline
70
4
71
3
72
8
73
4
40
0
40
0
40
0
40
0
40
1
40
1
40
1
40
1
41
1
10
107.498258420731
20
4.27424767915758
30
0
41
1
10
107.498035631151
20
4.27526558727101
30
0
41
1
10
107.497812008876
20
4.27628332672188
30
0
41
1
10
107.497587554001
20
4.2773008954145
30
0
0
SPLINE
5
129
100
AcDbEntity
8
1
62
256
6
ByLayer
370
18
48
1
60
0
100
AcDbSpline
70
4
71
3
72
14
73
10
40
0
40
0
40
0
40
0
40
0.210177043298306
40
0.210177043298306
40
0.514769266856624
40
0.514769266856624
40
0.819393420998459
40
0.819393420998459
40
1
40
1
40
1
40
1
41
1
10
84.7388932451999
20
10.5393161025336
30
0
41
1
10
84.7391459973376
20
10.5536840499425
30
0
41
1
10
84.7394159525361
20
10.5680507284605
30
0
41
1
10
84.7401195839684
20
10.6032349299629
30
0
41
1
10
84.7405723317011
20
10.6240511684798
30
0
41
1
10
84.7415514578142
20
10.665681351877
30
0
41
1
10
84.742077844678
20
10.6864953266048
30
0
41
1
10
84.7429755249245
20
10.7196464186227
30
0
41
1
10
84.7433227139763
20
10.7319848238552
30
0
41
1
10
84.7436830437492
20
10.7443225927428
30
0
0
SPLINE
5
12A
100
AcDbEntity
8
1
62
256
6
ByLayer
370
18
48
1
60
0
100
AcDbSpline
70
4
71
3
72
12
73
8
40
0
40
0
40
0
40
0
40
0.415267861786262
40
0.415267861786262
40
0.707633862910282
40
0.707633862910282
40
1
40
1
40
1
40
1
41
1
10
95.2999999991968
20
-11.9730624656934
30
0
41
1
10
95.2867501276837
20
-11.9870280032129
30
0
41
1
10
95.2734967307624
20
-12.000992055911
30
0
41
1
10
95.2509064445502
20
-12.0247849002469
30
0
41
1
10
95.2415713122691
20
-12.0346144296092
30
0
41
1
10
95.2228976113449
20
-12.054272065196
30
0
41
1
10
95.2135590416147
20
-12.0641001725629
30
0
41
1
10
95.2042187681834
20
-12.0739275756057
30
0
0
SPLINE
5
12B
100
AcDbEntity
8
1
62
256
6
ByLayer
370
18
48
1
60
0
100
AcDbSpline
70
4
71
3
72
12
73
8
40
0
40
0
40
0
40
0
40
0.500000000000018
40
0.500000000000018
40
0.750000000000009
40
0.750000000000009
40
1
40
1
40
1
40
1
41
1
10
107.486403344248
20
4.32800463572892
30
0
41
1
10
107.854754832658
20
4.36191228060775
30
0
41
1
10
108.221895701392
20
4.40288956556103
30
0
41
1
10
108.769322451907
20
4.48353625231687
30
0
41
1
10
108.951243624794
20
4.51365606575473
30
0
41
1
10
109.313506300329
20
4.58312047253193
30
0
41
1
10
109.493861107555
20
4.62238737129348
30
0
41
1
10
109.67300245891
20
4.66874047263204
30
0
0
SPLINE
5
12C
100
AcDbEntity
8
1
62
256
6
ByLayer
370
18
48
1
60
0
100
AcDbSpline
70
4
71
3
72
8
73
4
40
0
40
0
40
0
40
0
40
1
40
1
40
1
40
1
41
1
10
96.3596194077713
20
-11.481329940599
30
0
41
1
10
96.37299083012
20
-11.4763283275258
30
0
41
1
10
96.3869515514936
20
-11.4715153484927
30
0
41
1
10
96.4015116318449
20
-11.4669003685608
30
0
0
SPLINE
5
12D
100
AcDbEntity
8
1
62
256
6
ByLayer
370
18
48
1
60
0
100
AcDbSpline
70
4
71
3
72
8
73
4
40
0
40
0
40
0
40
0
40
1
40
1
40
1
40
1
41
1
10
95.2042187691924
20
12.0739275741468
30
0
41
1
10
95.202812499474
20
12.0751435029308
30
0
41
1
10
95.2014062430651
20
12.0763592569561
30
0
41
1
10
95.2
20
12.0775748361718
30
0
0
SPLINE
5
12E
100
AcDbEntity
8
1
62
256
6
ByLayer
370
13
48
1
60
0
100
AcDbSpline
70
4
71
3
72
8
73
4
40
0
40
0
40
0
40
0
40
1
40
1
40
1
40
1
41
1
10
109.664789232013
20
1.23680980563705
30
0
41
1
10
110.019045209432
20
1.21183227153116
30
0
41
1
10
110.37330118685
20
1.18685473742525
30
0
41
1
10
110.727557164269
20
1.16187720331933
30
0
0
SPLINE
5
12F
100
AcDbEntity
8
1
62
256
6
ByLayer
370
18
48
1
60
0
100
AcDbSpline
70
4
71
3
72
8
73
4
40
0
40
0
40
0
40
0
40
1
40
1
40
1
40
1
41
1
10
28.5000000000001
20
-9.47159934310014
30
0
41
1
10
27.6674484441888
20
-9.20306992055464
30
0
41
1
10
26.8342714157084
20
-8.92658154367857
30
0
41
1
10
26
20
-8.64320548621828
30
0
0
SPLINE
5
130
100
AcDbEntity
8
1
62
256
6
ByLayer
370
18
48
1
60
0
100
AcDbSpline
70
4
71
3
72
8
73
4
40
0
40
0
40
0
40
0
40
1
40
1
40
1
40
1
41
1
10
85.3290800857916
20
10.0004073104695
30
0
41
1
10
85.3930269312132
20
10.157936119384
30
0
41
1
10
85.4689686575664
20
10.3072292073921
30
0
41
1
10
85.5559604680857
20
10.4490323898373
30
0
0
SPLINE
5
131
100
AcDbEntity
8
1
62
256
6
ByLayer
370
18
48
1
60
0
100
AcDbSpline
70
4
71
3
72
11
73
7
40
0
40
0
40
0
40
0
40
0.290882974815929
40
0.588323969544692
40
0.885764964273455
40
1
40
1
40
1
40
1
41
1
10
58.5058488964097
20
-0.0043122500519814
30
0
41
1
10
60.6779503797878
20
-0.760866979945291
30
0
41
1
10
65.0704242893041
20
-2.29433044860102
30
0
41
1
10
71.6814117976121
20
-4.51678183704536
30
0
41
1
10
76.9756367652054
20
-6.14491465069364
30
0
41
1
10
80.0473990211553
20
-7.01383350443899
30
0
41
1
10
80.899697555843
20
-7.24836193394472
30
0
0
SPLINE
5
132
100
AcDbEntity
8
1
62
256
6
ByLayer
370
18
48
1
60
0
100
AcDbSpline
70
4
71
3
72
8
73
4
40
0
40
0
40
0
40
0
40
1
40
1
40
1
40
1
41
1
10
22.2417282462436
20
7.437691195214
30
0
41
1
10
22.2713460939312
20
7.43301361243209
30
0
41
1
10
22.300966199943
20
7.42831245091065
30
0
41
1
10
22.3305885824537
20
7.42358777564939
30
0
0
SPLINE
5
133
100
AcDbEntity
8
1
62
256
6
ByLayer
370
18
48
1
60
0
100
AcDbSpline
70
4
71
3
72
18
73
14
40
0
40
0
40
0
40
0
40
0.249999999999997
40
0.249999999999997
40
0.374999999999997
40
0.374999999999997
40
0.499999999999998
40
0.499999999999998
40
0.624999999999999
40
0.624999999999999
40
0.749999999999999
40
0.749999999999999
40
1
40
1
40
1
40
1
41
1
10
110.727557164269
20
-1.16187720331933
30
0
41
1
10
110.683937172198
20
-1.35063300689927
30
0
41
1
10
110.63053762267
20
-1.56176418435319
30
0
41
1
10
110.536339291611
20
-1.91071911242267
30
0
41
1
10
110.50267725606
20
-2.03202204683237
30
0
41
1
10
110.432007924969
20
-2.28063523897072
30
0
41
1
10
110.39486121346
20
-2.4084569154532
30
0
41
1
10
110.31704681694
20
-2.67093039592783
30
0
41
1
10
110.276375329808
20
-2.80558957543172
30
0
41
1
10
110.191517152431
20
-3.08172686831367
30
0
41
1
10
110.147130835176
20
-3.22382026254814
30
0
41
1
10
110.010825279051
20
-3.65348266896134
30
0
41
1
10
109.915404521901
20
-3.94573147347393
30
0
41
1
10
109.815507464595
20
-4.2436929294052
30
0
0
SPLINE
5
134
100
AcDbEntity
8
1
62
256
6
ByLayer
370
18
48
1
60
0
100
AcDbSpline
70
4
71
3
72
8
73
4
40
0
40
0
40
0
40
0
40
1
40
1
40
1
40
1
41
1
10
95.2054758753101
20
11.4571807004322
30
0
41
1
10
95.2050586250728
20
11.6632087749224
30
0
41
1
10
95.2046396113495
20
11.8687930036048
30
0
41
1
10
95.2042188854155
20
12.0739274736562
30
0
0
SPLINE
5
135
100
AcDbEntity
8
1
62
256
6
ByLayer
370
18
48
1
60
0
100
AcDbSpline
70
4
71
3
72
10
73
6
40
0
40
0
40
0
40
0
40
0.5
40
0.5
40
1
40
1
40
1
40
1
41
1
10
95.2054758776866
20
11.4571807004315
30
0
41
1
10
93.5946662138685
20
11.3805984227286
30
0
41
1
10
91.9867677228747
20
11.2600334139439
30
0
41
1
10
88.7722047146485
20
10.9236433787568
30
0
41
1
10
87.1653793854213
20
10.7084929311233
30
0
41
1
10
85.5559604680878
20
10.4490323898378
30
0
0
SPLINE
5
136
100
AcDbEntity
8
1
62
256
6
ByLayer
370
18
48
1
60
0
100
AcDbSpline
70
4
71
3
72
8
73
4
40
0
40
0
40
0
40
0
40
1
40
1
40
1
40
1
41
1
10
28.5
20
7.17599178288526
30
0
41
1
10
28.6435098271403
20
7.14425734317683
30
0
41
1
10
28.782163025293
20
7.10396700635411
30
0
41
1
10
28.9161688566035
20
7.05527464804436
30
0
0
SPLINE
5
137
100
AcDbEntity
8
1
62
256
6
ByLayer
370
18
48
1
60
0
100
AcDbSpline
70
4
71
3
72
32
73
28
40
0
40
0
40
0
40
0
40
0.0625000000000009
40
0.0625000000000009
40
0.125000000000002
40
0.125000000000002
40
0.249999999999988
40
0.249999999999988
40
0.312499999999989
40
0.312499999999989
40
0.374999999999989
40
0.374999999999989
40
0.43749999999999
40
0.43749999999999
40
0.499999999999991
40
0.499999999999991
40
0.624999999999992
40
0.624999999999992
40
0.687499999999993
40
0.687499999999993
40
0.749999999999993
40
0.749999999999993
40
0.812499999999994
40
0.812499999999994
40
0.874999999999995
40
0.874999999999995
40
1
40
1
40
1
40
1
41
1
10
81.274234313201
20
-7.32338904825514
30
0
41
1
10
81.3853831533685
20
-7.34560360824841
30
0
41
1
10
81.4976669798902
20
-7.36264150576665
30
0
41
1
10
81.7245008073735
20
-7.38651515105624
30
0
41
1
10
81.8389930319512
20
-7.3932801425083
30
0
41
1
10
82.179300969528
20
-7.39812174924575
30
0
41
1
10
82.4041799402478
20
-7.38125716372267
30
0
41
1
10
82.738481289292
20
-7.32510009880221
30
0
41
1
10
82.8491532468987
20
-7.30113734752229
30
0
41
1
10
83.0637616681137
20
-7.24392088036157
30
0
41
1
10
83.1684352435176
20
-7.21055878464827
30
0
41
1
10
83.3726185317075
20
-7.13426301924034
30
0
41
1
10
83.472128428758
20
-7.09133027285844
30
0
41
1
10
83.6658815102012
20
-6.99540755573065
30
0
41
1
10
83.7598411962789
20
-6.94245993948115
30
0
41
1
10
84.0268454192127
20
-6.77207313301202
30
0
41
1
10
84.1876495015945
20
-6.64211289355461
30
0
41
1
10
84.4026769984255
20
-6.42031920245762
30
0
41
1
10
84.4694766462131
20
-6.34223663038347
30
0
41
1
10
84.5910548354044
20
-6.18054294081412
30
0
41
1
10
84.6462344375004
20
-6.09653121713075
30
0
41
1
10
84.7454205207238
20
-5.92196285277726
30
0
41
1
10
84.7894281470852
20
-5.83140737093242
30
0
41
1
10
84.8658677965656
20
-5.64330730694874
30
0
41
1
10
84.8977830125882
20
-5.54690236133291
30
0
41
1
10
84.9741486696863
20
-5.25374132477171
30
0
41
1
10
85.0000000000001
20
-5.05177532287533
30
0
41
1
10
85.0000000000001
20
-4.84283117029608
30
0
0
SPLINE
5
138
100
AcDbEntity
8
1
62
256
6
ByLayer
370
18
48
1
60
0
100
AcDbSpline
70
4
71
3
72
12
73
8
40
0
40
0
40
0
40
0
40
0.500000000000026
40
0.500000000000026
40
0.750000000000013
40
0.750000000000013
40
1
40
1
40
1
40
1
41
1
10
83.6580780835588
20
9.91553425694096
30
0
41
1
10
83.8646078916668
20
9.95828866778155
30
0
41
1
10
84.0588556947951
20
10.0342876855734
30
0
41
1
10
84.332869643074
20
10.1947959709493
30
0
41
1
10
84.4210818287889
20
10.2561340199045
30
0
41
1
10
84.5867206788213
20
10.3894427257437
30
0
41
1
10
84.6649098673554
20
10.4618249808109
30
0
41
1
10
84.7388932452051
20
10.5393161025388
30
0
0
SPLINE
5
139
100
AcDbEntity
8
1
62
256
6
ByLayer
370
18
48
1
60
0
100
AcDbSpline
70
4
71
3
72
8
73
4
40
0
40
0
40
0
40
0
40
1
40
1
40
1
40
1
41
1
10
26
20
-8.64320548621831
30
0
41
1
10
25.4262163427279
20
-8.50033835902215
30
0
41
1
10
24.851863044522
20
-8.42315118862857
30
0
41
1
10
24.2798575249099
20
-8.41315864051617
30
0
0
SPLINE
5
13A
100
AcDbEntity
8
1
62
256
6
ByLayer
370
13
48
1
60
0
100
AcDbSpline
70
4
71
3
72
20
73
16
40
0
40
0
40
0
40
0
40
0.249999999999998
40
0.249999999999998
40
0.499999999999996
40
0.499999999999996
40
0.749999999999994
40
0.749999999999994
40
0.812499999999995
40
0.812499999999995
40
0.874999999999997
40
0.874999999999997
40
0.937499999999998
40
0.937499999999998
40
1
40
1
40
1
40
1
41
1
10
109.641979369116
20
1.25258314660269
30
0
41
1
10
109.402974216105
20
1.41909856452338
30
0
41
1
10
109.171449340976
20
1.6050779105029
30
0
41
1
10
108.734223059375
20
2.01715078558144
30
0
41
1
10
108.527765084188
20
2.2434894234932
30
0
41
1
10
108.146418793349
20
2.74872049115876
30
0
41
1
10
107.976710344286
20
3.02079793207673
30
0
41
1
10
107.797597513661
20
3.39151780203062
30
0
41
1
10
107.763431324138
20
3.46720577594681
30
0
41
1
10
107.698766084972
20
3.62197306469869
30
0
41
1
10
107.668256324139
20
3.70113210770376
30
0
41
1
10
107.611839905123
20
3.86111854727181
30
0
41
1
10
107.585817214878
20
3.94216286733814
30
0
41
1
10
107.538467138922
20
4.10649585008736
30
0
41
1
10
107.517036076882
20
4.1902515216907
30
0
41
1
10
107.498258421094
20
4.27424767909298
30
0
0
SPLINE
5
13B
100
AcDbEntity
8
1
62
256
6
ByLayer
370
18
48
1
60
0
100
AcDbSpline
70
4
71
3
72
12
73
8
40
0
40
0
40
0
40
0
40
0.500000000000003
40
0.500000000000003
40
0.750000000000002
40
0.750000000000002
40
1
40
1
40
1
40
1
41
1
10
84.7436830437493
20
10.7443225927429
30
0
41
1
10
86.485352324197
20
11.0726355966341
30
0
41
1
10
88.2257121099938
20
11.3500238066971
30
0
41
1
10
90.8401109771008
20
11.6846766192074
30
0
41
1
10
91.7124127357263
20
11.782649997135
30
0
41
1
10
93.4561741716765
20
11.9508347056814
30
0
41
1
10
94.3279779008849
20
12.0211180093375
30
0
41
1
10
95.2
20
12.0775748361718
30
0
0
SPLINE
5
13C
100
AcDbEntity
8
1
62
256
6
ByLayer
370
18
48
1
60
0
100
AcDbSpline
70
4
71
3
72
30
73
26
40
0
40
0
40
0
40
0
40
0.0852513452066688
40
0.0852513452066688
40
0.150590534834764
40
0.150590534834764
40
0.215929724462859
40
0.215929724462859
40
0.281268914090954
40
0.281268914090954
40
0.346608103719049
40
0.346608103719049
40
0.411947293347144
40
0.411947293347144
40
0.477286482975239
40
0.477286482975239
40
0.60796486223143
40
0.60796486223143
40
0.673304051859525
40
0.673304051859525
40
0.73864324148762
40
0.73864324148762
40
0.86932162074381
40
0.86932162074381
40
1
40
1
40
1
40
1
41
1
10
76.3179841033054
20
-8.76001516923972
30
0
41
1
10
74.8334822402941
20
-9.07388983409743
30
0
41
1
10
73.3492591976746
20
-9.3610078581745
30
0
41
1
10
70.7254148883983
20
-9.81670790474914
30
0
41
1
10
69.5867417766174
20
-9.99706489219489
30
0
41
1
10
67.3118602235765
20
-10.3215040932776
30
0
41
1
10
66.175020276342
20
-10.4652094832566
30
0
41
1
10
63.9015430562028
20
-10.71906246492
30
0
41
1
10
62.7649696842935
20
-10.8295388759255
30
0
41
1
10
60.4908986310137
20
-11.0122069179993
30
0
41
1
10
59.3534334098899
20
-11.0851171653756
30
0
41
1
10
57.0765454761695
20
-11.1931036994749
30
0
41
1
10
55.9362635070461
20
-11.2281295089795
30
0
41
1
10
53.657490853382
20
-11.2600442573394
30
0
41
1
10
52.5191907509121
20
-11.2569900930258
30
0
41
1
10
49.1061090709304
20
-11.1904903632161
30
0
41
1
10
46.8331907602538
20
-11.0690960878537
30
0
41
1
10
43.4201339513141
20
-10.776343839902
30
0
41
1
10
42.2818225539435
20
-10.6603287065259
30
0
41
1
10
40.0028065042662
20
-10.3932398918981
30
0
41
1
10
38.8620641686175
20
-10.2421321597278
30
0
41
1
10
35.4447913139148
20
-9.74076899366162
30
0
41
1
10
33.1698868018714
20
-9.34237380852036
30
0
41
1
10
28.6189486085812
20
-8.42716594014078
30
0
41
1
10
26.3428141669229
20
-7.90966037335457
30
0
41
1
10
24.0616200231936
20
-7.3386744276788
30
0
0
SPLINE
5
13D
100
AcDbEntity
8
1
62
256
6
ByLayer
370
18
48
1
60
0
100
AcDbSpline
70
4
71
3
72
29
73
25
40
0
40
0
40
0
40
0
40
0.0213802202294289
40
0.0426297280008012
40
0.0637486745773422
40
0.0847372140456995
40
0.105595503383175
40
0.126323702526852
40
0.14692197444469
40
0.167390485208623
40
0.187729404069758
40
0.207938903535718
40
0.228019159450197
40
0.247970351074812
40
0.267792661173318
40
0.40226832761305
40
0.53270308341833
40
0.66524359926771
40
0.794932462446347
40
0.836319702355538
40
0.877516754674121
40
0.91852691814229
40
0.959353536802544
40
1
40
1
40
1
40
1
41
1
10
103.861335891241
20
-10.1085143335059
30
0
41
1
10
103.844562137593
20
-10.0763731305706
30
0
41
1
10
103.811117180157
20
-10.0122872266817
30
0
41
1
10
103.761668986111
20
-9.913934520325
30
0
41
1
10
103.712943916758
20
-9.81438402700181
30
0
41
1
10
103.664981810896
20
-9.71350340622044
30
0
41
1
10
103.617772091952
20
-9.61138901157889
30
0
41
1
10
103.571317567047
20
-9.5080759303649
30
0
41
1
10
103.525617491704
20
-9.40361494721819
30
0
41
1
10
103.480672059482
20
-9.29805208459311
30
0
41
1
10
103.436481232454
20
-9.19143406687007
30
0
41
1
10
103.393044969411
20
-9.08380667793327
30
0
41
1
10
103.350363469259
20
-8.97521584109398
30
0
41
1
10
103.308435982862
20
-8.86570488964114
30
0
41
1
10
103.187798546092
20
-8.54227012793149
30
0
41
1
10
102.999688878121
20
-7.98431802531337
30
0
41
1
10
102.761255907662
20
-7.14077001485086
30
0
41
1
10
102.551690317354
20
-6.24908362729735
30
0
41
1
10
102.411134937404
20
-5.51945538484989
30
0
41
1
10
102.323441473946
20
-4.99378551849739
30
0
41
1
10
102.275370356876
20
-4.68351378246558
30
0
41
1
10
102.230601966542
20
-4.37066988560636
30
0
41
1
10
102.188851296766
20
-4.05580333429876
30
0
41
1
10
102.163677224457
20
-3.84355365628659
30
0
41
1
10
102.151118021094
20
-3.7376634833696
30
0
0
SPLINE
5
13E
100
AcDbEntity
8
1
62
256
6
ByLayer
370
18
48
1
60
0
100
AcDbSpline
70
4
71
3
72
10
73
6
40
0
40
0
40
0
40
0
40
0.5
40
0.5
40
1
40
1
40
1
40
1
41
1
10
105.350134950544
20
0.710107446864185
30
0
41
1
10
105.299603033882
20
0.916695673916706
30
0
41
1
10
105.254264314818
20
1.12466318102602
30
0
41
1
10
105.17262396653
20
1.54299838849593
30
0
41
1
10
105.136997268805
20
1.75286069394554
30
0
41
1
10
105.105081186853
20
1.96321146641989
30
0
0
SPLINE
5
13F
100
AcDbEntity
8
1
62
256
6
ByLayer
370
18
48
1
60
0
100
AcDbSpline
70
4
71
3
72
8
73
4
40
0
40
0
40
0
40
0
40
1
40
1
40
1
40
1
41
1
10
21.5929695042566
20
-7.03177627920377
30
0
41
1
10
21.6428980255951
20
-7.05921364144308
30
0
41
1
10
21.6934957344738
20
-7.08580748001802
30
0
41
1
10
21.7447885858212
20
-7.11156355292138
30
0
0
SPLINE
5
140
100
AcDbEntity
8
1
62
256
6
ByLayer
370
18
48
1
60
0
100
AcDbSpline
70
4
71
3
72
12
73
8
40
0
40
0
40
0
40
0
40
0.5
40
0.5
40
0.75
40
0.75
40
1
40
1
40
1
40
1
41
1
10
109.67300245891
20
-4.66874047263377
30
0
41
1
10
109.428879128209
20
-5.34415424119916
30
0
41
1
10
109.189094499748
20
-6.02316135113321
30
0
41
1
10
108.836351736805
20
-7.04741494873085
30
0
41
1
10
108.71988058181
20
-7.38996754538491
30
0
41
1
10
108.489737814098
20
-8.07651253007759
30
0
41
1
10
108.377150755562
20
-8.41726548277609
30
0
41
1
10
108.267258148917
20
-8.75528579079543
30
0
0
SPLINE
5
141
100
AcDbEntity
8
1
62
256
6
ByLayer
370
18
48
1
60
0
100
AcDbSpline
70
4
71
3
72
18
73
14
40
0
40
0
40
0
40
0
40
0.250000000000016
40
0.250000000000016
40
0.375000000000015
40
0.375000000000015
40
0.500000000000015
40
0.500000000000015
40
0.750000000000014
40
0.750000000000014
40
0.875000000000007
40
0.875000000000007
40
1
40
1
40
1
40
1
41
1
10
107.382067536541
20
4.24955151241537
30
0
41
1
10
107.158668387862
20
4.05764769218621
30
0
41
1
10
106.939460314938
20
3.86554369157477
30
0
41
1
10
106.621586446407
20
3.57324454524104
30
0
41
1
10
106.517279109809
20
3.47515752060343
30
0
41
1
10
106.314664522559
20
3.28039238597606
30
0
41
1
10
106.216012403461
20
3.18343757894144
30
0
41
1
10
105.928077791931
20
2.8940688203121
30
0
41
1
10
105.746976483426
20
2.70295237086373
30
0
41
1
10
105.492077071638
20
2.42052119804529
30
0
41
1
10
105.409674367994
20
2.32685638527039
30
0
41
1
10
105.251768966113
20
2.14238848667662
30
0
41
1
10
105.176532656091
20
2.05190561354704
30
0
41
1
10
105.105081186844
20
1.96321146642373
30
0
0
SPLINE
5
142
100
AcDbEntity
8
1
62
256
6
ByLayer
370
18
48
1
60
0
100
AcDbSpline
70
4
71
3
72
16
73
12
40
0
40
0
40
0
40
0
40
0.25
40
0.25
40
0.5
40
0.5
40
0.625
40
0.625
40
0.75
40
0.75
40
1
40
1
40
1
40
1
41
1
10
22.3305885824537
20
7.42358777564939
30
0
41
1
10
22.6128063011154
20
7.3785749522153
30
0
41
1
10
22.9012190307543
20
7.34200462277079
30
0
41
1
10
23.4906473557205
20
7.28134947676492
30
0
41
1
10
23.7916601075102
20
7.2572833806295
30
0
41
1
10
24.2533981902394
20
7.22725871933062
30
0
41
1
10
24.4090206032696
20
7.21826118478137
30
0
41
1
10
24.723902267912
20
7.20167712124604
30
0
41
1
10
24.882758477765
20
7.19411506567928
30
0
41
1
10
25.3593852376546
20
7.17274263567589
30
0
41
1
10
25.6788257394135
20
7.1602010699045
30
0
41
1
10
26
20
7.14610523128178
30
0
0
SPLINE
5
143
100
AcDbEntity
8
1
62
256
6
ByLayer
370
18
48
1
60
0
100
AcDbSpline
70
4
71
3
72
8
73
4
40
0
40
0
40
0
40
0
40
1
40
1
40
1
40
1
41
1
10
26
20
7.14610523128175
30
0
41
1
10
26.2866421672416
20
7.14260555215085
30
0
41
1
10
26.5713841617994
20
7.13071506251788
30
0
41
1
10
26.8542134016771
20
7.11015543935812
30
0
0
SPLINE
5
144
100
AcDbEntity
8
1
62
256
6
ByLayer
370
18
48
1
60
0
100
AcDbSpline
70
4
71
3
72
8
73
4
40
0
40
0
40
0
40
0
40
1
40
1
40
1
40
1
41
1
10
110.934708262787
20
0.279168869520049
30
0
41
1
10
110.946624705524
20
0.238435349666162
30
0
41
1
10
110.958591335218
20
0.19760267269757
30
0
41
1
10
110.970607823526
20
0.156672475036629
30
0
0
SPLINE
5
145
100
AcDbEntity
8
1
62
256
6
ByLayer
370
13
48
1
60
0
100
AcDbSpline
70
4
71
3
72
10
73
6
40
0
40
0
40
0
40
0
40
0.0193014924095009
40
0.0193014924095009
40
1
40
1
40
1
40
1
41
1
10
107.471106938873
20
4.27136806207341
30
0
41
1
10
107.47111121074
20
4.2713486940066
30
0
41
1
10
107.471115482925
20
4.27132932600483
30
0
41
1
10
107.471336789566
20
4.27032587340224
30
0
41
1
10
107.471553002248
20
4.2693416190059
30
0
41
1
10
107.471768392271
20
4.26835719675665
30
0
0
SPLINE
5
146
100
AcDbEntity
8
1
62
256
6
ByLayer
370
18
48
1
60
0
100
AcDbSpline
70
4
71
3
72
30
73
26
40
0
40
0
40
0
40
0
40
0.062500000000002
40
0.062500000000002
40
0.125000000000004
40
0.125000000000004
40
0.250000000000008
40
0.250000000000008
40
0.31250000000001
40
0.31250000000001
40
0.375000000000012
40
0.375000000000012
40
0.500000000000017
40
0.500000000000017
40
0.562500000000017
40
0.562500000000017
40
0.625000000000018
40
0.625000000000018
40
0.750000000000014
40
0.750000000000014
40
0.812500000000011
40
0.812500000000011
40
0.875000000000007
40
0.875000000000007
40
1
40
1
40
1
40
1
41
1
10
103.499189949395
20
1.88289296236115
30
0
41
1
10
103.476891643419
20
1.78023156966307
30
0
41
1
10
103.451920235195
20
1.68165911803092
30
0
41
1
10
103.397200931433
20
1.49603688349495
30
0
41
1
10
103.36755336976
20
1.40919132005061
30
0
41
1
10
103.271813812844
20
1.16637696531799
30
0
41
1
10
103.198959768843
20
1.02803971088585
30
0
41
1
10
103.075785412115
20
0.856759546672805
30
0
41
1
10
103.032403292273
20
0.805725817377976
30
0
41
1
10
102.940819446558
20
0.716225121384127
30
0
41
1
10
102.892892889201
20
0.678097429284804
30
0
41
1
10
102.744560784169
20
0.584514916818563
30
0
41
1
10
102.638961090004
20
0.54908072024844
30
0
41
1
10
102.470745959363
20
0.535349216311715
30
0
41
1
10
102.41303187623
20
0.537367882216728
30
0
41
1
10
102.294284055492
20
0.554737076225621
30
0
41
1
10
102.233277897659
20
0.57015547488777
30
0
41
1
10
102.048548619331
20
0.63527194705668
30
0
41
1
10
101.922077791501
20
0.703822519839889
30
0
41
1
10
101.727675091674
20
0.842232437104087
30
0
41
1
10
101.662088088721
20
0.894325210523476
30
0
41
1
10
101.529351235385
20
1.01035211796446
30
0
41
1
10
101.462114987771
20
1.07440876984427
30
0
41
1
10
101.260562782187
20
1.28170562052964
30
0
41
1
10
101.125609040726
20
1.44062712630534
30
0
41
1
10
100.990097307458
20
1.61929507168665
30
0
0
SPLINE
5
147
100
AcDbEntity
8
1
62
256
6
ByLayer
370
13
48
1
60
0
100
AcDbSpline
70
4
71
3
72
18
73
14
40
0
40
0
40
0
40
0
40
0.124999999999988
40
0.124999999999988
40
0.187499999999985
40
0.187499999999985
40
0.249999999999982
40
0.249999999999982
40
0.499999999999988
40
0.499999999999988
40
0.749999999999994
40
0.749999999999994
40
1
40
1
40
1
40
1
41
1
10
107.471768392275
20
4.26835719675807
30
0
41
1
10
107.508975364906
20
4.09830586059942
30
0
41
1
10
107.555887957388
20
3.93288738238439
30
0
41
1
10
107.639371476003
20
3.6910150702422
30
0
41
1
10
107.669491605969
20
3.61121700906304
30
0
41
1
10
107.733318884191
20
3.45511657583776
30
0
41
1
10
107.767036940841
20
3.37873601442951
30
0
41
1
10
107.943995588091
20
3.00456919129297
30
0
41
1
10
108.111866278212
20
2.72956101706663
30
0
41
1
10
108.489720940258
20
2.21846520599263
30
0
41
1
10
108.694533942796
20
1.98925534098541
30
0
41
1
10
109.128765596713
20
1.57179095296692
30
0
41
1
10
109.358894704743
20
1.38326698431231
30
0
41
1
10
109.596740024974
20
1.21445073010202
30
0
0
SPLINE
5
148
100
AcDbEntity
8
1
62
256
6
ByLayer
370
18
48
1
60
0
100
AcDbSpline
70
4
71
3
72
8
73
4
40
0
40
0
40
0
40
0
40
1
40
1
40
1
40
1
41
1
10
95.0999999999996
20
3.86844263365393
30
0
41
1
10
94.9577849753182
20
3.87909086910781
30
0
41
1
10
94.8155652127352
20
3.88958686880017
30
0
41
1
10
94.6733404885289
20
3.89993143420239
30
0
0
SPLINE
5
149
100
AcDbEntity
8
1
62
256
6
ByLayer
370
18
48
1
60
0
100
AcDbSpline
70
4
71
3
72
8
73
4
40
0
40
0
40
0
40
0
40
1
40
1
40
1
40
1
41
1
10
83.6580780837866
20
9.91553425698811
30
0
41
1
10
83.606723458589
20
9.9032296462355
30
0
41
1
10
83.5554736780257
20
9.89394612151469
30
0
41
1
10
83.5043368998792
20
9.88754865251028
30
0
0
SPLINE
5
14A
100
AcDbEntity
8
1
62
256
6
ByLayer
370
13
48
1
60
0
100
AcDbSpline
70
4
71
3
72
8
73
4
40
0
40
0
40
0
40
0
40
1
40
1
40
1
40
1
41
1
10
107.471106938864
20
4.27136806207133
30
0
41
1
10
107.441423816212
20
4.26413349268753
30
0
41
1
10
107.411741387356
20
4.25686080215303
30
0
41
1
10
107.382067536541
20
4.24955151241537
30
0
0
SPLINE
5
14B
100
AcDbEntity
8
1
62
256
6
ByLayer
370
18
48
1
60
0
100
AcDbSpline
70
4
71
3
72
82
73
78
40
0
40
0
40
0
40
0
40
0.0133333333333331
40
0.0266666666666664
40
0.0400000000000001
40
0.0533333333333336
40
0.0666666666666665
40
0.0799999999999998
40
0.093333333333333
40
0.106666666666667
40
0.12
40
0.133333333333333
40
0.146666666666667
40
0.16
40
0.173333333333333
40
0.186666666666667
40
0.2
40
0.213333333333333
40
0.226666666666666
40
0.239999999999999
40
0.253333333333333
40
0.266666666666667
40
0.28
40
0.293333333333333
40
0.306666666666667
40
0.32
40
0.333333333333333
40
0.346666666666667
40
0.36
40
0.373333333333334
40
0.386666666666667
40
0.4
40
0.413333333333333
40
0.426666666666666
40
0.44
40
0.453333333333333
40
0.466666666666667
40
0.48
40
0.493333333333333
40
0.506666666666666
40
0.52
40
0.533333333333333
40
0.546666666666667
40
0.56
40
0.573333333333333
40
0.586666666666667
40
0.6
40
0.613333333333333
40
0.626666666666667
40
0.64
40
0.653333333333333
40
0.666666666666667
40
0.68
40
0.693333333333333
40
0.706666666666666
40
0.72
40
0.733333333333333
40
0.746666666666667
40
0.76
40
0.773333333333333
40
0.786666666666667
40
0.8
40
0.813333333333333
40
0.826666666666667
40
0.84
40
0.853333333333333
40
0.866666666666667
40
0.88
40
0.893333333333333
40
0.906666666666667
40
0.92
40
0.933333333333333
40
0.946666666666667
40
0.96
40
0.973333333333333
40
0.986666666666667
40
1
40
1
40
1
40
1
41
1
10
26.1000000000007
20
-1.37721300474536
30
0
41
1
10
26.1162145064696
20
-1.33291767357244
30
0
41
1
10
26.1486435194074
20
-1.24432701122663
30
0
41
1
10
26.1972716842497
20
-1.11112372785462
30
0
41
1
10
26.2458691448098
20
-0.977741457883269
30
0
41
1
10
26.2944205610621
20
-0.844196512095436
30
0
41
1
10
26.3429106075148
20
-0.710537955546158
30
0
41
1
10
26.391323978048
20
-0.576806126430569
30
0
41
1
10
26.4396453907449
20
-0.443043734036735
30
0
41
1
10
26.4878595927156
20
-0.309292868165215
30
0
41
1
10
26.5359513649119
20
-0.175595783554257
30
0
41
1
10
26.5839055269309
20
-0.0419946727960223
30
0
41
1
10
26.6317069418072
20
0.0914682897087289
30
0
41
1
10
26.6793405207908
20
0.224750976409524
30
0
41
1
10
26.72679122811
20
0.357811315791736
30
0
41
1
10
26.7740440857171
20
0.490607306758733
30
0
41
1
10
26.821084178017
20
0.623097031594227
30
0
41
1
10
26.8678966565748
20
0.755238669273155
30
0
41
1
10
26.914466744803
20
0.886990508641304
30
0
41
1
10
26.9607797426258
20
1.01831096158747
30
0
41
1
10
27.0068210311195
20
1.14915857616933
30
0
41
1
10
27.0525760771264
20
1.27949204969838
30
0
41
1
10
27.0980304378426
20
1.40927024177722
30
0
41
1
10
27.1431697653776
20
1.5384521872858
30
0
41
1
10
27.1879798112818
20
1.66699710931212
30
0
41
1
10
27.2324464310457
20
1.79486443202387
30
0
41
1
10
27.2765555885634
20
1.9220137934762
30
0
41
1
10
27.3202933605641
20
2.04840505835222
30
0
41
1
10
27.3636459410064
20
2.17399833063197
30
0
41
1
10
27.4065996454366
20
2.29875396618576
30
0
41
1
10
27.4491409153082
20
2.422632585288
30
0
41
1
10
27.4912563222614
20
2.54559508504761
30
0
41
1
10
27.5329325723625
20
2.66760265175108
30
0
41
1
10
27.5741565102997
20
2.7886167731142
30
0
41
1
10
27.6149151235356
20
2.90859925043856
30
0
41
1
10
27.6551955464148
20
3.02751221066927
30
0
41
1
10
27.6949850642253
20
3.14531811834979
30
0
41
1
10
27.7342711172113
20
3.26197978747004
30
0
41
1
10
27.7730413045385
20
3.37746039320447
30
0
41
1
10
27.8112833882078
20
3.49172348353596
30
0
41
1
10
27.8489852969189
20
3.60473299076202
30
0
41
1
10
27.88613512988
20
3.71645324287988
30
0
41
1
10
27.9227211605651
20
3.82684897484634
30
0
41
1
10
27.9587318404149
20
3.93588533970953
30
0
41
1
10
27.9941558024823
20
4.04352791960844
30
0
41
1
10
28.028981865021
20
4.14974273663702
30
0
41
1
10
28.063199035014
20
4.25449626356962
30
0
41
1
10
28.0967965116446
20
4.3577554344439
30
0
41
1
10
28.1297636897052
20
4.45948765499833
30
0
41
1
10
28.162090162945
20
4.55966081296069
30
0
41
1
10
28.1937657273551
20
4.65824328818451
30
0
41
1
10
28.2247803843888
20
4.75520396263005
30
0
41
1
10
28.255124344118
20
4.85051223018695
30
0
41
1
10
28.2847880283237
20
4.94413800633509
30
0
41
1
10
28.3137620735193
20
5.03605173764106
30
0
41
1
10
28.3420373339057
20
5.12622441108672
30
0
41
1
10
28.3696048842591
20
5.21462756322734
30
0
41
1
10
28.3964560227474
20
5.30123328917625
30
0
41
1
10
28.4225822736777
20
5.38601425141312
30
0
41
1
10
28.4479753901714
20
5.46894368841328
30
0
41
1
10
28.472627356767
20
5.54999542309452
30
0
41
1
10
28.4965303919518
20
5.6291438710829
30
0
41
1
10
28.5196769506129
20
5.70636404877692
30
0
41
1
10
28.5420597264366
20
5.78163158127811
30
0
41
1
10
28.5636716541515
20
5.85492270991872
30
0
41
1
10
28.5845059119928
20
5.92621430038267
30
0
41
1
10
28.6045559229809
20
5.99548384768855
30
0
41
1
10
28.6238153602635
20
6.06270949194985
30
0
41
1
10
28.6422781369236
20
6.12786999296887
30
0
41
1
10
28.65993845339
20
6.19094485751012
30
0
41
1
10
28.6767906295016
20
6.25191389579999
30
0
41
1
10
28.6928297398761
20
6.31075890720734
30
0
41
1
10
28.7080492509283
20
6.36745741872744
30
0
41
1
10
28.722449847503
20
6.42200608181287
30
0
41
1
10
28.7360064989116
20
6.47433338174272
30
0
41
1
10
28.7487913772533
20
6.52462543721069
30
0
41
1
10
28.7566072102173
20
6.556281895875
30
0
41
1
10
28.7605151266994
20
6.57211012520719
30
0
0
SPLINE
5
14C
100
AcDbEntity
8
1
62
256
6
ByLayer
370
18
48
1
60
0
100
AcDbSpline
70
4
71
3
72
14
73
10
40
0
40
0
40
0
40
0
40
0.25
40
0.25
40
0.5
40
0.5
40
0.75
40
0.75
40
1
40
1
40
1
40
1
41
1
10
23.7890489438675
20
-7.27020209157965
30
0
41
1
10
23.9119846161174
20
-6.99800749101928
30
0
41
1
10
24.0593444679385
20
-6.65403841267695
30
0
41
1
10
24.393700627181
20
-5.84405383271258
30
0
41
1
10
24.5806748099772
20
-5.37809192844401
30
0
41
1
10
24.982527068478
20
-4.35335755876551
30
0
41
1
10
25.1973785532842
20
-3.79465290088132
30
0
41
1
10
25.6415012273303
20
-2.61949493240195
30
0
41
1
10
25.8707430286032
20
-2.00311938298717
30
0
41
1
10
26.1000000000007
20
-1.37721300474536
30
0
0
SPLINE
5
14D
100
AcDbEntity
8
1
62
256
6
ByLayer
370
18
48
1
60
0
100
AcDbSpline
70
4
71
3
72
20
73
16
40
0
40
0
40
0
40
0
40
0.231958033633727
40
0.231958033633727
40
0.347937050450592
40
0.347937050450592
40
0.463916067267456
40
0.463916067267456
40
0.695874100901183
40
0.695874100901183
40
0.811853117718046
40
0.811853117718046
40
0.927832134534909
40
0.927832134534909
40
1
40
1
40
1
40
1
41
1
10
28.7605151268851
20
6.57211012510049
30
0
41
1
10
31.0395888970488
20
5.90884907402582
30
0
41
1
10
33.3161271484828
20
5.20116604770638
30
0
41
1
10
36.7370019146283
20
4.0977288842833
30
0
41
1
10
37.8777787000246
20
3.72324395378169
30
0
41
1
10
40.1571890640749
20
2.9672905305853
30
0
41
1
10
41.2964589101757
20
2.58562299630111
30
0
41
1
10
44.7141456049409
20
1.43375486907013
30
0
41
1
10
46.9921755955542
20
0.655733607501901
30
0
41
1
10
50.4151173450498
20
-0.509377924977656
30
0
41
1
10
51.5580166353481
20
-0.897547946638156
30
0
41
1
10
53.8418692056347
20
-1.66799091644472
30
0
41
1
10
54.982740242277
20
-2.05010431116693
30
0
41
1
10
56.8325327125711
20
-2.6634145264793
30
0
41
1
10
57.5417940803565
20
-2.89724009917163
30
0
41
1
10
58.2509506571527
20
-3.12912366471426
30
0
0
SPLINE
5
14E
100
AcDbEntity
8
1
62
256
6
ByLayer
370
18
48
1
60
0
100
AcDbSpline
70
4
71
3
72
18
73
14
40
0
40
0
40
0
40
0
40
0.249999999999997
40
0.249999999999997
40
0.374999999999997
40
0.374999999999997
40
0.499999999999998
40
0.499999999999998
40
0.624999999999998
40
0.624999999999998
40
0.749999999999999
40
0.749999999999999
40
1
40
1
40
1
40
1
41
1
10
110.727557164269
20
1.16187720331933
30
0
41
1
10
110.683937172198
20
1.35063300689927
30
0
41
1
10
110.63053762267
20
1.56176418435322
30
0
41
1
10
110.536339291611
20
1.91071911242267
30
0
41
1
10
110.50267725606
20
2.03202204683237
30
0
41
1
10
110.432007924969
20
2.28063523897072
30
0
41
1
10
110.39486121346
20
2.4084569154532
30
0
41
1
10
110.31704681694
20
2.67093039592783
30
0
41
1
10
110.276375329808
20
2.80558957543172
30
0
41
1
10
110.191517152431
20
3.08172686831367
30
0
41
1
10
110.147130835176
20
3.22382026254814
30
0
41
1
10
110.010825279051
20
3.65348266896134
30
0
41
1
10
109.915404521901
20
3.94573147347393
30
0
41
1
10
109.815507464595
20
4.2436929294052
30
0
0
SPLINE
5
14F
100
AcDbEntity
8
1
62
256
6
ByLayer
370
18
48
1
60
0
100
AcDbSpline
70
2053
71
3
72
39
73
35
40
0
40
0
40
0
40
0
40
0.0312230860863816
40
0.0623408712230397
40
0.0935426671413388
40
0.124834522168184
40
0.156010139736351
40
0.187396453248584
40
0.218630209984613
40
0.250020858320885
40
0.281380987501954
40
0.312661734197676
40
0.344052741764518
40
0.375238034747166
40
0.40652787887652
40
0.43769268449723
40
0.468936043500157
40
0.500167016388971
40
0.531272901143594
40
0.562429628412657
40
0.593687601424417
40
0.624829733394477
40
0.656178134160722
40
0.687403000112326
40
0.718757932077482
40
0.750124653262002
40
0.781401676164018
40
0.812819024420716
40
0.844046396052292
40
0.875370956437317
40
0.906603647763485
40
0.937739335360108
40
0.968966711618255
40
1
40
1
40
1
40
1
41
1
10
90.26
20
-6.67355550135869
30
0
41
1
10
90.4318346121828
20
-6.67355633448516
30
0
41
1
10
90.7749329906947
20
-6.70300485220039
30
0
41
1
10
91.2686025104642
20
-6.83229615510535
30
0
41
1
10
91.7222286054511
20
-7.03822582459657
30
0
41
1
10
92.1188794073611
20
-7.30859491192723
30
0
41
1
10
92.4448218336166
20
-7.62903486148534
30
0
41
1
10
92.6872741120282
20
-7.98279007760553
30
0
41
1
10
92.8372846807888
20
-8.35402203825336
30
0
41
1
10
92.8880601375787
20
-8.72507942856555
30
0
41
1
10
92.8371745317054
20
-9.08052447684105
30
0
41
1
10
92.687019261541
20
-9.40694868818579
30
0
41
1
10
92.4442361315789
20
-9.69377591802925
30
0
41
1
10
92.1180806963947
20
-9.93479623887839
30
0
41
1
10
91.7214040765838
20
-10.1252644828422
30
0
41
1
10
91.2672873239459
20
-10.2630985487322
30
0
41
1
10
90.7729798642484
20
-10.3463951163761
30
0
41
1
10
90.2579002904866
20
-10.3740652797045
30
0
41
1
10
89.7434242894485
20
-10.3459338892401
30
0
41
1
10
89.2499287412125
20
-10.2624531472878
30
0
41
1
10
88.7967394239071
20
-10.1245291652805
30
0
41
1
10
88.3999295874873
20
-9.93361715083148
30
0
41
1
10
88.0746403057358
20
-9.69273590051878
30
0
41
1
10
87.8321169417688
20
-9.40550860513363
30
0
41
1
10
87.6824037853802
20
-9.07925638297678
30
0
41
1
10
87.631999712419
20
-8.72382853881638
30
0
41
1
10
87.6830976381979
20
-8.35247130456753
30
0
41
1
10
87.8333661446061
20
-7.98158150243304
30
0
41
1
10
88.0766315558106
20
-7.6273187834627
30
0
41
1
10
88.4026850543672
20
-7.30725859304098
30
0
41
1
10
88.79979133802
20
-7.03715720448821
30
0
41
1
10
89.2535034014203
20
-6.8315274183856
30
0
41
1
10
89.7465702446659
20
-6.70278321038518
30
0
41
1
10
90.0892099295028
20
-6.67355467329659
30
0
41
1
10
90.26
20
-6.67355550135869
30
0
0
SPLINE
5
150
100
AcDbEntity
8
1
62
256
6
ByLayer
370
18
48
1
60
0
100
AcDbSpline
70
4
71
3
72
8
73
4
40
0
40
0
40
0
40
0
40
1
40
1
40
1
40
1
41
1
10
24.0616200231937
20
-7.33867442767882
30
0
41
1
10
24.1358929395094
20
-7.69524569399368
30
0
41
1
10
24.2087870224373
20
-8.05345583861083
30
0
41
1
10
24.2798575249099
20
-8.41315864051614
30
0
0
SPLINE
5
151
100
AcDbEntity
8
1
62
256
6
ByLayer
370
18
48
1
60
0
100
AcDbSpline
70
4
71
3
72
9
73
5
40
0
40
0
40
0
40
0
40
0.496610791550449
40
1
40
1
40
1
40
1
41
1
10
95.3000000015342
20
11.2967779627649
30
0
41
1
10
95.2845213475583
20
11.3234231282137
30
0
41
1
10
95.2533527659662
20
11.3770771484286
30
0
41
1
10
95.2215067944841
20
11.4303591290243
30
0
41
1
10
95.2054758761074
20
11.457180703061
30
0
0
SPLINE
5
152
100
AcDbEntity
8
1
62
256
6
ByLayer
370
18
48
1
60
0
100
AcDbSpline
70
4
71
3
72
20
73
16
40
0
40
0
40
0
40
0
40
0.25
40
0.25
40
0.375
40
0.375
40
0.5
40
0.5
40
0.625
40
0.625
40
0.75
40
0.75
40
0.875
40
0.875
40
1
40
1
40
1
40
1
41
1
10
107.321056870144
20
-5.44202827706394
30
0
41
1
10
107.13219303782
20
-4.93754284682069
30
0
41
1
10
106.94904354715
20
-4.43102919785761
30
0
41
1
10
106.679520135567
20
-3.66941277082947
30
0
41
1
10
106.590688858001
20
-3.41518219415997
30
0
41
1
10
106.416331545276
20
-2.90554789526431
30
0
41
1
10
106.331377262331
20
-2.64994047286817
30
0
41
1
10
106.16446675043
20
-2.13766458604545
30
0
41
1
10
106.082145622935
20
-1.88119432731645
30
0
41
1
10
105.922968067896
20
-1.36665257721683
30
0
41
1
10
105.845263566242
20
-1.10882958328628
30
0
41
1
10
105.694647781325
20
-0.591779116165526
30
0
41
1
10
105.622081883369
20
-0.332450440304967
30
0
41
1
10
105.481891791826
20
0.187654899120958
30
0
41
1
10
105.414127626221
20
0.448487973749622
30
0
41
1
10
105.350134950545
20
0.710107446862509
30
0
0
SPLINE
5
153
100
AcDbEntity
8
1
62
256
6
ByLayer
370
18
48
1
60
0
100
AcDbSpline
70
4
71
3
72
8
73
4
40
0
40
0
40
0
40
0
40
1
40
1
40
1
40
1
41
1
10
96.0244332292631
20
-12.4090519755869
30
0
41
1
10
95.7832974855369
20
-12.3107545410733
30
0
41
1
10
95.5418267905491
20
-12.2110404593165
30
0
41
1
10
95.3000000000001
20
-12.1099703127866
30
0
0
SPLINE
5
154
100
AcDbEntity
8
1
62
256
6
ByLayer
370
18
48
1
60
0
100
AcDbSpline
70
4
71
3
72
14
73
10
40
0
40
0
40
0
40
0
40
0.269254806935942
40
0.269254806935942
40
0.451941105201957
40
0.451941105201957
40
0.634627403467971
40
0.634627403467971
40
1
40
1
40
1
40
1
41
1
10
86.9902298675473
20
6.45448290899975
30
0
41
1
10
88.2459162095381
20
6.06375325610728
30
0
41
1
10
89.5016795135101
20
5.65846869873354
30
0
41
1
10
91.6110199058493
20
4.95728334036707
30
0
41
1
10
92.4644402592442
20
4.66790217566296
30
0
41
1
10
94.1709703340971
20
4.07962747915894
30
0
41
1
10
95.023673922793
20
3.7808030881277
30
0
41
1
10
97.5809611325819
20
2.87228108369331
30
0
41
1
10
99.2849602506464
20
2.2503429905768
30
0
41
1
10
100.990097307458
20
1.61929507168665
30
0
0
SPLINE
5
155
100
AcDbEntity
8
1
62
256
6
ByLayer
370
18
48
1
60
0
100
AcDbSpline
70
4
71
3
72
8
73
4
40
0
40
0
40
0
40
0
40
1
40
1
40
1
40
1
41
1
10
95.4454215376824
20
-11.840560260108
30
0
41
1
10
95.4454215376824
20
-11.8224593442169
30
0
41
1
10
95.4435113064407
20
-11.8037951751644
30
0
41
1
10
95.4396995133898
20
-11.7845702618647
30
0
0
SPLINE
5
156
100
AcDbEntity
8
1
62
256
6
ByLayer
370
18
48
1
60
0
100
AcDbSpline
70
4
71
3
72
26
73
22
40
0
40
0
40
0
40
0
40
0.250000000000028
40
0.250000000000028
40
0.312500000000033
40
0.312500000000033
40
0.375000000000037
40
0.375000000000037
40
0.500000000000038
40
0.500000000000038
40
0.562500000000034
40
0.562500000000034
40
0.625000000000029
40
0.625000000000029
40
0.750000000000021
40
0.750000000000021
40
0.812500000000017
40
0.812500000000017
40
0.875000000000013
40
0.875000000000013
40
1
40
1
40
1
40
1
41
1
10
109.454230637936
20
-3.17689334691528
30
0
41
1
10
109.613110326311
20
-3.00243921836741
30
0
41
1
10
109.77090431752
20
-2.79803117166759
30
0
41
1
10
109.966367750364
20
-2.49343771836701
30
0
41
1
10
110.005203369475
20
-2.43025686207989
30
0
41
1
10
110.081259884204
20
-2.30102561745196
30
0
41
1
10
110.118638863739
20
-2.23473217799054
30
0
41
1
10
110.22879863318
20
-2.03074260101272
30
0
41
1
10
110.299608118015
20
-1.88795235847189
30
0
41
1
10
110.401662734803
20
-1.66301802796735
30
0
41
1
10
110.435082517396
20
-1.58597927654694
30
0
41
1
10
110.499178265406
20
-1.43143811449298
30
0
41
1
10
110.530019558714
20
-1.35359373865259
30
0
41
1
10
110.619095488844
20
-1.11842092328388
30
0
41
1
10
110.673891901148
20
-0.959457420804569
30
0
41
1
10
110.7496845857
20
-0.717967698964316
30
0
41
1
10
110.773858649749
20
-0.636993119262144
30
0
41
1
10
110.819501527258
20
-0.476394315463324
30
0
41
1
10
110.841067931612
20
-0.396466990931117
30
0
41
1
10
110.902289035465
20
-0.157716164939927
30
0
41
1
10
110.938478735372
20
8.0075493571E-05
30
0
41
1
10
110.970607823526
20
0.156672475036629
30
0
0
SPLINE
5
157
100
AcDbEntity
8
1
62
256
6
ByLayer
370
13
48
1
60
0
100
AcDbSpline
70
4
71
3
72
18
73
14
40
0
40
0
40
0
40
0
40
0.249999999999993
40
0.249999999999993
40
0.374999999999992
40
0.374999999999992
40
0.499999999999992
40
0.499999999999992
40
0.749999999999996
40
0.749999999999996
40
0.874999999999998
40
0.874999999999998
40
1
40
1
40
1
40
1
41
1
10
95.2999999999999
20
9.30740050762859
30
0
41
1
10
96.3809837554828
20
9.35677658303027
30
0
41
1
10
97.4617078268286
20
9.37822807102296
30
0
41
1
10
99.0821991570368
20
9.37518788208624
30
0
41
1
10
99.6223823562973
20
9.36877703426825
30
0
41
1
10
100.702928394655
20
9.34593084415451
30
0
41
1
10
101.243384699784
20
9.32984629863259
30
0
41
1
10
102.864684662761
20
9.26106439714277
30
0
41
1
10
103.945187717783
20
9.18973042799044
30
0
41
1
10
105.565581926298
20
9.05085188486274
30
0
41
1
10
106.105892446071
20
9.00016929486256
30
0
41
1
10
107.186567918913
20
8.8861807020937
30
0
41
1
10
107.726933966528
20
8.8234879514867
30
0
41
1
10
108.267258148917
20
8.75528579079543
30
0
0
SPLINE
5
158
100
AcDbEntity
8
1
62
256
6
ByLayer
370
18
48
1
60
0
100
AcDbSpline
70
4
71
2
72
9
73
6
40
0
40
0
40
0
40
0.243287279645488
40
0.495524853096992
40
0.747762426548496
40
1
40
1
40
1
41
1
10
102.269615545547
20
-3.72861233799702
30
0
41
1
10
102.379462667648
20
-4.66268947424683
30
0
41
1
10
102.711701700243
20
-6.44179838153087
30
0
41
1
10
103.1549973098
20
-8.07245506360147
30
0
41
1
10
103.691105612545
20
-9.4776467211743
30
0
41
1
10
103.998247381418
20
-10.0479872750867
30
0
0
SPLINE
5
159
100
AcDbEntity
8
1
62
256
6
ByLayer
370
18
48
1
60
0
100
AcDbSpline
70
4
71
3
72
8
73
4
40
0
40
0
40
0
40
0
40
1
40
1
40
1
40
1
41
1
10
96.0244332292631
20
-12.2470835293385
30
0
41
1
10
95.8316543260649
20
-12.1602089825596
30
0
41
1
10
95.6386546682309
20
-12.0724281769444
30
0
41
1
10
95.4454215376824
20
-11.9837724953873
30
0
0
SPLINE
5
15A
100
AcDbEntity
8
1
62
256
6
ByLayer
370
18
48
1
60
0
100
AcDbSpline
70
4
71
3
72
14
73
10
40
0
40
0
40
0
40
0
40
0.499999999999995
40
0.499999999999995
40
0.624999999999997
40
0.624999999999997
40
0.749999999999999
40
0.749999999999999
40
1
40
1
40
1
40
1
41
1
10
22.2417282462436
20
-8.15245093669915
30
0
41
1
10
22.0905565571372
20
-8.03814434485577
30
0
41
1
10
21.9784272214293
20
-7.890330453312
30
0
41
1
10
21.876594533844
20
-7.66661916464605
30
0
41
1
10
21.8582659778176
20
-7.62005498294701
30
0
41
1
10
21.8257896593448
20
-7.52476786687859
30
0
41
1
10
21.8115555515999
20
-7.47586149312139
30
0
41
1
10
21.7742514812493
20
-7.32559457036842
30
0
41
1
10
21.7565553477928
20
-7.22069607042098
30
0
41
1
10
21.7447885858213
20
-7.11156355292135
30
0
0
SPLINE
5
15B
100
AcDbEntity
8
1
62
256
6
ByLayer
370
18
48
1
60
0
100
AcDbSpline
70
4
71
3
72
8
73
4
40
0
40
0
40
0
40
0
40
1
40
1
40
1
40
1
41
1
10
95.3
20
12.1099703127866
30
0
41
1
10
95.3
20
11.1757793568
30
0
41
1
10
95.3
20
10.2415893833476
30
0
41
1
10
95.3
20
9.30740050762859
30
0
0
SPLINE
5
15C
100
AcDbEntity
8
1
62
256
6
ByLayer
370
18
48
1
60
0
100
AcDbSpline
70
4
71
3
72
8
73
4
40
0
40
0
40
0
40
0
40
1
40
1
40
1
40
1
41
1
10
108.267258148917
20
-8.75528579079543
30
0
41
1
10
107.932750303956
20
-9.78420346087862
30
0
41
1
10
107.592427731167
20
-10.8194781330148
30
0
41
1
10
107.24604575122
20
-11.861377305021
30
0
0
SPLINE
5
15D
100
AcDbEntity
8
1
62
256
6
ByLayer
370
13
48
1
60
0
100
AcDbSpline
70
4
71
3
72
40
73
36
40
0
40
0
40
0
40
0
40
0.249999999999876
40
0.249999999999876
40
0.37499999999982
40
0.37499999999982
40
0.390624999999813
40
0.390624999999813
40
0.406249999999806
40
0.437499999999779
40
0.499999999999738
40
0.562499999999696
40
0.562499999999696
40
0.578124999999692
40
0.578124999999692
40
0.593749999999687
40
0.62499999999969
40
0.656249999999692
40
0.656249999999692
40
0.671874999999698
40
0.671874999999698
40
0.687499999999705
40
0.749999999999741
40
0.76562499999975
40
0.76562499999975
40
0.781249999999759
40
0.781249999999759
40
0.812499999999787
40
0.874999999999852
40
0.937499999999918
40
0.953124999999938
40
0.953124999999938
40
0.968749999999959
40
0.968749999999959
40
1
40
1
40
1
40
1
41
1
10
107.974821159543
20
-2.1428746766193
30
0
41
1
10
107.764134003587
20
-1.99561696600435
30
0
41
1
10
107.517466625083
20
-1.80440486256336
30
0
41
1
10
107.169317919722
20
-1.50932312967734
30
0
41
1
10
107.056909972419
20
-1.40958496071551
30
0
41
1
10
106.941656823211
20
-1.30123694912504
30
0
41
1
10
106.929123931976
20
-1.28936446605863
30
0
41
1
10
106.903241412803
20
-1.26463736001108
30
0
41
1
10
106.863554169566
20
-1.22642392911919
30
0
41
1
10
106.766019893437
20
-1.13051698648221
30
0
41
1
10
106.618958769991
20
-0.980625351108387
30
0
41
1
10
106.506636100588
20
-0.860583537417739
30
0
41
1
10
106.442339485697
20
-0.789771830951651
30
0
41
1
10
106.430071847684
20
-0.776151925802679
30
0
41
1
10
106.404712193103
20
-0.747737698419286
30
0
41
1
10
106.364866702721
20
-0.702722141191742
30
0
41
1
10
106.292695846759
20
-0.61950464156206
30
0
41
1
10
106.235783055741
20
-0.55225291142429
30
0
41
1
10
106.196021209225
20
-0.504582664034018
30
0
41
1
10
106.183506416798
20
-0.489461500531746
30
0
41
1
10
106.158776539681
20
-0.459291294889425
30
0
41
1
10
106.093737837805
20
-0.379217096229638
30
0
41
1
10
106.003169737944
20
-0.263794614146491
30
0
41
1
10
105.939792070441
20
-0.180014696983648
30
0
41
1
10
105.915859498471
20
-0.148065826124622
30
0
41
1
10
105.903633926775
20
-0.131572256591994
30
0
41
1
10
105.86608920396
20
-0.0804293440237984
30
0
41
1
10
105.787875245922
20
0.0280386668988513
30
0
41
1
10
105.648788398872
20
0.22982496561383
30
0
41
1
10
105.529669173606
20
0.412877020775397
30
0
41
1
10
105.471337707872
20
0.506821571380669
30
0
41
1
10
105.448747710701
20
0.543614122436765
30
0
41
1
10
105.437650582451
20
0.561908001224083
30
0
41
1
10
105.401872299097
20
0.621533976815556
30
0
41
1
10
105.376072397593
20
0.665346573886637
30
0
41
1
10
105.350134950545
20
0.710107446862509
30
0
0
SPLINE
5
15E
100
AcDbEntity
8
1
62
256
6
ByLayer
370
18
48
1
60
0
100
AcDbSpline
70
4
71
3
72
8
73
4
40
0
40
0
40
0
40
0
40
1
40
1
40
1
40
1
41
1
10
83.4475477778582
20
10.348681580902
30
0
41
1
10
81.1791382269991
20
9.91015060400332
30
0
41
1
10
78.9139920286862
20
9.40178997496719
30
0
41
1
10
76.6478389656609
20
8.82941458036626
30
0
0
SPLINE
5
15F
100
AcDbEntity
8
1
62
256
6
ByLayer
370
18
48
1
60
0
100
AcDbSpline
70
4
71
3
72
30
73
26
40
0
40
0
40
0
40
0
40
0.0350670288975352
40
0.0699272887129844
40
0.104581242743626
40
0.139029362611338
40
0.173272128443504
40
0.207310029058173
40
0.241143562153622
40
0.274773234502371
40
0.308199562149774
40
0.341423070617265
40
0.374444295110386
40
0.407263780731656
40
0.439882082698417
40
0.472299766565738
40
0.504517408454466
40
0.56821761121168
40
0.631403608842611
40
0.694080227364666
40
0.756252411423144
40
0.817925227001777
40
0.879103864145747
40
0.939793639691835
40
1
40
1
40
1
40
1
41
1
10
102.151123922317
20
-3.73774542641078
30
0
41
1
10
102.130742612308
20
-3.68061506332685
30
0
41
1
10
102.09010016856
20
-3.5666912003922
30
0
41
1
10
102.030135449074
20
-3.39506882491753
30
0
41
1
10
101.971132912214
20
-3.22360595184318
30
0
41
1
10
101.913150266015
20
-3.05225765276879
30
0
41
1
10
101.856172184764
20
-2.88109334546533
30
0
41
1
10
101.800202738186
20
-2.71015090516531
30
0
41
1
10
101.745240845402
20
-2.53947540591238
30
0
41
1
10
101.691286793182
20
-2.36910883114121
30
0
41
1
10
101.63834050555
20
-2.19909280646601
30
0
41
1
10
101.586402001338
20
-2.02946787107518
30
0
41
1
10
101.535471279858
20
-1.86027368395435
30
0
41
1
10
101.485548324766
20
-1.69154892694473
30
0
41
1
10
101.436633200995
20
-1.52333149447108
30
0
41
1
10
101.388725666806
20
-1.35565784769403
30
0
41
1
10
101.326453595206
20
-1.13379423605463
30
0
41
1
10
101.251019890739
20
-0.857691192304543
30
0
41
1
10
101.164010622588
20
-0.527344703991531
30
0
41
1
10
101.080595822511
20
-0.198532211728292
30
0
41
1
10
101.000781468193
20
0.128502359253702
30
0
41
1
10
100.924546323058
20
0.453528347007818
30
0
41
1
10
100.851968542377
20
0.776311734499075
30
0
41
1
10
100.782760043357
20
1.09666748652603
30
0
41
1
10
100.739403440467
20
1.30924538357809
30
0
41
1
10
100.717811821869
20
1.41510932515931
30
0
0
SPLINE
5
160
100
AcDbEntity
8
1
62
256
6
ByLayer
370
18
48
1
60
0
100
AcDbSpline
70
4
71
3
72
8
73
4
40
0
40
0
40
0
40
0
40
1
40
1
40
1
40
1
41
1
10
95.3
20
-11.677605704938
30
0
41
1
10
95.2666666666667
20
-11.7096430319748
30
0
41
1
10
95.2333333333333
20
-11.7416803590117
30
0
41
1
10
95.2
20
-11.7737176860486
30
0
0
SPLINE
5
161
100
AcDbEntity
8
1
62
256
6
ByLayer
370
18
48
1
60
0
100
AcDbSpline
70
4
71
3
72
8
73
4
40
0
40
0
40
0
40
0
40
1
40
1
40
1
40
1
41
1
10
100.990097307458
20
1.61929507168665
30
0
41
1
10
100.940893440188
20
1.54828293122003
30
0
41
1
10
100.891328213017
20
1.47830394078707
30
0
41
1
10
100.841394145418
20
1.40937948766936
30
0
0
SPLINE
5
162
100
AcDbEntity
8
1
62
256
6
ByLayer
370
18
48
1
60
0
100
AcDbSpline
70
4
71
3
72
8
73
4
40
0
40
0
40
0
40
0
40
1
40
1
40
1
40
1
41
1
10
95.1
20
4.65000000000001
30
0
41
1
10
95.1666659629616
20
4.65000000000001
30
0
41
1
10
95.2333326497532
20
4.65000000000001
30
0
41
1
10
95.3
20
4.65000000000001
30
0
0
SPLINE
5
163
100
AcDbEntity
8
1
62
256
6
ByLayer
370
18
48
1
60
0
100
AcDbSpline
70
4
71
3
72
12
73
8
40
0
40
0
40
0
40
0
40
0.415267861786322
40
0.415267861786322
40
0.707633862910295
40
0.707633862910295
40
1
40
1
40
1
40
1
41
1
10
95.2999999991969
20
11.9730624656933
30
0
41
1
10
95.2867501276837
20
11.9870280032129
30
0
41
1
10
95.2734967307624
20
12.000992055911
30
0
41
1
10
95.2509064445502
20
12.0247849002469
30
0
41
1
10
95.2415713122691
20
12.0346144296092
30
0
41
1
10
95.2228976113449
20
12.054272065196
30
0
41
1
10
95.2135590416147
20
12.0641001725629
30
0
41
1
10
95.2042187681834
20
12.0739275756057
30
0
0
SPLINE
5
164
100
AcDbEntity
8
1
62
256
6
ByLayer
370
18
48
1
60
0
100
AcDbSpline
70
4
71
3
72
28
73
24
40
0
40
0
40
0
40
0
40
0.0885712279039135
40
0.0885712279039135
40
0.153673283053634
40
0.153673283053634
40
0.218775338203354
40
0.218775338203354
40
0.283877393353074
40
0.283877393353074
40
0.348979448502794
40
0.348979448502794
40
0.414081503652514
40
0.414081503652514
40
0.446632531227374
40
0.446632531227374
40
0.479183558802235
40
0.479183558802235
40
0.739591779401118
40
0.739591779401118
40
0.869795889700559
40
0.869795889700559
40
1
40
1
40
1
40
1
41
1
10
76.6530690967215
20
-8.84196929211606
30
0
41
1
10
75.3229812497052
20
-9.14751617874339
30
0
41
1
10
73.9932475712961
20
-9.43213792956564
30
0
41
1
10
71.6850077658085
20
-9.88666465853967
30
0
41
1
10
70.7062887523746
20
-10.0669712840742
30
0
41
1
10
68.7507355797945
20
-10.4012213412876
30
0
41
1
10
67.7736831183685
20
-10.5552489643594
30
0
41
1
10
65.8203519226149
20
-10.8364787592757
30
0
41
1
10
64.8440712082437
20
-10.9637102899738
30
0
41
1
10
62.8924446697808
20
-11.1911906897992
30
0
41
1
10
61.9166809514947
20
-11.2910036214889
30
0
41
1
10
59.9645561355771
20
-11.461743671618
30
0
41
1
10
58.988196777452
20
-11.5326598408587
30
0
41
1
10
57.5226015339601
20
-11.6164451328003
30
0
41
1
10
57.0338895300858
20
-11.640620840285
30
0
41
1
10
56.055996078079
20
-11.6814726660518
30
0
41
1
10
55.5666181789451
20
-11.69815222528
30
0
41
1
10
51.1667828022809
20
-11.8144158159543
30
0
41
1
10
47.2801787999954
20
-11.6776427578341
30
0
41
1
10
41.4478020558768
20
-11.1361504769732
30
0
41
1
10
39.5032101416022
20
-10.9001736671172
30
0
41
1
10
35.6076874409707
20
-10.3221588421616
30
0
41
1
10
33.6569023165017
20
-9.9797767295305
30
0
41
1
10
31.699999999832
20
-9.58479156941692
30
0
0
SPLINE
5
165
100
AcDbEntity
8
1
62
256
6
ByLayer
370
18
48
1
60
0
100
AcDbSpline
70
4
71
3
72
8
73
4
40
0
40
0
40
0
40
0
40
1
40
1
40
1
40
1
41
1
10
84.7388932452
20
10.5393161025334
30
0
41
1
10
84.7878333220382
20
10.5387720100377
30
0
41
1
10
84.8363855394157
20
10.5372813706593
30
0
41
1
10
84.8845456034231
20
10.5348131574791
30
0
0
SPLINE
5
166
100
AcDbEntity
8
1
62
256
6
ByLayer
370
18
48
1
60
0
100
AcDbSpline
70
4
71
3
72
8
73
4
40
0
40
0
40
0
40
0
40
1
40
1
40
1
40
1
41
1
10
23.7890489438674
20
-7.27020209157971
30
0
41
1
10
23.8802725564961
20
-7.29005808964345
30
0
41
1
10
23.9711345247065
20
-7.31292407038316
30
0
41
1
10
24.0616200231938
20
-7.33867442767885
30
0
0
SPLINE
5
167
100
AcDbEntity
8
1
62
256
6
ByLayer
370
18
48
1
60
0
100
AcDbSpline
70
4
71
3
72
12
73
8
40
0
40
0
40
0
40
0
40
0.0788507616549557
40
0.0788507616549557
40
0.539425380827478
40
0.539425380827478
40
1
40
1
40
1
40
1
41
1
10
101.05668997022
20
12.4866037136711
30
0
41
1
10
101.213443502489
20
12.4871503217826
30
0
41
1
10
101.370214017417
20
12.4870465814996
30
0
41
1
10
102.442946817725
20
12.4818981955442
30
0
41
1
10
103.359279413638
20
12.4554588956901
30
0
41
1
10
105.192439462359
20
12.3581739200765
30
0
41
1
10
106.10891722064
20
12.2870126474019
30
0
41
1
10
107.028113742084
20
12.1941969908282
30
0
0
SPLINE
5
168
100
AcDbEntity
8
1
62
256
6
ByLayer
370
13
48
1
60
0
100
AcDbSpline
70
4
71
3
72
8
73
4
40
0
40
0
40
0
40
0
40
1
40
1
40
1
40
1
41
1
10
109.454230637936
20
-3.17689334691525
30
0
41
1
10
108.961094145138
20
-2.83222045681657
30
0
41
1
10
108.467957652341
20
-2.48754756671792
30
0
41
1
10
107.974821159543
20
-2.14287467661924
30
0
0
SPLINE
5
169
100
AcDbEntity
8
1
62
256
6
ByLayer
370
18
48
1
60
0
100
AcDbSpline
70
4
71
3
72
8
73
4
40
0
40
0
40
0
40
0
40
1
40
1
40
1
40
1
41
1
10
28.5
20
-9.47159934310014
30
0
41
1
10
29.5672361879969
20
-9.71785423630126
30
0
41
1
10
30.6336779999053
20
-9.94989474392801
30
0
41
1
10
31.6999999997989
20
-10.1665951067531
30
0
0
SPLINE
5
16A
100
AcDbEntity
8
1
62
256
6
ByLayer
370
18
48
1
60
0
100
AcDbSpline
70
4
71
3
72
26
73
22
40
0
40
0
40
0
40
0
40
0.250000000000017
40
0.250000000000017
40
0.312500000000017
40
0.312500000000017
40
0.375000000000017
40
0.375000000000017
40
0.500000000000011
40
0.500000000000011
40
0.562500000000011
40
0.562500000000011
40
0.625000000000011
40
0.625000000000011
40
0.750000000000008
40
0.750000000000008
40
0.875000000000005
40
0.875000000000005
40
0.937500000000003
40
0.937500000000003
40
1
40
1
40
1
40
1
41
1
10
33.7481812619413
20
8.29249426388699
30
0
41
1
10
33.4418247709497
20
8.39983676261653
30
0
41
1
10
33.1632951277927
20
8.53462201049058
30
0
41
1
10
32.8483645115024
20
8.73123716983514
30
0
41
1
10
32.786866744819
20
8.77214289091665
30
0
41
1
10
32.6683791941531
20
8.85603769490561
30
0
41
1
10
32.6115756038725
20
8.89887309611251
30
0
41
1
10
32.4482966253909
20
9.02977411843756
30
0
41
1
10
32.3489167707355
20
9.12022061069348
30
0
41
1
10
32.2139905623815
20
9.2598778882828
30
0
41
1
10
32.1713815215502
20
9.30709859828818
30
0
41
1
10
32.0909987681771
20
9.40278737884321
30
0
41
1
10
32.0530996187674
20
9.45144795299618
30
0
41
1
10
31.9484103167667
20
9.59704216803155
30
0
41
1
10
31.8901702126239
20
9.69395684264092
30
0
41
1
10
31.7961793081638
20
9.88676368122307
30
0
41
1
10
31.7604278251815
20
9.98265822532511
30
0
41
1
10
31.7242486998655
20
10.1253383010664
30
0
41
1
10
31.7151332255957
20
10.1726968653777
30
0
41
1
10
31.7030295824329
20
10.2658683034107
30
0
41
1
10
31.6999999862343
20
10.3118233210971
30
0
41
1
10
31.6999999862413
20
10.3571381210448
30
0
0
SPLINE
5
16B
100
AcDbEntity
8
1
62
256
6
ByLayer
370
13
48
1
60
0
100
AcDbSpline
70
4
71
3
72
8
73
4
40
0
40
0
40
0
40
0
40
1
40
1
40
1
40
1
41
1
10
107.461072057465
20
4.31686130941816
30
0
41
1
10
107.464417017933
20
4.3016968936362
30
0
41
1
10
107.467761978401
20
4.28653247785425
30
0
41
1
10
107.471106938869
20
4.27136806207233
30
0
0
SPLINE
5
16C
100
AcDbEntity
8
1
62
256
6
ByLayer
370
18
48
1
60
0
100
AcDbSpline
70
4
71
3
72
8
73
4
40
0
40
0
40
0
40
0
40
1
40
1
40
1
40
1
41
1
10
107.110406640945
20
-11.9469936475433
30
0
41
1
10
107.083010113175
20
-12.0293642663359
30
0
41
1
10
107.055578900562
20
-12.1117661916513
30
0
41
1
10
107.028113742084
20
-12.1941969908282
30
0
0
SPLINE
5
16D
100
AcDbEntity
8
1
62
256
6
ByLayer
370
18
48
1
60
0
100
AcDbSpline
70
4
71
3
72
14
73
10
40
0
40
0
40
0
40
0
40
0.0789599083458663
40
0.0789599083458663
40
0.385973272230577
40
0.385973272230577
40
0.692986636115289
40
0.692986636115289
40
1
40
1
40
1
40
1
41
1
10
98.0140988217214
20
2.69597960133294
30
0
41
1
10
98.2002879811927
20
2.67385781667667
30
0
41
1
10
98.3865049975813
20
2.65188800751602
30
0
41
1
10
99.296914556542
20
2.54525923996465
30
0
41
1
10
100.021763482745
20
2.46418123156002
30
0
41
1
10
101.473593674923
20
2.31365835385165
30
0
41
1
10
102.199723854515
20
2.24129017720929
30
0
41
1
10
103.652162280825
20
2.09899259959235
30
0
41
1
10
104.378481252698
20
2.02919677562238
30
0
41
1
10
105.10508118684
20
1.96321146643285
30
0
0
SPLINE
5
16E
100
AcDbEntity
8
1
62
256
6
ByLayer
370
18
48
1
60
0
100
AcDbSpline
70
4
71
3
72
8
73
4
40
0
40
0
40
0
40
0
40
1
40
1
40
1
40
1
41
1
10
77.5192331001778
20
8.64356199403952
30
0
41
1
10
79.5120435143405
20
9.10625166099001
30
0
41
1
10
81.5060570489671
20
9.52247592290362
30
0
41
1
10
83.5043368998793
20
9.88754865251028
30
0
0
SPLINE
5
16F
100
AcDbEntity
8
1
62
256
6
ByLayer
370
18
48
1
60
0
100
AcDbSpline
70
4
71
3
72
8
73
4
40
0
40
0
40
0
40
0
40
1
40
1
40
1
40
1
41
1
10
80.061716308028
20
-7.32544191328867
30
0
41
1
10
80.3286724193375
20
-7.28817884344991
30
0
41
1
10
80.6088299178195
20
-7.26326214948327
30
0
41
1
10
80.899697556016
20
-7.24836193398522
30
0
0
SPLINE
5
170
100
AcDbEntity
8
1
62
256
6
ByLayer
370
18
48
1
60
0
100
AcDbSpline
70
4
71
1
72
4
73
2
40
0
40
0
40
1
40
1
41
1
10
102.267456286333
20
-3.65980558836785
30
0
41
1
10
102.269616274772
20
-3.72861853890734
30
0
0
SPLINE
5
171
100
AcDbEntity
8
1
62
256
6
ByLayer
370
18
48
1
60
0
100
AcDbSpline
70
4
71
3
72
8
73
4
40
0
40
0
40
0
40
0
40
1
40
1
40
1
40
1
41
1
10
95.1
20
3.72995263365391
30
0
41
1
10
95.1
20
3.77508857228901
30
0
41
1
10
95.1
20
3.82125246096717
30
0
41
1
10
95.1
20
3.86844263365393
30
0
0
SPLINE
5
172
100
AcDbEntity
8
1
62
256
6
ByLayer
370
18
48
1
60
0
100
AcDbSpline
70
4
71
3
72
18
73
14
40
0
40
0
40
0
40
0
40
0.25
40
0.25
40
0.375000000000001
40
0.375000000000001
40
0.500000000000001
40
0.500000000000001
40
0.75
40
0.75
40
0.875
40
0.875
40
1
40
1
40
1
40
1
41
1
10
22.3305885824537
20
-8.21257143536062
30
0
41
1
10
22.4491944518542
20
-8.28408940969058
30
0
41
1
10
22.5814948246027
20
-8.33659079454992
30
0
41
1
10
22.7995718826954
20
-8.39442498510013
30
0
41
1
10
22.8755583938907
20
-8.41016983909384
30
0
41
1
10
23.0342488217568
20
-8.43537923432626
30
0
41
1
10
23.1161034069858
20
-8.44469182133784
30
0
41
1
10
23.3665965616072
20
-8.46406231970357
30
0
41
1
10
23.5411219566948
20
-8.46586062966367
30
0
41
1
10
23.8144411235952
20
-8.45535529955004
30
0
41
1
10
23.9070087232095
20
-8.44961489439908
30
0
41
1
10
24.0925635083838
20
-8.43425791123423
30
0
41
1
10
24.1859193933959
20
-8.42462731610857
30
0
41
1
10
24.2798575249099
20
-8.41315864051617
30
0
0
SPLINE
5
173
100
AcDbEntity
8
1
62
256
6
ByLayer
370
18
48
1
60
0
100
AcDbSpline
70
4
71
3
72
8
73
4
40
0
40
0
40
0
40
0
40
1
40
1
40
1
40
1
41
1
10
95.2042187691923
20
-12.0739275741468
30
0
41
1
10
95.202812499474
20
-12.0751435029308
30
0
41
1
10
95.2014062430651
20
-12.0763592569561
30
0
41
1
10
95.2
20
-12.0775748361718
30
0
0
SPLINE
5
174
100
AcDbEntity
8
1
62
256
6
ByLayer
370
18
48
1
60
0
100
AcDbSpline
70
4
71
3
72
8
73
4
40
0
40
0
40
0
40
0
40
1
40
1
40
1
40
1
41
1
10
110.934708262787
20
-0.279168869520049
30
0
41
1
10
110.946624705524
20
-0.238435349666133
30
0
41
1
10
110.958591335218
20
-0.19760267269757
30
0
41
1
10
110.970607823526
20
-0.156672475036629
30
0
0
SPLINE
5
175
100
AcDbEntity
8
1
62
256
6
ByLayer
370
18
48
1
60
0
100
AcDbSpline
70
4
71
3
72
8
73
4
40
0
40
0
40
0
40
0
40
1
40
1
40
1
40
1
41
1
10
107.461072057465
20
4.31686130941816
30
0
41
1
10
107.434624131622
20
4.29451929745545
30
0
41
1
10
107.408290397407
20
4.27207741373294
30
0
41
1
10
107.382067536541
20
4.24955151241537
30
0
0
SPLINE
5
176
100
AcDbEntity
8
1
62
256
6
ByLayer
370
18
48
1
60
0
100
AcDbSpline
70
4
71
3
72
30
73
26
40
0
40
0
40
0
40
0
40
0.0625
40
0.0625
40
0.125
40
0.125
40
0.25
40
0.25
40
0.3125
40
0.3125
40
0.375
40
0.375
40
0.5
40
0.5
40
0.625
40
0.625
40
0.6875
40
0.6875
40
0.75
40
0.75
40
0.8125
40
0.8125
40
0.875
40
0.875
40
1
40
1
40
1
40
1
41
1
10
80.0617163080271
20
-7.32544191328734
30
0
41
1
10
79.1147705886032
20
-7.05024545029468
30
0
41
1
10
78.1680259488849
20
-6.76639392810927
30
0
41
1
10
76.2741693457593
20
-6.18310545033128
30
0
41
1
10
75.3271973339575
20
-5.88371150518367
30
0
41
1
10
72.4885345308026
20
-4.96585585342689
30
0
41
1
10
70.5980129966226
20
-4.32692279806921
30
0
41
1
10
67.7605105410357
20
-3.33931081714206
30
0
41
1
10
66.8139305545394
20
-3.00519681080726
30
0
41
1
10
64.9221202227991
20
-2.33100492837039
30
0
41
1
10
63.9767206009933
20
-1.99088429845872
30
0
41
1
10
61.1406510053227
20
-0.965228613801855
30
0
41
1
10
59.2496993657219
20
-0.274373853986162
30
0
41
1
10
55.4627633940505
20
1.1018609059694
30
0
41
1
10
53.5713439569987
20
1.78592066405466
30
0
41
1
10
50.7330917006946
20
2.79452804613416
30
0
41
1
10
49.7868199282827
20
3.12781672899399
30
0
41
1
10
47.8932872814748
20
3.78690200204687
30
0
41
1
10
46.946229884867
20
4.1126230389352
30
0
41
1
10
45.0535459250181
20
4.75389542214592
30
0
41
1
10
44.1075748896498
20
5.06961680820365
30
0
41
1
10
42.2156113527373
20
5.68921544062681
30
0
41
1
10
41.2693581608647
20
5.993150315717
30
0
41
1
10
38.4309112449956
20
6.88303439870489
30
0
41
1
10
36.5408229050831
20
7.44648058236277
30
0
41
1
10
34.6486597922162
20
7.97072292533477
30
0
0
SPLINE
5
177
100
AcDbEntity
8
1
62
256
6
ByLayer
370
13
48
1
60
0
100
AcDbSpline
70
4
71
3
72
8
73
4
40
0
40
0
40
0
40
0
40
1
40
1
40
1
40
1
41
1
10
107.498258420742
20
4.27424767909761
30
0
41
1
10
108.270674768693
20
4.26406276253348
30
0
41
1
10
109.043091116644
20
4.25387784596936
30
0
41
1
10
109.815507464595
20
4.2436929294052
30
0
0
SPLINE
5
178
100
AcDbEntity
8
1
62
256
6
ByLayer
370
18
48
1
60
0
100
AcDbSpline
70
4
71
1
72
4
73
2
40
0
40
0
40
1
40
1
41
1
10
103.505623229304
20
1.8760040294969
30
0
41
1
10
103.49918841143
20
1.88290106481367
30
0
0
SPLINE
5
179
100
AcDbEntity
8
1
62
256
6
ByLayer
370
18
48
1
60
0
100
AcDbSpline
70
4
71
3
72
8
73
4
40
0
40
0
40
0
40
0
40
1
40
1
40
1
40
1
41
1
10
85.5559604680878
20
10.449032389837
30
0
41
1
10
85.3420309463372
20
10.4964036830319
30
0
41
1
10
85.1171737681771
20
10.522890916215
30
0
41
1
10
84.8845456034238
20
10.5348131574778
30
0
0
SPLINE
5
17A
100
AcDbEntity
8
1
62
256
6
ByLayer
370
18
48
1
60
0
100
AcDbSpline
70
4
71
3
72
12
73
8
40
0
40
0
40
0
40
0
40
0.516296191251399
40
0.516296191251399
40
0.774444286877098
40
0.774444286877098
40
1
40
1
40
1
40
1
41
1
10
95.4454215376824
20
-11.9837724953873
30
0
41
1
10
96.4198740593093
20
-12.0783052122872
30
0
41
1
10
97.3932168206184
20
-12.1481652049639
30
0
41
1
10
98.8511555890692
20
-12.2167348837191
30
0
41
1
10
99.3367929152959
20
-12.2335316782882
30
0
41
1
10
100.246211194244
20
-12.2535747078232
30
0
41
1
10
100.669990279133
20
-12.2582489763218
30
0
41
1
10
101.094003567419
20
-12.2582490154798
30
0
0
SPLINE
5
17B
100
AcDbEntity
8
1
62
256
6
ByLayer
370
18
48
1
60
0
100
AcDbSpline
70
4
71
1
72
4
73
2
40
0
40
0
40
1
40
1
41
1
10
103.998248095416
20
-10.0479789190344
30
0
41
1
10
103.861335950846
20
-10.1085138216694
30
0
0
SPLINE
5
17C
100
AcDbEntity
8
1
62
256
6
ByLayer
370
18
48
1
60
0
100
AcDbSpline
70
4
71
3
72
22
73
18
40
0
40
0
40
0
40
0
40
0.125000000000002
40
0.125000000000002
40
0.187500000000002
40
0.187500000000002
40
0.250000000000003
40
0.250000000000003
40
0.375000000000005
40
0.375000000000005
40
0.500000000000006
40
0.500000000000006
40
0.750000000000003
40
0.750000000000003
40
0.875000000000002
40
0.875000000000002
40
1
40
1
40
1
40
1
41
1
10
23.7890489438675
20
-7.27020209157965
30
0
41
1
10
23.6542512626092
20
-7.24487185956994
30
0
41
1
10
23.5234786905818
20
-7.22186908563765
30
0
41
1
10
23.3333066258155
20
-7.19091968942683
30
0
41
1
10
23.2709172873199
20
-7.18119610740919
30
0
41
1
10
23.148176416841
20
-7.16295059997375
30
0
41
1
10
23.0875619610659
20
-7.15439522144871
30
0
41
1
10
22.9113898764171
20
-7.13088732992799
30
0
41
1
10
22.8012375172754
20
-7.11803114985196
30
0
41
1
10
22.5947167658846
20
-7.09736670454313
30
0
41
1
10
22.4981605063498
20
-7.08954777307153
30
0
41
1
10
22.2303700393525
20
-7.07311809206516
30
0
41
1
10
22.087105276314
20
-7.07173375856607
30
0
41
1
10
21.9197811802317
20
-7.07991489670752
30
0
41
1
10
21.8727273691355
20
-7.08436905740442
30
0
41
1
10
21.796105249222
20
-7.09600065960166
30
0
41
1
10
21.7663067097092
20
-7.1031916137741
30
0
41
1
10
21.7447885858213
20
-7.11156355292135
30
0
0
SPLINE
5
17D
100
AcDbEntity
8
SK1
62
256
6
ByLayer
370
18
48
1
60
0
100
AcDbSpline
70
4
71
3
72
70
73
66
40
0
40
0
40
0
40
0
40
0.0312500000000009
40
0.0312500000000009
40
0.0468750000000009
40
0.0468750000000009
40
0.0625000000000008
40
0.0625000000000008
40
0.0781250000000008
40
0.0781250000000008
40
0.0937500000000008
40
0.0937500000000008
40
0.125000000000001
40
0.125000000000001
40
0.156250000000001
40
0.156250000000001
40
0.1875
40
0.1875
40
0.21875
40
0.21875
40
0.25
40
0.25
40
0.3125
40
0.3125
40
0.34375
40
0.34375
40
0.375
40
0.375
40
0.4375
40
0.4375
40
0.5
40
0.5
40
0.5625
40
0.5625
40
0.59375
40
0.59375
40
0.625
40
0.625
40
0.687499999999999
40
0.687499999999999
40
0.749999999999999
40
0.749999999999999
40
0.781249999999999
40
0.781249999999999
40
0.812499999999999
40
0.812499999999999
40
0.843749999999999
40
0.843749999999999
40
0.859374999999999
40
0.859374999999999
40
0.874999999999999
40
0.874999999999999
40
0.90625
40
0.90625
40
0.921875
40
0.921875
40
0.9375
40
0.9375
40
0.953125
40
0.953125
40
0.96875
40
0.96875
40
0.984375
40
0.984375
40
1
40
1
40
1
40
1
41
1
10
-6.5
20
-8.08217792429738
30
0
41
1
10
-6.28762555995462
20
-8.08217792429738
30
0
41
1
10
-6.08104986911269
20
-8.05368849473035
30
0
41
1
10
-5.77910858566645
20
-7.97161548876423
30
0
41
1
10
-5.68022589061653
20
-7.93763423525914
30
0
41
1
10
-5.49054490854957
20
-7.85917405972873
30
0
41
1
10
-5.39899523500898
20
-7.81450307998708
30
0
41
1
10
-5.2218564656466
20
-7.71512651881918
30
0
41
1
10
-5.13594421810529
20
-7.66012522444171
30
0
41
1
10
-4.9730710583807
20
-7.54325327411436
30
0
41
1
10
-4.89566707429051
20
-7.48118572785879
30
0
41
1
10
-4.6739132088681
20
-7.28529466076768
30
0
41
1
10
-4.53991230602642
20
-7.14180694426813
30
0
41
1
10
-4.29416855767025
20
-6.83312930612388
30
0
41
1
10
-4.18521185387124
20
-6.6715007799863
30
0
41
1
10
-3.98806828865869
20
-6.33636750757177
30
0
41
1
10
-3.89994716555162
20
-6.16283546371301
30
0
41
1
10
-3.74020554839618
20
-5.80545940076314
30
0
41
1
10
-3.66838920508039
20
-5.62093024300796
30
0
41
1
10
-3.53937133315313
20
-5.24594125113808
30
0
41
1
10
-3.48231441550428
20
-5.05612691162614
30
0
41
1
10
-3.32871181677945
20
-4.48051810886963
30
0
41
1
10
-3.24948709448094
20
-4.08860232749163
30
0
41
1
10
-3.15366535436107
20
-3.49035454453516
30
0
41
1
10
-3.12563763183789
20
-3.28919601457946
30
0
41
1
10
-3.07615885164302
20
-2.8835794753536
30
0
41
1
10
-3.05468247616591
20
-2.6788066175184
30
0
41
1
10
-2.99892560884547
20
-2.06183265419932
30
0
41
1
10
-2.97341374459449
20
-1.65021464829943
30
0
41
1
10
-2.9399088448763
20
-0.826427708852918
30
0
41
1
10
-2.93195209632361
20
-0.414258490969502
30
0
41
1
10
-2.93190451240991
20
0.410616418566406
30
0
41
1
10
-2.9398119090001
20
0.823322087871986
30
0
41
1
10
-2.96496313204875
20
1.44279742981084
30
0
41
1
10
-2.97558958394541
20
1.64935895031218
30
0
41
1
10
-3.00193375507485
20
2.06262743969191
30
0
41
1
10
-3.01768796297787
20
2.26962385434214
30
0
41
1
10
-3.07336906956124
20
2.88522451010573
30
0
41
1
10
-3.12161720280068
20
3.29012272731185
30
0
41
1
10
-3.24933181748244
20
4.08777686756457
30
0
41
1
10
-3.32863739699849
20
4.48055429019126
30
0
41
1
10
-3.4831003209884
20
5.05891332672573
30
0
41
1
10
-3.54076942872436
20
5.25033331669707
30
0
41
1
10
-3.6696594231249
20
5.62428672514505
30
0
41
1
10
-3.74096306692999
20
5.80730424563461
30
0
41
1
10
-3.90070915193934
20
6.16438864035223
30
0
41
1
10
-3.98911623857577
20
6.33846735616979
30
0
41
1
10
-4.138362342958
20
6.59169519349339
30
0
41
1
10
-4.19087366086717
20
6.67469064307952
30
0
41
1
10
-4.30098015289809
20
6.83590272214585
30
0
41
1
10
-4.35870319203542
20
6.91434756669076
30
0
41
1
10
-4.54085622294414
20
7.14267001525303
30
0
41
1
10
-4.67411746978664
20
7.28563237868227
30
0
41
1
10
-4.89762414313628
20
7.48283481508952
30
0
41
1
10
-4.97599664741571
20
7.54549364627977
30
0
41
1
10
-5.13838907908934
20
7.66173374977816
30
0
41
1
10
-5.22276337997238
20
7.71564866991193
30
0
41
1
10
-5.39862205954023
20
7.81428032092916
30
0
41
1
10
-5.49010121423032
20
7.85900465123581
30
0
41
1
10
-5.68125471270633
20
7.93804563435424
30
0
41
1
10
-5.77882786643025
20
7.97148061306467
30
0
41
1
10
-5.97815227640163
20
8.02577693282768
30
0
41
1
10
-6.07990178078995
20
8.04664365567402
30
0
41
1
10
-6.2879131648474
20
8.07490697119016
30
0
41
1
10
-6.39402083858312
20
8.08217792429738
30
0
41
1
10
-6.5
20
8.08217792429738
30
0
0
SPLINE
5
17E
100
AcDbEntity
8
SK1
62
256
6
ByLayer
370
18
48
1
60
0
100
AcDbSpline
70
4
71
3
72
70
73
66
40
0
40
0
40
0
40
0
40
0.03125
40
0.03125
40
0.0468749999999999
40
0.0468749999999999
40
0.0624999999999999
40
0.0624999999999999
40
0.0781249999999998
40
0.0781249999999998
40
0.0937499999999998
40
0.0937499999999998
40
0.125
40
0.125
40
0.15625
40
0.15625
40
0.1875
40
0.1875
40
0.218749999999999
40
0.218749999999999
40
0.249999999999999
40
0.249999999999999
40
0.312499999999999
40
0.312499999999999
40
0.343749999999999
40
0.343749999999999
40
0.374999999999999
40
0.374999999999999
40
0.437499999999999
40
0.437499999999999
40
0.499999999999999
40
0.499999999999999
40
0.562499999999999
40
0.562499999999999
40
0.593749999999999
40
0.593749999999999
40
0.624999999999999
40
0.624999999999999
40
0.687499999999999
40
0.687499999999999
40
0.749999999999999
40
0.749999999999999
40
0.781249999999999
40
0.781249999999999
40
0.812499999999999
40
0.812499999999999
40
0.843749999999999
40
0.843749999999999
40
0.859374999999999
40
0.859374999999999
40
0.874999999999999
40
0.874999999999999
40
0.906249999999999
40
0.906249999999999
40
0.921875
40
0.921875
40
0.9375
40
0.9375
40
0.953125
40
0.953125
40
0.96875
40
0.96875
40
0.984375
40
0.984375
40
1
40
1
40
1
40
1
41
1
10
-53.5
20
8.08217792429738
30
0
41
1
10
-53.7123744400454
20
8.08217792429738
30
0
41
1
10
-53.9189501308873
20
8.05368849473035
30
0
41
1
10
-54.2208914143335
20
7.9716154887642
30
0
41
1
10
-54.3197741093835
20
7.93763423525914
30
0
41
1
10
-54.5094550914504
20
7.85917405972873
30
0
41
1
10
-54.601004764991
20
7.81450307998708
30
0
41
1
10
-54.7781435343534
20
7.71512651881918
30
0
41
1
10
-54.8640557818947
20
7.66012522444171
30
0
41
1
10
-55.0269289416193
20
7.54325327411436
30
0
41
1
10
-55.1043329257095
20
7.48118572785879
30
0
41
1
10
-55.3260867911319
20
7.28529466076768
30
0
41
1
10
-55.4600876939735
20
7.14180694426813
30
0
41
1
10
-55.7058314423297
20
6.83312930612388
30
0
41
1
10
-55.8147881461287
20
6.6715007799863
30
0
41
1
10
-56.0119317113413
20
6.33636750757177
30
0
41
1
10
-56.1000528344483
20
6.16283546371301
30
0
41
1
10
-56.2597944516038
20
5.80545940076314
30
0
41
1
10
-56.3316107949196
20
5.62093024300796
30
0
41
1
10
-56.4606286668468
20
5.24594125113808
30
0
41
1
10
-56.5176855844957
20
5.05612691162611
30
0
41
1
10
-56.6712881832205
20
4.48051810886963
30
0
41
1
10
-56.750512905519
20
4.08860232749163
30
0
41
1
10
-56.8463346456389
20
3.49035454453516
30
0
41
1
10
-56.8743623681621
20
3.28919601457946
30
0
41
1
10
-56.923841148357
20
2.8835794753536
30
0
41
1
10
-56.945317523834
20
2.6788066175184
30
0
41
1
10
-57.0010743911545
20
2.06183265419932
30
0
41
1
10
-57.0265862554054
20
1.65021464829943
30
0
41
1
10
-57.0600911551237
20
0.826427708852918
30
0
41
1
10
-57.0680479036763
20
0.414258490969502
30
0
41
1
10
-57.0680954875901
20
-0.410616418566406
30
0
41
1
10
-57.0601880909999
20
-0.823322087871986
30
0
41
1
10
-57.0350368679512
20
-1.44279742981084
30
0
41
1
10
-57.0244104160545
20
-1.64935895031215
30
0
41
1
10
-56.9980662449251
20
-2.06262743969191
30
0
41
1
10
-56.9823120370221
20
-2.26962385434214
30
0
41
1
10
-56.9266309304387
20
-2.88522451010573
30
0
41
1
10
-56.8783827971993
20
-3.29012272731185
30
0
41
1
10
-56.7506681825175
20
-4.08777686756457
30
0
41
1
10
-56.6713626030015
20
-4.48055429019126
30
0
41
1
10
-56.5168996790116
20
-5.05891332672573
30
0
41
1
10
-56.4592305712756
20
-5.25033331669707
30
0
41
1
10
-56.3303405768751
20
-5.62428672514505
30
0
41
1
10
-56.25903693307
20
-5.80730424563461
30
0
41
1
10
-56.0992908480606
20
-6.16438864035223
30
0
41
1
10
-56.0108837614242
20
-6.33846735616979
30
0
41
1
10
-55.861637657042
20
-6.59169519349339
30
0
41
1
10
-55.8091263391328
20
-6.67469064307952
30
0
41
1
10
-55.6990198471019
20
-6.83590272214585
30
0
41
1
10
-55.6412968079646
20
-6.91434756669076
30
0
41
1
10
-55.4591437770558
20
-7.14267001525306
30
0
41
1
10
-55.3258825302133
20
-7.28563237868227
30
0
41
1
10
-55.1023758568637
20
-7.48283481508952
30
0
41
1
10
-55.0240033525843
20
-7.54549364627977
30
0
41
1
10
-54.8616109209106
20
-7.66173374977816
30
0
41
1
10
-54.7772366200276
20
-7.71564866991193
30
0
41
1
10
-54.6013779404598
20
-7.81428032092916
30
0
41
1
10
-54.5098987857696
20
-7.85900465123581
30
0
41
1
10
-54.3187452872937
20
-7.93804563435424
30
0
41
1
10
-54.2211721335697
20
-7.97148061306467
30
0
41
1
10
-54.0218477235983
20
-8.02577693282768
30
0
41
1
10
-53.92009821921
20
-8.04664365567402
30
0
41
1
10
-53.7120868351526
20
-8.07490697119016
30
0
41
1
10
-53.6059791614168
20
-8.08217792429738
30
0
41
1
10
-53.5
20
-8.08217792429738
30
0
0
LINE
5
70
100
AcDbEntity
8
81
62
256
6
ByLayer
370
18
48
1
60
0
100
AcDbLine
10
95.3
20
0
30
0
11
100.3
21
0
31
0
39
0
210
0
220
0
230
1
0
LINE
5
71
100
AcDbEntity
8
1
62
256
6
ByLayer
370
18
48
1
60
0
100
AcDbLine
10
7.5983
20
20
30
0
11
0.2
21
20
31
0
39
0
210
0
220
0
230
1
0
LINE
5
73
100
AcDbEntity
8
1
62
256
6
ByLayer
370
18
48
1
60
0
100
AcDbLine
10
0.2
20
-20
30
0
11
7.5983
21
-20
31
0
39
0
210
0
220
0
230
1
0
LINE
5
74
100
AcDbEntity
8
1
62
256
6
ByLayer
370
18
48
1
60
0
100
AcDbLine
10
0.2
20
20
30
0
11
0
21
19.8
31
0
39
0
210
0
220
0
230
1
0
LINE
5
75
100
AcDbEntity
8
1
62
256
6
ByLayer
370
18
48
1
60
0
100
AcDbLine
10
0
20
-19.8
30
0
11
0.2
21
-20
31
0
39
0
210
0
220
0
230
1
0
LINE
5
76
100
AcDbEntity
8
SK1
62
256
6
ByLayer
370
18
48
1
60
0
100
AcDbLine
10
-58.6
20
-15.996
30
0
11
-58.449692
21
-15.874283
31
0
39
0
210
0
220
0
230
1
0
LINE
5
78
100
AcDbEntity
8
SK1
62
256
6
ByLayer
370
18
48
1
60
0
100
AcDbLine
10
-58.449692
20
15.874283
30
0
11
-58.6
21
15.996
31
0
39
0
210
0
220
0
230
1
0
LINE
5
79
100
AcDbEntity
8
SK1
62
256
6
ByLayer
370
18
48
1
60
0
100
AcDbLine
10
-59
20
15.996
30
0
11
-60
21
14.996
31
0
39
0
210
0
220
0
230
1
0
LINE
5
7A
100
AcDbEntity
8
SK1
62
256
6
ByLayer
370
18
48
1
60
0
100
AcDbLine
10
-60
20
-14.996
30
0
11
-59
21
-15.996
31
0
39
0
210
0
220
0
230
1
0
LINE
5
7B
100
AcDbEntity
8
SK1
62
256
6
ByLayer
370
18
48
1
60
0
100
AcDbLine
10
-1.6
20
-15.996
30
0
11
-1.144243
21
-15.783477
31
0
39
0
210
0
220
0
230
1
0
LINE
5
7C
100
AcDbEntity
8
SK1
62
256
6
ByLayer
370
18
48
1
60
0
100
AcDbLine
10
-1.144243
20
15.783477
30
0
11
-1.6
21
15.996
31
0
39
0
210
0
220
0
230
1
0
LINE
5
7D
100
AcDbEntity
8
SK1
62
256
6
ByLayer
370
18
48
1
60
0
100
AcDbLine
10
-57.3
20
15.996
30
0
11
-57.426311
21
15.887988
31
0
39
0
210
0
220
0
230
1
0
LINE
5
7E
100
AcDbEntity
8
SK1
62
256
6
ByLayer
370
18
48
1
60
0
100
AcDbLine
10
-57.426311
20
-15.887988
30
0
11
-57.3
21
-15.996
31
0
39
0
210
0
220
0
230
1
0
LINE
5
7F
100
AcDbEntity
8
SK1
62
256
6
ByLayer
370
18
48
1
60
0
100
AcDbLine
10
-58.6
20
15.996
30
0
11
-59
21
15.996
31
0
39
0
210
0
220
0
230
1
0
LINE
5
80
100
AcDbEntity
8
SK1
62
256
6
ByLayer
370
18
48
1
60
0
100
AcDbLine
10
-59
20
-15.996
30
0
11
-58.6
21
-15.996
31
0
39
0
210
0
220
0
230
1
0
LINE
5
81
100
AcDbEntity
8
SK1
62
256
6
ByLayer
370
18
48
1
60
0
100
AcDbLine
10
-0.975195
20
-15.746
30
0
11
-0.15
21
-15.746
31
0
39
0
210
0
220
0
230
1
0
LINE
5
82
100
AcDbEntity
8
SK1
62
256
6
ByLayer
370
18
48
1
60
0
100
AcDbLine
10
-0.15
20
15.746
30
0
11
-0.975195
21
15.746
31
0
39
0
210
0
220
0
230
1
0
LINE
5
83
100
AcDbEntity
8
1
62
256
6
ByLayer
370
18
48
1
60
0
100
AcDbLine
10
101.093697
20
-12.25825
30
0
11
106.698599
21
-12.25825
31
0
39
0
210
0
220
0
230
1
0
LINE
5
84
100
AcDbEntity
8
1
62
256
6
ByLayer
370
18
48
1
60
0
100
AcDbLine
10
106.698599
20
12.25825
30
0
11
106.197924
21
12.25825
31
0
39
0
210
0
220
0
230
1
0
LINE
5
85
100
AcDbEntity
8
1
62
256
6
ByLayer
370
18
48
1
60
0
100
AcDbLine
10
101.055974
20
12.486603
30
0
11
98.64154
21
12.478153
31
0
39
0
210
0
220
0
230
1
0
LINE
5
86
100
AcDbEntity
8
1
62
256
6
ByLayer
370
18
48
1
60
0
100
AcDbLine
10
98.64154
20
-12.478153
30
0
11
101.055974
21
-12.486603
31
0
39
0
210
0
220
0
230
1
0
LINE
5
87
100
AcDbEntity
8
SK1
62
256
6
ByLayer
370
18
48
1
60
0
100
AcDbLine
10
-1.6
20
15.996
30
0
11
-57.3
21
15.996
31
0
39
0
210
0
220
0
230
1
0
LINE
5
88
100
AcDbEntity
8
SK1
62
256
6
ByLayer
370
18
48
1
60
0
100
AcDbLine
10
-57.3
20
-15.996
30
0
11
-1.6
21
-15.996
31
0
39
0
210
0
220
0
230
1
0
LINE
5
89
100
AcDbEntity
8
1
62
256
6
ByLayer
370
18
48
1
60
0
100
AcDbLine
10
31.7
20
12.25
30
0
11
28.5
21
12.25
31
0
39
0
210
0
220
0
230
1
0
LINE
5
8A
100
AcDbEntity
8
1
62
256
6
ByLayer
370
18
48
1
60
0
100
AcDbLine
10
22.330589
20
12.941173
30
0
11
22.241728
21
12.987041
31
0
39
0
210
0
220
0
230
1
0
LINE
5
8B
100
AcDbEntity
8
1
62
256
6
ByLayer
370
18
48
1
60
0
100
AcDbLine
10
22.241728
20
-12.987041
30
0
11
22.330589
21
-12.941173
31
0
39
0
210
0
220
0
230
1
0
LINE
5
8C
100
AcDbEntity
8
1
62
256
6
ByLayer
370
18
48
1
60
0
100
AcDbLine
10
28.5
20
12.25
30
0
11
26
21
12.05
31
0
39
0
210
0
220
0
230
1
0
LINE
5
8D
100
AcDbEntity
8
1
62
256
6
ByLayer
370
18
48
1
60
0
100
AcDbLine
10
26
20
-12.05
30
0
11
28.5
21
-12.25
31
0
39
0
210
0
220
0
230
1
0
LINE
5
8E
100
AcDbEntity
8
1
62
256
6
ByLayer
370
18
48
1
60
0
100
AcDbLine
10
28.5
20
-12.25
30
0
11
31.7
21
-12.25
31
0
39
0
210
0
220
0
230
1
0
LINE
5
8F
100
AcDbEntity
8
80
62
256
6
ByLayer
370
18
48
1
60
0
100
AcDbLine
10
0
20
0
30
0
11
-5
21
0
31
0
39
0
210
0
220
0
230
1
0
LINE
5
90
100
AcDbEntity
8
4
62
256
6
ByLayer
370
18
48
0.05
60
0
100
AcDbLine
10
95.3
20
0
30
0
11
0
21
0
31
0
39
0
210
0
220
0
230
1
0
LINE
5
92
100
AcDbEntity
8
SK4
62
256
6
ByLayer
370
18
48
0.05
60
0
100
AcDbLine
10
116
20
0
30
0
11
-65
21
0
31
0
39
0
210
0
220
0
230
1
0
LINE
5
94
100
AcDbEntity
8
1
62
256
6
ByLayer
370
18
48
1
60
0
100
AcDbLine
10
107.341525
20
-5.496701
30
0
11
107.321057
21
-5.442028
31
0
39
0
210
0
220
0
230
1
0
LINE
5
95
100
AcDbEntity
8
1
62
256
6
ByLayer
370
18
48
1
60
0
100
AcDbLine
10
107.341525
20
-5.496701
30
0
11
109.454231
21
-3.176893
31
0
39
0
210
0
220
0
230
1
0
LINE
5
96
100
AcDbEntity
8
1
62
256
6
ByLayer
370
18
48
1
60
0
100
AcDbLine
10
104.305243
20
-11.410095
30
0
11
104.862286
21
-10.922038
31
0
39
0
210
0
220
0
230
1
0
LINE
5
97
100
AcDbEntity
8
1
62
256
6
ByLayer
370
18
48
1
60
0
100
AcDbLine
10
26
20
7.146105
30
0
11
26
21
12.05
31
0
39
0
210
0
220
0
230
1
0
LINE
5
98
100
AcDbEntity
8
1
62
256
6
ByLayer
370
18
48
1
60
0
100
AcDbLine
10
104.865798
20
-10.915535
30
0
11
104.865798
21
-3.661198
31
0
39
0
210
0
220
0
230
1
0
LINE
5
99
100
AcDbEntity
8
1
62
256
6
ByLayer
370
18
48
1
60
0
100
AcDbLine
10
106.784349
20
-12.256403
30
0
11
111.005308
21
0.000285
31
0
39
0
210
0
220
0
230
1
0
LINE
5
9A
100
AcDbEntity
8
1
62
256
6
ByLayer
370
18
48
1
60
0
100
AcDbLine
10
102.267456
20
-3.6598
30
0
11
104.865684
21
-3.6598
31
0
39
0
210
0
220
0
230
1
0
LINE
5
9B
100
AcDbEntity
8
1
62
256
6
ByLayer
370
18
48
1
60
0
100
AcDbLine
10
85
20
-5.077983
30
0
11
85
21
7.103962
31
0
39
0
210
0
220
0
230
1
0
LINE
5
9C
100
AcDbEntity
8
1
62
256
6
ByLayer
370
18
48
1
60
0
100
AcDbLine
10
105.243832
20
-11.4669
30
0
11
107.341525
21
-5.496701
31
0
39
0
210
0
220
0
230
1
0
LINE
5
9D
100
AcDbEntity
8
1
62
256
6
ByLayer
370
18
48
1
60
0
100
AcDbLine
10
96.602262
20
-11.413542
30
0
11
104.297378
21
-11.413542
31
0
39
0
210
0
220
0
230
1
0
LINE
5
9E
100
AcDbEntity
8
1
62
256
6
ByLayer
370
13
48
1
60
0
100
AcDbLine
10
107.497588
20
4.277301
30
0
11
107.486403
21
4.328005
31
0
39
0
210
0
220
0
230
1
0
LINE
5
9F
100
AcDbEntity
8
1
62
256
6
ByLayer
370
18
48
1
60
0
100
AcDbLine
10
95.3
20
-11.789435
30
0
11
95.3
21
-11.769105
31
0
39
0
210
0
220
0
230
1
0
LINE
5
A0
100
AcDbEntity
8
1
62
256
6
ByLayer
370
18
48
1
60
0
100
AcDbLine
10
110.91163
20
0.365343
30
0
11
110.727557
21
1.161877
31
0
39
0
210
0
220
0
230
1
0
LINE
5
A1
100
AcDbEntity
8
1
62
256
6
ByLayer
370
18
48
1
60
0
100
AcDbLine
10
104.862286
20
-10.922038
30
0
11
104.865798
21
-10.915535
31
0
39
0
210
0
220
0
230
1
0
LINE
5
A2
100
AcDbEntity
8
1
62
256
6
ByLayer
370
13
48
1
60
0
100
AcDbLine
10
81.274234
20
-7.323389
30
0
11
81.274234
21
-7.568768
31
0
39
0
210
0
220
0
230
1
0
LINE
5
A3
100
AcDbEntity
8
1
62
256
6
ByLayer
370
18
48
1
60
0
100
AcDbLine
10
95.2
20
-12.077575
30
0
11
95.2
21
-11.773718
31
0
39
0
210
0
220
0
230
1
0
LINE
5
A4
100
AcDbEntity
8
1
62
256
6
ByLayer
370
18
48
1
60
0
100
AcDbLine
10
109.815507
20
-4.243693
30
0
11
109.673002
21
-4.66874
31
0
39
0
210
0
220
0
230
1
0
LINE
5
A5
100
AcDbEntity
8
1
62
256
6
ByLayer
370
18
48
1
60
0
100
AcDbLine
10
31.7
20
-12.25
30
0
11
31.7
21
-10.166595
31
0
39
0
210
0
220
0
230
1
0
LINE
5
A6
100
AcDbEntity
8
1
62
256
6
ByLayer
370
18
48
1
60
0
100
AcDbLine
10
96.401512
20
-11.4669
30
0
11
96.401512
21
-11.402288
31
0
39
0
210
0
220
0
230
1
0
LINE
5
A7
100
AcDbEntity
8
1
62
256
6
ByLayer
370
18
48
1
60
0
100
AcDbLine
10
31.7
20
12.25
30
0
11
31.7
21
10.357138
31
0
39
0
210
0
220
0
230
1
0
LINE
5
A8
100
AcDbEntity
8
1
62
256
6
ByLayer
370
18
48
1
60
0
100
AcDbLine
10
110.91163
20
-0.365343
30
0
11
110.727557
21
-1.161877
31
0
39
0
210
0
220
0
230
1
0
LINE
5
A9
100
AcDbEntity
8
1
62
256
6
ByLayer
370
18
48
1
60
0
100
AcDbLine
10
0.2
20
0
30
0
11
0.2
21
-20
31
0
39
0
210
0
220
0
230
1
0
LINE
5
AA
100
AcDbEntity
8
1
62
256
6
ByLayer
370
18
48
1
60
0
100
AcDbLine
10
0.2
20
20
30
0
11
0.2
21
0
31
0
39
0
210
0
220
0
230
1
0
LINE
5
AB
100
AcDbEntity
8
1
62
256
6
ByLayer
370
18
48
1
60
0
100
AcDbLine
10
95.445422
20
-11.983772
30
0
11
95.445422
21
-11.84056
31
0
39
0
210
0
220
0
230
1
0
LINE
5
AC
100
AcDbEntity
8
1
62
256
6
ByLayer
370
13
48
1
60
0
100
AcDbLine
10
95.3
20
-11.789435
30
0
11
95.445422
21
-11.84056
31
0
39
0
210
0
220
0
230
1
0
LINE
5
AD
100
AcDbEntity
8
1
62
256
6
ByLayer
370
18
48
1
60
0
100
AcDbLine
10
28.5
20
-9.471599
30
0
11
28.5
21
-12.25
31
0
39
0
210
0
220
0
230
1
0
LINE
5
AE
100
AcDbEntity
8
1
62
256
6
ByLayer
370
18
48
1
60
0
100
AcDbLine
10
0
20
19.8
30
0
11
0
21
-19.8
31
0
39
0
210
0
220
0
230
1
0
LINE
5
AF
100
AcDbEntity
8
1
62
256
6
ByLayer
370
13
48
1
60
0
100
AcDbLine
10
96.359619
20
-11.400604
30
0
11
96.359619
21
-11.48133
31
0
39
0
210
0
220
0
230
1
0
LINE
5
B0
100
AcDbEntity
8
1
62
256
6
ByLayer
370
18
48
1
60
0
100
AcDbLine
10
104.865798
20
-3.661198
30
0
11
104.865684
21
-3.6598
31
0
39
0
210
0
220
0
230
1
0
LINE
5
B1
100
AcDbEntity
8
1
62
256
6
ByLayer
370
13
48
1
60
0
100
AcDbLine
10
22.241728
20
-12.987041
30
0
11
22.241728
21
-8.152451
31
0
39
0
210
0
220
0
230
1
0
LINE
5
B2
100
AcDbEntity
8
1
62
256
6
ByLayer
370
18
48
1
60
0
100
AcDbLine
10
110.970608
20
0.156672
30
0
11
111.005308
21
0.000285
31
0
39
0
210
0
220
0
230
1
0
LINE
5
B3
100
AcDbEntity
8
1
62
256
6
ByLayer
370
18
48
1
60
0
100
AcDbLine
10
96.024433
20
-12.409052
30
0
11
96.024433
21
-12.247084
31
0
39
0
210
0
220
0
230
1
0
LINE
5
B4
100
AcDbEntity
8
1
62
256
6
ByLayer
370
18
48
1
60
0
100
AcDbLine
10
111.005308
20
-0.000285
30
0
11
110.970608
21
-0.156672
31
0
39
0
210
0
220
0
230
1
0
LINE
5
B5
100
AcDbEntity
8
1
62
256
6
ByLayer
370
18
48
1
60
0
100
AcDbLine
10
95.3
20
-12.10997
30
0
11
95.3
21
-11.789435
31
0
39
0
210
0
220
0
230
1
0
LINE
5
B6
100
AcDbEntity
8
1
62
256
6
ByLayer
370
18
48
1
60
0
100
AcDbLine
10
95.3
20
-11.769105
30
0
11
95.3
21
-11.711416
31
0
39
0
210
0
220
0
230
1
0
LINE
5
B7
100
AcDbEntity
8
1
62
256
6
ByLayer
370
13
48
1
60
0
100
AcDbLine
10
22.330589
20
-12.941173
30
0
11
22.330589
21
-8.212571
31
0
39
0
210
0
220
0
230
1
0
LINE
5
B8
100
AcDbEntity
8
1
62
256
6
ByLayer
370
18
48
1
60
0
100
AcDbLine
10
104.865684
20
-3.6598
30
0
11
103.50562
21
1.876008
31
0
39
0
210
0
220
0
230
1
0
LINE
5
B9
100
AcDbEntity
8
1
62
256
6
ByLayer
370
13
48
1
60
0
100
AcDbLine
10
109.619549
20
1.198387
30
0
11
110.934708
21
0.279169
31
0
39
0
210
0
220
0
230
1
0
LINE
5
BA
100
AcDbEntity
8
1
62
256
6
ByLayer
370
18
48
1
60
0
100
AcDbLine
10
109.815507
20
4.243693
30
0
11
109.673002
21
4.66874
31
0
39
0
210
0
220
0
230
1
0
LINE
5
BB
100
AcDbEntity
8
1
62
256
6
ByLayer
370
13
48
1
60
0
100
AcDbLine
10
110.91163
20
0.365343
30
0
11
109.664789
21
1.23681
31
0
39
0
210
0
220
0
230
1
0
LINE
5
BC
100
AcDbEntity
8
1
62
256
6
ByLayer
370
13
48
1
60
0
100
AcDbLine
10
22.330589
20
12.941173
30
0
11
22.330589
21
7.423588
31
0
39
0
210
0
220
0
230
1
0
LINE
5
BD
100
AcDbEntity
8
1
62
256
6
ByLayer
370
18
48
1
60
0
100
AcDbLine
10
103.998245
20
-10.047982
30
0
11
104.865798
21
-10.915535
31
0
39
0
210
0
220
0
230
1
0
LINE
5
BE
100
AcDbEntity
8
1
62
256
6
ByLayer
370
18
48
1
60
0
100
AcDbLine
10
95.3
20
-11.677606
30
0
11
95.3
21
-11.711416
31
0
39
0
210
0
220
0
230
1
0
LINE
5
BF
100
AcDbEntity
8
1
62
256
6
ByLayer
370
18
48
1
60
0
100
AcDbLine
10
104.297378
20
-11.413542
30
0
11
104.305243
21
-11.410095
31
0
39
0
210
0
220
0
230
1
0
LINE
5
C0
100
AcDbEntity
8
1
62
256
6
ByLayer
370
18
48
1
60
0
100
AcDbLine
10
28.5
20
12.25
30
0
11
28.5
21
7.175992
31
0
39
0
210
0
220
0
230
1
0
LINE
5
C1
100
AcDbEntity
8
1
62
256
6
ByLayer
370
13
48
1
60
0
100
AcDbLine
10
7.5983
20
0
30
0
11
7.5983
21
-20
31
0
39
0
210
0
220
0
230
1
0
LINE
5
C2
100
AcDbEntity
8
1
62
256
6
ByLayer
370
13
48
1
60
0
100
AcDbLine
10
7.5983
20
20
30
0
11
7.5983
21
0
31
0
39
0
210
0
220
0
230
1
0
LINE
5
C3
100
AcDbEntity
8
1
62
256
6
ByLayer
370
18
48
1
60
0
100
AcDbLine
10
96.401512
20
-11.4669
30
0
11
105.243832
21
-11.4669
31
0
39
0
210
0
220
0
230
1
0
LINE
5
C4
100
AcDbEntity
8
1
62
256
6
ByLayer
370
13
48
1
60
0
100
AcDbLine
10
22.241728
20
12.987041
30
0
11
22.241728
21
7.437691
31
0
39
0
210
0
220
0
230
1
0
LINE
5
C5
100
AcDbEntity
8
1
62
256
6
ByLayer
370
18
48
1
60
0
100
AcDbLine
10
26
20
-12.05
30
0
11
26
21
-8.643205
31
0
39
0
210
0
220
0
230
1
0
LINE
5
C6
100
AcDbEntity
8
1
62
256
6
ByLayer
370
18
48
1
60
0
100
AcDbLine
10
111.005308
20
-0.000285
30
0
11
111.005308
21
0.000285
31
0
39
0
210
0
220
0
230
1
0
LINE
5
C7
100
AcDbEntity
8
SK1
62
256
6
ByLayer
370
18
48
1
60
0
100
AcDbLine
10
-1.6
20
-15.996
30
0
11
-1.6
21
0
31
0
39
0
210
0
220
0
230
1
0
LINE
5
C8
100
AcDbEntity
8
SK1
62
256
6
ByLayer
370
18
48
1
60
0
100
AcDbLine
10
-1.6
20
0
30
0
11
-1.6
21
15.996
31
0
39
0
210
0
220
0
230
1
0
LINE
5
C9
100
AcDbEntity
8
SK1
62
256
6
ByLayer
370
18
48
1
60
0
100
AcDbLine
10
-59
20
0
30
0
11
-59
21
-15.996
31
0
39
0
210
0
220
0
230
1
0
LINE
5
CA
100
AcDbEntity
8
SK1
62
256
6
ByLayer
370
18
48
1
60
0
100
AcDbLine
10
-59
20
15.996
30
0
11
-59
21
0
31
0
39
0
210
0
220
0
230
1
0
LINE
5
CB
100
AcDbEntity
8
SK1
62
256
6
ByLayer
370
13
48
1
60
0
100
AcDbLine
10
-58.449692
20
-15.874283
30
0
11
-58.449692
21
0
31
0
39
0
210
0
220
0
230
1
0
LINE
5
CC
100
AcDbEntity
8
SK1
62
256
6
ByLayer
370
13
48
1
60
0
100
AcDbLine
10
-58.449692
20
0
30
0
11
-58.449692
21
15.874283
31
0
39
0
210
0
220
0
230
1
0
LINE
5
CD
100
AcDbEntity
8
SK1
62
256
6
ByLayer
370
13
48
1
60
0
100
AcDbLine
10
-53.5
20
8.082178
30
0
11
-53.5
21
-8.082178
31
0
39
0
210
0
220
0
230
1
0
LINE
5
CE
100
AcDbEntity
8
SK1
62
256
6
ByLayer
370
18
48
1
60
0
100
AcDbLine
10
-57.3
20
0
30
0
11
-57.3
21
-15.996
31
0
39
0
210
0
220
0
230
1
0
LINE
5
CF
100
AcDbEntity
8
SK1
62
256
6
ByLayer
370
18
48
1
60
0
100
AcDbLine
10
-57.3
20
15.996
30
0
11
-57.3
21
0
31
0
39
0
210
0
220
0
230
1
0
LINE
5
D0
100
AcDbEntity
8
SK1
62
256
6
ByLayer
370
18
48
1
60
0
100
AcDbLine
10
-6.5
20
8.082178
30
0
11
-53.5
21
8.082178
31
0
39
0
210
0
220
0
230
1
0
LINE
5
D1
100
AcDbEntity
8
SK1
62
256
6
ByLayer
370
18
48
1
60
0
100
AcDbLine
10
-58.6
20
-15.996
30
0
11
-58.6
21
15.996
31
0
39
0
210
0
220
0
230
1
0
LINE
5
D2
100
AcDbEntity
8
SK1
62
256
6
ByLayer
370
18
48
1
60
0
100
AcDbLine
10
-60
20
0
30
0
11
-60
21
-14.996
31
0
39
0
210
0
220
0
230
1
0
LINE
5
D3
100
AcDbEntity
8
SK1
62
256
6
ByLayer
370
18
48
1
60
0
100
AcDbLine
10
-60
20
14.996
30
0
11
-60
21
0
31
0
39
0
210
0
220
0
230
1
0
LINE
5
D4
100
AcDbEntity
8
SK1
62
256
6
ByLayer
370
13
48
1
60
0
100
AcDbLine
10
-0.975195
20
15.746
30
0
11
-0.975195
21
-15.746
31
0
39
0
210
0
220
0
230
1
0
LINE
5
D5
100
AcDbEntity
8
SK1
62
256
6
ByLayer
370
13
48
1
60
0
100
AcDbLine
10
-6.5
20
-8.082178
30
0
11
-6.5
21
8.082178
31
0
39
0
210
0
220
0
230
1
0
LINE
5
D6
100
AcDbEntity
8
SK1
62
256
6
ByLayer
370
13
48
1
60
0
100
AcDbLine
10
-0.15
20
0
30
0
11
-0.15
21
-15.746
31
0
39
0
210
0
220
0
230
1
0
LINE
5
D7
100
AcDbEntity
8
SK1
62
256
6
ByLayer
370
13
48
1
60
0
100
AcDbLine
10
-0.15
20
15.746
30
0
11
-0.15
21
0
31
0
39
0
210
0
220
0
230
1
0
LINE
5
D8
100
AcDbEntity
8
SK1
62
256
6
ByLayer
370
13
48
1
60
0
100
AcDbLine
10
-1.144243
20
0
30
0
11
-1.144243
21
-15.783477
31
0
39
0
210
0
220
0
230
1
0
LINE
5
D9
100
AcDbEntity
8
SK1
62
256
6
ByLayer
370
13
48
1
60
0
100
AcDbLine
10
-1.144243
20
15.783477
30
0
11
-1.144243
21
0
31
0
39
0
210
0
220
0
230
1
0
LINE
5
DA
100
AcDbEntity
8
SK1
62
256
6
ByLayer
370
13
48
1
60
0
100
AcDbLine
10
-57.426311
20
-15.887988
30
0
11
-57.426311
21
0
31
0
39
0
210
0
220
0
230
1
0
LINE
5
DB
100
AcDbEntity
8
SK1
62
256
6
ByLayer
370
13
48
1
60
0
100
AcDbLine
10
-57.426311
20
0
30
0
11
-57.426311
21
15.887988
31
0
39
0
210
0
220
0
230
1
0
LINE
5
DC
100
AcDbEntity
8
SK1
62
256
6
ByLayer
370
18
48
1
60
0
100
AcDbLine
10
-53.5
20
-8.082178
30
0
11
-6.5
21
-8.082178
31
0
39
0
210
0
220
0
230
1
0
MTEXT
5
17F
100
AcDbEntity
8
SK6
62
256
6
ByLayer
370
13
48
1
60
0
100
AcDbMText
10
5.97627
20
34.875134
30
0
210
0
220
0
230
1
1
\W0.7373;870-2500-25L32-3
40
3.5
41
0
44
1.084337
50
0
71
7
72
5
7
iso_b_vert
0
DIMENSION
5
18D
100
AcDbEntity
8
2
62
256
6
ByLayer
370
13
48
1
60
0
100
AcDbDimension
2
DimnDraft3D1
10
26
20
-25.5
30
0
11
68.5
21
-25.5
31
0
70
32
71
5
72
1
41
1
210
0
220
0
230
1
3
Standard
100
AcDbAlignedDimension
13
111
23
-1.5875
33
0
14
26
24
-14.0875
34
0
50
0
100
AcDbRotatedDimension
1001
ACAD
1000
DSTYLE
1002
{
1070
   279
1070
     0
1070
   172
1070
     1
1070
   173
1070
     1
1070
   340
1005
180
1070
   271
1070
     1
1070
   272
1070
     2
1070
    77
1070
     1
1070
    73
1070
     0
1070
   171
1070
     3
1070
   274
1070
     4
1070
   177
1070
     7
1070
   176
1070
     7
1070
   178
1070
     7
1070
    48
1040
-0.005
1070
    41
1041
3.5
1070
   147
1041
1.5
1070
    42
1041
1.5875
1070
    44
1041
2.0
1070
   140
1041
3.0
1070
   343
1005
0
1070
   344
1005
0
1002
}
0
DIMENSION
5
197
100
AcDbEntity
8
2
62
256
6
ByLayer
370
13
48
1
60
0
100
AcDbDimension
2
DimnDraft3D2
10
28.9
20
19.5
30
0
11
69.95
21
19.5
31
0
70
32
71
5
72
1
41
1
210
0
220
0
230
1
3
Standard
100
AcDbAlignedDimension
13
111
23
1.5875
33
0
14
28.9
24
14.0875
34
0
50
0
100
AcDbRotatedDimension
1001
ACAD
1000
DSTYLE
1002
{
1070
   279
1070
     0
1070
   172
1070
     1
1070
   173
1070
     1
1070
   340
1005
180
1070
   271
1070
     1
1070
   272
1070
     2
1070
    77
1070
     1
1070
    73
1070
     0
1070
   171
1070
     3
1070
   274
1070
     4
1070
   177
1070
     7
1070
   176
1070
     7
1070
   178
1070
     7
1070
    48
1040
-0.005
1070
    41
1041
3.5
1070
   147
1041
1.5
1070
    42
1041
1.5875
1070
    44
1041
2.0
1070
   140
1041
3.0
1070
   343
1005
0
1070
   344
1005
0
1002
}
0
DIMENSION
5
1A2
100
AcDbEntity
8
SK2
62
256
6
ByLayer
370
13
48
1
60
0
100
AcDbDimension
2
DimnDraft3D3
10
0
20
-39
30
0
11
-30
21
-39
31
0
70
32
71
5
72
1
41
1
210
0
220
0
230
1
3
Standard
100
AcDbAlignedDimension
13
-60
23
-17.5875
33
0
14
0
24
-21.5875
34
0
50
0
100
AcDbRotatedDimension
1001
ACAD
1000
DSTYLE
1002
{
1070
   279
1070
     0
1070
   172
1070
     1
1070
   173
1070
     1
1070
   340
1005
180
1070
   271
1070
     1
1070
   272
1070
     2
1070
    77
1070
     1
1070
    73
1070
     0
1070
   171
1070
     3
1070
   274
1070
     4
1070
   177
1070
     7
1070
   176
1070
     7
1070
   178
1070
     7
1070
    48
1040
-0.005
1070
    41
1041
3.5
1070
   147
1041
1.5
1070
    42
1041
1.5875
1070
    44
1041
2.0
1070
   140
1041
3.0
1070
   343
1005
0
1070
   344
1005
0
1002
}
0
DIMENSION
5
1AC
100
AcDbEntity
8
2
62
256
6
ByLayer
370
13
48
1
60
0
100
AcDbDimension
2
DimnDraft3D4
10
111
20
-39
30
0
11
55.5
21
-39
31
0
70
32
71
5
72
1
41
1
210
0
220
0
230
1
3
Standard
100
AcDbAlignedDimension
13
0
23
-21.5875
33
0
14
111
24
-1.5875
34
0
50
0
100
AcDbRotatedDimension
1001
ACAD
1000
DSTYLE
1002
{
1070
   279
1070
     0
1070
   172
1070
     1
1070
   173
1070
     1
1070
   340
1005
180
1070
   271
1070
     1
1070
   272
1070
     2
1070
    77
1070
     1
1070
    73
1070
     0
1070
   171
1070
     3
1070
   274
1070
     4
1070
   177
1070
     7
1070
   176
1070
     7
1070
   178
1070
     7
1070
    48
1040
-0.005
1070
    41
1041
3.5
1070
   147
1041
1.5
1070
    42
1041
1.5875
1070
    44
1041
2.0
1070
   140
1041
3.0
1070
   343
1005
0
1070
   344
1005
0
1002
}
0
DIMENSION
5
1B7
100
AcDbEntity
8
SK2
62
256
6
ByLayer
370
13
48
1
60
0
100
AcDbDimension
2
DimnDraft3D5
10
-68.25
20
-16
30
0
11
-68.5
21
-0.520456
31
0
70
33
71
5
72
1
41
1
210
0
220
0
230
1
3
Standard
100
AcDbAlignedDimension
13
-61.5875
23
16
33
0
14
-61.5875
24
-16
34
0
1001
ACAD
1000
DSTYLE
1002
{
1070
   279
1070
     0
1070
    74
1070
     0
1070
   173
1070
     1
1070
   340
1005
180
1070
   271
1070
     1
1070
   272
1070
     2
1070
    77
1070
     1
1070
    73
1070
     0
1070
   171
1070
     3
1070
   274
1070
     4
1070
   177
1070
     7
1070
   176
1070
     7
1070
   178
1070
     7
1070
    48
1040
-0.005
1070
    41
1041
3.5
1070
   147
1041
1.5
1070
    42
1041
1.5875
1070
    44
1041
2.0
1070
   140
1041
3.0
1070
   343
1005
0
1070
   344
1005
0
1002
}
0
ENDSEC
0
SECTION
2
OBJECTS
0
DICTIONARY
5
222
330
0
100
AcDbDictionary
280
0
281
1
3
ACAD_GROUP
350
223
3
ACAD_MLINESTYLE
350
224
0
DICTIONARY
5
223
330
0
100
AcDbDictionary
280
0
281
1
0
DICTIONARY
5
224
330
0
100
AcDbDictionary
280
0
281
1
3
Standard
350
18
0
MLINESTYLE
5
18
330
224
100
AcDbMlineStyle
2
Standard
70
0
3

62
256
51
90
52
90
71
2
49
-0.5
62
256
6
ByLayer
49
0.5
62
256
6
ByLayer
0
RASTERVARIABLES
5
210
330

100
AcDbRasterVariables
90
0
70
1
71
1
72
1
0
ENDSEC
0
EOF
