0
SECTION
2
HEADER
9
$ACADVER
1
AC1015
9
$DWGCODEPAGE
3
ANSI_1252
9
$HANDSEED
5
247
9
$ANGBASE
50
0
9
$ANGDIR
70
0
9
$ATTMODE
70
1
9
$AUNITS
70
0
9
$AUPREC
70
0
9
$CECOLOR
62
256
9
$CELTSCALE
40
1
9
$CELTYPE
6
ByLayer
9
$CELWEIGHT
370
18
9
$CLAYER
8
0
9
$CMLJUST
70
0
9
$CMLSCALE
40
1
9
$CMLSTYLE
2
Standard
9
$DIMSTYLE
2
Standard
9
$TEXTSIZE
40
0.2
9
$TEXTSTYLE
7
Standard
9
$LUNITS
70
2
9
$LUPREC
70
4
9
$EXTNAMES
290
1
9
$INSUNITS
70
4
9
$LTSCALE
40
1
9
$LWDISPLAY
290
1
9
$PDMODE
70
0
9
$PDSIZE
40
0
9
$PLINEGEN
70
0
0
ENDSEC
0
SECTION
2
CLASSES
0
CLASS
1
RASTERVARIABLES
2
AcDbRasterVariables
3
ISM
90
0
280
0
281
0
0
ENDSEC
0
SECTION
2
TABLES
0
TABLE
2
VPORT
5
23d
100
AcDbSymbolTable
0
VPORT
5
1
100
AcDbSymbolTableRecord
100
AcDbViewportTableRecord
2
*Active
70
0
10
0
20
0
11
1
21
1
12
-1
22
1
13
0
23
0
14
0.5
24
0.5
15
10
25
10
16
0
26
0
36
1
17
0
27
0
37
0
0
ENDTAB
0
TABLE
2
LTYPE
5
23e
100
AcDbSymbolTable
0
LTYPE
5
14
100
AcDbSymbolTableRecord
100
AcDbLinetypeTableRecord
70
0
2
ByBlock
3

72
65
73
0
40
0
0
LTYPE
5
15
100
AcDbSymbolTableRecord
100
AcDbLinetypeTableRecord
70
0
2
ByLayer
3

72
65
73
0
40
0
0
LTYPE
5
16
100
AcDbSymbolTableRecord
100
AcDbLinetypeTableRecord
70
0
2
CONTINUOUS
3
Solid line
72
65
73
0
40
0
0
LTYPE
5
6A
100
AcDbSymbolTableRecord
100
AcDbLinetypeTableRecord
70
0
2
CENTER
3
____ _ ____ _ ____ _ ____
72
65
73
4
40
47.5
49
22
74
0
49
-8.5
74
0
49
8.5
74
0
49
-8.5
74
0
0
LTYPE
5
6B
100
AcDbSymbolTableRecord
100
AcDbLinetypeTableRecord
70
0
2
DASHED
3
__ __ __ __ __ __ __ __ __
72
65
73
2
40
25.72
49
12.86
74
0
49
-12.86
74
0
0
ENDTAB
0
TABLE
2
LAYER
5
23f
100
AcDbSymbolTable
0
LAYER
5
10
100
AcDbSymbolTableRecord
100
AcDbLayerTableRecord
2
0
70
0
62
7
6
CONTINUOUS
290
1
370
-3
390
0
0
LAYER
5
6D
100
AcDbSymbolTableRecord
100
AcDbLayerTableRecord
2
80
70
0
62
-6
6
CONTINUOUS
290
1
370
-3
390
0
0
LAYER
5
6F
100
AcDbSymbolTableRecord
100
AcDbLayerTableRecord
2
81
70
0
62
-3
6
CONTINUOUS
290
1
370
-3
390
0
0
LAYER
5
72
100
AcDbSymbolTableRecord
100
AcDbLayerTableRecord
2
1
70
0
62
4
6
CONTINUOUS
290
1
370
-3
390
0
0
LAYER
5
92
100
AcDbSymbolTableRecord
100
AcDbLayerTableRecord
2
4
70
0
62
-2
6
CENTER
290
1
370
-3
390
0
0
LAYER
5
19D
100
AcDbSymbolTableRecord
100
AcDbLayerTableRecord
2
2
70
0
62
7
6
CONTINUOUS
290
1
370
-3
390
0
0
LAYER
5
229
100
AcDbSymbolTableRecord
100
AcDbLayerTableRecord
2
SK1
70
0
62
4
6
CONTINUOUS
290
1
370
-3
390
0
0
LAYER
5
22a
100
AcDbSymbolTableRecord
100
AcDbLayerTableRecord
2
SK4
70
0
62
2
6
CENTER
290
1
370
-3
390
0
0
LAYER
5
22b
100
AcDbSymbolTableRecord
100
AcDbLayerTableRecord
2
SK6
70
0
62
5
6
CONTINUOUS
290
1
370
-3
390
0
0
LAYER
5
22c
100
AcDbSymbolTableRecord
100
AcDbLayerTableRecord
2
SK2
70
0
62
7
6
CONTINUOUS
290
1
370
-3
390
0
0
ENDTAB
0
TABLE
2
STYLE
5
240
100
AcDbSymbolTable
0
STYLE
5
11
100
AcDbSymbolTableRecord
100
AcDbTextStyleTableRecord
2
Standard
3
txt
70
0
71
0
40
0
41
1
42
0
50
0
0
STYLE
5
198
100
AcDbSymbolTableRecord
100
AcDbTextStyleTableRecord
2
iso_b_vert
3
simplex.shx
70
0
71
0
40
0
41
1
42
0
50
0
0
STYLE
5
199
100
AcDbSymbolTableRecord
100
AcDbTextStyleTableRecord
2
DWGDirectTextStyle
3
simplex
70
0
71
0
40
0
41
1
42
0
50
0
0
ENDTAB
0
TABLE
2
DIMSTYLE
5
241
100
AcDbSymbolTable
100
AcDbDimStyleTable
0
DIMSTYLE
105
27
100
AcDbSymbolTableRecord
100
AcDbDimStyleTableRecord
2
Standard
70
0
3
<>
41
0.18
42
0.0625
44
0.18
140
0.18
147
0.09
73
0
74
0
77
1
271
2
275
0
278
52
280
0
340
11
0
ENDTAB
0
TABLE
2
VIEW
5
242
100
AcDbSymbolTable
0
ENDTAB
0
TABLE
2
UCS
5
243
100
AcDbSymbolTable
0
ENDTAB
0
TABLE
2
APPID
5
244
100
AcDbSymbolTable
0
APPID
5
12
100
AcDbSymbolTableRecord
100
AcDbRegAppTableRecord
2
ACAD
70
0
0
ENDTAB
0
TABLE
2
BLOCK_RECORD
5
245
100
AcDbSymbolTable
0
BLOCK_RECORD
5
1F
100
AcDbSymbolTableRecord
100
AcDbBlockTableRecord
2
*Model_Space
340
0
70
0
0
BLOCK_RECORD
5
1B
100
AcDbSymbolTableRecord
100
AcDbBlockTableRecord
2
*Paper_Space
340
0
70
0
0
BLOCK_RECORD
5
23
100
AcDbSymbolTableRecord
100
AcDbBlockTableRecord
2
*Paper_Space0
340
0
70
0
0
BLOCK_RECORD
5
19B
100
AcDbSymbolTableRecord
100
AcDbBlockTableRecord
2
DimnDraft3D1
340
0
70
0
0
BLOCK_RECORD
5
1A6
100
AcDbSymbolTableRecord
100
AcDbBlockTableRecord
2
DimnDraft3D2
340
0
70
0
0
BLOCK_RECORD
5
1B0
100
AcDbSymbolTableRecord
100
AcDbBlockTableRecord
2
DimnDraft3D3
340
0
70
0
0
BLOCK_RECORD
5
1BB
100
AcDbSymbolTableRecord
100
AcDbBlockTableRecord
2
DimnDraft3D4
340
0
70
0
0
BLOCK_RECORD
5
1C5
100
AcDbSymbolTableRecord
100
AcDbBlockTableRecord
2
DimnDraft3D5
340
0
70
0
0
ENDTAB
0
ENDSEC
0
SECTION
2
BLOCKS
0
BLOCK
5
20
100
AcDbEntity
8
0
100
AcDbBlockBegin
2
*Model_Space
70
0
10
0
20
0
30
0
3
*Model_Space
0
ENDBLK
5
21
100
AcDbEntity
8
0
100
AcDbBlockEnd
0
BLOCK
5
1C
100
AcDbEntity
8
0
100
AcDbBlockBegin
2
*Paper_Space
70
0
10
0
20
0
30
0
3
*Paper_Space
0
ENDBLK
5
1D
100
AcDbEntity
8
0
100
AcDbBlockEnd
0
BLOCK
5
24
100
AcDbEntity
8
0
100
AcDbBlockBegin
2
*Paper_Space0
70
0
10
0
20
0
30
0
3
*Paper_Space0
0
ENDBLK
5
25
100
AcDbEntity
8
0
100
AcDbBlockEnd
0
BLOCK
5
1A3
100
AcDbEntity
8
0
100
AcDbBlockBegin
2
DimnDraft3D1
70
0
10
0
20
0
30
0
3
DimnDraft3D1
0
MTEXT
5
19C
100
AcDbEntity
8
2
62
256
6
ByLayer
370
13
48
1
60
0
100
AcDbMText
10
125.60863
20
-24.249886
30
0
210
0
220
0
230
1
1
\W0.7468;207.0
40
3
41
0
44
1.084337
50
0
71
7
72
5
7
iso_b_vert
0
LINE
5
19E
100
AcDbEntity
8
2
62
256
6
ByLayer
370
13
48
1
60
0
100
AcDbLine
10
233
20
-1.5875
30
0
11
233
21
-27
31
0
39
0
210
0
220
0
230
1
0
LINE
5
19F
100
AcDbEntity
8
2
62
256
6
ByLayer
370
13
48
1
60
0
100
AcDbLine
10
26
20
-13.5875
30
0
11
26
21
-27
31
0
39
0
210
0
220
0
230
1
0
LINE
5
1A0
100
AcDbEntity
8
2
62
256
6
ByLayer
370
13
48
1
60
0
100
AcDbLine
10
233
20
-25
30
0
11
26
21
-25
31
0
39
0
210
0
220
0
230
1
0
SOLID
5
1A1
100
AcDbEntity
8
2
62
256
6
ByLayer
370
13
48
1
60
0
100
AcDbTrace
10
233
20
-25
30
0
11
229.500002
21
-25.460784
31
0
12
229.499998
22
-24.539216
32
0
13
233
23
-25
33
0
39
0
210
0
220
0
230
1
0
SOLID
5
1A2
100
AcDbEntity
8
2
62
256
6
ByLayer
370
13
48
1
60
0
100
AcDbTrace
10
26
20
-25
30
0
11
29.499998
21
-24.539216
31
0
12
29.500002
22
-25.460784
32
0
13
26
23
-25
33
0
39
0
210
0
220
0
230
1
0
ENDBLK
5
1A4
100
AcDbEntity
8
0
100
AcDbBlockEnd
0
BLOCK
5
1AD
100
AcDbEntity
8
0
100
AcDbBlockBegin
2
DimnDraft3D2
70
0
10
0
20
0
30
0
3
DimnDraft3D2
0
MTEXT
5
1A7
100
AcDbEntity
8
2
62
256
6
ByLayer
370
13
48
1
60
0
100
AcDbMText
10
127.275629
20
19.750114
30
0
210
0
220
0
230
1
1
\W0.7616;204.1
40
3
41
0
44
1.084337
50
0
71
7
72
5
7
iso_b_vert
0
LINE
5
1A8
100
AcDbEntity
8
2
62
256
6
ByLayer
370
13
48
1
60
0
100
AcDbLine
10
233
20
1.5875
30
0
11
233
21
21
31
0
39
0
210
0
220
0
230
1
0
LINE
5
1A9
100
AcDbEntity
8
2
62
256
6
ByLayer
370
13
48
1
60
0
100
AcDbLine
10
28.9
20
13.5875
30
0
11
28.9
21
21
31
0
39
0
210
0
220
0
230
1
0
LINE
5
1AA
100
AcDbEntity
8
2
62
256
6
ByLayer
370
13
48
1
60
0
100
AcDbLine
10
233
20
19
30
0
11
28.9
21
19
31
0
39
0
210
0
220
0
230
1
0
SOLID
5
1AB
100
AcDbEntity
8
2
62
256
6
ByLayer
370
13
48
1
60
0
100
AcDbTrace
10
233
20
19
30
0
11
229.500002
21
18.539216
31
0
12
229.499998
22
19.460784
32
0
13
233
23
19
33
0
39
0
210
0
220
0
230
1
0
SOLID
5
1AC
100
AcDbEntity
8
2
62
256
6
ByLayer
370
13
48
1
60
0
100
AcDbTrace
10
28.9
20
19
30
0
11
32.399998
21
19.460784
31
0
12
32.400002
22
18.539216
32
0
13
28.9
23
19
33
0
39
0
210
0
220
0
230
1
0
ENDBLK
5
1AE
100
AcDbEntity
8
0
100
AcDbBlockEnd
0
BLOCK
5
1B8
100
AcDbEntity
8
0
100
AcDbBlockBegin
2
DimnDraft3D3
70
0
10
0
20
0
30
0
3
DimnDraft3D3
0
MTEXT
5
1B1
100
AcDbEntity
8
SK2
62
256
6
ByLayer
370
13
48
1
60
0
100
AcDbMText
10
-32.770456
20
-38.249886
30
0
210
0
220
0
230
1
1
\W0.7346;60.0
40
3
41
0
44
1.084337
50
0
71
7
72
5
7
iso_b_vert
0
LINE
5
1B3
100
AcDbEntity
8
SK2
62
256
6
ByLayer
370
13
48
1
60
0
100
AcDbLine
10
-60
20
-17.5875
30
0
11
-60
21
-41
31
0
39
0
210
0
220
0
230
1
0
LINE
5
1B4
100
AcDbEntity
8
SK2
62
256
6
ByLayer
370
13
48
1
60
0
100
AcDbLine
10
0
20
-21.5875
30
0
11
0
21
-41
31
0
39
0
210
0
220
0
230
1
0
LINE
5
1B5
100
AcDbEntity
8
SK2
62
256
6
ByLayer
370
13
48
1
60
0
100
AcDbLine
10
-60
20
-39
30
0
11
0
21
-39
31
0
39
0
210
0
220
0
230
1
0
SOLID
5
1B6
100
AcDbEntity
8
SK2
62
256
6
ByLayer
370
13
48
1
60
0
100
AcDbTrace
10
-60
20
-39
30
0
11
-56.500002
21
-38.539216
31
0
12
-56.499998
22
-39.460784
32
0
13
-60
23
-39
33
0
39
0
210
0
220
0
230
1
0
SOLID
5
1B7
100
AcDbEntity
8
SK2
62
256
6
ByLayer
370
13
48
1
60
0
100
AcDbTrace
10
0
20
-39
30
0
11
-3.499998
21
-39.460784
31
0
12
-3.500002
22
-38.539216
32
0
13
0
23
-39
33
0
39
0
210
0
220
0
230
1
0
ENDBLK
5
1B9
100
AcDbEntity
8
0
100
AcDbBlockEnd
0
BLOCK
5
1C2
100
AcDbEntity
8
0
100
AcDbBlockBegin
2
DimnDraft3D4
70
0
10
0
20
0
30
0
3
DimnDraft3D4
0
MTEXT
5
1BC
100
AcDbEntity
8
2
62
256
6
ByLayer
370
13
48
1
60
0
100
AcDbMText
10
112.60863
20
-38.249886
30
0
210
0
220
0
230
1
1
\W0.7468;233.0
40
3
41
0
44
1.084337
50
0
71
7
72
5
7
iso_b_vert
0
LINE
5
1BD
100
AcDbEntity
8
2
62
256
6
ByLayer
370
13
48
1
60
0
100
AcDbLine
10
0
20
-21.5875
30
0
11
0
21
-41
31
0
39
0
210
0
220
0
230
1
0
LINE
5
1BE
100
AcDbEntity
8
2
62
256
6
ByLayer
370
13
48
1
60
0
100
AcDbLine
10
233
20
-1.5875
30
0
11
233
21
-41
31
0
39
0
210
0
220
0
230
1
0
LINE
5
1BF
100
AcDbEntity
8
2
62
256
6
ByLayer
370
13
48
1
60
0
100
AcDbLine
10
0
20
-39
30
0
11
233
21
-39
31
0
39
0
210
0
220
0
230
1
0
SOLID
5
1C0
100
AcDbEntity
8
2
62
256
6
ByLayer
370
13
48
1
60
0
100
AcDbTrace
10
0
20
-39
30
0
11
3.499998
21
-38.539216
31
0
12
3.500002
22
-39.460784
32
0
13
0
23
-39
33
0
39
0
210
0
220
0
230
1
0
SOLID
5
1C1
100
AcDbEntity
8
2
62
256
6
ByLayer
370
13
48
1
60
0
100
AcDbTrace
10
233
20
-39
30
0
11
229.500002
21
-39.460784
31
0
12
229.499998
22
-38.539216
32
0
13
233
23
-39
33
0
39
0
210
0
220
0
230
1
0
ENDBLK
5
1C3
100
AcDbEntity
8
0
100
AcDbBlockEnd
0
BLOCK
5
1CD
100
AcDbEntity
8
0
100
AcDbBlockBegin
2
DimnDraft3D5
70
0
10
0
20
0
30
0
3
DimnDraft3D5
0
MTEXT
5
1C6
100
AcDbEntity
8
SK2
62
256
6
ByLayer
370
13
48
1
60
0
100
AcDbMText
10
-67.750114
20
0.229544
30
0
210
0
220
0
230
1
1
\W0.7346;32.0
40
3
41
0
44
1.084337
50
90
71
7
72
5
7
iso_b_vert
0
MTEXT
5
1C7
100
AcDbEntity
8
SK2
62
256
6
ByLayer
370
13
48
1
60
0
100
AcDbMText
10
-67.750114
20
-4.247019
30
0
210
0
220
0
230
1
1
%%c
40
3
41
0
44
1.084337
50
90
71
7
72
5
7
iso_b_vert
0
LINE
5
1C8
100
AcDbEntity
8
SK2
62
256
6
ByLayer
370
13
48
1
60
0
100
AcDbLine
10
-61.5875
20
16
30
0
11
-68.25
21
16
31
0
39
0
210
0
220
0
230
1
0
LINE
5
1C9
100
AcDbEntity
8
SK2
62
256
6
ByLayer
370
13
48
1
60
0
100
AcDbLine
10
-61.5875
20
-16
30
0
11
-68.25
21
-16
31
0
39
0
210
0
220
0
230
1
0
LINE
5
1CA
100
AcDbEntity
8
SK2
62
256
6
ByLayer
370
13
48
1
60
0
100
AcDbLine
10
-66.25
20
16
30
0
11
-66.25
21
-16
31
0
39
0
210
0
220
0
230
1
0
SOLID
5
1CB
100
AcDbEntity
8
SK2
62
256
6
ByLayer
370
13
48
1
60
0
100
AcDbTrace
10
-66.25
20
16
30
0
11
-65.789216
21
12.500002
31
0
12
-66.710784
22
12.499998
32
0
13
-66.25
23
16
33
0
39
0
210
0
220
0
230
1
0
SOLID
5
1CC
100
AcDbEntity
8
SK2
62
256
6
ByLayer
370
13
48
1
60
0
100
AcDbTrace
10
-66.25
20
-16
30
0
11
-66.710784
21
-12.500002
31
0
12
-65.789216
22
-12.499998
32
0
13
-66.25
23
-16
33
0
39
0
210
0
220
0
230
1
0
ENDBLK
5
1CE
100
AcDbEntity
8
0
100
AcDbBlockEnd
0
ENDSEC
0
SECTION
2
ENTITIES
0
ARC
5
E1
100
AcDbEntity
8
SK1
62
256
6
ByLayer
370
18
48
1
60
0
100
AcDbCircle
39
0
10
57.946236
20
-16.496
30
0
40
0.800000000000005
210
0
220
0
230
-1
100
AcDbArc
50
51
51
130.534532
0
ARC
5
E2
100
AcDbEntity
8
SK1
62
256
6
ByLayer
370
18
48
1
60
0
100
AcDbCircle
39
0
10
0.15
20
-16.146
30
0
40
0.4
210
0
220
0
230
-1
100
AcDbArc
50
90
51
112.024313
0
ARC
5
E3
100
AcDbEntity
8
SK1
62
256
6
ByLayer
370
18
48
1
60
0
100
AcDbCircle
39
0
10
0.975195
20
16.146
30
0
40
0.4
210
0
220
0
230
-1
100
AcDbArc
50
270
51
295
0
ARC
5
E4
100
AcDbEntity
8
1
62
256
6
ByLayer
370
18
48
1
60
0
100
AcDbCircle
39
0
10
-26
20
19.55
30
0
40
8
210
0
220
0
230
-1
100
AcDbArc
50
270
51
298.02309
0
ARC
5
E5
100
AcDbEntity
8
1
62
256
6
ByLayer
370
18
48
1
60
0
100
AcDbCircle
39
0
10
-26
20
-19.55
30
0
40
8
210
0
220
0
230
-1
100
AcDbArc
50
61.97691
51
90
0
ARC
5
E6
100
AcDbEntity
8
SK1
62
256
6
ByLayer
370
18
48
1
60
0
100
AcDbCircle
39
0
10
0.975195
20
-16.146
30
0
40
0.4
210
0
220
0
230
-1
100
AcDbArc
50
65
51
90
0
ARC
5
E7
100
AcDbEntity
8
SK1
62
256
6
ByLayer
370
18
48
1
60
0
100
AcDbCircle
39
0
10
0.15
20
16.146
30
0
40
0.4
210
0
220
0
230
-1
100
AcDbArc
50
247.975687
51
270
0
ARC
5
E8
100
AcDbEntity
8
SK1
62
256
6
ByLayer
370
18
48
1
60
0
100
AcDbCircle
39
0
10
57.946236
20
16.496
30
0
40
0.800000000000005
210
0
220
0
230
-1
100
AcDbArc
50
229.465468
51
309
0
ELLIPSE
5
E9
100
AcDbEntity
8
1
62
256
6
ByLayer
370
13
48
1
60
0
100
AcDbEllipse
10
231.716631
20
1.114269
30
0
11
-0.0544235218676496
21
-0.0778657836762816
31
0
210
0
220
0
230
1
40
0.550074
41
-2.35740612069712
42
-1.67462492420246
0
ELLIPSE
5
EA
100
AcDbEntity
8
1
62
256
6
ByLayer
370
18
48
1
60
0
100
AcDbEllipse
10
196.321386
20
1E-06
30
0
11
47.111491916075
21
-10.4350354968483
31
0
210
0
220
0
230
1
40
0.114646
41
-1.3988651063315
42
-1.36937982261733
0
ELLIPSE
5
EB
100
AcDbEntity
8
1
62
256
6
ByLayer
370
18
48
1
60
0
100
AcDbEllipse
10
233.010657
20
0.014553
30
0
11
4.18437329832776
21
12.0166105738687
31
0
210
0
220
0
230
1
40
0.077207
41
-2.89464409369443
42
-2.79654588857479
0
ELLIPSE
5
EC
100
AcDbEntity
8
1
62
256
6
ByLayer
370
13
48
1
60
0
100
AcDbEllipse
10
229.631172
20
4.100596
30
0
11
-0.0927699273740761
21
-0.0204631516391938
31
0
210
0
220
0
230
1
40
0.128734
41
-1.68851840488328
42
-1.40179130299985
0
ELLIPSE
5
ED
100
AcDbEntity
8
1
62
256
6
ByLayer
370
18
48
1
60
0
100
AcDbEllipse
10
233.005664
20
0
30
0
11
4.75485834033432
21
11.640075236455
31
0
210
0
220
0
230
1
40
0.349717
41
2.91977206754614
42
-2.98233986733073
0
ELLIPSE
5
EE
100
AcDbEntity
8
1
62
256
6
ByLayer
370
13
48
1
60
0
100
AcDbEllipse
10
229.631843
20
4.097543
30
0
11
-0.0928044733932099
21
-0.0203059035309684
31
0
210
0
220
0
230
1
40
0.128931
41
-1.68830007078968
42
-1.40157178538681
0
ELLIPSE
5
EF
100
AcDbEntity
8
1
62
256
6
ByLayer
370
13
48
1
60
0
100
AcDbEllipse
10
203.85
20
11.981924
30
0
11
5.85329452689334
21
-5.45334238622801
31
0
210
0
220
0
230
1
40
0.223252
41
0.909142801901763
42
1.03043389297643
0
ELLIPSE
5
F0
100
AcDbEntity
8
1
62
256
6
ByLayer
370
18
48
1
60
0
100
AcDbEllipse
10
208.599646
20
-85.693133
30
0
11
79.8220846762698
21
1.11829619725857
31
0
210
0
220
0
230
1
40
0.93832
41
1.43784764494825
42
1.43962133234424
0
ELLIPSE
5
F1
100
AcDbEntity
8
1
62
256
6
ByLayer
370
18
48
1
60
0
100
AcDbEllipse
10
242.429298
20
0
30
0
11
15.9335509755437
21
10.8005315584049
31
0
210
0
220
0
230
1
40
0.290406
41
2.93771630999263
42
-3.11138890734401
0
ELLIPSE
5
F2
100
AcDbEntity
8
1
62
256
6
ByLayer
370
18
48
1
60
0
100
AcDbEllipse
10
224.691849
20
-1.630749
30
0
11
0.38449359549735
21
-1.51152961734661
31
0
210
0
220
0
230
1
40
0.321529
41
0
42
6.28318530717959
0
ELLIPSE
5
F3
100
AcDbEntity
8
1
62
256
6
ByLayer
370
13
48
1
60
0
100
AcDbEllipse
10
231.693823
20
1.130335
30
0
11
-0.0549936374731436
21
-0.077464184223888
31
0
210
0
220
0
230
1
40
0.550597
41
-2.34971761043137
42
-1.6706057725191
0
ELLIPSE
5
F4
100
AcDbEntity
8
1
62
256
6
ByLayer
370
18
48
1
60
0
100
AcDbEllipse
10
233.005308
20
0
30
0
11
4.09292885192656
21
11.7540029184446
31
0
210
0
220
0
230
1
40
0.077207
41
-3.09735766673229
42
-2.89248650046705
0
ELLIPSE
5
F5
100
AcDbEntity
8
1
62
256
6
ByLayer
370
18
48
1
60
0
100
AcDbEllipse
10
232.95225
20
0.250645
30
0
11
0.0446240261490476
21
-0.146773165365402
31
0
210
0
220
0
230
1
40
0.05855
41
-2.43183944758994
42
-1.7490582607596
0
ELLIPSE
5
F6
100
AcDbEntity
8
1
62
256
6
ByLayer
370
18
48
1
60
0
100
AcDbEllipse
10
233.010657
20
-0.014553
30
0
11
4.18437329832777
21
-12.0166105738687
31
0
210
0
220
0
230
1
40
0.077207
41
2.79654588857479
42
2.89464409369442
0
ELLIPSE
5
F7
100
AcDbEntity
8
1
62
256
6
ByLayer
370
18
48
1
60
0
100
AcDbEllipse
10
214.915
20
0
30
0
11
11.7582499893071
21
-1.33232694232893E-14
31
0
210
0
220
0
230
1
40
1
41
-1.29290776044546
42
-1.21056996379408
0
ELLIPSE
5
F8
100
AcDbEntity
8
1
62
256
6
ByLayer
370
18
48
1
60
0
100
AcDbEllipse
10
25.912032
20
6.151872
30
0
11
5.49829592488063
21
5.8110878432907
31
0
210
0
220
0
230
1
40
0.404016
41
1.08730640610898
42
2.83719925159317
0
ELLIPSE
5
F9
100
AcDbEntity
8
1
62
256
6
ByLayer
370
18
48
1
60
0
100
AcDbEllipse
10
212.75
20
-5.297474
30
0
11
1.64999999999996
21
0
31
0
210
0
220
0
230
1
40
0.702153
41
-1.86031362365725
42
-1.16229128198511
0
ELLIPSE
5
FA
100
AcDbEntity
8
1
62
256
6
ByLayer
370
18
48
1
60
0
100
AcDbEllipse
10
233.005664
20
0
30
0
11
4.75485834056122
21
-11.6400752369943
31
0
210
0
220
0
230
1
40
0.349717
41
2.98233986733428
42
2.9996965265957
0
ELLIPSE
5
FB
100
AcDbEntity
8
1
62
256
6
ByLayer
370
18
48
1
60
0
100
AcDbEllipse
10
212.96
20
-5.297474
30
0
11
-2.52999999999998
21
3.09825407517059E-16
31
0
210
0
220
0
230
1
40
0.702153
41
0.943754016511092
42
2.19469697249896
0
ELLIPSE
5
FC
100
AcDbEntity
8
1
62
256
6
ByLayer
370
18
48
1
60
0
100
AcDbEllipse
10
212.96
20
-5.297474
30
0
11
-2.52999999999998
21
3.09825407517059E-16
31
0
210
0
220
0
230
1
40
0.702153
41
-3.14159261820219
42
-4.99974598005131E-16
0
ELLIPSE
5
FD
100
AcDbEntity
8
1
62
256
6
ByLayer
370
18
48
1
60
0
100
AcDbEllipse
10
232.95225
20
-0.250645
30
0
11
0.0446240259060815
21
0.146773164671875
31
0
210
0
220
0
230
1
40
0.05855
41
1.74905825782825
42
2.43183944743753
0
POINT
5
6C
100
AcDbEntity
8
80
62
256
6
ByLayer
370
18
48
1
60
0
100
AcDbPoint
10
0
20
0
30
0
39
0
210
0
220
0
230
1
50
360
0
POINT
5
6E
100
AcDbEntity
8
81
62
256
6
ByLayer
370
18
48
1
60
0
100
AcDbPoint
10
218
20
0
30
0
39
0
210
0
220
0
230
1
50
360
0
SPLINE
5
FE
100
AcDbEntity
8
1
62
256
6
ByLayer
370
18
48
1
60
0
100
AcDbSpline
70
4
71
3
72
16
73
12
40
0
40
0
40
0
40
0
40
0.145784192316416
40
0.291385346270435
40
0.435385734796905
40
0.57614590764239
40
0.66251318061439
40
0.747311761554366
40
0.831044398228761
40
0.914734543313913
40
1
40
1
40
1
40
1
41
1
10
22.1531053820785
20
12.5349161231952
30
0
41
1
10
21.4284422972421
20
12.9349135315106
30
0
41
1
10
20.0019168935699
20
13.7690043822577
30
0
41
1
10
17.9621017815324
20
15.1628104540968
30
0
41
1
10
15.9583236977756
20
16.5551713811467
30
0
41
1
10
14.1902503781647
20
17.6996385787407
30
0
41
1
10
12.6413339724392
20
18.5563879351451
30
0
41
1
10
11.3257830183545
20
19.160063619907
30
0
41
1
10
9.97144035827257
20
19.6272263865344
30
0
41
1
10
8.56482909780793
20
19.9305390656023
30
0
41
1
10
7.61026152648277
20
19.9982287214928
30
0
41
1
10
7.1233
20
20
30
0
0
SPLINE
5
FF
100
AcDbEntity
8
1
62
256
6
ByLayer
370
18
48
1
60
0
100
AcDbSpline
70
4
71
3
72
16
73
12
40
0
40
0
40
0
40
0
40
0.0903553674804916
40
0.179063468766606
40
0.267988975170532
40
0.358252586714833
40
0.450341247462364
40
0.544268478107697
40
0.694802469205561
40
0.847270559728137
40
1
40
1
40
1
40
1
41
1
10
7.1233
20
-20
30
0
41
1
10
7.63971386901336
20
-19.9977744289967
30
0
41
1
10
8.65096562424861
20
-19.9219832564401
30
0
41
1
10
10.139344584818
20
-19.5820603159911
30
0
41
1
10
11.5694360550654
20
-19.0618952060018
30
0
41
1
10
12.9575639987216
20
-18.3940087977965
30
0
41
1
10
14.3163142162902
20
-17.612140856823
30
0
41
1
10
15.9213755989467
20
-16.5785824905352
30
0
41
1
10
17.7710854840071
20
-15.2962588807534
30
0
41
1
10
19.901552761261
20
-13.8307487473265
30
0
41
1
10
21.3945347425758
20
-12.9550807128941
30
0
41
1
10
22.1531053820785
20
-12.5349161231952
30
0
0
SPLINE
5
100
100
AcDbEntity
8
1
62
256
6
ByLayer
370
18
48
1
60
0
100
AcDbSpline
70
4
71
3
72
51
73
47
40
0
40
0
40
0
40
0
40
0.0347342041651426
40
0.0666583147072199
40
0.0960565958575931
40
0.121947984587229
40
0.146857686781451
40
0.170530594163686
40
0.19243769380018
40
0.212590252041392
40
0.231004020955879
40
0.247735994587157
40
0.262503995609347
40
0.280785373698833
40
0.302423358188121
40
0.323452958348912
40
0.342220377221552
40
0.358727055530085
40
0.373408679704875
40
0.394770780209915
40
0.414400438086994
40
0.435017103200897
40
0.45781270747746
40
0.484516742329202
40
0.516172512251071
40
0.54861453080832
40
0.5784301573736
40
0.61804255237584
40
0.653522409226028
40
0.684819394532677
40
0.715599817088405
40
0.725341631038875
40
0.737109051516894
40
0.750945798152998
40
0.766851609885244
40
0.783808451194972
40
0.797532992875283
40
0.809405932139628
40
0.820695478490642
40
0.832381374773436
40
0.844298931848981
40
0.884509594418023
40
0.925907003314946
40
0.971292632470871
40
0.995542338816218
40
1
40
1
40
1
40
1
41
1
10
129.538410722462
20
-11.2393118310339
30
0
41
1
10
129.978034862633
20
-11.2375786093691
30
0
41
1
10
130.837275355486
20
-11.2309944694632
30
0
41
1
10
132.117500930988
20
-11.2041846146581
30
0
41
1
10
133.317543290744
20
-11.186814278107
30
0
41
1
10
134.439686187581
20
-11.1858768462218
30
0
41
1
10
135.456032214187
20
-11.2052902711666
30
0
41
1
10
136.402296005174
20
-11.2214839838319
30
0
41
1
10
137.294277897779
20
-11.2304368613057
30
0
41
1
10
138.118246820663
20
-11.2355414350451
30
0
41
1
10
138.876354607035
20
-11.2379710145828
30
0
41
1
10
139.564246322713
20
-11.239014896229
30
0
41
1
10
140.254568207095
20
-11.2395142910618
30
0
41
1
10
141.01420385697
20
-11.2400678985685
30
0
41
1
10
141.861260035894
20
-11.2408733089284
30
0
41
1
10
142.715024673753
20
-11.2419119093269
30
0
41
1
10
143.497497008813
20
-11.2427619902095
30
0
41
1
10
144.191744466879
20
-11.243207990568
30
0
41
1
10
144.922044593167
20
-11.243202688528
30
0
41
1
10
145.69574840518
20
-11.2424596848261
30
0
41
1
10
146.55193570753
20
-11.2411856036304
30
0
41
1
10
147.428048614715
20
-11.2398094176032
30
0
41
1
10
148.402468953595
20
-11.2387030144784
30
0
41
1
10
149.530318902056
20
-11.2380579354039
30
0
41
1
10
150.792176126468
20
-11.2381448917068
30
0
41
1
10
152.097473509823
20
-11.2391242254916
30
0
41
1
10
153.512422157461
20
-11.2409068485215
30
0
41
1
10
154.970857937884
20
-11.2434064152741
30
0
41
1
10
156.448306044493
20
-11.2444409505607
30
0
41
1
10
157.804264243206
20
-11.2437826761937
30
0
41
1
10
158.802315919781
20
-11.2434799212854
30
0
41
1
10
159.529003278664
20
-11.2435026108036
30
0
41
1
10
160.020215866854
20
-11.2435864214467
30
0
41
1
10
160.59709187293
20
-11.24377714426
30
0
41
1
10
161.246088286394
20
-11.2440968608342
30
0
41
1
10
161.893518780713
20
-11.244511320748
30
0
41
1
10
162.484922335669
20
-11.2449534090782
30
0
41
1
10
162.997445823782
20
-11.2453574292268
30
0
41
1
10
163.481784273408
20
-11.2457626824907
30
0
41
1
10
163.966635449172
20
-11.2461908912133
30
0
41
1
10
164.852743527758
20
-11.2469203896172
30
0
41
1
10
166.149721597912
20
-11.2476963493409
30
0
41
1
10
167.892911347201
20
-11.2413018541929
30
0
41
1
10
169.39935178745
20
-11.2224494732374
30
0
41
1
10
170.38530216012
20
-11.1962952337856
30
0
41
1
10
170.772082253739
20
-11.1856468408386
30
0
41
1
10
170.832266413453
20
-11.1840131189708
30
0
0
SPLINE
5
101
100
AcDbEntity
8
1
62
256
6
ByLayer
370
18
48
1
60
0
100
AcDbSpline
70
4
71
3
72
8
73
4
40
0
40
0
40
0
40
0
40
1
40
1
40
1
40
1
41
1
10
175.370686511679
20
-11.2303163794204
30
0
41
1
10
175.437747473936
20
-11.2312807681142
30
0
41
1
10
175.504379893148
20
-11.232093416269
30
0
41
1
10
175.570647749824
20
-11.2328192298286
30
0
0
SPLINE
5
102
100
AcDbEntity
8
1
62
256
6
ByLayer
370
18
48
1
60
0
100
AcDbSpline
70
4
71
2
72
6
73
3
40
0
40
0
40
0
40
1
40
1
40
1
41
1
10
208.718881090673
20
6.16802230670339
30
0
41
1
10
208.718882412976
20
6.16811153479691
30
0
41
1
10
208.718883735278
20
6.16820074182809
30
0
0
SPLINE
5
103
100
AcDbEntity
8
1
62
256
6
ByLayer
370
18
48
1
60
0
100
AcDbSpline
70
4
71
3
72
43
73
39
40
0
40
0
40
0
40
0
40
0.0042817227273094
40
0.0318400329569248
40
0.0620353013070798
40
0.091102480725575
40
0.115650249654762
40
0.135686879649097
40
0.152929715154203
40
0.171391753419722
40
0.199237205137019
40
0.230504585382026
40
0.265215514247653
40
0.299537978371481
40
0.331908263046126
40
0.362397479586163
40
0.392766516037759
40
0.422255464366861
40
0.448843509398055
40
0.476259724472976
40
0.508181044607345
40
0.545722808544234
40
0.585358658426024
40
0.626912160422399
40
0.66468057181905
40
0.695901524266832
40
0.720164149279629
40
0.748865062294365
40
0.780067874612903
40
0.807204956388312
40
0.829996251536481
40
0.859189585354805
40
0.891489087522854
40
0.92652520656925
40
0.962284842408682
40
0.980460412847606
40
0.996618289394663
40
1
40
1
40
1
40
1
41
1
10
71.0970091834021
20
11.2408331504683
30
0
41
1
10
71.0468913046967
20
11.2404145642012
30
0
41
1
10
70.6733132290256
20
11.2375327952491
30
0
41
1
10
69.9142518812541
20
11.2351204352104
30
0
41
1
10
68.8730276724128
20
11.2406602909098
30
0
41
1
10
67.8753237332638
20
11.2449876960371
30
0
41
1
10
66.9945281578087
20
11.2460929488508
30
0
41
1
10
66.2538572168856
20
11.2458263250887
30
0
41
1
10
65.5827341976495
20
11.245013078205
30
0
41
1
10
64.8145258478869
20
11.2442482600559
30
0
41
1
10
63.8782182356939
20
11.2437670351662
30
0
41
1
10
62.744925042712
20
11.2431569884234
30
0
41
1
10
61.5332686250912
20
11.2429160492361
30
0
41
1
10
60.3082835283499
20
11.2431649805272
30
0
41
1
10
59.1343018265862
20
11.2439107178765
30
0
41
1
10
58.0080838214759
20
11.2450771476336
30
0
41
1
10
56.9166624361534
20
11.2461415505429
30
0
41
1
10
55.8723963553899
20
11.2463961082024
30
0
41
1
10
54.8637745755067
20
11.2457979999486
30
0
41
1
10
53.825771509746
20
11.2447658445429
30
0
41
1
10
52.655444122368
20
11.2435913659698
30
0
41
1
10
51.3375004622922
20
11.2425624078073
30
0
41
1
10
49.9031977257317
20
11.2419828644266
30
0
41
1
10
48.4661565380443
20
11.242130408336
30
0
41
1
10
47.1307694736697
20
11.2431834382826
30
0
41
1
10
46.0042647570503
20
11.2439799555464
30
0
41
1
10
44.9872957647499
20
11.2438430142637
30
0
41
1
10
43.9705441332602
20
11.2426114859025
30
0
41
1
10
42.9190670630563
20
11.2406406628744
30
0
41
1
10
41.9390033547578
20
11.238696146598
30
0
41
1
10
40.9831248497908
20
11.2369431479787
30
0
41
1
10
39.9652974864508
20
11.2354008808026
30
0
41
1
10
38.8012862031789
20
11.2337588043675
30
0
41
1
10
37.5547663036983
20
11.2338154563712
30
0
41
1
10
36.4819788973642
20
11.2353919544283
30
0
41
1
10
35.6354170624071
20
11.2371150768683
30
0
41
1
10
35.1797917211686
20
11.238247816521
30
0
41
1
10
34.9437469267369
20
11.2388841040237
30
0
41
1
10
34.9028948800425
20
11.2389956405382
30
0
0
SPLINE
5
104
100
AcDbEntity
8
1
62
256
6
ByLayer
370
18
48
1
60
0
100
AcDbSpline
70
4
71
3
72
42
73
38
40
0
40
0
40
0
40
0
40
0.0114275148144717
40
0.0286886006627709
40
0.0457974398879072
40
0.0692448340213776
40
0.0952832708264045
40
0.123991730336595
40
0.15543055127593
40
0.189580892913938
40
0.221934889012217
40
0.249731992139318
40
0.271213350718925
40
0.288875385799512
40
0.303369293156725
40
0.32005417343713
40
0.340024461428453
40
0.361740861883338
40
0.422553573107535
40
0.48941864084843
40
0.551418222121815
40
0.616059019795146
40
0.646592503497918
40
0.672974388790821
40
0.701422508492199
40
0.731614643571588
40
0.761854634712098
40
0.793065991220537
40
0.824926989846464
40
0.85871384513224
40
0.890264652783814
40
0.918593600881008
40
0.942994091505246
40
0.959733766763115
40
0.976932062105951
40
0.998608282384578
40
1
40
1
40
1
40
1
41
1
10
175.706889922576
20
11.2337872285658
30
0
41
1
10
175.584816818845
20
11.2306873157783
30
0
41
1
10
175.270872292601
20
11.223368946406
30
0
41
1
10
174.729596343537
20
11.2105573975597
30
0
41
1
10
174.026351129003
20
11.2047064549157
30
0
41
1
10
173.21442707423
20
11.2017560356595
30
0
41
1
10
172.260389032075
20
11.2037379224779
30
0
41
1
10
171.211810480499
20
11.210348478031
30
0
41
1
10
170.068726120892
20
11.2205672081505
30
0
41
1
10
168.888195407334
20
11.232470542712
30
0
41
1
10
167.7521701223
20
11.2409450251224
30
0
41
1
10
166.766864780283
20
11.2452465528254
30
0
41
1
10
165.957505385413
20
11.2468277881688
30
0
41
1
10
165.307630502056
20
11.2471066819051
30
0
41
1
10
164.713979778983
20
11.2468223499428
30
0
41
1
10
164.090125504453
20
11.2462910895114
30
0
41
1
10
163.378179827584
20
11.2456833788649
30
0
41
1
10
162.128013071636
20
11.244646888238
30
0
41
1
10
160.305875290932
20
11.2433838868391
30
0
41
1
10
157.99241422575
20
11.2435828259453
30
0
41
1
10
155.632262151077
20
11.2448171702295
30
0
41
1
10
153.715239793651
20
11.241277054332
30
0
41
1
10
152.232640893233
20
11.2392999737581
30
0
41
1
10
151.191474818979
20
11.2384192754924
30
0
41
1
10
150.154491270479
20
11.2380377752926
30
0
41
1
10
149.070444582246
20
11.2382424722463
30
0
41
1
10
147.952679867215
20
11.2391060297026
30
0
41
1
10
146.81458031875
20
11.2407361691074
30
0
41
1
10
145.633197590138
20
11.2426391667045
30
0
41
1
10
144.447698822968
20
11.2434757864362
30
0
41
1
10
143.305252374176
20
11.2426135048833
30
0
41
1
10
142.27759662411
20
11.2413013706486
30
0
41
1
10
141.430165587327
20
11.2403299705827
30
0
41
1
10
140.718852226873
20
11.2398573557212
30
0
41
1
10
140.043460563252
20
11.2394171856862
30
0
41
1
10
139.555610004021
20
11.2388227343056
30
0
41
1
10
139.276354859019
20
11.2383512204465
30
0
41
1
10
139.25950789459
20
11.2383222808547
30
0
0
SPLINE
5
105
100
AcDbEntity
8
1
62
256
6
ByLayer
370
18
48
1
60
0
100
AcDbSpline
70
4
71
2
72
6
73
3
40
0
40
0
40
0
40
1
40
1
40
1
41
1
10
180.502994575552
20
-2.79789045770664
30
0
41
1
10
180.69059015166
20
-2.85786166763793
30
0
41
1
10
180.878115922934
20
-2.92232672232396
30
0
0
SPLINE
5
106
100
AcDbEntity
8
1
62
256
6
ByLayer
370
18
48
1
60
0
100
AcDbSpline
70
4
71
1
72
4
73
2
40
0
40
0
40
1
40
1
41
1
10
105.032667088831
20
5.53270671338438
30
0
41
1
10
104.681583272535
20
5.63298818464094
30
0
0
SPLINE
5
107
100
AcDbEntity
8
1
62
256
6
ByLayer
370
18
48
1
60
0
100
AcDbSpline
70
4
71
2
72
6
73
3
40
0
40
0
40
0
40
1
40
1
40
1
41
1
10
76.2407222180855
20
-2.79500978916451
30
0
41
1
10
76.4325240645261
20
-2.8561903470453
30
0
41
1
10
76.6158661230354
20
-2.91911524548459
30
0
0
SPLINE
5
108
100
AcDbEntity
8
1
62
256
6
ByLayer
370
18
48
1
60
0
100
AcDbSpline
70
4
71
3
72
46
73
42
40
0
40
0
40
0
40
0
40
0.0287658473348651
40
0.0507306058872525
40
0.0661161053949527
40
0.0786299109758604
40
0.0952230694506545
40
0.111785751155312
40
0.134649305718358
40
0.159659946418974
40
0.183433642722899
40
0.213095299255574
40
0.23993340262071
40
0.266355691728959
40
0.298996015933252
40
0.330374083919684
40
0.356897597946592
40
0.3806841784131
40
0.408618797813434
40
0.441042193258783
40
0.473975512196266
40
0.505438568945533
40
0.535429067064299
40
0.570269526420614
40
0.599648545236965
40
0.630867897527281
40
0.664484595888795
40
0.698288979632374
40
0.734651234033701
40
0.774247212430502
40
0.800528603467446
40
0.82440366430189
40
0.845994740024916
40
0.865703614382577
40
0.885235416316536
40
0.905580334694957
40
0.929988270527685
40
0.957740858811399
40
0.977530708816535
40
0.99608594728625
40
1
40
1
40
1
40
1
41
1
10
31.4999999999578
20
-11.2499450501318
30
0
41
1
10
31.8800654680982
20
-11.248690911962
30
0
41
1
10
32.5503671979054
20
-11.2464799560163
30
0
41
1
10
33.4239825890711
20
-11.2435052975821
30
0
41
1
10
34.0829453948276
20
-11.2413847279928
30
0
41
1
10
34.6709107027732
20
-11.2396154378046
30
0
41
1
10
35.2744331583404
20
-11.2379755424951
30
0
41
1
10
36.0147354777497
20
-11.236281182275
30
0
41
1
10
36.8655717060315
20
-11.2348001607347
30
0
41
1
10
37.8110916958689
20
-11.2337625096285
30
0
41
1
10
38.8484628479923
20
-11.2338640702484
30
0
41
1
10
39.9074866333641
20
-11.2353127811567
30
0
41
1
10
41.0028072901645
20
-11.23696536998
30
0
41
1
10
42.1381152008848
20
-11.2390671485668
30
0
41
1
10
43.3332462189555
20
-11.2414866541551
30
0
41
1
10
44.5297690509426
20
-11.2434520682985
30
0
41
1
10
45.6092798564943
20
-11.2440681175302
30
0
41
1
10
46.6432815061962
20
-11.2435813442617
30
0
41
1
10
47.7552545906415
20
-11.242630224511
30
0
41
1
10
48.9881026365461
20
-11.2420108094231
30
0
41
1
10
50.2675791721005
20
-11.2420926767673
30
0
41
1
10
51.5149044177641
20
-11.2426973963545
30
0
41
1
10
52.7874332103876
20
-11.2437050366276
30
0
41
1
10
54.0324198439018
20
-11.2449944294656
30
0
41
1
10
55.2936508554619
20
-11.2461712120614
30
0
41
1
10
56.5386908985891
20
-11.2464401914271
30
0
41
1
10
57.842218445172
20
-11.2452679555677
30
0
41
1
10
59.2137152321171
20
-11.243803232004
30
0
41
1
10
60.6642290948996
20
-11.2429933992533
30
0
41
1
10
62.0153354028494
20
-11.242951284302
30
0
41
1
10
63.2013932588016
20
-11.2433771744352
30
0
41
1
10
64.1491802129164
20
-11.243918280036
30
0
41
1
10
65.0099712306391
20
-11.2443898628472
30
0
41
1
10
65.8144155813887
20
-11.2453086612648
30
0
41
1
10
66.5969801685358
20
-11.2461163361794
30
0
41
1
10
67.4384549620365
20
-11.2457036175308
30
0
41
1
10
68.3855563756286
20
-11.2434595849057
30
0
41
1
10
69.3227996966139
20
-11.2374449539437
30
0
41
1
10
70.1964284601393
20
-11.2359213254624
30
0
41
1
10
70.7585078699775
20
-11.2381866647509
30
0
41
1
10
71.0469263598198
20
-11.2404142576699
30
0
41
1
10
71.0970091834021
20
-11.2408331504683
30
0
0
SPLINE
5
109
100
AcDbEntity
8
1
62
256
6
ByLayer
370
18
48
1
60
0
100
AcDbSpline
70
4
71
3
72
8
73
4
40
0
40
0
40
0
40
0
40
1
40
1
40
1
40
1
41
1
10
28.4
20
-3.95027359575428
30
0
41
1
10
29.4338458050409
20
-4.29629634646247
30
0
41
1
10
30.4669165957201
20
-4.63672319189769
30
0
41
1
10
31.5000000000105
20
-4.96950316063635
30
0
0
SPLINE
5
10A
100
AcDbEntity
8
1
62
256
6
ByLayer
370
18
48
1
60
0
100
AcDbSpline
70
4
71
3
72
8
73
4
40
0
40
0
40
0
40
0
40
1
40
1
40
1
40
1
41
1
10
208.619073218139
20
10.1089835825826
30
0
41
1
10
208.400028703935
20
10.2012242161759
30
0
41
1
10
208.159881069958
20
10.2604069544393
30
0
41
1
10
207.905216024216
20
10.297044929943
30
0
0
SPLINE
5
10B
100
AcDbEntity
8
1
62
256
6
ByLayer
370
18
48
1
60
0
100
AcDbSpline
70
4
71
3
72
8
73
4
40
0
40
0
40
0
40
0
40
1
40
1
40
1
40
1
41
1
10
218.729863857252
20
11.9146024052169
30
0
41
1
10
218.486936731185
20
11.8156952488766
30
0
41
1
10
218.24365660199
20
11.7152931452949
30
0
41
1
10
218
20
11.6134632420603
30
0
0
SPLINE
5
10C
100
AcDbEntity
8
1
62
256
6
ByLayer
370
18
48
1
60
0
100
AcDbSpline
70
4
71
3
72
16
73
12
40
0
40
0
40
0
40
0
40
0.263957649196678
40
0.263957649196678
40
0.395936473795024
40
0.395936473795024
40
0.527915298393369
40
0.527915298393369
40
0.791872947590075
40
0.791872947590075
40
1
40
1
40
1
40
1
41
1
10
218.729863857252
20
-11.7610859066882
30
0
41
1
10
219.603111396307
20
-11.8402083655775
30
0
41
1
10
220.475200155869
20
-11.8985696954606
30
0
41
1
10
221.781375366831
20
-11.9552804036157
30
0
41
1
10
222.21645042341
20
-11.9690285491507
30
0
41
1
10
223.086075260029
20
-11.9861312651078
30
0
41
1
10
223.520707096109
20
-11.9894643345371
30
0
41
1
10
224.825514156912
20
-11.9839078712041
30
0
41
1
10
225.695781314492
20
-11.9595532852465
30
0
41
1
10
227.252666851877
20
-11.8788161234793
30
0
41
1
10
227.938954799422
20
-11.8301051514131
30
0
41
1
10
228.626456164367
20
-11.7686644842262
30
0
0
SPLINE
5
10D
100
AcDbEntity
8
1
62
256
6
ByLayer
370
18
48
1
60
0
100
AcDbSpline
70
4
71
3
72
8
73
4
40
0
40
0
40
0
40
0
40
1
40
1
40
1
40
1
41
1
10
228.988235056848
20
-11.7351715000347
30
0
41
1
10
229.05214895909
20
-11.729049864808
30
0
41
1
10
229.116075311533
20
-11.7228189465001
30
0
41
1
10
229.180015161794
20
-11.7164790552944
30
0
0
SPLINE
5
10E
100
AcDbEntity
8
1
62
256
6
ByLayer
370
18
48
1
60
0
100
AcDbSpline
70
4
71
3
72
10
73
6
40
0
40
0
40
0
40
0
40
0.749396514905699
40
0.749396514905699
40
1
40
1
40
1
40
1
41
1
10
206.475437047307
20
9.5411047868119
30
0
41
1
10
206.403525645974
20
8.8300827940287
30
0
41
1
10
206.297094652919
20
8.1512323995928
30
0
41
1
10
206.114511583095
20
7.32339559689328
30
0
41
1
10
206.06535961242
20
7.12248982322006
30
0
41
1
10
206.013053864197
20
6.92895099248113
30
0
0
SPLINE
5
10F
100
AcDbEntity
8
1
62
256
6
ByLayer
370
18
48
1
60
0
100
AcDbSpline
70
4
71
3
72
12
73
8
40
0
40
0
40
0
40
0
40
0.499999999999995
40
0.499999999999995
40
0.749999999999997
40
0.749999999999997
40
1
40
1
40
1
40
1
41
1
10
22.1531053820785
20
-1.45233379993215
30
0
41
1
10
22.0645472018717
20
-1.29896415679431
30
0
41
1
10
21.9955217721454
20
-1.13533431743704
30
0
41
1
10
21.9151217295516
20
-0.876913070455856
30
0
41
1
10
21.8922160723536
20
-0.788593939692191
30
0
41
1
10
21.85350345403
20
-0.60785766788257
30
0
41
1
10
21.837826333115
20
-0.515851673055636
30
0
41
1
10
21.8255630038147
20
-0.424046000420219
30
0
0
SPLINE
5
110
100
AcDbEntity
8
1
62
256
6
ByLayer
370
18
48
1
60
0
100
AcDbSpline
70
4
71
3
72
36
73
32
40
0
40
0
40
0
40
0
40
0.116740602053334
40
0.116740602053334
40
0.175110903080001
40
0.175110903080001
40
0.233481204106668
40
0.233481204106668
40
0.291851505133335
40
0.291851505133335
40
0.350221806160002
40
0.350221806160002
40
0.466962408213336
40
0.466962408213336
40
0.525332709240004
40
0.525332709240004
40
0.583703010266671
40
0.583703010266671
40
0.642073311293338
40
0.642073311293338
40
0.700443612320006
40
0.700443612320006
40
0.758813913346673
40
0.758813913346673
40
0.817184214373341
40
0.817184214373341
40
0.933924816426676
40
0.933924816426676
40
0.992295117453343
40
0.992295117453343
40
1
40
1
40
1
40
1
41
1
10
28.7281122296937
20
10.239876920777
30
0
41
1
10
30.5750776274931
20
9.99012573579432
30
0
41
1
10
32.4207921764246
20
9.69040270427328
30
0
41
1
10
35.1921242387713
20
9.17217351576798
30
0
41
1
10
36.1166532152928
20
8.98793876920593
30
0
41
1
10
37.9657070331386
20
8.60139648021558
30
0
41
1
10
38.8900879058269
20
8.39928875209728
30
0
41
1
10
40.7388273756225
20
7.98041477040812
30
0
41
1
10
41.6631706949972
20
7.7634891928017
30
0
41
1
10
43.5124032434921
20
7.31390396335402
30
0
41
1
10
44.4374961118026
20
7.08118990013287
30
0
41
1
10
47.2117498006703
20
6.36049209959157
30
0
41
1
10
49.0607684222917
20
5.84966422644885
30
0
41
1
10
51.8368586356199
20
5.04761498071045
30
0
41
1
10
52.7624141720003
20
4.774448930604
30
0
41
1
10
54.6126090557972
20
4.21774548811135
30
0
41
1
10
55.5375076750439
20
3.93414499448548
30
0
41
1
10
57.3875796266485
20
3.35797402178952
30
0
41
1
10
58.3127803552116
20
3.06542173525065
30
0
41
1
10
60.1639631610292
20
2.47340650578246
30
0
41
1
10
61.089109047521
20
2.17422640641357
30
0
41
1
10
62.9389227633805
20
1.5711689388699
30
0
41
1
10
63.8635523857449
20
1.26721938700845
30
0
41
1
10
65.7130567272738
20
0.656537914891771
30
0
41
1
10
66.6382236732391
20
0.349722905914376
30
0
41
1
10
69.4132117743795
20
-0.570253623475082
30
0
41
1
10
71.2620730591527
20
-1.18220653737137
30
0
41
1
10
74.037650800084
20
-2.08661062366952
30
0
41
1
10
74.9633534177628
20
-2.38618904092351
30
0
41
1
10
76.0106900224012
20
-2.72151659075956
30
0
41
1
10
76.132812928604
20
-2.76056093597589
30
0
41
1
10
76.2549318712287
20
-2.79954524212701
30
0
0
SPLINE
5
111
100
AcDbEntity
8
1
62
256
6
ByLayer
370
18
48
1
60
0
100
AcDbSpline
70
4
71
3
72
10
73
6
40
0
40
0
40
0
40
0
40
0.179991722683004
40
0.179991722683004
40
1
40
1
40
1
40
1
41
1
10
199.558945187055
20
8.1356679107536
30
0
41
1
10
199.964733721635
20
8.22948093527734
30
0
41
1
10
200.370475771502
20
8.32152748400625
30
0
41
1
10
202.624634627966
20
8.82210359126336
30
0
41
1
10
204.472946057876
20
9.19144406442496
30
0
41
1
10
206.323966801452
20
9.51475170839473
30
0
0
SPLINE
5
112
100
AcDbEntity
8
1
62
256
6
ByLayer
370
18
48
1
60
0
100
AcDbSpline
70
4
71
3
72
14
73
10
40
0
40
0
40
0
40
0
40
0.25
40
0.25
40
0.5
40
0.5
40
0.75
40
0.75
40
1
40
1
40
1
40
1
41
1
10
206.270165863586
20
-9.99031453325185
30
0
41
1
10
206.407710755423
20
-10.0105437919436
30
0
41
1
10
206.541690677044
20
-10.0358320997553
30
0
41
1
10
206.799683830765
20
-10.0949969412972
30
0
41
1
10
206.924214598075
20
-10.1289523789069
30
0
41
1
10
207.164232502934
20
-10.2049182190393
30
0
41
1
10
207.279967904166
20
-10.2471316884402
30
0
41
1
10
207.494993717042
20
-10.3360189464123
30
0
41
1
10
207.595287992849
20
-10.3829732474627
30
0
41
1
10
207.688517907943
20
-10.4318894637273
30
0
0
SPLINE
5
113
100
AcDbEntity
8
1
62
256
6
ByLayer
370
18
48
1
60
0
100
AcDbSpline
70
4
71
3
72
12
73
8
40
0
40
0
40
0
40
0
40
0.5
40
0.5
40
0.75
40
0.75
40
1
40
1
40
1
40
1
41
1
10
231.743144563453
20
4.43236089919893
30
0
41
1
10
231.503980807319
20
5.0923094876982
30
0
41
1
10
231.268902812467
20
5.75647171085959
30
0
41
1
10
230.92281625346
20
6.75944986393347
30
0
41
1
10
230.808387964391
20
7.09540026605589
30
0
41
1
10
230.582658537441
20
7.76770945963838
30
0
41
1
10
230.47221462683
20
8.1015011169938
30
0
41
1
10
230.364401465482
20
8.43272490677387
30
0
0
SPLINE
5
114
100
AcDbEntity
8
1
62
256
6
ByLayer
370
18
48
1
60
0
100
AcDbSpline
70
4
71
3
72
28
73
24
40
0
40
0
40
0
40
0
40
0.0625000000000051
40
0.0625000000000051
40
0.12500000000001
40
0.12500000000001
40
0.250000000000016
40
0.250000000000016
40
0.312500000000017
40
0.312500000000017
40
0.375000000000017
40
0.375000000000017
40
0.500000000000012
40
0.500000000000012
40
0.625000000000007
40
0.625000000000007
40
0.750000000000001
40
0.750000000000001
40
0.874999999999996
40
0.874999999999996
40
0.937499999999998
40
0.937499999999998
40
1
40
1
40
1
40
1
41
1
10
225.842505334719
20
1.73021704066178
30
0
41
1
10
225.822120808923
20
1.63137028167961
30
0
41
1
10
225.799455631091
20
1.53656886173312
30
0
41
1
10
225.749331256251
20
1.35546948164327
30
0
41
1
10
225.722106285008
20
1.27006563779997
30
0
41
1
10
225.634414777117
20
1.03044958442092
30
0
41
1
10
225.567795956776
20
0.892163473813326
30
0
41
1
10
225.455485833288
20
0.717303044506309
30
0
41
1
10
225.415978660678
20
0.664462285853006
30
0
41
1
10
225.332711441746
20
0.569967323304809
30
0
41
1
10
225.288731433119
20
0.528160997525589
30
0
41
1
10
225.152030419115
20
0.421576401102925
30
0
41
1
10
225.054777287611
20
0.375343463980045
30
0
41
1
10
224.848545808897
20
0.330443305982954
30
0
41
1
10
224.739566070175
20
0.33178173006533
30
0
41
1
10
224.509720220133
20
0.382678060114387
30
0
41
1
10
224.391527451312
20
0.431669996443134
30
0
41
1
10
224.14973520423
20
0.572990180507645
30
0
41
1
10
224.026023275258
20
0.665362899597454
30
0
41
1
10
223.836328055575
20
0.835747719506202
30
0
41
1
10
223.772386495405
20
0.897915026793584
30
0
41
1
10
223.64441753014
20
1.03150751980706
30
0
41
1
10
223.58023008939
20
1.10306814446167
30
0
41
1
10
223.515844242573
20
1.17928628931904
30
0
0
SPLINE
5
115
100
AcDbEntity
8
1
62
256
6
ByLayer
370
18
48
1
60
0
100
AcDbSpline
70
4
71
3
72
8
73
4
40
0
40
0
40
0
40
0
40
1
40
1
40
1
40
1
41
1
10
217.8
20
4.65000000000001
30
0
41
1
10
217.866665171169
20
4.65000000000001
30
0
41
1
10
217.933331868022
20
4.65000000000001
30
0
41
1
10
218
20
4.65000000000001
30
0
0
SPLINE
5
116
100
AcDbEntity
8
1
62
256
6
ByLayer
370
13
48
1
60
0
100
AcDbSpline
70
4
71
3
72
8
73
4
40
0
40
0
40
0
40
0
40
1
40
1
40
1
40
1
41
1
10
229.640122728633
20
4.1118065037812
30
0
41
1
10
229.639900005935
20
4.1128244180434
30
0
41
1
10
229.639676417884
20
4.11384215709984
30
0
41
1
10
229.639451964576
20
4.1148597186862
30
0
0
SPLINE
5
117
100
AcDbEntity
8
1
62
256
6
ByLayer
370
18
48
1
60
0
100
AcDbSpline
70
4
71
3
72
8
73
4
40
0
40
0
40
0
40
0
40
1
40
1
40
1
40
1
41
1
10
218.729863857252
20
-11.9146024052169
30
0
41
1
10
219.561772460116
20
-11.9552519372098
30
0
41
1
10
220.392903332161
20
-11.9768410724785
30
0
41
1
10
221.223068147965
20
-11.9796966265326
30
0
0
SPLINE
5
118
100
AcDbEntity
8
1
62
256
6
ByLayer
370
18
48
1
60
0
100
AcDbSpline
70
4
71
3
72
8
73
4
40
0
40
0
40
0
40
0
40
1
40
1
40
1
40
1
41
1
10
232.935879681662
20
-0.27409981521015
30
0
41
1
10
232.947732970867
20
-0.233582170659503
30
0
41
1
10
232.959635915892
20
-0.192966419264025
30
0
41
1
10
232.971588193562
20
-0.152254171576146
30
0
0
SPLINE
5
119
100
AcDbEntity
8
1
62
256
6
ByLayer
370
18
48
1
60
0
100
AcDbSpline
70
4
71
3
72
12
73
8
40
0
40
0
40
0
40
0
40
0.41922415350072
40
0.41922415350072
40
0.7096120094618
40
0.7096120094618
40
1
40
1
40
1
40
1
41
1
10
217.999999999166
20
-11.5225603307531
30
0
41
1
10
217.986733789915
20
-11.5365235106032
30
0
41
1
10
217.973463667213
20
-11.5504851939113
30
0
41
1
10
217.950995055747
20
-11.5741153646573
30
0
41
1
10
217.941798578645
20
-11.5837846158978
30
0
41
1
10
217.923401933109
20
-11.6031217392763
30
0
41
1
10
217.914201763608
20
-11.6127896125341
30
0
41
1
10
217.904999763856
20
-11.6224568050958
30
0
0
SPLINE
5
11A
100
AcDbEntity
8
1
62
256
6
ByLayer
370
18
48
1
60
0
100
AcDbSpline
70
4
71
3
72
8
73
4
40
0
40
0
40
0
40
0
40
1
40
1
40
1
40
1
41
1
10
224.700086456483
20
-3.7002355668626
30
0
41
1
10
224.664413382234
20
-3.70326278397565
30
0
41
1
10
224.628744035225
20
-3.70620413512316
30
0
41
1
10
224.593078418687
20
-3.70905954684446
30
0
0
SPLINE
5
11B
100
AcDbEntity
8
1
62
256
6
ByLayer
370
18
48
1
60
0
100
AcDbSpline
70
4
71
3
72
8
73
4
40
0
40
0
40
0
40
0
40
1
40
1
40
1
40
1
41
1
10
23.8643906780005
20
-1.71004763507227
30
0
41
1
10
23.95480711335
20
-1.73897830498583
30
0
41
1
10
24.0447538129451
20
-1.76754408409258
30
0
41
1
10
24.1342245526155
20
-1.79591818400976
30
0
0
SPLINE
5
11C
100
AcDbEntity
8
1
62
256
6
ByLayer
370
18
48
1
60
0
100
AcDbSpline
70
4
71
3
72
8
73
4
40
0
40
0
40
0
40
0
40
1
40
1
40
1
40
1
41
1
10
207.683009552956
20
10.3205504450251
30
0
41
1
10
207.758246456592
20
10.3153220464738
30
0
41
1
10
207.83232435039
20
10.3075316590998
30
0
41
1
10
207.905216024215
20
10.2970449299445
30
0
0
SPLINE
5
11D
100
AcDbEntity
8
1
62
256
6
ByLayer
370
13
48
1
60
0
100
AcDbSpline
70
4
71
3
72
20
73
16
40
0
40
0
40
0
40
0
40
0.249999999999996
40
0.249999999999996
40
0.499999999999991
40
0.499999999999991
40
0.749999999999987
40
0.749999999999987
40
0.81249999999999
40
0.81249999999999
40
0.874999999999993
40
0.874999999999993
40
0.937499999999997
40
0.937499999999997
40
1
40
1
40
1
40
1
41
1
10
231.702103276709
20
1.20630317854909
30
0
41
1
10
231.472230555054
20
1.36643500102963
30
0
41
1
10
231.249546107065
20
1.54527658190631
30
0
41
1
10
230.829004039226
20
1.94152349241779
30
0
41
1
10
230.630422909682
20
2.15916094837229
30
0
41
1
10
230.263619516893
20
2.64495758741754
30
0
41
1
10
230.100378389962
20
2.90656524880447
30
0
41
1
10
229.928087027613
20
3.26301639945609
30
0
41
1
10
229.895221220669
20
3.33579080357285
30
0
41
1
10
229.833017313857
20
3.48460049842791
30
0
41
1
10
229.803667203357
20
3.56071669881857
30
0
41
1
10
229.749393727203
20
3.7145547145457
30
0
41
1
10
229.724358513182
20
3.79248420565648
30
0
41
1
10
229.678805625074
20
3.95050155598008
30
0
41
1
10
229.658188157507
20
4.0310388680204
30
0
41
1
10
229.640122729026
20
4.11180650371134
30
0
0
SPLINE
5
11E
100
AcDbEntity
8
1
62
256
6
ByLayer
370
18
48
1
60
0
100
AcDbSpline
70
4
71
3
72
8
73
4
40
0
40
0
40
0
40
0
40
1
40
1
40
1
40
1
41
1
10
230.364401465482
20
-8.43272490677387
30
0
41
1
10
230.044065976664
20
-9.41686017635541
30
0
41
1
10
229.718249606846
20
-10.4068913079361
30
0
41
1
10
229.386721197678
20
-11.4030669618572
30
0
0
SPLINE
5
11F
100
AcDbEntity
8
1
62
256
6
ByLayer
370
18
48
1
60
0
100
AcDbSpline
70
4
71
2
72
9
73
6
40
0
40
0
40
0
40
0.5
40
0.5
40
0.75
40
1
40
1
40
1
41
1
10
223.370277788853
20
0.939035530801135
30
0
41
1
10
223.621242307778
20
-0.218025721179544
30
0
41
1
10
223.957626525029
20
-1.37822483986381
30
0
41
1
10
224.124808502982
20
-1.95484042862603
30
0
41
1
10
224.496187517574
20
-3.08965478269019
30
0
41
1
10
224.697930345293
20
-3.6398000094926
30
0
0
SPLINE
5
120
100
AcDbEntity
8
1
62
256
6
ByLayer
370
18
48
1
60
0
100
AcDbSpline
70
4
71
1
72
4
73
2
40
0
40
0
40
1
40
1
41
1
10
226.313368507197
20
-9.58516731661788
30
0
41
1
10
226.190698494653
20
-9.63998720182803
30
0
0
SPLINE
5
121
100
AcDbEntity
8
1
62
256
6
ByLayer
370
13
48
1
60
0
100
AcDbSpline
70
4
71
3
72
8
73
4
40
0
40
0
40
0
40
0
40
1
40
1
40
1
40
1
41
1
10
229.610634163867
20
4.11952254236013
30
0
41
1
10
229.611413225726
20
4.1159906566881
30
0
41
1
10
229.612192287585
20
4.11245877101607
30
0
41
1
10
229.612971349444
20
4.10892688534403
30
0
0
SPLINE
5
122
100
AcDbEntity
8
1
62
256
6
ByLayer
370
18
48
1
60
0
100
AcDbSpline
70
4
71
3
72
8
73
4
40
0
40
0
40
0
40
0
40
1
40
1
40
1
40
1
41
1
10
24.1342245526154
20
-1.79591818400976
30
0
41
1
10
24.2050554187687
20
-2.04290250331911
30
0
41
1
10
24.274586345186
20
-2.29394852223624
30
0
41
1
10
24.3423874314368
20
-2.54882466184753
30
0
0
SPLINE
5
123
100
AcDbEntity
8
1
62
256
6
ByLayer
370
18
48
1
60
0
100
AcDbSpline
70
4
71
3
72
8
73
4
40
0
40
0
40
0
40
0
40
1
40
1
40
1
40
1
41
1
10
203.202774455208
20
-7.1068105689919
30
0
41
1
10
203.480690432959
20
-7.06872426799231
30
0
41
1
10
203.772666050055
20
-7.04479626688041
30
0
41
1
10
204.075607682876
20
-7.03191121558496
30
0
0
SPLINE
5
124
100
AcDbEntity
8
1
62
256
6
ByLayer
370
18
48
1
60
0
100
AcDbSpline
70
4
71
3
72
16
73
12
40
0
40
0
40
0
40
0
40
0.250000000000006
40
0.250000000000006
40
0.375000000000005
40
0.375000000000005
40
0.500000000000004
40
0.500000000000004
40
0.750000000000002
40
0.750000000000002
40
1
40
1
40
1
40
1
41
1
10
32.4445190442359
20
11.4770115723378
30
0
41
1
10
32.2947251516685
20
11.5122328756243
30
0
41
1
10
32.1616536412405
20
11.5465618290402
30
0
41
1
10
31.9865337536822
20
11.5943688474013
30
0
41
1
10
31.9322698160226
20
11.6096918800809
30
0
41
1
10
31.8322099061392
20
11.6387150959094
30
0
41
1
10
31.7865564983491
20
11.652377691251
30
0
41
1
10
31.6653266454015
20
11.6895611241548
30
0
41
1
10
31.6042069564486
20
11.7096096960106
30
0
41
1
10
31.5214169900203
20
11.7384620067788
30
0
41
1
10
31.4999999890934
20
11.7472023682658
30
0
41
1
10
31.4999999891006
20
11.7494216210846
30
0
0
SPLINE
5
125
100
AcDbEntity
8
1
62
256
6
ByLayer
370
18
48
1
60
0
100
AcDbSpline
70
4
71
3
72
8
73
4
40
0
40
0
40
0
40
0
40
1
40
1
40
1
40
1
41
1
10
217.903917538164
20
11.6141721976374
30
0
41
1
10
217.900944961752
20
11.6168094627787
30
0
41
1
10
217.897972448923
20
11.619445982775
30
0
41
1
10
217.895
20
11.6220817571003
30
0
0
SPLINE
5
126
100
AcDbEntity
8
1
62
256
6
ByLayer
370
18
48
1
60
0
100
AcDbSpline
70
4
71
3
72
8
73
4
40
0
40
0
40
0
40
0
40
1
40
1
40
1
40
1
41
1
10
217.90524702536
20
10.9712325572422
30
0
41
1
10
217.90480607772
20
11.1859824831461
30
0
41
1
10
217.904362992554
20
11.4002978456191
30
0
41
1
10
217.903917807159
20
11.6141719589897
30
0
0
SPLINE
5
127
100
AcDbEntity
8
1
62
256
6
ByLayer
370
18
48
1
60
0
100
AcDbSpline
70
4
71
3
72
8
73
4
40
0
40
0
40
0
40
0
40
1
40
1
40
1
40
1
41
1
10
26
20
10.7990779738214
30
0
41
1
10
26.130121645688
20
10.8068608604588
30
0
41
1
10
26.259912085153
20
10.8138612859394
30
0
41
1
10
26.389370293693
20
10.820060742827
30
0
0
SPLINE
5
128
100
AcDbEntity
8
1
62
256
6
ByLayer
370
18
48
1
60
0
100
AcDbSpline
70
4
71
3
72
8
73
4
40
0
40
0
40
0
40
0
40
1
40
1
40
1
40
1
41
1
10
26.3893702936929
20
10.8200607428269
30
0
41
1
10
26.6245152482606
20
10.8331478525762
30
0
41
1
10
26.857819642542
20
10.8422320056048
30
0
41
1
10
27.0893412914605
20
10.847210809091
30
0
0
SPLINE
5
129
100
AcDbEntity
8
1
62
256
6
ByLayer
370
18
48
1
60
0
100
AcDbSpline
70
4
71
3
72
10
73
6
40
0
40
0
40
0
40
0
40
0.331264174204487
40
0.664593664159294
40
1
40
1
40
1
40
1
41
1
10
232.600767802323
20
-1.16799341380519
30
0
41
1
10
232.610958315399
20
-1.13859667660438
30
0
41
1
10
232.63140287582
20
-1.07961992387365
30
0
41
1
10
232.661969868965
20
-0.990805630883642
30
0
41
1
10
232.682260922371
20
-0.931423759384586
30
0
41
1
10
232.692437957323
20
-0.901640614581225
30
0
0
SPLINE
5
12A
100
AcDbEntity
8
1
62
256
6
ByLayer
370
18
48
1
60
0
100
AcDbSpline
70
4
71
3
72
8
73
4
40
0
40
0
40
0
40
0
40
1
40
1
40
1
40
1
41
1
10
32.3893564283153
20
-11.2479099810341
30
0
41
1
10
32.4070185392729
20
-11.3245720037773
30
0
41
1
10
32.4253725324408
20
-11.4009523841813
30
0
41
1
10
32.444519044235
20
-11.4770115723268
30
0
0
SPLINE
5
12B
100
AcDbEntity
8
1
62
256
6
ByLayer
370
18
48
1
60
0
100
AcDbSpline
70
4
71
3
72
18
73
14
40
0
40
0
40
0
40
0
40
0.249999999999985
40
0.249999999999985
40
0.374999999999987
40
0.374999999999987
40
0.49999999999999
40
0.49999999999999
40
0.624999999999992
40
0.624999999999992
40
0.749999999999995
40
0.749999999999995
40
1
40
1
40
1
40
1
41
1
10
27.0893412914605
20
10.8472108090909
30
0
41
1
10
27.2137701513941
20
10.7763848723857
30
0
41
1
10
27.3418122270608
20
10.7078171814908
30
0
41
1
10
27.5408786195617
20
10.6101019615656
30
0
41
1
10
27.6083287962802
20
10.5784526315551
30
0
41
1
10
27.7438106954864
20
10.5182306246728
30
0
41
1
10
27.812078569088
20
10.4895388953391
30
0
41
1
10
27.9498408316879
20
10.4354486223743
30
0
41
1
10
28.01933490254
20
10.4100492252825
30
0
41
1
10
28.1597650474555
20
10.3631124300886
30
0
41
1
10
28.2309979291495
20
10.3414970884462
30
0
41
1
10
28.4450991917092
20
10.2840787677394
30
0
41
1
10
28.5869986053397
20
10.2559934372224
30
0
41
1
10
28.7281122294761
20
10.2398769189555
30
0
0
SPLINE
5
12C
100
AcDbEntity
8
1
62
256
6
ByLayer
370
18
48
1
60
0
100
AcDbSpline
70
4
71
3
72
12
73
8
40
0
40
0
40
0
40
0
40
0.0750696200061004
40
0.0750696200061004
40
0.53753481000305
40
0.53753481000305
40
1
40
1
40
1
40
1
41
1
10
223.53211690691
20
11.9877754245499
30
0
41
1
10
223.673271224488
20
11.9882682736438
30
0
41
1
10
223.814440991205
20
11.988213481697
30
0
41
1
10
224.825514156912
20
11.9839078712041
30
0
41
1
10
225.695781314492
20
11.9595532852465
30
0
41
1
10
227.436790269529
20
11.869267828631
30
0
41
1
10
228.307144979198
20
11.8030276157273
30
0
41
1
10
229.180015161794
20
11.7164790552944
30
0
0
SPLINE
5
12D
100
AcDbEntity
8
1
62
256
6
ByLayer
370
18
48
1
60
0
100
AcDbSpline
70
4
71
3
72
10
73
6
40
0
40
0
40
0
40
0
40
0.5
40
0.5
40
1
40
1
40
1
40
1
41
1
10
206.475437046085
20
9.54110478657256
30
0
41
1
10
206.714329608539
20
9.58791572767183
30
0
41
1
10
206.935994944235
20
9.68243063669757
30
0
41
1
10
207.347915956305
20
9.95642958256073
30
0
41
1
10
207.52591487883
20
10.1268625331323
30
0
41
1
10
207.683009552956
20
10.3205504450247
30
0
0
SPLINE
5
12E
100
AcDbEntity
8
1
62
256
6
ByLayer
370
18
48
1
60
0
100
AcDbSpline
70
4
71
3
72
8
73
4
40
0
40
0
40
0
40
0
40
1
40
1
40
1
40
1
41
1
10
218.729863857252
20
-11.7610859066882
30
0
41
1
10
218.535288254841
20
-11.673546053416
30
0
41
1
10
218.340478877433
20
-11.5850461952053
30
0
41
1
10
218.145421537682
20
-11.4956213456485
30
0
0
SPLINE
5
12F
100
AcDbEntity
8
1
62
256
6
ByLayer
370
18
48
1
60
0
100
AcDbSpline
70
4
71
3
72
8
73
4
40
0
40
0
40
0
40
0
40
1
40
1
40
1
40
1
41
1
10
208.3
20
6.29559309781493
30
0
41
1
10
206.725201145035
20
6.77285242859242
30
0
41
1
10
205.151401885573
20
7.22460498320032
30
0
41
1
10
203.576488534756
20
7.6466819609295
30
0
0
SPLINE
5
130
100
AcDbEntity
8
1
62
256
6
ByLayer
370
18
48
1
60
0
100
AcDbSpline
70
4
71
3
72
62
73
58
40
0
40
0
40
0
40
0
40
0.049573682492011
40
0.049573682492011
40
0.0743605237380159
40
0.0743605237380159
40
0.0991473649840208
40
0.0991473649840208
40
0.123934206230026
40
0.123934206230026
40
0.14872104747603
40
0.14872104747603
40
0.198294729968042
40
0.198294729968042
40
0.223081571214049
40
0.223081571214049
40
0.247868412460055
40
0.247868412460055
40
0.297442094952067
40
0.297442094952067
40
0.322228936198073
40
0.322228936198073
40
0.347015777444079
40
0.347015777444079
40
0.396589459936091
40
0.396589459936091
40
0.446163142428102
40
0.446163142428102
40
0.470949983674109
40
0.470949983674109
40
0.495736824920115
40
0.495736824920115
40
0.545310507412127
40
0.545310507412127
40
0.59488418990414
40
0.59488418990414
40
0.619671031150146
40
0.619671031150146
40
0.644457872396152
40
0.644457872396152
40
0.694031554888164
40
0.694031554888164
40
0.743605237380177
40
0.743605237380177
40
0.793178919872189
40
0.793178919872189
40
0.842752602364202
40
0.842752602364202
40
0.867539443610208
40
0.867539443610208
40
0.892326284856214
40
0.892326284856214
40
0.941899967348225
40
0.941899967348225
40
0.991473649840237
40
0.991473649840237
40
1
40
1
40
1
40
1
41
1
10
206.270165863586
20
-9.99031453325182
30
0
41
1
10
204.417850134285
20
-9.64702489138182
30
0
41
1
10
202.568220389328
20
-9.25647798144411
30
0
41
1
10
199.793805034015
20
-8.60486942416671
30
0
41
1
10
198.868476942654
20
-8.37666680989005
30
0
41
1
10
197.019767904961
20
-7.90174026830974
30
0
41
1
10
196.096426548249
20
-7.65448433041436
30
0
41
1
10
194.248718267652
20
-7.14736872883566
30
0
41
1
10
193.325010640814
20
-6.88611235994503
30
0
41
1
10
191.478181548903
20
-6.34761577060459
30
0
41
1
10
190.554931627659
20
-6.07065961282302
30
0
41
1
10
187.784812811526
20
-5.21865622127962
30
0
41
1
10
185.937474813503
20
-4.62263719449234
30
0
41
1
10
183.160536563463
20
-3.69932499915492
30
0
41
1
10
182.23537626493
20
-3.38690579803853
30
0
41
1
10
180.38718382272
20
-2.7546744800747
30
0
41
1
10
179.463867479387
20
-2.43483238153078
30
0
41
1
10
176.69514876903
20
-1.46720982438106
30
0
41
1
10
174.850937319497
20
-0.811407167341798
30
0
41
1
10
172.080118673826
20
0.168715954181721
30
0
41
1
10
171.155866488905
20
0.495113866809163
30
0
41
1
10
169.305811687537
20
1.14654057627584
30
0
41
1
10
168.379409763008
20
1.47170159770383
30
0
41
1
10
165.604001930507
20
2.44051702902502
30
0
41
1
10
163.757335145125
20
3.0778880849154
30
0
41
1
10
160.064649239692
20
4.31744248049586
30
0
41
1
10
158.21908952187
20
4.92090657266314
30
0
41
1
10
155.448026747552
20
5.7909645789054
30
0
41
1
10
154.523837372371
20
6.07500126519551
30
0
41
1
10
152.673359313724
20
6.62831422672315
30
0
41
1
10
151.748747351933
20
6.89703573420186
30
0
41
1
10
148.976212738698
20
7.67532048789414
30
0
41
1
10
147.129587418235
20
8.1584986727807
30
0
41
1
10
143.436581487164
20
9.04732062833423
30
0
41
1
10
141.590102724639
20
9.45257828560739
30
0
41
1
10
138.815436641304
20
9.99242343578902
30
0
41
1
10
137.889279251377
20
10.1612507022727
30
0
41
1
10
136.039792333464
20
10.4747948581761
30
0
41
1
10
135.115981593164
20
10.6195686510548
30
0
41
1
10
132.346255711324
20
11.0164078484622
30
0
41
1
10
130.502030765681
20
11.230659107384
30
0
41
1
10
126.808861096385
20
11.5512159780725
30
0
41
1
10
124.960350613475
20
11.6583198497741
30
0
41
1
10
121.256660976159
20
11.7643520274738
30
0
41
1
10
119.409054273519
20
11.7627643482173
30
0
41
1
10
115.715736624899
20
11.6509216663009
30
0
41
1
10
113.870450638195
20
11.5406849442462
30
0
41
1
10
111.100765883769
20
11.2945790043628
30
0
41
1
10
110.177199229783
20
11.1991032979654
30
0
41
1
10
108.328292424284
20
10.9820472245813
30
0
41
1
10
107.402511485201
20
10.8603973123823
30
0
41
1
10
104.628169346074
20
10.4595573507917
30
0
41
1
10
102.780919100693
20
10.143912307926
30
0
41
1
10
99.0878963784289
20
9.42108925637035
30
0
41
1
10
97.2420386855258
20
9.01381631785634
30
0
41
1
10
95.0755737285704
20
8.48933572933302
30
0
41
1
10
94.7575460945782
20
8.41116170149809
30
0
41
1
10
94.4394383930148
20
8.33180255119854
30
0
0
SPLINE
5
131
100
AcDbEntity
8
1
62
256
6
ByLayer
370
18
48
1
60
0
100
AcDbSpline
70
4
71
3
72
14
73
10
40
0
40
0
40
0
40
0
40
0.25
40
0.25
40
0.5
40
0.5
40
0.75
40
0.75
40
1
40
1
40
1
40
1
41
1
10
206.270165863586
20
9.99031453325182
30
0
41
1
10
206.407710755422
20
10.0105437919435
30
0
41
1
10
206.541690677044
20
10.0358320997553
30
0
41
1
10
206.799683830765
20
10.0949969412972
30
0
41
1
10
206.924214598075
20
10.1289523789069
30
0
41
1
10
207.164232502934
20
10.2049182190392
30
0
41
1
10
207.279967904166
20
10.2471316884401
30
0
41
1
10
207.494993717042
20
10.3360189464123
30
0
41
1
10
207.595287992849
20
10.3829732474627
30
0
41
1
10
207.688517907943
20
10.4318894637273
30
0
0
SPLINE
5
132
100
AcDbEntity
8
1
62
256
6
ByLayer
370
18
48
1
60
0
100
AcDbSpline
70
4
71
3
72
8
73
4
40
0
40
0
40
0
40
0
40
1
40
1
40
1
40
1
41
1
10
229.610634163867
20
4.11952254236013
30
0
41
1
10
229.604168388776
20
4.11422984541412
30
0
41
1
10
229.597709171776
20
4.10893143673621
30
0
41
1
10
229.591256465946
20
4.1036275522446
30
0
0
SPLINE
5
133
100
AcDbEntity
8
1
62
256
6
ByLayer
370
18
48
1
60
0
100
AcDbSpline
70
4
71
3
72
8
73
4
40
0
40
0
40
0
40
0
40
1
40
1
40
1
40
1
41
1
10
229.262446680285
20
-11.469101021019
30
0
41
1
10
229.235005064703
20
-11.5515295474538
30
0
41
1
10
229.207527623766
20
-11.6339897732808
30
0
41
1
10
229.180015161794
20
-11.7164790552944
30
0
0
SPLINE
5
134
100
AcDbEntity
8
1
62
256
6
ByLayer
370
18
48
1
60
0
100
AcDbSpline
70
4
71
3
72
16
73
12
40
0
40
0
40
0
40
0
40
0.25
40
0.25
40
0.375
40
0.375
40
0.5
40
0.5
40
0.75
40
0.75
40
1
40
1
40
1
40
1
41
1
10
201.45331099374
20
7.67193945752726
30
0
41
1
10
201.619531652194
20
7.61580564522274
30
0
41
1
10
201.79068155317
20
7.57241298516647
30
0
41
1
10
202.054711473077
20
7.52705717793566
30
0
41
1
10
202.143946613687
20
7.51524256632899
30
0
41
1
10
202.324954216379
20
7.49853806042935
30
0
41
1
10
202.416506143734
20
7.49370505467638
30
0
41
1
10
202.690220020326
20
7.49007696253804
30
0
41
1
10
202.873428557665
20
7.50214808410954
30
0
41
1
10
203.231978614749
20
7.55421826210159
30
0
41
1
10
203.408109195572
20
7.59434412495267
30
0
41
1
10
203.576488534756
20
7.64668196092947
30
0
0
SPLINE
5
135
100
AcDbEntity
8
1
62
256
6
ByLayer
370
18
48
1
60
0
100
AcDbSpline
70
4
71
3
72
82
73
78
40
0
40
0
40
0
40
0
40
0.0133333333333334
40
0.0266666666666669
40
0.04
40
0.0533333333333336
40
0.0666666666666668
40
0.08
40
0.0933333333333333
40
0.106666666666667
40
0.12
40
0.133333333333333
40
0.146666666666667
40
0.16
40
0.173333333333333
40
0.186666666666667
40
0.2
40
0.213333333333333
40
0.226666666666666
40
0.24
40
0.253333333333333
40
0.266666666666667
40
0.28
40
0.293333333333333
40
0.306666666666667
40
0.32
40
0.333333333333333
40
0.346666666666667
40
0.36
40
0.373333333333333
40
0.386666666666667
40
0.4
40
0.413333333333334
40
0.426666666666666
40
0.44
40
0.453333333333333
40
0.466666666666667
40
0.48
40
0.493333333333333
40
0.506666666666667
40
0.52
40
0.533333333333333
40
0.546666666666667
40
0.56
40
0.573333333333333
40
0.586666666666667
40
0.6
40
0.613333333333333
40
0.626666666666667
40
0.64
40
0.653333333333333
40
0.666666666666667
40
0.68
40
0.693333333333334
40
0.706666666666667
40
0.72
40
0.733333333333334
40
0.746666666666667
40
0.76
40
0.773333333333334
40
0.786666666666667
40
0.8
40
0.813333333333333
40
0.826666666666667
40
0.84
40
0.853333333333333
40
0.866666666666667
40
0.88
40
0.893333333333333
40
0.906666666666667
40
0.92
40
0.933333333333333
40
0.946666666666667
40
0.96
40
0.973333333333333
40
0.986666666666667
40
1
40
1
40
1
40
1
41
1
10
26.1000000000007
20
1.00255411797588
30
0
41
1
10
26.1156567769441
20
1.03641027214817
30
0
41
1
10
26.1469703308309
20
1.1041225804928
30
0
41
1
10
26.1939268376473
20
1.20751637684464
30
0
41
1
10
26.2408557005042
20
1.31220797028524
30
0
41
1
10
26.2877431075925
20
1.41829974793316
30
0
41
1
10
26.3345752593036
20
1.52572479487688
30
0
41
1
10
26.3813383722917
20
1.63446105772749
30
0
41
1
10
26.4280186835298
20
1.74447397143538
30
0
41
1
10
26.4746024543608
20
1.85573184430049
30
0
41
1
10
26.5210759745405
20
1.96820174762431
30
0
41
1
10
26.5674255662732
20
2.08185062926492
30
0
41
1
10
26.613637588237
20
2.19664502758539
30
0
41
1
10
26.6596984395986
20
2.31255116055579
30
0
41
1
10
26.7055945640164
20
2.42953491445968
30
0
41
1
10
26.75131245363
20
2.54756185962447
30
0
41
1
10
26.7968386530363
20
2.6665972590298
30
0
41
1
10
26.8421597632489
20
2.78660607893974
30
0
41
1
10
26.8872624456422
20
2.90755299910421
30
0
41
1
10
26.9321334258768
20
3.02940242318346
30
0
41
1
10
26.9767594978065
20
3.1521184892168
30
0
41
1
10
27.0211275273649
20
3.27566508017941
30
0
41
1
10
27.0652244564311
20
3.40000583461131
30
0
41
1
10
27.1090373066728
20
3.5251041573195
30
0
41
1
10
27.1525531833658
20
3.65092323014809
30
0
41
1
10
27.1957592791897
20
3.77742602281455
30
0
41
1
10
27.2386428779964
20
3.90457530380823
30
0
41
1
10
27.2811913585535
20
4.03233365134807
30
0
41
1
10
27.3233921982583
20
4.16066346439635
30
0
41
1
10
27.3652329768235
20
4.28952697372517
30
0
41
1
10
27.4067013799331
20
4.4188862530325
30
0
41
1
10
27.4477852028659
20
4.54870323010445
30
0
41
1
10
27.4884723540882
20
4.67893969802026
30
0
41
1
10
27.5287508588121
20
4.8095573263974
30
0
41
1
10
27.56860886252
20
4.9405176726724
30
0
41
1
10
27.6080346344537
20
5.0717821934154
30
0
41
1
10
27.6470165710665
20
5.20331225567364
30
0
41
1
10
27.6855431994386
20
5.33506914834191
30
0
41
1
10
27.7236031806539
20
5.46701409355578
30
0
41
1
10
27.7611853131366
20
5.5991082581042
30
0
41
1
10
27.7982785359486
20
5.73131276485896
30
0
41
1
10
27.8348719320447
20
5.86358870421654
30
0
41
1
10
27.8709547314853
20
5.99589714554986
30
0
41
1
10
27.9065163146066
20
6.12819914866608
30
0
41
1
10
27.941546215146
20
6.26045577526713
30
0
41
1
10
27.9760341233221
20
6.39262810041001
30
0
41
1
10
28.0099698888697
20
6.52467722396264
30
0
41
1
10
28.0433435240264
20
6.65656428205298
30
0
41
1
10
28.0761452064726
20
6.78825045850709
30
0
41
1
10
28.1083652822225
20
6.91969699627313
30
0
41
1
10
28.1399942684648
20
7.05086520882833
30
0
41
1
10
28.1710228563542
20
7.18171649156486
30
0
41
1
10
28.2014419137506
20
7.31221233315159
30
0
41
1
10
28.2312424879075
20
7.44231432686874
30
0
41
1
10
28.2604158081063
20
7.57198418191129
30
0
41
1
10
28.2889532882377
20
7.70118373465854
30
0
41
1
10
28.3168465293293
20
7.82987495990633
30
0
41
1
10
28.3440873220167
20
7.95801998205818
30
0
41
1
10
28.3706676489602
20
8.0855810862727
30
0
41
1
10
28.3965796872042
20
8.21252072956366
30
0
41
1
10
28.4218158104797
20
8.33880155184897
30
0
41
1
10
28.4463685914493
20
8.46438638694798
30
0
41
1
10
28.4702308038896
20
8.58923827351344
30
0
41
1
10
28.4933954248329
20
8.71332046593463
30
0
41
1
10
28.5158556365772
20
8.83659644505838
30
0
41
1
10
28.5376048289075
20
8.95902992928771
30
0
41
1
10
28.5586366002364
20
9.08058488395153
30
0
41
1
10
28.5789447624955
20
9.20122553679298
30
0
41
1
10
28.5985233317307
20
9.32091637027546
30
0
41
1
10
28.61736657176
20
9.4396222000413
30
0
41
1
10
28.6354688395014
20
9.5573079314683
30
0
41
1
10
28.6528251701789
20
9.67393951718805
30
0
41
1
10
28.6694291009625
20
9.78948043214689
30
0
41
1
10
28.6852808006102
20
9.90390487700492
30
0
41
1
10
28.7003567362795
20
10.0171485500922
30
0
41
1
10
28.7147228852705
20
10.1292924162318
30
0
41
1
10
28.7236491147409
20
10.2030154180476
30
0
41
1
10
28.7281122294761
20
10.2398769189556
30
0
0
SPLINE
5
136
100
AcDbEntity
8
1
62
256
6
ByLayer
370
18
48
1
60
0
100
AcDbSpline
70
4
71
3
72
54
73
50
40
0
40
0
40
0
40
0
40
0.0321003830062454
40
0.0321003830062454
40
0.0646896078244708
40
0.0646896078244708
40
0.0972788326426964
40
0.0972788326426964
40
0.129868057460922
40
0.129868057460922
40
0.195046507097373
40
0.195046507097373
40
0.227635731915598
40
0.227635731915598
40
0.260224956733823
40
0.260224956733823
40
0.325403406370272
40
0.325403406370272
40
0.357992631188498
40
0.357992631188498
40
0.390581856006723
40
0.390581856006723
40
0.455760305643172
40
0.455760305643172
40
0.488349530461396
40
0.488349530461396
40
0.52093875527962
40
0.52093875527962
40
0.553527980097844
40
0.553527980097844
40
0.586117204916069
40
0.586117204916069
40
0.651295654552517
40
0.651295654552517
40
0.716474104188965
40
0.716474104188965
40
0.74906332900719
40
0.74906332900719
40
0.781652553825415
40
0.781652553825415
40
0.814241778643639
40
0.814241778643639
40
0.846831003461864
40
0.846831003461864
40
0.912009453098313
40
0.912009453098313
40
0.977187902734762
40
0.977187902734762
40
1
40
1
40
1
40
1
41
1
10
95.3554027917506
20
8.1223180192568
30
0
41
1
10
96.2666185016436
20
8.32450832284604
30
0
41
1
10
97.1783112051989
20
8.51813019997735
30
0
41
1
10
99.0151326410264
20
8.88812080136236
30
0
41
1
10
99.9401290301945
20
9.06413869681217
30
0
41
1
10
101.790069096088
20
9.39343993905834
30
0
41
1
10
102.715025181617
20
9.54666415970883
30
0
41
1
10
104.565468055135
20
9.83037795887753
30
0
41
1
10
105.491153240232
20
9.96066840677642
30
0
41
1
10
108.266391395495
20
10.3195346387568
30
0
41
1
10
110.114847478263
20
10.5173960165793
30
0
41
1
10
112.890029340624
20
10.735674504179
30
0
41
1
10
113.815304791844
20
10.7953651779272
30
0
41
1
10
115.665132726859
20
10.8885973806263
30
0
41
1
10
116.589975166378
20
10.9219583713125
30
0
41
1
10
119.365093051182
20
10.98513937008
30
0
41
1
10
121.216608433375
20
10.9788446931181
30
0
41
1
10
123.99180095316
20
10.888033116204
30
0
41
1
10
124.916769056373
20
10.844303440758
30
0
41
1
10
126.767076085422
20
10.731325862804
30
0
41
1
10
127.692693928443
20
10.6618595257394
30
0
41
1
10
130.46849285851
20
10.4192744443335
30
0
41
1
10
132.317042190353
20
10.2128086605558
30
0
41
1
10
135.091845952274
20
9.82969960770498
30
0
41
1
10
136.017335954268
20
9.68982192108106
30
0
41
1
10
137.867457527293
20
9.38766418189707
30
0
41
1
10
138.792359376475
20
9.22521451164258
30
0
41
1
10
140.642395470106
20
8.88020610660794
30
0
41
1
10
141.567487553192
20
8.69786518407366
30
0
41
1
10
143.418420479239
20
8.31297275693476
30
0
41
1
10
144.344025811021
20
8.11045413424648
30
0
41
1
10
147.119473331545
20
7.47420920028884
30
0
41
1
10
148.969269861146
20
7.0113100239399
30
0
41
1
10
152.6709708992
20
6.02584424350471
30
0
41
1
10
154.519579045348
20
5.50445126236485
30
0
41
1
10
157.29402186314
20
4.6858472405587
30
0
41
1
10
158.219419457201
20
4.40691622857145
30
0
41
1
10
160.069892784535
20
3.83990769331666
30
0
41
1
10
160.994895427987
20
3.55184351388024
30
0
41
1
10
162.844999692153
20
2.96882041745693
30
0
41
1
10
163.770060948059
20
2.67385026647426
30
0
41
1
10
165.620784806066
20
2.07814473391289
30
0
41
1
10
166.54664647756
20
1.77735544676494
30
0
41
1
10
169.322637290966
20
0.870230662051625
30
0
41
1
10
171.172359079944
20
0.259240099802582
30
0
41
1
10
174.873739872212
20
-0.962816379049173
30
0
41
1
10
176.723075816632
20
-1.57447293460356
30
0
41
1
10
179.219848564924
20
-2.38555087500433
30
0
41
1
10
179.867286861665
20
-2.59448851180869
30
0
41
1
10
180.514908435234
20
-2.80169958690467
30
0
0
SPLINE
5
137
100
AcDbEntity
8
1
62
256
6
ByLayer
370
13
48
1
60
0
100
AcDbSpline
70
4
71
3
72
8
73
4
40
0
40
0
40
0
40
0
40
1
40
1
40
1
40
1
41
1
10
229.640122728645
20
4.11180650371634
30
0
41
1
10
230.38022575625
20
4.10204766367502
30
0
41
1
10
231.120328783856
20
4.09228882363368
30
0
41
1
10
231.860431811461
20
4.08252998359231
30
0
0
SPLINE
5
138
100
AcDbEntity
8
1
62
256
6
ByLayer
370
13
48
1
60
0
100
AcDbSpline
70
4
71
3
72
8
73
4
40
0
40
0
40
0
40
0
40
1
40
1
40
1
40
1
41
1
10
231.656863978299
20
1.16818216722623
30
0
41
1
10
231.664444335419
20
1.16279909057275
30
0
41
1
10
231.672046619888
20
1.15744347418678
30
0
41
1
10
231.679670242598
20
1.15211501841489
30
0
0
SPLINE
5
139
100
AcDbEntity
8
1
62
256
6
ByLayer
370
18
48
1
60
0
100
AcDbSpline
70
4
71
3
72
18
73
14
40
0
40
0
40
0
40
0
40
0.249999999999993
40
0.249999999999993
40
0.374999999999994
40
0.374999999999994
40
0.499999999999996
40
0.499999999999996
40
0.624999999999997
40
0.624999999999997
40
0.749999999999998
40
0.749999999999998
40
1
40
1
40
1
40
1
41
1
10
232.737431471752
20
-1.11914833667316
30
0
41
1
10
232.695487794993
20
-1.30065025912953
30
0
41
1
10
232.64414041983
20
-1.50366753906911
30
0
41
1
10
232.553562270541
20
-1.83921163404545
30
0
41
1
10
232.521193765439
20
-1.95585326963422
30
0
41
1
10
232.453240182876
20
-2.19491252359646
30
0
41
1
10
232.417521003212
20
-2.31782207041985
30
0
41
1
10
232.342697025476
20
-2.57020865439068
30
0
41
1
10
232.303588571984
20
-2.69969278239393
30
0
41
1
10
232.221991619391
20
-2.96521771849487
30
0
41
1
10
232.179311121486
20
-3.10185030915062
30
0
41
1
10
232.048243626635
20
-3.51500131121597
30
0
41
1
10
231.956489826986
20
-3.79601917995015
30
0
41
1
10
231.860431811461
20
-4.08252998359231
30
0
0
SPLINE
5
13A
100
AcDbEntity
8
1
62
256
6
ByLayer
370
18
48
1
60
0
100
AcDbSpline
70
4
71
3
72
8
73
4
40
0
40
0
40
0
40
0
40
1
40
1
40
1
40
1
41
1
10
31.4999999999876
20
-4.50351546682123
30
0
41
1
10
31.4999999999869
20
-4.65821301792099
30
0
41
1
10
31.4999999999861
20
-4.81354248236008
30
0
41
1
10
31.4999999999854
20
-4.96950316063183
30
0
0
SPLINE
5
13B
100
AcDbEntity
8
1
62
256
6
ByLayer
370
18
48
1
60
0
100
AcDbSpline
70
4
71
3
72
16
73
12
40
0
40
0
40
0
40
0
40
0.250000000000006
40
0.250000000000006
40
0.375000000000005
40
0.375000000000005
40
0.500000000000004
40
0.500000000000004
40
0.750000000000002
40
0.750000000000002
40
1
40
1
40
1
40
1
41
1
10
32.4445190442359
20
-11.4770115723378
30
0
41
1
10
32.2947251516685
20
-11.5122328756243
30
0
41
1
10
32.1616536412405
20
-11.5465618290402
30
0
41
1
10
31.9865337536823
20
-11.5943688474013
30
0
41
1
10
31.9322698160226
20
-11.6096918800809
30
0
41
1
10
31.8322099061392
20
-11.6387150959094
30
0
41
1
10
31.7865564983491
20
-11.652377691251
30
0
41
1
10
31.6653266454015
20
-11.6895611241548
30
0
41
1
10
31.6042069564486
20
-11.7096096960106
30
0
41
1
10
31.5214169900204
20
-11.7384620067788
30
0
41
1
10
31.4999999890935
20
-11.7472023682658
30
0
41
1
10
31.4999999891006
20
-11.7494216210846
30
0
0
SPLINE
5
13C
100
AcDbEntity
8
1
62
256
6
ByLayer
370
18
48
1
60
0
100
AcDbSpline
70
4
71
2
72
9
73
6
40
0
40
0
40
0
40
0.243642963481435
40
0.49576197565429
40
0.747880987827145
40
1
40
1
40
1
41
1
10
224.700086883929
20
-3.70023590148523
30
0
41
1
10
224.80596716934
20
-4.56782841819114
30
0
41
1
10
225.119207526168
20
-6.21918327327037
30
0
41
1
10
225.532357642186
20
-7.7349112847001
30
0
41
1
10
226.029339495073
20
-9.04755020012473
30
0
41
1
10
226.313367999068
20
-9.5851741579354
30
0
0
SPLINE
5
13D
100
AcDbEntity
8
1
62
256
6
ByLayer
370
18
48
1
60
0
100
AcDbSpline
70
4
71
3
72
12
73
8
40
0
40
0
40
0
40
0
40
0.414497196951744
40
0.414497196951744
40
0.707248527958134
40
0.707248527958134
40
1
40
1
40
1
40
1
41
1
10
217.999999999007
20
11.5131443111476
30
0
41
1
10
217.986734061533
20
11.5271064506457
30
0
41
1
10
217.973464207902
20
11.5410670936031
30
0
41
1
10
217.950815506219
20
11.5648853677577
30
0
41
1
10
217.941438597469
20
11.5747437348947
30
0
41
1
10
217.922680940104
20
11.5944590360294
30
0
41
1
10
217.913300190356
20
11.6043159712139
30
0
41
1
10
217.90391753703
20
11.6141721992384
30
0
0
SPLINE
5
13E
100
AcDbEntity
8
1
62
256
6
ByLayer
370
18
48
1
60
0
100
AcDbSpline
70
4
71
3
72
8
73
4
40
0
40
0
40
0
40
0
40
1
40
1
40
1
40
1
41
1
10
219.059619407771
20
2.78367654844979
30
0
41
1
10
219.072948301754
20
2.77733636053915
30
0
41
1
10
219.087006822257
20
2.77107515488393
30
0
41
1
10
219.101511631847
20
2.76501398188862
30
0
0
SPLINE
5
13F
100
AcDbEntity
8
1
62
256
6
ByLayer
370
13
48
1
60
0
100
AcDbSpline
70
4
71
3
72
38
73
34
40
0
40
0
40
0
40
0
40
0.25000000000012
40
0.25000000000012
40
0.375000000000194
40
0.375000000000194
40
0.406250000000198
40
0.406250000000198
40
0.437500000000203
40
0.500000000000236
40
0.56250000000027
40
0.578125000000266
40
0.578125000000266
40
0.593750000000262
40
0.593750000000262
40
0.625000000000255
40
0.687500000000239
40
0.687500000000239
40
0.718750000000219
40
0.718750000000219
40
0.7500000000002
40
0.78125000000018
40
0.78125000000018
40
0.79687500000017
40
0.79687500000017
40
0.81250000000016
40
0.875000000000101
40
0.937500000000041
40
0.968750000000011
40
0.968750000000011
40
0.984375000000006
40
0.984375000000006
40
1
40
1
40
1
40
1
41
1
10
230.034942682155
20
-2.18914632478158
30
0
41
1
10
229.835600836654
20
-2.04981830706265
30
0
41
1
10
229.601993484163
20
-1.86909357247623
30
0
41
1
10
229.270161679888
20
-1.58920074481293
30
0
41
1
10
229.162647193017
20
-1.49443520314608
30
0
41
1
10
229.039413953365
20
-1.37969504554545
30
0
41
1
10
229.015859833926
20
-1.35744480033779
30
0
41
1
10
228.966083816792
20
-1.30964950428574
30
0
41
1
10
228.88832773609
20
-1.23390581250189
30
0
41
1
10
228.749146914481
20
-1.09330693672081
30
0
41
1
10
228.626469829205
20
-0.963678928968136
30
0
41
1
10
228.564106539696
20
-0.895501770078369
30
0
41
1
10
228.539722376141
20
-0.868636248652365
30
0
41
1
10
228.528095839429
20
-0.855725035342715
30
0
41
1
10
228.491985300472
20
-0.815262735770318
30
0
41
1
10
228.412909672769
20
-0.725280586991516
30
0
41
1
10
228.327748909506
20
-0.62487090847219
30
0
41
1
10
228.257836445797
20
-0.539837662468301
30
0
41
1
10
228.23240841552
20
-0.508355329267232
30
0
41
1
10
228.179289067381
20
-0.441686265083916
30
0
41
1
10
228.124349028412
20
-0.371853447989338
30
0
41
1
10
228.072420764853
20
-0.30411490444169
30
0
41
1
10
228.037099527808
20
-0.257255378545636
30
0
41
1
10
228.025959864175
20
-0.242329997381688
30
0
41
1
10
228.00251998547
20
-0.210606259353938
30
0
41
1
10
227.942587152794
20
-0.128727956538938
30
0
41
1
10
227.82509678053
20
0.038342286548982
30
0
41
1
10
227.694425327424
20
0.234596230746377
30
0
41
1
10
227.623596914846
20
0.346155834943715
30
0
41
1
10
227.590081261384
20
0.399988839674791
30
0
41
1
10
227.579361975578
20
0.417384120108238
30
0
41
1
10
227.55808100617
20
0.452331999184679
30
0
41
1
10
227.546836803207
20
0.47100927086214
30
0
41
1
10
227.535197878461
20
0.490530349071804
30
0
0
SPLINE
5
140
100
AcDbEntity
8
1
62
256
6
ByLayer
370
18
48
1
60
0
100
AcDbSpline
70
4
71
3
72
12
73
8
40
0
40
0
40
0
40
0
40
0.5
40
0.5
40
0.75
40
0.75
40
1
40
1
40
1
40
1
41
1
10
231.743144563453
20
-4.43236089919893
30
0
41
1
10
231.503980807319
20
-5.0923094876982
30
0
41
1
10
231.268902812467
20
-5.75647171085956
30
0
41
1
10
230.92281625346
20
-6.75944986393347
30
0
41
1
10
230.808387964391
20
-7.09540026605592
30
0
41
1
10
230.582658537441
20
-7.76770945963841
30
0
41
1
10
230.47221462683
20
-8.1015011169938
30
0
41
1
10
230.364401465482
20
-8.43272490677387
30
0
0
SPLINE
5
141
100
AcDbEntity
8
1
62
256
6
ByLayer
370
18
48
1
60
0
100
AcDbSpline
70
4
71
3
72
8
73
4
40
0
40
0
40
0
40
0
40
1
40
1
40
1
40
1
41
1
10
217.8
20
3.18813823064193
30
0
41
1
10
217.8
20
3.31328449125158
30
0
41
1
10
217.8
20
3.44804694965458
30
0
41
1
10
217.8
20
3.59237523064192
30
0
0
SPLINE
5
142
100
AcDbEntity
8
1
62
256
6
ByLayer
370
18
48
1
60
0
100
AcDbSpline
70
4
71
3
72
8
73
4
40
0
40
0
40
0
40
0
40
1
40
1
40
1
40
1
41
1
10
203.576743275575
20
7.64537072206477
30
0
41
1
10
203.576657722163
20
7.64580797039122
30
0
41
1
10
203.576572808736
20
7.6462450501123
30
0
41
1
10
203.576488534756
20
7.6466819609295
30
0
0
SPLINE
5
143
100
AcDbEntity
8
1
62
256
6
ByLayer
370
18
48
1
60
0
100
AcDbSpline
70
4
71
3
72
32
73
28
40
0
40
0
40
0
40
0
40
0.0624999999999899
40
0.0624999999999899
40
0.12499999999998
40
0.12499999999998
40
0.24999999999999
40
0.24999999999999
40
0.312499999999995
40
0.312499999999995
40
0.375000000000001
40
0.375000000000001
40
0.437500000000006
40
0.437500000000006
40
0.500000000000011
40
0.500000000000011
40
0.625000000000021
40
0.625000000000021
40
0.687500000000016
40
0.687500000000016
40
0.750000000000012
40
0.750000000000012
40
0.812500000000007
40
0.812500000000007
40
0.875000000000002
40
0.875000000000002
40
1
40
1
40
1
40
1
41
1
10
204.574234313201
20
-7.13027874284896
30
0
41
1
10
204.68536262074
20
-7.15213492266616
30
0
41
1
10
204.797618963993
20
-7.16887100612729
30
0
41
1
10
205.024383823086
20
-7.19226417317472
30
0
41
1
10
205.138911811751
20
-7.19885662092688
30
0
41
1
10
205.479267814615
20
-7.20335667767284
30
0
41
1
10
205.704118792909
20
-7.18650466595378
30
0
41
1
10
206.038291578353
20
-7.13075375146715
30
0
41
1
10
206.149020062281
20
-7.10696878100345
30
0
41
1
10
206.363688253901
20
-7.05020392874394
30
0
41
1
10
206.468377261676
20
-7.01711720212489
30
0
41
1
10
206.672567210953
20
-6.94146282871603
30
0
41
1
10
206.772068312762
20
-6.89889608911508
30
0
41
1
10
206.965783279897
20
-6.80378858578351
30
0
41
1
10
207.059799860936
20
-6.75124314197086
30
0
41
1
10
207.32690601423
20
-6.58211915155351
30
0
41
1
10
207.48773445196
20
-6.45307335516796
30
0
41
1
10
207.702758980828
20
-6.23267130668
30
0
41
1
10
207.769597716204
20
-6.1549998271856
30
0
41
1
10
207.89120396564
20
-5.99412012640289
30
0
41
1
10
207.946387272354
20
-5.91050079444997
30
0
41
1
10
208.045566041934
20
-5.73667636043177
30
0
41
1
10
208.089562610335
20
-5.6464724338787
30
0
41
1
10
208.165971817969
20
-5.45902360191138
30
0
41
1
10
208.197880974015
20
-5.36287390912821
30
0
41
1
10
208.274195978335
20
-5.07044030722719
30
0
41
1
10
208.3
20
-4.86883963466815
30
0
41
1
10
208.3
20
-4.66013127569448
30
0
0
SPLINE
5
144
100
AcDbEntity
8
1
62
256
6
ByLayer
370
18
48
1
60
0
100
AcDbSpline
70
4
71
3
72
8
73
4
40
0
40
0
40
0
40
0
40
1
40
1
40
1
40
1
41
1
10
223.259448196611
20
0.940275456206052
30
0
41
1
10
223.296393477376
20
0.939748414507875
30
0
41
1
10
223.333338746272
20
0.93931457668279
30
0
41
1
10
223.370284004302
20
0.938973757052196
30
0
0
SPLINE
5
145
100
AcDbEntity
8
1
62
256
6
ByLayer
370
18
48
1
60
0
100
AcDbSpline
70
4
71
3
72
8
73
4
40
0
40
0
40
0
40
0
40
1
40
1
40
1
40
1
41
1
10
208.406950490543
20
9.66227273375623
30
0
41
1
10
208.468173675908
20
9.81721216352057
30
0
41
1
10
208.538910687981
20
9.96607198508866
30
0
41
1
10
208.619073218139
20
10.1089835825825
30
0
0
SPLINE
5
146
100
AcDbEntity
8
1
62
256
6
ByLayer
370
18
48
1
60
0
100
AcDbSpline
70
4
71
3
72
10
73
6
40
0
40
0
40
0
40
0
40
0.5
40
0.5
40
1
40
1
40
1
40
1
41
1
10
232.69369940016
20
-0.902062359531755
30
0
41
1
10
232.752013091676
20
-0.72347267949749
30
0
41
1
10
232.803621000422
20
-0.546487091481254
30
0
41
1
10
232.895658380025
20
-0.195189912445756
30
0
41
1
10
232.936072887712
20
-0.0208819007702346
30
0
41
1
10
232.971588193562
20
0.152254171576146
30
0
0
SPLINE
5
147
100
AcDbEntity
8
1
62
256
6
ByLayer
370
18
48
1
60
0
100
AcDbSpline
70
4
71
1
72
4
73
2
40
0
40
0
40
1
40
1
41
1
10
224.697932278288
20
-3.63985576593507
30
0
41
1
10
224.70008685974
20
-3.70023570327834
30
0
0
SPLINE
5
148
100
AcDbEntity
8
1
62
256
6
ByLayer
370
18
48
1
60
0
100
AcDbSpline
70
4
71
3
72
22
73
18
40
0
40
0
40
0
40
0
40
0.0202570609454528
40
0.0732479959642612
40
0.17922986600188
40
0.232220801020689
40
0.285211736039497
40
0.391193606077116
40
0.444184541095924
40
0.497175476114734
40
0.603157346152352
40
0.656148281171161
40
0.70913921618997
40
0.815121086227588
40
0.868112021246396
40
0.921102956265206
40
1
40
1
40
1
40
1
41
1
10
77.4093428189747
20
-0.0024110342356778
30
0
41
1
10
77.761306055062
20
-0.121528112840963
30
0
41
1
10
79.0340205038917
20
-0.552550761698086
30
0
41
1
10
82.1492759925411
20
-1.60994094974842
30
0
41
1
10
85.8317763138838
20
-2.84064377063459
30
0
41
1
10
89.5134557562104
20
-4.02140637548999
30
0
41
1
10
93.1983054990633
20
-5.1669022430172
30
0
41
1
10
96.8825462531969
20
-6.24513129775079
30
0
41
1
10
100.564918399373
20
-7.23450100046796
30
0
41
1
10
104.24914316898
20
-8.15636562357051
30
0
41
1
10
107.931692789553
20
-8.97148880478127
30
0
41
1
10
111.613439328889
20
-9.65874429257954
30
0
41
1
10
115.298359641267
20
-10.2505619732041
30
0
41
1
10
118.982665536014
20
-10.7069016913836
30
0
41
1
10
122.665061948028
20
-11.0169735441684
30
0
41
1
10
125.878505422228
20
-11.1908657078328
30
0
41
1
10
128.170010693648
20
-11.2385527858137
30
0
41
1
10
129.540624106394
20
-11.2393130829638
30
0
0
SPLINE
5
149
100
AcDbEntity
8
1
62
256
6
ByLayer
370
18
48
1
60
0
100
AcDbSpline
70
4
71
3
72
10
73
6
40
0
40
0
40
0
40
0
40
0.5
40
0.5
40
1
40
1
40
1
40
1
41
1
10
227.535197878461
20
0.490530349071776
30
0
41
1
10
227.478221870529
20
0.719382453426419
30
0
41
1
10
227.4275945581
20
0.949952265172328
30
0
41
1
10
227.33810942923
20
1.41427625153753
30
0
41
1
10
227.299644034779
20
1.64725987888869
30
0
41
1
10
227.265819316465
20
1.88084122293535
30
0
0
SPLINE
5
14A
100
AcDbEntity
8
1
62
256
6
ByLayer
370
13
48
1
60
0
100
AcDbSpline
70
4
71
3
72
18
73
14
40
0
40
0
40
0
40
0
40
0.12499999999998
40
0.12499999999998
40
0.187499999999971
40
0.187499999999971
40
0.249999999999961
40
0.249999999999961
40
0.499999999999974
40
0.499999999999974
40
0.749999999999987
40
0.749999999999987
40
1
40
1
40
1
40
1
41
1
10
229.61363233101
20
4.10591768232601
30
0
41
1
10
229.64940710123
20
3.94235914451806
30
0
41
1
10
229.694512703756
20
3.78325222649576
30
0
41
1
10
229.774781755435
20
3.55060350616429
30
0
41
1
10
229.803742206313
20
3.47384856807946
30
0
41
1
10
229.865108169793
20
3.32370627263899
30
0
41
1
10
229.89752586386
20
3.25023955994354
30
0
41
1
10
230.067663176907
20
2.89034284806021
30
0
41
1
10
230.229066690364
20
2.62580550991794
30
0
41
1
10
230.59237852122
20
2.13414594163396
30
0
41
1
10
230.789314910469
20
1.91363807547342
30
0
41
1
10
231.206862311144
20
1.51200054087232
30
0
41
1
10
231.428149620593
20
1.3306159669325
30
0
41
1
10
231.656863978299
20
1.16818216722629
30
0
0
SPLINE
5
14B
100
AcDbEntity
8
1
62
256
6
ByLayer
370
18
48
1
60
0
100
AcDbSpline
70
2053
71
3
72
39
73
35
40
0
40
0
40
0
40
0
40
0.0312174196638062
40
0.0623417988884484
40
0.0935332002232009
40
0.124830413530605
40
0.156003995689733
40
0.187390577942741
40
0.218632242767541
40
0.250018120695258
40
0.28139100560433
40
0.312667215458743
40
0.344062157636191
40
0.375253488160872
40
0.406535345446015
40
0.437713359122823
40
0.468938240619268
40
0.500162918733094
40
0.531270282224149
40
0.562419850842911
40
0.593679131873276
40
0.624821007795867
40
0.656168625006056
40
0.687399773358778
40
0.718751408742865
40
0.750126161620166
40
0.781402377296515
40
0.812823624831166
40
0.844057429538069
40
0.875378070223736
40
0.906619363097378
40
0.937744482864108
40
0.968971968698731
40
1
40
1
40
1
40
1
41
1
10
212.96
20
-6.3088240563211
30
0
41
1
10
213.131819468646
20
-6.30882489740235
30
0
41
1
10
213.474954933734
20
-6.33853298452047
30
0
41
1
10
213.968517885196
20
-6.46889128210321
30
0
41
1
10
214.421967399551
20
-6.67633677148734
30
0
41
1
10
214.818363523715
20
-6.94835665092083
30
0
41
1
10
215.14413797269
20
-7.27041277622757
30
0
41
1
10
215.386528883403
20
-7.62554035598953
30
0
41
1
10
215.536534244865
20
-7.99772574551088
30
0
41
1
10
215.587323356304
20
-8.36921514311794
30
0
41
1
10
215.536419710115
20
-8.72436839442244
30
0
41
1
10
215.386238503854
20
-9.04984723024518
30
0
41
1
10
215.143514534737
20
-9.33516961601217
30
0
41
1
10
214.817512972437
20
-9.57437885711482
30
0
41
1
10
214.421006941983
20
-9.76306852454658
30
0
41
1
10
213.967117009643
20
-9.89936925527599
30
0
41
1
10
213.472924293855
20
-9.98165440911671
30
0
41
1
10
212.957925606466
20
-10.0089810057604
30
0
41
1
10
212.443465588455
20
-9.98120315416747
30
0
41
1
10
211.950049900639
20
-9.89871970134985
30
0
41
1
10
211.497063854293
20
-9.76231094678985
30
0
41
1
10
211.100475346997
20
-9.57319674260563
30
0
41
1
10
210.775337611635
20
-9.33411056935515
30
0
41
1
10
210.532883977406
20
-9.0483949164578
30
0
41
1
10
210.383155470477
20
-8.72308567073125
30
0
41
1
10
210.332736886255
20
-8.3679445476975
30
0
41
1
10
210.383848502986
20
-7.99617104893923
30
0
41
1
10
210.534123359833
20
-7.6243034094131
30
0
41
1
10
210.777333458982
20
-7.26866371837886
30
0
41
1
10
211.103254267227
20
-6.94696755226272
30
0
41
1
10
211.500121038257
20
-6.67521972440485
30
0
41
1
10
211.953650235804
20
-6.46809735342569
30
0
41
1
10
212.446579517297
20
-6.33830686447413
30
0
41
1
10
212.789222917566
20
-6.30882322034249
30
0
41
1
10
212.96
20
-6.3088240563211
30
0
0
SPLINE
5
14C
100
AcDbEntity
8
1
62
256
6
ByLayer
370
18
48
1
60
0
100
AcDbSpline
70
4
71
3
72
18
73
14
40
0
40
0
40
0
40
0
40
0.250000000000006
40
0.250000000000006
40
0.375000000000003
40
0.375000000000003
40
0.5
40
0.5
40
0.750000000000006
40
0.750000000000006
40
0.875000000000003
40
0.875000000000003
40
1
40
1
40
1
40
1
41
1
10
218.729863857252
20
11.9146024052169
30
0
41
1
10
219.620142451189
20
11.9581040688157
30
0
41
1
10
220.509530348226
20
11.9797767964202
30
0
41
1
10
221.841929929226
20
11.9801433045048
30
0
41
1
10
222.285630863874
20
11.9748831563795
30
0
41
1
10
223.172521631025
20
11.9535249191846
30
0
41
1
10
223.615557731364
20
11.9373852588896
30
0
41
1
10
224.945712852087
20
11.8730432663959
30
0
41
1
10
225.833092331725
20
11.8088906999888
30
0
41
1
10
227.164930790648
20
11.6807669305583
30
0
41
1
10
227.608992267747
20
11.6327295387257
30
0
41
1
10
228.497095139163
20
11.525679307975
30
0
41
1
10
228.941646515072
20
11.4669555031731
30
0
41
1
10
229.386721197678
20
11.4030669618572
30
0
0
SPLINE
5
14D
100
AcDbEntity
8
1
62
256
6
ByLayer
370
18
48
1
60
0
100
AcDbSpline
70
4
71
3
72
18
73
14
40
0
40
0
40
0
40
0
40
0.250000000000008
40
0.250000000000008
40
0.374999999999997
40
0.374999999999997
40
0.499999999999987
40
0.499999999999987
40
0.749999999999993
40
0.749999999999993
40
0.874999999999997
40
0.874999999999997
40
1
40
1
40
1
40
1
41
1
10
231.455118205788
20
-3.18176400635122
30
0
41
1
10
231.558977291028
20
-3.06772396515709
30
0
41
1
10
231.66236671125
20
-2.94072606802124
30
0
41
1
10
231.81662512975
20
-2.72744818776098
30
0
41
1
10
231.867906379234
20
-2.65254203819021
30
0
41
1
10
231.970162111577
20
-2.49426617976127
30
0
41
1
10
232.02087964093
20
-2.41123168194582
30
0
41
1
10
232.168861679285
20
-2.15477016321285
30
0
41
1
10
232.263082873352
20
-1.97233908975016
30
0
41
1
10
232.397354949263
20
-1.68044927045551
30
0
41
1
10
232.44106734711
20
-1.57971426626276
30
0
41
1
10
232.524303971444
20
-1.37622272081828
30
0
41
1
10
232.564044882093
20
-1.27303555195161
30
0
41
1
10
232.60197120829
20
-1.16845521545039
30
0
0
SPLINE
5
14E
100
AcDbEntity
8
1
62
256
6
ByLayer
370
18
48
1
60
0
100
AcDbSpline
70
4
71
3
72
28
73
24
40
0
40
0
40
0
40
0
40
0.0373961358749763
40
0.0745785147529071
40
0.111547630476458
40
0.14830398548489
40
0.184848090993773
40
0.22118046717873
40
0.257301643363312
40
0.293212158211035
40
0.328912559921753
40
0.364403406432357
40
0.399685265621937
40
0.434758715521503
40
0.46962434452826
40
0.504282751624657
40
0.577262737396021
40
0.649511124121331
40
0.721034032208608
40
0.791837770226746
40
0.8619288409578
40
0.931313947583498
40
1
40
1
40
1
40
1
41
1
10
224.593065983334
20
-3.70904553435238
30
0
41
1
10
224.573210761829
20
-3.6541217561238
30
0
41
1
10
224.533613811629
20
-3.54458814498813
30
0
41
1
10
224.475178606195
20
-3.37951917352672
30
0
41
1
10
224.41766438758
20
-3.21454105399593
30
0
41
1
10
224.361126870678
20
-3.04960782106647
30
0
41
1
10
224.305551255042
20
-2.88478765322617
30
0
41
1
10
224.250941472089
20
-2.72011732440848
30
0
41
1
10
224.197296477307
20
-2.55564086402097
30
0
41
1
10
224.144616548373
20
-2.3913992860351
30
0
41
1
10
224.092901610147
20
-2.22743331176721
30
0
41
1
10
224.042151687235
20
-2.0637826586813
30
0
41
1
10
223.992366755502
20
-1.90048617982123
30
0
41
1
10
223.943546886103
20
-1.73758200772997
30
0
41
1
10
223.895691820365
20
-1.57510684773135
30
0
41
1
10
223.831427705162
20
-1.35306658459172
30
0
41
1
10
223.752155973952
20
-1.07150631245537
30
0
41
1
10
223.659750329657
20
-0.730489913505693
30
0
41
1
10
223.571428397042
20
-0.3914513093153
30
0
41
1
10
223.487167075932
20
-0.0546860627773071
30
0
41
1
10
223.407052374228
20
0.279525165622374
30
0
41
1
10
223.330767919546
20
0.610915329653352
30
0
41
1
10
223.283000294317
20
0.830894092735093
30
0
41
1
10
223.259237405434
20
0.940326598092213
30
0
0
SPLINE
5
14F
100
AcDbEntity
8
1
62
256
6
ByLayer
370
13
48
1
60
0
100
AcDbSpline
70
4
71
3
72
8
73
4
40
0
40
0
40
0
40
0
40
1
40
1
40
1
40
1
41
1
10
231.455118205788
20
-3.18176400635119
30
0
41
1
10
230.981726364577
20
-2.85089144582798
30
0
41
1
10
230.508334523366
20
-2.52001888530481
30
0
41
1
10
230.034942682155
20
-2.18914632478158
30
0
0
SPLINE
5
150
100
AcDbEntity
8
1
62
256
6
ByLayer
370
18
48
1
60
0
100
AcDbSpline
70
4
71
3
72
10
73
6
40
0
40
0
40
0
40
0
40
0.5
40
0.5
40
1
40
1
40
1
40
1
41
1
10
229.636042495465
20
4.13031658513577
30
0
41
1
10
229.990415033222
20
4.16055362698546
30
0
41
1
10
230.343789562406
20
4.19708246078187
30
0
41
1
10
231.046964501076
20
4.29267261772279
30
0
41
1
10
231.396879090257
20
4.35101411249684
30
0
41
1
10
231.743144563454
20
4.43236089919841
30
0
0
SPLINE
5
151
100
AcDbEntity
8
1
62
256
6
ByLayer
370
18
48
1
60
0
100
AcDbSpline
70
4
71
3
72
22
73
18
40
0
40
0
40
0
40
0
40
0.0237342381624282
40
0.0474004448181878
40
0.0710368473831769
40
0.0946818178288344
40
0.118373686496381
40
0.142150556916362
40
0.213006621350062
40
0.283388822486058
40
0.354404111127498
40
0.424707566726601
40
0.565553543879078
40
0.705943091402421
40
0.845881258380211
40
0.985626314391384
40
1
40
1
40
1
40
1
41
1
10
217.905003733851
20
-11.2970057016668
30
0
41
1
10
217.905192996366
20
-11.2925226688009
30
0
41
1
10
217.905570978895
20
-11.2835694531753
30
0
41
1
10
217.908603370636
20
-11.2699286383871
30
0
41
1
10
217.913442949079
20
-11.256172038841
30
0
41
1
10
217.920265456293
20
-11.2422852120248
30
0
41
1
10
217.929022628776
20
-11.2282748854849
30
0
41
1
10
217.946777344388
20
-11.2048499917508
30
0
41
1
10
217.980102625677
20
-11.1719301771911
30
0
41
1
10
218.03943892538
20
-11.130023426937
30
0
41
1
10
218.11397705774
20
-11.0894270101671
30
0
41
1
10
218.232876620575
20
-11.0382586338056
30
0
41
1
10
218.415410567562
20
-10.9820533638995
30
0
41
1
10
218.677079148124
20
-10.9353221716629
30
0
41
1
10
218.963460471728
20
-10.9162367040458
30
0
41
1
10
219.166709966085
20
-10.9242001106224
30
0
41
1
10
219.268370479907
20
-10.9343899784682
30
0
41
1
10
219.277851716577
20
-10.9353403233469
30
0
0
SPLINE
5
152
100
AcDbEntity
8
1
62
256
6
ByLayer
370
18
48
1
60
0
100
AcDbSpline
70
4
71
3
72
8
73
4
40
0
40
0
40
0
40
0
40
1
40
1
40
1
40
1
41
1
10
206.475437047307
20
9.54110478681187
30
0
41
1
10
206.424806133491
20
9.52918785468788
30
0
41
1
10
206.374313560372
20
9.52045001364064
30
0
41
1
10
206.323966801452
20
9.51475170839467
30
0
0
SPLINE
5
153
100
AcDbEntity
8
1
62
256
6
ByLayer
370
18
48
1
60
0
100
AcDbSpline
70
4
71
3
72
12
73
8
40
0
40
0
40
0
40
0
40
0.218313777686744
40
0.218313777686744
40
0.804034495286774
40
0.804034495286774
40
1
40
1
40
1
40
1
41
1
10
207.683009552956
20
10.3205504450247
30
0
41
1
10
207.683388661949
20
10.3286542089857
30
0
41
1
10
207.683772502649
20
10.336757634394
30
0
41
1
10
207.685203623493
20
10.3666007676748
30
0
41
1
10
207.686280293721
20
10.3883384503489
30
0
41
1
10
207.687762975578
20
10.4173460251207
30
0
41
1
10
207.688138518372
20
10.4246178628065
30
0
41
1
10
207.688517907943
20
10.4318894637273
30
0
0
SPLINE
5
154
100
AcDbEntity
8
1
62
256
6
ByLayer
370
18
48
1
60
0
100
AcDbSpline
70
4
71
1
72
4
73
2
40
0
40
0
40
1
40
1
41
1
10
28.8836079261956
20
10.8967893213869
30
0
41
1
10
28.7281122629451
20
10.2398769162807
30
0
0
SPLINE
5
155
100
AcDbEntity
8
1
62
256
6
ByLayer
370
13
48
1
60
0
100
AcDbSpline
70
4
71
3
72
10
73
6
40
0
40
0
40
0
40
0
40
0.019312289435337
40
0.019312289435337
40
1
40
1
40
1
40
1
41
1
10
229.612971349448
20
4.10892688534514
30
0
41
1
10
229.612975621303
20
4.1089075172757
30
0
41
1
10
229.612979893488
20
4.10888814927392
30
0
41
1
10
229.613201075069
20
4.10788525740142
30
0
41
1
10
229.613417130492
20
4.10690155705103
30
0
41
1
10
229.613632331005
20
4.10591768232447
30
0
0
SPLINE
5
156
100
AcDbEntity
8
1
62
256
6
ByLayer
370
18
48
1
60
0
100
AcDbSpline
70
4
71
3
72
14
73
10
40
0
40
0
40
0
40
0
40
0.25
40
0.25
40
0.5
40
0.5
40
0.75
40
0.75
40
1
40
1
40
1
40
1
41
1
10
219.101511631848
20
2.76501398188901
30
0
41
1
10
219.780095760913
20
2.68058921355433
30
0
41
1
10
220.459030778853
20
2.59806698755014
30
0
41
1
10
221.817679823868
20
2.43724637380998
30
0
41
1
10
222.4976090951
20
2.36011505391565
30
0
41
1
10
223.859437284544
20
2.21653196832475
30
0
41
1
10
224.540575041233
20
2.14759880789396
30
0
41
1
10
225.902987866709
20
2.01152383997979
30
0
41
1
10
226.584301715194
20
1.94487024910819
30
0
41
1
10
227.265819316465
20
1.88084122293458
30
0
0
SPLINE
5
157
100
AcDbEntity
8
1
62
256
6
ByLayer
370
13
48
1
60
0
100
AcDbSpline
70
4
71
3
72
8
73
4
40
0
40
0
40
0
40
0
40
1
40
1
40
1
40
1
41
1
10
229.61297134944
20
4.1089268853431
30
0
41
1
10
229.605732975271
20
4.10716270032904
30
0
41
1
10
229.598494642861
20
4.10539624871831
30
0
41
1
10
229.591256465946
20
4.1036275522446
30
0
0
SPLINE
5
158
100
AcDbEntity
8
1
62
256
6
ByLayer
370
18
48
1
60
0
100
AcDbSpline
70
4
71
3
72
8
73
4
40
0
40
0
40
0
40
0
40
1
40
1
40
1
40
1
41
1
10
218.729863857252
20
-11.9146024052169
30
0
41
1
10
218.486936731185
20
-11.8156952488767
30
0
41
1
10
218.24365660199
20
-11.7152931452949
30
0
41
1
10
218
20
-11.6134632420603
30
0
0
SPLINE
5
159
100
AcDbEntity
8
1
62
256
6
ByLayer
370
18
48
1
60
0
100
AcDbSpline
70
4
71
3
72
8
73
4
40
0
40
0
40
0
40
0
40
1
40
1
40
1
40
1
41
1
10
217.903900311766
20
-11.6225758017262
30
0
41
1
10
217.904267709974
20
-11.6225360324569
30
0
41
1
10
217.904635108183
20
-11.6224962539294
30
0
41
1
10
217.905002506391
20
-11.6224564661436
30
0
0
SPLINE
5
15A
100
AcDbEntity
8
1
62
256
6
ByLayer
370
18
48
1
60
0
100
AcDbSpline
70
4
71
3
72
58
73
54
40
0
40
0
40
0
40
0
40
0.0244265354744884
40
0.0244265354744884
40
0.0541425055833509
40
0.0541425055833509
40
0.0838584756922133
40
0.0838584756922133
40
0.113574445801075
40
0.113574445801075
40
0.143290415909937
40
0.143290415909937
40
0.202722356127659
40
0.202722356127659
40
0.232438326236521
40
0.232438326236521
40
0.262154296345383
40
0.262154296345383
40
0.321586236563106
40
0.321586236563106
40
0.351302206671968
40
0.351302206671968
40
0.381018176780829
40
0.381018176780829
40
0.440450116998553
40
0.440450116998553
40
0.470166087107415
40
0.470166087107415
40
0.499882057216277
40
0.499882057216277
40
0.559313997434002
40
0.559313997434002
40
0.618745937651727
40
0.618745937651727
40
0.678177877869452
40
0.678177877869452
40
0.707893847978315
40
0.707893847978315
40
0.737609818087178
40
0.737609818087178
40
0.767325788196041
40
0.767325788196041
40
0.797041758304904
40
0.797041758304904
40
0.856473698522629
40
0.856473698522629
40
0.886189668631492
40
0.886189668631492
40
0.915905638740355
40
0.915905638740355
40
0.975337578958082
40
0.975337578958082
40
1
40
1
40
1
40
1
41
1
10
198.353533464236
20
-8.24300918226155
30
0
41
1
10
197.594514128516
20
-8.40125880951959
30
0
41
1
10
196.835462894865
20
-8.55260136261086
30
0
41
1
10
195.152570946978
20
-8.87223674820308
30
0
41
1
10
194.2283694509
20
-9.03707301525401
30
0
41
1
10
192.380183855778
20
-9.34520448203878
30
0
41
1
10
191.456342591904
20
-9.48827960532006
30
0
41
1
10
189.60874681454
20
-9.75465162773367
30
0
41
1
10
188.685013670433
20
-9.87795845011371
30
0
41
1
10
186.836918111444
20
-10.1014206409999
30
0
41
1
10
185.912366817913
20
-10.201923925476
30
0
41
1
10
183.139791545538
20
-10.4676390777455
30
0
41
1
10
181.292048406618
20
-10.5971674401192
30
0
41
1
10
178.517816425443
20
-10.715960713185
30
0
41
1
10
177.592790808401
20
-10.7428899911405
30
0
41
1
10
175.743630674847
20
-10.7710224431687
30
0
41
1
10
174.819224532234
20
-10.7723282628714
30
0
41
1
10
172.045720283158
20
-10.738225529845
30
0
41
1
10
170.195477992537
20
-10.6645748062027
30
0
41
1
10
167.42271265888
20
-10.4829251046034
30
0
41
1
10
166.498694626377
20
-10.4105039957641
30
0
41
1
10
164.650372272591
20
-10.2417296186951
30
0
41
1
10
163.72581397224
20
-10.1454238963437
30
0
41
1
10
160.952553811067
20
-9.8214471426123
30
0
41
1
10
159.104947735744
20
-9.55876256119126
30
0
41
1
10
156.331282865127
20
-9.09975636544468
30
0
41
1
10
155.406131119089
20
-8.93584218153839
30
0
41
1
10
153.556732933797
20
-8.5873586471314
30
0
41
1
10
152.632280914822
20
-8.40282969469283
30
0
41
1
10
149.858863109162
20
-7.82015453968964
30
0
41
1
10
148.008728448211
20
-7.39261374450385
30
0
41
1
10
144.311327338083
20
-6.47372702709927
30
0
41
1
10
142.463877131047
20
-5.98206031210239
30
0
41
1
10
138.765478200462
20
-4.9469370637872
30
0
41
1
10
136.91774587051
20
-4.40454115158514
30
0
41
1
10
134.144503070347
20
-3.56498094986537
30
0
41
1
10
133.219545202659
20
-3.28068188916416
30
0
41
1
10
131.369874646901
20
-2.70523528298784
30
0
41
1
10
130.445370302234
20
-2.41417269031197
30
0
41
1
10
128.596483713255
20
-1.8270342795079
30
0
41
1
10
127.672097547665
20
-1.53096468296283
30
0
41
1
10
125.822931943154
20
-0.935491974988651
30
0
41
1
10
124.897936592149
20
-0.636020646951067
30
0
41
1
10
122.12464098455
20
0.26414622153365
30
0
41
1
10
120.277317459516
20
0.866940656776166
30
0
41
1
10
117.504139203724
20
1.76116416835185
30
0
41
1
10
116.579487607432
20
2.05751790262934
30
0
41
1
10
114.730971716698
20
2.64397111465831
30
0
41
1
10
113.80683411165
20
2.9341571250857
30
0
41
1
10
111.033797497462
20
3.79260688181293
30
0
41
1
10
109.183361438834
20
4.34887126910789
30
0
41
1
10
106.567024922819
20
5.10280979443345
30
0
41
1
10
105.799715493689
20
5.31993235071744
30
0
41
1
10
105.032390319788
20
5.53275568032495
30
0
0
SPLINE
5
15B
100
AcDbEntity
8
1
62
256
6
ByLayer
370
18
48
1
60
0
100
AcDbSpline
70
4
71
3
72
10
73
6
40
0
40
0
40
0
40
0
40
0.5
40
0.5
40
1
40
1
40
1
40
1
41
1
10
217.90524702803
20
10.9712325572296
30
0
41
1
10
216.354960846281
20
10.9116677505575
30
0
41
1
10
214.807340627911
20
10.8121279518905
30
0
41
1
10
211.713587933818
20
10.5252590958753
30
0
41
1
10
210.167369248821
20
10.3376821488137
30
0
41
1
10
208.619073218139
20
10.1089835825827
30
0
0
SPLINE
5
15C
100
AcDbEntity
8
1
62
256
6
ByLayer
370
18
48
1
60
0
100
AcDbSpline
70
4
71
3
72
14
73
10
40
0
40
0
40
0
40
0
40
0.229967203135537
40
0.229967203135537
40
0.486644802090358
40
0.486644802090358
40
0.743322401045179
40
0.743322401045179
40
1
40
1
40
1
40
1
41
1
10
23.9043637444295
20
-1.72396841323911
30
0
41
1
10
24.021045476548
20
-1.75707892241274
30
0
41
1
10
24.1545178398267
20
-1.73131172525967
30
0
41
1
10
24.4661612500545
20
-1.55310231478322
30
0
41
1
10
24.6477055947215
20
-1.3863047438011
30
0
41
1
10
25.0348651294129
20
-0.916540361367225
30
0
41
1
10
25.2404593746035
20
-0.613598963565636
30
0
41
1
10
25.6640470927091
20
0.111265938484877
30
0
41
1
10
25.8820176500722
20
0.533150228472891
30
0
41
1
10
26.1000000000007
20
1.00255411797588
30
0
0
SPLINE
5
15D
100
AcDbEntity
8
1
62
256
6
ByLayer
370
13
48
1
60
0
100
AcDbSpline
70
4
71
3
72
8
73
4
40
0
40
0
40
0
40
0
40
1
40
1
40
1
40
1
41
1
10
229.411674242831
20
-5.3344057844723
30
0
41
1
10
229.619430389272
20
-4.28598596457539
30
0
41
1
10
229.827186535714
20
-3.23756614467848
30
0
41
1
10
230.034942682155
20
-2.18914632478158
30
0
0
SPLINE
5
15E
100
AcDbEntity
8
1
62
256
6
ByLayer
370
18
48
1
60
0
100
AcDbSpline
70
4
71
3
72
16
73
12
40
0
40
0
40
0
40
0
40
0.250000000000003
40
0.250000000000003
40
0.500000000000005
40
0.500000000000005
40
0.625000000000007
40
0.625000000000007
40
0.750000000000008
40
0.750000000000008
40
1
40
1
40
1
40
1
41
1
10
22.2413812147237
20
11.5258642686531
30
0
41
1
10
22.5290240155617
20
11.4049990729494
30
0
41
1
10
22.8233415590781
20
11.3006482599721
30
0
41
1
10
23.4256042566775
20
11.1219802538837
30
0
41
1
10
23.7335450704804
20
11.0476710313873
30
0
41
1
10
24.2066136799688
20
10.9576252588826
30
0
41
1
10
24.3661707288981
20
10.9311906887032
30
0
41
1
10
24.689287035293
20
10.885421243943
30
0
41
1
10
24.8520883798483
20
10.8662109062575
30
0
41
1
10
25.3411780556683
20
10.8194969443771
30
0
41
1
10
25.6694098881488
20
10.8027186130456
30
0
41
1
10
26
20
10.7990779738212
30
0
0
SPLINE
5
15F
100
AcDbEntity
8
1
62
256
6
ByLayer
370
18
48
1
60
0
100
AcDbSpline
70
4
71
3
72
8
73
4
40
0
40
0
40
0
40
0
40
1
40
1
40
1
40
1
41
1
10
218.145421537682
20
-11.3575973469634
30
0
41
1
10
218.145421537682
20
-11.3412651771077
30
0
41
1
10
218.143809451674
20
-11.3244540824812
30
0
41
1
10
218.14059167962
20
-11.307165930456
30
0
0
SPLINE
5
160
100
AcDbEntity
8
1
62
256
6
ByLayer
370
13
48
1
60
0
100
AcDbSpline
70
4
71
3
72
14
73
10
40
0
40
0
40
0
40
0
40
0.25
40
0.25
40
0.5
40
0.5
40
0.75
40
0.75
40
1
40
1
40
1
40
1
41
1
10
231.656863978299
20
1.16818216722623
30
0
41
1
10
231.45963973965
20
0.917847006114528
30
0
41
1
10
231.270611893648
20
0.650576945616081
30
0
41
1
10
230.921499391737
20
0.0949398180786432
30
0
41
1
10
230.761495869011
20
-0.193344324760147
30
0
41
1
10
230.480729591021
20
-0.7746401146984
30
0
41
1
10
230.360018244154
20
-1.06754416971941
30
0
41
1
10
230.163614232235
20
-1.64116107725218
30
0
41
1
10
230.087923809561
20
-1.92178256681476
30
0
41
1
10
230.034942682155
20
-2.18914632478158
30
0
0
SPLINE
5
161
100
AcDbEntity
8
1
62
256
6
ByLayer
370
18
48
1
60
0
100
AcDbSpline
70
4
71
3
72
8
73
4
40
0
40
0
40
0
40
0
40
1
40
1
40
1
40
1
41
1
10
21.4400078073007
20
-0.063592050945374
30
0
41
1
10
21.5649811691003
20
-0.189129613239146
30
0
41
1
10
21.6934909357745
20
-0.309345447963892
30
0
41
1
10
21.8255630038147
20
-0.424046000420219
30
0
0
SPLINE
5
162
100
AcDbEntity
8
1
62
256
6
ByLayer
370
18
48
1
60
0
100
AcDbSpline
70
4
71
3
72
8
73
4
40
0
40
0
40
0
40
0
40
1
40
1
40
1
40
1
41
1
10
22.1531053820785
20
11.5629186378535
30
0
41
1
10
22.1825286133051
20
11.5505808746296
30
0
41
1
10
22.2119539020331
20
11.5382293892021
30
0
41
1
10
22.2413812147237
20
11.5258642686531
30
0
0
SPLINE
5
163
100
AcDbEntity
8
1
62
256
6
ByLayer
370
18
48
1
60
0
100
AcDbSpline
70
4
71
3
72
8
73
4
40
0
40
0
40
0
40
0
40
1
40
1
40
1
40
1
41
1
10
223.515844242573
20
1.17928628931904
30
0
41
1
10
223.467713860448
20
1.09812519097378
30
0
41
1
10
223.419199091195
20
1.01801304830013
30
0
41
1
10
223.370291200952
20
0.938973695172507
30
0
0
SPLINE
5
164
100
AcDbEntity
8
1
62
256
6
ByLayer
370
18
48
1
60
0
100
AcDbSpline
70
4
71
3
72
76
73
72
40
0
40
0
40
0
40
0
40
0.019877351121981
40
0.019877351121981
40
0.0406916102234994
40
0.0406916102234994
40
0.0615058693250179
40
0.0615058693250179
40
0.0823201284265364
40
0.0823201284265364
40
0.103134387528055
40
0.103134387528055
40
0.144762905731092
40
0.144762905731092
40
0.165577164832612
40
0.165577164832612
40
0.186391423934131
40
0.186391423934131
40
0.228019942137169
40
0.228019942137169
40
0.248834201238688
40
0.248834201238688
40
0.269648460340208
40
0.269648460340208
40
0.290462719441727
40
0.290462719441727
40
0.311276978543246
40
0.311276978543246
40
0.352905496746286
40
0.352905496746286
40
0.394534014949325
40
0.394534014949325
40
0.415348274050845
40
0.415348274050845
40
0.436162533152364
40
0.436162533152364
40
0.477791051355404
40
0.477791051355404
40
0.498605310456924
40
0.498605310456924
40
0.519419569558444
40
0.519419569558444
40
0.561048087761485
40
0.561048087761485
40
0.602676605964525
40
0.602676605964525
40
0.623490865066045
40
0.623490865066045
40
0.644305124167566
40
0.644305124167566
40
0.685933642370606
40
0.685933642370606
40
0.727562160573647
40
0.727562160573647
40
0.748376419675167
40
0.748376419675167
40
0.769190678776688
40
0.769190678776688
40
0.810819196979728
40
0.810819196979728
40
0.852447715182769
40
0.852447715182769
40
0.894076233385809
40
0.894076233385809
40
0.93570475158885
40
0.93570475158885
40
0.97733326979189
40
0.97733326979189
40
0.998147528893411
40
0.998147528893411
40
1
40
1
40
1
40
1
41
1
10
198.674848980663
20
-8.33276151068046
30
0
41
1
10
197.828564523648
20
-8.52504225452097
30
0
41
1
10
196.982281414035
20
-8.70895998315876
30
0
41
1
10
195.249408756548
20
-9.06765557273161
30
0
41
1
10
194.362464478327
20
-9.24171083142488
30
0
41
1
10
192.588890273151
20
-9.57018970564474
30
0
41
1
10
191.702846758573
20
-9.72448499049901
30
0
41
1
10
189.932228349369
20
-10.0126414751807
30
0
41
1
10
189.047871172972
20
-10.1466897412651
30
0
41
1
10
187.279738142931
20
-10.3921590069379
30
0
41
1
10
186.396003001397
20
-10.5037518506646
30
0
41
1
10
183.744510686122
20
-10.8041037726412
30
0
41
1
10
181.976360410581
20
-10.9583771045651
30
0
41
1
10
179.319383958706
20
-11.1192288943817
30
0
41
1
10
178.432420635883
20
-11.1610412025601
30
0
41
1
10
176.660180890173
20
-11.2201438752167
30
0
41
1
10
175.774685518549
20
-11.237566014061
30
0
41
1
10
173.119189325179
20
-11.2548012683559
30
0
41
1
10
171.350124329884
20
-11.2196392982487
30
0
41
1
10
168.696423226075
20
-11.0967891134731
30
0
41
1
10
167.811884996067
20
-11.0440765874072
30
0
41
1
10
166.042407674221
20
-10.9139871911568
30
0
41
1
10
165.157409548763
20
-10.8366326751311
30
0
41
1
10
163.386025189286
20
-10.6582168419706
30
0
41
1
10
162.499620361797
20
-10.5571256805129
30
0
41
1
10
160.72904815161
20
-10.3329232009066
30
0
41
1
10
159.84432509841
20
-10.2097581098144
30
0
41
1
10
157.190788268641
20
-9.80890882198247
30
0
41
1
10
155.422625991594
20
-9.49942967550476
30
0
41
1
10
151.883745693247
20
-8.80314143906838
30
0
41
1
10
150.112915139208
20
-8.41759390546531
30
0
41
1
10
147.4523894915
20
-7.7872359408818
30
0
41
1
10
146.565975163938
20
-7.5687040793828
30
0
41
1
10
144.795279095305
20
-7.11491252989396
30
0
41
1
10
143.910769162403
20
-6.87951608711612
30
0
41
1
10
141.258392774976
20
-6.15100838148865
30
0
41
1
10
139.491611226732
20
-5.63582333354768
30
0
41
1
10
136.838811472832
20
-4.83204170902542
30
0
41
1
10
135.954124174483
20
-4.5589451270672
30
0
41
1
10
134.183333030732
20
-4.00384468832374
30
0
41
1
10
133.296810246044
20
-3.72157001843064
30
0
41
1
10
130.637395590269
20
-2.86463027118233
30
0
41
1
10
128.867028703471
20
-2.28121417714536
30
0
41
1
10
125.327985473155
20
-1.10048707977586
30
0
41
1
10
123.559588847213
20
-0.502362950640986
30
0
41
1
10
120.906205555526
20
0.399662363927206
30
0
41
1
10
120.021506852905
20
0.700814128538013
30
0
41
1
10
118.250773808332
20
1.30146558901967
30
0
41
1
10
117.364230986409
20
1.60109291139011
30
0
41
1
10
114.707302226965
20
2.49190047188173
30
0
41
1
10
112.938318912897
20
3.07533884048959
30
0
41
1
10
109.40050486497
20
4.20799587623674
30
0
41
1
10
107.631544134352
20
4.75711172756752
30
0
41
1
10
104.975263193771
20
5.54833735923037
30
0
41
1
10
104.089388854286
20
5.80671178326261
30
0
41
1
10
102.316435338605
20
6.3117928231477
30
0
41
1
10
101.429488770937
20
6.55851379355016
30
0
41
1
10
98.7730622634974
20
7.27713675974502
30
0
41
1
10
97.0055202219063
20
7.72735130344088
30
0
41
1
10
93.4702046883607
20
8.55649838361518
30
0
41
1
10
91.7023872069772
20
8.93569657634526
30
0
41
1
10
88.161603395964
20
9.6136789596782
30
0
41
1
10
86.3868783036713
20
9.91227011255847
30
0
41
1
10
82.8442323994248
20
10.4235254441513
30
0
41
1
10
81.0748234788735
20
10.6367318450517
30
0
41
1
10
77.5377692589224
20
10.9721653100817
30
0
41
1
10
75.7702174664472
20
11.0930450214144
30
0
41
1
10
73.1149775725883
20
11.2016948348387
30
0
41
1
10
72.228755346376
20
11.2258643625293
30
0
41
1
10
71.2638871326892
20
11.2390728704666
30
0
41
1
10
71.1850369253729
20
11.2400575243302
30
0
41
1
10
71.1061915529638
20
11.240947311206
30
0
0
SPLINE
5
165
100
AcDbEntity
8
1
62
256
6
ByLayer
370
18
48
1
60
0
100
AcDbSpline
70
4
71
3
72
8
73
4
40
0
40
0
40
0
40
0
40
1
40
1
40
1
40
1
41
1
10
217.8
20
4.65000000000001
30
0
41
1
10
217.8
20
4.24153210273639
30
0
41
1
10
217.8
20
3.88930990437731
30
0
41
1
10
217.8
20
3.59237523064189
30
0
0
SPLINE
5
166
100
AcDbEntity
8
1
62
256
6
ByLayer
370
18
48
1
60
0
100
AcDbSpline
70
4
71
3
72
76
73
72
40
0
40
0
40
0
40
0
40
0.0625000000000032
40
0.0625000000000032
40
0.125000000000006
40
0.125000000000006
40
0.18750000000001
40
0.18750000000001
40
0.218750000000011
40
0.218750000000011
40
0.250000000000013
40
0.250000000000013
40
0.265625000000013
40
0.265625000000013
40
0.281250000000013
40
0.281250000000013
40
0.312500000000014
40
0.312500000000014
40
0.343750000000015
40
0.343750000000015
40
0.359375000000015
40
0.359375000000015
40
0.375000000000015
40
0.375000000000015
40
0.390625000000015
40
0.390625000000015
40
0.398437500000015
40
0.398437500000015
40
0.406250000000014
40
0.406250000000014
40
0.421875000000014
40
0.421875000000014
40
0.429687500000013
40
0.429687500000013
40
0.437500000000013
40
0.437500000000013
40
0.468750000000012
40
0.468750000000012
40
0.500000000000011
40
0.500000000000011
40
0.507812500000011
40
0.507812500000011
40
0.515625000000011
40
0.515625000000011
40
0.53125000000001
40
0.53125000000001
40
0.54687500000001
40
0.54687500000001
40
0.562500000000009
40
0.562500000000009
40
0.593750000000008
40
0.593750000000008
40
0.625000000000007
40
0.625000000000007
40
0.656250000000006
40
0.656250000000006
40
0.671875000000005
40
0.671875000000005
40
0.687500000000005
40
0.687500000000005
40
0.718750000000004
40
0.718750000000004
40
0.750000000000004
40
0.750000000000004
40
0.812500000000003
40
0.812500000000003
40
0.875000000000002
40
0.875000000000002
40
0.937500000000001
40
0.937500000000001
40
1
40
1
40
1
40
1
41
1
10
22.1531053820785
20
11.5629186378535
30
0
41
1
10
21.4106390515794
20
11.874249970462
30
0
41
1
10
20.6925012703169
20
12.2126619484198
30
0
41
1
10
19.2811043621194
20
12.9176382076309
30
0
41
1
10
18.5880056455795
20
13.2843203293187
30
0
41
1
10
17.2067818105635
20
14.0144901991486
30
0
41
1
10
16.5187372010165
20
14.378206060322
30
0
41
1
10
15.4754320520266
20
14.890194579318
30
0
41
1
10
15.1257742127019
20
15.055149749855
30
0
41
1
10
14.4218980280866
20
15.3658610272945
30
0
41
1
10
14.06750985265
20
15.5117278078564
30
0
41
1
10
13.5308169821627
20
15.7095451696627
30
0
41
1
10
13.3510690543711
20
15.7719705233961
30
0
41
1
10
12.9896604165728
20
15.8884080480301
30
0
41
1
10
12.8076684235614
20
15.9424987896264
30
0
41
1
10
12.2625087575416
20
16.0887200574842
30
0
41
1
10
11.8993736194502
20
16.1651939535441
30
0
41
1
10
11.1768051436355
20
16.2628735081191
30
0
41
1
10
10.8173041882778
20
16.2842156544076
30
0
41
1
10
10.2854480591757
20
16.2613315753391
30
0
41
1
10
10.1083978796611
20
16.244278193408
30
0
41
1
10
9.76545711671561
20
16.1899155927815
30
0
41
1
10
9.59916186450904
20
16.1527159950552
30
0
41
1
10
9.27883117607182
20
16.0569603879764
30
0
41
1
10
9.12478563658006
20
15.998417930084
30
0
41
1
10
8.90476482433351
20
15.8932048499498
30
0
41
1
10
8.83338422660007
20
15.8552429941327
30
0
41
1
10
8.6968319775934
20
15.7746416357305
30
0
41
1
10
8.63136945939419
20
15.7318707624487
30
0
41
1
10
8.44365363453032
20
15.5962567359877
30
0
41
1
10
8.33004395555859
20
15.49613985498
30
0
41
1
10
8.17826973064132
20
15.3314097469822
30
0
41
1
10
8.13079135312108
20
15.2740675352083
30
0
41
1
10
8.04238133348215
20
15.1544267728357
30
0
41
1
10
8.00138649275863
20
15.0919421430737
30
0
41
1
10
7.81702331171635
20
14.7730576632664
30
0
41
1
10
7.7312052479006
20
14.4938052923909
30
0
41
1
10
7.68197311788849
20
13.89031652106
30
0
41
1
10
7.71975576706717
20
13.580853023525
30
0
41
1
10
7.83502553020628
20
13.1840962520608
30
0
41
1
10
7.86158285892185
20
13.1041448985226
30
0
41
1
10
7.92064566048864
20
12.9452133196186
30
0
41
1
10
7.95321862778445
20
12.8659692461235
30
0
41
1
10
8.05951816139012
20
12.6287093653887
30
0
41
1
10
8.14180195195925
20
12.4711666657531
30
0
41
1
10
8.3270396028764
20
12.1563111069226
30
0
41
1
10
8.43061574590647
20
11.9982292706717
30
0
41
1
10
8.65220988482194
20
11.6874995117226
30
0
41
1
10
8.7704626735984
20
11.5342883809918
30
0
41
1
10
9.14415710610157
20
11.078925440534
30
0
41
1
10
9.41840740291708
20
10.780966047164
30
0
41
1
10
10.0040701952932
20
10.1872948850415
30
0
41
1
10
10.3083202969604
20
9.89873417949184
30
0
41
1
10
10.9284303978691
20
9.33012183114846
30
0
41
1
10
11.2446067715852
20
9.04989062661841
30
0
41
1
10
11.7235582211055
20
8.63137829796707
30
0
41
1
10
11.8840125279193
20
8.49220345304872
30
0
41
1
10
12.206006183763
20
8.21403511742164
30
0
41
1
10
12.3668749531576
20
8.07562154907185
30
0
41
1
10
12.8464872089266
20
7.66355129810083
30
0
41
1
10
13.1632154903286
20
7.39214457281324
30
0
41
1
10
13.7905206718045
20
6.85266104701589
30
0
41
1
10
14.1011123669164
20
6.58461083154265
30
0
41
1
10
15.0244341573536
20
5.78278111917194
30
0
41
1
10
15.6286970574319
20
5.25112969554951
30
0
41
1
10
16.8211318627443
20
4.18771630236003
30
0
41
1
10
17.4093977146525
20
3.65613290317651
30
0
41
1
10
18.5762097831071
20
2.59200188747633
30
0
41
1
10
19.1536332377957
20
2.06058204134305
30
0
41
1
10
20.301563791775
20
0.998215015205147
30
0
41
1
10
20.8721080797543
20
0.467267337609911
30
0
41
1
10
21.4400078073004
20
-0.0635920509452319
30
0
0
SPLINE
5
167
100
AcDbEntity
8
1
62
256
6
ByLayer
370
18
48
1
60
0
100
AcDbSpline
70
4
71
3
72
8
73
4
40
0
40
0
40
0
40
0
40
1
40
1
40
1
40
1
41
1
10
219.059619407771
20
2.78367654844979
30
0
41
1
10
218.704806693439
20
2.95245118833407
30
0
41
1
10
218.350989927886
20
3.12867813211821
30
0
41
1
10
218
20
3.3117185439292
30
0
0
SPLINE
5
168
100
AcDbEntity
8
1
62
256
6
ByLayer
370
18
48
1
60
0
100
AcDbSpline
70
4
71
3
72
16
73
12
40
0
40
0
40
0
40
0
40
0.314924500985697
40
0.314924500985697
40
0.629849001971394
40
0.629849001971394
40
0.787311252464243
40
0.787311252464243
40
0.944773502957092
40
0.944773502957092
40
1
40
1
40
1
40
1
41
1
10
208.406950490545
20
9.66227273375421
30
0
41
1
10
208.270813268623
20
9.31774600897066
30
0
41
1
10
208.128875996586
20
8.98257278232765
30
0
41
1
10
207.835175619625
20
8.32988696164105
30
0
41
1
10
207.68336358395
20
8.01238480936092
30
0
41
1
10
207.450457205927
20
7.54917872371587
30
0
41
1
10
207.371877199076
20
7.39680979764242
30
0
41
1
10
207.216385329818
20
7.10150234370661
30
0
41
1
10
207.139146581799
20
6.95790144737308
30
0
41
1
10
207.036138587377
20
6.76927484772898
30
0
41
1
10
207.009509672534
20
6.72077963470957
30
0
41
1
10
206.983025430002
20
6.67276861204019
30
0
0
SPLINE
5
169
100
AcDbEntity
8
1
62
256
6
ByLayer
370
18
48
1
60
0
100
AcDbSpline
70
4
71
3
72
10
73
6
40
0
40
0
40
0
40
0
40
0.5
40
0.5
40
1
40
1
40
1
40
1
41
1
10
207.688517907943
20
10.4318894637273
30
0
41
1
10
209.388001305021
20
10.7314876704868
30
0
41
1
10
211.086855905367
20
10.9823605039883
30
0
41
1
10
214.490783198547
20
11.3805382825805
30
0
41
1
10
216.192534285402
20
11.5274889208052
30
0
41
1
10
217.895
20
11.6220817571003
30
0
0
SPLINE
5
16A
100
AcDbEntity
8
1
62
256
6
ByLayer
370
18
48
1
60
0
100
AcDbSpline
70
4
71
3
72
22
73
18
40
0
40
0
40
0
40
0
40
0.206270629467461
40
0.206270629467461
40
0.309405944201191
40
0.309405944201191
40
0.412541258934922
40
0.412541258934922
40
0.515676573668652
40
0.515676573668652
40
0.618811888402382
40
0.618811888402382
40
0.825082517869843
40
0.825082517869843
40
0.928217832603572
40
0.928217832603572
40
1
40
1
40
1
40
1
41
1
10
201.45331099622
20
7.67193945668987
30
0
41
1
10
199.680442973143
20
8.11211454666571
30
0
41
1
10
197.908565788041
20
8.51722395558002
30
0
41
1
10
195.249408756548
20
9.06765557273161
30
0
41
1
10
194.362464478327
20
9.24171083142485
30
0
41
1
10
192.588890273151
20
9.57018970564474
30
0
41
1
10
191.702846758573
20
9.72448499049901
30
0
41
1
10
189.932228349369
20
10.0126414751806
30
0
41
1
10
189.047871172972
20
10.1466897412651
30
0
41
1
10
187.279738142931
20
10.3921590069379
30
0
41
1
10
186.396003001397
20
10.5037518506646
30
0
41
1
10
183.744510686122
20
10.8041037726412
30
0
41
1
10
181.976360410581
20
10.9583771045651
30
0
41
1
10
179.319383958706
20
11.1192288943817
30
0
41
1
10
178.432420635883
20
11.1610412025601
30
0
41
1
10
176.929561431687
20
11.2111602656325
30
0
41
1
10
176.313124618635
20
11.2258524169567
30
0
41
1
10
175.696891022969
20
11.2348214345343
30
0
0
SPLINE
5
16B
100
AcDbEntity
8
1
62
256
6
ByLayer
370
18
48
1
60
0
100
AcDbSpline
70
4
71
3
72
36
73
32
40
0
40
0
40
0
40
0
40
0.0719258346001184
40
0.0719258346001184
40
0.156296213272834
40
0.156296213272834
40
0.24066659194555
40
0.24066659194555
40
0.325036970618265
40
0.325036970618265
40
0.367222159954623
40
0.367222159954623
40
0.409407349290981
40
0.409407349290981
40
0.493777727963698
40
0.493777727963698
40
0.578148106636414
40
0.578148106636414
40
0.620333295972773
40
0.620333295972773
40
0.662518485309131
40
0.662518485309131
40
0.746888863981848
40
0.746888863981848
40
0.789074053318207
40
0.789074053318207
40
0.831259242654565
40
0.831259242654565
40
0.915629621327283
40
0.915629621327283
40
1
40
1
40
1
40
1
41
1
10
94.4556611748839
20
-8.3230479785714
30
0
41
1
10
92.948646159
20
-8.66748632903281
30
0
41
1
10
91.4412562219035
20
-8.98569742843671
30
0
41
1
10
88.161603395964
20
-9.6136789596782
30
0
41
1
10
86.3868783036713
20
-9.91227011255845
30
0
41
1
10
82.8442323994249
20
-10.4235254441513
30
0
41
1
10
81.0748234788735
20
-10.6367318450517
30
0
41
1
10
77.5377692589225
20
-10.9721653100817
30
0
41
1
10
75.7702174664473
20
-11.0930450214144
30
0
41
1
10
73.1149775725884
20
-11.2016948348387
30
0
41
1
10
72.228755346376
20
-11.2258643625293
30
0
41
1
10
70.4567294022624
20
-11.2501224098107
30
0
41
1
10
69.571351994221
20
-11.2502794320035
30
0
41
1
10
66.9162778888257
20
-11.2146789354649
30
0
41
1
10
65.1476980757837
20
-11.141975008016
30
0
41
1
10
61.6089162437211
20
-10.9058050761298
30
0
41
1
10
59.8387556738002
20
-10.7424815390558
30
0
41
1
10
57.1805132470212
20
-10.4291939986073
30
0
41
1
10
56.2935806279976
20
-10.3130037952745
30
0
41
1
10
54.5219623781487
20
-10.0577158087889
30
0
41
1
10
53.6368753006499
20
-9.91876253622183
30
0
41
1
10
50.9824735040954
20
-9.47018326915273
30
0
41
1
10
49.2138899750847
20
-9.12904487765732
30
0
41
1
10
46.5581991600038
20
-8.56274234686612
30
0
41
1
10
45.6725327080691
20
-8.36473794448997
30
0
41
1
10
43.8997827065159
20
-7.95093527496056
30
0
41
1
10
43.0130151877291
20
-7.73537799451444
30
0
41
1
10
40.3550425582346
20
-7.06634079954313
30
0
41
1
10
38.5844327743473
20
-6.59037584843946
30
0
41
1
10
35.0429953789901
20
-5.58599053001092
30
0
41
1
10
33.2725397133372
20
-5.05647906511388
30
0
41
1
10
31.4999999999876
20
-4.50351731622089
30
0
0
SPLINE
5
16C
100
AcDbEntity
8
1
62
256
6
ByLayer
370
18
48
1
60
0
100
AcDbSpline
70
4
71
3
72
32
73
28
40
0
40
0
40
0
40
0
40
0.125000000000016
40
0.125000000000016
40
0.187500000000024
40
0.187500000000024
40
0.250000000000031
40
0.250000000000031
40
0.312500000000039
40
0.312500000000039
40
0.375000000000047
40
0.375000000000047
40
0.500000000000063
40
0.500000000000063
40
0.562500000000059
40
0.562500000000059
40
0.625000000000055
40
0.625000000000055
40
0.687500000000051
40
0.687500000000051
40
0.750000000000046
40
0.750000000000046
40
0.875000000000008
40
0.875000000000008
40
0.937500000000004
40
0.937500000000004
40
1
40
1
40
1
40
1
41
1
10
208.3
20
-4.9018326912331
30
0
41
1
10
208.3
20
-5.1101892392667
30
0
41
1
10
208.274194497291
20
-5.31160609282446
30
0
41
1
10
208.197905944438
20
-5.60399443122077
30
0
41
1
10
208.166020598712
20
-5.70014414743167
30
0
41
1
10
208.089624422897
20
-5.88778257029608
30
0
41
1
10
208.045634980756
20
-5.97811992336324
30
0
41
1
10
207.946473878431
20
-6.15227532861036
30
0
41
1
10
207.891301094853
20
-6.23609223640835
30
0
41
1
10
207.769722641277
20
-6.39741950290608
30
0
41
1
10
207.702920040123
20
-6.47532591142067
30
0
41
1
10
207.487814031326
20
-6.69667988539609
30
0
41
1
10
207.326936757236
20
-6.82638731985818
30
0
41
1
10
207.059820132966
20
-6.99647791497236
30
0
41
1
10
206.965824214329
20
-7.04933994228745
30
0
41
1
10
206.771981579097
20
-7.14513892257523
30
0
41
1
10
206.672430911035
20
-7.18802674645409
30
0
41
1
10
206.468179227421
20
-7.26427287693704
30
0
41
1
10
206.363478011828
20
-7.29763023134603
30
0
41
1
10
206.148832986478
20
-7.35488531880549
30
0
41
1
10
206.038153535505
20
-7.37889162487355
30
0
41
1
10
205.703866422406
20
-7.43526356328559
30
0
41
1
10
205.479019341779
20
-7.4523848993143
30
0
41
1
10
205.138796931665
20
-7.44812087894121
30
0
41
1
10
205.024341739973
20
-7.44158219957899
30
0
41
1
10
204.797588788027
20
-7.41822443281654
30
0
41
1
10
204.685344550247
20
-7.40147500327242
30
0
41
1
10
204.574234313201
20
-7.37957898466598
30
0
0
SPLINE
5
16D
100
AcDbEntity
8
1
62
256
6
ByLayer
370
18
48
1
60
0
100
AcDbSpline
70
4
71
3
72
20
73
16
40
0
40
0
40
0
40
0
40
0.124999999999986
40
0.124999999999986
40
0.187499999999985
40
0.187499999999985
40
0.249999999999984
40
0.249999999999984
40
0.499999999999989
40
0.499999999999989
40
0.749999999999995
40
0.749999999999995
40
0.874999999999997
40
0.874999999999997
40
1
40
1
40
1
40
1
41
1
10
23.8643906779994
20
-1.71004763507196
30
0
41
1
10
23.7332303961918
20
-1.67135946307559
30
0
41
1
10
23.6059431579431
20
-1.62983415955679
30
0
41
1
10
23.4207353267284
20
-1.56338318973289
30
0
41
1
10
23.3599563653738
20
-1.54053537147419
30
0
41
1
10
23.2403359591417
20
-1.4934160674656
30
0
41
1
10
23.1812401620212
20
-1.46903171664218
30
0
41
1
10
22.8943915010255
20
-1.34501493717906
30
0
41
1
10
22.6923615447433
20
-1.23961095171663
30
0
41
1
10
22.338597909275
20
-1.01472642554017
30
0
41
1
10
22.1944161269956
20
-0.900016716543234
30
0
41
1
10
22.0211307412258
20
-0.722450536765365
30
0
41
1
10
21.9709817233373
20
-0.662576384292464
30
0
41
1
10
21.8868156365242
20
-0.543426857990482
30
0
41
1
10
21.8524672412587
20
-0.483821304566703
30
0
41
1
10
21.8255630038147
20
-0.424046000420219
30
0
0
SPLINE
5
16E
100
AcDbEntity
8
1
62
256
6
ByLayer
370
18
48
1
60
0
100
AcDbSpline
70
4
71
3
72
8
73
4
40
0
40
0
40
0
40
0
40
1
40
1
40
1
40
1
41
1
10
219.059619407771
20
-11.0035709216247
30
0
41
1
10
219.072990530857
20
-10.998534536924
30
0
41
1
10
219.086951202377
20
-10.9936869709769
30
0
41
1
10
219.101511631845
20
-10.9890379043163
30
0
0
SPLINE
5
16F
100
AcDbEntity
8
1
62
256
6
ByLayer
370
18
48
1
60
0
100
AcDbSpline
70
4
71
1
72
4
73
2
40
0
40
0
40
1
40
1
41
1
10
225.847710226825
20
1.72469705356076
30
0
41
1
10
225.842504843684
20
1.73021964881656
30
0
0
SPLINE
5
170
100
AcDbEntity
8
1
62
256
6
ByLayer
370
18
48
1
60
0
100
AcDbSpline
70
4
71
3
72
42
73
38
40
0
40
0
40
0
40
0
40
0.0086051108326019
40
0.0086051108326019
40
0.0482609063992978
40
0.0482609063992978
40
0.0879167019659939
40
0.0879167019659939
40
0.12757249753269
40
0.12757249753269
40
0.206884088666081
40
0.206884088666081
40
0.286195679799474
40
0.286195679799474
40
0.365507270932865
40
0.365507270932865
40
0.405163066499562
40
0.405163066499562
40
0.444818862066258
40
0.444818862066258
40
0.52413045319965
40
0.52413045319965
40
0.563786248766345
40
0.563786248766345
40
0.603442044333041
40
0.603442044333041
40
0.682753635466433
40
0.682753635466433
40
0.762065226599825
40
0.762065226599825
40
0.841376817733217
40
0.841376817733217
40
0.881032613299913
40
0.881032613299913
40
0.920688408866609
40
0.920688408866609
40
1
40
1
40
1
40
1
41
1
10
94.0702341343864
20
-8.23447225321081
30
0
41
1
10
93.8696212888731
20
-8.27662082388122
30
0
41
1
10
93.6690176439873
20
-8.31830725964539
30
0
41
1
10
92.5440562079323
20
-8.54945124466192
30
0
41
1
10
91.6198873699988
20
-8.729392470367
30
0
41
1
10
89.7713103771969
20
-9.06801015896349
30
0
41
1
10
88.8469037554804
20
-9.22667562130073
30
0
41
1
10
86.9973178166124
20
-9.52158761537655
30
0
41
1
10
86.0722445386019
20
-9.65789462349133
30
0
41
1
10
83.2985319984978
20
-10.032054648021
30
0
41
1
10
81.4502276166946
20
-10.2351154561738
30
0
41
1
10
77.751359931448
20
-10.5489493717564
30
0
41
1
10
75.9038683899543
20
-10.6593273573407
30
0
41
1
10
72.2074164155681
20
-10.7797524931977
30
0
41
1
10
70.3579335445454
20
-10.7897032698759
30
0
41
1
10
67.5850449941464
20
-10.7284619954634
30
0
41
1
10
66.6607037433947
20
-10.6953642698598
30
0
41
1
10
64.8114000642597
20
-10.6036815464658
30
0
41
1
10
63.8861978580584
20
-10.545165115722
30
0
41
1
10
61.1120340745119
20
-10.3326193781176
30
0
41
1
10
59.2637404440167
20
-10.1414328854224
30
0
41
1
10
56.4900667619182
20
-9.7869781384463
30
0
41
1
10
55.5654006156924
20
-9.65756616077854
30
0
41
1
10
53.7170845464051
20
-9.37678392000242
30
0
41
1
10
52.7931742135502
20
-9.22545470627239
30
0
41
1
10
50.02106565201
20
-8.73983975248154
30
0
41
1
10
48.1715247444025
20
-8.37360533806969
30
0
41
1
10
44.4742592140717
20
-7.56794474988095
30
0
41
1
10
42.6251933362548
20
-7.12787857899727
30
0
41
1
10
38.9255539173637
20
-6.18570811140998
30
0
41
1
10
37.0769786325926
20
-5.68433600524145
30
0
41
1
10
34.3029633144415
20
-4.89809146450074
30
0
41
1
10
33.3778773820331
20
-4.63022702586511
30
0
41
1
10
31.5287977881821
20
-4.08502339391072
30
0
41
1
10
30.604640853992
20
-3.80765262102642
30
0
41
1
10
27.8323866631522
20
-2.96340059866375
30
0
41
1
10
25.9844819023396
20
-2.38432460208139
30
0
41
1
10
24.1342245526104
20
-1.79591818400814
30
0
0
SPLINE
5
171
100
AcDbEntity
8
1
62
256
6
ByLayer
370
18
48
1
60
0
100
AcDbSpline
70
4
71
3
72
8
73
4
40
0
40
0
40
0
40
0
40
1
40
1
40
1
40
1
41
1
10
28.4
20
-3.95027359575428
30
0
41
1
10
27.6007950982856
20
-3.62512772900408
30
0
41
1
10
26.8009554617976
20
-3.30018417142563
30
0
41
1
10
26
20
-2.97664371797137
30
0
0
SPLINE
5
172
100
AcDbEntity
8
1
62
256
6
ByLayer
370
18
48
1
60
0
100
AcDbSpline
70
2053
71
3
72
39
73
35
40
0
40
0
40
0
40
0
40
0.0303275423971047
40
0.0624416618522685
40
0.0936280684505598
40
0.124895448984903
40
0.156200801517236
40
0.187378133080957
40
0.21946369544409
40
0.249874324790935
40
0.280283972602706
40
0.312399045817165
40
0.343573446260883
40
0.374905471735615
40
0.406073040362435
40
0.437393640304364
40
0.469530171222483
40
0.499836545293854
40
0.530226387464187
40
0.562472871111223
40
0.593712218158484
40
0.625020065185944
40
0.656196090108107
40
0.6875341720444
40
0.719617491324826
40
0.749981937912934
40
0.780332509270534
40
0.812408165445406
40
0.843737825149618
40
0.87489600865728
40
0.906219128133351
40
0.937471827374994
40
0.96966373215643
40
1
40
1
40
1
40
1
41
1
10
212.96
20
-6.32210090910867
30
0
41
1
10
212.798772363762
20
-6.32210276331803
30
0
41
1
10
212.466819268342
20
-6.35011787489057
30
0
41
1
10
211.988543543945
20
-6.47448196116937
30
0
41
1
10
211.54530343082
20
-6.6766621357568
30
0
41
1
10
211.160643944838
20
-6.93943626036202
30
0
41
1
10
210.844704973597
20
-7.25032672971409
30
0
41
1
10
210.607004286544
20
-7.59657249556832
30
0
41
1
10
210.462349394202
20
-7.955323900477
30
0
41
1
10
210.414451708641
20
-8.31034693574958
30
0
41
1
10
210.461576892268
20
-8.64915857084014
30
0
41
1
10
210.60555886609
20
-8.9625260917843
30
0
41
1
10
210.842770216273
20
-9.23889317496585
30
0
41
1
10
211.157949654479
20
-9.46775773780851
30
0
41
1
10
211.542341496158
20
-9.6484928796649
30
0
41
1
10
211.985520569192
20
-9.77982649548193
30
0
41
1
10
212.464346112128
20
-9.85805213116717
30
0
41
1
10
212.957809259549
20
-9.8831134567148
30
0
41
1
10
213.451968124569
20
-9.85847716385331
30
0
41
1
10
213.931571222141
20
-9.78049679756157
30
0
41
1
10
214.375788104998
20
-9.64921476194604
30
0
41
1
10
214.760100761172
20
-9.46888912032705
30
0
41
1
10
215.076116712503
20
-9.23990631967078
30
0
41
1
10
215.313702667561
20
-8.96380082367909
30
0
41
1
10
215.458061536208
20
-8.65022216685864
30
0
41
1
10
215.505495108101
20
-8.31202731672744
30
0
41
1
10
215.458200000312
20
-7.95747796211111
30
0
41
1
10
215.314050062443
20
-7.59838978888317
30
0
41
1
10
215.076721246549
20
-7.25201592437247
30
0
41
1
10
214.760925334603
20
-6.94077998310371
30
0
41
1
10
214.376718354092
20
-6.67774144447861
30
0
41
1
10
213.932714734766
20
-6.47486290951736
30
0
41
1
10
213.453687025452
20
-6.35015340424542
30
0
41
1
10
213.121274022559
20
-6.32209905436583
30
0
41
1
10
212.96
20
-6.32210090910867
30
0
0
SPLINE
5
173
100
AcDbEntity
8
1
62
256
6
ByLayer
370
18
48
1
60
0
100
AcDbSpline
70
4
71
3
72
18
73
14
40
0
40
0
40
0
40
0
40
0.249999999999997
40
0.249999999999997
40
0.375000000000001
40
0.375000000000001
40
0.500000000000004
40
0.500000000000004
40
0.750000000000002
40
0.750000000000002
40
0.875000000000001
40
0.875000000000001
40
1
40
1
40
1
40
1
41
1
10
229.411674242831
20
-5.3344057844723
30
0
41
1
10
229.232773587451
20
-4.8565335895189
30
0
41
1
10
229.059209448004
20
-4.37675921798399
30
0
41
1
10
228.80362061771
20
-3.65540191484237
30
0
41
1
10
228.719351597569
20
-3.41461896409945
30
0
41
1
10
228.553739905441
20
-2.93200997926081
30
0
41
1
10
228.472886009575
20
-2.69000905995623
30
0
41
1
10
228.234980863282
20
-1.96235049031958
30
0
41
1
10
228.081802782797
20
-1.47565195473797
30
0
41
1
10
227.866296198711
20
-0.741417416517379
30
0
41
1
10
227.796518070444
20
-0.496068540771034
30
0
41
1
10
227.66235527625
20
-0.0037873287609216
30
0
41
1
10
227.596850455756
20
0.242894149816237
30
0
41
1
10
227.535197878461
20
0.490530349071776
30
0
0
SPLINE
5
174
100
AcDbEntity
8
1
62
256
6
ByLayer
370
18
48
1
60
0
100
AcDbSpline
70
4
71
3
72
18
73
14
40
0
40
0
40
0
40
0
40
0.249999999999993
40
0.249999999999993
40
0.374999999999994
40
0.374999999999994
40
0.499999999999995
40
0.499999999999995
40
0.624999999999997
40
0.624999999999997
40
0.749999999999998
40
0.749999999999998
40
1
40
1
40
1
40
1
41
1
10
232.737431471752
20
1.11914833667316
30
0
41
1
10
232.695487794993
20
1.30065025912953
30
0
41
1
10
232.64414041983
20
1.50366753906914
30
0
41
1
10
232.553562270541
20
1.83921163404545
30
0
41
1
10
232.521193765439
20
1.95585326963419
30
0
41
1
10
232.453240182876
20
2.19491252359643
30
0
41
1
10
232.417521003212
20
2.31782207041982
30
0
41
1
10
232.342697025476
20
2.57020865439066
30
0
41
1
10
232.303588571984
20
2.6996927823939
30
0
41
1
10
232.221991619391
20
2.96521771849484
30
0
41
1
10
232.179311121486
20
3.10185030915059
30
0
41
1
10
232.048243626635
20
3.51500131121594
30
0
41
1
10
231.956489826986
20
3.79601917995015
30
0
41
1
10
231.860431811461
20
4.08252998359231
30
0
0
SPLINE
5
175
100
AcDbEntity
8
1
62
256
6
ByLayer
370
18
48
1
60
0
100
AcDbSpline
70
4
71
3
72
15
73
11
40
0
40
0
40
0
40
0
40
0.202881167594219
40
0.326080653177716
40
0.449280138761212
40
0.603279495740583
40
0.695679109928205
40
0.788078724115828
40
0.942078081095199
40
1
40
1
40
1
40
1
41
1
10
181.653220888271
20
-0.0020233950046418
30
0
41
1
10
183.170106828014
20
-0.515559925783521
30
0
41
1
10
185.607824359781
20
-1.34002806086352
30
0
41
1
10
188.965057620585
20
-2.45823180271023
30
0
41
1
10
191.957556086451
20
-3.44164675421209
30
0
41
1
10
194.719131268956
20
-4.32366167284636
30
0
41
1
10
197.250647442387
20
-5.10019557436468
30
0
41
1
10
199.783266464558
20
-5.85013039510253
30
0
41
1
10
202.058830594495
20
-6.49173327126584
30
0
41
1
10
203.642742510541
20
-6.91729973680236
30
0
41
1
10
204.075607459984
20
-7.03191116483421
30
0
0
SPLINE
5
176
100
AcDbEntity
8
1
62
256
6
ByLayer
370
18
48
1
60
0
100
AcDbSpline
70
4
71
3
72
8
73
4
40
0
40
0
40
0
40
0
40
1
40
1
40
1
40
1
41
1
10
217.799999999999
20
3.59237523064178
30
0
41
1
10
217.334233790977
20
3.62930632118702
30
0
41
1
10
216.868459315606
20
3.66472969947319
30
0
41
1
10
216.402659737273
20
3.6986336018756
30
0
0
SPLINE
5
177
100
AcDbEntity
8
1
62
256
6
ByLayer
370
18
48
1
60
0
100
AcDbSpline
70
4
71
3
72
14
73
10
40
0
40
0
40
0
40
0
40
0.25
40
0.25
40
0.375
40
0.375
40
0.5
40
0.5
40
1
40
1
40
1
40
1
41
1
10
208.3
20
6.30382114621489
30
0
41
1
10
209.546414676141
20
5.90202101351366
30
0
41
1
10
210.792893019039
20
5.48490004377578
30
0
41
1
10
212.664302135487
20
4.83989726495011
30
0
41
1
10
213.288383068995
20
4.62166721799193
30
0
41
1
10
214.537361861462
20
4.17935231781701
30
0
41
1
10
215.162614438327
20
3.9551250357344
30
0
41
1
10
218.284824745406
20
2.8245557259215
30
0
41
1
10
220.772437215856
20
1.88673226487902
30
0
41
1
10
223.25928650403
20
0.940336989927886
30
0
0
SPLINE
5
178
100
AcDbEntity
8
1
62
256
6
ByLayer
370
18
48
1
60
0
100
AcDbSpline
70
4
71
3
72
10
73
6
40
0
40
0
40
0
40
0
40
0.5
40
0.5
40
1
40
1
40
1
40
1
41
1
10
207.688517907943
20
-10.4318894637273
30
0
41
1
10
209.389482090321
20
-10.731748714885
30
0
41
1
10
211.089816295446
20
-10.9827974356465
30
0
41
1
10
214.496720501127
20
-11.3811419303435
30
0
41
1
10
216.199947408853
20
-11.5280830939162
30
0
41
1
10
217.903900312963
20
-11.6225758012606
30
0
0
SPLINE
5
179
100
AcDbEntity
8
1
62
256
6
ByLayer
370
18
48
1
60
0
100
AcDbSpline
70
4
71
3
72
10
73
6
40
0
40
0
40
0
40
0
40
0.729927190153854
40
0.729927190153854
40
1
40
1
40
1
40
1
41
1
10
206.270165863586
20
9.99031453325182
30
0
41
1
10
204.417850134285
20
9.64702489138185
30
0
41
1
10
202.568220389328
20
9.25647798144411
30
0
41
1
10
200.034254999594
20
8.6613423148853
30
0
41
1
10
199.349613467294
20
8.49458889476293
30
0
41
1
10
198.665291989994
20
8.32251674148554
30
0
0
SPLINE
5
17A
100
AcDbEntity
8
1
62
256
6
ByLayer
370
18
48
1
60
0
100
AcDbSpline
70
4
71
3
72
50
73
46
40
0
40
0
40
0
40
0
40
0.0309489428304269
40
0.0309489428304269
40
0.0915146339035256
40
0.0915146339035256
40
0.121797479440075
40
0.121797479440075
40
0.152080324976624
40
0.152080324976624
40
0.212646016049723
40
0.212646016049723
40
0.273211707122821
40
0.273211707122821
40
0.30349455265937
40
0.30349455265937
40
0.333777398195919
40
0.333777398195919
40
0.394343089269017
40
0.394343089269017
40
0.454908780342115
40
0.454908780342115
40
0.485191625878664
40
0.485191625878664
40
0.515474471415213
40
0.515474471415213
40
0.576040162488311
40
0.576040162488311
40
0.60632300802486
40
0.60632300802486
40
0.636605853561409
40
0.636605853561409
40
0.697171544634507
40
0.697171544634507
40
0.757737235707605
40
0.757737235707605
40
0.788020081244155
40
0.788020081244155
40
0.818302926780704
40
0.818302926780704
40
0.878868617853803
40
0.878868617853803
40
0.939434308926901
40
0.939434308926901
40
1
40
1
40
1
40
1
41
1
10
120.394493512089
20
-11.749971399656
30
0
41
1
10
119.449920635264
20
-11.7498068411302
30
0
41
1
10
118.50603428777
20
-11.7354186967898
30
0
41
1
10
115.715736624899
20
-11.6509216663009
30
0
41
1
10
113.870450638195
20
-11.5406849442462
30
0
41
1
10
111.100765883769
20
-11.2945790043628
30
0
41
1
10
110.177199229783
20
-11.1991032979654
30
0
41
1
10
108.328292424283
20
-10.9820472245813
30
0
41
1
10
107.402511485201
20
-10.8603973123822
30
0
41
1
10
104.628169346074
20
-10.4595573507917
30
0
41
1
10
102.780919100693
20
-10.143912307926
30
0
41
1
10
99.0878963784288
20
-9.42108925637035
30
0
41
1
10
97.2420386855258
20
-9.01381631785631
30
0
41
1
10
94.4692438779079
20
-8.34254903154053
30
0
41
1
10
93.5441967979787
20
-8.10860993652869
30
0
41
1
10
91.6931516328024
20
-7.62134000046029
30
0
41
1
10
90.7687158551978
20
-7.36848703372567
30
0
41
1
10
87.9975893159525
20
-6.58465129638856
30
0
41
1
10
86.1530865412831
20
-6.02821332553034
30
0
41
1
10
82.4606502830772
20
-4.87058332697109
30
0
41
1
10
80.6131276819606
20
-4.26859243472396
30
0
41
1
10
77.8376259952357
20
-3.33678306686437
30
0
41
1
10
76.9113925394814
20
-3.021338465242
30
0
41
1
10
75.0617490664423
20
-2.38481170458533
30
0
41
1
10
74.1377424283845
20
-2.06355103773311
30
0
41
1
10
71.3668697104146
20
-1.09444837423942
30
0
41
1
10
69.521581848692
20
-0.440068019020003
30
0
41
1
10
66.7528513724843
20
0.54339533051666
30
0
41
1
10
65.8297650421825
20
0.871409926138995
30
0
41
1
10
63.9821407039207
20
1.52468968014355
30
0
41
1
10
63.0572830857312
20
1.85004471255542
30
0
41
1
10
60.2807448444954
20
2.81607732408233
30
0
41
1
10
58.4329359673718
20
3.44607070612915
30
0
41
1
10
54.7406729800281
20
4.67008271298948
30
0
41
1
10
52.8961478306388
20
5.26379189040733
30
0
41
1
10
50.1268037385359
20
6.11394451617048
30
0
41
1
10
49.2033064126226
20
6.39072046038976
30
0
41
1
10
47.3551470725232
20
6.92998791825622
30
0
41
1
10
46.4300125288137
20
7.19251712977314
30
0
41
1
10
43.6546268173538
20
7.95485414899892
30
0
41
1
10
41.8091008558025
20
8.42796983083531
30
0
41
1
10
38.118313498417
20
9.28643514417428
30
0
41
1
10
36.2727603621892
20
9.67176878120912
30
0
41
1
10
32.5805335820234
20
10.3538733985409
30
0
41
1
10
30.73383141442
20
10.650291531437
30
0
41
1
10
28.8836079261956
20
10.8967893213869
30
0
0
SPLINE
5
17B
100
AcDbEntity
8
1
62
256
6
ByLayer
370
18
48
1
60
0
100
AcDbSpline
70
4
71
3
72
12
73
8
40
0
40
0
40
0
40
0
40
0.21492173998674
40
0.426160046580077
40
0.633716932200819
40
0.942019566907958
40
1
40
1
40
1
40
1
41
1
10
225.842505469657
20
1.73021815456085
30
0
41
1
10
225.459902974243
20
1.76681468220721
30
0
41
1
10
224.701255211214
20
1.83938052839574
30
0
41
1
10
223.57332391731
20
1.94944706702853
30
0
41
1
10
222.27940249398
20
2.07790844627692
30
0
41
1
10
221.25842586995
20
2.18142834955395
30
0
41
1
10
220.606905383062
20
2.24914550873976
30
0
41
1
10
220.503777076852
20
2.25989850781181
30
0
0
SPLINE
5
17C
100
AcDbEntity
8
1
62
256
6
ByLayer
370
18
48
1
60
0
100
AcDbSpline
70
4
71
3
72
8
73
4
40
0
40
0
40
0
40
0
40
1
40
1
40
1
40
1
41
1
10
230.364401465482
20
8.43272490677387
30
0
41
1
10
230.044065976664
20
9.41686017635541
30
0
41
1
10
229.718249606846
20
10.4068913079361
30
0
41
1
10
229.386721197678
20
11.4030669618572
30
0
0
SPLINE
5
17D
100
AcDbEntity
8
1
62
256
6
ByLayer
370
18
48
1
60
0
100
AcDbSpline
70
4
71
3
72
8
73
4
40
0
40
0
40
0
40
0
40
1
40
1
40
1
40
1
41
1
10
218
20
-11.2056682085452
30
0
41
1
10
217.968333333333
20
-11.2361140395136
30
0
41
1
10
217.936666666667
20
-11.2665598704821
30
0
41
1
10
217.905
20
-11.2970057014505
30
0
0
SPLINE
5
17E
100
AcDbEntity
8
1
62
256
6
ByLayer
370
18
48
1
60
0
100
AcDbSpline
70
4
71
3
72
8
73
4
40
0
40
0
40
0
40
0
40
1
40
1
40
1
40
1
41
1
10
218
20
11.6134632420603
30
0
41
1
10
218
20
10.7252289055374
30
0
41
1
10
218
20
9.83699553102548
30
0
41
1
10
218
20
8.94876322987633
30
0
0
SPLINE
5
17F
100
AcDbEntity
8
1
62
256
6
ByLayer
370
13
48
1
60
0
100
AcDbSpline
70
4
71
3
72
10
73
6
40
0
40
0
40
0
40
0
40
0.001815641940164
40
0.001815641940164
40
1
40
1
40
1
40
1
41
1
10
231.724910754733
20
1.19053815746486
30
0
41
1
10
231.724896913973
20
1.19054765087171
30
0
41
1
10
231.724883073146
20
1.19055714419136
30
0
41
1
10
231.71726004361
20
1.19578586955041
30
0
41
1
10
231.709671200356
20
1.20103128113834
30
0
41
1
10
231.702103276709
20
1.20630317854909
30
0
0
SPLINE
5
180
100
AcDbEntity
8
1
62
256
6
ByLayer
370
18
48
1
60
0
100
AcDbSpline
70
4
71
3
72
8
73
4
40
0
40
0
40
0
40
0
40
1
40
1
40
1
40
1
41
1
10
204.075607685194
20
-7.03191120939763
30
0
41
1
10
204.241824953837
20
-7.06480149158145
30
0
41
1
10
204.408034119622
20
-7.09759128996731
30
0
41
1
10
204.574234313201
20
-7.13027874284899
30
0
0
SPLINE
5
181
100
AcDbEntity
8
1
62
256
6
ByLayer
370
13
48
1
60
0
100
AcDbSpline
70
4
71
3
72
18
73
14
40
0
40
0
40
0
40
0
40
0.250000000000006
40
0.250000000000006
40
0.375000000000009
40
0.375000000000009
40
0.500000000000012
40
0.500000000000012
40
0.750000000000006
40
0.750000000000006
40
0.875000000000003
40
0.875000000000003
40
1
40
1
40
1
40
1
41
1
10
218
20
8.94876322987633
30
0
41
1
10
219.03072903199
20
8.99599440639224
30
0
41
1
10
220.06121348592
20
9.01682716100805
30
0
41
1
10
221.606374877722
20
9.01470540044295
30
0
41
1
10
222.121436465851
20
9.00886634330811
30
0
41
1
10
223.151744978772
20
8.98770672958494
30
0
41
1
10
223.667058250513
20
8.97277181467615
30
0
41
1
10
225.212999772132
20
8.90862386466057
30
0
41
1
10
226.243296946746
20
8.84176511052419
30
0
41
1
10
227.788355738579
20
8.71100153877154
30
0
41
1
10
228.303515976737
20
8.66328057836691
30
0
41
1
10
229.333950466417
20
8.55603212026034
30
0
41
1
10
229.849192364943
20
8.49698399808779
30
0
41
1
10
230.364401465482
20
8.43272490677387
30
0
0
SPLINE
5
182
100
AcDbEntity
8
1
62
256
6
ByLayer
370
18
48
1
60
0
100
AcDbSpline
70
4
71
3
72
9
73
5
40
0
40
0
40
0
40
0
40
0.496481895313826
40
1
40
1
40
1
40
1
41
1
10
218.000000001978
20
10.7955438490653
30
0
41
1
10
217.984530868495
20
10.8247261561947
30
0
41
1
10
217.953373370851
20
10.8835043461043
30
0
41
1
10
217.921364215639
20
10.9418529710221
30
0
41
1
10
217.905247026473
20
10.9712325600518
30
0
0
SPLINE
5
183
100
AcDbEntity
8
1
62
256
6
ByLayer
370
18
48
1
60
0
100
AcDbSpline
70
4
71
3
72
8
73
4
40
0
40
0
40
0
40
0
40
1
40
1
40
1
40
1
41
1
10
232.935879681662
20
0.27409981521015
30
0
41
1
10
232.947732970867
20
0.233582170659503
30
0
41
1
10
232.959635915892
20
0.192966419264025
30
0
41
1
10
232.971588193562
20
0.152254171576146
30
0
0
SPLINE
5
184
100
AcDbEntity
8
1
62
256
6
ByLayer
370
18
48
1
60
0
100
AcDbSpline
70
4
71
3
72
10
73
6
40
0
40
0
40
0
40
0
40
0.5
40
0.5
40
1
40
1
40
1
40
1
41
1
10
28.4
20
10.955855339337
30
0
41
1
10
28.1826214164721
20
10.9559341407342
30
0
41
1
10
27.9641851613827
20
10.9464481649205
30
0
41
1
10
27.5252397587947
20
10.9100812952066
30
0
41
1
10
27.3026742893622
20
10.8826876373905
30
0
41
1
10
27.0893412914605
20
10.847210809091
30
0
0
SPLINE
5
185
100
AcDbEntity
8
1
62
256
6
ByLayer
370
18
48
1
60
0
100
AcDbSpline
70
4
71
3
72
8
73
4
40
0
40
0
40
0
40
0
40
1
40
1
40
1
40
1
41
1
10
26
20
-2.97664371797137
30
0
41
1
10
25.4469966890172
20
-2.79047920422929
30
0
41
1
10
24.8935933002336
20
-2.64911841702261
30
0
41
1
10
24.3423874314369
20
-2.54882466184756
30
0
0
SPLINE
5
186
100
AcDbEntity
8
1
62
256
6
ByLayer
370
18
48
1
60
0
100
AcDbSpline
70
4
71
3
72
18
73
14
40
0
40
0
40
0
40
0
40
0.25
40
0.25
40
0.375
40
0.375
40
0.5
40
0.5
40
0.625
40
0.625
40
0.75
40
0.75
40
1
40
1
40
1
40
1
41
1
10
22.2413812147237
20
-1.59176467307768
30
0
41
1
10
22.3562232378206
20
-1.75740015547061
30
0
41
1
10
22.4900032929668
20
-1.89876360012551
30
0
41
1
10
22.7185562917332
20
-2.0803344575406
30
0
41
1
10
22.8000217866552
20
-2.13605485931339
30
0
41
1
10
22.9692544933663
20
-2.23577143808839
30
0
41
1
10
23.056877881472
20
-2.27982835015533
30
0
41
1
10
23.2379880179953
20
-2.35760318025311
30
0
41
1
10
23.3314753341476
20
-2.39131682214358
30
0
41
1
10
23.5243843624073
20
-2.44906271166766
30
0
41
1
10
23.6239252767018
20
-2.47304499103367
30
0
41
1
10
23.9249385812384
20
-2.5298030952392
30
0
41
1
10
24.1309199730233
20
-2.54836994508483
30
0
41
1
10
24.3423874314368
20
-2.54882466184753
30
0
0
SPLINE
5
187
100
AcDbEntity
8
1
62
256
6
ByLayer
370
18
48
1
60
0
100
AcDbSpline
70
4
71
3
72
34
73
30
40
0
40
0
40
0
40
0
40
0.0230750167939287
40
0.046003170323564
40
0.0687846448985092
40
0.0914196284122275
40
0.113908312430761
40
0.136250892284059
40
0.158447567159976
40
0.180498540201049
40
0.202404018604134
40
0.224164213722984
40
0.245779341173891
40
0.267249620944474
40
0.334848388954444
40
0.401462521404365
40
0.467099756452591
40
0.531768183150294
40
0.575605055875005
40
0.619178815971812
40
0.662492370831182
40
0.705548680557737
40
0.7483507586306
40
0.790901672546226
40
0.833204544441719
40
0.875262551696555
40
0.917078927510535
40
0.958656961455715
40
1
40
1
40
1
40
1
41
1
10
226.190698422147
20
-9.6399879097084
30
0
41
1
10
226.173925175141
20
-9.60727509707351
30
0
41
1
10
226.140485436146
20
-9.54205767578864
30
0
41
1
10
226.091089642213
20
-9.44190467091607
30
0
41
1
10
226.042457776825
20
-9.34050636883333
30
0
41
1
10
225.994632341751
20
-9.23772651425335
30
0
41
1
10
225.947602057515
20
-9.13366847557216
30
0
41
1
10
225.901369917407
20
-9.02837138968059
30
0
41
1
10
225.85593512488
20
-8.92189077174564
30
0
41
1
10
225.81129789791
20
-8.81427712437792
30
0
41
1
10
225.767458152384
20
-8.70558152880056
30
0
41
1
10
225.724416005902
20
-8.59585439265391
30
0
41
1
10
225.682171073366
20
-8.48514485002849
30
0
41
1
10
225.610949602271
20
-8.29330136234978
30
0
41
1
10
225.51337723482
20
-8.01514312228838
30
0
41
1
10
225.393424218465
20
-7.64259458299119
30
0
41
1
10
225.280619252471
20
-7.26101404021966
30
0
41
1
10
225.185776528969
20
-6.9114428010665
30
0
41
1
10
225.10672056135
20
-6.59775189290363
30
0
41
1
10
225.04144156551
20
-6.32246183228193
30
0
41
1
10
224.979245434953
20
-6.04344113407717
30
0
41
1
10
224.920132986124
20
-5.76096966994373
30
0
41
1
10
224.864104369695
20
-5.47532623784986
30
0
41
1
10
224.811158234203
20
-5.18678835750165
30
0
41
1
10
224.761299840051
20
-4.89562381483114
30
0
41
1
10
224.714509708225
20
-4.60212290837848
30
0
41
1
10
224.670859967075
20
-4.30647747390142
30
0
41
1
10
224.630083772919
20
-4.0092275915373
30
0
41
1
10
224.60540439102
20
-3.80891874702917
30
0
41
1
10
224.59309967032
20
-3.70904815888267
30
0
0
SPLINE
5
188
100
AcDbEntity
8
1
62
256
6
ByLayer
370
18
48
1
60
0
100
AcDbSpline
70
4
71
3
72
64
73
60
40
0
40
0
40
0
40
0
40
0.0008243185784175
40
0.0008243185784175
40
0.0507831026494942
40
0.0507831026494942
40
0.075762494685033
40
0.075762494685033
40
0.100741886720572
40
0.100741886720572
40
0.15070067079165
40
0.15070067079165
40
0.200659454862728
40
0.200659454862728
40
0.225638846898267
40
0.225638846898267
40
0.250618238933806
40
0.250618238933806
40
0.300577023004884
40
0.300577023004884
40
0.350535807075962
40
0.350535807075962
40
0.375515199111501
40
0.375515199111501
40
0.40049459114704
40
0.40049459114704
40
0.450453375218119
40
0.450453375218119
40
0.500412159289198
40
0.500412159289198
40
0.525391551324738
40
0.525391551324738
40
0.550370943360278
40
0.550370943360278
40
0.575350335395817
40
0.575350335395817
40
0.600329727431357
40
0.600329727431357
40
0.650288511502437
40
0.650288511502437
40
0.675267903537978
40
0.675267903537978
40
0.700247295573518
40
0.700247295573518
40
0.750206079644598
40
0.750206079644598
40
0.775185471680139
40
0.775185471680139
40
0.800164863715679
40
0.800164863715679
40
0.850123647786759
40
0.850123647786759
40
0.875103039822299
40
0.875103039822299
40
0.900082431857839
40
0.900082431857839
40
0.95004121592892
40
0.95004121592892
40
1
40
1
40
1
40
1
41
1
10
139.260360420532
20
-11.2475660759773
30
0
41
1
10
139.23103958149
20
-11.2505664120661
30
0
41
1
10
139.201718800813
20
-11.2535537355946
30
0
41
1
10
137.395381286403
20
-11.436789289556
30
0
41
1
10
135.618514082147
20
-11.5688873552489
30
0
41
1
10
132.948115032233
20
-11.6914059370676
30
0
41
1
10
132.056761191044
20
-11.7197075754227
30
0
41
1
10
130.273839993891
20
-11.751104640154
30
0
41
1
10
129.383556938
20
-11.7541515658239
30
0
41
1
10
126.715075050733
20
-11.7251203873116
30
0
41
1
10
124.939443938234
20
-11.6545865934117
30
0
41
1
10
121.386578127975
20
-11.414292312746
30
0
41
1
10
119.609067530694
20
-11.2451633025761
30
0
41
1
10
116.93978387799
20
-10.9193790437064
30
0
41
1
10
116.049436296833
20
-10.7988033741999
30
0
41
1
10
114.26693042724
20
-10.5342125168757
30
0
41
1
10
113.375802926605
20
-10.3902766206797
30
0
41
1
10
110.705438298031
20
-9.92651407576508
30
0
41
1
10
108.927248265263
20
-9.57507654275668
30
0
41
1
10
105.373885287558
20
-8.78943102945217
30
0
41
1
10
103.598352900668
20
-8.35548621001323
30
0
41
1
10
100.931115738381
20
-7.65345404750275
30
0
41
1
10
100.041221113933
20
-7.41131438344939
30
0
41
1
10
98.2593565289535
20
-6.91190661600575
30
0
41
1
10
97.3673478541017
20
-6.65434264590533
30
0
41
1
10
94.6958457401655
20
-5.86168687343175
30
0
41
1
10
92.9182518907117
20
-5.30596129564623
30
0
41
1
10
89.3642378453448
20
-4.15432770977753
30
0
41
1
10
87.5869192581465
20
-3.56089372540512
30
0
41
1
10
84.9195664383186
20
-2.64668466352242
30
0
41
1
10
84.0301674295615
20
-2.33805851790874
30
0
41
1
10
82.249974403953
20
-1.71526189012482
30
0
41
1
10
81.3585575660135
20
-1.40081923121832
30
0
41
1
10
79.5778189571211
20
-0.77058026265226
30
0
41
1
10
78.6881892656765
20
-0.454953113242084
30
0
41
1
10
76.9094094303693
20
0.174473518486536
30
0
41
1
10
76.0203748532128
20
0.488610396861361
30
0
41
1
10
73.354171069973
20
1.42884238287974
30
0
41
1
10
71.5777699832719
20
2.05236622675977
30
0
41
1
10
68.910935334723
20
2.97182263958692
30
0
41
1
10
68.0215567296309
20
3.27549755188093
30
0
41
1
10
66.24093892475
20
3.87447303721083
30
0
41
1
10
65.3492991934813
20
4.1701692924407
30
0
41
1
10
62.6754157731458
20
5.04479739995477
30
0
41
1
10
60.8974155620925
20
5.60972445105844
30
0
41
1
10
58.2323983377949
20
6.41700365834458
30
0
41
1
10
57.3443680774802
20
6.67936817836932
30
0
41
1
10
55.5676444339726
20
7.18773573053227
30
0
41
1
10
54.6789597913547
20
7.43378801025611
30
0
41
1
10
52.0119826643248
20
8.14778323891446
30
0
41
1
10
50.2327978484434
20
8.59154556837646
30
0
41
1
10
47.5584131582114
20
9.20050274110673
30
0
41
1
10
46.667933006348
20
9.39362349105647
30
0
41
1
10
44.8880653124019
20
9.75830686665131
30
0
41
1
10
43.9985841395188
20
9.92983099933755
30
0
41
1
10
41.3315977362667
20
10.4123465994947
30
0
41
1
10
39.5558815049206
20
10.691584383558
30
0
41
1
10
36.0032955311751
20
11.1565315065215
30
0
41
1
10
34.2263424008242
20
11.3419579894838
30
0
41
1
10
32.4445190442357
20
11.4770115723375
30
0
0
SPLINE
5
189
100
AcDbEntity
8
1
62
256
6
ByLayer
370
18
48
1
60
0
100
AcDbSpline
70
4
71
3
72
21
73
17
40
0
40
0
40
0
40
0
40
0.25
40
0.25
40
0.3125
40
0.3125
40
0.375
40
0.375
40
0.5
40
0.625
40
0.625
40
0.6875
40
0.6875
40
0.75
40
0.75
40
1
40
1
40
1
40
1
41
1
10
218
20
8.94876322987633
30
0
41
1
10
218
20
8.33968789932447
30
0
41
1
10
218
20
7.75401938472655
30
0
41
1
10
218
20
7.050235122977
30
0
41
1
10
218
20
6.91091416114918
30
0
41
1
10
218
20
6.63520454653693
30
0
41
1
10
218
20
6.49860814224436
30
0
41
1
10
218
20
6.09890736348586
30
0
41
1
10
218.000000000001
20
5.58907476702129
30
0
41
1
10
218
20
5.12424866271664
30
0
41
1
10
218
20
4.79284872132877
30
0
41
1
10
218
20
4.68500388293083
30
0
41
1
10
218
20
4.4764124830277
30
0
41
1
10
218
20
4.37614270593662
30
0
41
1
10
218
20
3.89447521179977
30
0
41
1
10
218
20
3.57121056064023
30
0
41
1
10
218
20
3.31171854392946
30
0
0
SPLINE
5
18A
100
AcDbEntity
8
1
62
256
6
ByLayer
370
13
48
1
60
0
100
AcDbSpline
70
4
71
3
72
8
73
4
40
0
40
0
40
0
40
0
40
1
40
1
40
1
40
1
41
1
10
231.724910754695
20
1.1905381574675
30
0
41
1
10
232.062417660381
20
1.16674155053605
30
0
41
1
10
232.399924566066
20
1.14294494360459
30
0
41
1
10
232.737431471752
20
1.11914833667316
30
0
0
SPLINE
5
18B
100
AcDbEntity
8
1
62
256
6
ByLayer
370
18
48
1
60
0
100
AcDbSpline
70
4
71
3
72
8
73
4
40
0
40
0
40
0
40
0
40
1
40
1
40
1
40
1
41
1
10
22.1531053820785
20
-1.45233379993215
30
0
41
1
10
22.1808333891715
20
-1.50035459872046
30
0
41
1
10
22.2102357320697
20
-1.5468438600804
30
0
41
1
10
22.2413812147237
20
-1.59176467307768
30
0
0
SPLINE
5
18C
100
AcDbEntity
8
1
62
256
6
ByLayer
370
18
48
1
60
0
100
AcDbSpline
70
4
71
3
72
8
73
4
40
0
40
0
40
0
40
0
40
1
40
1
40
1
40
1
41
1
10
206.323966801451
20
9.51475170839453
30
0
41
1
10
206.305740788026
20
9.67426399946413
30
0
41
1
10
206.287782277736
20
9.83277946414483
30
0
41
1
10
206.270165863586
20
9.99031453325182
30
0
0
SPLINE
5
18D
100
AcDbEntity
8
1
62
256
6
ByLayer
370
18
48
1
60
0
100
AcDbSpline
70
4
71
3
72
18
73
14
40
0
40
0
40
0
40
0
40
0.250000000000042
40
0.250000000000042
40
0.375000000000045
40
0.375000000000045
40
0.500000000000049
40
0.500000000000049
40
0.750000000000024
40
0.750000000000024
40
0.875000000000012
40
0.875000000000012
40
1
40
1
40
1
40
1
41
1
10
229.591256465946
20
4.1036275522446
30
0
41
1
10
229.364589153979
20
3.91731544190071
30
0
41
1
10
229.14230658937
20
3.73034425501143
30
0
41
1
10
228.819427712778
20
3.44561142908893
30
0
41
1
10
228.713374677568
20
3.35000134236964
30
0
41
1
10
228.507178595105
20
3.16016589491983
30
0
41
1
10
228.406685804777
20
3.06566857926003
30
0
41
1
10
228.113024636971
20
2.783699737006
30
0
41
1
10
227.927799021992
20
2.5975845555958
30
0
41
1
10
227.665824953365
20
2.32334857510682
30
0
41
1
10
227.580915834273
20
2.23247455141384
30
0
41
1
10
227.417918377502
20
2.05388941625799
30
0
41
1
10
227.3400363511
20
1.9664210864708
30
0
41
1
10
227.265819316465
20
1.88084122293532
30
0
0
SPLINE
5
18E
100
AcDbEntity
8
1
62
256
6
ByLayer
370
18
48
1
60
0
100
AcDbSpline
70
4
71
3
72
12
73
8
40
0
40
0
40
0
40
0
40
0.512377461820488
40
0.512377461820488
40
0.76856619273072
40
0.76856619273072
40
1
40
1
40
1
40
1
41
1
10
218.145421537682
20
-11.4956213456485
30
0
41
1
10
219.074054176593
20
-11.5853777736195
30
0
41
1
10
220.001655958484
20
-11.6518907154757
30
0
41
1
10
221.391123560355
20
-11.7175297199031
30
0
41
1
10
221.853959714858
20
-11.7336996751834
30
0
41
1
10
222.734395790262
20
-11.7535376591871
30
0
41
1
10
223.151961512474
20
-11.758249015258
30
0
41
1
10
223.569778033904
20
-11.7582494127548
30
0
0
SPLINE
5
18F
100
AcDbEntity
8
1
62
256
6
ByLayer
370
18
48
1
60
0
100
AcDbSpline
70
4
71
3
72
8
73
4
40
0
40
0
40
0
40
0
40
1
40
1
40
1
40
1
41
1
10
204.961730638767
20
7.25761841169734
30
0
41
1
10
205.851982912035
20
7.01073144782029
30
0
41
1
10
206.741759220798
20
6.75560217291198
30
0
41
1
10
207.631353954823
20
6.49297040849478
30
0
0
SPLINE
5
190
100
AcDbEntity
8
1
62
256
6
ByLayer
370
18
48
1
60
0
100
AcDbSpline
70
4
71
3
72
16
73
12
40
0
40
0
40
0
40
0
40
0.329364085353306
40
0.329364085353306
40
0.49702306401498
40
0.49702306401498
40
0.664682042676653
40
0.664682042676653
40
0.832341021338326
40
0.832341021338326
40
1
40
1
40
1
40
1
41
1
10
208.75778224134
20
6.15644248619554
30
0
41
1
10
210.377048441848
20
5.66704827153302
30
0
41
1
10
211.996124711966
20
5.15382581374342
30
0
41
1
10
214.441766507746
20
4.3501309046234
30
0
41
1
10
215.267508187939
20
4.0738486447909
30
0
41
1
10
216.918187787787
20
3.51320367628659
30
0
41
1
10
217.743107777743
20
3.22878974725978
30
0
41
1
10
219.392651881235
20
2.65308201955921
30
0
41
1
10
220.21727257766
20
2.36176353961898
30
0
41
1
10
221.866844792577
20
1.77383761174653
30
0
41
1
10
222.691721758088
20
1.47726436146817
30
0
41
1
10
223.515844242572
20
1.17928628931909
30
0
0
SPLINE
5
191
100
AcDbEntity
8
1
62
256
6
ByLayer
370
18
48
1
60
0
100
AcDbSpline
70
4
71
3
72
10
73
6
40
0
40
0
40
0
40
0
40
0.535590293337864
40
0.535590293337864
40
1
40
1
40
1
40
1
41
1
10
229.610634163867
20
4.11952254236013
30
0
41
1
10
229.614478715572
20
4.12266958146714
30
0
41
1
10
229.618812333984
20
4.12537030964242
30
0
41
1
10
229.627440598926
20
4.12889896286129
30
0
41
1
10
229.631748744646
20
4.12995021836392
30
0
41
1
10
229.636042495465
20
4.13031658513722
30
0
0
SPLINE
5
192
100
AcDbEntity
8
1
62
256
6
ByLayer
370
18
48
1
60
0
100
AcDbSpline
70
4
71
3
72
50
73
46
40
0
40
0
40
0
40
0
40
0.0362069586226797
40
0.0362069586226797
40
0.0724139172453594
40
0.0724139172453594
40
0.108620875868039
40
0.108620875868039
40
0.144827834490719
40
0.144827834490719
40
0.181034793113398
40
0.181034793113398
40
0.217241751736077
40
0.217241751736077
40
0.289655668981435
40
0.289655668981435
40
0.325862627604113
40
0.325862627604113
40
0.362069586226792
40
0.362069586226792
40
0.43448350347215
40
0.43448350347215
40
0.506897420717509
40
0.506897420717509
40
0.543104379340187
40
0.543104379340187
40
0.579311337962866
40
0.579311337962866
40
0.651725255208222
40
0.651725255208222
40
0.6879322138309
40
0.6879322138309
40
0.724139172453578
40
0.724139172453578
40
0.760346131076257
40
0.760346131076257
40
0.796553089698935
40
0.796553089698935
40
0.86896700694429
40
0.86896700694429
40
0.941380924189645
40
0.941380924189645
40
0.977587882812323
40
0.977587882812323
40
1
40
1
40
1
40
1
41
1
10
203.202774455208
20
-7.10681056899205
30
0
41
1
10
202.31158188675
20
-6.85542927766005
30
0
41
1
10
201.420498123317
20
-6.59623970923354
30
0
41
1
10
199.637552639014
20
-6.06456973075569
30
0
41
1
10
198.746759447881
20
-5.79252757408082
30
0
41
1
10
196.967008244538
20
-5.23746199879076
30
0
41
1
10
196.077946971322
20
-4.95429044541308
30
0
41
1
10
194.301389186979
20
-4.37681728109172
30
0
41
1
10
193.41388683157
20
-4.08252101793747
30
0
41
1
10
191.639417094305
20
-3.48549277807143
30
0
41
1
10
190.752462129438
20
-3.18272502457941
30
0
41
1
10
188.977887356708
20
-2.57207122697258
30
0
41
1
10
188.090178361058
20
-2.2644431565341
30
0
41
1
10
185.425423430168
20
-1.33577309825822
30
0
41
1
10
183.647200242413
20
-0.70764643828258
30
0
41
1
10
180.97386555151
20
0.238414948307678
30
0
41
1
10
180.082519966329
20
0.554194372473603
30
0
41
1
10
178.302258080485
20
1.18245427567345
30
0
41
1
10
177.41266208151
20
1.49482368335731
30
0
41
1
10
174.745018359248
20
2.42543056555948
30
0
41
1
10
172.968932331163
20
3.0394531829574
30
0
41
1
10
169.416111371355
20
4.23952801835287
30
0
41
1
10
167.639237508095
20
4.82514073198593
30
0
41
1
10
164.966919960221
20
5.6652396546919
30
0
41
1
10
164.07482610201
20
5.93949106218207
30
0
41
1
10
162.29358978313
20
6.47414609342371
30
0
41
1
10
161.403812858091
20
6.73463470371848
30
0
41
1
10
158.736073334262
20
7.49341099080786
30
0
41
1
10
156.95988276451
20
7.96927754513288
30
0
41
1
10
154.293594660355
20
8.62677728021475
30
0
41
1
10
153.404631562564
20
8.83688134763264
30
0
41
1
10
151.626334673696
20
9.23888767257554
30
0
41
1
10
150.736939183069
20
9.43065414664986
30
0
41
1
10
148.956831856989
20
9.79403719410413
30
0
41
1
10
148.065461929629
20
9.96577153422282
30
0
41
1
10
146.28447955295
20
10.2868430728869
30
0
41
1
10
145.394833106667
20
10.4361112754522
30
0
41
1
10
142.72662279965
20
10.8481896490153
30
0
41
1
10
140.949414857953
20
11.0762667930207
30
0
41
1
10
137.395381286403
20
11.436789289556
30
0
41
1
10
135.618514082148
20
11.5688873552489
30
0
41
1
10
132.948115032233
20
11.6914059370676
30
0
41
1
10
132.056761191044
20
11.7197075754227
30
0
41
1
10
130.613486240654
20
11.7451235035719
30
0
41
1
10
130.062123077669
20
11.7499932928428
30
0
41
1
10
129.511118972303
20
11.7499983090929
30
0
0
SPLINE
5
193
100
AcDbEntity
8
1
62
256
6
ByLayer
370
18
48
1
60
0
100
AcDbSpline
70
4
71
3
72
8
73
4
40
0
40
0
40
0
40
0
40
1
40
1
40
1
40
1
41
1
10
34.906093542567
20
-11.258441858796
30
0
41
1
10
34.0863287572146
20
-11.3417865493426
30
0
41
1
10
33.2659414156735
20
-11.4147517339037
30
0
41
1
10
32.4445190442357
20
-11.4770115723375
30
0
0
SPLINE
5
194
100
AcDbEntity
8
1
62
256
6
ByLayer
370
18
48
1
60
0
100
AcDbSpline
70
4
71
3
72
8
73
4
40
0
40
0
40
0
40
0
40
1
40
1
40
1
40
1
41
1
10
28.4
20
10.955855339337
30
0
41
1
10
28.567087860213
20
10.9415045630976
30
0
41
1
10
28.728206855841
20
10.9219174560837
30
0
41
1
10
28.8836079261956
20
10.8967893213869
30
0
0
SPLINE
5
195
100
AcDbEntity
8
SK1
62
256
6
ByLayer
370
18
48
1
60
0
100
AcDbSpline
70
4
71
3
72
70
73
66
40
0
40
0
40
0
40
0
40
0.0312500000000009
40
0.0312500000000009
40
0.0468750000000009
40
0.0468750000000009
40
0.0625000000000008
40
0.0625000000000008
40
0.0781250000000008
40
0.0781250000000008
40
0.0937500000000008
40
0.0937500000000008
40
0.125000000000001
40
0.125000000000001
40
0.156250000000001
40
0.156250000000001
40
0.1875
40
0.1875
40
0.21875
40
0.21875
40
0.25
40
0.25
40
0.3125
40
0.3125
40
0.34375
40
0.34375
40
0.375
40
0.375
40
0.4375
40
0.4375
40
0.5
40
0.5
40
0.5625
40
0.5625
40
0.59375
40
0.59375
40
0.625
40
0.625
40
0.687499999999999
40
0.687499999999999
40
0.749999999999999
40
0.749999999999999
40
0.781249999999999
40
0.781249999999999
40
0.812499999999999
40
0.812499999999999
40
0.843749999999999
40
0.843749999999999
40
0.859374999999999
40
0.859374999999999
40
0.874999999999999
40
0.874999999999999
40
0.90625
40
0.90625
40
0.921875
40
0.921875
40
0.9375
40
0.9375
40
0.953125
40
0.953125
40
0.96875
40
0.96875
40
0.984375
40
0.984375
40
1
40
1
40
1
40
1
41
1
10
-6.5
20
-8.08217792429738
30
0
41
1
10
-6.28762555995463
20
-8.08217792429738
30
0
41
1
10
-6.0810498691127
20
-8.05368849473035
30
0
41
1
10
-5.77910858566648
20
-7.97161548876423
30
0
41
1
10
-5.68022589061654
20
-7.93763423525914
30
0
41
1
10
-5.49054490854958
20
-7.85917405972873
30
0
41
1
10
-5.398995235009
20
-7.81450307998708
30
0
41
1
10
-5.22185646564661
20
-7.71512651881918
30
0
41
1
10
-5.13594421810531
20
-7.66012522444171
30
0
41
1
10
-4.9730710583807
20
-7.54325327411436
30
0
41
1
10
-4.89566707429053
20
-7.48118572785879
30
0
41
1
10
-4.6739132088681
20
-7.28529466076768
30
0
41
1
10
-4.53991230602644
20
-7.14180694426813
30
0
41
1
10
-4.29416855767026
20
-6.83312930612388
30
0
41
1
10
-4.18521185387127
20
-6.6715007799863
30
0
41
1
10
-3.98806828865871
20
-6.33636750757177
30
0
41
1
10
-3.89994716555164
20
-6.16283546371301
30
0
41
1
10
-3.74020554839619
20
-5.80545940076314
30
0
41
1
10
-3.6683892050804
20
-5.62093024300796
30
0
41
1
10
-3.53937133315314
20
-5.24594125113808
30
0
41
1
10
-3.48231441550429
20
-5.05612691162614
30
0
41
1
10
-3.32871181677947
20
-4.48051810886963
30
0
41
1
10
-3.24948709448095
20
-4.08860232749163
30
0
41
1
10
-3.15366535436109
20
-3.49035454453516
30
0
41
1
10
-3.1256376318379
20
-3.28919601457946
30
0
41
1
10
-3.07615885164303
20
-2.8835794753536
30
0
41
1
10
-3.05468247616594
20
-2.6788066175184
30
0
41
1
10
-2.99892560884548
20
-2.06183265419932
30
0
41
1
10
-2.97341374459452
20
-1.65021464829943
30
0
41
1
10
-2.93990884487631
20
-0.826427708852918
30
0
41
1
10
-2.93195209632363
20
-0.414258490969502
30
0
41
1
10
-2.93190451240991
20
0.410616418566406
30
0
41
1
10
-2.93981190900011
20
0.823322087871986
30
0
41
1
10
-2.96496313204877
20
1.44279742981084
30
0
41
1
10
-2.97558958394542
20
1.64935895031218
30
0
41
1
10
-3.00193375507486
20
2.06262743969191
30
0
41
1
10
-3.01768796297789
20
2.26962385434214
30
0
41
1
10
-3.07336906956125
20
2.88522451010573
30
0
41
1
10
-3.12161720280069
20
3.29012272731185
30
0
41
1
10
-3.24933181748246
20
4.08777686756457
30
0
41
1
10
-3.32863739699849
20
4.48055429019126
30
0
41
1
10
-3.48310032098841
20
5.05891332672573
30
0
41
1
10
-3.54076942872437
20
5.25033331669707
30
0
41
1
10
-3.66965942312491
20
5.62428672514505
30
0
41
1
10
-3.74096306693001
20
5.80730424563461
30
0
41
1
10
-3.90070915193935
20
6.16438864035223
30
0
41
1
10
-3.98911623857579
20
6.33846735616979
30
0
41
1
10
-4.13836234295802
20
6.59169519349339
30
0
41
1
10
-4.19087366086718
20
6.67469064307952
30
0
41
1
10
-4.30098015289811
20
6.83590272214585
30
0
41
1
10
-4.35870319203545
20
6.91434756669076
30
0
41
1
10
-4.54085622294416
20
7.14267001525303
30
0
41
1
10
-4.67411746978665
20
7.28563237868227
30
0
41
1
10
-4.89762414313628
20
7.48283481508952
30
0
41
1
10
-4.97599664741573
20
7.54549364627977
30
0
41
1
10
-5.13838907908936
20
7.66173374977816
30
0
41
1
10
-5.22276337997239
20
7.71564866991193
30
0
41
1
10
-5.39862205954024
20
7.81428032092916
30
0
41
1
10
-5.49010121423035
20
7.85900465123581
30
0
41
1
10
-5.68125471270633
20
7.93804563435424
30
0
41
1
10
-5.77882786643026
20
7.97148061306467
30
0
41
1
10
-5.97815227640164
20
8.02577693282768
30
0
41
1
10
-6.07990178078997
20
8.04664365567402
30
0
41
1
10
-6.28791316484741
20
8.07490697119016
30
0
41
1
10
-6.39402083858315
20
8.08217792429738
30
0
41
1
10
-6.5
20
8.08217792429738
30
0
0
SPLINE
5
196
100
AcDbEntity
8
SK1
62
256
6
ByLayer
370
18
48
1
60
0
100
AcDbSpline
70
4
71
3
72
70
73
66
40
0
40
0
40
0
40
0
40
0.03125
40
0.03125
40
0.0468749999999999
40
0.0468749999999999
40
0.0624999999999999
40
0.0624999999999999
40
0.0781249999999998
40
0.0781249999999998
40
0.0937499999999998
40
0.0937499999999998
40
0.125
40
0.125
40
0.15625
40
0.15625
40
0.1875
40
0.1875
40
0.218749999999999
40
0.218749999999999
40
0.249999999999999
40
0.249999999999999
40
0.312499999999999
40
0.312499999999999
40
0.343749999999999
40
0.343749999999999
40
0.374999999999999
40
0.374999999999999
40
0.437499999999999
40
0.437499999999999
40
0.499999999999999
40
0.499999999999999
40
0.562499999999999
40
0.562499999999999
40
0.593749999999999
40
0.593749999999999
40
0.624999999999999
40
0.624999999999999
40
0.687499999999999
40
0.687499999999999
40
0.749999999999999
40
0.749999999999999
40
0.781249999999999
40
0.781249999999999
40
0.812499999999999
40
0.812499999999999
40
0.843749999999999
40
0.843749999999999
40
0.859374999999999
40
0.859374999999999
40
0.874999999999999
40
0.874999999999999
40
0.906249999999999
40
0.906249999999999
40
0.921875
40
0.921875
40
0.9375
40
0.9375
40
0.953125
40
0.953125
40
0.96875
40
0.96875
40
0.984375
40
0.984375
40
1
40
1
40
1
40
1
41
1
10
-53.5
20
8.08217792429738
30
0
41
1
10
-53.7123744400454
20
8.08217792429738
30
0
41
1
10
-53.9189501308873
20
8.05368849473035
30
0
41
1
10
-54.2208914143335
20
7.9716154887642
30
0
41
1
10
-54.3197741093835
20
7.93763423525914
30
0
41
1
10
-54.5094550914504
20
7.85917405972873
30
0
41
1
10
-54.601004764991
20
7.81450307998708
30
0
41
1
10
-54.7781435343534
20
7.71512651881918
30
0
41
1
10
-54.8640557818947
20
7.66012522444171
30
0
41
1
10
-55.0269289416193
20
7.54325327411436
30
0
41
1
10
-55.1043329257095
20
7.48118572785879
30
0
41
1
10
-55.3260867911319
20
7.28529466076768
30
0
41
1
10
-55.4600876939736
20
7.14180694426813
30
0
41
1
10
-55.7058314423298
20
6.83312930612388
30
0
41
1
10
-55.8147881461287
20
6.6715007799863
30
0
41
1
10
-56.0119317113413
20
6.33636750757177
30
0
41
1
10
-56.1000528344483
20
6.16283546371301
30
0
41
1
10
-56.2597944516038
20
5.80545940076314
30
0
41
1
10
-56.3316107949196
20
5.62093024300796
30
0
41
1
10
-56.4606286668468
20
5.24594125113808
30
0
41
1
10
-56.5176855844957
20
5.05612691162611
30
0
41
1
10
-56.6712881832205
20
4.48051810886963
30
0
41
1
10
-56.750512905519
20
4.08860232749163
30
0
41
1
10
-56.8463346456389
20
3.49035454453516
30
0
41
1
10
-56.8743623681621
20
3.28919601457946
30
0
41
1
10
-56.923841148357
20
2.8835794753536
30
0
41
1
10
-56.9453175238341
20
2.6788066175184
30
0
41
1
10
-57.0010743911545
20
2.06183265419932
30
0
41
1
10
-57.0265862554055
20
1.65021464829943
30
0
41
1
10
-57.0600911551237
20
0.826427708852918
30
0
41
1
10
-57.0680479036764
20
0.414258490969502
30
0
41
1
10
-57.0680954875901
20
-0.410616418566406
30
0
41
1
10
-57.0601880909999
20
-0.823322087871986
30
0
41
1
10
-57.0350368679512
20
-1.44279742981084
30
0
41
1
10
-57.0244104160546
20
-1.64935895031215
30
0
41
1
10
-56.9980662449251
20
-2.06262743969191
30
0
41
1
10
-56.9823120370221
20
-2.26962385434214
30
0
41
1
10
-56.9266309304388
20
-2.88522451010573
30
0
41
1
10
-56.8783827971993
20
-3.29012272731185
30
0
41
1
10
-56.7506681825175
20
-4.08777686756457
30
0
41
1
10
-56.6713626030015
20
-4.48055429019126
30
0
41
1
10
-56.5168996790116
20
-5.05891332672573
30
0
41
1
10
-56.4592305712756
20
-5.25033331669707
30
0
41
1
10
-56.3303405768751
20
-5.62428672514505
30
0
41
1
10
-56.25903693307
20
-5.80730424563461
30
0
41
1
10
-56.0992908480606
20
-6.16438864035223
30
0
41
1
10
-56.0108837614242
20
-6.33846735616979
30
0
41
1
10
-55.861637657042
20
-6.59169519349339
30
0
41
1
10
-55.8091263391328
20
-6.67469064307952
30
0
41
1
10
-55.6990198471019
20
-6.83590272214585
30
0
41
1
10
-55.6412968079646
20
-6.91434756669076
30
0
41
1
10
-55.4591437770559
20
-7.14267001525306
30
0
41
1
10
-55.3258825302133
20
-7.28563237868227
30
0
41
1
10
-55.1023758568637
20
-7.48283481508952
30
0
41
1
10
-55.0240033525843
20
-7.54549364627977
30
0
41
1
10
-54.8616109209106
20
-7.66173374977816
30
0
41
1
10
-54.7772366200276
20
-7.71564866991193
30
0
41
1
10
-54.6013779404598
20
-7.81428032092916
30
0
41
1
10
-54.5098987857697
20
-7.85900465123581
30
0
41
1
10
-54.3187452872937
20
-7.93804563435424
30
0
41
1
10
-54.2211721335697
20
-7.97148061306467
30
0
41
1
10
-54.0218477235983
20
-8.02577693282768
30
0
41
1
10
-53.92009821921
20
-8.04664365567402
30
0
41
1
10
-53.7120868351526
20
-8.07490697119016
30
0
41
1
10
-53.6059791614169
20
-8.08217792429738
30
0
41
1
10
-53.5
20
-8.08217792429738
30
0
0
LINE
5
70
100
AcDbEntity
8
81
62
256
6
ByLayer
370
18
48
1
60
0
100
AcDbLine
10
218
20
0
30
0
11
223
21
0
31
0
39
0
210
0
220
0
230
1
0
LINE
5
71
100
AcDbEntity
8
1
62
256
6
ByLayer
370
18
48
1
60
0
100
AcDbLine
10
0.2
20
20
30
0
11
0
21
19.8
31
0
39
0
210
0
220
0
230
1
0
LINE
5
73
100
AcDbEntity
8
1
62
256
6
ByLayer
370
18
48
1
60
0
100
AcDbLine
10
0
20
-19.8
30
0
11
0.2
21
-20
31
0
39
0
210
0
220
0
230
1
0
LINE
5
74
100
AcDbEntity
8
1
62
256
6
ByLayer
370
18
48
1
60
0
100
AcDbLine
10
7.1233
20
20
30
0
11
0.2
21
20
31
0
39
0
210
0
220
0
230
1
0
LINE
5
75
100
AcDbEntity
8
1
62
256
6
ByLayer
370
18
48
1
60
0
100
AcDbLine
10
0.2
20
-20
30
0
11
7.1233
21
-20
31
0
39
0
210
0
220
0
230
1
0
LINE
5
76
100
AcDbEntity
8
SK1
62
256
6
ByLayer
370
18
48
1
60
0
100
AcDbLine
10
-58.6
20
-15.996
30
0
11
-58.449692
21
-15.874283
31
0
39
0
210
0
220
0
230
1
0
LINE
5
78
100
AcDbEntity
8
SK1
62
256
6
ByLayer
370
18
48
1
60
0
100
AcDbLine
10
-58.449692
20
15.874283
30
0
11
-58.6
21
15.996
31
0
39
0
210
0
220
0
230
1
0
LINE
5
79
100
AcDbEntity
8
SK1
62
256
6
ByLayer
370
18
48
1
60
0
100
AcDbLine
10
-57.3
20
15.996
30
0
11
-57.426311
21
15.887988
31
0
39
0
210
0
220
0
230
1
0
LINE
5
7A
100
AcDbEntity
8
SK1
62
256
6
ByLayer
370
18
48
1
60
0
100
AcDbLine
10
-57.426311
20
-15.887988
30
0
11
-57.3
21
-15.996
31
0
39
0
210
0
220
0
230
1
0
LINE
5
7B
100
AcDbEntity
8
SK1
62
256
6
ByLayer
370
18
48
1
60
0
100
AcDbLine
10
-59
20
15.996
30
0
11
-60
21
14.996
31
0
39
0
210
0
220
0
230
1
0
LINE
5
7C
100
AcDbEntity
8
SK1
62
256
6
ByLayer
370
18
48
1
60
0
100
AcDbLine
10
-60
20
-14.996
30
0
11
-59
21
-15.996
31
0
39
0
210
0
220
0
230
1
0
LINE
5
7D
100
AcDbEntity
8
SK1
62
256
6
ByLayer
370
18
48
1
60
0
100
AcDbLine
10
-1.6
20
-15.996
30
0
11
-1.144243
21
-15.783477
31
0
39
0
210
0
220
0
230
1
0
LINE
5
7E
100
AcDbEntity
8
SK1
62
256
6
ByLayer
370
18
48
1
60
0
100
AcDbLine
10
-1.144243
20
15.783477
30
0
11
-1.6
21
15.996
31
0
39
0
210
0
220
0
230
1
0
LINE
5
7F
100
AcDbEntity
8
SK1
62
256
6
ByLayer
370
18
48
1
60
0
100
AcDbLine
10
-58.6
20
15.996
30
0
11
-59
21
15.996
31
0
39
0
210
0
220
0
230
1
0
LINE
5
80
100
AcDbEntity
8
SK1
62
256
6
ByLayer
370
18
48
1
60
0
100
AcDbLine
10
-59
20
-15.996
30
0
11
-58.6
21
-15.996
31
0
39
0
210
0
220
0
230
1
0
LINE
5
81
100
AcDbEntity
8
SK1
62
256
6
ByLayer
370
18
48
1
60
0
100
AcDbLine
10
-0.975195
20
-15.746
30
0
11
-0.15
21
-15.746
31
0
39
0
210
0
220
0
230
1
0
LINE
5
82
100
AcDbEntity
8
SK1
62
256
6
ByLayer
370
18
48
1
60
0
100
AcDbLine
10
-0.15
20
15.746
30
0
11
-0.975195
21
15.746
31
0
39
0
210
0
220
0
230
1
0
LINE
5
83
100
AcDbEntity
8
1
62
256
6
ByLayer
370
18
48
1
60
0
100
AcDbLine
10
22.153105
20
-12.534916
30
0
11
22.241381
21
-12.487933
31
0
39
0
210
0
220
0
230
1
0
LINE
5
84
100
AcDbEntity
8
1
62
256
6
ByLayer
370
18
48
1
60
0
100
AcDbLine
10
28.4
20
-11.75
30
0
11
31.5
21
-11.75
31
0
39
0
210
0
220
0
230
1
0
LINE
5
85
100
AcDbEntity
8
1
62
256
6
ByLayer
370
18
48
1
60
0
100
AcDbLine
10
129.513307
20
11.75
30
0
11
120.410863
21
11.75
31
0
39
0
210
0
220
0
230
1
0
LINE
5
86
100
AcDbEntity
8
1
62
256
6
ByLayer
370
18
48
1
60
0
100
AcDbLine
10
120.410863
20
-11.75
30
0
11
129.513307
21
-11.75
31
0
39
0
210
0
220
0
230
1
0
LINE
5
87
100
AcDbEntity
8
1
62
256
6
ByLayer
370
18
48
1
60
0
100
AcDbLine
10
31.5
20
11.75
30
0
11
28.4
21
11.75
31
0
39
0
210
0
220
0
230
1
0
LINE
5
88
100
AcDbEntity
8
1
62
256
6
ByLayer
370
18
48
1
60
0
100
AcDbLine
10
22.241381
20
12.487933
30
0
11
22.153105
21
12.534916
31
0
39
0
210
0
220
0
230
1
0
LINE
5
89
100
AcDbEntity
8
1
62
256
6
ByLayer
370
18
48
1
60
0
100
AcDbLine
10
223.569549
20
-11.75825
30
0
11
228.874279
21
-11.75825
31
0
39
0
210
0
220
0
230
1
0
LINE
5
8A
100
AcDbEntity
8
1
62
256
6
ByLayer
370
18
48
1
60
0
100
AcDbLine
10
223.531626
20
11.987776
30
0
11
221.220427
21
11.979687
31
0
39
0
210
0
220
0
230
1
0
LINE
5
8B
100
AcDbEntity
8
1
62
256
6
ByLayer
370
18
48
1
60
0
100
AcDbLine
10
221.220427
20
-11.979687
30
0
11
223.531626
21
-11.987776
31
0
39
0
210
0
220
0
230
1
0
LINE
5
8C
100
AcDbEntity
8
SK1
62
256
6
ByLayer
370
18
48
1
60
0
100
AcDbLine
10
-1.6
20
15.996
30
0
11
-57.3
21
15.996
31
0
39
0
210
0
220
0
230
1
0
LINE
5
8D
100
AcDbEntity
8
SK1
62
256
6
ByLayer
370
18
48
1
60
0
100
AcDbLine
10
-57.3
20
-15.996
30
0
11
-1.6
21
-15.996
31
0
39
0
210
0
220
0
230
1
0
LINE
5
8E
100
AcDbEntity
8
1
62
256
6
ByLayer
370
18
48
1
60
0
100
AcDbLine
10
26
20
-11.55
30
0
11
28.4
21
-11.75
31
0
39
0
210
0
220
0
230
1
0
LINE
5
8F
100
AcDbEntity
8
1
62
256
6
ByLayer
370
18
48
1
60
0
100
AcDbLine
10
28.4
20
11.75
30
0
11
26
21
11.55
31
0
39
0
210
0
220
0
230
1
0
LINE
5
90
100
AcDbEntity
8
80
62
256
6
ByLayer
370
18
48
1
60
0
100
AcDbLine
10
0
20
0
30
0
11
-5
21
0
31
0
39
0
210
0
220
0
230
1
0
LINE
5
91
100
AcDbEntity
8
4
62
256
6
ByLayer
370
18
48
0.05
60
0
100
AcDbLine
10
218
20
0
30
0
11
0
21
0
31
0
39
0
210
0
220
0
230
1
0
LINE
5
93
100
AcDbEntity
8
SK4
62
256
6
ByLayer
370
18
48
0.05
60
0
100
AcDbLine
10
238
20
0
30
0
11
-65
21
0
31
0
39
0
210
0
220
0
230
1
0
LINE
5
95
100
AcDbEntity
8
1
62
256
6
ByLayer
370
18
48
1
60
0
100
AcDbLine
10
218.145422
20
-11.495621
30
0
11
218.145422
21
-11.357597
31
0
39
0
210
0
220
0
230
1
0
LINE
5
96
100
AcDbEntity
8
1
62
256
6
ByLayer
370
18
48
1
60
0
100
AcDbLine
10
218
20
-11.306472
30
0
11
218
21
-11.291639
31
0
39
0
210
0
220
0
230
1
0
LINE
5
97
100
AcDbEntity
8
1
62
256
6
ByLayer
370
13
48
1
60
0
100
AcDbLine
10
22.153105
20
12.534916
30
0
11
22.153105
21
11.562919
31
0
39
0
210
0
220
0
230
1
0
LINE
5
98
100
AcDbEntity
8
1
62
256
6
ByLayer
370
18
48
1
60
0
100
AcDbLine
10
217.905
20
-11.622457
30
0
11
217.905
21
-11.297006
31
0
39
0
210
0
220
0
230
1
0
LINE
5
99
100
AcDbEntity
8
1
62
256
6
ByLayer
370
18
48
1
60
0
100
AcDbLine
10
231.860432
20
-4.08253
30
0
11
231.743145
21
-4.432361
31
0
39
0
210
0
220
0
230
1
0
LINE
5
9A
100
AcDbEntity
8
1
62
256
6
ByLayer
370
18
48
1
60
0
100
AcDbLine
10
208.3
20
-4.901833
30
0
11
208.3
21
6.303821
31
0
39
0
210
0
220
0
230
1
0
LINE
5
9B
100
AcDbEntity
8
1
62
256
6
ByLayer
370
18
48
1
60
0
100
AcDbLine
10
232.912801
20
0.360274
30
0
11
232.737431
21
1.119148
31
0
39
0
210
0
220
0
230
1
0
LINE
5
9C
100
AcDbEntity
8
1
62
256
6
ByLayer
370
18
48
1
60
0
100
AcDbLine
10
26
20
11.55
30
0
11
26
21
10.799078
31
0
39
0
210
0
220
0
230
1
0
LINE
5
9D
100
AcDbEntity
8
1
62
256
6
ByLayer
370
18
48
1
60
0
100
AcDbLine
10
0
20
19.8
30
0
11
0
21
-19.8
31
0
39
0
210
0
220
0
230
1
0
LINE
5
9E
100
AcDbEntity
8
1
62
256
6
ByLayer
370
18
48
1
60
0
100
AcDbLine
10
228.956513
20
-11.756479
30
0
11
232.602716
21
-1.168751
31
0
39
0
210
0
220
0
230
1
0
LINE
5
9F
100
AcDbEntity
8
1
62
256
6
ByLayer
370
18
48
1
60
0
100
AcDbLine
10
218
20
3.15
30
0
11
218
21
3.311719
31
0
39
0
210
0
220
0
230
1
0
LINE
5
A0
100
AcDbEntity
8
1
62
256
6
ByLayer
370
18
48
1
60
0
100
AcDbLine
10
219.101512
20
-10.989038
30
0
11
227.471721
21
-10.989038
31
0
39
0
210
0
220
0
230
1
0
LINE
5
A1
100
AcDbEntity
8
1
62
256
6
ByLayer
370
18
48
1
60
0
100
AcDbLine
10
227.165798
20
-10.437602
30
0
11
227.165798
21
-3.641198
31
0
39
0
210
0
220
0
230
1
0
LINE
5
A2
100
AcDbEntity
8
1
62
256
6
ByLayer
370
18
48
1
60
0
100
AcDbLine
10
227.471721
20
-10.989038
30
0
11
229.435848
21
-5.398977
31
0
39
0
210
0
220
0
230
1
0
LINE
5
A3
100
AcDbEntity
8
1
62
256
6
ByLayer
370
18
48
1
60
0
100
AcDbLine
10
26
20
-11.55
30
0
11
26
21
-2.976644
31
0
39
0
210
0
220
0
230
1
0
LINE
5
A4
100
AcDbEntity
8
1
62
256
6
ByLayer
370
13
48
1
60
0
100
AcDbLine
10
204.574234
20
-7.130279
30
0
11
204.574234
21
-7.379579
31
0
39
0
210
0
220
0
230
1
0
LINE
5
A5
100
AcDbEntity
8
1
62
256
6
ByLayer
370
18
48
1
60
0
100
AcDbLine
10
218.729864
20
-11.914602
30
0
11
218.729864
21
-11.761086
31
0
39
0
210
0
220
0
230
1
0
LINE
5
A6
100
AcDbEntity
8
1
62
256
6
ByLayer
370
18
48
1
60
0
100
AcDbLine
10
232.912801
20
-0.360274
30
0
11
232.737431
21
-1.119148
31
0
39
0
210
0
220
0
230
1
0
LINE
5
A7
100
AcDbEntity
8
1
62
256
6
ByLayer
370
18
48
1
60
0
100
AcDbLine
10
229.435848
20
-5.398977
30
0
11
231.455118
21
-3.181764
31
0
39
0
210
0
220
0
230
1
0
LINE
5
A8
100
AcDbEntity
8
1
62
256
6
ByLayer
370
18
48
1
60
0
100
AcDbLine
10
218
20
-11.291639
30
0
11
218
21
-11.239297
31
0
39
0
210
0
220
0
230
1
0
LINE
5
A9
100
AcDbEntity
8
1
62
256
6
ByLayer
370
13
48
1
60
0
100
AcDbLine
10
229.639452
20
4.11486
30
0
11
229.636042
21
4.130317
31
0
39
0
210
0
220
0
230
1
0
LINE
5
AA
100
AcDbEntity
8
1
62
256
6
ByLayer
370
13
48
1
60
0
100
AcDbLine
10
217.8
20
3.65
30
0
11
218.005013
21
3.65
31
0
39
0
210
0
220
0
230
1
0
LINE
5
AB
100
AcDbEntity
8
1
62
256
6
ByLayer
370
18
48
1
60
0
100
AcDbLine
10
28.4
20
11.75
30
0
11
28.4
21
10.955855
31
0
39
0
210
0
220
0
230
1
0
LINE
5
AC
100
AcDbEntity
8
1
62
256
6
ByLayer
370
18
48
1
60
0
100
AcDbLine
10
227.165684
20
-3.6398
30
0
11
225.847707
21
1.7247
31
0
39
0
210
0
220
0
230
1
0
LINE
5
AD
100
AcDbEntity
8
1
62
256
6
ByLayer
370
13
48
1
60
0
100
AcDbLine
10
218
20
-11.306472
30
0
11
218.145422
21
-11.357597
31
0
39
0
210
0
220
0
230
1
0
LINE
5
AE
100
AcDbEntity
8
1
62
256
6
ByLayer
370
18
48
1
60
0
100
AcDbLine
10
218
20
-11.613463
30
0
11
218
21
-11.306472
31
0
39
0
210
0
220
0
230
1
0
LINE
5
AF
100
AcDbEntity
8
1
62
256
6
ByLayer
370
13
48
1
60
0
100
AcDbLine
10
231.67967
20
1.152115
30
0
11
232.93588
21
0.2741
31
0
39
0
210
0
220
0
230
1
0
LINE
5
B0
100
AcDbEntity
8
1
62
256
6
ByLayer
370
18
48
1
60
0
100
AcDbLine
10
224.697932
20
-3.6398
30
0
11
227.165684
21
-3.6398
31
0
39
0
210
0
220
0
230
1
0
LINE
5
B1
100
AcDbEntity
8
1
62
256
6
ByLayer
370
18
48
1
60
0
100
AcDbLine
10
232.694522
20
-0.902165
30
0
11
233.005308
21
0.000285
31
0
39
0
210
0
220
0
230
1
0
LINE
5
B2
100
AcDbEntity
8
1
62
256
6
ByLayer
370
13
48
1
60
0
100
AcDbLine
10
232.912801
20
0.360274
30
0
11
231.724911
21
1.190538
31
0
39
0
210
0
220
0
230
1
0
LINE
5
B3
100
AcDbEntity
8
1
62
256
6
ByLayer
370
18
48
1
60
0
100
AcDbLine
10
219.277878
20
-10.935343
30
0
11
226.597735
21
-10.935343
31
0
39
0
210
0
220
0
230
1
0
LINE
5
B4
100
AcDbEntity
8
1
62
256
6
ByLayer
370
18
48
1
60
0
100
AcDbLine
10
218
20
-11.205668
30
0
11
218
21
-11.239297
31
0
39
0
210
0
220
0
230
1
0
LINE
5
B5
100
AcDbEntity
8
1
62
256
6
ByLayer
370
18
48
1
60
0
100
AcDbLine
10
227.165798
20
-3.641198
30
0
11
227.165684
21
-3.6398
31
0
39
0
210
0
220
0
230
1
0
LINE
5
B6
100
AcDbEntity
8
1
62
256
6
ByLayer
370
13
48
1
60
0
100
AcDbLine
10
22.153105
20
-1.452334
30
0
11
22.153105
21
-12.534916
31
0
39
0
210
0
220
0
230
1
0
LINE
5
B7
100
AcDbEntity
8
1
62
256
6
ByLayer
370
18
48
1
60
0
100
AcDbLine
10
226.313366
20
-9.58517
30
0
11
227.165798
21
-10.437602
31
0
39
0
210
0
220
0
230
1
0
LINE
5
B8
100
AcDbEntity
8
1
62
256
6
ByLayer
370
13
48
1
60
0
100
AcDbLine
10
7.1233
20
0
30
0
11
7.1233
21
-20
31
0
39
0
210
0
220
0
230
1
0
LINE
5
B9
100
AcDbEntity
8
1
62
256
6
ByLayer
370
13
48
1
60
0
100
AcDbLine
10
7.1233
20
20
30
0
11
7.1233
21
0
31
0
39
0
210
0
220
0
230
1
0
LINE
5
BA
100
AcDbEntity
8
1
62
256
6
ByLayer
370
13
48
1
60
0
100
AcDbLine
10
22.241381
20
-1.591765
30
0
11
22.241381
21
-12.487933
31
0
39
0
210
0
220
0
230
1
0
LINE
5
BB
100
AcDbEntity
8
1
62
256
6
ByLayer
370
18
48
1
60
0
100
AcDbLine
10
229.435848
20
-5.398977
30
0
11
229.411674
21
-5.334406
31
0
39
0
210
0
220
0
230
1
0
LINE
5
BC
100
AcDbEntity
8
1
62
256
6
ByLayer
370
18
48
1
60
0
100
AcDbLine
10
31.5
20
-11.75
30
0
11
31.5
21
-4.969503
31
0
39
0
210
0
220
0
230
1
0
LINE
5
BD
100
AcDbEntity
8
1
62
256
6
ByLayer
370
18
48
1
60
0
100
AcDbLine
10
226.597735
20
-10.935343
30
0
11
226.605479
21
-10.931954
31
0
39
0
210
0
220
0
230
1
0
LINE
5
BE
100
AcDbEntity
8
1
62
256
6
ByLayer
370
18
48
1
60
0
100
AcDbLine
10
31.5
20
11.75
30
0
11
31.5
21
11.749422
31
0
39
0
210
0
220
0
230
1
0
LINE
5
BF
100
AcDbEntity
8
1
62
256
6
ByLayer
370
18
48
1
60
0
100
AcDbLine
10
227.162286
20
-10.444104
30
0
11
227.165798
21
-10.437602
31
0
39
0
210
0
220
0
230
1
0
LINE
5
C0
100
AcDbEntity
8
1
62
256
6
ByLayer
370
18
48
1
60
0
100
AcDbLine
10
219.101512
20
-10.989038
30
0
11
219.101512
21
-10.9265
31
0
39
0
210
0
220
0
230
1
0
LINE
5
C1
100
AcDbEntity
8
1
62
256
6
ByLayer
370
18
48
1
60
0
100
AcDbLine
10
233.005308
20
-0.000285
30
0
11
233.005308
21
0.000285
31
0
39
0
210
0
220
0
230
1
0
LINE
5
C2
100
AcDbEntity
8
1
62
256
6
ByLayer
370
13
48
1
60
0
100
AcDbLine
10
219.059619
20
-10.924941
30
0
11
219.059619
21
-11.003571
31
0
39
0
210
0
220
0
230
1
0
LINE
5
C3
100
AcDbEntity
8
1
62
256
6
ByLayer
370
18
48
1
60
0
100
AcDbLine
10
226.605479
20
-10.931954
30
0
11
227.162286
21
-10.444104
31
0
39
0
210
0
220
0
230
1
0
LINE
5
C4
100
AcDbEntity
8
1
62
256
6
ByLayer
370
18
48
1
60
0
100
AcDbLine
10
231.860432
20
4.08253
30
0
11
231.743145
21
4.432361
31
0
39
0
210
0
220
0
230
1
0
LINE
5
C5
100
AcDbEntity
8
1
62
256
6
ByLayer
370
18
48
1
60
0
100
AcDbLine
10
0.2
20
0
30
0
11
0.2
21
-20
31
0
39
0
210
0
220
0
230
1
0
LINE
5
C6
100
AcDbEntity
8
1
62
256
6
ByLayer
370
18
48
1
60
0
100
AcDbLine
10
0.2
20
20
30
0
11
0.2
21
0
31
0
39
0
210
0
220
0
230
1
0
LINE
5
C7
100
AcDbEntity
8
1
62
256
6
ByLayer
370
18
48
1
60
0
100
AcDbLine
10
28.4
20
-11.75
30
0
11
28.4
21
-3.950274
31
0
39
0
210
0
220
0
230
1
0
LINE
5
C8
100
AcDbEntity
8
1
62
256
6
ByLayer
370
18
48
1
60
0
100
AcDbLine
10
233.005308
20
-0.000285
30
0
11
232.971588
21
-0.152254
31
0
39
0
210
0
220
0
230
1
0
LINE
5
C9
100
AcDbEntity
8
1
62
256
6
ByLayer
370
13
48
1
60
0
100
AcDbLine
10
22.241381
20
12.487933
30
0
11
22.241381
21
11.525864
31
0
39
0
210
0
220
0
230
1
0
LINE
5
CA
100
AcDbEntity
8
1
62
256
6
ByLayer
370
18
48
1
60
0
100
AcDbLine
10
232.971588
20
0.152254
30
0
11
233.005308
21
0.000285
31
0
39
0
210
0
220
0
230
1
0
LINE
5
CB
100
AcDbEntity
8
SK1
62
256
6
ByLayer
370
13
48
1
60
0
100
AcDbLine
10
-0.975195
20
15.746
30
0
11
-0.975195
21
-15.746
31
0
39
0
210
0
220
0
230
1
0
LINE
5
CC
100
AcDbEntity
8
SK1
62
256
6
ByLayer
370
13
48
1
60
0
100
AcDbLine
10
-6.5
20
-8.082178
30
0
11
-6.5
21
8.082178
31
0
39
0
210
0
220
0
230
1
0
LINE
5
CD
100
AcDbEntity
8
SK1
62
256
6
ByLayer
370
18
48
1
60
0
100
AcDbLine
10
-60
20
0
30
0
11
-60
21
-14.996
31
0
39
0
210
0
220
0
230
1
0
LINE
5
CE
100
AcDbEntity
8
SK1
62
256
6
ByLayer
370
18
48
1
60
0
100
AcDbLine
10
-60
20
14.996
30
0
11
-60
21
0
31
0
39
0
210
0
220
0
230
1
0
LINE
5
CF
100
AcDbEntity
8
SK1
62
256
6
ByLayer
370
13
48
1
60
0
100
AcDbLine
10
-58.449692
20
-15.874283
30
0
11
-58.449692
21
0
31
0
39
0
210
0
220
0
230
1
0
LINE
5
D0
100
AcDbEntity
8
SK1
62
256
6
ByLayer
370
13
48
1
60
0
100
AcDbLine
10
-58.449692
20
0
30
0
11
-58.449692
21
15.874283
31
0
39
0
210
0
220
0
230
1
0
LINE
5
D1
100
AcDbEntity
8
SK1
62
256
6
ByLayer
370
18
48
1
60
0
100
AcDbLine
10
-57.3
20
0
30
0
11
-57.3
21
-15.996
31
0
39
0
210
0
220
0
230
1
0
LINE
5
D2
100
AcDbEntity
8
SK1
62
256
6
ByLayer
370
18
48
1
60
0
100
AcDbLine
10
-57.3
20
15.996
30
0
11
-57.3
21
0
31
0
39
0
210
0
220
0
230
1
0
LINE
5
D3
100
AcDbEntity
8
SK1
62
256
6
ByLayer
370
13
48
1
60
0
100
AcDbLine
10
-53.5
20
8.082178
30
0
11
-53.5
21
-8.082178
31
0
39
0
210
0
220
0
230
1
0
LINE
5
D4
100
AcDbEntity
8
SK1
62
256
6
ByLayer
370
13
48
1
60
0
100
AcDbLine
10
-1.144243
20
0
30
0
11
-1.144243
21
-15.783477
31
0
39
0
210
0
220
0
230
1
0
LINE
5
D5
100
AcDbEntity
8
SK1
62
256
6
ByLayer
370
13
48
1
60
0
100
AcDbLine
10
-1.144243
20
15.783477
30
0
11
-1.144243
21
0
31
0
39
0
210
0
220
0
230
1
0
LINE
5
D6
100
AcDbEntity
8
SK1
62
256
6
ByLayer
370
18
48
1
60
0
100
AcDbLine
10
-6.5
20
8.082178
30
0
11
-53.5
21
8.082178
31
0
39
0
210
0
220
0
230
1
0
LINE
5
D7
100
AcDbEntity
8
SK1
62
256
6
ByLayer
370
13
48
1
60
0
100
AcDbLine
10
-0.15
20
0
30
0
11
-0.15
21
-15.746
31
0
39
0
210
0
220
0
230
1
0
LINE
5
D8
100
AcDbEntity
8
SK1
62
256
6
ByLayer
370
13
48
1
60
0
100
AcDbLine
10
-0.15
20
15.746
30
0
11
-0.15
21
0
31
0
39
0
210
0
220
0
230
1
0
LINE
5
D9
100
AcDbEntity
8
SK1
62
256
6
ByLayer
370
18
48
1
60
0
100
AcDbLine
10
-59
20
0
30
0
11
-59
21
-15.996
31
0
39
0
210
0
220
0
230
1
0
LINE
5
DA
100
AcDbEntity
8
SK1
62
256
6
ByLayer
370
18
48
1
60
0
100
AcDbLine
10
-59
20
15.996
30
0
11
-59
21
0
31
0
39
0
210
0
220
0
230
1
0
LINE
5
DB
100
AcDbEntity
8
SK1
62
256
6
ByLayer
370
18
48
1
60
0
100
AcDbLine
10
-1.6
20
-15.996
30
0
11
-1.6
21
0
31
0
39
0
210
0
220
0
230
1
0
LINE
5
DC
100
AcDbEntity
8
SK1
62
256
6
ByLayer
370
18
48
1
60
0
100
AcDbLine
10
-1.6
20
0
30
0
11
-1.6
21
15.996
31
0
39
0
210
0
220
0
230
1
0
LINE
5
DD
100
AcDbEntity
8
SK1
62
256
6
ByLayer
370
13
48
1
60
0
100
AcDbLine
10
-57.426311
20
-15.887988
30
0
11
-57.426311
21
0
31
0
39
0
210
0
220
0
230
1
0
LINE
5
DE
100
AcDbEntity
8
SK1
62
256
6
ByLayer
370
13
48
1
60
0
100
AcDbLine
10
-57.426311
20
0
30
0
11
-57.426311
21
15.887988
31
0
39
0
210
0
220
0
230
1
0
LINE
5
DF
100
AcDbEntity
8
SK1
62
256
6
ByLayer
370
18
48
1
60
0
100
AcDbLine
10
-53.5
20
-8.082178
30
0
11
-6.5
21
-8.082178
31
0
39
0
210
0
220
0
230
1
0
LINE
5
E0
100
AcDbEntity
8
SK1
62
256
6
ByLayer
370
18
48
1
60
0
100
AcDbLine
10
-58.6
20
-15.996
30
0
11
-58.6
21
15.996
31
0
39
0
210
0
220
0
230
1
0
MTEXT
5
197
100
AcDbEntity
8
SK6
62
256
6
ByLayer
370
13
48
1
60
0
100
AcDbMText
10
66.607737
20
34.375134
30
0
210
0
220
0
230
1
1
\W0.7501;870-2400-24L32-8
40
3.5
41
0
44
1.084337
50
0
71
7
72
5
7
iso_b_vert
0
DIMENSION
5
1A5
100
AcDbEntity
8
2
62
256
6
ByLayer
370
13
48
1
60
0
100
AcDbDimension
2
DimnDraft3D1
10
26
20
-25
30
0
11
129.5
21
-25
31
0
70
32
71
5
72
1
41
1
210
0
220
0
230
1
3
Standard
100
AcDbAlignedDimension
13
233
23
-1.5875
33
0
14
26
24
-13.5875
34
0
50
0
100
AcDbRotatedDimension
1001
ACAD
1000
DSTYLE
1002
{
1070
   279
1070
     0
1070
   172
1070
     1
1070
   173
1070
     1
1070
   340
1005
198
1070
   271
1070
     1
1070
   272
1070
     2
1070
    77
1070
     1
1070
    73
1070
     0
1070
   171
1070
     3
1070
   274
1070
     4
1070
   177
1070
     7
1070
   176
1070
     7
1070
   178
1070
     7
1070
    48
1040
-0.005
1070
    41
1041
3.5
1070
   147
1041
1.5
1070
    42
1041
1.5875
1070
    44
1041
2.0
1070
   140
1041
3.0
1070
   343
1005
0
1070
   344
1005
0
1002
}
0
DIMENSION
5
1AF
100
AcDbEntity
8
2
62
256
6
ByLayer
370
13
48
1
60
0
100
AcDbDimension
2
DimnDraft3D2
10
28.9
20
19
30
0
11
130.95
21
19
31
0
70
32
71
5
72
1
41
1
210
0
220
0
230
1
3
Standard
100
AcDbAlignedDimension
13
233
23
1.5875
33
0
14
28.9
24
13.5875
34
0
50
0
100
AcDbRotatedDimension
1001
ACAD
1000
DSTYLE
1002
{
1070
   279
1070
     0
1070
   172
1070
     1
1070
   173
1070
     1
1070
   340
1005
198
1070
   271
1070
     1
1070
   272
1070
     2
1070
    77
1070
     1
1070
    73
1070
     0
1070
   171
1070
     3
1070
   274
1070
     4
1070
   177
1070
     7
1070
   176
1070
     7
1070
   178
1070
     7
1070
    48
1040
-0.005
1070
    41
1041
3.5
1070
   147
1041
1.5
1070
    42
1041
1.5875
1070
    44
1041
2.0
1070
   140
1041
3.0
1070
   343
1005
0
1070
   344
1005
0
1002
}
0
DIMENSION
5
1BA
100
AcDbEntity
8
SK2
62
256
6
ByLayer
370
13
48
1
60
0
100
AcDbDimension
2
DimnDraft3D3
10
0
20
-39
30
0
11
-30
21
-39
31
0
70
32
71
5
72
1
41
1
210
0
220
0
230
1
3
Standard
100
AcDbAlignedDimension
13
-60
23
-17.5875
33
0
14
0
24
-21.5875
34
0
50
0
100
AcDbRotatedDimension
1001
ACAD
1000
DSTYLE
1002
{
1070
   279
1070
     0
1070
   172
1070
     1
1070
   173
1070
     1
1070
   340
1005
198
1070
   271
1070
     1
1070
   272
1070
     2
1070
    77
1070
     1
1070
    73
1070
     0
1070
   171
1070
     3
1070
   274
1070
     4
1070
   177
1070
     7
1070
   176
1070
     7
1070
   178
1070
     7
1070
    48
1040
-0.005
1070
    41
1041
3.5
1070
   147
1041
1.5
1070
    42
1041
1.5875
1070
    44
1041
2.0
1070
   140
1041
3.0
1070
   343
1005
0
1070
   344
1005
0
1002
}
0
DIMENSION
5
1C4
100
AcDbEntity
8
2
62
256
6
ByLayer
370
13
48
1
60
0
100
AcDbDimension
2
DimnDraft3D4
10
233
20
-39
30
0
11
116.5
21
-39
31
0
70
32
71
5
72
1
41
1
210
0
220
0
230
1
3
Standard
100
AcDbAlignedDimension
13
0
23
-21.5875
33
0
14
233
24
-1.5875
34
0
50
0
100
AcDbRotatedDimension
1001
ACAD
1000
DSTYLE
1002
{
1070
   279
1070
     0
1070
   172
1070
     1
1070
   173
1070
     1
1070
   340
1005
198
1070
   271
1070
     1
1070
   272
1070
     2
1070
    77
1070
     1
1070
    73
1070
     0
1070
   171
1070
     3
1070
   274
1070
     4
1070
   177
1070
     7
1070
   176
1070
     7
1070
   178
1070
     7
1070
    48
1040
-0.005
1070
    41
1041
3.5
1070
   147
1041
1.5
1070
    42
1041
1.5875
1070
    44
1041
2.0
1070
   140
1041
3.0
1070
   343
1005
0
1070
   344
1005
0
1002
}
0
DIMENSION
5
1CF
100
AcDbEntity
8
SK2
62
256
6
ByLayer
370
13
48
1
60
0
100
AcDbDimension
2
DimnDraft3D5
10
-68.25
20
-16
30
0
11
-68.5
21
-0.520456
31
0
70
33
71
5
72
1
41
1
210
0
220
0
230
1
3
Standard
100
AcDbAlignedDimension
13
-61.5875
23
16
33
0
14
-61.5875
24
-16
34
0
1001
ACAD
1000
DSTYLE
1002
{
1070
   279
1070
     0
1070
    74
1070
     0
1070
   173
1070
     1
1070
   340
1005
198
1070
   271
1070
     1
1070
   272
1070
     2
1070
    77
1070
     1
1070
    73
1070
     0
1070
   171
1070
     3
1070
   274
1070
     4
1070
   177
1070
     7
1070
   176
1070
     7
1070
   178
1070
     7
1070
    48
1040
-0.005
1070
    41
1041
3.5
1070
   147
1041
1.5
1070
    42
1041
1.5875
1070
    44
1041
2.0
1070
   140
1041
3.0
1070
   343
1005
0
1070
   344
1005
0
1002
}
0
ENDSEC
0
SECTION
2
OBJECTS
0
DICTIONARY
5
23a
330
0
100
AcDbDictionary
280
0
281
1
3
ACAD_GROUP
350
23b
3
ACAD_MLINESTYLE
350
23c
0
DICTIONARY
5
23b
330
0
100
AcDbDictionary
280
0
281
1
0
DICTIONARY
5
23c
330
0
100
AcDbDictionary
280
0
281
1
3
Standard
350
18
0
MLINESTYLE
5
18
330
23c
100
AcDbMlineStyle
2
Standard
70
0
3

62
256
51
90
52
90
71
2
49
-0.5
62
256
6
ByLayer
49
0.5
62
256
6
ByLayer
0
RASTERVARIABLES
5
228
330

100
AcDbRasterVariables
90
0
70
1
71
1
72
1
0
ENDSEC
0
EOF
