0
SECTION
2
HEADER
9
$ACADVER
1
AC1015
9
$DWGCODEPAGE
3
ANSI_1252
9
$HANDSEED
5
238
9
$ANGBASE
50
0
9
$ANGDIR
70
0
9
$ATTMODE
70
1
9
$AUNITS
70
0
9
$AUPREC
70
0
9
$CECOLOR
62
256
9
$CELTSCALE
40
1
9
$CELTYPE
6
ByLayer
9
$CELWEIGHT
370
18
9
$CLAYER
8
0
9
$CMLJUST
70
0
9
$CMLSCALE
40
1
9
$CMLSTYLE
2
Standard
9
$DIMSTYLE
2
Standard
9
$TEXTSIZE
40
0.2
9
$TEXTSTYLE
7
Standard
9
$LUNITS
70
2
9
$LUPREC
70
4
9
$EXTNAMES
290
1
9
$INSUNITS
70
4
9
$LTSCALE
40
1
9
$LWDISPLAY
290
1
9
$PDMODE
70
0
9
$PDSIZE
40
0
9
$PLINEGEN
70
0
0
ENDSEC
0
SECTION
2
CLASSES
0
CLASS
1
RASTERVARIABLES
2
AcDbRasterVariables
3
ISM
90
0
280
0
281
0
0
ENDSEC
0
SECTION
2
TABLES
0
TABLE
2
VPORT
5
22e
100
AcDbSymbolTable
0
VPORT
5
1
100
AcDbSymbolTableRecord
100
AcDbViewportTableRecord
2
*Active
70
0
10
0
20
0
11
1
21
1
12
-1
22
1
13
0
23
0
14
0.5
24
0.5
15
10
25
10
16
0
26
0
36
1
17
0
27
0
37
0
0
ENDTAB
0
TABLE
2
LTYPE
5
22f
100
AcDbSymbolTable
0
LTYPE
5
14
100
AcDbSymbolTableRecord
100
AcDbLinetypeTableRecord
70
0
2
ByBlock
3

72
65
73
0
40
0
0
LTYPE
5
15
100
AcDbSymbolTableRecord
100
AcDbLinetypeTableRecord
70
0
2
ByLayer
3

72
65
73
0
40
0
0
LTYPE
5
16
100
AcDbSymbolTableRecord
100
AcDbLinetypeTableRecord
70
0
2
CONTINUOUS
3
Solid line
72
65
73
0
40
0
0
LTYPE
5
6A
100
AcDbSymbolTableRecord
100
AcDbLinetypeTableRecord
70
0
2
CENTER
3
____ _ ____ _ ____ _ ____
72
65
73
4
40
47.5
49
22
74
0
49
-8.5
74
0
49
8.5
74
0
49
-8.5
74
0
0
LTYPE
5
6B
100
AcDbSymbolTableRecord
100
AcDbLinetypeTableRecord
70
0
2
DASHED
3
__ __ __ __ __ __ __ __ __
72
65
73
2
40
25.72
49
12.86
74
0
49
-12.86
74
0
0
ENDTAB
0
TABLE
2
LAYER
5
230
100
AcDbSymbolTable
0
LAYER
5
10
100
AcDbSymbolTableRecord
100
AcDbLayerTableRecord
2
0
70
0
62
7
6
CONTINUOUS
290
1
370
-3
390
0
0
LAYER
5
6D
100
AcDbSymbolTableRecord
100
AcDbLayerTableRecord
2
80
70
0
62
-6
6
CONTINUOUS
290
1
370
-3
390
0
0
LAYER
5
6F
100
AcDbSymbolTableRecord
100
AcDbLayerTableRecord
2
81
70
0
62
-3
6
CONTINUOUS
290
1
370
-3
390
0
0
LAYER
5
72
100
AcDbSymbolTableRecord
100
AcDbLayerTableRecord
2
1
70
0
62
4
6
CONTINUOUS
290
1
370
-3
390
0
0
LAYER
5
90
100
AcDbSymbolTableRecord
100
AcDbLayerTableRecord
2
4
70
0
62
-2
6
CENTER
290
1
370
-3
390
0
0
LAYER
5
18E
100
AcDbSymbolTableRecord
100
AcDbLayerTableRecord
2
2
70
0
62
7
6
CONTINUOUS
290
1
370
-3
390
0
0
LAYER
5
21a
100
AcDbSymbolTableRecord
100
AcDbLayerTableRecord
2
SK1
70
0
62
4
6
CONTINUOUS
290
1
370
-3
390
0
0
LAYER
5
21b
100
AcDbSymbolTableRecord
100
AcDbLayerTableRecord
2
SK4
70
0
62
2
6
CENTER
290
1
370
-3
390
0
0
LAYER
5
21c
100
AcDbSymbolTableRecord
100
AcDbLayerTableRecord
2
SK6
70
0
62
5
6
CONTINUOUS
290
1
370
-3
390
0
0
LAYER
5
21d
100
AcDbSymbolTableRecord
100
AcDbLayerTableRecord
2
SK2
70
0
62
7
6
CONTINUOUS
290
1
370
-3
390
0
0
ENDTAB
0
TABLE
2
STYLE
5
231
100
AcDbSymbolTable
0
STYLE
5
11
100
AcDbSymbolTableRecord
100
AcDbTextStyleTableRecord
2
Standard
3
txt
70
0
71
0
40
0
41
1
42
0
50
0
0
STYLE
5
189
100
AcDbSymbolTableRecord
100
AcDbTextStyleTableRecord
2
iso_b_vert
3
simplex.shx
70
0
71
0
40
0
41
1
42
0
50
0
0
STYLE
5
18A
100
AcDbSymbolTableRecord
100
AcDbTextStyleTableRecord
2
DWGDirectTextStyle
3
simplex
70
0
71
0
40
0
41
1
42
0
50
0
0
ENDTAB
0
TABLE
2
DIMSTYLE
5
232
100
AcDbSymbolTable
100
AcDbDimStyleTable
0
DIMSTYLE
105
27
100
AcDbSymbolTableRecord
100
AcDbDimStyleTableRecord
2
Standard
70
0
3
<>
41
0.18
42
0.0625
44
0.18
140
0.18
147
0.09
73
0
74
0
77
1
271
2
275
0
278
52
280
0
340
11
0
ENDTAB
0
TABLE
2
VIEW
5
233
100
AcDbSymbolTable
0
ENDTAB
0
TABLE
2
UCS
5
234
100
AcDbSymbolTable
0
ENDTAB
0
TABLE
2
APPID
5
235
100
AcDbSymbolTable
0
APPID
5
12
100
AcDbSymbolTableRecord
100
AcDbRegAppTableRecord
2
ACAD
70
0
0
ENDTAB
0
TABLE
2
BLOCK_RECORD
5
236
100
AcDbSymbolTable
0
BLOCK_RECORD
5
1F
100
AcDbSymbolTableRecord
100
AcDbBlockTableRecord
2
*Model_Space
340
0
70
0
0
BLOCK_RECORD
5
1B
100
AcDbSymbolTableRecord
100
AcDbBlockTableRecord
2
*Paper_Space
340
0
70
0
0
BLOCK_RECORD
5
23
100
AcDbSymbolTableRecord
100
AcDbBlockTableRecord
2
*Paper_Space0
340
0
70
0
0
BLOCK_RECORD
5
18C
100
AcDbSymbolTableRecord
100
AcDbBlockTableRecord
2
DimnDraft3D1
340
0
70
0
0
BLOCK_RECORD
5
197
100
AcDbSymbolTableRecord
100
AcDbBlockTableRecord
2
DimnDraft3D2
340
0
70
0
0
BLOCK_RECORD
5
1A1
100
AcDbSymbolTableRecord
100
AcDbBlockTableRecord
2
DimnDraft3D3
340
0
70
0
0
BLOCK_RECORD
5
1AC
100
AcDbSymbolTableRecord
100
AcDbBlockTableRecord
2
DimnDraft3D4
340
0
70
0
0
BLOCK_RECORD
5
1B6
100
AcDbSymbolTableRecord
100
AcDbBlockTableRecord
2
DimnDraft3D5
340
0
70
0
0
ENDTAB
0
ENDSEC
0
SECTION
2
BLOCKS
0
BLOCK
5
20
100
AcDbEntity
8
0
100
AcDbBlockBegin
2
*Model_Space
70
0
10
0
20
0
30
0
3
*Model_Space
0
ENDBLK
5
21
100
AcDbEntity
8
0
100
AcDbBlockEnd
0
BLOCK
5
1C
100
AcDbEntity
8
0
100
AcDbBlockBegin
2
*Paper_Space
70
0
10
0
20
0
30
0
3
*Paper_Space
0
ENDBLK
5
1D
100
AcDbEntity
8
0
100
AcDbBlockEnd
0
BLOCK
5
24
100
AcDbEntity
8
0
100
AcDbBlockBegin
2
*Paper_Space0
70
0
10
0
20
0
30
0
3
*Paper_Space0
0
ENDBLK
5
25
100
AcDbEntity
8
0
100
AcDbBlockEnd
0
BLOCK
5
194
100
AcDbEntity
8
0
100
AcDbBlockBegin
2
DimnDraft3D1
70
0
10
0
20
0
30
0
3
DimnDraft3D1
0
MTEXT
5
18D
100
AcDbEntity
8
2
62
256
6
ByLayer
370
13
48
1
60
0
100
AcDbMText
10
89.483572
20
-24.249886
30
0
210
0
220
0
230
1
1
\W0.6864;132.0
40
3
41
0
44
1.084337
50
0
71
7
72
5
7
iso_b_vert
0
LINE
5
18F
100
AcDbEntity
8
2
62
256
6
ByLayer
370
13
48
1
60
0
100
AcDbLine
10
159
20
-1.5875
30
0
11
159
21
-27
31
0
39
0
210
0
220
0
230
1
0
LINE
5
190
100
AcDbEntity
8
2
62
256
6
ByLayer
370
13
48
1
60
0
100
AcDbLine
10
27
20
-13.5875
30
0
11
27
21
-27
31
0
39
0
210
0
220
0
230
1
0
LINE
5
191
100
AcDbEntity
8
2
62
256
6
ByLayer
370
13
48
1
60
0
100
AcDbLine
10
159
20
-25
30
0
11
27
21
-25
31
0
39
0
210
0
220
0
230
1
0
SOLID
5
192
100
AcDbEntity
8
2
62
256
6
ByLayer
370
13
48
1
60
0
100
AcDbTrace
10
159
20
-25
30
0
11
155.500002
21
-25.460784
31
0
12
155.499998
22
-24.539216
32
0
13
159
23
-25
33
0
39
0
210
0
220
0
230
1
0
SOLID
5
193
100
AcDbEntity
8
2
62
256
6
ByLayer
370
13
48
1
60
0
100
AcDbTrace
10
27
20
-25
30
0
11
30.499998
21
-24.539216
31
0
12
30.500002
22
-25.460784
32
0
13
27
23
-25
33
0
39
0
210
0
220
0
230
1
0
ENDBLK
5
195
100
AcDbEntity
8
0
100
AcDbBlockEnd
0
BLOCK
5
19E
100
AcDbEntity
8
0
100
AcDbBlockBegin
2
DimnDraft3D2
70
0
10
0
20
0
30
0
3
DimnDraft3D2
0
MTEXT
5
198
100
AcDbEntity
8
2
62
256
6
ByLayer
370
13
48
1
60
0
100
AcDbMText
10
90.883572
20
19.750114
30
0
210
0
220
0
230
1
1
\W0.6864;129.2
40
3
41
0
44
1.084337
50
0
71
7
72
5
7
iso_b_vert
0
LINE
5
199
100
AcDbEntity
8
2
62
256
6
ByLayer
370
13
48
1
60
0
100
AcDbLine
10
159
20
1.5875
30
0
11
159
21
21
31
0
39
0
210
0
220
0
230
1
0
LINE
5
19A
100
AcDbEntity
8
2
62
256
6
ByLayer
370
13
48
1
60
0
100
AcDbLine
10
29.8
20
13.5875
30
0
11
29.8
21
21
31
0
39
0
210
0
220
0
230
1
0
LINE
5
19B
100
AcDbEntity
8
2
62
256
6
ByLayer
370
13
48
1
60
0
100
AcDbLine
10
159
20
19
30
0
11
29.8
21
19
31
0
39
0
210
0
220
0
230
1
0
SOLID
5
19C
100
AcDbEntity
8
2
62
256
6
ByLayer
370
13
48
1
60
0
100
AcDbTrace
10
159
20
19
30
0
11
155.500002
21
18.539216
31
0
12
155.499998
22
19.460784
32
0
13
159
23
19
33
0
39
0
210
0
220
0
230
1
0
SOLID
5
19D
100
AcDbEntity
8
2
62
256
6
ByLayer
370
13
48
1
60
0
100
AcDbTrace
10
29.8
20
19
30
0
11
33.299998
21
19.460784
31
0
12
33.300002
22
18.539216
32
0
13
29.8
23
19
33
0
39
0
210
0
220
0
230
1
0
ENDBLK
5
19F
100
AcDbEntity
8
0
100
AcDbBlockEnd
0
BLOCK
5
1A9
100
AcDbEntity
8
0
100
AcDbBlockBegin
2
DimnDraft3D3
70
0
10
0
20
0
30
0
3
DimnDraft3D3
0
MTEXT
5
1A2
100
AcDbEntity
8
SK2
62
256
6
ByLayer
370
13
48
1
60
0
100
AcDbMText
10
-32.770456
20
-38.249886
30
0
210
0
220
0
230
1
1
\W0.7346;60.0
40
3
41
0
44
1.084337
50
0
71
7
72
5
7
iso_b_vert
0
LINE
5
1A4
100
AcDbEntity
8
SK2
62
256
6
ByLayer
370
13
48
1
60
0
100
AcDbLine
10
-60
20
-17.5875
30
0
11
-60
21
-41
31
0
39
0
210
0
220
0
230
1
0
LINE
5
1A5
100
AcDbEntity
8
SK2
62
256
6
ByLayer
370
13
48
1
60
0
100
AcDbLine
10
0
20
-21.5875
30
0
11
0
21
-41
31
0
39
0
210
0
220
0
230
1
0
LINE
5
1A6
100
AcDbEntity
8
SK2
62
256
6
ByLayer
370
13
48
1
60
0
100
AcDbLine
10
-60
20
-39
30
0
11
0
21
-39
31
0
39
0
210
0
220
0
230
1
0
SOLID
5
1A7
100
AcDbEntity
8
SK2
62
256
6
ByLayer
370
13
48
1
60
0
100
AcDbTrace
10
-60
20
-39
30
0
11
-56.500002
21
-38.539216
31
0
12
-56.499998
22
-39.460784
32
0
13
-60
23
-39
33
0
39
0
210
0
220
0
230
1
0
SOLID
5
1A8
100
AcDbEntity
8
SK2
62
256
6
ByLayer
370
13
48
1
60
0
100
AcDbTrace
10
0
20
-39
30
0
11
-3.499998
21
-39.460784
31
0
12
-3.500002
22
-38.539216
32
0
13
0
23
-39
33
0
39
0
210
0
220
0
230
1
0
ENDBLK
5
1AA
100
AcDbEntity
8
0
100
AcDbBlockEnd
0
BLOCK
5
1B3
100
AcDbEntity
8
0
100
AcDbBlockBegin
2
DimnDraft3D4
70
0
10
0
20
0
30
0
3
DimnDraft3D4
0
MTEXT
5
1AD
100
AcDbEntity
8
2
62
256
6
ByLayer
370
13
48
1
60
0
100
AcDbMText
10
75.983572
20
-38.249886
30
0
210
0
220
0
230
1
1
\W0.6864;159.0
40
3
41
0
44
1.084337
50
0
71
7
72
5
7
iso_b_vert
0
LINE
5
1AE
100
AcDbEntity
8
2
62
256
6
ByLayer
370
13
48
1
60
0
100
AcDbLine
10
0
20
-21.5875
30
0
11
0
21
-41
31
0
39
0
210
0
220
0
230
1
0
LINE
5
1AF
100
AcDbEntity
8
2
62
256
6
ByLayer
370
13
48
1
60
0
100
AcDbLine
10
159
20
-1.5875
30
0
11
159
21
-41
31
0
39
0
210
0
220
0
230
1
0
LINE
5
1B0
100
AcDbEntity
8
2
62
256
6
ByLayer
370
13
48
1
60
0
100
AcDbLine
10
0
20
-39
30
0
11
159
21
-39
31
0
39
0
210
0
220
0
230
1
0
SOLID
5
1B1
100
AcDbEntity
8
2
62
256
6
ByLayer
370
13
48
1
60
0
100
AcDbTrace
10
0
20
-39
30
0
11
3.499998
21
-38.539216
31
0
12
3.500002
22
-39.460784
32
0
13
0
23
-39
33
0
39
0
210
0
220
0
230
1
0
SOLID
5
1B2
100
AcDbEntity
8
2
62
256
6
ByLayer
370
13
48
1
60
0
100
AcDbTrace
10
159
20
-39
30
0
11
155.500002
21
-39.460784
31
0
12
155.499998
22
-38.539216
32
0
13
159
23
-39
33
0
39
0
210
0
220
0
230
1
0
ENDBLK
5
1B4
100
AcDbEntity
8
0
100
AcDbBlockEnd
0
BLOCK
5
1BE
100
AcDbEntity
8
0
100
AcDbBlockBegin
2
DimnDraft3D5
70
0
10
0
20
0
30
0
3
DimnDraft3D5
0
MTEXT
5
1B7
100
AcDbEntity
8
SK2
62
256
6
ByLayer
370
13
48
1
60
0
100
AcDbMText
10
-67.750114
20
0.229544
30
0
210
0
220
0
230
1
1
\W0.7346;32.0
40
3
41
0
44
1.084337
50
90
71
7
72
5
7
iso_b_vert
0
MTEXT
5
1B8
100
AcDbEntity
8
SK2
62
256
6
ByLayer
370
13
48
1
60
0
100
AcDbMText
10
-67.750114
20
-4.247019
30
0
210
0
220
0
230
1
1
%%c
40
3
41
0
44
1.084337
50
90
71
7
72
5
7
iso_b_vert
0
LINE
5
1B9
100
AcDbEntity
8
SK2
62
256
6
ByLayer
370
13
48
1
60
0
100
AcDbLine
10
-61.5875
20
16
30
0
11
-68.25
21
16
31
0
39
0
210
0
220
0
230
1
0
LINE
5
1BA
100
AcDbEntity
8
SK2
62
256
6
ByLayer
370
13
48
1
60
0
100
AcDbLine
10
-61.5875
20
-16
30
0
11
-68.25
21
-16
31
0
39
0
210
0
220
0
230
1
0
LINE
5
1BB
100
AcDbEntity
8
SK2
62
256
6
ByLayer
370
13
48
1
60
0
100
AcDbLine
10
-66.25
20
16
30
0
11
-66.25
21
-16
31
0
39
0
210
0
220
0
230
1
0
SOLID
5
1BC
100
AcDbEntity
8
SK2
62
256
6
ByLayer
370
13
48
1
60
0
100
AcDbTrace
10
-66.25
20
16
30
0
11
-65.789216
21
12.500002
31
0
12
-66.710784
22
12.499998
32
0
13
-66.25
23
16
33
0
39
0
210
0
220
0
230
1
0
SOLID
5
1BD
100
AcDbEntity
8
SK2
62
256
6
ByLayer
370
13
48
1
60
0
100
AcDbTrace
10
-66.25
20
-16
30
0
11
-66.710784
21
-12.500002
31
0
12
-65.789216
22
-12.499998
32
0
13
-66.25
23
-16
33
0
39
0
210
0
220
0
230
1
0
ENDBLK
5
1BF
100
AcDbEntity
8
0
100
AcDbBlockEnd
0
ENDSEC
0
SECTION
2
ENTITIES
0
ARC
5
DE
100
AcDbEntity
8
SK1
62
256
6
ByLayer
370
18
48
1
60
0
100
AcDbCircle
39
0
10
57.946236
20
-16.496
30
0
40
0.800000000000005
210
0
220
0
230
-1
100
AcDbArc
50
51
51
130.534532
0
ARC
5
DF
100
AcDbEntity
8
SK1
62
256
6
ByLayer
370
18
48
1
60
0
100
AcDbCircle
39
0
10
57.946236
20
16.496
30
0
40
0.800000000000005
210
0
220
0
230
-1
100
AcDbArc
50
229.465468
51
309
0
ARC
5
E0
100
AcDbEntity
8
SK1
62
256
6
ByLayer
370
18
48
1
60
0
100
AcDbCircle
39
0
10
0.975195
20
16.146
30
0
40
0.4
210
0
220
0
230
-1
100
AcDbArc
50
270
51
295
0
ARC
5
E1
100
AcDbEntity
8
SK1
62
256
6
ByLayer
370
18
48
1
60
0
100
AcDbCircle
39
0
10
0.975195
20
-16.146
30
0
40
0.4
210
0
220
0
230
-1
100
AcDbArc
50
65
51
90
0
ARC
5
E2
100
AcDbEntity
8
1
62
256
6
ByLayer
370
18
48
1
60
0
100
AcDbCircle
39
0
10
-27
20
-19.55
30
0
40
7.99999999999999
210
0
220
0
230
-1
100
AcDbArc
50
62.349472
51
90
0
ARC
5
E3
100
AcDbEntity
8
1
62
256
6
ByLayer
370
18
48
1
60
0
100
AcDbCircle
39
0
10
-27
20
19.55
30
0
40
7.99999999999999
210
0
220
0
230
-1
100
AcDbArc
50
270
51
297.650528
0
ARC
5
E4
100
AcDbEntity
8
SK1
62
256
6
ByLayer
370
18
48
1
60
0
100
AcDbCircle
39
0
10
0.15
20
16.146
30
0
40
0.4
210
0
220
0
230
-1
100
AcDbArc
50
247.975687
51
270
0
ARC
5
E5
100
AcDbEntity
8
SK1
62
256
6
ByLayer
370
18
48
1
60
0
100
AcDbCircle
39
0
10
0.15
20
-16.146
30
0
40
0.4
210
0
220
0
230
-1
100
AcDbArc
50
90
51
112.024313
0
ELLIPSE
5
E6
100
AcDbEntity
8
1
62
256
6
ByLayer
370
18
48
1
60
0
100
AcDbEllipse
10
138.75
20
-5.297474
30
0
11
1.65000000000001
21
0
31
0
210
0
220
0
230
1
40
0.702153
41
-1.86031362365719
42
-1.16229128198507
0
ELLIPSE
5
E7
100
AcDbEntity
8
1
62
256
6
ByLayer
370
18
48
1
60
0
100
AcDbEllipse
10
158.95225
20
-0.250645
30
0
11
0.0446240258151543
21
0.146773164414668
31
0
210
0
220
0
230
1
40
0.05855
41
1.74905825654178
42
2.43183944708167
0
ELLIPSE
5
E8
100
AcDbEntity
8
1
62
256
6
ByLayer
370
18
48
1
60
0
100
AcDbEllipse
10
140.915
20
0
30
0
11
-2.15988415494449E-15
21
-11.7582500324986
31
0
210
0
220
0
230
1
40
1
41
0.277888565828822
42
0.360226362266554
0
ELLIPSE
5
E9
100
AcDbEntity
8
1
62
256
6
ByLayer
370
18
48
1
60
0
100
AcDbEllipse
10
26.223718
20
-3.243931
30
0
11
2.99936421018539
21
14.1927362197052
31
0
210
0
220
0
230
1
40
0.004398
41
-1.82493389998373
42
-1.77601085367103
0
ELLIPSE
5
EA
100
AcDbEntity
8
1
62
256
6
ByLayer
370
18
48
1
60
0
100
AcDbEllipse
10
138.96
20
-5.297474
30
0
11
-2.53000000000001
21
3.09825407517063E-16
31
0
210
0
220
0
230
1
40
0.702153
41
0.943754016511156
42
2.194696972499
0
ELLIPSE
5
EB
100
AcDbEntity
8
1
62
256
6
ByLayer
370
18
48
1
60
0
100
AcDbEllipse
10
27.939858
20
5.074897
30
0
11
2.99909951140002
21
16.0722196015267
31
0
210
0
220
0
230
1
40
0.004567
41
-1.39131766849845
42
-1.37065820358486
0
ELLIPSE
5
EC
100
AcDbEntity
8
1
62
256
6
ByLayer
370
18
48
1
60
0
100
AcDbEllipse
10
159.005664
20
0
30
0
11
4.75485834061785
21
11.6400752371272
31
0
210
0
220
0
230
1
40
0.349717
41
2.91977206755283
42
-2.98233986733513
0
ELLIPSE
5
ED
100
AcDbEntity
8
1
62
256
6
ByLayer
370
18
48
1
60
0
100
AcDbEllipse
10
159.005308
20
0
30
0
11
4.09292885197634
21
11.754002918626
31
0
210
0
220
0
230
1
40
0.077207
41
-3.09735766673259
42
-2.892486500469
0
ELLIPSE
5
EE
100
AcDbEntity
8
1
62
256
6
ByLayer
370
18
48
1
60
0
100
AcDbEllipse
10
158.95225
20
0.250645
30
0
11
0.044624026062264
21
-0.146773165118143
31
0
210
0
220
0
230
1
40
0.05855
41
-2.43183944750127
42
-1.74905825969153
0
ELLIPSE
5
EF
100
AcDbEntity
8
1
62
256
6
ByLayer
370
13
48
1
60
0
100
AcDbEllipse
10
155.631172
20
4.100596
30
0
11
-0.0927699273740774
21
-0.0204631516391879
31
0
210
0
220
0
230
1
40
0.128734
41
-1.68851840488268
42
-1.40179130299954
0
ELLIPSE
5
F0
100
AcDbEntity
8
1
62
256
6
ByLayer
370
18
48
1
60
0
100
AcDbEllipse
10
159.010657
20
-0.014553
30
0
11
4.18437315417103
21
-12.016610127397
31
0
210
0
220
0
230
1
40
0.077207
41
2.79654588219393
42
2.89464408920341
0
ELLIPSE
5
F1
100
AcDbEntity
8
1
62
256
6
ByLayer
370
13
48
1
60
0
100
AcDbEllipse
10
155.631843
20
4.097543
30
0
11
-0.0928044733932099
21
-0.0203059035309684
31
0
210
0
220
0
230
1
40
0.128931
41
-1.68830007078968
42
-1.4015717853856
0
ELLIPSE
5
F2
100
AcDbEntity
8
1
62
256
6
ByLayer
370
18
48
1
60
0
100
AcDbEllipse
10
134.63342
20
-85.428029
30
0
11
79.6808005020684
21
0.832365703862904
31
0
210
0
220
0
230
1
40
0.936703
41
1.44141670930709
42
1.44319356550524
0
ELLIPSE
5
F3
100
AcDbEntity
8
1
62
256
6
ByLayer
370
13
48
1
60
0
100
AcDbEllipse
10
157.716631
20
1.114269
30
0
11
-0.0544235218676428
21
-0.0778657836762862
31
0
210
0
220
0
230
1
40
0.550074
41
-2.35740612069716
42
-1.67462492420277
0
ELLIPSE
5
F4
100
AcDbEntity
8
1
62
256
6
ByLayer
370
18
48
1
60
0
100
AcDbEllipse
10
159.005664
20
0
30
0
11
4.75485834070098
21
-11.6400752373184
31
0
210
0
220
0
230
1
40
0.349717
41
2.98233986733633
42
2.9996965265975
0
ELLIPSE
5
F5
100
AcDbEntity
8
1
62
256
6
ByLayer
370
18
48
1
60
0
100
AcDbEllipse
10
159.010657
20
0.014553
30
0
11
4.18437313760759
21
12.0166100761231
31
0
210
0
220
0
230
1
40
0.077207
41
-2.89464408868719
42
-2.7965458814608
0
ELLIPSE
5
F6
100
AcDbEntity
8
1
62
256
6
ByLayer
370
13
48
1
60
0
100
AcDbEllipse
10
157.693823
20
1.130335
30
0
11
-0.0549936374731504
21
-0.0774641842238832
31
0
210
0
220
0
230
1
40
0.550597
41
-2.34971761043265
42
-1.6706057725194
0
ELLIPSE
5
F7
100
AcDbEntity
8
1
62
256
6
ByLayer
370
18
48
1
60
0
100
AcDbEllipse
10
27.1
20
1.177179
30
0
11
-1.58765814233932
21
-7.84087633004523
31
0
210
0
220
0
230
1
40
0.01942
41
2.61223789390209
42
2.61255170962247
0
ELLIPSE
5
F8
100
AcDbEntity
8
1
62
256
6
ByLayer
370
18
48
1
60
0
100
AcDbEllipse
10
131.362605
20
10.420325
30
0
11
2.75646090027024
21
9.38218593565537
31
0
210
0
220
0
230
1
40
0.126199
41
-1.62911728207146
42
-1.57038143208442
0
ELLIPSE
5
F9
100
AcDbEntity
8
1
62
256
6
ByLayer
370
13
48
1
60
0
100
AcDbEllipse
10
27.1
20
1.177179
30
0
11
0.775595468161062
21
7.96231446689768
31
0
210
0
220
0
230
1
40
0.703744
41
0.602400122312409
42
2.74674166009961
0
ELLIPSE
5
FA
100
AcDbEntity
8
1
62
256
6
ByLayer
370
13
48
1
60
0
100
AcDbEllipse
10
129.9
20
11.987149
30
0
11
-0.369390885025032
21
-7.99146734799439
31
0
210
0
220
0
230
1
40
0.339251
41
0.912261456613211
42
1.27247482459967
0
ELLIPSE
5
FB
100
AcDbEntity
8
1
62
256
6
ByLayer
370
18
48
1
60
0
100
AcDbEllipse
10
168.429297
20
0
30
0
11
15.9335509652307
21
10.8005315518173
31
0
210
0
220
0
230
1
40
0.290406
41
2.93771630992257
42
-3.11138890733933
0
ELLIPSE
5
FC
100
AcDbEntity
8
1
62
256
6
ByLayer
370
18
48
1
60
0
100
AcDbEllipse
10
150.691849
20
-1.630749
30
0
11
0.384493595497341
21
-1.51152961734658
31
0
210
0
220
0
230
1
40
0.321529
41
0
42
6.28318530717959
0
ELLIPSE
5
FD
100
AcDbEntity
8
1
62
256
6
ByLayer
370
13
48
1
60
0
100
AcDbEllipse
10
27.1
20
1.177179
30
0
11
-1.58765814233932
21
-7.84087633004523
31
0
210
0
220
0
230
1
40
0.01942
41
0.368573282974502
42
2.61223789390209
0
ELLIPSE
5
FE
100
AcDbEntity
8
1
62
256
6
ByLayer
370
18
48
1
60
0
100
AcDbEllipse
10
27.1
20
1.177179
30
0
11
-1.58765814233932
21
-7.84087633004523
31
0
210
0
220
0
230
1
40
0.01942
41
0.368297415980923
42
0.368573282974502
0
ELLIPSE
5
FF
100
AcDbEntity
8
1
62
256
6
ByLayer
370
18
48
1
60
0
100
AcDbEllipse
10
129.9
20
11.987149
30
0
11
-0.369390885025032
21
-7.99146734799439
31
0
210
0
220
0
230
1
40
0.339251
41
1.27247482459967
42
1.27347968700643
0
POINT
5
6C
100
AcDbEntity
8
80
62
256
6
ByLayer
370
18
48
1
60
0
100
AcDbPoint
10
0
20
0
30
0
39
0
210
0
220
0
230
1
50
360
0
POINT
5
6E
100
AcDbEntity
8
81
62
256
6
ByLayer
370
18
48
1
60
0
100
AcDbPoint
10
144
20
0
30
0
39
0
210
0
220
0
230
1
50
360
0
SPLINE
5
100
100
AcDbEntity
8
1
62
256
6
ByLayer
370
18
48
1
60
0
100
AcDbSpline
70
4
71
3
72
16
73
12
40
0
40
0
40
0
40
0
40
0.0904357790454987
40
0.179270851898614
40
0.268317727914162
40
0.358665732548656
40
0.450788848778801
40
0.544700849471878
40
0.69513186202324
40
0.847442489513659
40
1
40
1
40
1
40
1
41
1
10
7.87130000000002
20
-20
30
0
41
1
10
8.39643221919559
20
-19.9977236892777
30
0
41
1
10
9.42537911527444
20
-19.9216300870877
30
0
41
1
10
10.9405990722949
20
-19.5805096199423
30
0
41
1
10
12.3982248505579
20
-19.058568040595
30
0
41
1
10
13.8143722245365
20
-18.3883446873944
30
0
41
1
10
15.2014573170063
20
-17.6037144878751
30
0
41
1
10
16.8403896676831
20
-16.5666372892705
30
0
41
1
10
18.7294292819285
20
-15.2799351696345
30
0
41
1
10
20.90421721933
20
-13.8095387540798
30
0
41
1
10
22.4259916111475
20
-12.9313603894546
30
0
41
1
10
23.1988014684225
20
-12.5100504459525
30
0
0
SPLINE
5
101
100
AcDbEntity
8
1
62
256
6
ByLayer
370
18
48
1
60
0
100
AcDbSpline
70
4
71
3
72
16
73
12
40
0
40
0
40
0
40
0
40
0.145619965302306
40
0.291068814800406
40
0.434962536915558
40
0.575703348243704
40
0.662115615430394
40
0.747002239817018
40
0.830852384501673
40
0.914660763205779
40
1
40
1
40
1
40
1
41
1
10
23.1988014684225
20
12.5100504459525
30
0
41
1
10
22.4605523389577
20
12.9111334465722
30
0
41
1
10
21.0065608546799
20
13.7476061706412
30
0
41
1
10
18.9245009781614
20
15.1460075879886
30
0
41
1
10
16.8779981576922
20
16.5432459673118
30
0
41
1
10
15.0724784109512
20
17.6916270512116
30
0
41
1
10
13.4917217338873
20
18.5512733702407
30
0
41
1
10
12.1498318068195
20
19.1570635209257
30
0
41
1
10
10.7696010378578
20
19.6258310568216
30
0
41
1
10
9.33771989640127
20
19.9302254782236
30
0
41
1
10
8.36648125810518
20
19.9981838074437
30
0
41
1
10
7.87130000000002
20
20
30
0
0
SPLINE
5
102
100
AcDbEntity
8
1
62
256
6
ByLayer
370
18
48
1
60
0
100
AcDbSpline
70
4
71
3
72
47
73
43
40
0
40
0
40
0
40
0
40
0.0183525306993088
40
0.0479386166296312
40
0.0770523315402551
40
0.10574802167152
40
0.13408636635276
40
0.160973592192563
40
0.183855094106585
40
0.201228012797615
40
0.215155311477499
40
0.226037572952429
40
0.238484603530115
40
0.253815575201449
40
0.272011554796976
40
0.29566697403497
40
0.320240380375687
40
0.345732646345073
40
0.372136900598117
40
0.397204767601751
40
0.418794132669336
40
0.437378991270683
40
0.453795485444898
40
0.472319523926822
40
0.500248097779641
40
0.531812205226892
40
0.562882257817839
40
0.592932478258405
40
0.621988778866888
40
0.650313477214023
40
0.677972891155838
40
0.704980903258808
40
0.757179964131206
40
0.805289689651372
40
0.817193912587458
40
0.83240637175764
40
0.85125926291518
40
0.873749909324792
40
0.899874721334852
40
0.929628989293647
40
0.963006645262305
40
1
40
1
40
1
40
1
41
1
10
83.3205541250402
20
11.2473469437315
30
0
41
1
10
83.0076958011932
20
11.2473264027037
30
0
41
1
10
82.1893392397923
20
11.2470673708499
30
0
41
1
10
80.8676579702828
20
11.2446974332381
30
0
41
1
10
79.3653819165542
20
11.2432676923231
30
0
41
1
10
77.8830842563497
20
11.2436652026491
30
0
41
1
10
76.4410489533245
20
11.2460311177692
30
0
41
1
10
75.1031624163881
20
11.248337592502
30
0
41
1
10
73.9518939119354
20
11.2488577180898
30
0
41
1
10
73.0226113428002
20
11.2486903283784
30
0
41
1
10
72.298727166236
20
11.2482302152245
30
0
41
1
10
71.6588523735925
20
11.2476689809459
30
0
41
1
10
70.993866166192
20
11.2471537186586
30
0
41
1
10
70.2030967016438
20
11.2466266534308
30
0
41
1
10
69.2197503259666
20
11.2460417367807
30
0
41
1
10
68.0774630071986
20
11.2452729427415
30
0
41
1
10
66.8095559572675
20
11.2443562987767
30
0
41
1
10
65.4943169074858
20
11.2434065857781
30
0
41
1
10
64.1705361890531
20
11.2424994004333
30
0
41
1
10
62.9138866077381
20
11.2417176744148
30
0
41
1
10
61.79172937774
20
11.2410967673435
30
0
41
1
10
60.8183747934198
20
11.2406232745178
30
0
41
1
10
59.8977432187258
20
11.2402335293128
30
0
41
1
10
58.8164004327658
20
11.2398478664023
30
0
41
1
10
57.4745201378455
20
11.2394943685443
30
0
41
1
10
55.9168497591517
20
11.2392795602119
30
0
41
1
10
54.322686951969
20
11.2392758182031
30
0
41
1
10
52.7716582230576
20
11.2394762333726
30
0
41
1
10
51.2678495037475
20
11.239855358008
30
0
41
1
10
49.8051626375017
20
11.2403878693676
30
0
41
1
10
48.3777063882461
20
11.2410493470761
30
0
41
1
10
46.5396136463606
20
11.2420566803279
30
0
41
1
10
44.349776488864
20
11.2434823646145
30
0
41
1
10
42.4197242228323
20
11.244867914523
30
0
41
1
10
41.1258371918128
20
11.2457919643842
30
0
41
1
10
40.335165206258
20
11.2463508349813
30
0
41
1
10
39.3624081825062
20
11.247020851269
30
0
41
1
10
38.2019598391755
20
11.2477782338661
30
0
41
1
10
36.8540085705636
20
11.2485733495767
30
0
41
1
10
35.3188012526878
20
11.2493208639447
30
0
41
1
10
33.5966555250679
20
11.2499013026409
30
0
41
1
10
32.3862816072627
20
11.2500137339151
30
0
41
1
10
31.7500000001365
20
11.2499994680377
30
0
0
SPLINE
5
103
100
AcDbEntity
8
1
62
256
6
ByLayer
370
18
48
1
60
0
100
AcDbSpline
70
4
71
2
72
6
73
3
40
0
40
0
40
0
40
1
40
1
40
1
41
1
10
81.7696320361135
20
-1.2890820032155
30
0
41
1
10
81.8332915937914
20
-1.30096482583821
30
0
41
1
10
81.8969501162308
20
-1.31360569406414
30
0
0
SPLINE
5
104
100
AcDbEntity
8
1
62
256
6
ByLayer
370
18
48
1
60
0
100
AcDbSpline
70
4
71
2
72
6
73
3
40
0
40
0
40
0
40
1
40
1
40
1
41
1
10
134.719226403678
20
6.16791843662048
30
0
41
1
10
134.719227749581
20
6.16800342792303
30
0
41
1
10
134.719229095485
20
6.16808839700013
30
0
0
SPLINE
5
105
100
AcDbEntity
8
1
62
256
6
ByLayer
370
18
48
1
60
0
100
AcDbSpline
70
4
71
1
72
4
73
2
40
0
40
0
40
1
40
1
41
1
10
91.9321391395411
20
0.001440830088228
30
0
41
1
10
91.9315139969925
20
0.0015607528760029
30
0
0
SPLINE
5
106
100
AcDbEntity
8
1
62
256
6
ByLayer
370
18
48
1
60
0
100
AcDbSpline
70
4
71
3
72
58
73
54
40
0
40
0
40
0
40
0
40
0.036653600453445
40
0.0685905973534808
40
0.0958020749403826
40
0.118281302916573
40
0.136023327664692
40
0.14902462800358
40
0.157004228596481
40
0.164390223775021
40
0.173216123292927
40
0.183482310992456
40
0.19518920028437
40
0.218950858379168
40
0.243262266400726
40
0.267714408834525
40
0.292306749545597
40
0.31498092159162
40
0.330250487811085
40
0.342210136506455
40
0.352552126326595
40
0.364858214291532
40
0.379244618308428
40
0.395711452763578
40
0.425574895917008
40
0.457599060692487
40
0.490943880620953
40
0.514383655110336
40
0.538406078398039
40
0.559789483267018
40
0.576328518455604
40
0.585925436970809
40
0.59445666576166
40
0.603920992044233
40
0.614318476599324
40
0.635205959700322
40
0.659107507291828
40
0.68662674483589
40
0.717966120363087
40
0.737183984853473
40
0.757592026922049
40
0.776681559353242
40
0.792420603852546
40
0.8024411693348
40
0.811036974083412
40
0.82191060172162
40
0.835666245723348
40
0.855802520694398
40
0.880029065752497
40
0.908350144574172
40
0.940769915863902
40
0.977291503906652
40
1
40
1
40
1
40
1
41
1
10
31.7500000001365
20
-11.2499994680377
30
0
41
1
10
32.3762434188043
20
-11.2500141414341
30
0
41
1
10
33.5481451382532
20
-11.2499074699132
30
0
41
1
10
35.1849686001284
20
-11.2493704937927
30
0
41
1
10
36.5796155375639
20
-11.248714407301
30
0
41
1
10
37.7317341473657
20
-11.2480615985951
30
0
41
1
10
38.6410650682463
20
-11.2474930417773
30
0
41
1
10
39.3026633282155
20
-11.2470564595528
30
0
41
1
10
39.78732466041
20
-11.2467276751285
30
0
41
1
10
40.200647626943
20
-11.2464426399829
30
0
41
1
10
40.6530378192775
20
-11.2461262620897
30
0
41
1
10
41.1792523167678
20
-11.2457537497214
30
0
41
1
10
41.9606508255611
20
-11.2451958509021
30
0
41
1
10
42.9820180838285
20
-11.2444635719437
30
0
41
1
10
44.2211447225311
20
-11.243592539408
30
0
41
1
10
45.4744641710293
20
-11.242750604108
30
0
41
1
10
46.6998105413214
20
-11.2419847783829
30
0
41
1
10
47.7682680135134
20
-11.2413792132199
30
0
41
1
10
48.6208901671892
20
-11.2409430485842
30
0
41
1
10
49.2628113466879
20
-11.2406424496689
30
0
41
1
10
49.8541002858563
20
-11.2403877753342
30
0
41
1
10
50.4868516043595
20
-11.2401404904446
30
0
41
1
10
51.2242487841425
20
-11.2398886252854
30
0
41
1
10
52.2616215999697
20
-11.2395960131271
30
0
41
1
10
53.6003438318906
20
-11.2393430786265
30
0
41
1
10
55.2274343473087
20
-11.2392482124602
30
0
41
1
10
56.7447734862813
20
-11.2393733294925
30
0
41
1
10
58.1253991110678
20
-11.2396537169045
30
0
41
1
10
59.3016583317933
20
-11.2400075652597
30
0
41
1
10
60.3600151679386
20
-11.2404200512427
30
0
41
1
10
61.1719055444255
20
-11.2407930062872
30
0
41
1
10
61.7642104127087
20
-11.2410917348626
30
0
41
1
10
62.2356403782812
20
-11.2413435521337
30
0
41
1
10
62.7207483801404
20
-11.2416164118451
30
0
41
1
10
63.4169685867999
20
-11.24202862749
30
0
41
1
10
64.3598551120285
20
-11.2426279036579
30
0
41
1
10
65.5952755481541
20
-11.2434787365154
30
0
41
1
10
67.0092661268491
20
-11.2445098092353
30
0
41
1
10
68.343221385597
20
-11.2455033462352
30
0
41
1
10
69.5556800782446
20
-11.2463865526426
30
0
41
1
10
70.5588266120508
20
-11.2470825308645
30
0
41
1
10
71.5025983829093
20
-11.2477109780979
30
0
41
1
10
72.2688058862067
20
-11.2482116591777
30
0
41
1
10
72.8555122662661
20
-11.248572787654
30
0
41
1
10
73.358230140427
20
-11.2487837969602
30
0
41
1
10
73.9256896023717
20
-11.2489758889389
30
0
41
1
10
74.6903795359995
20
-11.2492241513497
30
0
41
1
10
75.6833687122937
20
-11.2495048674871
30
0
41
1
10
76.9252083380275
20
-11.249748809907
30
0
41
1
10
78.3768953334124
20
-11.2497991758609
30
0
41
1
10
80.0385917291595
20
-11.2495050225683
30
0
41
1
10
81.6043605278882
20
-11.248933320004
30
0
41
1
10
82.6162474976885
20
-11.248363089097
30
0
41
1
10
83.0041970155244
20
-11.2481170430725
30
0
0
SPLINE
5
107
100
AcDbEntity
8
SK1
62
256
6
ByLayer
370
18
48
1
60
0
100
AcDbSpline
70
4
71
3
72
70
73
66
40
0
40
0
40
0
40
0
40
0.0312500000000009
40
0.0312500000000009
40
0.0468750000000009
40
0.0468750000000009
40
0.0625000000000008
40
0.0625000000000008
40
0.0781250000000008
40
0.0781250000000008
40
0.0937500000000008
40
0.0937500000000008
40
0.125000000000001
40
0.125000000000001
40
0.156250000000001
40
0.156250000000001
40
0.1875
40
0.1875
40
0.21875
40
0.21875
40
0.25
40
0.25
40
0.3125
40
0.3125
40
0.34375
40
0.34375
40
0.375
40
0.375
40
0.4375
40
0.4375
40
0.5
40
0.5
40
0.5625
40
0.5625
40
0.59375
40
0.59375
40
0.625
40
0.625
40
0.687499999999999
40
0.687499999999999
40
0.749999999999999
40
0.749999999999999
40
0.781249999999999
40
0.781249999999999
40
0.812499999999999
40
0.812499999999999
40
0.843749999999999
40
0.843749999999999
40
0.859374999999999
40
0.859374999999999
40
0.874999999999999
40
0.874999999999999
40
0.90625
40
0.90625
40
0.921875
40
0.921875
40
0.9375
40
0.9375
40
0.953125
40
0.953125
40
0.96875
40
0.96875
40
0.984375
40
0.984375
40
1
40
1
40
1
40
1
41
1
10
-6.5
20
-8.08217792429738
30
0
41
1
10
-6.28762555995462
20
-8.08217792429738
30
0
41
1
10
-6.08104986911269
20
-8.05368849473035
30
0
41
1
10
-5.77910858566645
20
-7.97161548876423
30
0
41
1
10
-5.68022589061653
20
-7.93763423525914
30
0
41
1
10
-5.49054490854957
20
-7.85917405972873
30
0
41
1
10
-5.39899523500898
20
-7.81450307998708
30
0
41
1
10
-5.2218564656466
20
-7.71512651881918
30
0
41
1
10
-5.13594421810529
20
-7.66012522444171
30
0
41
1
10
-4.9730710583807
20
-7.54325327411436
30
0
41
1
10
-4.89566707429051
20
-7.48118572785879
30
0
41
1
10
-4.6739132088681
20
-7.28529466076768
30
0
41
1
10
-4.53991230602642
20
-7.14180694426813
30
0
41
1
10
-4.29416855767025
20
-6.83312930612388
30
0
41
1
10
-4.18521185387124
20
-6.6715007799863
30
0
41
1
10
-3.98806828865869
20
-6.33636750757177
30
0
41
1
10
-3.89994716555162
20
-6.16283546371301
30
0
41
1
10
-3.74020554839618
20
-5.80545940076314
30
0
41
1
10
-3.66838920508039
20
-5.62093024300796
30
0
41
1
10
-3.53937133315313
20
-5.24594125113808
30
0
41
1
10
-3.48231441550428
20
-5.05612691162614
30
0
41
1
10
-3.32871181677945
20
-4.48051810886963
30
0
41
1
10
-3.24948709448094
20
-4.08860232749163
30
0
41
1
10
-3.15366535436107
20
-3.49035454453516
30
0
41
1
10
-3.12563763183789
20
-3.28919601457946
30
0
41
1
10
-3.07615885164302
20
-2.8835794753536
30
0
41
1
10
-3.05468247616591
20
-2.6788066175184
30
0
41
1
10
-2.99892560884547
20
-2.06183265419932
30
0
41
1
10
-2.97341374459449
20
-1.65021464829943
30
0
41
1
10
-2.9399088448763
20
-0.826427708852918
30
0
41
1
10
-2.93195209632361
20
-0.414258490969502
30
0
41
1
10
-2.93190451240991
20
0.410616418566406
30
0
41
1
10
-2.9398119090001
20
0.823322087871986
30
0
41
1
10
-2.96496313204875
20
1.44279742981084
30
0
41
1
10
-2.97558958394541
20
1.64935895031218
30
0
41
1
10
-3.00193375507485
20
2.06262743969191
30
0
41
1
10
-3.01768796297787
20
2.26962385434214
30
0
41
1
10
-3.07336906956124
20
2.88522451010573
30
0
41
1
10
-3.12161720280068
20
3.29012272731185
30
0
41
1
10
-3.24933181748244
20
4.08777686756457
30
0
41
1
10
-3.32863739699849
20
4.48055429019126
30
0
41
1
10
-3.4831003209884
20
5.05891332672573
30
0
41
1
10
-3.54076942872436
20
5.25033331669707
30
0
41
1
10
-3.6696594231249
20
5.62428672514505
30
0
41
1
10
-3.74096306692999
20
5.80730424563461
30
0
41
1
10
-3.90070915193934
20
6.16438864035223
30
0
41
1
10
-3.98911623857577
20
6.33846735616979
30
0
41
1
10
-4.138362342958
20
6.59169519349339
30
0
41
1
10
-4.19087366086717
20
6.67469064307952
30
0
41
1
10
-4.30098015289809
20
6.83590272214585
30
0
41
1
10
-4.35870319203542
20
6.91434756669076
30
0
41
1
10
-4.54085622294414
20
7.14267001525303
30
0
41
1
10
-4.67411746978664
20
7.28563237868227
30
0
41
1
10
-4.89762414313628
20
7.48283481508952
30
0
41
1
10
-4.97599664741571
20
7.54549364627977
30
0
41
1
10
-5.13838907908934
20
7.66173374977816
30
0
41
1
10
-5.22276337997238
20
7.71564866991193
30
0
41
1
10
-5.39862205954023
20
7.81428032092916
30
0
41
1
10
-5.49010121423032
20
7.85900465123581
30
0
41
1
10
-5.68125471270633
20
7.93804563435424
30
0
41
1
10
-5.77882786643025
20
7.97148061306467
30
0
41
1
10
-5.97815227640163
20
8.02577693282768
30
0
41
1
10
-6.07990178078995
20
8.04664365567402
30
0
41
1
10
-6.2879131648474
20
8.07490697119016
30
0
41
1
10
-6.39402083858312
20
8.08217792429738
30
0
41
1
10
-6.5
20
8.08217792429738
30
0
0
SPLINE
5
108
100
AcDbEntity
8
SK1
62
256
6
ByLayer
370
18
48
1
60
0
100
AcDbSpline
70
4
71
3
72
70
73
66
40
0
40
0
40
0
40
0
40
0.03125
40
0.03125
40
0.0468749999999999
40
0.0468749999999999
40
0.0624999999999999
40
0.0624999999999999
40
0.0781249999999998
40
0.0781249999999998
40
0.0937499999999998
40
0.0937499999999998
40
0.125
40
0.125
40
0.15625
40
0.15625
40
0.1875
40
0.1875
40
0.218749999999999
40
0.218749999999999
40
0.249999999999999
40
0.249999999999999
40
0.312499999999999
40
0.312499999999999
40
0.343749999999999
40
0.343749999999999
40
0.374999999999999
40
0.374999999999999
40
0.437499999999999
40
0.437499999999999
40
0.499999999999999
40
0.499999999999999
40
0.562499999999999
40
0.562499999999999
40
0.593749999999999
40
0.593749999999999
40
0.624999999999999
40
0.624999999999999
40
0.687499999999999
40
0.687499999999999
40
0.749999999999999
40
0.749999999999999
40
0.781249999999999
40
0.781249999999999
40
0.812499999999999
40
0.812499999999999
40
0.843749999999999
40
0.843749999999999
40
0.859374999999999
40
0.859374999999999
40
0.874999999999999
40
0.874999999999999
40
0.906249999999999
40
0.906249999999999
40
0.921875
40
0.921875
40
0.9375
40
0.9375
40
0.953125
40
0.953125
40
0.96875
40
0.96875
40
0.984375
40
0.984375
40
1
40
1
40
1
40
1
41
1
10
-53.5
20
8.08217792429738
30
0
41
1
10
-53.7123744400454
20
8.08217792429738
30
0
41
1
10
-53.9189501308873
20
8.05368849473035
30
0
41
1
10
-54.2208914143335
20
7.9716154887642
30
0
41
1
10
-54.3197741093835
20
7.93763423525914
30
0
41
1
10
-54.5094550914504
20
7.85917405972873
30
0
41
1
10
-54.601004764991
20
7.81450307998708
30
0
41
1
10
-54.7781435343534
20
7.71512651881918
30
0
41
1
10
-54.8640557818947
20
7.66012522444171
30
0
41
1
10
-55.0269289416193
20
7.54325327411436
30
0
41
1
10
-55.1043329257095
20
7.48118572785879
30
0
41
1
10
-55.3260867911319
20
7.28529466076768
30
0
41
1
10
-55.4600876939735
20
7.14180694426813
30
0
41
1
10
-55.7058314423297
20
6.83312930612388
30
0
41
1
10
-55.8147881461287
20
6.6715007799863
30
0
41
1
10
-56.0119317113413
20
6.33636750757177
30
0
41
1
10
-56.1000528344483
20
6.16283546371301
30
0
41
1
10
-56.2597944516038
20
5.80545940076314
30
0
41
1
10
-56.3316107949196
20
5.62093024300796
30
0
41
1
10
-56.4606286668468
20
5.24594125113808
30
0
41
1
10
-56.5176855844957
20
5.05612691162611
30
0
41
1
10
-56.6712881832205
20
4.48051810886963
30
0
41
1
10
-56.750512905519
20
4.08860232749163
30
0
41
1
10
-56.8463346456389
20
3.49035454453516
30
0
41
1
10
-56.8743623681621
20
3.28919601457946
30
0
41
1
10
-56.923841148357
20
2.8835794753536
30
0
41
1
10
-56.945317523834
20
2.6788066175184
30
0
41
1
10
-57.0010743911545
20
2.06183265419932
30
0
41
1
10
-57.0265862554054
20
1.65021464829943
30
0
41
1
10
-57.0600911551237
20
0.826427708852918
30
0
41
1
10
-57.0680479036763
20
0.414258490969502
30
0
41
1
10
-57.0680954875901
20
-0.410616418566406
30
0
41
1
10
-57.0601880909999
20
-0.823322087871986
30
0
41
1
10
-57.0350368679512
20
-1.44279742981084
30
0
41
1
10
-57.0244104160545
20
-1.64935895031215
30
0
41
1
10
-56.9980662449251
20
-2.06262743969191
30
0
41
1
10
-56.9823120370221
20
-2.26962385434214
30
0
41
1
10
-56.9266309304387
20
-2.88522451010573
30
0
41
1
10
-56.8783827971993
20
-3.29012272731185
30
0
41
1
10
-56.7506681825175
20
-4.08777686756457
30
0
41
1
10
-56.6713626030015
20
-4.48055429019126
30
0
41
1
10
-56.5168996790116
20
-5.05891332672573
30
0
41
1
10
-56.4592305712756
20
-5.25033331669707
30
0
41
1
10
-56.3303405768751
20
-5.62428672514505
30
0
41
1
10
-56.25903693307
20
-5.80730424563461
30
0
41
1
10
-56.0992908480606
20
-6.16438864035223
30
0
41
1
10
-56.0108837614242
20
-6.33846735616979
30
0
41
1
10
-55.861637657042
20
-6.59169519349339
30
0
41
1
10
-55.8091263391328
20
-6.67469064307952
30
0
41
1
10
-55.6990198471019
20
-6.83590272214585
30
0
41
1
10
-55.6412968079646
20
-6.91434756669076
30
0
41
1
10
-55.4591437770558
20
-7.14267001525306
30
0
41
1
10
-55.3258825302133
20
-7.28563237868227
30
0
41
1
10
-55.1023758568637
20
-7.48283481508952
30
0
41
1
10
-55.0240033525843
20
-7.54549364627977
30
0
41
1
10
-54.8616109209106
20
-7.66173374977816
30
0
41
1
10
-54.7772366200276
20
-7.71564866991193
30
0
41
1
10
-54.6013779404598
20
-7.81428032092916
30
0
41
1
10
-54.5098987857696
20
-7.85900465123581
30
0
41
1
10
-54.3187452872937
20
-7.93804563435424
30
0
41
1
10
-54.2211721335697
20
-7.97148061306467
30
0
41
1
10
-54.0218477235983
20
-8.02577693282768
30
0
41
1
10
-53.92009821921
20
-8.04664365567402
30
0
41
1
10
-53.7120868351526
20
-8.07490697119016
30
0
41
1
10
-53.6059791614168
20
-8.08217792429738
30
0
41
1
10
-53.5
20
-8.08217792429738
30
0
0
SPLINE
5
109
100
AcDbEntity
8
1
62
256
6
ByLayer
370
18
48
1
60
0
100
AcDbSpline
70
4
71
3
72
8
73
4
40
0
40
0
40
0
40
0
40
1
40
1
40
1
40
1
41
1
10
143.8
20
4.65000000000001
30
0
41
1
10
143.866665171169
20
4.65000000000001
30
0
41
1
10
143.933331868022
20
4.65000000000001
30
0
41
1
10
144
20
4.65000000000001
30
0
0
SPLINE
5
10A
100
AcDbEntity
8
1
62
256
6
ByLayer
370
13
48
1
60
0
100
AcDbSpline
70
4
71
3
72
18
73
14
40
0
40
0
40
0
40
0
40
0.124999999999997
40
0.124999999999997
40
0.187499999999992
40
0.187499999999992
40
0.249999999999987
40
0.249999999999987
40
0.499999999999991
40
0.499999999999991
40
0.749999999999996
40
0.749999999999996
40
1
40
1
40
1
40
1
41
1
10
155.61363233101
20
4.10591768232601
30
0
41
1
10
155.64940710123
20
3.94235914451809
30
0
41
1
10
155.694512703756
20
3.78325222649579
30
0
41
1
10
155.774781755435
20
3.55060350616435
30
0
41
1
10
155.803742206313
20
3.47384856807949
30
0
41
1
10
155.865108169793
20
3.32370627263902
30
0
41
1
10
155.89752586386
20
3.25023955994351
30
0
41
1
10
156.067663176908
20
2.8903428480605
30
0
41
1
10
156.229066690364
20
2.62580550991794
30
0
41
1
10
156.59237852122
20
2.13414594163407
30
0
41
1
10
156.789314910469
20
1.91363807547344
30
0
41
1
10
157.206862311144
20
1.51200054087235
30
0
41
1
10
157.428149620758
20
1.33061596701484
30
0
41
1
10
157.656863978299
20
1.16818216722629
30
0
0
SPLINE
5
10B
100
AcDbEntity
8
1
62
256
6
ByLayer
370
18
48
1
60
0
100
AcDbSpline
70
4
71
3
72
34
73
30
40
0
40
0
40
0
40
0
40
0.023075016794096
40
0.0460031703239003
40
0.0687846448990191
40
0.0914196284129136
40
0.113908312431627
40
0.136250892285108
40
0.158447567161211
40
0.180498540202474
40
0.202404018605751
40
0.224164213724796
40
0.245779341175903
40
0.267249620946688
40
0.334848389265611
40
0.40146252181887
40
0.467099756764876
40
0.531768183154937
40
0.575605055972635
40
0.619178816143838
40
0.662492371058976
40
0.705548680822637
40
0.748350758913913
40
0.790901672829233
40
0.833204544705677
40
0.875262551922702
40
0.917078927680091
40
0.958656961549892
40
1
40
1
40
1
40
1
41
1
10
152.190698422147
20
-9.63998790970842
30
0
41
1
10
152.173925175141
20
-9.60727509707357
30
0
41
1
10
152.140485436146
20
-9.54205767578878
30
0
41
1
10
152.091089642213
20
-9.4419046709163
30
0
41
1
10
152.042457776825
20
-9.34050636883364
30
0
41
1
10
151.994632341751
20
-9.23772651425372
30
0
41
1
10
151.947602057515
20
-9.13366847557256
30
0
41
1
10
151.901369917407
20
-9.02837138968098
30
0
41
1
10
151.85593512488
20
-8.92189077174604
30
0
41
1
10
151.81129789791
20
-8.81427712437829
30
0
41
1
10
151.767458152384
20
-8.70558152880088
30
0
41
1
10
151.724416005903
20
-8.59585439265413
30
0
41
1
10
151.682171073366
20
-8.48514485002866
30
0
41
1
10
151.610949602074
20
-8.29330136181503
30
0
41
1
10
151.513377234353
20
-8.01514312099391
30
0
41
1
10
151.393424217793
20
-7.64259458104905
30
0
41
1
10
151.280619251982
20
-7.26101403880207
30
0
41
1
10
151.185776528739
20
-6.91144280024821
30
0
41
1
10
151.106720561302
20
-6.59775189235202
30
0
41
1
10
151.041441565409
20
-6.32246183123763
30
0
41
1
10
150.979245434815
20
-6.0434411326469
30
0
41
1
10
150.920132985962
20
-5.76096966824244
30
0
41
1
10
150.86410436952
20
-5.47532623599892
30
0
41
1
10
150.811158234029
20
-5.18678835562844
30
0
41
1
10
150.761299839891
20
-4.8956238130686
30
0
41
1
10
150.714509708093
20
-4.60212290686411
30
0
41
1
10
150.670859966982
20
-4.30647747277712
30
0
41
1
10
150.630083772879
20
-4.00922759094755
30
0
41
1
10
150.605404391017
20
-3.80891874685128
30
0
41
1
10
150.593099670338
20
-3.7090481589334
30
0
0
SPLINE
5
10C
100
AcDbEntity
8
1
62
256
6
ByLayer
370
18
48
1
60
0
100
AcDbSpline
70
4
71
3
72
8
73
4
40
0
40
0
40
0
40
0
40
1
40
1
40
1
40
1
41
1
10
23.2873809345771
20
-5.92642448595734
30
0
41
1
10
23.3803348282802
20
-5.94356755728268
30
0
41
1
10
23.4739618517521
20
-5.96134088600363
30
0
41
1
10
23.5682664323473
20
-5.97969079103095
30
0
0
SPLINE
5
10D
100
AcDbEntity
8
1
62
256
6
ByLayer
370
18
48
1
60
0
100
AcDbSpline
70
4
71
3
72
15
73
11
40
0
40
0
40
0
40
0
40
0.125000000000006
40
0.125000000000006
40
0.250000000000012
40
0.375000000000018
40
0.375000000000018
40
0.500000000000024
40
0.500000000000024
40
1
40
1
40
1
40
1
41
1
10
132.383949614132
20
9.52618540186091
30
0
41
1
10
132.440339663568
20
9.54061196563191
30
0
41
1
10
132.496565734243
20
9.55851800999741
30
0
41
1
10
132.605652200777
20
9.60006348249902
30
0
41
1
10
132.712170781014
20
9.64751145196516
30
0
41
1
10
132.813897596742
20
9.7058811043654
30
0
41
1
10
132.913368581622
20
9.76932840603794
30
0
41
1
10
132.962089738014
20
9.80370566868507
30
0
41
1
10
133.196141098414
20
9.98397453458875
30
0
41
1
10
133.357351588739
20
10.1562081612247
30
0
41
1
10
133.500804692035
20
10.346536732816
30
0
0
SPLINE
5
10E
100
AcDbEntity
8
1
62
256
6
ByLayer
370
18
48
1
60
0
100
AcDbSpline
70
4
71
3
72
16
73
12
40
0
40
0
40
0
40
0
40
0.26395764919747
40
0.26395764919747
40
0.395936473796201
40
0.395936473796201
40
0.527915298394932
40
0.527915298394932
40
0.791872947592395
40
0.791872947592395
40
1
40
1
40
1
40
1
41
1
10
144.729863857252
20
-11.7610859066882
30
0
41
1
10
145.603111396307
20
-11.8402083655775
30
0
41
1
10
146.475200155869
20
-11.8985696954606
30
0
41
1
10
147.781375366831
20
-11.9552804036157
30
0
41
1
10
148.21645042341
20
-11.9690285491507
30
0
41
1
10
149.086075260029
20
-11.9861312651078
30
0
41
1
10
149.520707096109
20
-11.9894643345371
30
0
41
1
10
150.825514156912
20
-11.9839078712041
30
0
41
1
10
151.695781314492
20
-11.9595532852465
30
0
41
1
10
153.252666851868
20
-11.8788161234799
30
0
41
1
10
153.938954799402
20
-11.8301051514145
30
0
41
1
10
154.626456164338
20
-11.7686644842288
30
0
0
SPLINE
5
10F
100
AcDbEntity
8
1
62
256
6
ByLayer
370
18
48
1
60
0
100
AcDbSpline
70
4
71
3
72
8
73
4
40
0
40
0
40
0
40
0
40
1
40
1
40
1
40
1
41
1
10
154.988235056784
20
-11.7351715000409
30
0
41
1
10
155.052148959047
20
-11.7290498648121
30
0
41
1
10
155.116075311512
20
-11.7228189465023
30
0
41
1
10
155.180015161794
20
-11.7164790552944
30
0
0
SPLINE
5
110
100
AcDbEntity
8
1
62
256
6
ByLayer
370
18
48
1
60
0
100
AcDbSpline
70
4
71
3
72
8
73
4
40
0
40
0
40
0
40
0
40
1
40
1
40
1
40
1
41
1
10
127.298564350075
20
7.70965952937493
30
0
41
1
10
127.296605285309
20
7.70458365014281
30
0
41
1
10
127.29464761408
20
7.69950306177191
30
0
41
1
10
127.29269133684
20
7.69441776273337
30
0
0
SPLINE
5
111
100
AcDbEntity
8
1
62
256
6
ByLayer
370
18
48
1
60
0
100
AcDbSpline
70
4
71
3
72
12
73
8
40
0
40
0
40
0
40
0
40
0.214921740506009
40
0.426160047104205
40
0.633716932215157
40
0.942019567483207
40
1
40
1
40
1
40
1
41
1
10
151.842505469657
20
1.73021815456085
30
0
41
1
10
151.459902973319
20
1.76681468229694
30
0
41
1
10
150.701255209357
20
1.83938052857732
30
0
41
1
10
149.573323915427
20
1.94944706722424
30
0
41
1
10
148.279402491997
20
2.07790844647283
30
0
41
1
10
147.258425868899
20
2.18142834965619
30
0
41
1
10
146.606905382036
20
2.24914550884139
30
0
41
1
10
146.50377707685
20
2.25989850780684
30
0
0
SPLINE
5
112
100
AcDbEntity
8
1
62
256
6
ByLayer
370
18
48
1
60
0
100
AcDbSpline
70
4
71
3
72
8
73
4
40
0
40
0
40
0
40
0
40
1
40
1
40
1
40
1
41
1
10
144.729863857252
20
-11.9146024052169
30
0
41
1
10
145.561772460116
20
-11.9552519372098
30
0
41
1
10
146.392903332161
20
-11.9768410724785
30
0
41
1
10
147.223068147965
20
-11.9796966265326
30
0
0
SPLINE
5
113
100
AcDbEntity
8
1
62
256
6
ByLayer
370
18
48
1
60
0
100
AcDbSpline
70
4
71
3
72
37
73
33
40
0
40
0
40
0
40
0
40
0.0516833019502505
40
0.0516833019502505
40
0.187157115957358
40
0.187157115957358
40
0.458104743971576
40
0.458104743971576
40
0.729052371985793
40
0.729052371985793
40
0.762920825487571
40
0.762920825487571
40
0.779855052238458
40
0.779855052238458
40
0.796789278989346
40
0.796789278989346
40
0.864526185992897
40
0.864526185992897
40
0.898394639494672
40
0.898394639494672
40
0.932263092996448
40
0.932263092996448
40
0.949197319747336
40
0.949197319747336
40
0.951314098091197
40
0.951314098091197
40
0.953430876435057
40
0.953430876435057
40
0.957664433122778
40
0.957664433122778
40
0.966131546498223
40
1
40
1
40
1
40
1
41
1
10
83.3248080631399
20
11.2477087213233
30
0
41
1
10
84.0857955403488
20
11.246249076702
30
0
41
1
10
84.8468943779795
20
11.2419739707385
30
0
41
1
10
87.6034492244312
20
11.2165633461994
30
0
41
1
10
89.5993633034368
20
11.1793549212292
30
0
41
1
10
95.5864271096293
20
11.0143472513051
30
0
41
1
10
99.5783067196566
20
10.8338326245816
30
0
41
1
10
107.562019676802
20
10.3334020743789
30
0
41
1
10
111.552631212562
20
10.0132739881267
30
0
41
1
10
116.037846475007
20
9.56626935358358
30
0
41
1
10
116.536149791867
20
9.51538375480794
30
0
41
1
10
117.283537727357
20
9.43716939332643
30
0
41
1
10
117.532656224973
20
9.41078520793644
30
0
41
1
10
118.030868785488
20
9.35737349518553
30
0
41
1
10
118.28002713616
20
9.33053249123876
30
0
41
1
10
119.524716565583
20
9.19169150120473
30
0
41
1
10
120.517274102397
20
9.06894620006403
30
0
41
1
10
121.994639593175
20
8.85320822650544
30
0
41
1
10
122.485277091037
20
8.77588696007314
30
0
41
1
10
123.460674890602
20
8.60454117152409
30
0
41
1
10
123.945625109963
20
8.51115616342341
30
0
41
1
10
124.664069704519
20
8.3464126441441
30
0
41
1
10
124.902074083758
20
8.28740927165529
30
0
41
1
10
125.166481708078
20
8.21200357161968
30
0
41
1
10
125.195811244702
20
8.20349303182414
30
0
41
1
10
125.254360560769
20
8.18617739361878
30
0
41
1
10
125.283319362355
20
8.17674528635749
30
0
41
1
10
125.373248403515
20
8.15572258578584
30
0
41
1
10
125.433237274374
20
8.14175203905251
30
0
41
1
10
125.613154649801
20
8.09959697760007
30
0
41
1
10
126.212898287855
20
7.9582923129399
30
0
41
1
10
126.812738421471
20
7.81307528107322
30
0
41
1
10
127.29269133684
20
7.69441776273337
30
0
0
SPLINE
5
114
100
AcDbEntity
8
1
62
256
6
ByLayer
370
13
48
1
60
0
100
AcDbSpline
70
4
71
3
72
8
73
4
40
0
40
0
40
0
40
0
40
1
40
1
40
1
40
1
41
1
10
155.610634163867
20
4.11952254236013
30
0
41
1
10
155.611413225726
20
4.1159906566881
30
0
41
1
10
155.612192287585
20
4.11245877101607
30
0
41
1
10
155.612971349444
20
4.10892688534403
30
0
0
SPLINE
5
115
100
AcDbEntity
8
1
62
256
6
ByLayer
370
18
48
1
60
0
100
AcDbSpline
70
4
71
3
72
52
73
48
40
0
40
0
40
0
40
0
40
0.0156249999999983
40
0.0156249999999983
40
0.0195312499999977
40
0.0195312499999977
40
0.0205078124999975
40
0.0205078124999975
40
0.0214843749999973
40
0.0214843749999973
40
0.023437499999997
40
0.023437499999997
40
0.0312499999999965
40
0.0312499999999965
40
0.0624999999999953
40
0.0624999999999953
40
0.0937499999999941
40
0.0937499999999941
40
0.109374999999993
40
0.109374999999993
40
0.113281249999993
40
0.113281249999993
40
0.117187499999993
40
0.117187499999993
40
0.124999999999994
40
0.124999999999994
40
0.187499999999994
40
0.187499999999994
40
0.249999999999995
40
0.249999999999995
40
0.374999999999996
40
0.374999999999996
40
0.437499999999996
40
0.437499999999996
40
0.499999999999997
40
0.499999999999997
40
0.562499999999997
40
0.562499999999997
40
0.624999999999997
40
0.624999999999997
40
0.749999999999998
40
0.749999999999998
40
0.812499999999999
40
0.812499999999999
40
0.874999999999999
40
0.874999999999999
40
1
40
1
40
1
40
1
41
1
10
132.552086695104
20
-10.0685819241796
30
0
41
1
10
132.034634318978
20
-9.9741800595321
30
0
41
1
10
131.517279916773
20
-9.87614726626248
30
0
41
1
10
130.870662509205
20
-9.74915928828841
30
0
41
1
10
130.74134248667
20
-9.72353995408821
30
0
41
1
10
130.57969768076
20
-9.69123682730003
30
0
41
1
10
130.547341954826
20
-9.68481425890195
30
0
41
1
10
130.482226405113
20
-9.67273247111547
30
0
41
1
10
130.449658369338
20
-9.66669991839009
30
0
41
1
10
130.351921014581
20
-9.64863282522609
30
0
41
1
10
130.286716333996
20
-9.63663300674276
30
0
41
1
10
129.960471203263
20
-9.57684805562488
30
0
41
1
10
129.69877060083
20
-9.52969734414495
30
0
41
1
10
128.38713188056
20
-9.2971305625133
30
0
41
1
10
127.327937478057
20
-9.12127495667232
30
0
41
1
10
125.196936690766
20
-8.7843999979645
30
0
41
1
10
124.124813269294
20
-8.62333862297746
30
0
41
1
10
122.513158138172
20
-8.39028169239415
30
0
41
1
10
121.975227810045
20
-8.31390046424303
30
0
41
1
10
121.301946910165
20
-8.22023033417315
30
0
41
1
10
121.167474923667
20
-8.20079019409917
30
0
41
1
10
120.898464373659
20
-8.16201091065267
30
0
41
1
10
120.763953883789
20
-8.14257479857756
30
0
41
1
10
120.360413966733
20
-8.08410250716179
30
0
41
1
10
120.091379218866
20
-8.04489134084915
30
0
41
1
10
117.670049601732
20
-7.68972850144559
30
0
41
1
10
115.517200166376
20
-7.35886336093284
30
0
41
1
10
111.212093870152
20
-6.67173720963984
30
0
41
1
10
109.05957418087
20
-6.31539460285239
30
0
41
1
10
102.600810409711
20
-5.21423416893469
30
0
41
1
10
98.2924973179127
20
-4.43742057924564
30
0
41
1
10
91.8321457686082
20
-3.23134254054867
30
0
41
1
10
89.6787036163864
20
-2.8224463467983
30
0
41
1
10
85.3712766701465
20
-1.99361114680042
30
0
41
1
10
83.2173246967963
20
-1.57375199511287
30
0
41
1
10
78.9114653024881
20
-0.725897185174972
30
0
41
1
10
76.7592456213778
20
-0.29747913246635
30
0
41
1
10
72.4553579177234
20
0.564021913696791
30
0
41
1
10
70.3025033425769
20
0.993048995249552
30
0
41
1
10
63.8439612517678
20
2.26782150866123
30
0
41
1
10
59.5390377642574
20
3.10047353325916
30
0
41
1
10
53.0778284016821
20
4.29997678563376
30
0
41
1
10
50.9239978111353
20
4.69152077680783
30
0
41
1
10
46.6180998609769
20
5.4543779188219
30
0
41
1
10
44.465642268396
20
5.82577548227195
30
0
41
1
10
38.0088280791151
20
6.90563684144684
30
0
41
1
10
33.7050195593538
20
7.57991943040622
30
0
41
1
10
29.4
20
8.19792405776278
30
0
0
SPLINE
5
116
100
AcDbEntity
8
1
62
256
6
ByLayer
370
18
48
1
60
0
100
AcDbSpline
70
4
71
3
72
8
73
4
40
0
40
0
40
0
40
0
40
1
40
1
40
1
40
1
41
1
10
143.903917538164
20
11.6141721976374
30
0
41
1
10
143.900944961752
20
11.6168094627788
30
0
41
1
10
143.897972448923
20
11.619445982775
30
0
41
1
10
143.895
20
11.6220817571003
30
0
0
SPLINE
5
117
100
AcDbEntity
8
1
62
256
6
ByLayer
370
18
48
1
60
0
100
AcDbSpline
70
4
71
3
72
22
73
18
40
0
40
0
40
0
40
0
40
0.177934976072409
40
0.177934976072409
40
0.222418720090509
40
0.222418720090509
40
0.233539656095036
40
0.233539656095036
40
0.244660592099563
40
0.244660592099563
40
0.266902464108618
40
0.266902464108618
40
0.355869952144835
40
0.355869952144835
40
0.711739904289711
40
0.711739904289711
40
1
40
1
40
1
40
1
41
1
10
132.552086695104
20
10.0685819241796
30
0
41
1
10
132.034634318978
20
9.9741800595321
30
0
41
1
10
131.517279916773
20
9.87614726626248
30
0
41
1
10
130.870662509205
20
9.74915928828838
30
0
41
1
10
130.74134248667
20
9.72353995408824
30
0
41
1
10
130.57969768076
20
9.6912368273
30
0
41
1
10
130.547341954826
20
9.68481425890192
30
0
41
1
10
130.482226405113
20
9.67273247111547
30
0
41
1
10
130.449658369338
20
9.66669991839012
30
0
41
1
10
130.351921014581
20
9.64863282522612
30
0
41
1
10
130.286716333996
20
9.63663300674276
30
0
41
1
10
129.960471203263
20
9.57684805562485
30
0
41
1
10
129.69877060083
20
9.52969734414492
30
0
41
1
10
128.38713188056
20
9.2971305625133
30
0
41
1
10
127.327937478057
20
9.12127495667232
30
0
41
1
10
125.399365494353
20
8.81640054684109
30
0
41
1
10
124.53194837189
20
8.68480326091762
30
0
41
1
10
123.6624761953
20
8.55714955060864
30
0
0
SPLINE
5
118
100
AcDbEntity
8
1
62
256
6
ByLayer
370
18
48
1
60
0
100
AcDbSpline
70
4
71
3
72
8
73
4
40
0
40
0
40
0
40
0
40
1
40
1
40
1
40
1
41
1
10
29.4
20
-7.52209018897207
30
0
41
1
10
30.1832680586652
20
-7.64371296653303
30
0
41
1
10
30.9665938844876
20
-7.76290001979316
30
0
41
1
10
31.750000000094
20
-7.87960746276192
30
0
0
SPLINE
5
119
100
AcDbEntity
8
1
62
256
6
ByLayer
370
13
48
1
60
0
100
AcDbSpline
70
4
71
3
72
8
73
4
40
0
40
0
40
0
40
0
40
1
40
1
40
1
40
1
41
1
10
155.411674242831
20
-5.3344057844723
30
0
41
1
10
155.619430389272
20
-4.28598596457539
30
0
41
1
10
155.827186535714
20
-3.23756614467848
30
0
41
1
10
156.034942682155
20
-2.18914632478158
30
0
0
SPLINE
5
11A
100
AcDbEntity
8
1
62
256
6
ByLayer
370
18
48
1
60
0
100
AcDbSpline
70
4
71
3
72
42
73
38
40
0
40
0
40
0
40
0
40
0.130612238801283
40
0.130612238801283
40
0.195918358201924
40
0.195918358201924
40
0.261224477602566
40
0.261224477602566
40
0.391836716403849
40
0.391836716403849
40
0.457142835804491
40
0.457142835804491
40
0.489795895504812
40
0.489795895504812
40
0.522448955205133
40
0.522448955205133
40
0.587755074605775
40
0.587755074605775
40
0.653061194006417
40
0.653061194006417
40
0.783673432807701
40
0.783673432807701
40
0.848979552208343
40
0.848979552208343
40
0.914285671608985
40
0.914285671608985
40
0.946938731309306
40
0.946938731309306
40
0.955101996234387
40
0.955101996234387
40
0.963265261159467
40
0.963265261159467
40
0.979591791009628
40
0.979591791009628
40
0.99591832085979
40
0.99591832085979
40
1
40
1
40
1
40
1
41
1
10
25.6738260671542
20
-6.14823050103044
30
0
41
1
10
29.9208150176301
20
-6.79124207714133
30
0
41
1
10
34.1689250145457
20
-7.38968276720732
30
0
41
1
10
40.5404326112288
20
-8.20876755317533
30
0
41
1
10
42.6642085231039
20
-8.46855473592015
30
0
41
1
10
46.9121507126595
20
-8.9578804458007
30
0
41
1
10
49.0366322528388
20
-9.18742782685254
30
0
41
1
10
55.4091159498918
20
-9.82285343650531
30
0
41
1
10
59.6556250237605
20
-10.1753432386705
30
0
41
1
10
66.0279112192434
20
-10.5620247648092
30
0
41
1
10
68.1519742406181
20
-10.6670799027788
30
0
41
1
10
71.3368778580343
20
-10.7848450937771
30
0
41
1
10
72.3983741829891
20
-10.8166506048068
30
0
41
1
10
74.5215803983117
20
-10.8726607050377
30
0
41
1
10
75.5832568049585
20
-10.8964275669222
30
0
41
1
10
78.7685552840859
20
-10.9550289718702
30
0
41
1
10
80.8926827067
20
-10.9772501555651
30
0
41
1
10
85.1405649857252
20
-10.9866338568228
30
0
41
1
10
87.2643180890611
20
-10.9737462504728
30
0
41
1
10
93.6357132098109
20
-10.8788015256477
30
0
41
1
10
97.8846343400998
20
-10.7402934700654
30
0
41
1
10
104.255539961989
20
-10.4017700086483
30
0
41
1
10
106.378928401223
20
-10.2670993280706
30
0
41
1
10
110.626113583811
20
-9.95165940475721
30
0
41
1
10
112.750245914849
20
-9.77090892941351
30
0
41
1
10
115.935624319546
20
-9.46423903559435
30
0
41
1
10
116.997352785964
20
-9.35604580792577
30
0
41
1
10
118.324452223631
20
-9.21351230430952
30
0
41
1
10
118.589870256471
20
-9.18454483762829
30
0
41
1
10
119.120330880838
20
-9.12397254900682
30
0
41
1
10
119.385396538068
20
-9.0927468116555
30
0
41
1
10
120.180004359303
20
-8.9959716786453
30
0
41
1
10
120.708700050425
20
-8.92739811380494
30
0
41
1
10
121.762819226857
20
-8.77868524909928
30
0
41
1
10
122.288339509918
20
-8.6986199589015
30
0
41
1
10
122.942486845571
20
-8.5873383213499
30
0
41
1
10
123.073184077224
20
-8.56455578045276
30
0
41
1
10
123.203721715961
20
-8.54111501644894
30
0
0
SPLINE
5
11B
100
AcDbEntity
8
1
62
256
6
ByLayer
370
18
48
1
60
0
100
AcDbSpline
70
4
71
3
72
8
73
4
40
0
40
0
40
0
40
0
40
1
40
1
40
1
40
1
41
1
10
144
20
-11.2056682085452
30
0
41
1
10
143.968333333333
20
-11.2361140395136
30
0
41
1
10
143.936666666667
20
-11.2665598704821
30
0
41
1
10
143.905
20
-11.2970057014505
30
0
0
SPLINE
5
11C
100
AcDbEntity
8
1
62
256
6
ByLayer
370
18
48
1
60
0
100
AcDbSpline
70
4
71
3
72
21
73
17
40
0
40
0
40
0
40
0
40
0.25
40
0.25
40
0.3125
40
0.3125
40
0.375
40
0.375
40
0.5
40
0.625
40
0.625
40
0.6875
40
0.6875
40
0.75
40
0.75
40
1
40
1
40
1
40
1
41
1
10
144
20
8.94876322987633
30
0
41
1
10
144
20
8.33968789932447
30
0
41
1
10
144
20
7.75401938472655
30
0
41
1
10
144
20
7.05023512297703
30
0
41
1
10
144
20
6.91091416114918
30
0
41
1
10
144
20
6.63520454653693
30
0
41
1
10
144
20
6.49860814224434
30
0
41
1
10
144
20
6.09890736348586
30
0
41
1
10
144
20
5.58907476702126
30
0
41
1
10
144
20
5.12424866271664
30
0
41
1
10
144
20
4.79284872132877
30
0
41
1
10
144
20
4.68500388293083
30
0
41
1
10
144
20
4.47641248302773
30
0
41
1
10
144
20
4.37614270593662
30
0
41
1
10
144
20
3.89447521179977
30
0
41
1
10
144
20
3.57121056064023
30
0
41
1
10
144
20
3.31171854392946
30
0
0
SPLINE
5
11D
100
AcDbEntity
8
1
62
256
6
ByLayer
370
18
48
1
60
0
100
AcDbSpline
70
4
71
3
72
8
73
4
40
0
40
0
40
0
40
0
40
1
40
1
40
1
40
1
41
1
10
145.059619407771
20
-11.0035709216247
30
0
41
1
10
145.072990530857
20
-10.998534536924
30
0
41
1
10
145.086951202377
20
-10.9936869709769
30
0
41
1
10
145.101511631845
20
-10.9890379043163
30
0
0
SPLINE
5
11E
100
AcDbEntity
8
1
62
256
6
ByLayer
370
18
48
1
60
0
100
AcDbSpline
70
2053
71
3
72
39
73
35
40
0
40
0
40
0
40
0
40
0.0303275423880117
40
0.06244166185225
40
0.0936280684505432
40
0.124895448984884
40
0.15620080151722
40
0.187378133080943
40
0.219463695419514
40
0.249874324790979
40
0.280283972586073
40
0.312399045817174
40
0.343573446260892
40
0.374905471735627
40
0.406073040362449
40
0.437393640304378
40
0.469530171194965
40
0.499836545293892
40
0.530226387451745
40
0.562472871111275
40
0.593712218158539
40
0.625020065185997
40
0.656196090108165
40
0.687534172044456
40
0.71961749136613
40
0.749981937912943
40
0.780332509281258
40
0.812408165445399
40
0.843737825149612
40
0.874896008657276
40
0.906219128133348
40
0.937471827374989
40
0.969663732156225
40
1
40
1
40
1
40
1
41
1
10
138.96
20
-6.32210090910862
30
0
41
1
10
138.79877236381
20
-6.32210276331917
30
0
41
1
10
138.466819268391
20
-6.35011787488975
30
0
41
1
10
137.988543543987
20
-6.47448196114789
30
0
41
1
10
137.54530343082
20
-6.67666213575737
30
0
41
1
10
137.160643944838
20
-6.93943626036153
30
0
41
1
10
136.844704973597
20
-7.25032672971525
30
0
41
1
10
136.607004286606
20
-7.59657249547388
30
0
41
1
10
136.462349394229
20
-7.95532390039813
30
0
41
1
10
136.414451708637
20
-8.31034693559525
30
0
41
1
10
136.46157689225
20
-8.64915857076656
30
0
41
1
10
136.605558866048
20
-8.96252609173962
30
0
41
1
10
136.842770216273
20
-9.2388931749648
30
0
41
1
10
137.157949654479
20
-9.46775773780894
30
0
41
1
10
137.542341496158
20
-9.64849287966456
30
0
41
1
10
137.985520569064
20
-9.77982649544487
30
0
41
1
10
138.464346111979
20
-9.8580521311473
30
0
41
1
10
138.957809259337
20
-9.88311345672227
30
0
41
1
10
139.451968124502
20
-9.85847716385035
30
0
41
1
10
139.931571222083
20
-9.78049679758161
30
0
41
1
10
140.375788104997
20
-9.64921476194527
30
0
41
1
10
140.760100761172
20
-9.46888912032762
30
0
41
1
10
141.076116712503
20
-9.23990631966942
30
0
41
1
10
141.313702667664
20
-8.96380082356379
30
0
41
1
10
141.458061536253
20
-8.65022216669365
30
0
41
1
10
141.505495108085
20
-8.31202731653823
30
0
41
1
10
141.458200000301
20
-7.95747796205609
30
0
41
1
10
141.314050062416
20
-7.59838978884733
30
0
41
1
10
141.076721246549
20
-7.25201592437153
30
0
41
1
10
140.760925334603
20
-6.94077998310394
30
0
41
1
10
140.376718354092
20
-6.67774144447853
30
0
41
1
10
139.932714734767
20
-6.47486290951767
30
0
41
1
10
139.453687025453
20
-6.35015340424596
30
0
41
1
10
139.12127402256
20
-6.3220990543646
30
0
41
1
10
138.96
20
-6.32210090910862
30
0
0
SPLINE
5
11F
100
AcDbEntity
8
1
62
256
6
ByLayer
370
18
48
1
60
0
100
AcDbSpline
70
4
71
3
72
8
73
4
40
0
40
0
40
0
40
0
40
1
40
1
40
1
40
1
41
1
10
27
20
-6.92800273783249
30
0
41
1
10
26.5091117550791
20
-6.84945917192465
30
0
41
1
10
26.01831974504
20
-6.81814594528961
30
0
41
1
10
25.5282981803335
20
-6.83424203579335
30
0
0
SPLINE
5
120
100
AcDbEntity
8
1
62
256
6
ByLayer
370
18
48
1
60
0
100
AcDbSpline
70
4
71
2
72
9
73
6
40
0
40
0
40
0
40
0.5
40
0.5
40
0.75
40
1
40
1
40
1
41
1
10
149.370277788853
20
0.939035530801419
30
0
41
1
10
149.621242307741
20
-0.218025721011855
30
0
41
1
10
149.957626525029
20
-1.37822483986366
30
0
41
1
10
150.124808502901
20
-1.95484042837046
30
0
41
1
10
150.496187517542
20
-3.08965478260268
30
0
41
1
10
150.697930345293
20
-3.6398000094926
30
0
0
SPLINE
5
121
100
AcDbEntity
8
1
62
256
6
ByLayer
370
18
48
1
60
0
100
AcDbSpline
70
4
71
3
72
28
73
24
40
0
40
0
40
0
40
0
40
0.124999999999995
40
0.124999999999995
40
0.249999999999991
40
0.249999999999991
40
0.374999999999986
40
0.374999999999986
40
0.437499999999984
40
0.437499999999984
40
0.499999999999982
40
0.499999999999982
40
0.624999999999984
40
0.624999999999984
40
0.687499999999985
40
0.687499999999985
40
0.749999999999986
40
0.749999999999986
40
0.874999999999988
40
0.874999999999988
40
0.937499999999994
40
0.937499999999994
40
1
40
1
40
1
40
1
41
1
10
31.7500000001461
20
11.0247164957487
30
0
41
1
10
31.7500000001463
20
10.9642296100678
30
0
41
1
10
31.7642292194707
20
10.9009384364012
30
0
41
1
10
31.8208944767892
20
10.7693116446539
30
0
41
1
10
31.8635165942167
20
10.7007360624997
30
0
41
1
10
31.9782812227373
20
10.5602120259722
30
0
41
1
10
32.0489970030144
20
10.489916472075
30
0
41
1
10
32.1746274631335
20
10.385464749528
30
0
41
1
10
32.2197807867614
20
10.3508150001517
30
0
41
1
10
32.3167734237003
20
10.2820609326726
30
0
41
1
10
32.3688737326136
20
10.247800990144
30
0
41
1
10
32.5336345424691
20
10.1473991807234
30
0
41
1
10
32.6538310998798
20
10.0840408901846
30
0
41
1
10
32.849214445435
20
9.99548147519266
30
0
41
1
10
32.9168709354665
20
9.96704571250123
30
0
41
1
10
33.0573355050794
20
9.91259203200511
30
0
41
1
10
33.1305014548877
20
9.88646784419774
30
0
41
1
10
33.3541653083572
20
9.81338379785311
30
0
41
1
10
33.5093285458072
20
9.77138922314248
30
0
41
1
10
33.750943136438
20
9.71921902473301
30
0
41
1
10
33.8329679376776
20
9.70363894020488
30
0
41
1
10
34.0000569759192
20
9.67630599990946
30
0
41
1
10
34.085253330082
20
9.6645498106717
30
0
41
1
10
34.1710688963991
20
9.65493078799642
30
0
0
SPLINE
5
122
100
AcDbEntity
8
1
62
256
6
ByLayer
370
18
48
1
60
0
100
AcDbSpline
70
4
71
3
72
12
73
8
40
0
40
0
40
0
40
0
40
0.249999999999985
40
0.249999999999985
40
0.499999999999971
40
0.499999999999971
40
1
40
1
40
1
40
1
41
1
10
132.547774531241
20
10.0763545286164
30
0
41
1
10
132.63560267084
20
10.096050126831
30
0
41
1
10
132.721535572393
20
10.1177666220895
30
0
41
1
10
132.889567002404
20
10.165052610182
30
0
41
1
10
132.97200378903
20
10.1907404104822
30
0
41
1
10
133.210959223794
20
10.2725703681406
30
0
41
1
10
133.35711101092
20
10.3326272919524
30
0
41
1
10
133.490626386363
20
10.3967844667291
30
0
0
SPLINE
5
123
100
AcDbEntity
8
1
62
256
6
ByLayer
370
18
48
1
60
0
100
AcDbSpline
70
4
71
3
72
24
73
20
40
0
40
0
40
0
40
0
40
0.0229305225607711
40
0.0229305225607711
40
0.0839973649007228
40
0.0839973649007228
40
0.114530786070699
40
0.114530786070699
40
0.145064207240676
40
0.145064207240676
40
0.267197891920579
40
0.267197891920579
40
0.511465261280386
40
0.511465261280386
40
0.633598945960289
40
0.633598945960289
40
0.755732630640193
40
0.755732630640193
40
1
40
1
40
1
40
1
41
1
10
81.7643292671148
20
-1.28807600174309
30
0
41
1
10
81.3575795143117
20
-1.21143333998805
30
0
41
1
10
80.9508529156675
20
-1.13465748197862
30
0
41
1
10
79.4610401501575
20
-0.852987449578507
30
0
41
1
10
78.3780657767442
20
-0.647400817927149
30
0
41
1
10
76.753694294824
20
-0.338377729869848
30
0
41
1
10
76.2122521260791
20
-0.235262932406641
30
0
41
1
10
75.1293788555092
20
-0.0289178190503208
30
0
41
1
10
74.5879542819039
20
0.0743500715393282
30
0
41
1
10
71.8806270334021
20
0.589677320958089
30
0
41
1
10
69.7142830039572
20
0.999656752287905
30
0
41
1
10
63.2132880409419
20
2.22002365329223
30
0
41
1
10
58.879767331949
20
3.02080260650618
30
0
41
1
10
52.3794682527896
20
4.18229616242621
30
0
41
1
10
50.2125531911009
20
4.56274982643879
30
0
41
1
10
45.8776286397064
20
5.30507097853575
30
0
41
1
10
43.7106677920611
20
5.6667817421224
30
0
41
1
10
37.211590394525
20
6.71395352247663
30
0
41
1
10
32.8807966377545
20
7.3622551457926
30
0
41
1
10
28.547253305074
20
7.92932930926426
30
0
0
SPLINE
5
124
100
AcDbEntity
8
1
62
256
6
ByLayer
370
18
48
1
60
0
100
AcDbSpline
70
4
71
3
72
8
73
4
40
0
40
0
40
0
40
0
40
1
40
1
40
1
40
1
41
1
10
155.610634163867
20
4.11952254236013
30
0
41
1
10
155.604168388776
20
4.11422984541412
30
0
41
1
10
155.597709171776
20
4.10893143673621
30
0
41
1
10
155.591256465946
20
4.1036275522446
30
0
0
SPLINE
5
125
100
AcDbEntity
8
1
62
256
6
ByLayer
370
18
48
1
60
0
100
AcDbSpline
70
4
71
3
72
10
73
6
40
0
40
0
40
0
40
0
40
0.5
40
0.5
40
1
40
1
40
1
40
1
41
1
10
143.90524702803
20
10.9712325572296
30
0
41
1
10
142.358937651115
20
10.9118205466115
30
0
41
1
10
140.815268740472
20
10.8126387525714
30
0
41
1
10
137.729396586219
20
10.526947572577
30
0
41
1
10
136.187109067701
20
10.340179433927
30
0
41
1
10
134.642755085237
20
10.1124784435505
30
0
0
SPLINE
5
126
100
AcDbEntity
8
1
62
256
6
ByLayer
370
18
48
1
60
0
100
AcDbSpline
70
4
71
3
72
8
73
4
40
0
40
0
40
0
40
0
40
1
40
1
40
1
40
1
41
1
10
149.259448196611
20
0.940275456206052
30
0
41
1
10
149.296393477376
20
0.939748414507875
30
0
41
1
10
149.333338746272
20
0.93931457668279
30
0
41
1
10
149.370284004301
20
0.938973757052196
30
0
0
SPLINE
5
127
100
AcDbEntity
8
1
62
256
6
ByLayer
370
18
48
1
60
0
100
AcDbSpline
70
4
71
3
72
10
73
6
40
0
40
0
40
0
40
0
40
0.331264174204477
40
0.664593664159304
40
1
40
1
40
1
40
1
41
1
10
158.600767802323
20
-1.16799341380519
30
0
41
1
10
158.610958315399
20
-1.13859667660438
30
0
41
1
10
158.63140287582
20
-1.07961992387365
30
0
41
1
10
158.661969868965
20
-0.990805630883671
30
0
41
1
10
158.682260922371
20
-0.931423759384586
30
0
41
1
10
158.692437957323
20
-0.901640614581225
30
0
0
SPLINE
5
128
100
AcDbEntity
8
1
62
256
6
ByLayer
370
18
48
1
60
0
100
AcDbSpline
70
4
71
3
72
10
73
6
40
0
40
0
40
0
40
0
40
0.5
40
0.5
40
1
40
1
40
1
40
1
41
1
10
133.490626386363
20
10.3967844667291
30
0
41
1
10
135.223141510549
20
10.7060406115398
30
0
41
1
10
136.954864469222
20
10.964804166011
30
0
41
1
10
140.424604161159
20
11.3747958911503
30
0
41
1
10
142.159494950245
20
11.5256531807989
30
0
41
1
10
143.895
20
11.6220817571003
30
0
0
SPLINE
5
129
100
AcDbEntity
8
1
62
256
6
ByLayer
370
18
48
1
60
0
100
AcDbSpline
70
4
71
3
72
18
73
14
40
0
40
0
40
0
40
0
40
0.249999999999997
40
0.249999999999997
40
0.374999999999997
40
0.374999999999997
40
0.499999999999998
40
0.499999999999998
40
0.624999999999998
40
0.624999999999998
40
0.749999999999999
40
0.749999999999999
40
1
40
1
40
1
40
1
41
1
10
158.737431471752
20
1.11914833667316
30
0
41
1
10
158.695487794993
20
1.30065025912953
30
0
41
1
10
158.64414041983
20
1.50366753906911
30
0
41
1
10
158.553562270541
20
1.83921163404545
30
0
41
1
10
158.521193765439
20
1.95585326963419
30
0
41
1
10
158.453240182876
20
2.19491252359646
30
0
41
1
10
158.417521003212
20
2.31782207041982
30
0
41
1
10
158.342697025476
20
2.57020865439068
30
0
41
1
10
158.303588571984
20
2.69969278239393
30
0
41
1
10
158.221991619391
20
2.96521771849487
30
0
41
1
10
158.179311121486
20
3.10185030915062
30
0
41
1
10
158.048243626635
20
3.51500131121597
30
0
41
1
10
157.956489826986
20
3.79601917995015
30
0
41
1
10
157.860431811461
20
4.08252998359231
30
0
0
SPLINE
5
12A
100
AcDbEntity
8
1
62
256
6
ByLayer
370
18
48
1
60
0
100
AcDbSpline
70
4
71
3
72
16
73
12
40
0
40
0
40
0
40
0
40
0.14517389376653
40
0.14517389376653
40
0.29034778753306
40
0.29034778753306
40
0.580695575066128
40
0.580695575066128
40
0.871043362599195
40
0.871043362599195
40
1
40
1
40
1
40
1
41
1
10
134.642755085237
20
10.1124784435503
30
0
41
1
10
134.575197962735
20
9.93136575011775
30
0
41
1
10
134.505326426905
20
9.7510374688901
30
0
41
1
10
134.360950415898
20
9.39194904542478
30
0
41
1
10
134.286185855689
20
9.2125932264525
30
0
41
1
10
134.056731450938
20
8.68104295262918
30
0
41
1
10
133.898632880475
20
8.3393128177691
30
0
41
1
10
133.575230693067
20
7.67965949379192
30
0
41
1
10
133.409840795298
20
7.36174581763632
30
0
41
1
10
133.169892856223
20
6.91966310708233
30
0
41
1
10
133.096394874813
20
6.7868226327746
30
0
41
1
10
133.024300578661
20
6.65823936168528
30
0
0
SPLINE
5
12B
100
AcDbEntity
8
1
62
256
6
ByLayer
370
18
48
1
60
0
100
AcDbSpline
70
4
71
3
72
18
73
14
40
0
40
0
40
0
40
0
40
0.250000000000003
40
0.250000000000003
40
0.375000000000003
40
0.375000000000003
40
0.500000000000002
40
0.500000000000002
40
0.625000000000002
40
0.625000000000002
40
0.750000000000001
40
0.750000000000001
40
1
40
1
40
1
40
1
41
1
10
158.737431471752
20
-1.11914833667316
30
0
41
1
10
158.695487794993
20
-1.30065025912953
30
0
41
1
10
158.64414041983
20
-1.50366753906911
30
0
41
1
10
158.553562270541
20
-1.83921163404543
30
0
41
1
10
158.521193765439
20
-1.95585326963419
30
0
41
1
10
158.453240182876
20
-2.19491252359643
30
0
41
1
10
158.417521003212
20
-2.31782207041982
30
0
41
1
10
158.342697025476
20
-2.57020865439066
30
0
41
1
10
158.303588571984
20
-2.6996927823939
30
0
41
1
10
158.221991619391
20
-2.96521771849484
30
0
41
1
10
158.179311121486
20
-3.10185030915059
30
0
41
1
10
158.048243626635
20
-3.51500131121594
30
0
41
1
10
157.956489826986
20
-3.79601917995015
30
0
41
1
10
157.860431811461
20
-4.08252998359231
30
0
0
SPLINE
5
12C
100
AcDbEntity
8
1
62
256
6
ByLayer
370
18
48
1
60
0
100
AcDbSpline
70
4
71
3
72
8
73
4
40
0
40
0
40
0
40
0
40
1
40
1
40
1
40
1
41
1
10
25.5282981803336
20
-6.83424203579332
30
0
41
1
10
25.5288863801911
20
-6.83113088944839
30
0
41
1
10
25.5294748113731
20
-6.82801874575813
30
0
41
1
10
25.5300634738577
20
-6.82490560481634
30
0
0
SPLINE
5
12D
100
AcDbEntity
8
1
62
256
6
ByLayer
370
18
48
1
60
0
100
AcDbSpline
70
4
71
3
72
8
73
4
40
0
40
0
40
0
40
0
40
1
40
1
40
1
40
1
41
1
10
156.364401465482
20
8.43272490677387
30
0
41
1
10
156.044065976664
20
9.41686017635541
30
0
41
1
10
155.718249606846
20
10.4068913079361
30
0
41
1
10
155.386721197678
20
11.4030669618572
30
0
0
SPLINE
5
12E
100
AcDbEntity
8
1
62
256
6
ByLayer
370
18
48
1
60
0
100
AcDbSpline
70
4
71
3
72
8
73
4
40
0
40
0
40
0
40
0
40
1
40
1
40
1
40
1
41
1
10
144.145421537682
20
-11.3575973469634
30
0
41
1
10
144.145421537682
20
-11.3412651771077
30
0
41
1
10
144.143809451674
20
-11.3244540824812
30
0
41
1
10
144.14059167962
20
-11.307165930456
30
0
0
SPLINE
5
12F
100
AcDbEntity
8
1
62
256
6
ByLayer
370
18
48
1
60
0
100
AcDbSpline
70
4
71
3
72
8
73
4
40
0
40
0
40
0
40
0
40
1
40
1
40
1
40
1
41
1
10
143.903900311766
20
-11.6225758017262
30
0
41
1
10
143.904267709974
20
-11.6225360324569
30
0
41
1
10
143.904635108183
20
-11.6224962539293
30
0
41
1
10
143.905002506391
20
-11.6224564661436
30
0
0
SPLINE
5
130
100
AcDbEntity
8
1
62
256
6
ByLayer
370
18
48
1
60
0
100
AcDbSpline
70
4
71
3
72
10
73
6
40
0
40
0
40
0
40
0
40
0.5
40
0.5
40
1
40
1
40
1
40
1
41
1
10
153.535197878461
20
0.490530349071776
30
0
41
1
10
153.478221870529
20
0.719382453426419
30
0
41
1
10
153.4275945581
20
0.949952265172328
30
0
41
1
10
153.33810942923
20
1.41427625153756
30
0
41
1
10
153.299644034779
20
1.64725987888866
30
0
41
1
10
153.265819316465
20
1.88084122293532
30
0
0
SPLINE
5
131
100
AcDbEntity
8
1
62
256
6
ByLayer
370
18
48
1
60
0
100
AcDbSpline
70
4
71
3
72
8
73
4
40
0
40
0
40
0
40
0
40
1
40
1
40
1
40
1
41
1
10
158.935879681662
20
0.27409981521015
30
0
41
1
10
158.947732970867
20
0.233582170659503
30
0
41
1
10
158.959635915892
20
0.192966419264025
30
0
41
1
10
158.971588193562
20
0.152254171576146
30
0
0
SPLINE
5
132
100
AcDbEntity
8
1
62
256
6
ByLayer
370
18
48
1
60
0
100
AcDbSpline
70
4
71
3
72
8
73
4
40
0
40
0
40
0
40
0
40
1
40
1
40
1
40
1
41
1
10
144.729863857252
20
-11.9146024052169
30
0
41
1
10
144.486936731185
20
-11.8156952488767
30
0
41
1
10
144.24365660199
20
-11.7152931452949
30
0
41
1
10
144
20
-11.6134632420603
30
0
0
SPLINE
5
133
100
AcDbEntity
8
1
62
256
6
ByLayer
370
18
48
1
60
0
100
AcDbSpline
70
4
71
3
72
8
73
4
40
0
40
0
40
0
40
0
40
1
40
1
40
1
40
1
41
1
10
143.90524702536
20
10.9712325572422
30
0
41
1
10
143.90480607772
20
11.1859824831461
30
0
41
1
10
143.904362992554
20
11.4002978456191
30
0
41
1
10
143.903917807159
20
11.6141719589897
30
0
0
SPLINE
5
134
100
AcDbEntity
8
1
62
256
6
ByLayer
370
18
48
1
60
0
100
AcDbSpline
70
4
71
3
72
14
73
10
40
0
40
0
40
0
40
0
40
0.25
40
0.25
40
0.5
40
0.5
40
0.75
40
0.75
40
1
40
1
40
1
40
1
41
1
10
145.101511631848
20
2.76501398188901
30
0
41
1
10
145.780095760913
20
2.68058921355433
30
0
41
1
10
146.459030778853
20
2.59806698755014
30
0
41
1
10
147.817679823867
20
2.43724637380998
30
0
41
1
10
148.4976090951
20
2.36011505391559
30
0
41
1
10
149.859437284544
20
2.21653196832477
30
0
41
1
10
150.540575041233
20
2.14759880789396
30
0
41
1
10
151.902987866709
20
2.01152383997979
30
0
41
1
10
152.584301715194
20
1.94487024910819
30
0
41
1
10
153.265819316465
20
1.88084122293458
30
0
0
SPLINE
5
135
100
AcDbEntity
8
1
62
256
6
ByLayer
370
18
48
1
60
0
100
AcDbSpline
70
4
71
3
72
14
73
10
40
0
40
0
40
0
40
0
40
0.250000000000004
40
0.250000000000004
40
0.375000000000003
40
0.375000000000003
40
0.500000000000002
40
0.500000000000002
40
1
40
1
40
1
40
1
41
1
10
134.299793305923
20
6.3038877769508
30
0
41
1
10
135.546225221241
20
5.90208383340936
30
0
41
1
10
136.792720701424
20
5.48495839556381
30
0
41
1
10
138.6641555412
20
4.83994831000288
30
0
41
1
10
139.28824504592
20
4.6217157130632
30
0
41
1
10
140.537240985441
20
4.17939550951297
30
0
41
1
10
141.162502189454
20
3.95516543297367
30
0
41
1
10
144.284755981908
20
2.82458162020501
30
0
41
1
10
146.772402849483
20
1.88674534334447
30
0
41
1
10
149.25928650403
20
0.940336989927744
30
0
0
SPLINE
5
136
100
AcDbEntity
8
1
62
256
6
ByLayer
370
18
48
1
60
0
100
AcDbSpline
70
4
71
1
72
4
73
2
40
0
40
0
40
1
40
1
41
1
10
151.847710226826
20
1.72469705356073
30
0
41
1
10
151.842504843684
20
1.73021964881656
30
0
0
SPLINE
5
137
100
AcDbEntity
8
1
62
256
6
ByLayer
370
13
48
1
60
0
100
AcDbSpline
70
4
71
3
72
8
73
4
40
0
40
0
40
0
40
0
40
1
40
1
40
1
40
1
41
1
10
157.724910754695
20
1.1905381574675
30
0
41
1
10
158.062417660381
20
1.16674155053605
30
0
41
1
10
158.399924566066
20
1.14294494360462
30
0
41
1
10
158.737431471752
20
1.11914833667316
30
0
0
SPLINE
5
138
100
AcDbEntity
8
1
62
256
6
ByLayer
370
13
48
1
60
0
100
AcDbSpline
70
4
71
3
72
20
73
16
40
0
40
0
40
0
40
0
40
0.249999999999998
40
0.249999999999998
40
0.499999999999996
40
0.499999999999996
40
0.749999999999993
40
0.749999999999993
40
0.812499999999995
40
0.812499999999995
40
0.874999999999997
40
0.874999999999997
40
0.937499999999998
40
0.937499999999998
40
1
40
1
40
1
40
1
41
1
10
157.702103276709
20
1.20630317854909
30
0
41
1
10
157.472230555054
20
1.36643500102957
30
0
41
1
10
157.249546107065
20
1.54527658190634
30
0
41
1
10
156.829004039226
20
1.94152349241782
30
0
41
1
10
156.630422909682
20
2.15916094837232
30
0
41
1
10
156.263619516893
20
2.64495758741751
30
0
41
1
10
156.100378389961
20
2.90656524880436
30
0
41
1
10
155.928087027612
20
3.26301639945612
30
0
41
1
10
155.895221220669
20
3.33579080357285
30
0
41
1
10
155.833017313857
20
3.48460049842791
30
0
41
1
10
155.803667203357
20
3.56071669881857
30
0
41
1
10
155.749393727203
20
3.71455471454573
30
0
41
1
10
155.724358513182
20
3.79248420565645
30
0
41
1
10
155.678805625073
20
3.95050155598005
30
0
41
1
10
155.658188157472
20
4.03103886801168
30
0
41
1
10
155.640122729026
20
4.11180650371134
30
0
0
SPLINE
5
139
100
AcDbEntity
8
1
62
256
6
ByLayer
370
18
48
1
60
0
100
AcDbSpline
70
4
71
3
72
12
73
8
40
0
40
0
40
0
40
0
40
0.419224153500913
40
0.419224153500913
40
0.709612009461964
40
0.709612009461964
40
1
40
1
40
1
40
1
41
1
10
143.999999999166
20
-11.5225603307531
30
0
41
1
10
143.986733789915
20
-11.5365235106032
30
0
41
1
10
143.973463667213
20
-11.5504851939113
30
0
41
1
10
143.950995055747
20
-11.5741153646573
30
0
41
1
10
143.941798578645
20
-11.5837846158978
30
0
41
1
10
143.923401933109
20
-11.6031217392763
30
0
41
1
10
143.914201763608
20
-11.6127896125341
30
0
41
1
10
143.904999763856
20
-11.6224568050957
30
0
0
SPLINE
5
13A
100
AcDbEntity
8
1
62
256
6
ByLayer
370
18
48
1
60
0
100
AcDbSpline
70
4
71
3
72
18
73
14
40
0
40
0
40
0
40
0
40
0.249999999999969
40
0.249999999999969
40
0.374999999999975
40
0.374999999999975
40
0.49999999999998
40
0.49999999999998
40
0.74999999999999
40
0.74999999999999
40
0.874999999999995
40
0.874999999999995
40
1
40
1
40
1
40
1
41
1
10
129.247197296838
20
7.66477902929816
30
0
41
1
10
129.091207065777
20
7.62146419134132
30
0
41
1
10
128.931095675618
20
7.58921314307406
30
0
41
1
10
128.684608355248
20
7.55837217513698
30
0
41
1
10
128.600950390923
20
7.55101033371824
30
0
41
1
10
128.43361827348
20
7.54257973690315
30
0
41
1
10
128.350288028319
20
7.54149087293806
30
0
41
1
10
128.101276507159
20
7.54735075290679
30
0
41
1
10
127.936566527762
20
7.56337053878352
30
0
41
1
10
127.691484239168
20
7.60561777618719
30
0
41
1
10
127.610526579288
20
7.62270999826629
30
0
41
1
10
127.452304866606
20
7.66218813404959
30
0
41
1
10
127.374697588328
20
7.68463054818764
30
0
41
1
10
127.29856435009
20
7.70965952938192
30
0
0
SPLINE
5
13B
100
AcDbEntity
8
1
62
256
6
ByLayer
370
18
48
1
60
0
100
AcDbSpline
70
4
71
2
72
6
73
3
40
0
40
0
40
0
40
1
40
1
40
1
41
0.500000009708882
10
28.6080234411713
20
8.25670754309576
30
0
41
0.499999990291118
10
28.6082602364736
20
8.25777534045922
30
0
41
0.500000009708882
10
28.6084969830194
20
8.25884287010983
30
0
0
SPLINE
5
13C
100
AcDbEntity
8
1
62
256
6
ByLayer
370
18
48
1
60
0
100
AcDbSpline
70
4
71
3
72
12
73
8
40
0
40
0
40
0
40
0
40
0.414497196951355
40
0.414497196951355
40
0.70724852795783
40
0.70724852795783
40
1
40
1
40
1
40
1
41
1
10
143.999999999007
20
11.5131443111476
30
0
41
1
10
143.986734061533
20
11.5271064506457
30
0
41
1
10
143.973464207903
20
11.5410670936031
30
0
41
1
10
143.950815506219
20
11.5648853677577
30
0
41
1
10
143.941438597469
20
11.5747437348947
30
0
41
1
10
143.922680940104
20
11.5944590360294
30
0
41
1
10
143.913300190356
20
11.6043159712139
30
0
41
1
10
143.90391753703
20
11.6141721992384
30
0
0
SPLINE
5
13D
100
AcDbEntity
8
1
62
256
6
ByLayer
370
18
48
1
60
0
100
AcDbSpline
70
4
71
3
72
8
73
4
40
0
40
0
40
0
40
0
40
1
40
1
40
1
40
1
41
1
10
145.059619407771
20
2.78367654844982
30
0
41
1
10
145.072948301754
20
2.77733636053915
30
0
41
1
10
145.087006822257
20
2.77107515488393
30
0
41
1
10
145.101511631847
20
2.76501398188862
30
0
0
SPLINE
5
13E
100
AcDbEntity
8
1
62
256
6
ByLayer
370
18
48
1
60
0
100
AcDbSpline
70
4
71
3
72
12
73
8
40
0
40
0
40
0
40
0
40
0.249999999999988
40
0.249999999999988
40
0.499999999999977
40
0.499999999999977
40
1
40
1
40
1
40
1
41
1
10
133.500804692035
20
10.346536732816
30
0
41
1
10
133.604953845702
20
10.3463554274721
30
0
41
1
10
133.707498496018
20
10.3417357505921
30
0
41
1
10
133.909267375176
20
10.3228636872718
30
0
41
1
10
134.008832670646
20
10.3085446931075
30
0
41
1
10
134.299993673296
20
10.2499597687228
30
0
41
1
10
134.478953808254
20
10.1913692238948
30
0
41
1
10
134.642755085237
20
10.1124784435505
30
0
0
SPLINE
5
13F
100
AcDbEntity
8
1
62
256
6
ByLayer
370
18
48
1
60
0
100
AcDbSpline
70
4
71
3
72
28
73
24
40
0
40
0
40
0
40
0
40
0.0625
40
0.0625
40
0.125
40
0.125
40
0.250000000000002
40
0.250000000000002
40
0.312500000000004
40
0.312500000000004
40
0.375000000000005
40
0.375000000000005
40
0.500000000000004
40
0.500000000000004
40
0.625000000000003
40
0.625000000000003
40
0.750000000000002
40
0.750000000000002
40
0.875000000000001
40
0.875000000000001
40
0.937500000000001
40
0.937500000000001
40
1
40
1
40
1
40
1
41
1
10
151.842505334719
20
1.73021704066176
30
0
41
1
10
151.822120792478
20
1.63137020193403
30
0
41
1
10
151.799455587072
20
1.53656867211438
30
0
41
1
10
151.749331122467
20
1.3554690288629
30
0
41
1
10
151.722106261093
20
1.27006557512917
30
0
41
1
10
151.634414856984
20
1.03044979730441
30
0
41
1
10
151.567796080832
20
0.892163699583307
30
0
41
1
10
151.455485929532
20
0.717303178043238
30
0
41
1
10
151.415978731935
20
0.664462369945994
30
0
41
1
10
151.332711420785
20
0.569967296289093
30
0
41
1
10
151.288731330121
20
0.528160913036032
30
0
41
1
10
151.152030509745
20
0.421576480132188
30
0
41
1
10
151.054777458039
20
0.375343530022548
30
0
41
1
10
150.848545993935
20
0.330443317331657
30
0
41
1
10
150.739566190483
20
0.331781697773181
30
0
41
1
10
150.509720014743
20
0.382678111246719
30
0
41
1
10
150.391527648411
20
0.431669905790102
30
0
41
1
10
150.149735448734
20
0.572990013057591
30
0
41
1
10
150.026023471332
20
0.665362730174621
30
0
41
1
10
149.836328058632
20
0.83574771341469
30
0
41
1
10
149.772386519824
20
0.897915002860003
30
0
41
1
10
149.644417571356
20
1.03150747522193
30
0
41
1
10
149.580230119641
20
1.10306810865214
30
0
41
1
10
149.515844242573
20
1.17928628931907
30
0
0
SPLINE
5
140
100
AcDbEntity
8
1
62
256
6
ByLayer
370
18
48
1
60
0
100
AcDbSpline
70
4
71
1
72
4
73
2
40
0
40
0
40
1
40
1
41
1
10
28.6084969830193
20
8.25884287010985
30
0
41
1
10
28.547253305074
20
7.92932930926426
30
0
0
SPLINE
5
141
100
AcDbEntity
8
1
62
256
6
ByLayer
370
13
48
1
60
0
100
AcDbSpline
70
4
71
3
72
8
73
4
40
0
40
0
40
0
40
0
40
1
40
1
40
1
40
1
41
1
10
157.656863978299
20
1.16818216722623
30
0
41
1
10
157.664444335419
20
1.16279909057275
30
0
41
1
10
157.672046619888
20
1.15744347418678
30
0
41
1
10
157.679670242598
20
1.15211501841489
30
0
0
SPLINE
5
142
100
AcDbEntity
8
1
62
256
6
ByLayer
370
18
48
1
60
0
100
AcDbSpline
70
4
71
3
72
8
73
4
40
0
40
0
40
0
40
0
40
1
40
1
40
1
40
1
41
1
10
156.364401465482
20
-8.43272490677387
30
0
41
1
10
156.044065976664
20
-9.41686017635541
30
0
41
1
10
155.718249606846
20
-10.4068913079361
30
0
41
1
10
155.386721197678
20
-11.4030669618572
30
0
0
SPLINE
5
143
100
AcDbEntity
8
1
62
256
6
ByLayer
370
18
48
1
60
0
100
AcDbSpline
70
4
71
3
72
8
73
4
40
0
40
0
40
0
40
0
40
1
40
1
40
1
40
1
41
1
10
129.247197296841
20
7.66477902928949
30
0
41
1
10
129.353213752605
20
7.65822477979049
30
0
41
1
10
129.459571908443
20
7.65324812125846
30
0
41
1
10
129.566276166805
20
7.64987767548826
30
0
0
SPLINE
5
144
100
AcDbEntity
8
1
62
256
6
ByLayer
370
13
48
1
60
0
100
AcDbSpline
70
4
71
3
72
10
73
6
40
0
40
0
40
0
40
0
40
0.001815641940165
40
0.001815641940165
40
1
40
1
40
1
40
1
41
1
10
157.724910754733
20
1.19053815746486
30
0
41
1
10
157.724896913973
20
1.19054765087171
30
0
41
1
10
157.724883073146
20
1.19055714419136
30
0
41
1
10
157.71726004361
20
1.19578586955041
30
0
41
1
10
157.709671200356
20
1.20103128113834
30
0
41
1
10
157.702103276709
20
1.20630317854909
30
0
0
SPLINE
5
145
100
AcDbEntity
8
1
62
256
6
ByLayer
370
18
48
1
60
0
100
AcDbSpline
70
4
71
3
72
10
73
6
40
0
40
0
40
0
40
0
40
0.535590293336792
40
0.535590293336792
40
1
40
1
40
1
40
1
41
1
10
155.610634163867
20
4.11952254236013
30
0
41
1
10
155.614478715572
20
4.12266958146714
30
0
41
1
10
155.618812333984
20
4.12537030964242
30
0
41
1
10
155.627440598926
20
4.12889896286129
30
0
41
1
10
155.631748744647
20
4.12995021836394
30
0
41
1
10
155.636042495465
20
4.13031658513722
30
0
0
SPLINE
5
146
100
AcDbEntity
8
1
62
256
6
ByLayer
370
18
48
1
60
0
100
AcDbSpline
70
4
71
3
72
12
73
8
40
0
40
0
40
0
40
0
40
0.5
40
0.5
40
0.75
40
0.75
40
1
40
1
40
1
40
1
41
1
10
157.743144563453
20
-4.43236089919893
30
0
41
1
10
157.503980807319
20
-5.0923094876982
30
0
41
1
10
157.268902812467
20
-5.75647171085956
30
0
41
1
10
156.92281625346
20
-6.75944986393344
30
0
41
1
10
156.808387964391
20
-7.09540026605589
30
0
41
1
10
156.582658537441
20
-7.76770945963838
30
0
41
1
10
156.47221462683
20
-8.1015011169938
30
0
41
1
10
156.364401465482
20
-8.43272490677387
30
0
0
SPLINE
5
147
100
AcDbEntity
8
1
62
256
6
ByLayer
370
18
48
1
60
0
100
AcDbSpline
70
4
71
3
72
8
73
4
40
0
40
0
40
0
40
0
40
1
40
1
40
1
40
1
41
1
10
144.729863857252
20
-11.7610859066882
30
0
41
1
10
144.535288254841
20
-11.673546053416
30
0
41
1
10
144.340478877433
20
-11.5850461952053
30
0
41
1
10
144.145421537682
20
-11.4956213456485
30
0
0
SPLINE
5
148
100
AcDbEntity
8
1
62
256
6
ByLayer
370
18
48
1
60
0
100
AcDbSpline
70
4
71
3
72
8
73
4
40
0
40
0
40
0
40
0
40
1
40
1
40
1
40
1
41
1
10
150.700086456483
20
-3.70023556686246
30
0
41
1
10
150.664413382236
20
-3.7032627839923
30
0
41
1
10
150.628744035229
20
-3.70620413515681
30
0
41
1
10
150.593078418694
20
-3.7090595468953
30
0
0
SPLINE
5
149
100
AcDbEntity
8
1
62
256
6
ByLayer
370
18
48
1
60
0
100
AcDbSpline
70
4
71
3
72
10
73
6
40
0
40
0
40
0
40
0
40
0.5
40
0.5
40
1
40
1
40
1
40
1
41
1
10
155.636042495465
20
4.13031658513577
30
0
41
1
10
155.990415033222
20
4.16055362698543
30
0
41
1
10
156.343789562406
20
4.19708246078184
30
0
41
1
10
157.046964501076
20
4.29267261772276
30
0
41
1
10
157.396879090257
20
4.35101411249684
30
0
41
1
10
157.743144563454
20
4.43236089919841
30
0
0
SPLINE
5
14A
100
AcDbEntity
8
1
62
256
6
ByLayer
370
18
48
1
60
0
100
AcDbSpline
70
4
71
3
72
8
73
4
40
0
40
0
40
0
40
0
40
1
40
1
40
1
40
1
41
1
10
27
20
8.17758382758865
30
0
41
1
10
27.1236273272097
20
8.18390969074429
30
0
41
1
10
27.2468867918763
20
8.18809670520068
30
0
41
1
10
27.3697842007334
20
8.19016681765223
30
0
0
SPLINE
5
14B
100
AcDbEntity
8
1
62
256
6
ByLayer
370
18
48
1
60
0
100
AcDbSpline
70
4
71
3
72
12
73
8
40
0
40
0
40
0
40
0
40
0.512377461822071
40
0.512377461822071
40
0.768566192733106
40
0.768566192733106
40
1
40
1
40
1
40
1
41
1
10
144.145421537682
20
-11.4956213456485
30
0
41
1
10
145.074054176593
20
-11.5853777736195
30
0
41
1
10
146.001655958484
20
-11.6518907154758
30
0
41
1
10
147.391123560355
20
-11.7175297199031
30
0
41
1
10
147.853959714858
20
-11.7336996751834
30
0
41
1
10
148.734395790257
20
-11.753537659187
30
0
41
1
10
149.151961512463
20
-11.7582490152579
30
0
41
1
10
149.569778033887
20
-11.7582494127547
30
0
0
SPLINE
5
14C
100
AcDbEntity
8
1
62
256
6
ByLayer
370
18
48
1
60
0
100
AcDbSpline
70
4
71
3
72
8
73
4
40
0
40
0
40
0
40
0
40
1
40
1
40
1
40
1
41
1
10
143.8
20
3.18816623064194
30
0
41
1
10
143.8
20
3.31330461828458
30
0
41
1
10
143.8
20
3.44805774356507
30
0
41
1
10
143.8
20
3.59237523064192
30
0
0
SPLINE
5
14D
100
AcDbEntity
8
1
62
256
6
ByLayer
370
18
48
1
60
0
100
AcDbSpline
70
4
71
3
72
14
73
10
40
0
40
0
40
0
40
0
40
0.250000000000024
40
0.250000000000024
40
0.37500000000002
40
0.37500000000002
40
0.500000000000015
40
0.500000000000015
40
1
40
1
40
1
40
1
41
1
10
28.5474635845952
20
7.930579868493
30
0
41
1
10
28.4451855804955
20
7.94156926840716
30
0
41
1
10
28.343159438558
20
7.95604023376364
30
0
41
1
10
28.1904508362037
20
7.98247377006004
30
0
41
1
10
28.1396024607128
20
7.99206922142085
30
0
41
1
10
28.0380005903882
20
8.01271065927423
30
0
41
1
10
27.9871541272201
20
8.02378459679568
30
0
41
1
10
27.7379032234536
20
8.08127262134022
30
0
41
1
10
27.5501548459029
20
8.13458797681361
30
0
41
1
10
27.3697842007334
20
8.19016681765223
30
0
0
SPLINE
5
14E
100
AcDbEntity
8
1
62
256
6
ByLayer
370
18
48
1
60
0
100
AcDbSpline
70
4
71
3
72
8
73
4
40
0
40
0
40
0
40
0
40
1
40
1
40
1
40
1
41
1
10
129.566276166794
20
7.64987767548627
30
0
41
1
10
131.144399979459
20
7.22684515115967
30
0
41
1
10
132.721549506396
20
6.77397291948469
30
0
41
1
10
134.299793305984
20
6.2956557406041
30
0
0
SPLINE
5
14F
100
AcDbEntity
8
1
62
256
6
ByLayer
370
18
48
1
60
0
100
AcDbSpline
70
4
71
3
72
8
73
4
40
0
40
0
40
0
40
0
40
1
40
1
40
1
40
1
41
1
10
144
20
11.6134632420603
30
0
41
1
10
144
20
10.7252289055374
30
0
41
1
10
144
20
9.83699553102548
30
0
41
1
10
144
20
8.94876322987633
30
0
0
SPLINE
5
150
100
AcDbEntity
8
1
62
256
6
ByLayer
370
18
48
1
60
0
100
AcDbSpline
70
4
71
3
72
12
73
8
40
0
40
0
40
0
40
0
40
0.249999999999985
40
0.249999999999985
40
0.499999999999969
40
0.499999999999969
40
1
40
1
40
1
40
1
41
1
10
132.547774531241
20
-10.0763545286164
30
0
41
1
10
132.635602670841
20
-10.0960501268312
30
0
41
1
10
132.721535572395
20
-10.11776662209
30
0
41
1
10
132.889567002408
20
-10.1650526101832
30
0
41
1
10
132.972003789036
20
-10.1907404104839
30
0
41
1
10
133.210959223801
20
-10.2725703681435
30
0
41
1
10
133.357111010929
20
-10.3326272919563
30
0
41
1
10
133.490626386374
20
-10.396784466734
30
0
0
SPLINE
5
151
100
AcDbEntity
8
1
62
256
6
ByLayer
370
18
48
1
60
0
100
AcDbSpline
70
4
71
3
72
18
73
14
40
0
40
0
40
0
40
0
40
0.249999999999982
40
0.249999999999982
40
0.37499999999998
40
0.37499999999998
40
0.499999999999978
40
0.499999999999978
40
0.749999999999989
40
0.749999999999989
40
0.874999999999995
40
0.874999999999995
40
1
40
1
40
1
40
1
41
1
10
157.455118205788
20
-3.18176400635122
30
0
41
1
10
157.558977291028
20
-3.06772396515709
30
0
41
1
10
157.66236671125
20
-2.94072606802126
30
0
41
1
10
157.81662512975
20
-2.72744818776101
30
0
41
1
10
157.867906379234
20
-2.65254203819012
30
0
41
1
10
157.970162111577
20
-2.49426617976118
30
0
41
1
10
158.02087964093
20
-2.41123168194582
30
0
41
1
10
158.168861679285
20
-2.15477016321282
30
0
41
1
10
158.263082873352
20
-1.97233908975014
30
0
41
1
10
158.397354949263
20
-1.68044927045548
30
0
41
1
10
158.44106734711
20
-1.5797142662627
30
0
41
1
10
158.524303971444
20
-1.37622272081825
30
0
41
1
10
158.564044882093
20
-1.27303555195161
30
0
41
1
10
158.60197120829
20
-1.16845521545039
30
0
0
SPLINE
5
152
100
AcDbEntity
8
1
62
256
6
ByLayer
370
18
48
1
60
0
100
AcDbSpline
70
4
71
3
72
12
73
8
40
0
40
0
40
0
40
0
40
0.5
40
0.5
40
0.75
40
0.75
40
1
40
1
40
1
40
1
41
1
10
133.490626386378
20
-10.3967844667317
30
0
41
1
10
135.225380301792
20
-10.7064402386131
30
0
41
1
10
136.959339863945
20
-10.9654725170264
30
0
41
1
10
139.565019818113
20
-11.2731554304419
30
0
41
1
10
140.433608389445
20
-11.3621470199428
30
0
41
1
10
142.169253613901
20
-11.5127877904363
30
0
41
1
10
143.036650191434
20
-11.5744824462563
30
0
41
1
10
143.903900312962
20
-11.6225758012606
30
0
0
SPLINE
5
153
100
AcDbEntity
8
1
62
256
6
ByLayer
370
18
48
1
60
0
100
AcDbSpline
70
2053
71
3
72
39
73
35
40
0
40
0
40
0
40
0
40
0.0312174196638072
40
0.0623417988884523
40
0.0935332002232022
40
0.124830413530605
40
0.156003995689732
40
0.187390577942742
40
0.218632242767542
40
0.25001812069526
40
0.281391005604331
40
0.312667215458745
40
0.344062157636191
40
0.375253488160874
40
0.406535345446015
40
0.437713359122823
40
0.468938240619269
40
0.500162918733092
40
0.531270282224151
40
0.562419850842912
40
0.593679131873273
40
0.624821007795866
40
0.656168625006056
40
0.687399773358777
40
0.718751408742864
40
0.750126161620167
40
0.781402377296515
40
0.812823624831166
40
0.844057429538068
40
0.875378070223736
40
0.906619363097378
40
0.937744482864107
40
0.968971968698733
40
1
40
1
40
1
40
1
41
1
10
138.96
20
-6.30882405632105
30
0
41
1
10
139.131819468646
20
-6.3088248974023
30
0
41
1
10
139.474954933734
20
-6.33853298452044
30
0
41
1
10
139.968517885196
20
-6.46889128210319
30
0
41
1
10
140.421967399551
20
-6.67633677148729
30
0
41
1
10
140.818363523715
20
-6.9483566509208
30
0
41
1
10
141.14413797269
20
-7.27041277622754
30
0
41
1
10
141.386528883403
20
-7.6255403559895
30
0
41
1
10
141.536534244865
20
-7.99772574551088
30
0
41
1
10
141.587323356304
20
-8.36921514311794
30
0
41
1
10
141.536419710115
20
-8.72436839442247
30
0
41
1
10
141.386238503854
20
-9.04984723024518
30
0
41
1
10
141.143514534737
20
-9.33516961601219
30
0
41
1
10
140.817512972437
20
-9.57437885711485
30
0
41
1
10
140.421006941983
20
-9.76306852454661
30
0
41
1
10
139.967117009643
20
-9.89936925527601
30
0
41
1
10
139.472924293855
20
-9.98165440911674
30
0
41
1
10
138.957925606466
20
-10.0089810057604
30
0
41
1
10
138.443465588455
20
-9.9812031541675
30
0
41
1
10
137.950049900639
20
-9.89871970134988
30
0
41
1
10
137.497063854293
20
-9.76231094678985
30
0
41
1
10
137.100475346997
20
-9.57319674260566
30
0
41
1
10
136.775337611634
20
-9.33411056935515
30
0
41
1
10
136.532883977406
20
-9.0483949164578
30
0
41
1
10
136.383155470477
20
-8.72308567073125
30
0
41
1
10
136.332736886255
20
-8.3679445476975
30
0
41
1
10
136.383848502986
20
-7.99617104893923
30
0
41
1
10
136.534123359833
20
-7.6243034094131
30
0
41
1
10
136.777333458982
20
-7.2686637183788
30
0
41
1
10
137.103254267227
20
-6.94696755226269
30
0
41
1
10
137.500121038258
20
-6.6752197244048
30
0
41
1
10
137.953650235804
20
-6.46809735342566
30
0
41
1
10
138.446579517297
20
-6.33830686447408
30
0
41
1
10
138.789222917566
20
-6.30882322034243
30
0
41
1
10
138.96
20
-6.30882405632105
30
0
0
SPLINE
5
154
100
AcDbEntity
8
1
62
256
6
ByLayer
370
18
48
1
60
0
100
AcDbSpline
70
4
71
3
72
8
73
4
40
0
40
0
40
0
40
0
40
1
40
1
40
1
40
1
41
1
10
144.729863857252
20
11.9146024052169
30
0
41
1
10
144.486936731185
20
11.8156952488766
30
0
41
1
10
144.24365660199
20
11.7152931452949
30
0
41
1
10
144
20
11.6134632420603
30
0
0
SPLINE
5
155
100
AcDbEntity
8
1
62
256
6
ByLayer
370
13
48
1
60
0
100
AcDbSpline
70
4
71
3
72
14
73
10
40
0
40
0
40
0
40
0
40
0.25
40
0.25
40
0.5
40
0.5
40
0.75
40
0.75
40
1
40
1
40
1
40
1
41
1
10
157.656863978299
20
1.16818216722621
30
0
41
1
10
157.45963973965
20
0.917847006114499
30
0
41
1
10
157.270611893648
20
0.650576945616081
30
0
41
1
10
156.921499391737
20
0.0949398180786432
30
0
41
1
10
156.761495869011
20
-0.193344324760147
30
0
41
1
10
156.480729591021
20
-0.774640114698428
30
0
41
1
10
156.360018244154
20
-1.06754416971944
30
0
41
1
10
156.163614232235
20
-1.64116107725218
30
0
41
1
10
156.087923809561
20
-1.92178256681476
30
0
41
1
10
156.034942682155
20
-2.18914632478158
30
0
0
SPLINE
5
156
100
AcDbEntity
8
1
62
256
6
ByLayer
370
18
48
1
60
0
100
AcDbSpline
70
4
71
3
72
22
73
18
40
0
40
0
40
0
40
0
40
0.0237342381397207
40
0.047400444781929
40
0.0710368473425062
40
0.094681817792823
40
0.118373686473989
40
0.142150556916398
40
0.213006621384398
40
0.283388822488528
40
0.354404111140745
40
0.424707566727803
40
0.565553543881113
40
0.705943091405246
40
0.84588125838381
40
0.985626314395743
40
1
40
1
40
1
40
1
41
1
10
143.905003733851
20
-11.2970057016668
30
0
41
1
10
143.905192996366
20
-11.2925226688052
30
0
41
1
10
143.905570978896
20
-11.2835694531865
30
0
41
1
10
143.908603370637
20
-11.2699286384066
30
0
41
1
10
143.91344294908
20
-11.2561720388634
30
0
41
1
10
143.920265456294
20
-11.2422852120449
30
0
41
1
10
143.929022628779
20
-11.2282748854971
30
0
41
1
10
143.946777344382
20
-11.2048499917482
30
0
41
1
10
143.980102625645
20
-11.17193017718
30
0
41
1
10
144.039438925393
20
-11.1300234269276
30
0
41
1
10
144.11397705779
20
-11.0894270101754
30
0
41
1
10
144.232876620557
20
-11.0382586337973
30
0
41
1
10
144.415410567571
20
-10.9820533639018
30
0
41
1
10
144.677079148122
20
-10.9353221716617
30
0
41
1
10
144.963460471727
20
-10.9162367040484
30
0
41
1
10
145.166709966086
20
-10.9242001106166
30
0
41
1
10
145.268370479901
20
-10.9343899784688
30
0
41
1
10
145.277851716567
20
-10.9353403233478
30
0
0
SPLINE
5
157
100
AcDbEntity
8
1
62
256
6
ByLayer
370
18
48
1
60
0
100
AcDbSpline
70
4
71
3
72
18
73
14
40
0
40
0
40
0
40
0
40
0.249999999999998
40
0.249999999999998
40
0.374999999999997
40
0.374999999999997
40
0.499999999999996
40
0.499999999999996
40
0.749999999999998
40
0.749999999999998
40
0.874999999999999
40
0.874999999999999
40
1
40
1
40
1
40
1
41
1
10
155.411674242831
20
-5.3344057844723
30
0
41
1
10
155.232773587451
20
-4.85653358951893
30
0
41
1
10
155.059209448004
20
-4.37675921798399
30
0
41
1
10
154.80362061771
20
-3.65540191484234
30
0
41
1
10
154.719351597569
20
-3.41461896409942
30
0
41
1
10
154.553739905441
20
-2.93200997926081
30
0
41
1
10
154.472886009575
20
-2.69000905995623
30
0
41
1
10
154.234980863282
20
-1.96235049031955
30
0
41
1
10
154.081802782797
20
-1.475651954738
30
0
41
1
10
153.866296198711
20
-0.741417416517407
30
0
41
1
10
153.796518070444
20
-0.496068540771006
30
0
41
1
10
153.66235527625
20
-0.00378732876095
30
0
41
1
10
153.596850455756
20
0.242894149816266
30
0
41
1
10
153.535197878461
20
0.490530349071776
30
0
0
SPLINE
5
158
100
AcDbEntity
8
1
62
256
6
ByLayer
370
13
48
1
60
0
100
AcDbSpline
70
4
71
3
72
8
73
4
40
0
40
0
40
0
40
0
40
1
40
1
40
1
40
1
41
1
10
155.61297134944
20
4.10892688534307
30
0
41
1
10
155.605732975271
20
4.10716270032904
30
0
41
1
10
155.598494642862
20
4.10539624871831
30
0
41
1
10
155.591256465946
20
4.10362755224463
30
0
0
SPLINE
5
159
100
AcDbEntity
8
1
62
256
6
ByLayer
370
18
48
1
60
0
100
AcDbSpline
70
4
71
3
72
26
73
22
40
0
40
0
40
0
40
0
40
0.124999999999998
40
0.124999999999998
40
0.187499999999996
40
0.187499999999996
40
0.249999999999995
40
0.249999999999995
40
0.374999999999993
40
0.374999999999993
40
0.49999999999999
40
0.49999999999999
40
0.562499999999995
40
0.562499999999995
40
0.624999999999999
40
0.624999999999999
40
0.75
40
0.75
40
0.875
40
0.875
40
1
40
1
40
1
40
1
41
1
10
130.640399063758
20
-7.24930477019817
30
0
41
1
10
130.86215344161
20
-7.28862530428896
30
0
41
1
10
131.085276428535
20
-7.30746884647621
30
0
41
1
10
131.421937074741
20
-7.30659671698598
30
0
41
1
10
131.53450381684
20
-7.30139252922061
30
0
41
1
10
131.760272028473
20
-7.28073981271513
30
0
41
1
10
131.871324093509
20
-7.26548857766096
30
0
41
1
10
132.199188963657
20
-7.20534350107286
30
0
41
1
10
132.410828019326
20
-7.14625700110568
30
0
41
1
10
132.819370262018
20
-6.98700196955278
30
0
41
1
10
133.008538369281
20
-6.88983522417158
30
0
41
1
10
133.270446817956
20
-6.71702710168483
30
0
41
1
10
133.354106039787
20
-6.65484515031474
30
0
41
1
10
133.513659029591
20
-6.52079789055941
30
0
41
1
10
133.588045582931
20
-6.45020234052856
30
0
41
1
10
133.79566562097
20
-6.22768746960764
30
0
41
1
10
133.913658831147
20
-6.06494805287113
30
0
41
1
10
134.106870510963
20
-5.70897658055461
30
0
41
1
10
134.178593617661
20
-5.52229819737116
30
0
41
1
10
134.275238168496
20
-5.13126283821987
30
0
41
1
10
134.299793305028
20
-4.92569877011172
30
0
41
1
10
134.299793305034
20
-4.71752891109966
30
0
0
SPLINE
5
15A
100
AcDbEntity
8
1
62
256
6
ByLayer
370
18
48
1
60
0
100
AcDbSpline
70
4
71
3
72
38
73
34
40
0
40
0
40
0
40
0
40
0.125
40
0.125
40
0.250000000000001
40
0.250000000000001
40
0.375000000000001
40
0.375000000000001
40
0.500000000000002
40
0.500000000000002
40
0.625000000000002
40
0.625000000000002
40
0.750000000000003
40
0.750000000000003
40
0.812500000000003
40
0.812500000000003
40
0.843750000000003
40
0.843750000000003
40
0.875000000000003
40
0.875000000000003
40
0.890625000000003
40
0.890625000000003
40
0.906250000000002
40
0.906250000000002
40
0.921875000000002
40
0.921875000000002
40
0.937500000000002
40
0.937500000000002
40
0.953125000000001
40
0.953125000000001
40
0.968750000000001
40
0.968750000000001
40
1
40
1
40
1
40
1
41
1
10
34.1710688963987
20
9.65493078799648
30
0
41
1
10
38.1926121040546
20
9.20415807898524
30
0
41
1
10
42.2143659679225
20
8.68879770261898
30
0
41
1
10
50.2568810127399
20
7.54821436797445
30
0
41
1
10
54.2788827110602
20
6.92285227250889
30
0
41
1
10
62.3215318622105
20
5.58782518102487
30
0
41
1
10
66.3436517995715
20
4.87818698333538
30
0
41
1
10
74.3863480131526
20
3.40246477323768
30
0
41
1
10
78.4081086911905
20
2.63495234031663
30
0
41
1
10
86.4507491030919
20
1.07760755516546
30
0
41
1
10
90.4729179064564
20
0.286958335798431
30
0
41
1
10
98.5156657274167
20
-1.28823391503332
30
0
41
1
10
102.537704000867
20
-2.07275881446412
30
0
41
1
10
108.569548613318
20
-3.22126993367502
30
0
41
1
10
110.580319888637
20
-3.59959927555769
30
0
41
1
10
113.596611777298
20
-4.15693392670786
30
0
41
1
10
114.601995968285
20
-4.34093952861124
30
0
41
1
10
116.612849090265
20
-4.70458219263278
30
0
41
1
10
117.618237533654
20
-4.88461483159165
30
0
41
1
10
119.125707468684
20
-5.15446527771317
30
0
41
1
10
119.628196496231
20
-5.24390565504382
30
0
41
1
10
120.633910295754
20
-5.41843564346112
30
0
41
1
10
121.137408424557
20
-5.50236395112293
30
0
41
1
10
122.143844141494
20
-5.67155473232054
30
0
41
1
10
122.646575193248
20
-5.75747975839272
30
0
41
1
10
123.647952029016
20
-5.9438638373403
30
0
41
1
10
124.146516829489
20
-6.04453612219046
30
0
41
1
10
125.145298179904
20
-6.23754534710207
30
0
41
1
10
125.64503899887
20
-6.33180613353738
30
0
41
1
10
126.644103245569
20
-6.52015536994847
30
0
41
1
10
127.143585009592
20
-6.61362757485489
30
0
41
1
10
128.642127629094
20
-6.89099549888843
30
0
41
1
10
129.641209877768
20
-7.07213283415135
30
0
41
1
10
130.640399063758
20
-7.24930477019817
30
0
0
SPLINE
5
15B
100
AcDbEntity
8
1
62
256
6
ByLayer
370
18
48
1
60
0
100
AcDbSpline
70
4
71
3
72
8
73
4
40
0
40
0
40
0
40
0
40
1
40
1
40
1
40
1
41
1
10
29.4
20
-7.52209018897207
30
0
41
1
10
28.6001019091102
20
-7.32559017165786
30
0
41
1
10
27.8001282693037
20
-7.1274704422795
30
0
41
1
10
27
20
-6.92800273783249
30
0
0
SPLINE
5
15C
100
AcDbEntity
8
1
62
256
6
ByLayer
370
18
48
1
60
0
100
AcDbSpline
70
4
71
3
72
28
73
24
40
0
40
0
40
0
40
0
40
0.0373961361977332
40
0.0745785153487714
40
0.111547631295768
40
0.148303986477986
40
0.184848092111001
40
0.221180468370442
40
0.25730164457986
40
0.293212159402786
40
0.328912561039079
40
0.364403407425646
40
0.399685266441601
40
0.43475871611796
40
0.469624344851964
40
0.504282751626077
40
0.577262737909531
40
0.649511124976426
40
0.721034033234582
40
0.791837771252743
40
0.861928841812845
40
0.93131394809655
40
1
40
1
40
1
40
1
41
1
10
150.593065983352
20
-3.70904553440397
30
0
41
1
10
150.573210761676
20
-3.65412175570034
30
0
41
1
10
150.533613811158
20
-3.54458814368752
30
0
41
1
10
150.475178605286
20
-3.37951917100494
30
0
41
1
10
150.417664386313
20
-3.2145410504651
30
0
41
1
10
150.361126869131
20
-3.0496078167412
30
0
41
1
10
150.305551253296
20
-2.88478764832462
30
0
41
1
10
150.250941470223
20
-2.7201173191516
30
0
41
1
10
150.1972964754
20
-2.55564085863233
30
0
41
1
10
150.144616546504
20
-2.39139928074053
30
0
41
1
10
150.092901608396
20
-2.22743330679452
30
0
41
1
10
150.042151685681
20
-2.06378265426002
30
0
41
1
10
149.992366754224
20
-1.9004861761824
30
0
41
1
10
149.943546885181
20
-1.73758200510542
30
0
41
1
10
149.895691819877
20
-1.5751068463548
30
0
41
1
10
149.831427704828
20
-1.35306658330666
30
0
41
1
10
149.752155973518
20
-1.07150631029435
30
0
41
1
10
149.659750328864
20
-0.730489909700111
30
0
41
1
10
149.57142839607
20
-0.391451304681141
30
0
41
1
10
149.487167074955
20
-0.0546860581379462
30
0
41
1
10
149.407052373422
20
0.279525169443133
30
0
41
1
10
149.330767919083
20
0.610915331833183
30
0
41
1
10
149.283000294143
20
0.83089409355253
30
0
41
1
10
149.259237405434
20
0.940326598092213
30
0
0
SPLINE
5
15D
100
AcDbEntity
8
1
62
256
6
ByLayer
370
18
48
1
60
0
100
AcDbSpline
70
4
71
3
72
17
73
13
40
0
40
0
40
0
40
0
40
0.0946884455544685
40
0.481412219900932
40
0.609262038860107
40
0.674826735042983
40
0.740389038097532
40
0.80595412800484
40
0.838002903986858
40
0.870052426596972
40
0.902102843514245
40
1
40
1
40
1
40
1
41
1.10374900959774
10
91.9525804442698
20
-0.0023926851802031
30
0
41
1.10374900959774
10
93.1780032384696
20
-0.232205494566009
30
0
41
1.10374900959774
10
99.4093316392222
20
-1.40066115027047
30
0
41
1.10374900959774
10
107.297790986985
20
-2.86568169944331
30
0
41
1.10374900959774
10
114.791794859745
20
-4.19036214301763
30
0
41
1.10374900959774
10
118.133110726974
20
-4.7639876765741
30
0
41
1.10374900959774
10
120.667468253119
20
-5.19986175544067
30
0
41
1.10374900959774
10
122.771421099903
20
-5.52397702836969
30
0
41
1.10374900959774
10
124.432743470384
20
-5.84212493204516
30
0
41
1.10374900959774
10
125.666261735044
20
-6.06628183806903
30
0
41
1.10374900959774
10
127.744268786543
20
-6.44130868932275
30
0
41
1.10374900959774
10
129.411483645743
20
-6.73224094939784
30
0
41
1.10374900959774
10
130.667184856322
20
-6.94534188865925
30
0
0
SPLINE
5
15E
100
AcDbEntity
8
1
62
256
6
ByLayer
370
18
48
1
60
0
100
AcDbSpline
70
4
71
3
72
20
73
16
40
0
40
0
40
0
40
0
40
0.25
40
0.25
40
0.375
40
0.375
40
0.5
40
0.5
40
0.625
40
0.625
40
0.75
40
0.75
40
0.875
40
0.875
40
1
40
1
40
1
40
1
41
1
10
23.5682664323473
20
-5.97969079103052
30
0
41
1
10
23.6625945628439
20
-6.12443215204206
30
0
41
1
10
23.7764293027001
20
-6.24880209963959
30
0
41
1
10
23.9792089372113
20
-6.40824656758539
30
0
41
1
10
24.0525230701388
20
-6.45696042879561
30
0
41
1
10
24.2060687190515
20
-6.54346018913319
30
0
41
1
10
24.2867198229371
20
-6.58164713153593
30
0
41
1
10
24.4557328502423
20
-6.64913011860631
30
0
41
1
10
24.5440939096545
20
-6.67842462503549
30
0
41
1
10
24.7287323958208
20
-6.72894780356702
30
0
41
1
10
24.8239768908594
20
-6.74986671293382
30
0
41
1
10
25.0182185455228
20
-6.78378809739249
30
0
41
1
10
25.1175233367699
20
-6.79687236185094
30
0
41
1
10
25.3205163540724
20
-6.81605593917516
30
0
41
1
10
25.4246084074715
20
-6.82216241783976
30
0
41
1
10
25.5300634738597
20
-6.82490560480579
30
0
0
SPLINE
5
15F
100
AcDbEntity
8
1
62
256
6
ByLayer
370
18
48
1
60
0
100
AcDbSpline
70
4
71
2
72
9
73
6
40
0
40
0
40
0
40
0.24364296348103
40
0.49576197565402
40
0.74788098782701
40
1
40
1
40
1
41
1
10
150.700086883929
20
-3.70023590148509
30
0
41
1
10
150.805967169333
20
-4.56782841813376
30
0
41
1
10
151.119207526145
20
-6.21918327317235
30
0
41
1
10
151.532357642176
20
-7.73491128467842
30
0
41
1
10
152.029339495078
20
-9.04755020013508
30
0
41
1
10
152.313367999068
20
-9.5851741579354
30
0
0
SPLINE
5
160
100
AcDbEntity
8
1
62
256
6
ByLayer
370
18
48
1
60
0
100
AcDbSpline
70
4
71
3
72
8
73
4
40
0
40
0
40
0
40
0
40
1
40
1
40
1
40
1
41
1
10
28.6084969830193
20
8.25884287010985
30
0
41
1
10
28.8723515332127
20
8.23894169388507
30
0
41
1
10
29.1361861936775
20
8.2186356793608
30
0
41
1
10
29.4
20
8.19792405776278
30
0
0
SPLINE
5
161
100
AcDbEntity
8
1
62
256
6
ByLayer
370
18
48
1
60
0
100
AcDbSpline
70
4
71
3
72
12
73
8
40
0
40
0
40
0
40
0
40
0.0750696199817921
40
0.0750696199817921
40
0.537534809990896
40
0.537534809990896
40
1
40
1
40
1
40
1
41
1
10
149.532116907059
20
11.9877754245504
30
0
41
1
10
149.673271224587
20
11.9882682736438
30
0
41
1
10
149.814440991254
20
11.9882134816968
30
0
41
1
10
150.825514156912
20
11.9839078712041
30
0
41
1
10
151.695781314492
20
11.9595532852465
30
0
41
1
10
153.436790269529
20
11.869267828631
30
0
41
1
10
154.307144979197
20
11.8030276157273
30
0
41
1
10
155.180015161794
20
11.7164790552944
30
0
0
SPLINE
5
162
100
AcDbEntity
8
1
62
256
6
ByLayer
370
18
48
1
60
0
100
AcDbSpline
70
4
71
3
72
8
73
4
40
0
40
0
40
0
40
0
40
1
40
1
40
1
40
1
41
1
10
145.059619407771
20
2.78367654844982
30
0
41
1
10
144.704806693439
20
2.95245118833409
30
0
41
1
10
144.350989927886
20
3.12867813211821
30
0
41
1
10
144
20
3.3117185439292
30
0
0
SPLINE
5
163
100
AcDbEntity
8
1
62
256
6
ByLayer
370
18
48
1
60
0
100
AcDbSpline
70
4
71
3
72
8
73
4
40
0
40
0
40
0
40
0
40
1
40
1
40
1
40
1
41
1
10
133.500804692035
20
10.3465367328159
30
0
41
1
10
133.497466383106
20
10.3633202173154
30
0
41
1
10
133.494074477279
20
10.3800698576123
30
0
41
1
10
133.490626386363
20
10.396784466729
30
0
0
SPLINE
5
164
100
AcDbEntity
8
1
62
256
6
ByLayer
370
18
48
1
60
0
100
AcDbSpline
70
4
71
3
72
8
73
4
40
0
40
0
40
0
40
0
40
1
40
1
40
1
40
1
41
1
10
23.1988014684225
20
-5.91004016946636
30
0
41
1
10
23.228335213842
20
-5.9155189833192
30
0
41
1
10
23.2578617632206
20
-5.92098039706693
30
0
41
1
10
23.2873809345771
20
-5.92642448595734
30
0
0
SPLINE
5
165
100
AcDbEntity
8
1
62
256
6
ByLayer
370
18
48
1
60
0
100
AcDbSpline
70
4
71
3
72
18
73
14
40
0
40
0
40
0
40
0
40
0.250000000000002
40
0.250000000000002
40
0.374999999999999
40
0.374999999999999
40
0.499999999999997
40
0.499999999999997
40
0.749999999999998
40
0.749999999999998
40
0.874999999999999
40
0.874999999999999
40
1
40
1
40
1
40
1
41
1
10
144.729863857252
20
11.9146024052169
30
0
41
1
10
145.620142451189
20
11.9581040688157
30
0
41
1
10
146.509530348226
20
11.9797767964202
30
0
41
1
10
147.841929929226
20
11.9801433045048
30
0
41
1
10
148.285630863874
20
11.9748831563795
30
0
41
1
10
149.172521631025
20
11.9535249191846
30
0
41
1
10
149.615557731364
20
11.9373852588896
30
0
41
1
10
150.945712852087
20
11.8730432663959
30
0
41
1
10
151.833092331725
20
11.8088906999888
30
0
41
1
10
153.164930790648
20
11.6807669305583
30
0
41
1
10
153.608992267747
20
11.6327295387257
30
0
41
1
10
154.497095139163
20
11.525679307975
30
0
41
1
10
154.941646515072
20
11.4669555031731
30
0
41
1
10
155.386721197678
20
11.4030669618572
30
0
0
SPLINE
5
166
100
AcDbEntity
8
1
62
256
6
ByLayer
370
13
48
1
60
0
100
AcDbSpline
70
4
71
3
72
8
73
4
40
0
40
0
40
0
40
0
40
1
40
1
40
1
40
1
41
1
10
155.640122728645
20
4.11180650371634
30
0
41
1
10
156.38022575625
20
4.10204766367502
30
0
41
1
10
157.120328783856
20
4.09228882363368
30
0
41
1
10
157.860431811461
20
4.08252998359231
30
0
0
SPLINE
5
167
100
AcDbEntity
8
1
62
256
6
ByLayer
370
18
48
1
60
0
100
AcDbSpline
70
4
71
2
72
6
73
3
40
0
40
0
40
0
40
1
40
1
40
1
41
0.500000052588429
10
132.552086695104
20
-10.0685819241796
30
0
41
0.499999947411571
10
132.549931706457
20
-10.0724723820128
30
0
41
0.500000052588429
10
132.547774531241
20
-10.0763545286164
30
0
0
SPLINE
5
168
100
AcDbEntity
8
1
62
256
6
ByLayer
370
18
48
1
60
0
100
AcDbSpline
70
4
71
3
72
8
73
4
40
0
40
0
40
0
40
0
40
1
40
1
40
1
40
1
41
1
10
143.799999999999
20
3.59237523064181
30
0
41
1
10
143.334139336171
20
3.62931381060761
30
0
41
1
10
142.8682700666
20
3.66474420153401
30
0
41
1
10
142.402375508163
20
3.6986545432988
30
0
0
SPLINE
5
169
100
AcDbEntity
8
1
62
256
6
ByLayer
370
18
48
1
60
0
100
AcDbSpline
70
4
71
3
72
9
73
5
40
0
40
0
40
0
40
0
40
0.496481895308931
40
1
40
1
40
1
40
1
41
1
10
144.000000001978
20
10.7955438490653
30
0
41
1
10
143.984530868495
20
10.8247261561944
30
0
41
1
10
143.953373370851
20
10.883504346104
30
0
41
1
10
143.921364215639
20
10.9418529710218
30
0
41
1
10
143.905247026473
20
10.9712325600518
30
0
0
SPLINE
5
16A
100
AcDbEntity
8
1
62
256
6
ByLayer
370
18
48
1
60
0
100
AcDbSpline
70
4
71
3
72
10
73
6
40
0
40
0
40
0
40
0
40
0.5
40
0.5
40
1
40
1
40
1
40
1
41
1
10
27.3697842007334
20
8.19016681765223
30
0
41
1
10
27.5728796846272
20
8.23146662133206
30
0
41
1
10
27.7793737496561
20
8.25798979872133
30
0
41
1
10
28.1994084907493
20
8.28063431060195
30
0
41
1
10
28.4056459705949
20
8.27635121164542
30
0
41
1
10
28.6080234411713
20
8.25670754309579
30
0
0
SPLINE
5
16B
100
AcDbEntity
8
1
62
256
6
ByLayer
370
18
48
1
60
0
100
AcDbSpline
70
4
71
3
72
8
73
4
40
0
40
0
40
0
40
0
40
1
40
1
40
1
40
1
41
1
10
155.262446680285
20
-11.469101021019
30
0
41
1
10
155.235005064703
20
-11.5515295474538
30
0
41
1
10
155.207527623767
20
-11.6339897732808
30
0
41
1
10
155.180015161794
20
-11.7164790552944
30
0
0
SPLINE
5
16C
100
AcDbEntity
8
1
62
256
6
ByLayer
370
13
48
1
60
0
100
AcDbSpline
70
4
71
3
72
38
73
34
40
0
40
0
40
0
40
0
40
0.249999999999892
40
0.249999999999892
40
0.374999999999831
40
0.374999999999831
40
0.406249999999819
40
0.406249999999819
40
0.437499999999807
40
0.499999999999797
40
0.562499999999786
40
0.578124999999789
40
0.578124999999789
40
0.593749999999793
40
0.593749999999793
40
0.624999999999799
40
0.687499999999824
40
0.687499999999824
40
0.71874999999983
40
0.71874999999983
40
0.749999999999836
40
0.781249999999842
40
0.781249999999842
40
0.79687499999985
40
0.79687499999985
40
0.812499999999858
40
0.874999999999902
40
0.937499999999947
40
0.968749999999969
40
0.968749999999969
40
0.984374999999984
40
0.984374999999984
40
1
40
1
40
1
40
1
41
1
10
156.034942682155
20
-2.18914632478158
30
0
41
1
10
155.835600836654
20
-2.04981830706265
30
0
41
1
10
155.601993484163
20
-1.86909357247623
30
0
41
1
10
155.270161679888
20
-1.58920074481293
30
0
41
1
10
155.162647193017
20
-1.49443520314608
30
0
41
1
10
155.039413953365
20
-1.37969504554545
30
0
41
1
10
155.015859833926
20
-1.35744480033779
30
0
41
1
10
154.966083816792
20
-1.30964950428574
30
0
41
1
10
154.88832773609
20
-1.23390581250189
30
0
41
1
10
154.749146914481
20
-1.09330693672081
30
0
41
1
10
154.626469829204
20
-0.963678928968108
30
0
41
1
10
154.564106539696
20
-0.895501770078369
30
0
41
1
10
154.539722376141
20
-0.868636248652365
30
0
41
1
10
154.528095839429
20
-0.855725035342715
30
0
41
1
10
154.491985300472
20
-0.815262735770318
30
0
41
1
10
154.412909672769
20
-0.725280586991488
30
0
41
1
10
154.327748909506
20
-0.62487090847219
30
0
41
1
10
154.257836445797
20
-0.539837662468273
30
0
41
1
10
154.23240841552
20
-0.508355329267232
30
0
41
1
10
154.179289067381
20
-0.441686265083916
30
0
41
1
10
154.124348965118
20
-0.371853364143249
30
0
41
1
10
154.072420764853
20
-0.30411490444169
30
0
41
1
10
154.037099527808
20
-0.257255378545608
30
0
41
1
10
154.025959864175
20
-0.242329997381688
30
0
41
1
10
154.00251998547
20
-0.210606259353938
30
0
41
1
10
153.942587152794
20
-0.128727956538938
30
0
41
1
10
153.82509678053
20
0.038342286548982
30
0
41
1
10
153.694425327424
20
0.234596230746377
30
0
41
1
10
153.623596914846
20
0.346155834943715
30
0
41
1
10
153.590081261384
20
0.399988839674791
30
0
41
1
10
153.579361975577
20
0.417384120108267
30
0
41
1
10
153.55808100617
20
0.452331999184708
30
0
41
1
10
153.546836803207
20
0.47100927086214
30
0
41
1
10
153.535197878461
20
0.490530349071804
30
0
0
SPLINE
5
16D
100
AcDbEntity
8
1
62
256
6
ByLayer
370
18
48
1
60
0
100
AcDbSpline
70
4
71
1
72
4
73
2
40
0
40
0
40
1
40
1
41
1
10
25.6738260671541
20
-6.14823050103041
30
0
41
1
10
25.5282981803335
20
-6.83424203579335
30
0
0
SPLINE
5
16E
100
AcDbEntity
8
1
62
256
6
ByLayer
370
13
48
1
60
0
100
AcDbSpline
70
4
71
3
72
8
73
4
40
0
40
0
40
0
40
0
40
1
40
1
40
1
40
1
41
1
10
157.455118205788
20
-3.18176400635122
30
0
41
1
10
156.981726364577
20
-2.85089144582798
30
0
41
1
10
156.508334523366
20
-2.52001888530481
30
0
41
1
10
156.034942682155
20
-2.18914632478158
30
0
0
SPLINE
5
16F
100
AcDbEntity
8
1
62
256
6
ByLayer
370
18
48
1
60
0
100
AcDbSpline
70
4
71
3
72
40
73
36
40
0
40
0
40
0
40
0
40
0.0651922512781211
40
0.0651922512781211
40
0.130384502556242
40
0.130384502556242
40
0.260769005112484
40
0.260769005112484
40
0.391153507668727
40
0.391153507668727
40
0.423749633307787
40
0.423749633307787
40
0.456345758946848
40
0.456345758946848
40
0.521538010224969
40
0.521538010224969
40
0.58673026150309
40
0.58673026150309
40
0.651922512781211
40
0.651922512781211
40
0.782307015337454
40
0.782307015337454
40
0.912691517893696
40
0.912691517893696
40
0.928989580713227
40
0.928989580713227
40
0.937138612122992
40
0.937138612122992
40
0.945287643532758
40
0.945287643532758
40
0.97788376917182
40
0.97788376917182
40
0.994181831991351
40
0.994181831991351
40
1
40
1
40
1
40
1
41
1
10
31.7500000000914
20
-7.32654016266233
30
0
41
1
10
33.744045116805
20
-7.61748624483778
30
0
41
1
10
35.7384846303356
20
-7.89245772182107
30
0
41
1
10
39.7286322881488
20
-8.4107146331684
30
0
41
1
10
41.7243082977821
20
-8.65401302844646
30
0
41
1
10
47.710944063456
20
-9.33700527332269
30
0
41
1
10
51.7026153772188
20
-9.73041191632646
30
0
41
1
10
59.6871995912534
20
-10.3937239515447
30
0
41
1
10
63.6770131021844
20
-10.6637702880452
30
0
41
1
10
68.6615552063436
20
-10.914045665565
30
0
41
1
10
69.6583271844091
20
-10.9596778529049
30
0
41
1
10
71.6516518446005
20
-11.0415698171598
30
0
41
1
10
72.6480040584518
20
-11.0778745522802
30
0
41
1
10
75.6373997288908
20
-11.1707239924444
30
0
41
1
10
77.6305864428671
20
-11.211685488528
30
0
41
1
10
81.6182833259436
20
-11.2529038489788
30
0
41
1
10
83.6127807782078
20
-11.2533503441718
30
0
41
1
10
87.6034492244312
20
-11.2165633461994
30
0
41
1
10
89.5993633034368
20
-11.1793549212292
30
0
41
1
10
95.5864271096293
20
-11.0143472513051
30
0
41
1
10
99.5783067196565
20
-10.8338326245816
30
0
41
1
10
107.562019676802
20
-10.3334020743789
30
0
41
1
10
111.552631212562
20
-10.0132739881267
30
0
41
1
10
116.037846475007
20
-9.56626935358358
30
0
41
1
10
116.536149791867
20
-9.51538375480794
30
0
41
1
10
117.283537727357
20
-9.43716939332646
30
0
41
1
10
117.532656224973
20
-9.41078520793644
30
0
41
1
10
118.030868785488
20
-9.35737349518553
30
0
41
1
10
118.28002713616
20
-9.33053249123878
30
0
41
1
10
119.524716565583
20
-9.1916915012047
30
0
41
1
10
120.517274102397
20
-9.06894620006406
30
0
41
1
10
121.994639593175
20
-8.85320822650544
30
0
41
1
10
122.485277091037
20
-8.77588696007314
30
0
41
1
10
123.14707730384
20
-8.65963010633081
30
0
41
1
10
123.320828329239
20
-8.62806332689365
30
0
41
1
10
123.494081736917
20
-8.59511648187043
30
0
0
SPLINE
5
170
100
AcDbEntity
8
1
62
256
6
ByLayer
370
18
48
1
60
0
100
AcDbSpline
70
4
71
3
72
12
73
8
40
0
40
0
40
0
40
0
40
0.5
40
0.5
40
0.75
40
0.75
40
1
40
1
40
1
40
1
41
1
10
157.743144563453
20
4.43236089919893
30
0
41
1
10
157.503980807319
20
5.0923094876982
30
0
41
1
10
157.268902812467
20
5.75647171085956
30
0
41
1
10
156.92281625346
20
6.75944986393344
30
0
41
1
10
156.808387964391
20
7.09540026605589
30
0
41
1
10
156.582658537441
20
7.76770945963838
30
0
41
1
10
156.47221462683
20
8.1015011169938
30
0
41
1
10
156.364401465482
20
8.43272490677387
30
0
0
SPLINE
5
171
100
AcDbEntity
8
1
62
256
6
ByLayer
370
18
48
1
60
0
100
AcDbSpline
70
4
71
3
72
28
73
24
40
0
40
0
40
0
40
0
40
0.124999999999989
40
0.124999999999989
40
0.249999999999978
40
0.249999999999978
40
0.31249999999998
40
0.31249999999998
40
0.374999999999982
40
0.374999999999982
40
0.437499999999984
40
0.437499999999984
40
0.499999999999986
40
0.499999999999986
40
0.62499999999999
40
0.62499999999999
40
0.749999999999995
40
0.749999999999995
40
0.812499999999997
40
0.812499999999997
40
0.874999999999999
40
0.874999999999999
40
1
40
1
40
1
40
1
41
1
10
130.667184856322
20
-6.94534188865921
30
0
41
1
10
130.888367228429
20
-6.98287802452262
30
0
41
1
10
131.115057109192
20
-7.00035286253313
30
0
41
1
10
131.56209549782
20
-6.99583035061812
30
0
41
1
10
131.783698707065
20
-6.97432267651783
30
0
41
1
10
132.113136561331
20
-6.91173528519747
30
0
41
1
10
132.220988724866
20
-6.88600839793935
30
0
41
1
10
132.431081982198
20
-6.82536626799077
30
0
41
1
10
132.533624279276
20
-6.79039406384911
30
0
41
1
10
132.733710740204
20
-6.7109246742888
30
0
41
1
10
132.831255418895
20
-6.66642915014214
30
0
41
1
10
133.021165977289
20
-6.56727200893121
30
0
41
1
10
133.112082150512
20
-6.51333970519167
30
0
41
1
10
133.371530271402
20
-6.33937861104042
30
0
41
1
10
133.527642869307
20
-6.20697247315402
30
0
41
1
10
133.804994642416
20
-5.90555981040563
30
0
41
1
10
133.920839524723
20
-5.7423718326568
30
0
41
1
10
134.062038856642
20
-5.47835993745281
30
0
41
1
10
134.103631607085
20
-5.38712432722861
30
0
41
1
10
134.175577845117
20
-5.19780028754482
30
0
41
1
10
134.205232749546
20
-5.10154831894101
30
0
41
1
10
134.276222605194
20
-4.80817687363637
30
0
41
1
10
134.29979326565
20
-4.60642242606832
30
0
41
1
10
134.299793305099
20
-4.39822149859606
30
0
0
SPLINE
5
172
100
AcDbEntity
8
1
62
256
6
ByLayer
370
18
48
1
60
0
100
AcDbSpline
70
4
71
3
72
18
73
14
40
0
40
0
40
0
40
0
40
0.125000000000009
40
0.125000000000009
40
0.250000000000018
40
0.250000000000018
40
0.500000000000012
40
0.500000000000012
40
0.625000000000009
40
0.625000000000009
40
0.750000000000005
40
0.750000000000005
40
1
40
1
40
1
40
1
41
1
10
25.673629137593
20
-6.14900159811685
30
0
41
1
10
25.6066346147472
20
-6.13969643050561
30
0
41
1
10
25.5393845581103
20
-6.1304339478481
30
0
41
1
10
25.4064111380435
20
-6.11229086829246
30
0
41
1
10
25.3408767734731
20
-6.10343524348286
30
0
41
1
10
25.1470589741741
20
-6.077505083213
30
0
41
1
10
25.021548497692
20
-6.06106849716431
30
0
41
1
10
24.8387840051148
20
-6.03762271577079
30
0
41
1
10
24.7787824903764
20
-6.03000866470427
30
0
41
1
10
24.6606491956721
20
-6.01516820630761
30
0
41
1
10
24.602591496201
20
-6.00795175994514
30
0
41
1
10
24.4340758760553
20
-5.98719373321436
30
0
41
1
10
24.3282444282865
20
-5.97441412103632
30
0
41
1
10
24.2286076914028
20
-5.96250490450211
30
0
0
SPLINE
5
173
100
AcDbEntity
8
1
62
256
6
ByLayer
370
13
48
1
60
0
100
AcDbSpline
70
4
71
3
72
8
73
4
40
0
40
0
40
0
40
0
40
1
40
1
40
1
40
1
41
1
10
130.640399063758
20
-7.24930477019817
30
0
41
1
10
130.649300535195
20
-7.148046071788
30
0
41
1
10
130.65822943361
20
-7.04672535296328
30
0
41
1
10
130.667184856322
20
-6.94534188865921
30
0
0
SPLINE
5
174
100
AcDbEntity
8
1
62
256
6
ByLayer
370
13
48
1
60
0
100
AcDbSpline
70
4
71
3
72
8
73
4
40
0
40
0
40
0
40
0
40
1
40
1
40
1
40
1
41
1
10
155.640122728633
20
4.1118065037812
30
0
41
1
10
155.639900005935
20
4.1128244180434
30
0
41
1
10
155.639676417884
20
4.11384215709984
30
0
41
1
10
155.639451964576
20
4.1148597186862
30
0
0
SPLINE
5
175
100
AcDbEntity
8
1
62
256
6
ByLayer
370
18
48
1
60
0
100
AcDbSpline
70
4
71
3
72
46
73
42
40
0
40
0
40
0
40
0
40
0.124999999999999
40
0.124999999999999
40
0.249999999999997
40
0.249999999999997
40
0.374999999999995
40
0.374999999999995
40
0.499999999999994
40
0.499999999999994
40
0.562499999999992
40
0.562499999999992
40
0.593749999999991
40
0.593749999999991
40
0.62499999999999
40
0.62499999999999
40
0.687499999999988
40
0.687499999999988
40
0.718749999999988
40
0.718749999999988
40
0.749999999999988
40
0.749999999999988
40
0.812499999999989
40
0.812499999999989
40
0.82812499999999
40
0.82812499999999
40
0.84374999999999
40
0.84374999999999
40
0.874999999999993
40
0.874999999999993
40
0.906249999999995
40
0.906249999999995
40
0.921874999999996
40
0.921874999999996
40
0.937499999999997
40
0.937499999999997
40
0.968749999999998
40
0.968749999999998
40
0.984374999999999
40
0.984374999999999
40
1
40
1
40
1
40
1
41
1
10
23.1988014684225
20
-5.91004016946636
30
0
41
1
10
22.4806150700559
20
-5.776809198168
30
0
41
1
10
21.7774771941202
20
-5.65000273718479
30
0
41
1
10
20.3856679988339
20
-5.40307005258657
30
0
41
1
10
19.6971048123109
20
-5.28297541579616
30
0
41
1
10
18.3197227811996
20
-5.03596749322469
30
0
41
1
10
17.6309385230829
20
-4.90921618299905
30
0
41
1
10
16.2369101243568
20
-4.62562930384848
30
0
41
1
10
15.5332043232643
20
-4.46953251686989
30
0
41
1
10
14.458676563472
20
-4.18350647394286
30
0
41
1
10
14.0973303973705
20
-4.07935021998466
30
0
41
1
10
13.5497546981707
20
-3.90356176768816
30
0
41
1
10
13.3663072875112
20
-3.84168357246787
30
0
41
1
10
12.9975041945084
20
-3.70994144655717
30
0
41
1
10
12.8118054444635
20
-3.63993074342221
30
0
41
1
10
12.2563684166649
20
-3.41715508015355
30
0
41
1
10
11.8872344875144
20
-3.25152092979118
30
0
41
1
10
11.3389137677349
20
-2.9670042108593
30
0
41
1
10
11.1570577007885
20
-2.86611833818921
30
0
41
1
10
10.7961251801974
20
-2.64990432905472
30
0
41
1
10
10.6163627743641
20
-2.53405665230426
30
0
41
1
10
10.0912858023
20
-2.1663600847572
30
0
41
1
10
9.75833142123309
20
-1.89388927284222
30
0
41
1
10
9.372909259072
20
-1.50865136334698
30
0
41
1
10
9.29738087794073
20
-1.42935107938013
30
0
41
1
10
9.14975870411234
20
-1.26587956973995
30
0
41
1
10
9.07752601692792
20
-1.18150943721014
30
0
41
1
10
8.86918009347301
20
-0.923870724847689
30
0
41
1
10
8.74054695010244
20
-0.745221248794792
30
0
41
1
10
8.50569911440078
20
-0.373040711119273
30
0
41
1
10
8.39946836209521
20
-0.179520151854291
30
0
41
1
10
8.25899050347437
20
0.123172463235704
30
0
41
1
10
8.21521614581229
20
0.22648319151196
30
0
41
1
10
8.13567686671303
20
0.434054750438065
30
0
41
1
10
8.09973201415585
20
0.538647233136345
30
0
41
1
10
8.0034076706267
20
0.85486382033281
30
0
41
1
10
7.9544951480629
20
1.06891860723147
30
0
41
1
10
7.90493951456989
20
1.39508031188066
30
0
41
1
10
7.89240006267624
20
1.50464945737917
30
0
41
1
10
7.87556409229131
20
1.72554845006707
30
0
41
1
10
7.87129150101521
20
1.83735148300317
30
0
41
1
10
7.87129150101521
20
1.94816587911845
30
0
0
SPLINE
5
176
100
AcDbEntity
8
1
62
256
6
ByLayer
370
18
48
1
60
0
100
AcDbSpline
70
4
71
1
72
4
73
2
40
0
40
0
40
1
40
1
41
1
10
150.697932278288
20
-3.6398557659351
30
0
41
1
10
150.70008685974
20
-3.7002357032782
30
0
0
SPLINE
5
177
100
AcDbEntity
8
1
62
256
6
ByLayer
370
18
48
1
60
0
100
AcDbSpline
70
4
71
3
72
8
73
4
40
0
40
0
40
0
40
0
40
1
40
1
40
1
40
1
41
1
10
143.8
20
4.65000000000001
30
0
41
1
10
143.8
20
4.24153210358492
30
0
41
1
10
143.8
20
3.88930990499063
30
0
41
1
10
143.8
20
3.59237523064189
30
0
0
SPLINE
5
178
100
AcDbEntity
8
1
62
256
6
ByLayer
370
13
48
1
60
0
100
AcDbSpline
70
4
71
3
72
18
73
14
40
0
40
0
40
0
40
0
40
0.249999999999996
40
0.249999999999996
40
0.374999999999993
40
0.374999999999993
40
0.499999999999991
40
0.499999999999991
40
0.749999999999992
40
0.749999999999992
40
0.874999999999996
40
0.874999999999996
40
1
40
1
40
1
40
1
41
1
10
144
20
8.94876322987633
30
0
41
1
10
145.03072903199
20
8.99599440639224
30
0
41
1
10
146.06121348592
20
9.01682716100808
30
0
41
1
10
147.606374877722
20
9.01470540044295
30
0
41
1
10
148.121436465851
20
9.00886634330811
30
0
41
1
10
149.151744978772
20
8.98770672958491
30
0
41
1
10
149.667058250513
20
8.97277181467615
30
0
41
1
10
151.212999772132
20
8.90862386466057
30
0
41
1
10
152.243296946747
20
8.84176511052419
30
0
41
1
10
153.788355738579
20
8.71100153877154
30
0
41
1
10
154.303515976737
20
8.66328057836691
30
0
41
1
10
155.333950466417
20
8.55603212026034
30
0
41
1
10
155.849192364943
20
8.49698399808779
30
0
41
1
10
156.364401465482
20
8.43272490677387
30
0
0
SPLINE
5
179
100
AcDbEntity
8
1
62
256
6
ByLayer
370
18
48
1
60
0
100
AcDbSpline
70
4
71
3
72
8
73
4
40
0
40
0
40
0
40
0
40
1
40
1
40
1
40
1
41
1
10
130.98135175234
20
7.25217567312689
30
0
41
1
10
131.865223062773
20
7.00693620120649
30
0
41
1
10
132.748628315649
20
6.75357717088241
30
0
41
1
10
133.631855618831
20
6.49282251446803
30
0
0
SPLINE
5
17A
100
AcDbEntity
8
1
62
256
6
ByLayer
370
18
48
1
60
0
100
AcDbSpline
70
4
71
3
72
16
73
12
40
0
40
0
40
0
40
0
40
0.329897735755372
40
0.329897735755372
40
0.497423301816529
40
0.497423301816529
40
0.664948867877686
40
0.664948867877686
40
0.832474433938843
40
0.832474433938843
40
1
40
1
40
1
40
1
41
1
10
134.757700974881
20
6.15646737509201
30
0
41
1
10
136.379598391179
20
5.66627887558386
30
0
41
1
10
138.001308528725
20
5.15218345912086
30
0
41
1
10
140.448948799086
20
4.34773935131975
30
0
41
1
10
141.274044303193
20
4.07164864550521
30
0
41
1
10
142.923411010092
20
3.51140953329042
30
0
41
1
10
143.747676675007
20
3.22720614321292
30
0
41
1
10
145.39591527358
20
2.65193202225427
30
0
41
1
10
146.219884781564
20
2.36083652199639
30
0
41
1
10
147.868156458059
20
1.77336610903777
30
0
41
1
10
148.692376391684
20
1.47702766551495
30
0
41
1
10
149.515844242572
20
1.17928628931912
30
0
0
SPLINE
5
17B
100
AcDbEntity
8
1
62
256
6
ByLayer
370
18
48
1
60
0
100
AcDbSpline
70
4
71
3
72
26
73
22
40
0
40
0
40
0
40
0
40
0.204498578221319
40
0.204498578221319
40
0.255623222776643
40
0.255623222776643
40
0.262013803346063
40
0.262013803346063
40
0.268404383915482
40
0.268404383915482
40
0.28118554505432
40
0.28118554505432
40
0.306747867332007
40
0.306747867332007
40
0.408997156442755
40
0.408997156442755
40
0.61349573466425
40
0.61349573466425
40
0.817994312885745
40
0.817994312885745
40
1
40
1
40
1
40
1
41
1
10
132.38279536125
20
9.51854553329252
30
0
41
1
10
131.859409847213
20
9.42931735073694
30
0
41
1
10
131.33599277993
20
9.33627873320188
30
0
41
1
10
130.681733178584
20
9.21651753080778
30
0
41
1
10
130.550880044132
20
9.19233501109676
30
0
41
1
10
130.403625446268
20
9.16447107270648
30
0
41
1
10
130.387272476896
20
9.16115021797975
30
0
41
1
10
130.354475983581
20
9.15647620019939
30
0
41
1
10
130.338074574256
20
9.15417439905346
30
0
41
1
10
130.288863999343
20
9.1472668974437
30
0
41
1
10
130.256047329884
20
9.14268302749676
30
0
41
1
10
130.157560087288
20
9.12896261517122
30
0
41
1
10
130.091853742697
20
9.11985266746248
30
0
41
1
10
129.763056457605
20
9.07407896273295
30
0
41
1
10
129.499148080833
20
9.03649677850427
30
0
41
1
10
128.705305679307
20
8.92361922349519
30
0
41
1
10
128.173203499424
20
8.84756365103638
30
0
41
1
10
127.104611588265
20
8.69631206634736
30
0
41
1
10
126.56861943782
20
8.62128751409136
30
0
41
1
10
125.55385253404
20
8.48062664099641
30
0
41
1
10
125.075152961154
20
8.41502325408263
30
0
41
1
10
124.595727140194
20
8.35003838245009
30
0
0
SPLINE
5
17C
100
AcDbEntity
8
1
62
256
6
ByLayer
370
13
48
1
60
0
100
AcDbSpline
70
4
71
3
72
10
73
6
40
0
40
0
40
0
40
0
40
0.019312289431521
40
0.019312289431521
40
1
40
1
40
1
40
1
41
1
10
155.612971349449
20
4.10892688534514
30
0
41
1
10
155.612975621303
20
4.1089075172757
30
0
41
1
10
155.612979893488
20
4.10888814927392
30
0
41
1
10
155.613201075069
20
4.10788525740142
30
0
41
1
10
155.613417130492
20
4.10690155705106
30
0
41
1
10
155.613632331005
20
4.10591768232447
30
0
0
SPLINE
5
17D
100
AcDbEntity
8
1
62
256
6
ByLayer
370
18
48
1
60
0
100
AcDbSpline
70
4
71
3
72
12
73
8
40
0
40
0
40
0
40
0
40
0.249999999999994
40
0.249999999999994
40
0.499999999999988
40
0.499999999999988
40
1
40
1
40
1
40
1
41
1
10
23.5682664323473
20
-5.97969079103055
30
0
41
1
10
23.6078643936198
20
-5.97012364857514
30
0
41
1
10
23.6515146414067
20
-5.96202618315647
30
0
41
1
10
23.7465328159264
20
-5.94977157461611
30
0
41
1
10
23.7975652574048
20
-5.94564105134379
30
0
41
1
10
23.9618744052688
20
-5.94008943885177
30
0
41
1
10
24.0862037334136
20
-5.94548387767949
30
0
41
1
10
24.2286076914028
20
-5.96250490450217
30
0
0
SPLINE
5
17E
100
AcDbEntity
8
1
62
256
6
ByLayer
370
18
48
1
60
0
100
AcDbSpline
70
4
71
3
72
42
73
38
40
0
40
0
40
0
40
0
40
0.0625000000000001
40
0.0625000000000001
40
0.0937500000000001
40
0.0937500000000001
40
0.125
40
0.125
40
0.140625000000001
40
0.140625000000001
40
0.156250000000001
40
0.156250000000001
40
0.187500000000001
40
0.187500000000001
40
0.218750000000001
40
0.218750000000001
40
0.250000000000001
40
0.250000000000001
40
0.312500000000001
40
0.312500000000001
40
0.343750000000001
40
0.343750000000001
40
0.375000000000001
40
0.375000000000001
40
0.437500000000001
40
0.437500000000001
40
0.500000000000002
40
0.500000000000002
40
0.562500000000002
40
0.562500000000002
40
0.625000000000002
40
0.625000000000002
40
0.750000000000002
40
0.750000000000002
40
0.875000000000001
40
0.875000000000001
40
1
40
1
40
1
40
1
41
1
10
7.87129150101521
20
1.94816587911845
30
0
41
1
10
7.87129150101521
20
2.39160116950183
30
0
41
1
10
7.93781098409698
20
2.82425056978627
30
0
41
1
10
8.13372965001275
20
3.45715006003579
30
0
41
1
10
8.21382130646708
20
3.66072140211711
30
0
41
1
10
8.40023622937747
20
4.05272454752028
30
0
41
1
10
8.50665814050163
20
4.24140666757305
30
0
41
1
10
8.68483690919342
20
4.51385833698217
30
0
41
1
10
8.74746908004431
20
4.60306456945824
30
0
41
1
10
8.87711431832398
20
4.77586490620681
30
0
41
1
10
8.94428559386867
20
4.85972628732674
30
0
41
1
10
9.15232129759045
20
5.10411102215849
30
0
41
1
10
9.29969048205072
20
5.25745142186443
30
0
41
1
10
9.60954135479022
20
5.54665348939093
30
0
41
1
10
9.77292645715443
20
5.68312575124423
30
0
41
1
10
10.107270166079
20
5.93569398877054
30
0
41
1
10
10.2783690487067
20
6.05210819852397
30
0
41
1
10
10.8008160450413
20
6.37585247750167
30
0
41
1
10
11.1611921111488
20
6.55783112541909
30
0
41
1
10
11.7125883642562
20
6.79199586228577
30
0
41
1
10
11.8985345467353
20
6.86360572756669
30
0
41
1
10
12.2684415165461
20
6.99385013935759
30
0
41
1
10
12.4530055750082
20
7.05276353221944
30
0
41
1
10
13.0051321724557
20
7.21394845051765
30
0
41
1
10
13.3710884726187
20
7.30079192602463
30
0
41
1
10
14.0979845151074
20
7.44546294607267
30
0
41
1
10
14.458946100278
20
7.50323161698213
30
0
41
1
10
15.1762173751578
20
7.59833632609894
30
0
41
1
10
15.5329099597863
20
7.63566187204492
30
0
41
1
10
16.2394229570404
20
7.69609376725356
30
0
41
1
10
16.5896140918932
20
7.7192472763852
30
0
41
1
10
17.6341604676974
20
7.77531446538262
30
0
41
1
10
18.3225405871411
20
7.79520484090304
30
0
41
1
10
19.6992080294339
20
7.82828936299018
30
0
41
1
10
20.3874420649752
20
7.8413125537642
30
0
41
1
10
21.7784738728401
20
7.87802954306963
30
0
41
1
10
22.481174453855
20
7.90166406205262
30
0
41
1
10
23.1988014684225
20
7.93572045284441
30
0
0
SPLINE
5
17F
100
AcDbEntity
8
1
62
256
6
ByLayer
370
18
48
1
60
0
100
AcDbSpline
70
4
71
3
72
10
73
6
40
0
40
0
40
0
40
0
40
0.5
40
0.5
40
1
40
1
40
1
40
1
41
1
10
158.69369940016
20
-0.902062359531755
30
0
41
1
10
158.752013091676
20
-0.72347267949749
30
0
41
1
10
158.803621000422
20
-0.546487091481225
30
0
41
1
10
158.895658380025
20
-0.195189912445727
30
0
41
1
10
158.936072887712
20
-0.0208819007702346
30
0
41
1
10
158.971588193562
20
0.152254171576146
30
0
0
SPLINE
5
180
100
AcDbEntity
8
1
62
256
6
ByLayer
370
18
48
1
60
0
100
AcDbSpline
70
4
71
3
72
8
73
4
40
0
40
0
40
0
40
0
40
1
40
1
40
1
40
1
41
1
10
149.515844242573
20
1.17928628931898
30
0
41
1
10
149.46771386045
20
1.09812519097795
30
0
41
1
10
149.419199091198
20
1.01801304830426
30
0
41
1
10
149.370291200952
20
0.938973695172507
30
0
0
SPLINE
5
181
100
AcDbEntity
8
1
62
256
6
ByLayer
370
18
48
1
60
0
100
AcDbSpline
70
4
71
3
72
10
73
6
40
0
40
0
40
0
40
0
40
0.5
40
0.5
40
1
40
1
40
1
40
1
41
1
10
24.5640470942785
20
8.04722532280312
30
0
41
1
10
24.3443793413751
20
8.02167352701824
30
0
41
1
10
24.1269682208418
20
7.99947385736158
30
0
41
1
10
23.7010620876063
20
7.96332153551407
30
0
41
1
10
23.4922407832765
20
7.94931501532437
30
0
41
1
10
23.2873809345771
20
7.93986528439083
30
0
0
SPLINE
5
182
100
AcDbEntity
8
1
62
256
6
ByLayer
370
18
48
1
60
0
100
AcDbSpline
70
4
71
3
72
8
73
4
40
0
40
0
40
0
40
0
40
1
40
1
40
1
40
1
41
1
10
31.7500000000914
20
-7.32656116558201
30
0
41
1
10
31.7500000000923
20
-7.51079973674894
30
0
41
1
10
31.7500000000931
20
-7.69514853592656
30
0
41
1
10
31.750000000094
20
-7.8796074627619
30
0
0
SPLINE
5
183
100
AcDbEntity
8
1
62
256
6
ByLayer
370
18
48
1
60
0
100
AcDbSpline
70
4
71
1
72
4
73
2
40
0
40
0
40
1
40
1
41
1
10
152.313368507197
20
-9.58516731661797
30
0
41
1
10
152.190698494653
20
-9.63998720182803
30
0
0
SPLINE
5
184
100
AcDbEntity
8
1
62
256
6
ByLayer
370
18
48
1
60
0
100
AcDbSpline
70
4
71
3
72
8
73
4
40
0
40
0
40
0
40
0
40
1
40
1
40
1
40
1
41
1
10
158.935879681662
20
-0.27409981521015
30
0
41
1
10
158.947732970867
20
-0.233582170659503
30
0
41
1
10
158.959635915892
20
-0.192966419264025
30
0
41
1
10
158.971588193562
20
-0.152254171576146
30
0
0
SPLINE
5
185
100
AcDbEntity
8
1
62
256
6
ByLayer
370
18
48
1
60
0
100
AcDbSpline
70
4
71
3
72
18
73
14
40
0
40
0
40
0
40
0
40
0.249999999999992
40
0.249999999999992
40
0.374999999999988
40
0.374999999999988
40
0.499999999999984
40
0.499999999999984
40
0.749999999999992
40
0.749999999999992
40
0.874999999999996
40
0.874999999999996
40
1
40
1
40
1
40
1
41
1
10
155.591256465946
20
4.1036275522446
30
0
41
1
10
155.364589153979
20
3.91731544190068
30
0
41
1
10
155.14230658937
20
3.73034425501149
30
0
41
1
10
154.819427712778
20
3.44561142908898
30
0
41
1
10
154.713374677569
20
3.35000134236967
30
0
41
1
10
154.507178595105
20
3.16016589491986
30
0
41
1
10
154.406685804777
20
3.06566857926009
30
0
41
1
10
154.113024636971
20
2.78369973700603
30
0
41
1
10
153.927799021992
20
2.59758455559583
30
0
41
1
10
153.665824953365
20
2.32334857510682
30
0
41
1
10
153.580915834273
20
2.23247455141382
30
0
41
1
10
153.417918377502
20
2.05388941625796
30
0
41
1
10
153.3400363511
20
1.96642108647083
30
0
41
1
10
153.265819316465
20
1.88084122293532
30
0
0
SPLINE
5
186
100
AcDbEntity
8
1
62
256
6
ByLayer
370
18
48
1
60
0
100
AcDbSpline
70
4
71
3
72
14
73
10
40
0
40
0
40
0
40
0
40
0.25
40
0.25
40
0.5
40
0.5
40
0.75
40
0.75
40
1
40
1
40
1
40
1
41
1
10
24.5640470942785
20
8.04722532280312
30
0
41
1
10
24.7503904618136
20
8.06890081959403
30
0
41
1
10
24.9443533578719
20
8.08743877764022
30
0
41
1
10
25.3371947968724
20
8.11845871648055
30
0
41
1
10
25.5369216193776
20
8.13107703972707
30
0
41
1
10
25.9432596519216
20
8.15168002232068
30
0
41
1
10
26.149869122696
20
8.15966627446184
30
0
41
1
10
26.5704330645702
20
8.17163239225292
30
0
41
1
10
26.7852722269166
20
8.17561046945815
30
0
41
1
10
27
20
8.17758382758868
30
0
0
SPLINE
5
187
100
AcDbEntity
8
1
62
256
6
ByLayer
370
18
48
1
60
0
100
AcDbSpline
70
4
71
3
72
8
73
4
40
0
40
0
40
0
40
0
40
1
40
1
40
1
40
1
41
1
10
23.2873809345771
20
7.93986528439086
30
0
41
1
10
23.2578617632206
20
7.93850363041878
30
0
41
1
10
23.228335213842
20
7.93712203438346
30
0
41
1
10
23.1988014684225
20
7.93572045284441
30
0
0
LINE
5
70
100
AcDbEntity
8
81
62
256
6
ByLayer
370
18
48
1
60
0
100
AcDbLine
10
144
20
0
30
0
11
149
21
0
31
0
39
0
210
0
220
0
230
1
0
LINE
5
71
100
AcDbEntity
8
1
62
256
6
ByLayer
370
18
48
1
60
0
100
AcDbLine
10
7.8713
20
20
30
0
11
0.2
21
20
31
0
39
0
210
0
220
0
230
1
0
LINE
5
73
100
AcDbEntity
8
1
62
256
6
ByLayer
370
18
48
1
60
0
100
AcDbLine
10
0.2
20
-20
30
0
11
7.8713
21
-20
31
0
39
0
210
0
220
0
230
1
0
LINE
5
74
100
AcDbEntity
8
1
62
256
6
ByLayer
370
18
48
1
60
0
100
AcDbLine
10
0.2
20
20
30
0
11
0
21
19.8
31
0
39
0
210
0
220
0
230
1
0
LINE
5
75
100
AcDbEntity
8
1
62
256
6
ByLayer
370
18
48
1
60
0
100
AcDbLine
10
0
20
-19.8
30
0
11
0.2
21
-20
31
0
39
0
210
0
220
0
230
1
0
LINE
5
76
100
AcDbEntity
8
SK1
62
256
6
ByLayer
370
18
48
1
60
0
100
AcDbLine
10
-1.6
20
-15.996
30
0
11
-1.144243
21
-15.783477
31
0
39
0
210
0
220
0
230
1
0
LINE
5
78
100
AcDbEntity
8
SK1
62
256
6
ByLayer
370
18
48
1
60
0
100
AcDbLine
10
-1.144243
20
15.783477
30
0
11
-1.6
21
15.996
31
0
39
0
210
0
220
0
230
1
0
LINE
5
79
100
AcDbEntity
8
SK1
62
256
6
ByLayer
370
18
48
1
60
0
100
AcDbLine
10
-57.3
20
15.996
30
0
11
-57.426311
21
15.887988
31
0
39
0
210
0
220
0
230
1
0
LINE
5
7A
100
AcDbEntity
8
SK1
62
256
6
ByLayer
370
18
48
1
60
0
100
AcDbLine
10
-57.426311
20
-15.887988
30
0
11
-57.3
21
-15.996
31
0
39
0
210
0
220
0
230
1
0
LINE
5
7B
100
AcDbEntity
8
SK1
62
256
6
ByLayer
370
18
48
1
60
0
100
AcDbLine
10
-58.6
20
15.996
30
0
11
-59
21
15.996
31
0
39
0
210
0
220
0
230
1
0
LINE
5
7C
100
AcDbEntity
8
SK1
62
256
6
ByLayer
370
18
48
1
60
0
100
AcDbLine
10
-59
20
-15.996
30
0
11
-58.6
21
-15.996
31
0
39
0
210
0
220
0
230
1
0
LINE
5
7D
100
AcDbEntity
8
SK1
62
256
6
ByLayer
370
18
48
1
60
0
100
AcDbLine
10
-58.6
20
-15.996
30
0
11
-58.449692
21
-15.874283
31
0
39
0
210
0
220
0
230
1
0
LINE
5
7E
100
AcDbEntity
8
SK1
62
256
6
ByLayer
370
18
48
1
60
0
100
AcDbLine
10
-58.449692
20
15.874283
30
0
11
-58.6
21
15.996
31
0
39
0
210
0
220
0
230
1
0
LINE
5
7F
100
AcDbEntity
8
SK1
62
256
6
ByLayer
370
18
48
1
60
0
100
AcDbLine
10
-59
20
15.996
30
0
11
-60
21
14.996
31
0
39
0
210
0
220
0
230
1
0
LINE
5
80
100
AcDbEntity
8
SK1
62
256
6
ByLayer
370
18
48
1
60
0
100
AcDbLine
10
-60
20
-14.996
30
0
11
-59
21
-15.996
31
0
39
0
210
0
220
0
230
1
0
LINE
5
81
100
AcDbEntity
8
SK1
62
256
6
ByLayer
370
18
48
1
60
0
100
AcDbLine
10
-0.975195
20
-15.746
30
0
11
-0.15
21
-15.746
31
0
39
0
210
0
220
0
230
1
0
LINE
5
82
100
AcDbEntity
8
SK1
62
256
6
ByLayer
370
18
48
1
60
0
100
AcDbLine
10
-0.15
20
15.746
30
0
11
-0.975195
21
15.746
31
0
39
0
210
0
220
0
230
1
0
LINE
5
83
100
AcDbEntity
8
1
62
256
6
ByLayer
370
18
48
1
60
0
100
AcDbLine
10
31.75
20
11.75
30
0
11
29.4
21
11.75
31
0
39
0
210
0
220
0
230
1
0
LINE
5
84
100
AcDbEntity
8
1
62
256
6
ByLayer
370
18
48
1
60
0
100
AcDbLine
10
23.198801
20
-12.51005
30
0
11
23.287381
21
-12.463643
31
0
39
0
210
0
220
0
230
1
0
LINE
5
85
100
AcDbEntity
8
1
62
256
6
ByLayer
370
18
48
1
60
0
100
AcDbLine
10
23.287381
20
12.463643
30
0
11
23.198801
21
12.51005
31
0
39
0
210
0
220
0
230
1
0
LINE
5
86
100
AcDbEntity
8
1
62
256
6
ByLayer
370
18
48
1
60
0
100
AcDbLine
10
29.4
20
-11.75
30
0
11
31.75
21
-11.75
31
0
39
0
210
0
220
0
230
1
0
LINE
5
87
100
AcDbEntity
8
1
62
256
6
ByLayer
370
18
48
1
60
0
100
AcDbLine
10
149.569549
20
-11.75825
30
0
11
154.874279
21
-11.75825
31
0
39
0
210
0
220
0
230
1
0
LINE
5
88
100
AcDbEntity
8
1
62
256
6
ByLayer
370
18
48
1
60
0
100
AcDbLine
10
149.531626
20
11.987776
30
0
11
147.220427
21
11.979687
31
0
39
0
210
0
220
0
230
1
0
LINE
5
89
100
AcDbEntity
8
1
62
256
6
ByLayer
370
18
48
1
60
0
100
AcDbLine
10
147.220427
20
-11.979687
30
0
11
149.531626
21
-11.987776
31
0
39
0
210
0
220
0
230
1
0
LINE
5
8A
100
AcDbEntity
8
1
62
256
6
ByLayer
370
18
48
1
60
0
100
AcDbLine
10
27
20
-11.55
30
0
11
29.4
21
-11.75
31
0
39
0
210
0
220
0
230
1
0
LINE
5
8B
100
AcDbEntity
8
1
62
256
6
ByLayer
370
18
48
1
60
0
100
AcDbLine
10
29.4
20
11.75
30
0
11
27
21
11.55
31
0
39
0
210
0
220
0
230
1
0
LINE
5
8C
100
AcDbEntity
8
SK1
62
256
6
ByLayer
370
18
48
1
60
0
100
AcDbLine
10
-1.6
20
15.996
30
0
11
-57.3
21
15.996
31
0
39
0
210
0
220
0
230
1
0
LINE
5
8D
100
AcDbEntity
8
SK1
62
256
6
ByLayer
370
18
48
1
60
0
100
AcDbLine
10
-57.3
20
-15.996
30
0
11
-1.6
21
-15.996
31
0
39
0
210
0
220
0
230
1
0
LINE
5
8E
100
AcDbEntity
8
80
62
256
6
ByLayer
370
18
48
1
60
0
100
AcDbLine
10
0
20
0
30
0
11
-5
21
0
31
0
39
0
210
0
220
0
230
1
0
LINE
5
8F
100
AcDbEntity
8
4
62
256
6
ByLayer
370
18
48
0.05
60
0
100
AcDbLine
10
144
20
0
30
0
11
0
21
0
31
0
39
0
210
0
220
0
230
1
0
LINE
5
91
100
AcDbEntity
8
SK4
62
256
6
ByLayer
370
18
48
0.05
60
0
100
AcDbLine
10
164
20
0
30
0
11
-65
21
0
31
0
39
0
210
0
220
0
230
1
0
LINE
5
93
100
AcDbEntity
8
SK1
62
256
6
ByLayer
370
13
48
1
60
0
100
AcDbLine
10
-0.975195
20
15.746
30
0
11
-0.975195
21
-15.746
31
0
39
0
210
0
220
0
230
1
0
LINE
5
94
100
AcDbEntity
8
SK1
62
256
6
ByLayer
370
13
48
1
60
0
100
AcDbLine
10
-1.144243
20
0
30
0
11
-1.144243
21
-15.783477
31
0
39
0
210
0
220
0
230
1
0
LINE
5
95
100
AcDbEntity
8
SK1
62
256
6
ByLayer
370
13
48
1
60
0
100
AcDbLine
10
-1.144243
20
15.783477
30
0
11
-1.144243
21
0
31
0
39
0
210
0
220
0
230
1
0
LINE
5
96
100
AcDbEntity
8
SK1
62
256
6
ByLayer
370
18
48
1
60
0
100
AcDbLine
10
-57.3
20
0
30
0
11
-57.3
21
-15.996
31
0
39
0
210
0
220
0
230
1
0
LINE
5
97
100
AcDbEntity
8
SK1
62
256
6
ByLayer
370
18
48
1
60
0
100
AcDbLine
10
-57.3
20
15.996
30
0
11
-57.3
21
0
31
0
39
0
210
0
220
0
230
1
0
LINE
5
98
100
AcDbEntity
8
SK1
62
256
6
ByLayer
370
13
48
1
60
0
100
AcDbLine
10
-0.15
20
0
30
0
11
-0.15
21
-15.746
31
0
39
0
210
0
220
0
230
1
0
LINE
5
99
100
AcDbEntity
8
SK1
62
256
6
ByLayer
370
13
48
1
60
0
100
AcDbLine
10
-0.15
20
15.746
30
0
11
-0.15
21
0
31
0
39
0
210
0
220
0
230
1
0
LINE
5
9A
100
AcDbEntity
8
SK1
62
256
6
ByLayer
370
13
48
1
60
0
100
AcDbLine
10
-6.5
20
-8.082178
30
0
11
-6.5
21
8.082178
31
0
39
0
210
0
220
0
230
1
0
LINE
5
9B
100
AcDbEntity
8
SK1
62
256
6
ByLayer
370
13
48
1
60
0
100
AcDbLine
10
-57.426311
20
-15.887988
30
0
11
-57.426311
21
0
31
0
39
0
210
0
220
0
230
1
0
LINE
5
9C
100
AcDbEntity
8
SK1
62
256
6
ByLayer
370
13
48
1
60
0
100
AcDbLine
10
-57.426311
20
0
30
0
11
-57.426311
21
15.887988
31
0
39
0
210
0
220
0
230
1
0
LINE
5
9D
100
AcDbEntity
8
SK1
62
256
6
ByLayer
370
18
48
1
60
0
100
AcDbLine
10
-1.6
20
-15.996
30
0
11
-1.6
21
0
31
0
39
0
210
0
220
0
230
1
0
LINE
5
9E
100
AcDbEntity
8
SK1
62
256
6
ByLayer
370
18
48
1
60
0
100
AcDbLine
10
-1.6
20
0
30
0
11
-1.6
21
15.996
31
0
39
0
210
0
220
0
230
1
0
LINE
5
9F
100
AcDbEntity
8
SK1
62
256
6
ByLayer
370
18
48
1
60
0
100
AcDbLine
10
-6.5
20
8.082178
30
0
11
-53.5
21
8.082178
31
0
39
0
210
0
220
0
230
1
0
LINE
5
A0
100
AcDbEntity
8
SK1
62
256
6
ByLayer
370
13
48
1
60
0
100
AcDbLine
10
-53.5
20
8.082178
30
0
11
-53.5
21
-8.082178
31
0
39
0
210
0
220
0
230
1
0
LINE
5
A1
100
AcDbEntity
8
SK1
62
256
6
ByLayer
370
18
48
1
60
0
100
AcDbLine
10
-59
20
0
30
0
11
-59
21
-15.996
31
0
39
0
210
0
220
0
230
1
0
LINE
5
A2
100
AcDbEntity
8
SK1
62
256
6
ByLayer
370
18
48
1
60
0
100
AcDbLine
10
-59
20
15.996
30
0
11
-59
21
0
31
0
39
0
210
0
220
0
230
1
0
LINE
5
A3
100
AcDbEntity
8
SK1
62
256
6
ByLayer
370
13
48
1
60
0
100
AcDbLine
10
-58.449692
20
-15.874283
30
0
11
-58.449692
21
0
31
0
39
0
210
0
220
0
230
1
0
LINE
5
A4
100
AcDbEntity
8
SK1
62
256
6
ByLayer
370
13
48
1
60
0
100
AcDbLine
10
-58.449692
20
0
30
0
11
-58.449692
21
15.874283
31
0
39
0
210
0
220
0
230
1
0
LINE
5
A5
100
AcDbEntity
8
SK1
62
256
6
ByLayer
370
18
48
1
60
0
100
AcDbLine
10
-53.5
20
-8.082178
30
0
11
-6.5
21
-8.082178
31
0
39
0
210
0
220
0
230
1
0
LINE
5
A6
100
AcDbEntity
8
SK1
62
256
6
ByLayer
370
18
48
1
60
0
100
AcDbLine
10
-58.6
20
-15.996
30
0
11
-58.6
21
15.996
31
0
39
0
210
0
220
0
230
1
0
LINE
5
A7
100
AcDbEntity
8
SK1
62
256
6
ByLayer
370
18
48
1
60
0
100
AcDbLine
10
-60
20
0
30
0
11
-60
21
-14.996
31
0
39
0
210
0
220
0
230
1
0
LINE
5
A8
100
AcDbEntity
8
SK1
62
256
6
ByLayer
370
18
48
1
60
0
100
AcDbLine
10
-60
20
14.996
30
0
11
-60
21
0
31
0
39
0
210
0
220
0
230
1
0
LINE
5
A9
100
AcDbEntity
8
1
62
256
6
ByLayer
370
18
48
1
60
0
100
AcDbLine
10
158.912801
20
0.360274
30
0
11
158.737431
21
1.119148
31
0
39
0
210
0
220
0
230
1
0
LINE
5
AA
100
AcDbEntity
8
1
62
256
6
ByLayer
370
18
48
1
60
0
100
AcDbLine
10
152.597735
20
-10.935343
30
0
11
152.605479
21
-10.931954
31
0
39
0
210
0
220
0
230
1
0
LINE
5
AB
100
AcDbEntity
8
1
62
256
6
ByLayer
370
18
48
1
60
0
100
AcDbLine
10
155.435848
20
-5.398977
30
0
11
157.455118
21
-3.181764
31
0
39
0
210
0
220
0
230
1
0
LINE
5
AC
100
AcDbEntity
8
1
62
256
6
ByLayer
370
18
48
1
60
0
100
AcDbLine
10
31.75
20
-11.75
30
0
11
31.75
21
-7.879607
31
0
39
0
210
0
220
0
230
1
0
LINE
5
AD
100
AcDbEntity
8
1
62
256
6
ByLayer
370
18
48
1
60
0
100
AcDbLine
10
153.165798
20
-3.641198
30
0
11
153.165684
21
-3.6398
31
0
39
0
210
0
220
0
230
1
0
LINE
5
AE
100
AcDbEntity
8
1
62
256
6
ByLayer
370
18
48
1
60
0
100
AcDbLine
10
153.165798
20
-10.437602
30
0
11
153.165798
21
-3.641198
31
0
39
0
210
0
220
0
230
1
0
LINE
5
AF
100
AcDbEntity
8
1
62
256
6
ByLayer
370
18
48
1
60
0
100
AcDbLine
10
145.101512
20
-10.989038
30
0
11
153.471721
21
-10.989038
31
0
39
0
210
0
220
0
230
1
0
LINE
5
B0
100
AcDbEntity
8
1
62
256
6
ByLayer
370
18
48
1
60
0
100
AcDbLine
10
152.313366
20
-9.58517
30
0
11
153.165798
21
-10.437602
31
0
39
0
210
0
220
0
230
1
0
LINE
5
B1
100
AcDbEntity
8
1
62
256
6
ByLayer
370
18
48
1
60
0
100
AcDbLine
10
158.912801
20
-0.360274
30
0
11
158.737431
21
-1.119148
31
0
39
0
210
0
220
0
230
1
0
LINE
5
B2
100
AcDbEntity
8
1
62
256
6
ByLayer
370
18
48
1
60
0
100
AcDbLine
10
158.694522
20
-0.902165
30
0
11
159.005308
21
0.000285
31
0
39
0
210
0
220
0
230
1
0
LINE
5
B3
100
AcDbEntity
8
1
62
256
6
ByLayer
370
13
48
1
60
0
100
AcDbLine
10
145.059619
20
-10.924941
30
0
11
145.059619
21
-11.003571
31
0
39
0
210
0
220
0
230
1
0
LINE
5
B4
100
AcDbEntity
8
1
62
256
6
ByLayer
370
18
48
1
60
0
100
AcDbLine
10
29.4
20
11.75
30
0
11
29.4
21
8.197924
31
0
39
0
210
0
220
0
230
1
0
LINE
5
B5
100
AcDbEntity
8
1
62
256
6
ByLayer
370
18
48
1
60
0
100
AcDbLine
10
150.697932
20
-3.6398
30
0
11
153.165684
21
-3.6398
31
0
39
0
210
0
220
0
230
1
0
LINE
5
B6
100
AcDbEntity
8
1
62
256
6
ByLayer
370
18
48
1
60
0
100
AcDbLine
10
29.4
20
-11.75
30
0
11
29.4
21
-7.52209
31
0
39
0
210
0
220
0
230
1
0
LINE
5
B7
100
AcDbEntity
8
1
62
256
6
ByLayer
370
18
48
1
60
0
100
AcDbLine
10
144
20
-11.205668
30
0
11
144
21
-11.239297
31
0
39
0
210
0
220
0
230
1
0
LINE
5
B8
100
AcDbEntity
8
1
62
256
6
ByLayer
370
18
48
1
60
0
100
AcDbLine
10
27
20
11.55
30
0
11
27
21
8.177584
31
0
39
0
210
0
220
0
230
1
0
LINE
5
B9
100
AcDbEntity
8
1
62
256
6
ByLayer
370
18
48
1
60
0
100
AcDbLine
10
0
20
19.8
30
0
11
0
21
-19.8
31
0
39
0
210
0
220
0
230
1
0
LINE
5
BA
100
AcDbEntity
8
1
62
256
6
ByLayer
370
13
48
1
60
0
100
AcDbLine
10
23.287381
20
12.463643
30
0
11
23.287381
21
7.939865
31
0
39
0
210
0
220
0
230
1
0
LINE
5
BB
100
AcDbEntity
8
1
62
256
6
ByLayer
370
13
48
1
60
0
100
AcDbLine
10
7.8713
20
1.948166
30
0
11
7.8713
21
-20
31
0
39
0
210
0
220
0
230
1
0
LINE
5
BC
100
AcDbEntity
8
1
62
256
6
ByLayer
370
13
48
1
60
0
100
AcDbLine
10
143.8
20
3.65
30
0
11
144.005013
21
3.65
31
0
39
0
210
0
220
0
230
1
0
LINE
5
BD
100
AcDbEntity
8
1
62
256
6
ByLayer
370
18
48
1
60
0
100
AcDbLine
10
144
20
3.15
30
0
11
144
21
3.311719
31
0
39
0
210
0
220
0
230
1
0
LINE
5
BE
100
AcDbEntity
8
1
62
256
6
ByLayer
370
18
48
1
60
0
100
AcDbLine
10
31.75
20
11.75
30
0
11
31.75
21
11.024716
31
0
39
0
210
0
220
0
230
1
0
LINE
5
BF
100
AcDbEntity
8
1
62
256
6
ByLayer
370
13
48
1
60
0
100
AcDbLine
10
23.198801
20
12.51005
30
0
11
23.198801
21
7.93572
31
0
39
0
210
0
220
0
230
1
0
LINE
5
C0
100
AcDbEntity
8
1
62
256
6
ByLayer
370
18
48
1
60
0
100
AcDbLine
10
144
20
-11.306472
30
0
11
144
21
-11.291639
31
0
39
0
210
0
220
0
230
1
0
LINE
5
C1
100
AcDbEntity
8
1
62
256
6
ByLayer
370
18
48
1
60
0
100
AcDbLine
10
158.971588
20
0.152254
30
0
11
159.005308
21
0.000285
31
0
39
0
210
0
220
0
230
1
0
LINE
5
C2
100
AcDbEntity
8
1
62
256
6
ByLayer
370
18
48
1
60
0
100
AcDbLine
10
144
20
-11.291639
30
0
11
144
21
-11.239297
31
0
39
0
210
0
220
0
230
1
0
LINE
5
C3
100
AcDbEntity
8
1
62
256
6
ByLayer
370
18
48
1
60
0
100
AcDbLine
10
153.165684
20
-3.6398
30
0
11
151.847707
21
1.7247
31
0
39
0
210
0
220
0
230
1
0
LINE
5
C4
100
AcDbEntity
8
1
62
256
6
ByLayer
370
18
48
1
60
0
100
AcDbLine
10
155.435848
20
-5.398977
30
0
11
155.411674
21
-5.334406
31
0
39
0
210
0
220
0
230
1
0
LINE
5
C5
100
AcDbEntity
8
1
62
256
6
ByLayer
370
18
48
1
60
0
100
AcDbLine
10
159.005308
20
-0.000285
30
0
11
159.005308
21
0.000285
31
0
39
0
210
0
220
0
230
1
0
LINE
5
C6
100
AcDbEntity
8
1
62
256
6
ByLayer
370
18
48
1
60
0
100
AcDbLine
10
153.162286
20
-10.444104
30
0
11
153.165798
21
-10.437602
31
0
39
0
210
0
220
0
230
1
0
LINE
5
C7
100
AcDbEntity
8
1
62
256
6
ByLayer
370
18
48
1
60
0
100
AcDbLine
10
134.299793
20
-4.717529
30
0
11
134.299793
21
6.303888
31
0
39
0
210
0
220
0
230
1
0
LINE
5
C8
100
AcDbEntity
8
1
62
256
6
ByLayer
370
13
48
1
60
0
100
AcDbLine
10
7.8713
20
20
30
0
11
7.8713
21
1.948166
31
0
39
0
210
0
220
0
230
1
0
LINE
5
C9
100
AcDbEntity
8
1
62
256
6
ByLayer
370
18
48
1
60
0
100
AcDbLine
10
152.605479
20
-10.931954
30
0
11
153.162286
21
-10.444104
31
0
39
0
210
0
220
0
230
1
0
LINE
5
CA
100
AcDbEntity
8
1
62
256
6
ByLayer
370
18
48
1
60
0
100
AcDbLine
10
144.729864
20
-11.914602
30
0
11
144.729864
21
-11.761086
31
0
39
0
210
0
220
0
230
1
0
LINE
5
CB
100
AcDbEntity
8
1
62
256
6
ByLayer
370
13
48
1
60
0
100
AcDbLine
10
144
20
-11.306472
30
0
11
144.145422
21
-11.357597
31
0
39
0
210
0
220
0
230
1
0
LINE
5
CC
100
AcDbEntity
8
1
62
256
6
ByLayer
370
13
48
1
60
0
100
AcDbLine
10
157.67967
20
1.152115
30
0
11
158.93588
21
0.2741
31
0
39
0
210
0
220
0
230
1
0
LINE
5
CD
100
AcDbEntity
8
1
62
256
6
ByLayer
370
18
48
1
60
0
100
AcDbLine
10
154.956513
20
-11.756479
30
0
11
158.602716
21
-1.168751
31
0
39
0
210
0
220
0
230
1
0
LINE
5
CE
100
AcDbEntity
8
1
62
256
6
ByLayer
370
18
48
1
60
0
100
AcDbLine
10
144
20
-11.613463
30
0
11
144
21
-11.306472
31
0
39
0
210
0
220
0
230
1
0
LINE
5
CF
100
AcDbEntity
8
1
62
256
6
ByLayer
370
18
48
1
60
0
100
AcDbLine
10
157.860432
20
-4.08253
30
0
11
157.743145
21
-4.432361
31
0
39
0
210
0
220
0
230
1
0
LINE
5
D0
100
AcDbEntity
8
1
62
256
6
ByLayer
370
18
48
1
60
0
100
AcDbLine
10
143.905
20
-11.622457
30
0
11
143.905
21
-11.297006
31
0
39
0
210
0
220
0
230
1
0
LINE
5
D1
100
AcDbEntity
8
1
62
256
6
ByLayer
370
18
48
1
60
0
100
AcDbLine
10
159.005308
20
-0.000285
30
0
11
158.971588
21
-0.152254
31
0
39
0
210
0
220
0
230
1
0
LINE
5
D2
100
AcDbEntity
8
1
62
256
6
ByLayer
370
18
48
1
60
0
100
AcDbLine
10
157.860432
20
4.08253
30
0
11
157.743145
21
4.432361
31
0
39
0
210
0
220
0
230
1
0
LINE
5
D3
100
AcDbEntity
8
1
62
256
6
ByLayer
370
13
48
1
60
0
100
AcDbLine
10
23.287381
20
-5.926424
30
0
11
23.287381
21
-12.463643
31
0
39
0
210
0
220
0
230
1
0
LINE
5
D4
100
AcDbEntity
8
1
62
256
6
ByLayer
370
18
48
1
60
0
100
AcDbLine
10
145.101512
20
-10.989038
30
0
11
145.101512
21
-10.9265
31
0
39
0
210
0
220
0
230
1
0
LINE
5
D5
100
AcDbEntity
8
1
62
256
6
ByLayer
370
18
48
1
60
0
100
AcDbLine
10
27
20
-11.55
30
0
11
27
21
-6.928003
31
0
39
0
210
0
220
0
230
1
0
LINE
5
D6
100
AcDbEntity
8
1
62
256
6
ByLayer
370
18
48
1
60
0
100
AcDbLine
10
145.277878
20
-10.935343
30
0
11
152.597735
21
-10.935343
31
0
39
0
210
0
220
0
230
1
0
LINE
5
D7
100
AcDbEntity
8
1
62
256
6
ByLayer
370
13
48
1
60
0
100
AcDbLine
10
23.198801
20
-5.91004
30
0
11
23.198801
21
-12.51005
31
0
39
0
210
0
220
0
230
1
0
LINE
5
D8
100
AcDbEntity
8
1
62
256
6
ByLayer
370
18
48
1
60
0
100
AcDbLine
10
144.145422
20
-11.495621
30
0
11
144.145422
21
-11.357597
31
0
39
0
210
0
220
0
230
1
0
LINE
5
D9
100
AcDbEntity
8
1
62
256
6
ByLayer
370
18
48
1
60
0
100
AcDbLine
10
153.471721
20
-10.989038
30
0
11
155.435848
21
-5.398977
31
0
39
0
210
0
220
0
230
1
0
LINE
5
DA
100
AcDbEntity
8
1
62
256
6
ByLayer
370
13
48
1
60
0
100
AcDbLine
10
155.639452
20
4.11486
30
0
11
155.636042
21
4.130317
31
0
39
0
210
0
220
0
230
1
0
LINE
5
DB
100
AcDbEntity
8
1
62
256
6
ByLayer
370
18
48
1
60
0
100
AcDbLine
10
0.2
20
0
30
0
11
0.2
21
-20
31
0
39
0
210
0
220
0
230
1
0
LINE
5
DC
100
AcDbEntity
8
1
62
256
6
ByLayer
370
18
48
1
60
0
100
AcDbLine
10
0.2
20
20
30
0
11
0.2
21
0
31
0
39
0
210
0
220
0
230
1
0
LINE
5
DD
100
AcDbEntity
8
1
62
256
6
ByLayer
370
13
48
1
60
0
100
AcDbLine
10
158.912801
20
0.360274
30
0
11
157.724911
21
1.190538
31
0
39
0
210
0
220
0
230
1
0
MTEXT
5
188
100
AcDbEntity
8
SK6
62
256
6
ByLayer
370
13
48
1
60
0
100
AcDbMText
10
29.607737
20
34.375134
30
0
210
0
220
0
230
1
1
\W0.7501;870-2400-24L32-5
40
3.5
41
0
44
1.084337
50
0
71
7
72
5
7
iso_b_vert
0
DIMENSION
5
196
100
AcDbEntity
8
2
62
256
6
ByLayer
370
13
48
1
60
0
100
AcDbDimension
2
DimnDraft3D1
10
27
20
-25
30
0
11
93
21
-25
31
0
70
32
71
5
72
1
41
1
210
0
220
0
230
1
3
Standard
100
AcDbAlignedDimension
13
159
23
-1.5875
33
0
14
27
24
-13.5875
34
0
50
0
100
AcDbRotatedDimension
1001
ACAD
1000
DSTYLE
1002
{
1070
   279
1070
     0
1070
   172
1070
     1
1070
   173
1070
     1
1070
   340
1005
189
1070
   271
1070
     1
1070
   272
1070
     2
1070
    77
1070
     1
1070
    73
1070
     0
1070
   171
1070
     3
1070
   274
1070
     4
1070
   177
1070
     7
1070
   176
1070
     7
1070
   178
1070
     7
1070
    48
1040
-0.005
1070
    41
1041
3.5
1070
   147
1041
1.5
1070
    42
1041
1.5875
1070
    44
1041
2.0
1070
   140
1041
3.0
1070
   343
1005
0
1070
   344
1005
0
1002
}
0
DIMENSION
5
1A0
100
AcDbEntity
8
2
62
256
6
ByLayer
370
13
48
1
60
0
100
AcDbDimension
2
DimnDraft3D2
10
29.8
20
19
30
0
11
94.4
21
19
31
0
70
32
71
5
72
1
41
1
210
0
220
0
230
1
3
Standard
100
AcDbAlignedDimension
13
159
23
1.5875
33
0
14
29.8
24
13.5875
34
0
50
0
100
AcDbRotatedDimension
1001
ACAD
1000
DSTYLE
1002
{
1070
   279
1070
     0
1070
   172
1070
     1
1070
   173
1070
     1
1070
   340
1005
189
1070
   271
1070
     1
1070
   272
1070
     2
1070
    77
1070
     1
1070
    73
1070
     0
1070
   171
1070
     3
1070
   274
1070
     4
1070
   177
1070
     7
1070
   176
1070
     7
1070
   178
1070
     7
1070
    48
1040
-0.005
1070
    41
1041
3.5
1070
   147
1041
1.5
1070
    42
1041
1.5875
1070
    44
1041
2.0
1070
   140
1041
3.0
1070
   343
1005
0
1070
   344
1005
0
1002
}
0
DIMENSION
5
1AB
100
AcDbEntity
8
SK2
62
256
6
ByLayer
370
13
48
1
60
0
100
AcDbDimension
2
DimnDraft3D3
10
0
20
-39
30
0
11
-30
21
-39
31
0
70
32
71
5
72
1
41
1
210
0
220
0
230
1
3
Standard
100
AcDbAlignedDimension
13
-60
23
-17.5875
33
0
14
0
24
-21.5875
34
0
50
0
100
AcDbRotatedDimension
1001
ACAD
1000
DSTYLE
1002
{
1070
   279
1070
     0
1070
   172
1070
     1
1070
   173
1070
     1
1070
   340
1005
189
1070
   271
1070
     1
1070
   272
1070
     2
1070
    77
1070
     1
1070
    73
1070
     0
1070
   171
1070
     3
1070
   274
1070
     4
1070
   177
1070
     7
1070
   176
1070
     7
1070
   178
1070
     7
1070
    48
1040
-0.005
1070
    41
1041
3.5
1070
   147
1041
1.5
1070
    42
1041
1.5875
1070
    44
1041
2.0
1070
   140
1041
3.0
1070
   343
1005
0
1070
   344
1005
0
1002
}
0
DIMENSION
5
1B5
100
AcDbEntity
8
2
62
256
6
ByLayer
370
13
48
1
60
0
100
AcDbDimension
2
DimnDraft3D4
10
159
20
-39
30
0
11
79.5
21
-39
31
0
70
32
71
5
72
1
41
1
210
0
220
0
230
1
3
Standard
100
AcDbAlignedDimension
13
0
23
-21.5875
33
0
14
159
24
-1.5875
34
0
50
0
100
AcDbRotatedDimension
1001
ACAD
1000
DSTYLE
1002
{
1070
   279
1070
     0
1070
   172
1070
     1
1070
   173
1070
     1
1070
   340
1005
189
1070
   271
1070
     1
1070
   272
1070
     2
1070
    77
1070
     1
1070
    73
1070
     0
1070
   171
1070
     3
1070
   274
1070
     4
1070
   177
1070
     7
1070
   176
1070
     7
1070
   178
1070
     7
1070
    48
1040
-0.005
1070
    41
1041
3.5
1070
   147
1041
1.5
1070
    42
1041
1.5875
1070
    44
1041
2.0
1070
   140
1041
3.0
1070
   343
1005
0
1070
   344
1005
0
1002
}
0
DIMENSION
5
1C0
100
AcDbEntity
8
SK2
62
256
6
ByLayer
370
13
48
1
60
0
100
AcDbDimension
2
DimnDraft3D5
10
-68.25
20
-16
30
0
11
-68.5
21
-0.520456
31
0
70
33
71
5
72
1
41
1
210
0
220
0
230
1
3
Standard
100
AcDbAlignedDimension
13
-61.5875
23
16
33
0
14
-61.5875
24
-16
34
0
1001
ACAD
1000
DSTYLE
1002
{
1070
   279
1070
     0
1070
    74
1070
     0
1070
   173
1070
     1
1070
   340
1005
189
1070
   271
1070
     1
1070
   272
1070
     2
1070
    77
1070
     1
1070
    73
1070
     0
1070
   171
1070
     3
1070
   274
1070
     4
1070
   177
1070
     7
1070
   176
1070
     7
1070
   178
1070
     7
1070
    48
1040
-0.005
1070
    41
1041
3.5
1070
   147
1041
1.5
1070
    42
1041
1.5875
1070
    44
1041
2.0
1070
   140
1041
3.0
1070
   343
1005
0
1070
   344
1005
0
1002
}
0
ENDSEC
0
SECTION
2
OBJECTS
0
DICTIONARY
5
22b
330
0
100
AcDbDictionary
280
0
281
1
3
ACAD_GROUP
350
22c
3
ACAD_MLINESTYLE
350
22d
0
DICTIONARY
5
22c
330
0
100
AcDbDictionary
280
0
281
1
0
DICTIONARY
5
22d
330
0
100
AcDbDictionary
280
0
281
1
3
Standard
350
18
0
MLINESTYLE
5
18
330
22d
100
AcDbMlineStyle
2
Standard
70
0
3

62
256
51
90
52
90
71
2
49
-0.5
62
256
6
ByLayer
49
0.5
62
256
6
ByLayer
0
RASTERVARIABLES
5
219
330

100
AcDbRasterVariables
90
0
70
1
71
1
72
1
0
ENDSEC
0
EOF
