0
SECTION
2
HEADER
9
$ACADVER
1
AC1015
9
$DWGCODEPAGE
3
ANSI_1252
9
$HANDSEED
5
238
9
$ANGBASE
50
0
9
$ANGDIR
70
0
9
$ATTMODE
70
1
9
$AUNITS
70
0
9
$AUPREC
70
0
9
$CECOLOR
62
256
9
$CELTSCALE
40
1
9
$CELTYPE
6
ByLayer
9
$CELWEIGHT
370
18
9
$CLAYER
8
0
9
$CMLJUST
70
0
9
$CMLSCALE
40
1
9
$CMLSTYLE
2
Standard
9
$DIMSTYLE
2
Standard
9
$TEXTSIZE
40
0.2
9
$TEXTSTYLE
7
Standard
9
$LUNITS
70
2
9
$LUPREC
70
4
9
$EXTNAMES
290
1
9
$INSUNITS
70
4
9
$LTSCALE
40
1
9
$LWDISPLAY
290
1
9
$PDMODE
70
0
9
$PDSIZE
40
0
9
$PLINEGEN
70
0
0
ENDSEC
0
SECTION
2
CLASSES
0
CLASS
1
RASTERVARIABLES
2
AcDbRasterVariables
3
ISM
90
0
280
0
281
0
0
ENDSEC
0
SECTION
2
TABLES
0
TABLE
2
VPORT
5
22e
100
AcDbSymbolTable
0
VPORT
5
1
100
AcDbSymbolTableRecord
100
AcDbViewportTableRecord
2
*Active
70
0
10
0
20
0
11
1
21
1
12
-1
22
1
13
0
23
0
14
0.5
24
0.5
15
10
25
10
16
0
26
0
36
1
17
0
27
0
37
0
0
ENDTAB
0
TABLE
2
LTYPE
5
22f
100
AcDbSymbolTable
0
LTYPE
5
14
100
AcDbSymbolTableRecord
100
AcDbLinetypeTableRecord
70
0
2
ByBlock
3

72
65
73
0
40
0
0
LTYPE
5
15
100
AcDbSymbolTableRecord
100
AcDbLinetypeTableRecord
70
0
2
ByLayer
3

72
65
73
0
40
0
0
LTYPE
5
16
100
AcDbSymbolTableRecord
100
AcDbLinetypeTableRecord
70
0
2
CONTINUOUS
3
Solid line
72
65
73
0
40
0
0
LTYPE
5
6A
100
AcDbSymbolTableRecord
100
AcDbLinetypeTableRecord
70
0
2
CENTER
3
____ _ ____ _ ____ _ ____
72
65
73
4
40
47.5
49
22
74
0
49
-8.5
74
0
49
8.5
74
0
49
-8.5
74
0
0
LTYPE
5
6B
100
AcDbSymbolTableRecord
100
AcDbLinetypeTableRecord
70
0
2
DASHED
3
__ __ __ __ __ __ __ __ __
72
65
73
2
40
25.72
49
12.86
74
0
49
-12.86
74
0
0
ENDTAB
0
TABLE
2
LAYER
5
230
100
AcDbSymbolTable
0
LAYER
5
10
100
AcDbSymbolTableRecord
100
AcDbLayerTableRecord
2
0
70
0
62
7
6
CONTINUOUS
290
1
370
-3
390
0
0
LAYER
5
6D
100
AcDbSymbolTableRecord
100
AcDbLayerTableRecord
2
80
70
0
62
-6
6
CONTINUOUS
290
1
370
-3
390
0
0
LAYER
5
6F
100
AcDbSymbolTableRecord
100
AcDbLayerTableRecord
2
81
70
0
62
-3
6
CONTINUOUS
290
1
370
-3
390
0
0
LAYER
5
72
100
AcDbSymbolTableRecord
100
AcDbLayerTableRecord
2
1
70
0
62
4
6
CONTINUOUS
290
1
370
-3
390
0
0
LAYER
5
90
100
AcDbSymbolTableRecord
100
AcDbLayerTableRecord
2
4
70
0
62
-2
6
CENTER
290
1
370
-3
390
0
0
LAYER
5
18E
100
AcDbSymbolTableRecord
100
AcDbLayerTableRecord
2
2
70
0
62
7
6
CONTINUOUS
290
1
370
-3
390
0
0
LAYER
5
21a
100
AcDbSymbolTableRecord
100
AcDbLayerTableRecord
2
SK1
70
0
62
4
6
CONTINUOUS
290
1
370
-3
390
0
0
LAYER
5
21b
100
AcDbSymbolTableRecord
100
AcDbLayerTableRecord
2
SK4
70
0
62
2
6
CENTER
290
1
370
-3
390
0
0
LAYER
5
21c
100
AcDbSymbolTableRecord
100
AcDbLayerTableRecord
2
SK6
70
0
62
5
6
CONTINUOUS
290
1
370
-3
390
0
0
LAYER
5
21d
100
AcDbSymbolTableRecord
100
AcDbLayerTableRecord
2
SK2
70
0
62
7
6
CONTINUOUS
290
1
370
-3
390
0
0
ENDTAB
0
TABLE
2
STYLE
5
231
100
AcDbSymbolTable
0
STYLE
5
11
100
AcDbSymbolTableRecord
100
AcDbTextStyleTableRecord
2
Standard
3
txt
70
0
71
0
40
0
41
1
42
0
50
0
0
STYLE
5
189
100
AcDbSymbolTableRecord
100
AcDbTextStyleTableRecord
2
iso_b_vert
3
simplex.shx
70
0
71
0
40
0
41
1
42
0
50
0
0
STYLE
5
18A
100
AcDbSymbolTableRecord
100
AcDbTextStyleTableRecord
2
DWGDirectTextStyle
3
simplex
70
0
71
0
40
0
41
1
42
0
50
0
0
ENDTAB
0
TABLE
2
DIMSTYLE
5
232
100
AcDbSymbolTable
100
AcDbDimStyleTable
0
DIMSTYLE
105
27
100
AcDbSymbolTableRecord
100
AcDbDimStyleTableRecord
2
Standard
70
0
3
<>
41
0.18
42
0.0625
44
0.18
140
0.18
147
0.09
73
0
74
0
77
1
271
2
275
0
278
52
280
0
340
11
0
ENDTAB
0
TABLE
2
VIEW
5
233
100
AcDbSymbolTable
0
ENDTAB
0
TABLE
2
UCS
5
234
100
AcDbSymbolTable
0
ENDTAB
0
TABLE
2
APPID
5
235
100
AcDbSymbolTable
0
APPID
5
12
100
AcDbSymbolTableRecord
100
AcDbRegAppTableRecord
2
ACAD
70
0
0
ENDTAB
0
TABLE
2
BLOCK_RECORD
5
236
100
AcDbSymbolTable
0
BLOCK_RECORD
5
1F
100
AcDbSymbolTableRecord
100
AcDbBlockTableRecord
2
*Model_Space
340
0
70
0
0
BLOCK_RECORD
5
1B
100
AcDbSymbolTableRecord
100
AcDbBlockTableRecord
2
*Paper_Space
340
0
70
0
0
BLOCK_RECORD
5
23
100
AcDbSymbolTableRecord
100
AcDbBlockTableRecord
2
*Paper_Space0
340
0
70
0
0
BLOCK_RECORD
5
18C
100
AcDbSymbolTableRecord
100
AcDbBlockTableRecord
2
DimnDraft3D1
340
0
70
0
0
BLOCK_RECORD
5
197
100
AcDbSymbolTableRecord
100
AcDbBlockTableRecord
2
DimnDraft3D2
340
0
70
0
0
BLOCK_RECORD
5
1A1
100
AcDbSymbolTableRecord
100
AcDbBlockTableRecord
2
DimnDraft3D3
340
0
70
0
0
BLOCK_RECORD
5
1AC
100
AcDbSymbolTableRecord
100
AcDbBlockTableRecord
2
DimnDraft3D4
340
0
70
0
0
BLOCK_RECORD
5
1B6
100
AcDbSymbolTableRecord
100
AcDbBlockTableRecord
2
DimnDraft3D5
340
0
70
0
0
ENDTAB
0
ENDSEC
0
SECTION
2
BLOCKS
0
BLOCK
5
20
100
AcDbEntity
8
0
100
AcDbBlockBegin
2
*Model_Space
70
0
10
0
20
0
30
0
3
*Model_Space
0
ENDBLK
5
21
100
AcDbEntity
8
0
100
AcDbBlockEnd
0
BLOCK
5
1C
100
AcDbEntity
8
0
100
AcDbBlockBegin
2
*Paper_Space
70
0
10
0
20
0
30
0
3
*Paper_Space
0
ENDBLK
5
1D
100
AcDbEntity
8
0
100
AcDbBlockEnd
0
BLOCK
5
24
100
AcDbEntity
8
0
100
AcDbBlockBegin
2
*Paper_Space0
70
0
10
0
20
0
30
0
3
*Paper_Space0
0
ENDBLK
5
25
100
AcDbEntity
8
0
100
AcDbBlockEnd
0
BLOCK
5
194
100
AcDbEntity
8
0
100
AcDbBlockBegin
2
DimnDraft3D1
70
0
10
0
20
0
30
0
3
DimnDraft3D1
0
MTEXT
5
18D
100
AcDbEntity
8
2
62
256
6
ByLayer
370
13
48
1
60
0
100
AcDbMText
10
64.229544
20
-24.249886
30
0
210
0
220
0
230
1
1
\W0.7346;82.0
40
3
41
0
44
1.084337
50
0
71
7
72
5
7
iso_b_vert
0
LINE
5
18F
100
AcDbEntity
8
2
62
256
6
ByLayer
370
13
48
1
60
0
100
AcDbLine
10
108
20
-1.5875
30
0
11
108
21
-27
31
0
39
0
210
0
220
0
230
1
0
LINE
5
190
100
AcDbEntity
8
2
62
256
6
ByLayer
370
13
48
1
60
0
100
AcDbLine
10
26
20
-13.5875
30
0
11
26
21
-27
31
0
39
0
210
0
220
0
230
1
0
LINE
5
191
100
AcDbEntity
8
2
62
256
6
ByLayer
370
13
48
1
60
0
100
AcDbLine
10
108
20
-25
30
0
11
26
21
-25
31
0
39
0
210
0
220
0
230
1
0
SOLID
5
192
100
AcDbEntity
8
2
62
256
6
ByLayer
370
13
48
1
60
0
100
AcDbTrace
10
108
20
-25
30
0
11
104.500002
21
-25.460784
31
0
12
104.499998
22
-24.539216
32
0
13
108
23
-25
33
0
39
0
210
0
220
0
230
1
0
SOLID
5
193
100
AcDbEntity
8
2
62
256
6
ByLayer
370
13
48
1
60
0
100
AcDbTrace
10
26
20
-25
30
0
11
29.499998
21
-24.539216
31
0
12
29.500002
22
-25.460784
32
0
13
26
23
-25
33
0
39
0
210
0
220
0
230
1
0
ENDBLK
5
195
100
AcDbEntity
8
0
100
AcDbBlockEnd
0
BLOCK
5
19E
100
AcDbEntity
8
0
100
AcDbBlockBegin
2
DimnDraft3D2
70
0
10
0
20
0
30
0
3
DimnDraft3D2
0
MTEXT
5
198
100
AcDbEntity
8
2
62
256
6
ByLayer
370
13
48
1
60
0
100
AcDbMText
10
66.054486
20
19.750114
30
0
210
0
220
0
230
1
1
\W0.7208;79.1
40
3
41
0
44
1.084337
50
0
71
7
72
5
7
iso_b_vert
0
LINE
5
199
100
AcDbEntity
8
2
62
256
6
ByLayer
370
13
48
1
60
0
100
AcDbLine
10
108
20
1.5875
30
0
11
108
21
21
31
0
39
0
210
0
220
0
230
1
0
LINE
5
19A
100
AcDbEntity
8
2
62
256
6
ByLayer
370
13
48
1
60
0
100
AcDbLine
10
28.9
20
13.5875
30
0
11
28.9
21
21
31
0
39
0
210
0
220
0
230
1
0
LINE
5
19B
100
AcDbEntity
8
2
62
256
6
ByLayer
370
13
48
1
60
0
100
AcDbLine
10
108
20
19
30
0
11
28.9
21
19
31
0
39
0
210
0
220
0
230
1
0
SOLID
5
19C
100
AcDbEntity
8
2
62
256
6
ByLayer
370
13
48
1
60
0
100
AcDbTrace
10
108
20
19
30
0
11
104.500002
21
18.539216
31
0
12
104.499998
22
19.460784
32
0
13
108
23
19
33
0
39
0
210
0
220
0
230
1
0
SOLID
5
19D
100
AcDbEntity
8
2
62
256
6
ByLayer
370
13
48
1
60
0
100
AcDbTrace
10
28.9
20
19
30
0
11
32.399998
21
19.460784
31
0
12
32.400002
22
18.539216
32
0
13
28.9
23
19
33
0
39
0
210
0
220
0
230
1
0
ENDBLK
5
19F
100
AcDbEntity
8
0
100
AcDbBlockEnd
0
BLOCK
5
1A9
100
AcDbEntity
8
0
100
AcDbBlockBegin
2
DimnDraft3D3
70
0
10
0
20
0
30
0
3
DimnDraft3D3
0
MTEXT
5
1A2
100
AcDbEntity
8
SK2
62
256
6
ByLayer
370
13
48
1
60
0
100
AcDbMText
10
-32.770456
20
-38.249886
30
0
210
0
220
0
230
1
1
\W0.7346;60.0
40
3
41
0
44
1.084337
50
0
71
7
72
5
7
iso_b_vert
0
LINE
5
1A4
100
AcDbEntity
8
SK2
62
256
6
ByLayer
370
13
48
1
60
0
100
AcDbLine
10
-60
20
-17.5875
30
0
11
-60
21
-41
31
0
39
0
210
0
220
0
230
1
0
LINE
5
1A5
100
AcDbEntity
8
SK2
62
256
6
ByLayer
370
13
48
1
60
0
100
AcDbLine
10
0
20
-21.5875
30
0
11
0
21
-41
31
0
39
0
210
0
220
0
230
1
0
LINE
5
1A6
100
AcDbEntity
8
SK2
62
256
6
ByLayer
370
13
48
1
60
0
100
AcDbLine
10
-60
20
-39
30
0
11
0
21
-39
31
0
39
0
210
0
220
0
230
1
0
SOLID
5
1A7
100
AcDbEntity
8
SK2
62
256
6
ByLayer
370
13
48
1
60
0
100
AcDbTrace
10
-60
20
-39
30
0
11
-56.500002
21
-38.539216
31
0
12
-56.499998
22
-39.460784
32
0
13
-60
23
-39
33
0
39
0
210
0
220
0
230
1
0
SOLID
5
1A8
100
AcDbEntity
8
SK2
62
256
6
ByLayer
370
13
48
1
60
0
100
AcDbTrace
10
0
20
-39
30
0
11
-3.499998
21
-39.460784
31
0
12
-3.500002
22
-38.539216
32
0
13
0
23
-39
33
0
39
0
210
0
220
0
230
1
0
ENDBLK
5
1AA
100
AcDbEntity
8
0
100
AcDbBlockEnd
0
BLOCK
5
1B3
100
AcDbEntity
8
0
100
AcDbBlockBegin
2
DimnDraft3D4
70
0
10
0
20
0
30
0
3
DimnDraft3D4
0
MTEXT
5
1AD
100
AcDbEntity
8
2
62
256
6
ByLayer
370
13
48
1
60
0
100
AcDbMText
10
50.483572
20
-38.249886
30
0
210
0
220
0
230
1
1
\W0.6864;108.0
40
3
41
0
44
1.084337
50
0
71
7
72
5
7
iso_b_vert
0
LINE
5
1AE
100
AcDbEntity
8
2
62
256
6
ByLayer
370
13
48
1
60
0
100
AcDbLine
10
0
20
-21.5875
30
0
11
0
21
-41
31
0
39
0
210
0
220
0
230
1
0
LINE
5
1AF
100
AcDbEntity
8
2
62
256
6
ByLayer
370
13
48
1
60
0
100
AcDbLine
10
108
20
-1.5875
30
0
11
108
21
-41
31
0
39
0
210
0
220
0
230
1
0
LINE
5
1B0
100
AcDbEntity
8
2
62
256
6
ByLayer
370
13
48
1
60
0
100
AcDbLine
10
0
20
-39
30
0
11
108
21
-39
31
0
39
0
210
0
220
0
230
1
0
SOLID
5
1B1
100
AcDbEntity
8
2
62
256
6
ByLayer
370
13
48
1
60
0
100
AcDbTrace
10
0
20
-39
30
0
11
3.499998
21
-38.539216
31
0
12
3.500002
22
-39.460784
32
0
13
0
23
-39
33
0
39
0
210
0
220
0
230
1
0
SOLID
5
1B2
100
AcDbEntity
8
2
62
256
6
ByLayer
370
13
48
1
60
0
100
AcDbTrace
10
108
20
-39
30
0
11
104.500002
21
-39.460784
31
0
12
104.499998
22
-38.539216
32
0
13
108
23
-39
33
0
39
0
210
0
220
0
230
1
0
ENDBLK
5
1B4
100
AcDbEntity
8
0
100
AcDbBlockEnd
0
BLOCK
5
1BE
100
AcDbEntity
8
0
100
AcDbBlockBegin
2
DimnDraft3D5
70
0
10
0
20
0
30
0
3
DimnDraft3D5
0
MTEXT
5
1B7
100
AcDbEntity
8
SK2
62
256
6
ByLayer
370
13
48
1
60
0
100
AcDbMText
10
-67.750114
20
0.229544
30
0
210
0
220
0
230
1
1
\W0.7346;32.0
40
3
41
0
44
1.084337
50
90
71
7
72
5
7
iso_b_vert
0
MTEXT
5
1B8
100
AcDbEntity
8
SK2
62
256
6
ByLayer
370
13
48
1
60
0
100
AcDbMText
10
-67.750114
20
-4.247019
30
0
210
0
220
0
230
1
1
%%c
40
3
41
0
44
1.084337
50
90
71
7
72
5
7
iso_b_vert
0
LINE
5
1B9
100
AcDbEntity
8
SK2
62
256
6
ByLayer
370
13
48
1
60
0
100
AcDbLine
10
-61.5875
20
16
30
0
11
-68.25
21
16
31
0
39
0
210
0
220
0
230
1
0
LINE
5
1BA
100
AcDbEntity
8
SK2
62
256
6
ByLayer
370
13
48
1
60
0
100
AcDbLine
10
-61.5875
20
-16
30
0
11
-68.25
21
-16
31
0
39
0
210
0
220
0
230
1
0
LINE
5
1BB
100
AcDbEntity
8
SK2
62
256
6
ByLayer
370
13
48
1
60
0
100
AcDbLine
10
-66.25
20
16
30
0
11
-66.25
21
-16
31
0
39
0
210
0
220
0
230
1
0
SOLID
5
1BC
100
AcDbEntity
8
SK2
62
256
6
ByLayer
370
13
48
1
60
0
100
AcDbTrace
10
-66.25
20
16
30
0
11
-65.789216
21
12.500002
31
0
12
-66.710784
22
12.499998
32
0
13
-66.25
23
16
33
0
39
0
210
0
220
0
230
1
0
SOLID
5
1BD
100
AcDbEntity
8
SK2
62
256
6
ByLayer
370
13
48
1
60
0
100
AcDbTrace
10
-66.25
20
-16
30
0
11
-66.710784
21
-12.500002
31
0
12
-65.789216
22
-12.499998
32
0
13
-66.25
23
-16
33
0
39
0
210
0
220
0
230
1
0
ENDBLK
5
1BF
100
AcDbEntity
8
0
100
AcDbBlockEnd
0
ENDSEC
0
SECTION
2
ENTITIES
0
ARC
5
DF
100
AcDbEntity
8
SK1
62
256
6
ByLayer
370
18
48
1
60
0
100
AcDbCircle
39
0
10
57.946236
20
-16.496
30
0
40
0.800000000000005
210
0
220
0
230
-1
100
AcDbArc
50
51
51
130.534532
0
ARC
5
E0
100
AcDbEntity
8
SK1
62
256
6
ByLayer
370
18
48
1
60
0
100
AcDbCircle
39
0
10
57.946236
20
16.496
30
0
40
0.800000000000005
210
0
220
0
230
-1
100
AcDbArc
50
229.465468
51
309
0
ARC
5
E1
100
AcDbEntity
8
SK1
62
256
6
ByLayer
370
18
48
1
60
0
100
AcDbCircle
39
0
10
0.975195
20
16.146
30
0
40
0.4
210
0
220
0
230
-1
100
AcDbArc
50
270
51
295
0
ARC
5
E2
100
AcDbEntity
8
SK1
62
256
6
ByLayer
370
18
48
1
60
0
100
AcDbCircle
39
0
10
0.975195
20
-16.146
30
0
40
0.4
210
0
220
0
230
-1
100
AcDbArc
50
65
51
90
0
ARC
5
E3
100
AcDbEntity
8
1
62
256
6
ByLayer
370
18
48
1
60
0
100
AcDbCircle
39
0
10
-26
20
19.55
30
0
40
8
210
0
220
0
230
-1
100
AcDbArc
50
270
51
298.02309
0
ARC
5
E4
100
AcDbEntity
8
1
62
256
6
ByLayer
370
18
48
1
60
0
100
AcDbCircle
39
0
10
-26
20
-19.55
30
0
40
8
210
0
220
0
230
-1
100
AcDbArc
50
61.97691
51
90
0
ARC
5
E5
100
AcDbEntity
8
SK1
62
256
6
ByLayer
370
18
48
1
60
0
100
AcDbCircle
39
0
10
0.15
20
16.146
30
0
40
0.4
210
0
220
0
230
-1
100
AcDbArc
50
247.975687
51
270
0
ARC
5
E6
100
AcDbEntity
8
SK1
62
256
6
ByLayer
370
18
48
1
60
0
100
AcDbCircle
39
0
10
0.15
20
-16.146
30
0
40
0.4
210
0
220
0
230
-1
100
AcDbArc
50
90
51
112.024313
0
ELLIPSE
5
E7
100
AcDbEntity
8
1
62
256
6
ByLayer
370
18
48
1
60
0
100
AcDbEllipse
10
108.010657
20
0.014553
30
0
11
4.18437312402788
21
12.0166100342028
31
0
210
0
220
0
230
1
40
0.077207
41
-2.89464408826311
42
-2.79654588085992
0
ELLIPSE
5
E8
100
AcDbEntity
8
1
62
256
6
ByLayer
370
13
48
1
60
0
100
AcDbEllipse
10
104.631843
20
4.097543
30
0
11
-0.0928044733932099
21
-0.0203059035309684
31
0
210
0
220
0
230
1
40
0.128931
41
-1.68830007078968
42
-1.40157178538574
0
ELLIPSE
5
E9
100
AcDbEntity
8
1
62
256
6
ByLayer
370
13
48
1
60
0
100
AcDbEllipse
10
104.631172
20
4.100596
30
0
11
-0.0927699273740774
21
-0.0204631516391879
31
0
210
0
220
0
230
1
40
0.128734
41
-1.68851840488268
42
-1.40179130299925
0
ELLIPSE
5
EA
100
AcDbEntity
8
1
62
256
6
ByLayer
370
18
48
1
60
0
100
AcDbEllipse
10
117.429297
20
0
30
0
11
15.9335509674041
21
10.8005315531814
31
0
210
0
220
0
230
1
40
0.290406
41
2.93771630993756
42
-3.11138890734005
0
ELLIPSE
5
EB
100
AcDbEntity
8
1
62
256
6
ByLayer
370
18
48
1
60
0
100
AcDbEllipse
10
108.005664
20
0
30
0
11
4.75485834050297
21
-11.640075236843
31
0
210
0
220
0
230
1
40
0.349717
41
2.98233986733316
42
2.9996965265947
0
ELLIPSE
5
EC
100
AcDbEntity
8
1
62
256
6
ByLayer
370
18
48
1
60
0
100
AcDbEllipse
10
28.486068
20
1E-06
30
0
11
25.0468657645033
21
-8.2058228800834
31
0
210
0
220
0
230
1
40
0.335768
41
1.4446605008381
42
1.47808935890336
0
ELLIPSE
5
ED
100
AcDbEntity
8
1
62
256
6
ByLayer
370
18
48
1
60
0
100
AcDbEllipse
10
87.75
20
-5.297474
30
0
11
1.65000000000001
21
0
31
0
210
0
220
0
230
1
40
0.702153
41
-1.8603136236572
42
-1.16229128198507
0
ELLIPSE
5
EE
100
AcDbEntity
8
1
62
256
6
ByLayer
370
18
48
1
60
0
100
AcDbEllipse
10
83.636815
20
-85.401315
30
0
11
79.6664932231167
21
0.804452030002418
31
0
210
0
220
0
230
1
40
0.93654
41
1.44176572521251
42
1.44354290165076
0
ELLIPSE
5
EF
100
AcDbEntity
8
1
62
256
6
ByLayer
370
13
48
1
60
0
100
AcDbEllipse
10
106.693823
20
1.130335
30
0
11
-0.0549936374731504
21
-0.0774641842238832
31
0
210
0
220
0
230
1
40
0.550597
41
-2.34971761043221
42
-1.6706057725194
0
ELLIPSE
5
F0
100
AcDbEntity
8
1
62
256
6
ByLayer
370
18
48
1
60
0
100
AcDbEllipse
10
25.912032
20
-1.221701
30
0
11
3.04377346533974
21
7.39834056337593
31
0
210
0
220
0
230
1
40
0.695527
41
0.4542285092818
42
2.83069049406629
0
ELLIPSE
5
F1
100
AcDbEntity
8
1
62
256
6
ByLayer
370
13
48
1
60
0
100
AcDbEllipse
10
78.85
20
11.981924
30
0
11
5.85329452689333
21
-5.45334238622802
31
0
210
0
220
0
230
1
40
0.223252
41
0.909142801901763
42
1.03043389297644
0
ELLIPSE
5
F2
100
AcDbEntity
8
1
62
256
6
ByLayer
370
18
48
1
60
0
100
AcDbEllipse
10
108.005308
20
0
30
0
11
4.09292885300527
21
11.7540029217226
31
0
210
0
220
0
230
1
40
0.077207
41
-3.09735766673836
42
-2.89248650050206
0
ELLIPSE
5
F3
100
AcDbEntity
8
1
62
256
6
ByLayer
370
13
48
1
60
0
100
AcDbEllipse
10
106.716631
20
1.114269
30
0
11
-0.0544235218676428
21
-0.0778657836762862
31
0
210
0
220
0
230
1
40
0.550074
41
-2.35740612069691
42
-1.67462492420231
0
ELLIPSE
5
F4
100
AcDbEntity
8
1
62
256
6
ByLayer
370
18
48
1
60
0
100
AcDbEllipse
10
108.005664
20
0
30
0
11
4.75485834045749
21
11.6400752367384
31
0
210
0
220
0
230
1
40
0.349717
41
2.91977206754907
42
-2.98233986733251
0
ELLIPSE
5
F5
100
AcDbEntity
8
1
62
256
6
ByLayer
370
18
48
1
60
0
100
AcDbEllipse
10
71.319959
20
-2E-06
30
0
11
47.1114833187453
21
-10.4350258005139
31
0
210
0
220
0
230
1
40
0.114647
41
-1.40019830966533
42
-1.36934900101351
0
ELLIPSE
5
F6
100
AcDbEntity
8
1
62
256
6
ByLayer
370
18
48
1
60
0
100
AcDbEllipse
10
108.010657
20
-0.014553
30
0
11
4.18437314139045
21
-12.0166100878707
31
0
210
0
220
0
230
1
40
0.077207
41
2.79654588162826
42
2.89464408880476
0
ELLIPSE
5
F7
100
AcDbEntity
8
1
62
256
6
ByLayer
370
18
48
1
60
0
100
AcDbEllipse
10
107.95225
20
-0.250645
30
0
11
0.0446240258175673
21
0.146773164422337
31
0
210
0
220
0
230
1
40
0.05855
41
1.74905825653253
42
2.43183944702107
0
ELLIPSE
5
F8
100
AcDbEntity
8
1
62
256
6
ByLayer
370
18
48
1
60
0
100
AcDbEllipse
10
89.915
20
0
30
0
11
11.161095165437
21
3.69951300687959
31
0
210
0
220
0
230
1
40
1
41
-1.61297592208357
42
-1.53063812513162
0
ELLIPSE
5
F9
100
AcDbEntity
8
1
62
256
6
ByLayer
370
18
48
1
60
0
100
AcDbEllipse
10
107.95225
20
0.250645
30
0
11
0.0446240257870483
21
-0.146773164334669
31
0
210
0
220
0
230
1
40
0.05855
41
-2.43183944704041
42
-1.74905825618778
0
ELLIPSE
5
FA
100
AcDbEntity
8
1
62
256
6
ByLayer
370
18
48
1
60
0
100
AcDbEllipse
10
99.691849
20
-1.630749
30
0
11
0.38449359549734
21
-1.51152961734659
31
0
210
0
220
0
230
1
40
0.321529
41
0
42
6.28318530717959
0
ELLIPSE
5
FB
100
AcDbEntity
8
1
62
256
6
ByLayer
370
18
48
1
60
0
100
AcDbEllipse
10
87.96
20
-5.297474
30
0
11
-2.53000000000001
21
3.09825407517063E-16
31
0
210
0
220
0
230
1
40
0.702153
41
0.943754016511156
42
2.194696972499
0
POINT
5
6C
100
AcDbEntity
8
80
62
256
6
ByLayer
370
18
48
1
60
0
100
AcDbPoint
10
0
20
0
30
0
39
0
210
0
220
0
230
1
50
360
0
POINT
5
6E
100
AcDbEntity
8
81
62
256
6
ByLayer
370
18
48
1
60
0
100
AcDbPoint
10
93
20
0
30
0
39
0
210
0
220
0
230
1
50
360
0
SPLINE
5
FC
100
AcDbEntity
8
1
62
256
6
ByLayer
370
18
48
1
60
0
100
AcDbSpline
70
4
71
3
72
16
73
12
40
0
40
0
40
0
40
0
40
0.145784192316416
40
0.291385346270435
40
0.435385734796905
40
0.57614590764239
40
0.66251318061439
40
0.747311761554366
40
0.831044398228761
40
0.914734543313913
40
1
40
1
40
1
40
1
41
1
10
22.1531053820785
20
12.5349161231952
30
0
41
1
10
21.4284422972421
20
12.9349135315106
30
0
41
1
10
20.0019168935698
20
13.7690043822577
30
0
41
1
10
17.9621017815324
20
15.1628104540968
30
0
41
1
10
15.9583236977756
20
16.5551713811467
30
0
41
1
10
14.1902503781647
20
17.6996385787407
30
0
41
1
10
12.6413339724392
20
18.5563879351451
30
0
41
1
10
11.3257830183545
20
19.160063619907
30
0
41
1
10
9.97144035827259
20
19.6272263865344
30
0
41
1
10
8.56482909780794
20
19.9305390656023
30
0
41
1
10
7.61026152648279
20
19.9982287214928
30
0
41
1
10
7.12330000000003
20
20
30
0
0
SPLINE
5
FD
100
AcDbEntity
8
1
62
256
6
ByLayer
370
18
48
1
60
0
100
AcDbSpline
70
4
71
3
72
16
73
12
40
0
40
0
40
0
40
0
40
0.0903553674804916
40
0.179063468766606
40
0.267988975170532
40
0.358252586714833
40
0.450341247462364
40
0.544268478107697
40
0.694802469205561
40
0.847270559728137
40
1
40
1
40
1
40
1
41
1
10
7.12330000000003
20
-20
30
0
41
1
10
7.63971386901338
20
-19.9977744289967
30
0
41
1
10
8.65096562424861
20
-19.9219832564401
30
0
41
1
10
10.139344584818
20
-19.5820603159911
30
0
41
1
10
11.5694360550655
20
-19.0618952060018
30
0
41
1
10
12.9575639987216
20
-18.3940087977965
30
0
41
1
10
14.3163142162903
20
-17.612140856823
30
0
41
1
10
15.9213755989467
20
-16.5785824905352
30
0
41
1
10
17.7710854840071
20
-15.2962588807534
30
0
41
1
10
19.901552761261
20
-13.8307487473265
30
0
41
1
10
21.3945347425758
20
-12.9550807128941
30
0
41
1
10
22.1531053820785
20
-12.5349161231952
30
0
0
SPLINE
5
FE
100
AcDbEntity
8
1
62
256
6
ByLayer
370
18
48
1
60
0
100
AcDbSpline
70
4
71
3
72
24
73
20
40
0
40
0
40
0
40
0
40
0.0208205186051602
40
0.0869514996452884
40
0.148384069802443
40
0.2070368185077
40
0.265304277024022
40
0.322995807412717
40
0.378861828239475
40
0.432947839689134
40
0.535973148651759
40
0.633678342910381
40
0.65765779054917
40
0.684952363331073
40
0.719439368348978
40
0.761125988890974
40
0.827916860915039
40
0.907533607419158
40
1
40
1
40
1
40
1
41
1
10
50.6093597507258
20
11.2289503052719
30
0
41
1
10
50.4929591518969
20
11.2273097686476
30
0
41
1
10
50.0002154113785
20
11.2190683228618
30
0
41
1
10
49.0944072705619
20
11.1809644446376
30
0
41
1
10
47.9135611380961
20
11.1491155347552
30
0
41
1
10
46.7478359289364
20
11.1429907016995
30
0
41
1
10
45.6423676877269
20
11.1724987799529
30
0
41
1
10
44.5745872207913
20
11.198659890176
30
0
41
1
10
43.5181086263614
20
11.2137297140692
30
0
41
1
10
42.1692208299878
20
11.2255233935475
30
0
41
1
10
40.5404188884868
20
11.229565714771
30
0
41
1
10
39.087648200768
20
11.2297985176075
30
0
41
1
10
38.1235962252995
20
11.2307965534534
30
0
41
1
10
37.5687841019945
20
11.2315168432579
30
0
41
1
10
36.899317919528
20
11.2326040034245
30
0
41
1
10
35.9743142644394
20
11.2344846071951
30
0
41
1
10
34.7572911385227
20
11.2376550149516
30
0
41
1
10
33.2117099237499
20
11.2428374141956
30
0
41
1
10
32.0982835897211
20
11.2473386416976
30
0
41
1
10
31.5000000002664
20
11.2499982886951
30
0
0
SPLINE
5
FF
100
AcDbEntity
8
1
62
256
6
ByLayer
370
18
48
1
60
0
100
AcDbSpline
70
4
71
2
72
6
73
3
40
0
40
0
40
0
40
1
40
1
40
1
41
1
10
55.4674424907706
20
-2.78794468628638
30
0
41
1
10
55.6662000869371
20
-2.85091789934245
30
0
41
1
10
55.8549170662652
20
-2.91570709957477
30
0
0
SPLINE
5
100
100
AcDbEntity
8
1
62
256
6
ByLayer
370
18
48
1
60
0
100
AcDbSpline
70
4
71
2
72
6
73
3
40
0
40
0
40
0
40
1
40
1
40
1
41
1
10
83.7188738606332
20
6.16802448148471
30
0
41
1
10
83.7188751824342
20
6.16811379829147
30
0
41
1
10
83.7188765042346
20
6.16820309406069
30
0
0
SPLINE
5
101
100
AcDbEntity
8
1
62
256
6
ByLayer
370
18
48
1
60
0
100
AcDbSpline
70
4
71
3
72
22
73
18
40
0
40
0
40
0
40
0
40
0.125032317099756
40
0.232689445462918
40
0.32300352885252
40
0.385481707845232
40
0.4357488584412
40
0.474562125427048
40
0.510977301373228
40
0.547683832689213
40
0.584719041427764
40
0.673869858524205
40
0.76683602273915
40
0.82515414873121
40
0.885004388381799
40
0.946419248358637
40
1
40
1
40
1
40
1
41
1
10
31.5000000002664
20
-11.2499982886951
30
0
41
1
10
32.0982835897211
20
-11.2473386416976
30
0
41
1
10
33.2117098393429
20
-11.2428374358857
30
0
41
1
10
34.7572913730554
20
-11.2376549546837
30
0
41
1
10
36.0035495389751
20
-11.2344086075091
30
0
41
1
10
36.9751788207673
20
-11.2324558327388
30
0
41
1
10
37.7003818815414
20
-11.2313254715623
30
0
41
1
10
38.3007914390415
20
-11.2305905972586
30
0
41
1
10
38.8364902814841
20
-11.2301108025739
30
0
41
1
10
39.3632095799335
20
-11.229779967873
30
0
41
1
10
40.140644234464
20
-11.2293410220528
30
0
41
1
10
41.1817311407741
20
-11.2282242327125
30
0
41
1
10
42.3163148252482
20
-11.2238557050946
30
0
41
1
10
43.306244870592
20
-11.2157750204266
30
0
41
1
10
44.143319356116
20
-11.2049394147102
30
0
41
1
10
44.9557345060124
20
-11.1905296913598
30
0
41
1
10
45.4827296503617
20
-11.1757446967908
30
0
41
1
10
45.7307429183281
20
-11.1692454837942
30
0
0
SPLINE
5
102
100
AcDbEntity
8
1
62
256
6
ByLayer
370
18
48
1
60
0
100
AcDbSpline
70
4
71
3
72
8
73
4
40
0
40
0
40
0
40
0
40
1
40
1
40
1
40
1
41
1
10
50.4326755137457
20
-11.2261633194981
30
0
41
1
10
50.4916355744199
20
-11.2272079461451
30
0
41
1
10
50.550126071464
20
-11.2281104124729
30
0
41
1
10
50.6082206207915
20
-11.228929759065
30
0
0
SPLINE
5
103
100
AcDbEntity
8
SK1
62
256
6
ByLayer
370
18
48
1
60
0
100
AcDbSpline
70
4
71
3
72
70
73
66
40
0
40
0
40
0
40
0
40
0.0312500000000009
40
0.0312500000000009
40
0.0468750000000009
40
0.0468750000000009
40
0.0625000000000008
40
0.0625000000000008
40
0.0781250000000008
40
0.0781250000000008
40
0.0937500000000008
40
0.0937500000000008
40
0.125000000000001
40
0.125000000000001
40
0.156250000000001
40
0.156250000000001
40
0.1875
40
0.1875
40
0.21875
40
0.21875
40
0.25
40
0.25
40
0.3125
40
0.3125
40
0.34375
40
0.34375
40
0.375
40
0.375
40
0.4375
40
0.4375
40
0.5
40
0.5
40
0.5625
40
0.5625
40
0.59375
40
0.59375
40
0.625
40
0.625
40
0.687499999999999
40
0.687499999999999
40
0.749999999999999
40
0.749999999999999
40
0.781249999999999
40
0.781249999999999
40
0.812499999999999
40
0.812499999999999
40
0.843749999999999
40
0.843749999999999
40
0.859374999999999
40
0.859374999999999
40
0.874999999999999
40
0.874999999999999
40
0.90625
40
0.90625
40
0.921875
40
0.921875
40
0.9375
40
0.9375
40
0.953125
40
0.953125
40
0.96875
40
0.96875
40
0.984375
40
0.984375
40
1
40
1
40
1
40
1
41
1
10
-6.5
20
-8.08217792429738
30
0
41
1
10
-6.28762555995462
20
-8.08217792429738
30
0
41
1
10
-6.08104986911269
20
-8.05368849473035
30
0
41
1
10
-5.77910858566645
20
-7.97161548876423
30
0
41
1
10
-5.68022589061653
20
-7.93763423525914
30
0
41
1
10
-5.49054490854957
20
-7.85917405972873
30
0
41
1
10
-5.39899523500898
20
-7.81450307998708
30
0
41
1
10
-5.2218564656466
20
-7.71512651881918
30
0
41
1
10
-5.13594421810529
20
-7.66012522444171
30
0
41
1
10
-4.9730710583807
20
-7.54325327411436
30
0
41
1
10
-4.89566707429051
20
-7.48118572785879
30
0
41
1
10
-4.6739132088681
20
-7.28529466076768
30
0
41
1
10
-4.53991230602642
20
-7.14180694426813
30
0
41
1
10
-4.29416855767025
20
-6.83312930612388
30
0
41
1
10
-4.18521185387124
20
-6.6715007799863
30
0
41
1
10
-3.98806828865869
20
-6.33636750757177
30
0
41
1
10
-3.89994716555162
20
-6.16283546371301
30
0
41
1
10
-3.74020554839618
20
-5.80545940076314
30
0
41
1
10
-3.66838920508039
20
-5.62093024300796
30
0
41
1
10
-3.53937133315313
20
-5.24594125113808
30
0
41
1
10
-3.48231441550428
20
-5.05612691162614
30
0
41
1
10
-3.32871181677945
20
-4.48051810886963
30
0
41
1
10
-3.24948709448094
20
-4.08860232749163
30
0
41
1
10
-3.15366535436107
20
-3.49035454453516
30
0
41
1
10
-3.12563763183789
20
-3.28919601457946
30
0
41
1
10
-3.07615885164302
20
-2.8835794753536
30
0
41
1
10
-3.05468247616591
20
-2.6788066175184
30
0
41
1
10
-2.99892560884547
20
-2.06183265419932
30
0
41
1
10
-2.97341374459449
20
-1.65021464829943
30
0
41
1
10
-2.9399088448763
20
-0.826427708852918
30
0
41
1
10
-2.93195209632361
20
-0.414258490969502
30
0
41
1
10
-2.93190451240991
20
0.410616418566406
30
0
41
1
10
-2.9398119090001
20
0.823322087871986
30
0
41
1
10
-2.96496313204875
20
1.44279742981084
30
0
41
1
10
-2.97558958394541
20
1.64935895031218
30
0
41
1
10
-3.00193375507485
20
2.06262743969191
30
0
41
1
10
-3.01768796297787
20
2.26962385434214
30
0
41
1
10
-3.07336906956124
20
2.88522451010573
30
0
41
1
10
-3.12161720280068
20
3.29012272731185
30
0
41
1
10
-3.24933181748244
20
4.08777686756457
30
0
41
1
10
-3.32863739699849
20
4.48055429019126
30
0
41
1
10
-3.4831003209884
20
5.05891332672573
30
0
41
1
10
-3.54076942872436
20
5.25033331669707
30
0
41
1
10
-3.6696594231249
20
5.62428672514505
30
0
41
1
10
-3.74096306692999
20
5.80730424563461
30
0
41
1
10
-3.90070915193934
20
6.16438864035223
30
0
41
1
10
-3.98911623857577
20
6.33846735616979
30
0
41
1
10
-4.138362342958
20
6.59169519349339
30
0
41
1
10
-4.19087366086717
20
6.67469064307952
30
0
41
1
10
-4.30098015289809
20
6.83590272214585
30
0
41
1
10
-4.35870319203542
20
6.91434756669076
30
0
41
1
10
-4.54085622294414
20
7.14267001525303
30
0
41
1
10
-4.67411746978664
20
7.28563237868227
30
0
41
1
10
-4.89762414313628
20
7.48283481508952
30
0
41
1
10
-4.97599664741571
20
7.54549364627977
30
0
41
1
10
-5.13838907908934
20
7.66173374977816
30
0
41
1
10
-5.22276337997238
20
7.71564866991193
30
0
41
1
10
-5.39862205954023
20
7.81428032092916
30
0
41
1
10
-5.49010121423032
20
7.85900465123581
30
0
41
1
10
-5.68125471270633
20
7.93804563435424
30
0
41
1
10
-5.77882786643025
20
7.97148061306467
30
0
41
1
10
-5.97815227640163
20
8.02577693282768
30
0
41
1
10
-6.07990178078995
20
8.04664365567402
30
0
41
1
10
-6.2879131648474
20
8.07490697119016
30
0
41
1
10
-6.39402083858312
20
8.08217792429738
30
0
41
1
10
-6.5
20
8.08217792429738
30
0
0
SPLINE
5
104
100
AcDbEntity
8
SK1
62
256
6
ByLayer
370
18
48
1
60
0
100
AcDbSpline
70
4
71
3
72
70
73
66
40
0
40
0
40
0
40
0
40
0.03125
40
0.03125
40
0.0468749999999999
40
0.0468749999999999
40
0.0624999999999999
40
0.0624999999999999
40
0.0781249999999998
40
0.0781249999999998
40
0.0937499999999998
40
0.0937499999999998
40
0.125
40
0.125
40
0.15625
40
0.15625
40
0.1875
40
0.1875
40
0.218749999999999
40
0.218749999999999
40
0.249999999999999
40
0.249999999999999
40
0.312499999999999
40
0.312499999999999
40
0.343749999999999
40
0.343749999999999
40
0.374999999999999
40
0.374999999999999
40
0.437499999999999
40
0.437499999999999
40
0.499999999999999
40
0.499999999999999
40
0.562499999999999
40
0.562499999999999
40
0.593749999999999
40
0.593749999999999
40
0.624999999999999
40
0.624999999999999
40
0.687499999999999
40
0.687499999999999
40
0.749999999999999
40
0.749999999999999
40
0.781249999999999
40
0.781249999999999
40
0.812499999999999
40
0.812499999999999
40
0.843749999999999
40
0.843749999999999
40
0.859374999999999
40
0.859374999999999
40
0.874999999999999
40
0.874999999999999
40
0.906249999999999
40
0.906249999999999
40
0.921875
40
0.921875
40
0.9375
40
0.9375
40
0.953125
40
0.953125
40
0.96875
40
0.96875
40
0.984375
40
0.984375
40
1
40
1
40
1
40
1
41
1
10
-53.5
20
8.08217792429738
30
0
41
1
10
-53.7123744400454
20
8.08217792429738
30
0
41
1
10
-53.9189501308873
20
8.05368849473035
30
0
41
1
10
-54.2208914143335
20
7.9716154887642
30
0
41
1
10
-54.3197741093835
20
7.93763423525914
30
0
41
1
10
-54.5094550914504
20
7.85917405972873
30
0
41
1
10
-54.601004764991
20
7.81450307998708
30
0
41
1
10
-54.7781435343534
20
7.71512651881918
30
0
41
1
10
-54.8640557818947
20
7.66012522444171
30
0
41
1
10
-55.0269289416193
20
7.54325327411436
30
0
41
1
10
-55.1043329257095
20
7.48118572785879
30
0
41
1
10
-55.3260867911319
20
7.28529466076768
30
0
41
1
10
-55.4600876939735
20
7.14180694426813
30
0
41
1
10
-55.7058314423297
20
6.83312930612388
30
0
41
1
10
-55.8147881461287
20
6.6715007799863
30
0
41
1
10
-56.0119317113413
20
6.33636750757177
30
0
41
1
10
-56.1000528344483
20
6.16283546371301
30
0
41
1
10
-56.2597944516038
20
5.80545940076314
30
0
41
1
10
-56.3316107949196
20
5.62093024300796
30
0
41
1
10
-56.4606286668468
20
5.24594125113808
30
0
41
1
10
-56.5176855844957
20
5.05612691162611
30
0
41
1
10
-56.6712881832205
20
4.48051810886963
30
0
41
1
10
-56.750512905519
20
4.08860232749163
30
0
41
1
10
-56.8463346456389
20
3.49035454453516
30
0
41
1
10
-56.8743623681621
20
3.28919601457946
30
0
41
1
10
-56.923841148357
20
2.8835794753536
30
0
41
1
10
-56.945317523834
20
2.6788066175184
30
0
41
1
10
-57.0010743911545
20
2.06183265419932
30
0
41
1
10
-57.0265862554054
20
1.65021464829943
30
0
41
1
10
-57.0600911551237
20
0.826427708852918
30
0
41
1
10
-57.0680479036763
20
0.414258490969502
30
0
41
1
10
-57.0680954875901
20
-0.410616418566406
30
0
41
1
10
-57.0601880909999
20
-0.823322087871986
30
0
41
1
10
-57.0350368679512
20
-1.44279742981084
30
0
41
1
10
-57.0244104160545
20
-1.64935895031215
30
0
41
1
10
-56.9980662449251
20
-2.06262743969191
30
0
41
1
10
-56.9823120370221
20
-2.26962385434214
30
0
41
1
10
-56.9266309304387
20
-2.88522451010573
30
0
41
1
10
-56.8783827971993
20
-3.29012272731185
30
0
41
1
10
-56.7506681825175
20
-4.08777686756457
30
0
41
1
10
-56.6713626030015
20
-4.48055429019126
30
0
41
1
10
-56.5168996790116
20
-5.05891332672573
30
0
41
1
10
-56.4592305712756
20
-5.25033331669707
30
0
41
1
10
-56.3303405768751
20
-5.62428672514505
30
0
41
1
10
-56.25903693307
20
-5.80730424563461
30
0
41
1
10
-56.0992908480606
20
-6.16438864035223
30
0
41
1
10
-56.0108837614242
20
-6.33846735616979
30
0
41
1
10
-55.861637657042
20
-6.59169519349339
30
0
41
1
10
-55.8091263391328
20
-6.67469064307952
30
0
41
1
10
-55.6990198471019
20
-6.83590272214585
30
0
41
1
10
-55.6412968079646
20
-6.91434756669076
30
0
41
1
10
-55.4591437770558
20
-7.14267001525306
30
0
41
1
10
-55.3258825302133
20
-7.28563237868227
30
0
41
1
10
-55.1023758568637
20
-7.48283481508952
30
0
41
1
10
-55.0240033525843
20
-7.54549364627977
30
0
41
1
10
-54.8616109209106
20
-7.66173374977816
30
0
41
1
10
-54.7772366200276
20
-7.71564866991193
30
0
41
1
10
-54.6013779404598
20
-7.81428032092916
30
0
41
1
10
-54.5098987857696
20
-7.85900465123581
30
0
41
1
10
-54.3187452872937
20
-7.93804563435424
30
0
41
1
10
-54.2211721335697
20
-7.97148061306467
30
0
41
1
10
-54.0218477235983
20
-8.02577693282768
30
0
41
1
10
-53.92009821921
20
-8.04664365567402
30
0
41
1
10
-53.7120868351526
20
-8.07490697119016
30
0
41
1
10
-53.6059791614168
20
-8.08217792429738
30
0
41
1
10
-53.5
20
-8.08217792429738
30
0
0
SPLINE
5
105
100
AcDbEntity
8
1
62
256
6
ByLayer
370
18
48
1
60
0
100
AcDbSpline
70
4
71
3
72
76
73
72
40
0
40
0
40
0
40
0
40
0.0625000000000016
40
0.0625000000000016
40
0.125000000000003
40
0.125000000000003
40
0.187500000000005
40
0.187500000000005
40
0.218750000000005
40
0.218750000000005
40
0.250000000000006
40
0.250000000000006
40
0.265625000000006
40
0.265625000000006
40
0.281250000000006
40
0.281250000000006
40
0.312500000000006
40
0.312500000000006
40
0.343750000000006
40
0.343750000000006
40
0.359375000000005
40
0.359375000000005
40
0.375000000000005
40
0.375000000000005
40
0.390625000000004
40
0.390625000000004
40
0.398437500000004
40
0.398437500000004
40
0.406250000000004
40
0.406250000000004
40
0.421875000000004
40
0.421875000000004
40
0.429687500000004
40
0.429687500000004
40
0.437500000000004
40
0.437500000000004
40
0.468750000000003
40
0.468750000000003
40
0.500000000000002
40
0.500000000000002
40
0.507812500000002
40
0.507812500000002
40
0.515625000000002
40
0.515625000000002
40
0.531250000000002
40
0.531250000000002
40
0.546875000000001
40
0.546875000000001
40
0.5625
40
0.5625
40
0.59375
40
0.59375
40
0.624999999999999
40
0.624999999999999
40
0.656249999999998
40
0.656249999999998
40
0.671874999999998
40
0.671874999999998
40
0.687499999999998
40
0.687499999999998
40
0.718749999999999
40
0.718749999999999
40
0.749999999999999
40
0.749999999999999
40
0.812499999999999
40
0.812499999999999
40
0.874999999999999
40
0.874999999999999
40
0.9375
40
0.9375
40
1
40
1
40
1
40
1
41
1
10
22.1531053820785
20
6.54395661624736
30
0
41
1
10
21.4106390515794
20
6.63276143124361
30
0
41
1
10
20.6925012703169
20
6.72973456406888
30
0
41
1
10
19.2811043621194
20
6.93269727706627
30
0
41
1
10
18.5880056455795
20
7.03865301908917
30
0
41
1
10
17.2067818105635
20
7.23962421787445
30
0
41
1
10
16.5187372010166
20
7.33486674550826
30
0
41
1
10
15.4754320520267
20
7.44351621259264
30
0
41
1
10
15.1257742127019
20
7.47388447878745
30
0
41
1
10
14.4218980280866
20
7.51610114124193
30
0
41
1
10
14.0675098526501
20
7.52800754824031
30
0
41
1
10
13.5308169821628
20
7.52517024682086
30
0
41
1
10
13.3510690543712
20
7.52075233297589
30
0
41
1
10
12.9896604165729
20
7.50346327575943
30
0
41
1
10
12.8076684235615
20
7.49055105509288
30
0
41
1
10
12.2625087575417
20
7.43682152231318
30
0
41
1
10
11.8993736194503
20
7.38120520020502
30
0
41
1
10
11.1768051436356
20
7.21502369322718
30
0
41
1
10
10.8173041882778
20
7.10465196944477
30
0
41
1
10
10.2854480591757
20
6.88084135816581
30
0
41
1
10
10.1083978796612
20
6.79581147081572
30
0
41
1
10
9.76545711671571
20
6.60616520415707
30
0
41
1
10
9.59916186450914
20
6.50152224370842
30
0
41
1
10
9.27883117607195
20
6.27041662201299
30
0
41
1
10
9.12478563658016
20
6.14396948392837
30
0
41
1
10
8.90476482433354
20
5.93575723594509
30
0
41
1
10
8.83338422660012
20
5.86331101441783
30
0
41
1
10
8.69683197759349
20
5.71432239388679
30
0
41
1
10
8.63136945939425
20
5.63751464900432
30
0
41
1
10
8.44365363453039
20
5.4000922293977
30
0
41
1
10
8.33004395555866
20
5.23250273873137
30
0
41
1
10
8.17826973064132
20
4.96655212841003
30
0
41
1
10
8.13079135312114
20
4.87546865329114
30
0
41
1
10
8.04238133348218
20
4.68825109035328
30
0
41
1
10
8.00138649275868
20
4.59184473468187
30
0
41
1
10
7.81702331171647
20
4.10611419073643
30
0
41
1
10
7.7312052479007
20
3.69953448326803
30
0
41
1
10
7.68197311788853
20
2.85150632764612
30
0
41
1
10
7.71975576706711
20
2.43087419896631
30
0
41
1
10
7.83502553020622
20
1.90919756669592
30
0
41
1
10
7.86158285892179
20
1.80496477874658
30
0
41
1
10
7.92064566048862
20
1.59956802059963
30
0
41
1
10
7.95321862778439
20
1.49805468360358
30
0
41
1
10
8.05951816139003
20
1.19685266383448
30
0
41
1
10
8.14180195195914
20
1.00049293568986
30
0
41
1
10
8.32703960287628
20
0.61578386000977
30
0
41
1
10
8.43061574590641
20
0.42656534224875
30
0
41
1
10
8.65220988482182
20
0.0627460693855255
30
0
41
1
10
8.77046267359833
20
-0.112580779478805
30
0
41
1
10
9.14415710610149
20
-0.621400836111548
30
0
41
1
10
9.41840740291701
20
-0.937830875828752
30
0
41
1
10
10.004070195293
20
-1.53475618450671
30
0
41
1
10
10.3083202969603
20
-1.80806334880197
30
0
41
1
10
10.928430397869
20
-2.31718460699915
30
0
41
1
10
11.2446067715851
20
-2.55314897244173
30
0
41
1
10
11.7235582211053
20
-2.8864601965866
30
0
41
1
10
11.8840125279192
20
-2.99409774226865
30
0
41
1
10
12.2060061837628
20
-3.20338483846646
30
0
41
1
10
12.3668749531575
20
-3.30459187182279
30
0
41
1
10
12.8464872089264
20
-3.59817606428538
30
0
41
1
10
13.1632154903285
20
-3.7812542488395
30
0
41
1
10
13.7905206718044
20
-4.12943271364676
30
0
41
1
10
14.1011123669162
20
-4.29449699185793
30
0
41
1
10
15.0244341573534
20
-4.77014993442501
30
0
41
1
10
15.6286970574317
20
-5.06161708845804
30
0
41
1
10
16.8211318627441
20
-5.61772990076852
30
0
41
1
10
17.4093977146524
20
-5.88212459711613
30
0
41
1
10
18.576209783107
20
-6.39676838162359
30
0
41
1
10
19.1536332377955
20
-6.64642095158229
30
0
41
1
10
20.3015637917749
20
-7.13762873550246
30
0
41
1
10
20.8721080797592
20
-7.37916056209306
30
0
41
1
10
21.4400078073053
20
-7.61771348584406
30
0
0
SPLINE
5
106
100
AcDbEntity
8
1
62
256
6
ByLayer
370
13
48
1
60
0
100
AcDbSpline
70
4
71
3
72
18
73
14
40
0
40
0
40
0
40
0
40
0.125000000000006
40
0.125000000000006
40
0.187500000000006
40
0.187500000000006
40
0.250000000000005
40
0.250000000000005
40
0.500000000000003
40
0.500000000000003
40
0.750000000000002
40
0.750000000000002
40
1
40
1
40
1
40
1
41
1
10
104.61363233101
20
4.10591768232601
30
0
41
1
10
104.64940710123
20
3.94235914451806
30
0
41
1
10
104.694512703756
20
3.78325222649576
30
0
41
1
10
104.774781755435
20
3.55060350616429
30
0
41
1
10
104.803742206313
20
3.47384856807946
30
0
41
1
10
104.865108169793
20
3.32370627263896
30
0
41
1
10
104.89752586386
20
3.25023955994348
30
0
41
1
10
105.067663176908
20
2.89034284806039
30
0
41
1
10
105.229066690364
20
2.62580550991791
30
0
41
1
10
105.59237852122
20
2.13414594163396
30
0
41
1
10
105.789314910469
20
1.91363807547339
30
0
41
1
10
106.206862311144
20
1.51200054087238
30
0
41
1
10
106.428149620758
20
1.33061596701484
30
0
41
1
10
106.656863978299
20
1.16818216722629
30
0
0
SPLINE
5
107
100
AcDbEntity
8
1
62
256
6
ByLayer
370
18
48
1
60
0
100
AcDbSpline
70
4
71
3
72
8
73
4
40
0
40
0
40
0
40
0
40
1
40
1
40
1
40
1
41
1
10
98.5158442425725
20
1.17928628931901
30
0
41
1
10
98.4677138604479
20
1.09812519097378
30
0
41
1
10
98.4191990911951
20
1.01801304830013
30
0
41
1
10
98.3702912009517
20
0.938973695172507
30
0
0
SPLINE
5
108
100
AcDbEntity
8
1
62
256
6
ByLayer
370
18
48
1
60
0
100
AcDbSpline
70
4
71
3
72
20
73
16
40
0
40
0
40
0
40
0
40
0.124999999999999
40
0.124999999999999
40
0.187500000000003
40
0.187500000000003
40
0.250000000000008
40
0.250000000000008
40
0.500000000000007
40
0.500000000000007
40
0.750000000000006
40
0.750000000000006
40
0.875000000000003
40
0.875000000000003
40
1
40
1
40
1
40
1
41
1
10
23.8643906570443
20
-7.64272840214556
30
0
41
1
10
23.732949979251
20
-7.62350118652307
30
0
41
1
10
23.6053793270903
20
-7.60783985006262
30
0
41
1
10
23.4197440839864
20
-7.58966599142894
30
0
41
1
10
23.3588222801099
20
-7.58449524324246
30
0
41
1
10
23.2389159715613
20
-7.5759333802346
30
0
41
1
10
23.1796752087116
20
-7.57253351592078
30
0
41
1
10
22.8921938810383
20
-7.56015395247019
30
0
41
1
10
22.6896358412778
20
-7.56471106576177
30
0
41
1
10
22.3352566716085
20
-7.59677408685295
30
0
41
1
10
22.1908469161747
20
-7.62349870797834
30
0
41
1
10
22.0173612538307
20
-7.67475773584675
30
0
41
1
10
21.9672101305729
20
-7.69368388820217
30
0
41
1
10
21.8830569044899
20
-7.73390199838786
30
0
41
1
10
21.8487353951274
20
-7.75528731892555
30
0
41
1
10
21.8218827578644
20
-7.77774591883869
30
0
0
SPLINE
5
109
100
AcDbEntity
8
1
62
256
6
ByLayer
370
18
48
1
60
0
100
AcDbSpline
70
4
71
3
72
8
73
4
40
0
40
0
40
0
40
0
40
1
40
1
40
1
40
1
41
1
10
81.4754370473066
20
9.54110478681187
30
0
41
1
10
81.424785079949
20
9.52915545914615
30
0
41
1
10
81.3742685010685
20
9.52038606389652
30
0
41
1
10
81.3238949874209
20
9.51465848683944
30
0
0
SPLINE
5
10A
100
AcDbEntity
8
1
62
256
6
ByLayer
370
18
48
1
60
0
100
AcDbSpline
70
4
71
3
72
8
73
4
40
0
40
0
40
0
40
0
40
1
40
1
40
1
40
1
41
1
10
28.4
20
6.39980561325606
30
0
41
1
10
28.5671218990415
20
6.3662187700553
30
0
41
1
10
28.7282403395568
20
6.32076271786065
30
0
41
1
10
28.8836079263203
20
6.26363398497065
30
0
0
SPLINE
5
10B
100
AcDbEntity
8
1
62
256
6
ByLayer
370
18
48
1
60
0
100
AcDbSpline
70
4
71
3
72
18
73
14
40
0
40
0
40
0
40
0
40
0.250000000000002
40
0.250000000000002
40
0.374999999999999
40
0.374999999999999
40
0.499999999999997
40
0.499999999999997
40
0.749999999999998
40
0.749999999999998
40
0.874999999999999
40
0.874999999999999
40
1
40
1
40
1
40
1
41
1
10
93.729863857252
20
11.9146024052169
30
0
41
1
10
94.6201424511885
20
11.9581040688157
30
0
41
1
10
95.509530348226
20
11.9797767964202
30
0
41
1
10
96.8419299292258
20
11.9801433045048
30
0
41
1
10
97.2856308638744
20
11.9748831563795
30
0
41
1
10
98.1725216310253
20
11.9535249191846
30
0
41
1
10
98.6155577313643
20
11.9373852588896
30
0
41
1
10
99.9457128520874
20
11.8730432663959
30
0
41
1
10
100.833092331725
20
11.8088906999888
30
0
41
1
10
102.164930790648
20
11.6807669305583
30
0
41
1
10
102.608992267747
20
11.6327295387257
30
0
41
1
10
103.497095139163
20
11.525679307975
30
0
41
1
10
103.941646515071
20
11.4669555031731
30
0
41
1
10
104.386721197678
20
11.4030669618572
30
0
0
SPLINE
5
10C
100
AcDbEntity
8
1
62
256
6
ByLayer
370
18
48
1
60
0
100
AcDbSpline
70
4
71
3
72
10
73
6
40
0
40
0
40
0
40
0
40
0.5
40
0.5
40
1
40
1
40
1
40
1
41
1
10
104.636042495466
20
4.13031658513577
30
0
41
1
10
104.990415033222
20
4.16055362698543
30
0
41
1
10
105.343789562406
20
4.19708246078184
30
0
41
1
10
106.046964501076
20
4.29267261772279
30
0
41
1
10
106.396879090257
20
4.35101411249684
30
0
41
1
10
106.743144563453
20
4.43236089919841
30
0
0
SPLINE
5
10D
100
AcDbEntity
8
1
62
256
6
ByLayer
370
18
48
1
60
0
100
AcDbSpline
70
4
71
3
72
10
73
6
40
0
40
0
40
0
40
0
40
0.5
40
0.5
40
1
40
1
40
1
40
1
41
1
10
107.69369940016
20
-0.902062359531755
30
0
41
1
10
107.752013091676
20
-0.72347267949749
30
0
41
1
10
107.803621000422
20
-0.546487091481225
30
0
41
1
10
107.895658380025
20
-0.195189912445727
30
0
41
1
10
107.936072887712
20
-0.0208819007702346
30
0
41
1
10
107.971588193562
20
0.152254171576146
30
0
0
SPLINE
5
10E
100
AcDbEntity
8
1
62
256
6
ByLayer
370
13
48
1
60
0
100
AcDbSpline
70
4
71
3
72
18
73
14
40
0
40
0
40
0
40
0
40
0.249999999999995
40
0.249999999999995
40
0.374999999999996
40
0.374999999999996
40
0.499999999999997
40
0.499999999999997
40
0.749999999999998
40
0.749999999999998
40
0.874999999999999
40
0.874999999999999
40
1
40
1
40
1
40
1
41
1
10
93.0000000000001
20
8.94876322987633
30
0
41
1
10
94.0307290319905
20
8.99599440639224
30
0
41
1
10
95.0612134859198
20
9.01682716100805
30
0
41
1
10
96.6063748777217
20
9.01470540044295
30
0
41
1
10
97.1214364658507
20
9.00886634330811
30
0
41
1
10
98.1517449787723
20
8.98770672958491
30
0
41
1
10
98.6670582505131
20
8.97277181467615
30
0
41
1
10
100.212999772132
20
8.90862386466057
30
0
41
1
10
101.243296946746
20
8.84176511052419
30
0
41
1
10
102.788355738579
20
8.71100153877154
30
0
41
1
10
103.303515976737
20
8.66328057836688
30
0
41
1
10
104.333950466417
20
8.55603212026034
30
0
41
1
10
104.849192364943
20
8.49698399808779
30
0
41
1
10
105.364401465482
20
8.43272490677387
30
0
0
SPLINE
5
10F
100
AcDbEntity
8
1
62
256
6
ByLayer
370
18
48
1
60
0
100
AcDbSpline
70
4
71
3
72
18
73
14
40
0
40
0
40
0
40
0
40
0.250000000000009
40
0.250000000000009
40
0.375000000000007
40
0.375000000000007
40
0.500000000000006
40
0.500000000000006
40
0.625000000000004
40
0.625000000000004
40
0.750000000000003
40
0.750000000000003
40
1
40
1
40
1
40
1
41
1
10
22.2413812147238
20
-8.54223709991118
30
0
41
1
10
22.3565661839475
20
-8.62746258059292
30
0
41
1
10
22.4906109825433
20
-8.68891813369046
30
0
41
1
10
22.7194142329363
20
-8.75507021155605
30
0
41
1
10
22.8009353680523
20
-8.77280928520503
30
0
41
1
10
22.9702739516402
20
-8.80008346630953
30
0
41
1
10
23.0579289407382
20
-8.80968327042223
30
0
41
1
10
23.2390603267138
20
-8.82231540711484
30
0
41
1
10
23.3325372992655
20
-8.82534268745209
30
0
41
1
10
23.5253823722701
20
-8.82579885670864
30
0
41
1
10
23.6248998144787
20
-8.82318757473217
30
0
41
1
10
23.9258042633833
20
-8.80830868865871
30
0
41
1
10
24.1316437273414
20
-8.78923117906254
30
0
41
1
10
24.3428947229401
20
-8.76254164985431
30
0
0
SPLINE
5
110
100
AcDbEntity
8
1
62
256
6
ByLayer
370
18
48
1
60
0
100
AcDbSpline
70
4
71
3
72
8
73
4
40
0
40
0
40
0
40
0
40
1
40
1
40
1
40
1
41
1
10
92.9039003117658
20
-11.6225758017261
30
0
41
1
10
92.9042677099743
20
-11.6225360324569
30
0
41
1
10
92.9046351081828
20
-11.6224962539293
30
0
41
1
10
92.9050025063914
20
-11.6224564661436
30
0
0
SPLINE
5
111
100
AcDbEntity
8
1
62
256
6
ByLayer
370
18
48
1
60
0
100
AcDbSpline
70
4
71
3
72
12
73
8
40
0
40
0
40
0
40
0
40
0.419224153501188
40
0.419224153501188
40
0.709612009462216
40
0.709612009462216
40
1
40
1
40
1
40
1
41
1
10
92.9999999991656
20
-11.5225603307531
30
0
41
1
10
92.9867337899154
20
-11.5365235106032
30
0
41
1
10
92.9734636672133
20
-11.5504851939113
30
0
41
1
10
92.9509950557471
20
-11.5741153646573
30
0
41
1
10
92.9417985786451
20
-11.5837846158978
30
0
41
1
10
92.9234019331092
20
-11.6031217392763
30
0
41
1
10
92.9142017636078
20
-11.6127896125341
30
0
41
1
10
92.9049997638565
20
-11.6224568050958
30
0
0
SPLINE
5
112
100
AcDbEntity
8
1
62
256
6
ByLayer
370
18
48
1
60
0
100
AcDbSpline
70
4
71
3
72
18
73
14
40
0
40
0
40
0
40
0
40
0.25
40
0.25
40
0.375
40
0.375
40
0.5
40
0.5
40
0.625
40
0.625
40
0.75
40
0.75
40
1
40
1
40
1
40
1
41
1
10
27.0807677359217
20
6.32440596695099
30
0
41
1
10
27.2058147418948
20
6.28762662444444
30
0
41
1
10
27.3345222457776
20
6.24826840164326
30
0
41
1
10
27.5346864921071
20
6.18569604729004
30
0
41
1
10
27.602483957033
20
6.16428524208817
30
0
41
1
10
27.7386865454627
20
6.12104769498498
30
0
41
1
10
27.8073244594303
20
6.09914840612291
30
0
41
1
10
27.9458496623196
20
6.05496228737445
30
0
41
1
10
28.0157366213791
20
6.03267554378377
30
0
41
1
10
28.1569800507611
20
5.98789452252254
30
0
41
1
10
28.2286679986216
20
5.96529749442325
30
0
41
1
10
28.4438045473045
20
5.89825863896348
30
0
41
1
10
28.586367254056
20
5.85489208907919
30
0
41
1
10
28.7281122125533
20
5.81354577602497
30
0
0
SPLINE
5
113
100
AcDbEntity
8
1
62
256
6
ByLayer
370
18
48
1
60
0
100
AcDbSpline
70
4
71
3
72
8
73
4
40
0
40
0
40
0
40
0
40
1
40
1
40
1
40
1
41
1
10
28.4000000000001
20
-9.67656826709299
30
0
41
1
10
27.6008725312537
20
-9.43951988871225
30
0
41
1
10
26.8010436405133
20
-9.19447137240263
30
0
41
1
10
26
20
-8.94256967367278
30
0
0
SPLINE
5
114
100
AcDbEntity
8
1
62
256
6
ByLayer
370
18
48
1
60
0
100
AcDbSpline
70
4
71
3
72
8
73
4
40
0
40
0
40
0
40
0
40
1
40
1
40
1
40
1
41
1
10
93
20
11.6134632420603
30
0
41
1
10
93
20
10.7252289055374
30
0
41
1
10
93
20
9.83699553102548
30
0
41
1
10
93
20
8.94876322987633
30
0
0
SPLINE
5
115
100
AcDbEntity
8
1
62
256
6
ByLayer
370
18
48
1
60
0
100
AcDbSpline
70
4
71
3
72
8
73
4
40
0
40
0
40
0
40
0
40
1
40
1
40
1
40
1
41
1
10
24.1344534565774
20
-7.70351632289086
30
0
41
1
10
24.2053752293525
20
-8.05532281594807
30
0
41
1
10
24.2749975648233
20
-8.40837005156837
30
0
41
1
10
24.34289472294
20
-8.76254164985431
30
0
0
SPLINE
5
116
100
AcDbEntity
8
1
62
256
6
ByLayer
370
13
48
1
60
0
100
AcDbSpline
70
4
71
3
72
20
73
16
40
0
40
0
40
0
40
0
40
0.249999999999994
40
0.249999999999994
40
0.499999999999987
40
0.499999999999987
40
0.749999999999981
40
0.749999999999981
40
0.812499999999986
40
0.812499999999986
40
0.874999999999991
40
0.874999999999991
40
0.937499999999995
40
0.937499999999995
40
1
40
1
40
1
40
1
41
1
10
106.702103276709
20
1.20630317854909
30
0
41
1
10
106.472230555054
20
1.3664350010296
30
0
41
1
10
106.249546107065
20
1.54527658190636
30
0
41
1
10
105.829004039226
20
1.94152349241782
30
0
41
1
10
105.630422909682
20
2.15916094837232
30
0
41
1
10
105.263619516893
20
2.64495758741757
30
0
41
1
10
105.100378389962
20
2.90656524880438
30
0
41
1
10
104.928087027613
20
3.26301639945609
30
0
41
1
10
104.895221220669
20
3.33579080357285
30
0
41
1
10
104.833017313857
20
3.48460049842788
30
0
41
1
10
104.803667203357
20
3.56071669881857
30
0
41
1
10
104.749393727203
20
3.7145547145457
30
0
41
1
10
104.724358513182
20
3.79248420565642
30
0
41
1
10
104.678805625073
20
3.95050155598005
30
0
41
1
10
104.658188157507
20
4.0310388680204
30
0
41
1
10
104.640122729026
20
4.11180650371134
30
0
0
SPLINE
5
117
100
AcDbEntity
8
1
62
256
6
ByLayer
370
18
48
1
60
0
100
AcDbSpline
70
4
71
3
72
8
73
4
40
0
40
0
40
0
40
0
40
1
40
1
40
1
40
1
41
1
10
79.0547548014778
20
-7.01967409173
30
0
41
1
10
79.2279231132768
20
-7.05429542303619
30
0
41
1
10
79.4010832632264
20
-7.08880421428245
30
0
41
1
10
79.574234313201
20
-7.12319937348852
30
0
0
SPLINE
5
118
100
AcDbEntity
8
1
62
256
6
ByLayer
370
18
48
1
60
0
100
AcDbSpline
70
4
71
3
72
8
73
4
40
0
40
0
40
0
40
0
40
1
40
1
40
1
40
1
41
1
10
92.9039175381643
20
11.6141721976373
30
0
41
1
10
92.9009449617521
20
11.6168094627787
30
0
41
1
10
92.8979724489226
20
11.619445982775
30
0
41
1
10
92.895
20
11.6220817571003
30
0
0
SPLINE
5
119
100
AcDbEntity
8
1
62
256
6
ByLayer
370
18
48
1
60
0
100
AcDbSpline
70
4
71
3
72
8
73
4
40
0
40
0
40
0
40
0
40
1
40
1
40
1
40
1
41
1
10
93.729863857252
20
-11.9146024052169
30
0
41
1
10
94.5617724601158
20
-11.9552519372098
30
0
41
1
10
95.392903332161
20
-11.9768410724785
30
0
41
1
10
96.2230681479648
20
-11.9796966265327
30
0
0
SPLINE
5
11A
100
AcDbEntity
8
1
62
256
6
ByLayer
370
18
48
1
60
0
100
AcDbSpline
70
4
71
3
72
10
73
6
40
0
40
0
40
0
40
0
40
0.535590293337149
40
0.535590293337149
40
1
40
1
40
1
40
1
41
1
10
104.610634163867
20
4.11952254236013
30
0
41
1
10
104.614478715572
20
4.12266958146716
30
0
41
1
10
104.618812333984
20
4.12537030964242
30
0
41
1
10
104.627440598926
20
4.12889896286129
30
0
41
1
10
104.631748744647
20
4.12995021836394
30
0
41
1
10
104.636042495465
20
4.13031658513722
30
0
0
SPLINE
5
11B
100
AcDbEntity
8
1
62
256
6
ByLayer
370
18
48
1
60
0
100
AcDbSpline
70
4
71
3
72
8
73
4
40
0
40
0
40
0
40
0
40
1
40
1
40
1
40
1
41
1
10
99.700086456483
20
-3.70023556686246
30
0
41
1
10
99.6644133822351
20
-3.70326278398426
30
0
41
1
10
99.6287440352275
20
-3.70620413514061
30
0
41
1
10
99.5930784186907
20
-3.70905954687083
30
0
0
SPLINE
5
11C
100
AcDbEntity
8
1
62
256
6
ByLayer
370
18
48
1
60
0
100
AcDbSpline
70
4
71
3
72
14
73
10
40
0
40
0
40
0
40
0
40
0.25
40
0.25
40
0.5
40
0.5
40
0.75
40
0.75
40
1
40
1
40
1
40
1
41
1
10
81.2699501086919
20
9.99036147540886
30
0
41
1
10
81.4076120012182
20
10.0105738614425
30
0
41
1
10
81.5416947226967
20
10.0358513119858
30
0
41
1
10
81.7999045392119
20
10.0950120986106
30
0
41
1
10
81.9245432218435
20
10.1289733991317
30
0
41
1
10
82.1647746321337
20
10.2049669481304
30
0
41
1
10
82.2806026722051
20
10.2471980554721
30
0
41
1
10
82.4957949013788
20
10.3361280045972
30
0
41
1
10
82.5961674474298
20
10.3831091828612
30
0
41
1
10
82.689469248074
20
10.4320571683259
30
0
0
SPLINE
5
11D
100
AcDbEntity
8
1
62
256
6
ByLayer
370
13
48
1
60
0
100
AcDbSpline
70
4
71
3
72
8
73
4
40
0
40
0
40
0
40
0
40
1
40
1
40
1
40
1
41
1
10
104.411674242831
20
-5.3344057844723
30
0
41
1
10
104.619430389272
20
-4.28598596457539
30
0
41
1
10
104.827186535713
20
-3.23756614467848
30
0
41
1
10
105.034942682155
20
-2.18914632478158
30
0
0
SPLINE
5
11E
100
AcDbEntity
8
1
62
256
6
ByLayer
370
18
48
1
60
0
100
AcDbSpline
70
4
71
3
72
16
73
12
40
0
40
0
40
0
40
0
40
0.250000000000019
40
0.250000000000019
40
0.375000000000029
40
0.375000000000029
40
0.500000000000038
40
0.500000000000038
40
0.750000000000019
40
0.750000000000019
40
1
40
1
40
1
40
1
41
1
10
76.4556733027498
20
7.66975830239551
30
0
41
1
10
76.6217507632456
20
7.61383908723286
30
0
41
1
10
76.7927301052979
20
7.57064673346051
30
0
41
1
10
77.0564644721043
20
7.52556047950426
30
0
41
1
10
77.1455944394371
20
7.51383051091591
30
0
41
1
10
77.326378081341
20
7.49728240802037
30
0
41
1
10
77.4178341433536
20
7.49251942079053
30
0
41
1
10
77.6912451948048
20
7.48908152856907
30
0
41
1
10
77.8742679066011
20
7.50125214380981
30
0
41
1
10
78.2324643274113
20
7.5534692265349
30
0
41
1
10
78.4084535830391
20
7.59364678289833
30
0
41
1
10
78.5767176551192
20
7.64602216044537
30
0
0
SPLINE
5
11F
100
AcDbEntity
8
1
62
256
6
ByLayer
370
18
48
1
60
0
100
AcDbSpline
70
4
71
3
72
10
73
6
40
0
40
0
40
0
40
0
40
0.5
40
0.5
40
1
40
1
40
1
40
1
41
1
10
82.689469248074
20
10.4320571683259
30
0
41
1
10
84.3887938757668
20
10.7316092732943
30
0
41
1
10
86.0874904687253
20
10.9824444395013
30
0
41
1
10
89.4911013639432
20
11.3805657907431
30
0
41
1
10
91.1926931203413
20
11.5274977460328
30
0
41
1
10
92.895
20
11.6220817571003
30
0
0
SPLINE
5
120
100
AcDbEntity
8
1
62
256
6
ByLayer
370
18
48
1
60
0
100
AcDbSpline
70
4
71
3
72
8
73
4
40
0
40
0
40
0
40
0
40
1
40
1
40
1
40
1
41
1
10
92.7999999999993
20
3.59237523064178
30
0
41
1
10
92.3342337909775
20
3.62930632118702
30
0
41
1
10
91.8684593156062
20
3.66472969947319
30
0
41
1
10
91.4026597372736
20
3.6986336018756
30
0
0
SPLINE
5
121
100
AcDbEntity
8
1
62
256
6
ByLayer
370
13
48
1
60
0
100
AcDbSpline
70
4
71
3
72
38
73
34
40
0
40
0
40
0
40
0
40
0.249999999999915
40
0.249999999999915
40
0.374999999999866
40
0.374999999999866
40
0.406249999999854
40
0.406249999999854
40
0.437499999999841
40
0.499999999999829
40
0.562499999999817
40
0.57812499999982
40
0.57812499999982
40
0.593749999999823
40
0.593749999999823
40
0.624999999999829
40
0.687499999999841
40
0.687499999999841
40
0.718749999999847
40
0.718749999999847
40
0.749999999999853
40
0.78124999999986
40
0.78124999999986
40
0.796874999999868
40
0.796874999999868
40
0.812499999999877
40
0.874999999999921
40
0.937499999999965
40
0.968749999999987
40
0.968749999999987
40
0.984374999999994
40
0.984374999999994
40
1
40
1
40
1
40
1
41
1
10
105.034942682155
20
-2.18914632478158
30
0
41
1
10
104.835600836654
20
-2.04981830706265
30
0
41
1
10
104.601993484163
20
-1.86909357247623
30
0
41
1
10
104.270161679888
20
-1.58920074481293
30
0
41
1
10
104.162647193017
20
-1.49443520314608
30
0
41
1
10
104.039413953365
20
-1.37969504554545
30
0
41
1
10
104.015859833926
20
-1.35744480033779
30
0
41
1
10
103.966083816792
20
-1.30964950428574
30
0
41
1
10
103.88832773609
20
-1.23390581250189
30
0
41
1
10
103.749146914481
20
-1.09330693672081
30
0
41
1
10
103.626469829204
20
-0.963678928968108
30
0
41
1
10
103.564106539696
20
-0.895501770078369
30
0
41
1
10
103.539722376141
20
-0.868636248652365
30
0
41
1
10
103.528095839429
20
-0.855725035342715
30
0
41
1
10
103.491985300472
20
-0.815262735770318
30
0
41
1
10
103.412909672769
20
-0.725280586991516
30
0
41
1
10
103.327748909506
20
-0.62487090847219
30
0
41
1
10
103.257836445797
20
-0.539837662468273
30
0
41
1
10
103.23240841552
20
-0.508355329267232
30
0
41
1
10
103.179289067381
20
-0.441686265083916
30
0
41
1
10
103.124348965118
20
-0.371853364143249
30
0
41
1
10
103.072420764853
20
-0.30411490444169
30
0
41
1
10
103.037099527808
20
-0.257255378545636
30
0
41
1
10
103.025959864175
20
-0.242329997381688
30
0
41
1
10
103.00251998547
20
-0.210606259353938
30
0
41
1
10
102.942587152794
20
-0.128727956538938
30
0
41
1
10
102.825096658425
20
0.03834246208325
30
0
41
1
10
102.694425327424
20
0.234596230746377
30
0
41
1
10
102.623596914846
20
0.346155834943715
30
0
41
1
10
102.590081261384
20
0.399988839674791
30
0
41
1
10
102.579361975577
20
0.417384120108267
30
0
41
1
10
102.55808100617
20
0.452331999184708
30
0
41
1
10
102.546836803207
20
0.47100927086214
30
0
41
1
10
102.535197878461
20
0.490530349071804
30
0
0
SPLINE
5
122
100
AcDbEntity
8
1
62
256
6
ByLayer
370
13
48
1
60
0
100
AcDbSpline
70
4
71
3
72
8
73
4
40
0
40
0
40
0
40
0
40
1
40
1
40
1
40
1
41
1
10
106.455118205788
20
-3.18176400635122
30
0
41
1
10
105.981726364577
20
-2.85089144582798
30
0
41
1
10
105.508334523366
20
-2.52001888530481
30
0
41
1
10
105.034942682155
20
-2.18914632478158
30
0
0
SPLINE
5
123
100
AcDbEntity
8
1
62
256
6
ByLayer
370
18
48
1
60
0
100
AcDbSpline
70
4
71
3
72
16
73
12
40
0
40
0
40
0
40
0
40
0.249999999999998
40
0.249999999999998
40
0.499999999999995
40
0.499999999999995
40
0.624999999999999
40
0.624999999999999
40
0.750000000000003
40
0.750000000000003
40
1
40
1
40
1
40
1
41
1
10
22.2413812147238
20
6.53332920400794
30
0
41
1
10
22.5290240155617
20
6.49847594676217
30
0
41
1
10
22.8233415590782
20
6.47198963341822
30
0
41
1
10
23.4256042566775
20
6.43094383172092
30
0
41
1
10
23.7335450704804
20
6.416405091077
30
0
41
1
10
24.2066136799689
20
6.3999225564859
30
0
41
1
10
24.3661707288981
20
6.39531382438184
30
0
41
1
10
24.689287035293
20
6.3871905182699
30
0
41
1
10
24.8520883798483
20
6.38369572768377
30
0
41
1
10
25.3411780556683
20
6.37379917293458
30
0
41
1
10
25.6694098881488
20
6.36800462319647
30
0
41
1
10
26
20
6.35943624476312
30
0
0
SPLINE
5
124
100
AcDbEntity
8
1
62
256
6
ByLayer
370
18
48
1
60
0
100
AcDbSpline
70
4
71
3
72
8
73
4
40
0
40
0
40
0
40
0
40
1
40
1
40
1
40
1
41
1
10
21.4400078073007
20
-7.61771348584165
30
0
41
1
10
21.5638200588334
20
-7.67669893217615
30
0
41
1
10
21.6911048628631
20
-7.72996639071411
30
0
41
1
10
21.8218827578644
20
-7.77774591883869
30
0
0
SPLINE
5
125
100
AcDbEntity
8
1
62
256
6
ByLayer
370
18
48
1
60
0
100
AcDbSpline
70
4
71
2
72
9
73
6
40
0
40
0
40
0
40
0.243642963481139
40
0.495761975654093
40
0.747880987827046
40
1
40
1
40
1
41
1
10
99.7000868839287
20
-3.70023590148512
30
0
41
1
10
99.805967169335
20
-4.56782841814882
30
0
41
1
10
100.119207526152
20
-6.21918327320404
30
0
41
1
10
100.532357642172
20
-7.73491128465668
30
0
41
1
10
101.029339495065
20
-9.0475502001097
30
0
41
1
10
101.313367999068
20
-9.5851741579354
30
0
0
SPLINE
5
126
100
AcDbEntity
8
1
62
256
6
ByLayer
370
18
48
1
60
0
100
AcDbSpline
70
4
71
3
72
14
73
10
40
0
40
0
40
0
40
0
40
0.250000000000004
40
0.250000000000004
40
0.375000000000005
40
0.375000000000005
40
0.500000000000007
40
0.500000000000007
40
1
40
1
40
1
40
1
41
1
10
83.3
20
6.30382114621492
30
0
41
1
10
84.5464146761408
20
5.90202101351375
30
0
41
1
10
85.7928930190391
20
5.48490004377578
30
0
41
1
10
87.6643021354866
20
4.83989726495008
30
0
41
1
10
88.2883830689946
20
4.6216672179919
30
0
41
1
10
89.5373618614618
20
4.17935231781698
30
0
41
1
10
90.1626144383273
20
3.9551250357344
30
0
41
1
10
93.2848247454064
20
2.82455572592136
30
0
41
1
10
95.7724372158559
20
1.88673226487902
30
0
41
1
10
98.2592865040298
20
0.9403369899278
30
0
0
SPLINE
5
127
100
AcDbEntity
8
1
62
256
6
ByLayer
370
18
48
1
60
0
100
AcDbSpline
70
4
71
3
72
8
73
4
40
0
40
0
40
0
40
0
40
1
40
1
40
1
40
1
41
1
10
107.935879681662
20
-0.27409981521015
30
0
41
1
10
107.947732970867
20
-0.233582170659503
30
0
41
1
10
107.959635915893
20
-0.192966419264025
30
0
41
1
10
107.971588193562
20
-0.152254171576146
30
0
0
SPLINE
5
128
100
AcDbEntity
8
1
62
256
6
ByLayer
370
18
48
1
60
0
100
AcDbSpline
70
4
71
3
72
8
73
4
40
0
40
0
40
0
40
0
40
1
40
1
40
1
40
1
41
1
10
94.0596194077714
20
2.78367654844982
30
0
41
1
10
93.7048066934392
20
2.95245118833409
30
0
41
1
10
93.350989927886
20
3.12867813211821
30
0
41
1
10
92.9999999999997
20
3.3117185439292
30
0
0
SPLINE
5
129
100
AcDbEntity
8
1
62
256
6
ByLayer
370
18
48
1
60
0
100
AcDbSpline
70
4
71
3
72
8
73
4
40
0
40
0
40
0
40
0
40
1
40
1
40
1
40
1
41
1
10
93.729863857252
20
-11.9146024052169
30
0
41
1
10
93.4869367311848
20
-11.8156952488767
30
0
41
1
10
93.2436566019906
20
-11.7152931452949
30
0
41
1
10
93.0000000000001
20
-11.6134632420603
30
0
0
SPLINE
5
12A
100
AcDbEntity
8
1
62
256
6
ByLayer
370
18
48
1
60
0
100
AcDbSpline
70
4
71
3
72
8
73
4
40
0
40
0
40
0
40
0
40
1
40
1
40
1
40
1
41
1
10
83.3
20
6.29559309781493
30
0
41
1
10
81.7252024853687
20
6.77284223773512
30
0
41
1
10
80.1515388703652
20
7.22439217040861
30
0
41
1
10
78.5767176551192
20
7.64602216044537
30
0
0
SPLINE
5
12B
100
AcDbEntity
8
1
62
256
6
ByLayer
370
18
48
1
60
0
100
AcDbSpline
70
4
71
3
72
10
73
6
40
0
40
0
40
0
40
0
40
0.5
40
0.5
40
1
40
1
40
1
40
1
41
1
10
81.4754370460853
20
9.54110478657361
30
0
41
1
10
81.7144941677379
20
9.58774688213458
30
0
41
1
10
81.9363438645215
20
9.68216749081847
30
0
41
1
10
82.3486429841767
20
9.95618842571994
30
0
41
1
10
82.5267657997533
20
10.1266885766719
30
0
41
1
10
82.6839636297409
20
10.3204840020079
30
0
0
SPLINE
5
12C
100
AcDbEntity
8
1
62
256
6
ByLayer
370
13
48
1
60
0
100
AcDbSpline
70
4
71
3
72
8
73
4
40
0
40
0
40
0
40
0
40
1
40
1
40
1
40
1
41
1
10
104.610634163867
20
4.11952254236013
30
0
41
1
10
104.611413225726
20
4.1159906566881
30
0
41
1
10
104.612192287585
20
4.11245877101607
30
0
41
1
10
104.612971349444
20
4.10892688534403
30
0
0
SPLINE
5
12D
100
AcDbEntity
8
1
62
256
6
ByLayer
370
18
48
1
60
0
100
AcDbSpline
70
4
71
3
72
8
73
4
40
0
40
0
40
0
40
0
40
1
40
1
40
1
40
1
41
1
10
26
20
-8.94256967367278
30
0
41
1
10
25.4471550146662
20
-8.8209656232568
30
0
41
1
10
24.893927220474
20
-8.76037924267771
30
0
41
1
10
24.3428947229401
20
-8.76254164985431
30
0
0
SPLINE
5
12E
100
AcDbEntity
8
1
62
256
6
ByLayer
370
13
48
1
60
0
100
AcDbSpline
70
4
71
3
72
8
73
4
40
0
40
0
40
0
40
0
40
1
40
1
40
1
40
1
41
1
10
106.656863978299
20
1.16818216722623
30
0
41
1
10
106.664444335419
20
1.16279909057275
30
0
41
1
10
106.672046619888
20
1.15744347418678
30
0
41
1
10
106.679670242598
20
1.15211501841489
30
0
0
SPLINE
5
12F
100
AcDbEntity
8
1
62
256
6
ByLayer
370
18
48
1
60
0
100
AcDbSpline
70
4
71
3
72
14
73
10
40
0
40
0
40
0
40
0
40
0.25
40
0.25
40
0.5
40
0.5
40
0.75
40
0.75
40
1
40
1
40
1
40
1
41
1
10
23.8643906570443
20
-7.64272840214556
30
0
41
1
10
23.9902262930314
20
-7.32072773856305
30
0
41
1
10
24.13741269617
20
-6.93814090718899
30
0
41
1
10
24.4661612303825
20
-6.07343647226989
30
0
41
1
10
24.6477055765814
20
-5.59136564812758
30
0
41
1
10
25.034865115317
20
-4.55505580217329
30
0
41
1
10
25.2404593630182
20
-4.00087284339705
30
0
41
1
10
25.6640470866602
20
-2.85179899448733
30
0
41
1
10
25.8820176470473
20
-2.25697026777775
30
0
41
1
10
26.1000000000008
20
-1.65867340151266
30
0
0
SPLINE
5
130
100
AcDbEntity
8
1
62
256
6
ByLayer
370
18
48
1
60
0
100
AcDbSpline
70
4
71
3
72
30
73
26
40
0
40
0
40
0
40
0
40
0.0625000000000008
40
0.0625000000000008
40
0.125000000000002
40
0.125000000000002
40
0.250000000000002
40
0.250000000000002
40
0.312500000000002
40
0.312500000000002
40
0.375000000000002
40
0.375000000000002
40
0.500000000000002
40
0.500000000000002
40
0.562500000000001
40
0.562500000000001
40
0.625000000000001
40
0.625000000000001
40
0.6875
40
0.6875
40
0.75
40
0.75
40
0.875
40
0.875
40
1
40
1
40
1
40
1
41
1
10
78.1391825109664
20
-7.09434253888841
30
0
41
1
10
77.2264715980007
20
-6.83782557838867
30
0
41
1
10
76.3140055962837
20
-6.57314888585711
30
0
41
1
10
74.4889153590322
20
-6.02889886882306
30
0
41
1
10
73.5763457172262
20
-5.74933696222107
30
0
41
1
10
70.8409888237847
20
-4.8917234701199
30
0
41
1
10
69.0195306208613
20
-4.29393360975715
30
0
41
1
10
66.2854590153278
20
-3.3710452668868
30
0
41
1
10
65.3734101042557
20
-3.05901010148435
30
0
41
1
10
63.5495802902715
20
-2.42912377124733
30
0
41
1
10
62.6381440040153
20
-2.11137228770718
30
0
41
1
10
59.9042097833247
20
-1.15267349246096
30
0
41
1
10
58.0820810264854
20
-0.506287582483878
30
0
41
1
10
55.345123202631
20
0.461375921590672
30
0
41
1
10
54.4323594492588
20
0.783568663315179
30
0
41
1
10
52.6080824565478
20
1.42440343840937
30
0
41
1
10
51.6961869358666
20
1.74317780953609
30
0
41
1
10
49.8722875230424
20
2.37578807079163
30
0
41
1
10
48.9602996063748
20
2.68967045275235
30
0
41
1
10
47.1359095593587
20
3.31163458799756
30
0
41
1
10
46.2231947771472
20
3.61982082469726
30
0
41
1
10
43.4861456652947
20
4.53276617176766
30
0
41
1
10
41.6637860122901
20
5.12597464485245
30
0
41
1
10
38.0164612068572
20
6.26207329032178
30
0
41
1
10
36.1941997298366
20
6.80390254152806
30
0
41
1
10
34.3703655439998
20
7.31081302166356
30
0
0
SPLINE
5
131
100
AcDbEntity
8
1
62
256
6
ByLayer
370
18
48
1
60
0
100
AcDbSpline
70
4
71
3
72
8
73
4
40
0
40
0
40
0
40
0
40
1
40
1
40
1
40
1
41
1
10
105.364401465482
20
8.43272490677387
30
0
41
1
10
105.044065976664
20
9.41686017635541
30
0
41
1
10
104.718249606846
20
10.4068913079361
30
0
41
1
10
104.386721197678
20
11.4030669618572
30
0
0
SPLINE
5
132
100
AcDbEntity
8
1
62
256
6
ByLayer
370
18
48
1
60
0
100
AcDbSpline
70
4
71
3
72
8
73
4
40
0
40
0
40
0
40
0
40
1
40
1
40
1
40
1
41
1
10
104.610634163867
20
4.11952254236013
30
0
41
1
10
104.604168388776
20
4.11422984541412
30
0
41
1
10
104.597709171776
20
4.10893143673621
30
0
41
1
10
104.591256465946
20
4.1036275522446
30
0
0
SPLINE
5
133
100
AcDbEntity
8
1
62
256
6
ByLayer
370
18
48
1
60
0
100
AcDbSpline
70
4
71
3
72
8
73
4
40
0
40
0
40
0
40
0
40
1
40
1
40
1
40
1
41
1
10
93.1454215376822
20
-11.3575973469634
30
0
41
1
10
93.1454215376822
20
-11.3412651771077
30
0
41
1
10
93.1438094516741
20
-11.3244540824812
30
0
41
1
10
93.1405916796203
20
-11.307165930456
30
0
0
SPLINE
5
134
100
AcDbEntity
8
1
62
256
6
ByLayer
370
18
48
1
60
0
100
AcDbSpline
70
4
71
3
72
11
73
7
40
0
40
0
40
0
40
0
40
0.0334465820060392
40
0.322539467511111
40
0.611632353016183
40
1
40
1
40
1
40
1
41
1
10
56.6591395686989
20
-0.0031999343298139
30
0
41
1
10
56.908901103497
20
-0.0875973529217902
30
0
41
1
10
59.3174257619728
20
-0.901690790063157
30
0
41
1
10
63.8836501474619
20
-2.44526451222501
30
0
41
1
10
71.1036903521698
20
-4.77749642294233
30
0
41
1
10
76.1586502639312
20
-6.24993483327376
30
0
41
1
10
79.0547547999557
20
-7.01967409132544
30
0
0
SPLINE
5
135
100
AcDbEntity
8
1
62
256
6
ByLayer
370
18
48
1
60
0
100
AcDbSpline
70
4
71
3
72
8
73
4
40
0
40
0
40
0
40
0
40
1
40
1
40
1
40
1
41
1
10
98.2594481966112
20
0.940275456206052
30
0
41
1
10
98.2963934773757
20
0.939748414507875
30
0
41
1
10
98.3333387462718
20
0.93931457668279
30
0
41
1
10
98.3702840043015
20
0.938973757052167
30
0
0
SPLINE
5
136
100
AcDbEntity
8
1
62
256
6
ByLayer
370
18
48
1
60
0
100
AcDbSpline
70
4
71
3
72
8
73
4
40
0
40
0
40
0
40
0
40
1
40
1
40
1
40
1
41
1
10
107.935879681662
20
0.27409981521015
30
0
41
1
10
107.947732970867
20
0.233582170659503
30
0
41
1
10
107.959635915893
20
0.192966419264025
30
0
41
1
10
107.971588193562
20
0.152254171576146
30
0
0
SPLINE
5
137
100
AcDbEntity
8
1
62
256
6
ByLayer
370
18
48
1
60
0
100
AcDbSpline
70
4
71
3
72
20
73
16
40
0
40
0
40
0
40
0
40
0.245654973882151
40
0.245654973882151
40
0.368482460823226
40
0.368482460823226
40
0.491309947764302
40
0.491309947764302
40
0.736964921646451
40
0.736964921646451
40
0.859792408587526
40
0.859792408587526
40
0.982619895528601
40
0.982619895528601
40
1
40
1
40
1
40
1
41
1
10
28.7281122126158
20
5.81354577623335
30
0
41
1
10
30.9179873773444
20
5.17729728351301
30
0
41
1
10
33.1062595971102
20
4.50395716186802
30
0
41
1
10
36.3930206545835
20
3.45922176433365
30
0
41
1
10
37.4893575408283
20
3.10519719927859
30
0
41
1
10
39.6792771295586
20
2.39101842820645
30
0
41
1
10
40.7735378034526
20
2.03065320234577
30
0
41
1
10
44.0560024702397
20
0.945176788814933
30
0
41
1
10
46.2441249655037
20
0.216388824148737
30
0
41
1
10
49.5313634349081
20
-0.867241837151397
30
0
41
1
10
50.6278861371211
20
-1.22705789146724
30
0
41
1
10
52.8233231741003
20
-1.94140587181815
30
0
41
1
10
53.9204864869269
20
-2.29538083191747
30
0
41
1
10
55.1721694045051
20
-2.69413089332332
30
0
41
1
10
55.327317446425
20
-2.74346761711519
30
0
41
1
10
55.4824562974906
20
-2.79270881262013
30
0
0
SPLINE
5
138
100
AcDbEntity
8
1
62
256
6
ByLayer
370
18
48
1
60
0
100
AcDbSpline
70
4
71
3
72
12
73
8
40
0
40
0
40
0
40
0
40
0.214921740221587
40
0.426160046819037
40
0.633716932213062
40
0.942019567174591
40
1
40
1
40
1
40
1
41
1
10
100.842505469657
20
1.73021815456085
30
0
41
1
10
100.459902973826
20
1.7668146822478
30
0
41
1
10
99.7012552103712
20
1.83938052847816
30
0
41
1
10
98.5733239164455
20
1.94944706711829
30
0
41
1
10
97.2794024930593
20
2.07790844636796
30
0
41
1
10
96.2584258694542
20
2.18142834960236
30
0
41
1
10
95.6069053825879
20
2.24914550878683
30
0
41
1
10
95.5037770768525
20
2.25989850780942
30
0
0
SPLINE
5
139
100
AcDbEntity
8
1
62
256
6
ByLayer
370
18
48
1
60
0
100
AcDbSpline
70
4
71
3
72
28
73
24
40
0
40
0
40
0
40
0
40
0.0373961361975305
40
0.0745785153483985
40
0.111547631295256
40
0.148303986477365
40
0.184848092110303
40
0.221180468369697
40
0.257301644579098
40
0.293212159402035
40
0.328912561038375
40
0.364403407425016
40
0.399685266441076
40
0.434758716117573
40
0.469624344851742
40
0.504282751626053
40
0.577262737909198
40
0.649511124975888
40
0.721034033233944
40
0.791837771252109
40
0.861928841812318
40
0.931313948096235
40
1
40
1
40
1
40
1
41
1
10
99.5930659833435
20
-3.70904553437919
30
0
41
1
10
99.5732107616669
20
-3.6541217556761
30
0
41
1
10
99.5336138111495
20
-3.54458814366436
30
0
41
1
10
99.4751786052785
20
-3.37951917098331
30
0
41
1
10
99.4176643863055
20
-3.21454105044492
30
0
41
1
10
99.3611268691251
20
-3.04960781672233
30
0
41
1
10
99.3055512532898
20
-2.88478764830694
30
0
41
1
10
99.2509414702171
20
-2.72011731913497
30
0
41
1
10
99.1972964753949
20
-2.55564085861661
30
0
41
1
10
99.144616546499
20
-2.39139928072558
30
0
41
1
10
99.092901608392
20
-2.22743330678028
30
0
41
1
10
99.0421516856766
20
-2.06378265424627
30
0
41
1
10
98.9923667542201
20
-1.90048617616904
30
0
41
1
10
98.9435468851775
20
-1.73758200509235
30
0
41
1
10
98.8956918198728
20
-1.57510684634178
30
0
41
1
10
98.8314277048249
20
-1.35306658329481
30
0
41
1
10
98.752155973515
20
-1.07150631028452
30
0
41
1
10
98.6597503288618
20
-0.730489909693148
30
0
41
1
10
98.571428396069
20
-0.391451304676536
30
0
41
1
10
98.487167074954
20
-0.0546860581352178
30
0
41
1
10
98.4070523734216
20
0.279525169444497
30
0
41
1
10
98.330767919083
20
0.610915331833695
30
0
41
1
10
98.2830002941427
20
0.830894093552672
30
0
41
1
10
98.2592374054335
20
0.940326598092241
30
0
0
SPLINE
5
13A
100
AcDbEntity
8
1
62
256
6
ByLayer
370
18
48
1
60
0
100
AcDbSpline
70
4
71
3
72
12
73
8
40
0
40
0
40
0
40
0
40
0.499999999999993
40
0.499999999999993
40
0.749999999999997
40
0.749999999999997
40
1
40
1
40
1
40
1
41
1
10
22.1531053820785
20
-8.46761749335116
30
0
41
1
10
22.0633297307827
20
-8.38119652159776
30
0
41
1
10
21.99342937157
20
-8.27929355351182
30
0
41
1
10
21.9121224209634
20
-8.10562970520115
30
0
41
1
10
21.888983046403
20
-8.04425512952437
30
0
41
1
10
21.8499304866165
20
-7.91476796162576
30
0
41
1
10
21.834179777902
20
-7.84705499948825
30
0
41
1
10
21.8218827578644
20
-7.77774591883869
30
0
0
SPLINE
5
13B
100
AcDbEntity
8
1
62
256
6
ByLayer
370
18
48
1
60
0
100
AcDbSpline
70
4
71
3
72
10
73
6
40
0
40
0
40
0
40
0
40
0.860935811178689
40
0.860935811178689
40
1
40
1
40
1
40
1
41
1
10
81.269950108692
20
9.99036147540886
30
0
41
1
10
79.0820640299315
20
9.58541670325442
30
0
41
1
10
76.8978464315156
20
9.11474168011557
30
0
41
1
10
74.3593785929355
20
8.49986910776866
30
0
41
1
10
74.0063884212469
20
8.4128522954006
30
0
41
1
10
73.6534634893515
20
8.32439869653183
30
0
0
SPLINE
5
13C
100
AcDbEntity
8
1
62
256
6
ByLayer
370
18
48
1
60
0
100
AcDbSpline
70
4
71
3
72
12
73
8
40
0
40
0
40
0
40
0
40
0.512377461822494
40
0.512377461822494
40
0.768566192733748
40
0.768566192733748
40
1
40
1
40
1
40
1
41
1
10
93.1454215376824
20
-11.4956213456485
30
0
41
1
10
94.0740541765934
20
-11.5853777736195
30
0
41
1
10
95.001655958484
20
-11.6518907154758
30
0
41
1
10
96.3911235603547
20
-11.7175297199031
30
0
41
1
10
96.8539597148579
20
-11.7336996751834
30
0
41
1
10
97.7343957902551
20
-11.7535376591869
30
0
41
1
10
98.1519615124595
20
-11.7582490152578
30
0
41
1
10
98.5697780338828
20
-11.7582494127547
30
0
0
SPLINE
5
13D
100
AcDbEntity
8
1
62
256
6
ByLayer
370
18
48
1
60
0
100
AcDbSpline
70
4
71
3
72
8
73
4
40
0
40
0
40
0
40
0
40
1
40
1
40
1
40
1
41
1
10
78.5768517901466
20
7.64533383001452
30
0
41
1
10
78.5768069021847
20
7.64556331995797
30
0
41
1
10
78.5767621905349
20
7.64579276344932
30
0
41
1
10
78.5767176551192
20
7.6460221604454
30
0
0
SPLINE
5
13E
100
AcDbEntity
8
1
62
256
6
ByLayer
370
18
48
1
60
0
100
AcDbSpline
70
4
71
3
72
8
73
4
40
0
40
0
40
0
40
0
40
1
40
1
40
1
40
1
41
1
10
94.0596194077714
20
2.78367654844979
30
0
41
1
10
94.072948301754
20
2.77733636053915
30
0
41
1
10
94.0870068222573
20
2.77107515488393
30
0
41
1
10
94.1015116318472
20
2.76501398188862
30
0
0
SPLINE
5
13F
100
AcDbEntity
8
1
62
256
6
ByLayer
370
18
48
1
60
0
100
AcDbSpline
70
4
71
3
72
8
73
4
40
0
40
0
40
0
40
0
40
1
40
1
40
1
40
1
41
1
10
26
20
6.35943624476309
30
0
41
1
10
26.130121645688
20
6.3598626817973
30
0
41
1
10
26.2599120851529
20
6.35850159513404
30
0
41
1
10
26.3893702936929
20
6.35533335667492
30
0
0
SPLINE
5
140
100
AcDbEntity
8
1
62
256
6
ByLayer
370
18
48
1
60
0
100
AcDbSpline
70
4
71
3
72
22
73
18
40
0
40
0
40
0
40
0
40
0.0237342381624415
40
0.0474004448182323
40
0.0710368473832733
40
0.0946818178290023
40
0.118373686496641
40
0.142150556916731
40
0.213006621425487
40
0.283388822487855
40
0.354404111186073
40
0.424707566727387
40
0.565553543880258
40
0.705943091403965
40
0.845881258382091
40
0.985626314393627
40
1
40
1
40
1
40
1
41
1
10
92.9050037338511
20
-11.2970057016668
30
0
41
1
10
92.9051929963657
20
-11.2925226688009
30
0
41
1
10
92.9055709788954
20
-11.2835694531753
30
0
41
1
10
92.9086033706359
20
-11.2699286383872
30
0
41
1
10
92.9134429490792
20
-11.256172038841
30
0
41
1
10
92.920265456293
20
-11.2422852120249
30
0
41
1
10
92.9290226287761
20
-11.2282748854849
30
0
41
1
10
92.9467773444014
20
-11.2048499917362
30
0
41
1
10
92.9801026256672
20
-11.1719301771731
30
0
41
1
10
93.0394389254208
20
-11.130023426911
30
0
41
1
10
93.1139770577928
20
-11.0894270101632
30
0
41
1
10
93.2328766205883
20
-11.0382586337921
30
0
41
1
10
93.4154105675681
20
-10.982053363901
30
0
41
1
10
93.6770791481226
20
-10.9353221716622
30
0
41
1
10
93.9634604717274
20
-10.9162367040472
30
0
41
1
10
94.1667099660854
20
-10.9242001106194
30
0
41
1
10
94.2683704799039
20
-10.9343899784685
30
0
41
1
10
94.2778517165717
20
-10.9353403233474
30
0
0
SPLINE
5
141
100
AcDbEntity
8
1
62
256
6
ByLayer
370
18
48
1
60
0
100
AcDbSpline
70
4
71
3
72
82
73
78
40
0
40
0
40
0
40
0
40
0.0133333333333331
40
0.0266666666666666
40
0.0399999999999998
40
0.053333333333333
40
0.0666666666666667
40
0.0799999999999998
40
0.0933333333333334
40
0.106666666666667
40
0.12
40
0.133333333333333
40
0.146666666666667
40
0.16
40
0.173333333333333
40
0.186666666666667
40
0.2
40
0.213333333333333
40
0.226666666666667
40
0.24
40
0.253333333333334
40
0.266666666666667
40
0.28
40
0.293333333333334
40
0.306666666666666
40
0.32
40
0.333333333333333
40
0.346666666666667
40
0.36
40
0.373333333333333
40
0.386666666666667
40
0.4
40
0.413333333333333
40
0.426666666666667
40
0.44
40
0.453333333333333
40
0.466666666666667
40
0.48
40
0.493333333333333
40
0.506666666666667
40
0.52
40
0.533333333333333
40
0.546666666666667
40
0.56
40
0.573333333333333
40
0.586666666666667
40
0.6
40
0.613333333333333
40
0.626666666666667
40
0.64
40
0.653333333333334
40
0.666666666666667
40
0.68
40
0.693333333333334
40
0.706666666666667
40
0.72
40
0.733333333333334
40
0.746666666666667
40
0.76
40
0.773333333333334
40
0.786666666666667
40
0.8
40
0.813333333333333
40
0.826666666666667
40
0.84
40
0.853333333333333
40
0.866666666666667
40
0.88
40
0.893333333333333
40
0.906666666666667
40
0.92
40
0.933333333333333
40
0.946666666666667
40
0.96
40
0.973333333333333
40
0.986666666666667
40
1
40
1
40
1
40
1
41
1
10
26.1000000000008
20
-1.65867340151266
30
0
41
1
10
26.115656794272
20
-1.61568996218335
30
0
41
1
10
26.1469703828144
20
-1.52972308352469
30
0
41
1
10
26.1939269415683
20
-1.40067650844284
30
0
41
1
10
26.240855856271
20
-1.27160761773286
30
0
41
1
10
26.2877433150673
20
-1.14254476245267
30
0
41
1
10
26.3345755183032
20
-1.01352850955672
30
0
41
1
10
26.381338682587
20
-0.884596138568099
30
0
41
1
10
26.4280190448463
20
-0.75578578151169
30
0
41
1
10
26.4746028663783
20
-0.627135299459724
30
0
41
1
10
26.5210764368938
20
-0.498682569410306
30
0
41
1
10
26.5674260785519
20
-0.370465393284945
30
0
41
1
10
26.6136381499858
20
-0.242521508200071
30
0
41
1
10
26.6596990503176
20
-0.114888569626856
30
0
41
1
10
26.7055952231613
20
0.0123958581546901
30
0
41
1
10
26.7513131606123
20
0.139294313523493
30
0
41
1
10
26.7968394072236
20
0.265769448432309
30
0
41
1
10
26.8421605639652
20
0.391784039429439
30
0
41
1
10
26.8872632921685
20
0.51730099860626
30
0
41
1
10
26.932134317451
20
0.642283384514769
30
0
41
1
10
26.9767604336242
20
0.76669441303946
30
0
41
1
10
27.0211285065794
20
0.8904974682236
30
0
41
1
10
27.0652254781543
20
1.01365611304567
30
0
41
1
10
27.1090383699751
20
1.13613410014349
30
0
41
1
10
27.152554287277
20
1.25789538248222
30
0
41
1
10
27.1957604226992
20
1.37890412396348
30
0
41
1
10
27.2386440600539
20
1.49912470997262
30
0
41
1
10
27.2811925780692
20
1.61852175786041
30
0
41
1
10
27.323393454104
20
1.73706012735673
30
0
41
1
10
27.3652342678325
20
1.85470493091293
30
0
41
1
10
27.4067027049012
20
1.97142154396965
30
0
41
1
10
27.447786560552
20
2.0871756151474
30
0
41
1
10
27.4884737432146
20
2.20193307635651
30
0
41
1
10
27.5287522780656
20
2.31566015282411
30
0
41
1
10
27.5686103105521
20
2.42832337303432
30
0
41
1
10
27.6080361098815
20
2.53988957857945
30
0
41
1
10
27.6470180724734
20
2.65032593391908
30
0
41
1
10
27.6855447253749
20
2.75959993604391
30
0
41
1
10
27.7236047296376
20
2.867679424042
30
0
41
1
10
27.7611868836542
20
2.97453258856405
30
0
41
1
10
27.7982801264557
20
3.08012798118546
30
0
41
1
10
27.8348735409669
20
3.18443452366191
30
0
41
1
10
27.8709563572189
20
3.28742151707638
30
0
41
1
10
27.9065179555194
20
3.38905865087403
30
0
41
1
10
27.9415478695782
20
3.48931601178316
30
0
41
1
10
27.9760357895873
20
3.58816409261914
30
0
41
1
10
28.0099715652553
20
3.68557380096868
30
0
41
1
10
28.0433452087947
20
3.78151646775231
30
0
41
1
10
28.076146897862
20
3.87596385566189
30
0
41
1
10
28.1083669784476
20
3.9688881674715
30
0
41
1
10
28.1399959677183
20
4.06026205421838
30
0
41
1
10
28.1710245568069
20
4.15005862325222
30
0
41
1
10
28.201443613553
20
4.23825144614997
30
0
41
1
10
28.2312441851903
20
4.32481456649418
30
0
41
1
10
28.2604175009816
20
4.40972250751241
30
0
41
1
10
28.2889549747999
20
4.49295027957515
30
0
41
1
10
28.3168482076562
20
4.57447338755094
30
0
41
1
10
28.34408899017
20
4.65426783801547
30
0
41
1
10
28.3706693049871
20
4.73231014631315
30
0
41
1
10
28.3965813291383
20
4.8085773434693
30
0
41
1
10
28.4218174363415
20
4.88304698294928
30
0
41
1
10
28.4463701992478
20
4.95569714726796
30
0
41
1
10
28.4702323916231
20
5.0265064544291
30
0
41
1
10
28.4933969904902
20
5.09545406426031
30
0
41
1
10
28.5158571781381
20
5.16251968438996
30
0
41
1
10
28.5376063443447
20
5.22768357680417
30
0
41
1
10
28.5586380875159
20
5.29092656147438
30
0
41
1
10
28.5789462195779
20
5.35223003014346
30
0
41
1
10
28.5985247565724
20
5.41157592142014
30
0
41
1
10
28.617367962314
20
5.46894683948204
30
0
41
1
10
28.6354701937184
20
5.52432563602872
30
0
41
1
10
28.6528264860094
20
5.57769699460854
30
0
41
1
10
28.6694303763532
20
5.62904154117393
30
0
41
1
10
28.6852820335227
20
5.67835784631376
30
0
41
1
10
28.7003579246275
20
5.72558033350538
30
0
41
1
10
28.7147240271563
20
5.7708856705591
30
0
41
1
10
28.7236502239291
20
5.79932810432871
30
0
41
1
10
28.7281133223154
20
5.81354932121352
30
0
0
SPLINE
5
142
100
AcDbEntity
8
1
62
256
6
ByLayer
370
18
48
1
60
0
100
AcDbSpline
70
4
71
2
72
9
73
6
40
0
40
0
40
0
40
0.5
40
0.5
40
0.75
40
1
40
1
40
1
41
1
10
98.3702777888529
20
0.939035530801306
30
0
41
1
10
98.6212423077474
20
-0.218025721039709
30
0
41
1
10
98.9576265250288
20
-1.37822483986372
30
0
41
1
10
99.1248085029202
20
-1.95484042843191
30
0
41
1
10
99.4961875175544
20
-3.08965478263522
30
0
41
1
10
99.6979303452929
20
-3.6398000094926
30
0
0
SPLINE
5
143
100
AcDbEntity
8
1
62
256
6
ByLayer
370
18
48
1
60
0
100
AcDbSpline
70
4
71
3
72
14
73
10
40
0
40
0
40
0
40
0
40
0.25
40
0.25
40
0.5
40
0.5
40
0.75
40
0.75
40
1
40
1
40
1
40
1
41
1
10
81.2699501086919
20
-9.99036147540886
30
0
41
1
10
81.4076120012182
20
-10.0105738614425
30
0
41
1
10
81.5416947226966
20
-10.0358513119858
30
0
41
1
10
81.7999045392119
20
-10.0950120986106
30
0
41
1
10
81.9245432218434
20
-10.1289733991317
30
0
41
1
10
82.1647746321336
20
-10.2049669481304
30
0
41
1
10
82.2806026722051
20
-10.2471980554721
30
0
41
1
10
82.4957949013787
20
-10.3361280045972
30
0
41
1
10
82.5961674474298
20
-10.3831091828612
30
0
41
1
10
82.689469248074
20
-10.4320571683258
30
0
0
SPLINE
5
144
100
AcDbEntity
8
1
62
256
6
ByLayer
370
18
48
1
60
0
100
AcDbSpline
70
4
71
3
72
8
73
4
40
0
40
0
40
0
40
0
40
1
40
1
40
1
40
1
41
1
10
93.729863857252
20
11.9146024052169
30
0
41
1
10
93.4869367311848
20
11.8156952488766
30
0
41
1
10
93.2436566019905
20
11.7152931452949
30
0
41
1
10
92.9999999999999
20
11.6134632420603
30
0
0
SPLINE
5
145
100
AcDbEntity
8
1
62
256
6
ByLayer
370
18
48
1
60
0
100
AcDbSpline
70
4
71
3
72
8
73
4
40
0
40
0
40
0
40
0
40
1
40
1
40
1
40
1
41
1
10
26.3893702936929
20
6.35533335667495
30
0
41
1
10
26.6216129473233
20
6.35387653803465
30
0
41
1
10
26.8520601442281
20
6.34353754938522
30
0
41
1
10
27.0807677359217
20
6.32440596695099
30
0
0
SPLINE
5
146
100
AcDbEntity
8
1
62
256
6
ByLayer
370
18
48
1
60
0
100
AcDbSpline
70
4
71
3
72
10
73
6
40
0
40
0
40
0
40
0
40
0.331264174204486
40
0.664593664159294
40
1
40
1
40
1
40
1
41
1
10
107.600767802323
20
-1.16799341380519
30
0
41
1
10
107.610958315399
20
-1.13859667660438
30
0
41
1
10
107.63140287582
20
-1.07961992387365
30
0
41
1
10
107.661969868965
20
-0.990805630883642
30
0
41
1
10
107.682260922371
20
-0.931423759384586
30
0
41
1
10
107.692437957323
20
-0.901640614581225
30
0
0
SPLINE
5
147
100
AcDbEntity
8
1
62
256
6
ByLayer
370
18
48
1
60
0
100
AcDbSpline
70
4
71
3
72
12
73
8
40
0
40
0
40
0
40
0
40
0.5
40
0.5
40
0.75
40
0.75
40
1
40
1
40
1
40
1
41
1
10
106.743144563453
20
4.43236089919893
30
0
41
1
10
106.503980807319
20
5.0923094876982
30
0
41
1
10
106.268902812467
20
5.75647171085956
30
0
41
1
10
105.92281625346
20
6.75944986393344
30
0
41
1
10
105.808387964391
20
7.09540026605589
30
0
41
1
10
105.582658537441
20
7.76770945963838
30
0
41
1
10
105.47221462683
20
8.1015011169938
30
0
41
1
10
105.364401465482
20
8.43272490677387
30
0
0
SPLINE
5
148
100
AcDbEntity
8
1
62
256
6
ByLayer
370
18
48
1
60
0
100
AcDbSpline
70
4
71
3
72
12
73
8
40
0
40
0
40
0
40
0
40
0.5
40
0.5
40
0.75
40
0.75
40
1
40
1
40
1
40
1
41
1
10
106.743144563453
20
-4.43236089919893
30
0
41
1
10
106.503980807319
20
-5.0923094876982
30
0
41
1
10
106.268902812467
20
-5.75647171085956
30
0
41
1
10
105.92281625346
20
-6.75944986393344
30
0
41
1
10
105.808387964391
20
-7.09540026605592
30
0
41
1
10
105.582658537441
20
-7.76770945963838
30
0
41
1
10
105.47221462683
20
-8.1015011169938
30
0
41
1
10
105.364401465482
20
-8.43272490677387
30
0
0
SPLINE
5
149
100
AcDbEntity
8
1
62
256
6
ByLayer
370
18
48
1
60
0
100
AcDbSpline
70
4
71
3
72
8
73
4
40
0
40
0
40
0
40
0
40
1
40
1
40
1
40
1
41
1
10
22.1531053820785
20
6.54395661624736
30
0
41
1
10
22.1825286213062
20
6.54043736532799
30
0
41
1
10
22.2119538940449
20
6.53689486939115
30
0
41
1
10
22.2413812147238
20
6.53332920400794
30
0
0
SPLINE
5
14A
100
AcDbEntity
8
1
62
256
6
ByLayer
370
13
48
1
60
0
100
AcDbSpline
70
4
71
3
72
8
73
4
40
0
40
0
40
0
40
0
40
1
40
1
40
1
40
1
41
1
10
104.640122728645
20
4.11180650371634
30
0
41
1
10
105.38022575625
20
4.10204766367502
30
0
41
1
10
106.120328783855
20
4.09228882363368
30
0
41
1
10
106.860431811461
20
4.08252998359231
30
0
0
SPLINE
5
14B
100
AcDbEntity
8
1
62
256
6
ByLayer
370
18
48
1
60
0
100
AcDbSpline
70
4
71
3
72
18
73
14
40
0
40
0
40
0
40
0
40
0.249999999999982
40
0.249999999999982
40
0.37499999999998
40
0.37499999999998
40
0.499999999999978
40
0.499999999999978
40
0.749999999999989
40
0.749999999999989
40
0.874999999999995
40
0.874999999999995
40
1
40
1
40
1
40
1
41
1
10
106.455118205788
20
-3.18176400635122
30
0
41
1
10
106.558977291028
20
-3.06772396515709
30
0
41
1
10
106.66236671125
20
-2.94072606802126
30
0
41
1
10
106.816625129751
20
-2.72744818776101
30
0
41
1
10
106.867906379234
20
-2.65254203819009
30
0
41
1
10
106.970162111577
20
-2.49426617976115
30
0
41
1
10
107.020879640929
20
-2.41123168194579
30
0
41
1
10
107.168861679285
20
-2.15477016321279
30
0
41
1
10
107.263082873352
20
-1.97233908975011
30
0
41
1
10
107.397354949263
20
-1.68044927045548
30
0
41
1
10
107.44106734711
20
-1.57971426626273
30
0
41
1
10
107.524303971444
20
-1.37622272081825
30
0
41
1
10
107.564044882093
20
-1.27303555195161
30
0
41
1
10
107.60197120829
20
-1.16845521545039
30
0
0
SPLINE
5
14C
100
AcDbEntity
8
1
62
256
6
ByLayer
370
18
48
1
60
0
100
AcDbSpline
70
4
71
3
72
8
73
4
40
0
40
0
40
0
40
0
40
1
40
1
40
1
40
1
41
1
10
93.729863857252
20
-11.7610859066882
30
0
41
1
10
93.5352882548412
20
-11.673546053416
30
0
41
1
10
93.3404788774334
20
-11.5850461952053
30
0
41
1
10
93.1454215376824
20
-11.4956213456485
30
0
0
SPLINE
5
14D
100
AcDbEntity
8
1
62
256
6
ByLayer
370
18
48
1
60
0
100
AcDbSpline
70
4
71
3
72
8
73
4
40
0
40
0
40
0
40
0
40
1
40
1
40
1
40
1
41
1
10
92.9052470253599
20
10.9712325572422
30
0
41
1
10
92.9048060777196
20
11.1859824831461
30
0
41
1
10
92.9043629925537
20
11.4002978456191
30
0
41
1
10
92.9039178071592
20
11.6141719589897
30
0
0
SPLINE
5
14E
100
AcDbEntity
8
1
62
256
6
ByLayer
370
13
48
1
60
0
100
AcDbSpline
70
4
71
3
72
8
73
4
40
0
40
0
40
0
40
0
40
1
40
1
40
1
40
1
41
1
10
104.640122728633
20
4.1118065037812
30
0
41
1
10
104.639900005935
20
4.1128244180434
30
0
41
1
10
104.639676417884
20
4.11384215709984
30
0
41
1
10
104.639451964576
20
4.1148597186862
30
0
0
SPLINE
5
14F
100
AcDbEntity
8
1
62
256
6
ByLayer
370
18
48
1
60
0
100
AcDbSpline
70
4
71
3
72
10
73
6
40
0
40
0
40
0
40
0
40
0.0340497182381448
40
0.0340497182381448
40
1
40
1
40
1
40
1
41
1
10
74.5160383169701
20
8.12948214420325
30
0
41
1
10
74.593234040555
20
8.14723021995832
30
0
41
1
10
74.6704301226834
20
8.16491486368474
30
0
41
1
10
76.9376040758665
20
8.68241036847527
30
0
41
1
10
79.1281871175634
20
9.13000824287897
30
0
41
1
10
81.3238949874208
20
9.51465848683944
30
0
0
SPLINE
5
150
100
AcDbEntity
8
1
62
256
6
ByLayer
370
13
48
1
60
0
100
AcDbSpline
70
4
71
3
72
10
73
6
40
0
40
0
40
0
40
0
40
0.0193122894333923
40
0.0193122894333923
40
1
40
1
40
1
40
1
41
1
10
104.612971349449
20
4.10892688534514
30
0
41
1
10
104.612975621303
20
4.1089075172757
30
0
41
1
10
104.612979893488
20
4.10888814927392
30
0
41
1
10
104.613201075069
20
4.10788525740142
30
0
41
1
10
104.613417130492
20
4.10690155705103
30
0
41
1
10
104.613632331005
20
4.10591768232447
30
0
0
SPLINE
5
151
100
AcDbEntity
8
1
62
256
6
ByLayer
370
18
48
1
60
0
100
AcDbSpline
70
4
71
1
72
4
73
2
40
0
40
0
40
1
40
1
41
1
10
100.847710226825
20
1.72469705356076
30
0
41
1
10
100.842504843684
20
1.73021964881656
30
0
0
SPLINE
5
152
100
AcDbEntity
8
1
62
256
6
ByLayer
370
18
48
1
60
0
100
AcDbSpline
70
4
71
3
72
32
73
28
40
0
40
0
40
0
40
0
40
0.125000000000013
40
0.125000000000013
40
0.187500000000019
40
0.187500000000019
40
0.250000000000023
40
0.250000000000023
40
0.312500000000028
40
0.312500000000028
40
0.375000000000034
40
0.375000000000034
40
0.500000000000033
40
0.500000000000033
40
0.562500000000027
40
0.562500000000027
40
0.625000000000021
40
0.625000000000021
40
0.687500000000015
40
0.687500000000015
40
0.750000000000009
40
0.750000000000009
40
0.874999999999997
40
0.874999999999997
40
0.937499999999999
40
0.937499999999999
40
1
40
1
40
1
40
1
41
1
10
83.3
20
-4.90217262140405
30
0
41
1
10
83.3
20
-5.11052624373423
30
0
41
1
10
83.2741943572976
20
-5.31194000218224
30
0
41
1
10
83.1979055964391
20
-5.60432350781377
30
0
41
1
10
83.1660201827342
20
-5.70047157044533
30
0
41
1
10
83.0896238893592
20
-5.88810668227228
30
0
41
1
10
83.0456343999643
20
-5.97844239299985
30
0
41
1
10
82.946473240723
20
-6.15259455616334
30
0
41
1
10
82.8913004474032
20
-6.23640986415055
30
0
41
1
10
82.7697220218429
20
-6.39773399016528
30
0
41
1
10
82.7029194641076
20
-6.4756388448665
30
0
41
1
10
82.4878136180151
20
-6.69698837917616
30
0
41
1
10
82.3269365139909
20
-6.82669315252829
30
0
41
1
10
82.059820189757
20
-6.99678023909263
30
0
41
1
10
81.9658243881402
20
-7.04964116935648
30
0
41
1
10
81.7719818675608
20
-7.14543821449476
30
0
41
1
10
81.6724312568017
20
-7.1883251688019
30
0
41
1
10
81.4681796812447
20
-7.26456975400188
30
0
41
1
10
81.3634785164165
20
-7.2979264327092
30
0
41
1
10
81.1488335793853
20
-7.35518036635935
30
0
41
1
10
81.0381541748993
20
-7.37918619352516
30
0
41
1
10
80.7038668513346
20
-7.4355570610899
30
0
41
1
10
80.479019669004
20
-7.4526780653126
30
0
41
1
10
80.1387971654884
20
-7.44841415579185
30
0
41
1
10
80.0243419524817
20
-7.44187561872064
30
0
41
1
10
79.7975888638195
20
-7.41851832953935
30
0
41
1
10
79.6853445785645
20
-7.40176923911929
30
0
41
1
10
79.574234313201
20
-7.37987366451242
30
0
0
SPLINE
5
153
100
AcDbEntity
8
1
62
256
6
ByLayer
370
18
48
1
60
0
100
AcDbSpline
70
4
71
3
72
8
73
4
40
0
40
0
40
0
40
0
40
1
40
1
40
1
40
1
41
1
10
28.4
20
-9.67656826709296
30
0
41
1
10
29.433975339373
20
-9.88486823572521
30
0
41
1
10
30.4670729673186
20
-10.0792516678273
30
0
41
1
10
31.5000000001166
20
-10.2585896630027
30
0
0
SPLINE
5
154
100
AcDbEntity
8
1
62
256
6
ByLayer
370
18
48
1
60
0
100
AcDbSpline
70
4
71
3
72
18
73
14
40
0
40
0
40
0
40
0
40
0.249999999999998
40
0.249999999999998
40
0.374999999999997
40
0.374999999999997
40
0.499999999999996
40
0.499999999999996
40
0.749999999999998
40
0.749999999999998
40
0.874999999999999
40
0.874999999999999
40
1
40
1
40
1
40
1
41
1
10
104.411674242831
20
-5.3344057844723
30
0
41
1
10
104.232773587451
20
-4.8565335895189
30
0
41
1
10
104.059209448004
20
-4.37675921798399
30
0
41
1
10
103.80362061771
20
-3.65540191484234
30
0
41
1
10
103.719351597569
20
-3.41461896409942
30
0
41
1
10
103.553739905441
20
-2.93200997926078
30
0
41
1
10
103.472886009575
20
-2.69000905995623
30
0
41
1
10
103.234980863282
20
-1.96235049031955
30
0
41
1
10
103.081802782797
20
-1.47565195473797
30
0
41
1
10
102.866296198711
20
-0.741417416517407
30
0
41
1
10
102.796518070444
20
-0.496068540770978
30
0
41
1
10
102.66235527625
20
-0.0037873287609216
30
0
41
1
10
102.596850455756
20
0.242894149816237
30
0
41
1
10
102.535197878461
20
0.490530349071776
30
0
0
SPLINE
5
155
100
AcDbEntity
8
1
62
256
6
ByLayer
370
18
48
1
60
0
100
AcDbSpline
70
4
71
3
72
21
73
17
40
0
40
0
40
0
40
0
40
0.249999999999999
40
0.249999999999999
40
0.3125
40
0.3125
40
0.375
40
0.375
40
0.5
40
0.624999999999999
40
0.624999999999999
40
0.6875
40
0.6875
40
0.75
40
0.75
40
1
40
1
40
1
40
1
41
1
10
93
20
8.94876322987633
30
0
41
1
10
93.0000000000001
20
8.33968789932447
30
0
41
1
10
93.0000000000001
20
7.75401938472655
30
0
41
1
10
93.0000000000001
20
7.05023512297703
30
0
41
1
10
93.0000000000001
20
6.91091416114921
30
0
41
1
10
93.0000000000001
20
6.63520454653693
30
0
41
1
10
93.0000000000001
20
6.49860814224436
30
0
41
1
10
93
20
6.09890736348586
30
0
41
1
10
92.9999999999998
20
5.58907531440005
30
0
41
1
10
93.0000000000001
20
5.12424866271664
30
0
41
1
10
93.0000000000001
20
4.79284872132877
30
0
41
1
10
93.0000000000001
20
4.68500388293083
30
0
41
1
10
93.0000000000001
20
4.4764124830277
30
0
41
1
10
93.0000000000001
20
4.37614270593662
30
0
41
1
10
93.0000000000001
20
3.89447521179977
30
0
41
1
10
93
20
3.57121056064023
30
0
41
1
10
93
20
3.31171854392946
30
0
0
SPLINE
5
156
100
AcDbEntity
8
1
62
256
6
ByLayer
370
18
48
1
60
0
100
AcDbSpline
70
4
71
3
72
8
73
4
40
0
40
0
40
0
40
0
40
1
40
1
40
1
40
1
41
1
10
92.8
20
4.65000000000001
30
0
41
1
10
92.8666651711693
20
4.65000000000001
30
0
41
1
10
92.9333318680224
20
4.65000000000001
30
0
41
1
10
92.9999999999999
20
4.65000000000001
30
0
0
SPLINE
5
157
100
AcDbEntity
8
1
62
256
6
ByLayer
370
18
48
1
60
0
100
AcDbSpline
70
4
71
3
72
14
73
10
40
0
40
0
40
0
40
0
40
0.25
40
0.25
40
0.5
40
0.5
40
0.75
40
0.75
40
1
40
1
40
1
40
1
41
1
10
94.1015116318483
20
2.76501398188898
30
0
41
1
10
94.7800957609133
20
2.68058921355433
30
0
41
1
10
95.459030778853
20
2.59806698755014
30
0
41
1
10
96.8176798238674
20
2.43724637380998
30
0
41
1
10
97.4976090951001
20
2.36011505391562
30
0
41
1
10
98.8594372845438
20
2.21653196832475
30
0
41
1
10
99.5405750412324
20
2.14759880789396
30
0
41
1
10
100.902987866709
20
2.01152383997982
30
0
41
1
10
101.584301715194
20
1.94487024910816
30
0
41
1
10
102.265819316465
20
1.88084122293455
30
0
0
SPLINE
5
158
100
AcDbEntity
8
1
62
256
6
ByLayer
370
18
48
1
60
0
100
AcDbSpline
70
4
71
3
72
8
73
4
40
0
40
0
40
0
40
0
40
1
40
1
40
1
40
1
41
1
10
92.8
20
4.65000000000001
30
0
41
1
10
92.8
20
4.24153210273639
30
0
41
1
10
92.8000000000001
20
3.88930990437731
30
0
41
1
10
92.8000000000001
20
3.59237523064189
30
0
0
SPLINE
5
159
100
AcDbEntity
8
1
62
256
6
ByLayer
370
18
48
1
60
0
100
AcDbSpline
70
4
71
3
72
9
73
5
40
0
40
0
40
0
40
0
40
0.496481895309196
40
1
40
1
40
1
40
1
41
1
10
93.0000000019782
20
10.7955438490653
30
0
41
1
10
92.9845308684949
20
10.8247261561945
30
0
41
1
10
92.9533733708514
20
10.8835043461041
30
0
41
1
10
92.9213642156388
20
10.9418529710219
30
0
41
1
10
92.9052470264735
20
10.9712325600518
30
0
0
SPLINE
5
15A
100
AcDbEntity
8
1
62
256
6
ByLayer
370
18
48
1
60
0
100
AcDbSpline
70
4
71
3
72
10
73
6
40
0
40
0
40
0
40
0
40
0.5
40
0.5
40
1
40
1
40
1
40
1
41
1
10
102.535197878461
20
0.490530349071776
30
0
41
1
10
102.478221870529
20
0.719382453426391
30
0
41
1
10
102.4275945581
20
0.949952265172357
30
0
41
1
10
102.33810942923
20
1.41427625153759
30
0
41
1
10
102.299644034779
20
1.64725987888869
30
0
41
1
10
102.265819316465
20
1.88084122293532
30
0
0
SPLINE
5
15B
100
AcDbEntity
8
1
62
256
6
ByLayer
370
18
48
1
60
0
100
AcDbSpline
70
4
71
3
72
10
73
6
40
0
40
0
40
0
40
0
40
0.749256025793154
40
0.749256025793154
40
1
40
1
40
1
40
1
41
1
10
81.4754370473066
20
9.54110478681187
30
0
41
1
10
81.4035256459738
20
8.8300827940287
30
0
41
1
10
81.297094652919
20
8.15123239959277
30
0
41
1
10
81.11447734789
20
7.32324037350662
30
0
41
1
10
81.0652860582198
20
7.12218918621767
30
0
41
1
10
81.0129364513599
20
6.92851657997775
30
0
0
SPLINE
5
15C
100
AcDbEntity
8
1
62
256
6
ByLayer
370
18
48
1
60
0
100
AcDbSpline
70
4
71
3
72
28
73
24
40
0
40
0
40
0
40
0
40
0.0666200302510501
40
0.0666200302510501
40
0.133290028090261
40
0.133290028090261
40
0.199960025929471
40
0.199960025929471
40
0.333300021607893
40
0.333300021607893
40
0.399970019447103
40
0.399970019447103
40
0.466640017286313
40
0.466640017286313
40
0.599980012964735
40
0.599980012964735
40
0.666650010803946
40
0.666650010803946
40
0.733320008643157
40
0.733320008643157
40
0.866660004321578
40
0.866660004321578
40
1
40
1
40
1
40
1
41
1
10
73.3346067643886
20
-8.24573387031336
30
0
41
1
10
72.2421447923641
20
-8.47273656214418
30
0
41
1
10
71.1495822631941
20
-8.6853296424506
30
0
41
1
10
68.9625941123008
20
-9.08098833659591
30
0
41
1
10
67.8681395022526
20
-9.26395344814463
30
0
41
1
10
65.6819449023232
20
-9.5988544197987
30
0
41
1
10
64.589614028198
20
-9.7509029383576
30
0
41
1
10
61.3135793512499
20
-10.1608628772951
30
0
41
1
10
59.1308319743347
20
-10.3727162592545
30
0
41
1
10
55.8521461765283
20
-10.5916975539901
30
0
41
1
10
54.7584950329123
20
-10.6482111455635
30
0
41
1
10
52.5686095955699
20
-10.7267880136462
30
0
41
1
10
51.4742830736892
20
-10.7487724348624
30
0
41
1
10
48.1932257178953
20
-10.7608944998541
30
0
41
1
10
46.0077924804543
20
-10.6966105854674
30
0
41
1
10
42.7276664461741
20
-10.4985302860818
30
0
41
1
10
41.6339597607937
20
-10.4156204918112
30
0
41
1
10
39.4451291279728
20
-10.2177170692094
30
0
41
1
10
38.3494548614288
20
-10.1026418379145
30
0
41
1
10
35.0666839896879
20
-9.71170129432386
30
0
41
1
10
32.8819848178393
20
-9.38996303258392
30
0
41
1
10
28.5114593425337
20
-8.63142648108214
30
0
41
1
10
26.3256485934953
20
-8.19455749304169
30
0
41
1
10
24.1344534565772
20
-7.70351632289084
30
0
0
SPLINE
5
15D
100
AcDbEntity
8
1
62
256
6
ByLayer
370
18
48
1
60
0
100
AcDbSpline
70
4
71
3
72
32
73
28
40
0
40
0
40
0
40
0
40
0.0624999999999959
40
0.0624999999999959
40
0.124999999999992
40
0.124999999999992
40
0.249999999999984
40
0.249999999999984
40
0.312499999999987
40
0.312499999999987
40
0.374999999999991
40
0.374999999999991
40
0.437499999999994
40
0.437499999999994
40
0.499999999999997
40
0.499999999999997
40
0.624999999999992
40
0.624999999999992
40
0.687499999999994
40
0.687499999999994
40
0.749999999999996
40
0.749999999999996
40
0.812499999999997
40
0.812499999999997
40
0.874999999999999
40
0.874999999999999
40
1
40
1
40
1
40
1
41
1
10
79.574234313201
20
-7.12319937348852
30
0
41
1
10
79.6853934676578
20
-7.14528030695854
30
0
41
1
10
79.7976747458914
20
-7.16223627274326
30
0
41
1
10
80.0244761088437
20
-7.18606521359965
30
0
41
1
10
80.1390338807544
20
-7.19287479877227
30
0
41
1
10
80.4794455082483
20
-7.19801055091437
30
0
41
1
10
80.7042924320648
20
-7.18156867124276
30
0
41
1
10
81.0384024382323
20
-7.12645323277374
30
0
41
1
10
81.1491350155607
20
-7.10287642504409
30
0
41
1
10
81.3637912435959
20
-7.04652184291891
30
0
41
1
10
81.4684664097341
20
-7.01363919619158
30
0
41
1
10
81.6726167312675
20
-6.93839490504436
30
0
41
1
10
81.7720920338447
20
-6.89603414579472
30
0
41
1
10
81.9657468658222
20
-6.80134374691301
30
0
41
1
10
82.0597617500605
20
-6.74899173502857
30
0
41
1
10
82.3268483220679
20
-6.58043092446897
30
0
41
1
10
82.4876557395781
20
-6.45174237647419
30
0
41
1
10
82.7026528991484
20
-6.23184477729117
30
0
41
1
10
82.7695046349472
20
-6.15431093971162
30
0
41
1
10
82.8911246965641
20
-5.99369154068091
30
0
41
1
10
82.9463146306318
20
-5.91019079009556
30
0
41
1
10
83.0455065902808
20
-5.7365789317285
30
0
41
1
10
83.0895097196893
20
-5.64646900247524
30
0
41
1
10
83.1659319763007
20
-5.45918134591727
30
0
41
1
10
83.1978536301617
20
-5.36307929662985
30
0
41
1
10
83.2741897657448
20
-5.07077138236212
30
0
41
1
10
83.3
20
-4.86920142593425
30
0
41
1
10
83.3
20
-4.66047113818871
30
0
0
SPLINE
5
15E
100
AcDbEntity
8
1
62
256
6
ByLayer
370
13
48
1
60
0
100
AcDbSpline
70
4
71
3
72
10
73
6
40
0
40
0
40
0
40
0
40
0.001815641940164
40
0.001815641940164
40
1
40
1
40
1
40
1
41
1
10
106.724910754733
20
1.19053815746486
30
0
41
1
10
106.724896913973
20
1.19054765087171
30
0
41
1
10
106.724883073146
20
1.19055714419136
30
0
41
1
10
106.71726004361
20
1.19578586955041
30
0
41
1
10
106.709671200356
20
1.20103128113834
30
0
41
1
10
106.702103276709
20
1.20630317854909
30
0
0
SPLINE
5
15F
100
AcDbEntity
8
1
62
256
6
ByLayer
370
18
48
1
60
0
100
AcDbSpline
70
4
71
3
72
8
73
4
40
0
40
0
40
0
40
0
40
1
40
1
40
1
40
1
41
1
10
22.1531053820785
20
-8.46761749335116
30
0
41
1
10
22.1808496263698
20
-8.49432500833552
30
0
41
1
10
22.2102525881294
20
-8.51920499613624
30
0
41
1
10
22.2413812147238
20
-8.54223709991118
30
0
0
SPLINE
5
160
100
AcDbEntity
8
1
62
256
6
ByLayer
370
18
48
1
60
0
100
AcDbSpline
70
4
71
3
72
10
73
6
40
0
40
0
40
0
40
0
40
0.5
40
0.5
40
1
40
1
40
1
40
1
41
1
10
92.9052470280304
20
10.9712325572296
30
0
41
1
10
91.354960846281
20
10.9116677505575
30
0
41
1
10
89.8073406279113
20
10.8121279518906
30
0
41
1
10
86.7135879338173
20
10.5252590958754
30
0
41
1
10
85.1673692488212
20
10.3376821488137
30
0
41
1
10
83.6190732181389
20
10.1089835825826
30
0
0
SPLINE
5
161
100
AcDbEntity
8
1
62
256
6
ByLayer
370
18
48
1
60
0
100
AcDbSpline
70
4
71
3
72
8
73
4
40
0
40
0
40
0
40
0
40
1
40
1
40
1
40
1
41
1
10
23.8643906570443
20
-7.64272840214556
30
0
41
1
10
23.9548905791468
20
-7.65922364797675
30
0
41
1
10
24.0449132153133
20
-7.67955468613715
30
0
41
1
10
24.1344534565773
20
-7.70351632289086
30
0
0
SPLINE
5
162
100
AcDbEntity
8
1
62
256
6
ByLayer
370
18
48
1
60
0
100
AcDbSpline
70
4
71
3
72
22
73
18
40
0
40
0
40
0
40
0
40
0.182815351871702
40
0.182815351871702
40
0.274223027807553
40
0.274223027807553
40
0.365630703743404
40
0.365630703743404
40
0.548446055615107
40
0.548446055615107
40
0.73126140748681
40
0.73126140748681
40
0.822669083422661
40
0.822669083422661
40
0.914076759358513
40
0.914076759358513
40
1
40
1
40
1
40
1
41
1
10
76.4556733052297
20
7.66975830156053
30
0
41
1
10
74.5787596903384
20
8.13501728279238
30
0
41
1
10
72.7022416362258
20
8.56046266341912
30
0
41
1
10
69.8858004247252
20
9.13574906705412
30
0
41
1
10
68.9462525804199
20
9.31703827167811
30
0
41
1
10
67.0685701913276
20
9.65719128210114
30
0
41
1
10
66.130590669139
20
9.81604558618329
30
0
41
1
10
63.3185794791451
20
10.2576443473913
30
0
41
1
10
61.446676740233
20
10.5056159826173
30
0
41
1
10
57.7026443221819
20
10.8986591938307
30
0
41
1
10
55.8304913110709
20
11.0429837767769
30
0
41
1
10
53.0163600166677
20
11.1767583332672
30
0
41
1
10
52.0782163179955
20
11.2076180815988
30
0
41
1
10
50.204811002445
20
11.2420616991573
30
0
41
1
10
49.2689344386129
20
11.2456750887312
30
0
41
1
10
47.454234157248
20
11.2272196962427
30
0
41
1
10
46.5753697658194
20
11.2067248659271
30
0
41
1
10
45.6967561928491
20
11.1748479953647
30
0
0
SPLINE
5
163
100
AcDbEntity
8
1
62
256
6
ByLayer
370
18
48
1
60
0
100
AcDbSpline
70
4
71
3
72
8
73
4
40
0
40
0
40
0
40
0
40
1
40
1
40
1
40
1
41
1
10
105.364401465482
20
-8.43272490677387
30
0
41
1
10
105.044065976664
20
-9.41686017635541
30
0
41
1
10
104.718249606846
20
-10.4068913079361
30
0
41
1
10
104.386721197678
20
-11.4030669618572
30
0
0
SPLINE
5
164
100
AcDbEntity
8
1
62
256
6
ByLayer
370
18
48
1
60
0
100
AcDbSpline
70
4
71
3
72
8
73
4
40
0
40
0
40
0
40
0
40
1
40
1
40
1
40
1
41
1
10
104.262446680285
20
-11.469101021019
30
0
41
1
10
104.235005064703
20
-11.5515295474538
30
0
41
1
10
104.207527623766
20
-11.6339897732808
30
0
41
1
10
104.180015161794
20
-11.7164790552944
30
0
0
SPLINE
5
165
100
AcDbEntity
8
1
62
256
6
ByLayer
370
18
48
1
60
0
100
AcDbSpline
70
4
71
3
72
8
73
4
40
0
40
0
40
0
40
0
40
1
40
1
40
1
40
1
41
1
10
79.9038789083695
20
7.2736502008475
30
0
41
1
10
80.8158080681843
20
7.02112375933905
30
0
41
1
10
81.7272311351962
20
6.75993232250332
30
0
41
1
10
82.6384645093266
20
6.49087102487593
30
0
0
SPLINE
5
166
100
AcDbEntity
8
1
62
256
6
ByLayer
370
18
48
1
60
0
100
AcDbSpline
70
4
71
3
72
16
73
12
40
0
40
0
40
0
40
0
40
0.329364085337928
40
0.329364085337928
40
0.497023064003446
40
0.497023064003446
40
0.664682042668964
40
0.664682042668964
40
0.832341021334482
40
0.832341021334482
40
1
40
1
40
1
40
1
41
1
10
83.7577822414007
20
6.1564424861765
30
0
41
1
10
85.3770484417922
20
5.66704827154842
30
0
41
1
10
86.9961247118771
20
5.15382581377219
30
0
41
1
10
89.441766507788
20
4.35013090460964
30
0
41
1
10
90.2675081880869
20
4.07384864474093
30
0
41
1
10
91.9181877878521
20
3.51320367626414
30
0
41
1
10
92.7431077777879
20
3.22878974724415
30
0
41
1
10
94.3926518812839
20
2.65308201954207
30
0
41
1
10
95.2172725777331
20
2.36176353959323
30
0
41
1
10
96.8668447927421
20
1.77383761168744
30
0
41
1
10
97.6917217581571
20
1.47726436144302
30
0
41
1
10
98.5158442425724
20
1.17928628931909
30
0
0
SPLINE
5
167
100
AcDbEntity
8
1
62
256
6
ByLayer
370
18
48
1
60
0
100
AcDbSpline
70
4
71
3
72
16
73
12
40
0
40
0
40
0
40
0
40
0.263957649197778
40
0.263957649197778
40
0.395936473796667
40
0.395936473796667
40
0.527915298395556
40
0.527915298395556
40
0.791872947593326
40
0.791872947593326
40
1
40
1
40
1
40
1
41
1
10
93.729863857252
20
-11.7610859066882
30
0
41
1
10
94.6031113963066
20
-11.8402083655775
30
0
41
1
10
95.4752001558694
20
-11.8985696954606
30
0
41
1
10
96.7813753668307
20
-11.9552804036157
30
0
41
1
10
97.2164504234099
20
-11.9690285491507
30
0
41
1
10
98.0860752600291
20
-11.9861312651078
30
0
41
1
10
98.520707096109
20
-11.9894643345371
30
0
41
1
10
99.8255141569122
20
-11.9839078712041
30
0
41
1
10
100.695781314492
20
-11.9595532852465
30
0
41
1
10
102.252666851864
20
-11.87881612348
30
0
41
1
10
102.938954799395
20
-11.830105151415
30
0
41
1
10
103.626456164327
20
-11.7686644842298
30
0
0
SPLINE
5
168
100
AcDbEntity
8
1
62
256
6
ByLayer
370
18
48
1
60
0
100
AcDbSpline
70
4
71
3
72
8
73
4
40
0
40
0
40
0
40
0
40
1
40
1
40
1
40
1
41
1
10
103.988235056864
20
-11.7351715000332
30
0
41
1
10
104.052148959101
20
-11.7290498648069
30
0
41
1
10
104.116075311538
20
-11.7228189464996
30
0
41
1
10
104.180015161794
20
-11.7164790552944
30
0
0
SPLINE
5
169
100
AcDbEntity
8
1
62
256
6
ByLayer
370
18
48
1
60
0
100
AcDbSpline
70
4
71
3
72
10
73
6
40
0
40
0
40
0
40
0
40
0.5
40
0.5
40
1
40
1
40
1
40
1
41
1
10
82.689469248074
20
-10.4320571683258
30
0
41
1
10
84.391026159805
20
-10.7320027739661
30
0
41
1
10
86.0919532585822
20
-10.9831030479712
30
0
41
1
10
89.5000518643006
20
-11.3814756000584
30
0
41
1
10
91.2025155406624
20
-11.5282255096642
30
0
41
1
10
92.9039003129624
20
-11.6225758012606
30
0
0
SPLINE
5
16A
100
AcDbEntity
8
1
62
256
6
ByLayer
370
18
48
1
60
0
100
AcDbSpline
70
4
71
3
72
18
73
14
40
0
40
0
40
0
40
0
40
0.250000000000003
40
0.250000000000003
40
0.375000000000003
40
0.375000000000003
40
0.500000000000002
40
0.500000000000002
40
0.625000000000002
40
0.625000000000002
40
0.750000000000001
40
0.750000000000001
40
1
40
1
40
1
40
1
41
1
10
107.737431471752
20
-1.11914833667316
30
0
41
1
10
107.695487794993
20
-1.30065025912953
30
0
41
1
10
107.64414041983
20
-1.50366753906911
30
0
41
1
10
107.553562270541
20
-1.83921163404543
30
0
41
1
10
107.521193765439
20
-1.95585326963419
30
0
41
1
10
107.453240182876
20
-2.19491252359646
30
0
41
1
10
107.417521003212
20
-2.31782207041979
30
0
41
1
10
107.342697025476
20
-2.57020865439066
30
0
41
1
10
107.303588571984
20
-2.6996927823939
30
0
41
1
10
107.221991619391
20
-2.96521771849484
30
0
41
1
10
107.179311121485
20
-3.10185030915059
30
0
41
1
10
107.048243626635
20
-3.51500131121597
30
0
41
1
10
106.956489826986
20
-3.79601917995015
30
0
41
1
10
106.860431811461
20
-4.08252998359231
30
0
0
SPLINE
5
16B
100
AcDbEntity
8
1
62
256
6
ByLayer
370
13
48
1
60
0
100
AcDbSpline
70
4
71
3
72
14
73
10
40
0
40
0
40
0
40
0
40
0.25
40
0.25
40
0.5
40
0.5
40
0.75
40
0.75
40
1
40
1
40
1
40
1
41
1
10
106.656863978299
20
1.16818216722621
30
0
41
1
10
106.45963973965
20
0.917847006114499
30
0
41
1
10
106.270611893648
20
0.650576945616081
30
0
41
1
10
105.921499391737
20
0.0949398180786432
30
0
41
1
10
105.761495869011
20
-0.193344324760147
30
0
41
1
10
105.480729591021
20
-0.774640114698428
30
0
41
1
10
105.360018244154
20
-1.06754416971944
30
0
41
1
10
105.163614232235
20
-1.64116107725218
30
0
41
1
10
105.087923809561
20
-1.92178256681476
30
0
41
1
10
105.034942682155
20
-2.18914632478158
30
0
0
SPLINE
5
16C
100
AcDbEntity
8
1
62
256
6
ByLayer
370
18
48
1
60
0
100
AcDbSpline
70
4
71
3
72
28
73
24
40
0
40
0
40
0
40
0
40
0.062500000000002
40
0.062500000000002
40
0.125000000000004
40
0.125000000000004
40
0.250000000000006
40
0.250000000000006
40
0.312500000000007
40
0.312500000000007
40
0.375000000000009
40
0.375000000000009
40
0.500000000000008
40
0.500000000000008
40
0.625000000000007
40
0.625000000000007
40
0.750000000000006
40
0.750000000000006
40
0.875000000000005
40
0.875000000000005
40
0.937500000000003
40
0.937500000000003
40
1
40
1
40
1
40
1
41
1
10
100.842505334719
20
1.73021704066178
30
0
41
1
10
100.822120808923
20
1.63137028167961
30
0
41
1
10
100.799455631092
20
1.53656886173314
30
0
41
1
10
100.749331256251
20
1.35546948164327
30
0
41
1
10
100.722106285008
20
1.27006563779997
30
0
41
1
10
100.634414777117
20
1.03044958442092
30
0
41
1
10
100.567795956776
20
0.892163473813326
30
0
41
1
10
100.455485833288
20
0.717303044506309
30
0
41
1
10
100.415978660678
20
0.664462285853006
30
0
41
1
10
100.332711441746
20
0.569967323304809
30
0
41
1
10
100.288731433119
20
0.528160997525589
30
0
41
1
10
100.152030419115
20
0.421576401102925
30
0
41
1
10
100.054777287611
20
0.375343463980073
30
0
41
1
10
99.848545808897
20
0.330443305982982
30
0
41
1
10
99.7395660701749
20
0.33178173006533
30
0
41
1
10
99.5097202201327
20
0.382678060114415
30
0
41
1
10
99.3915274513119
20
0.431669996443162
30
0
41
1
10
99.1497352042302
20
0.572990180507645
30
0
41
1
10
99.0260232752583
20
0.665362899597511
30
0
41
1
10
98.8363280555745
20
0.835747719506259
30
0
41
1
10
98.7723864954054
20
0.89791502679364
30
0
41
1
10
98.6444175301405
20
1.03150751980712
30
0
41
1
10
98.5802300893903
20
1.10306814446176
30
0
41
1
10
98.5158442425725
20
1.17928628931909
30
0
0
SPLINE
5
16D
100
AcDbEntity
8
1
62
256
6
ByLayer
370
18
48
1
60
0
100
AcDbSpline
70
4
71
1
72
4
73
2
40
0
40
0
40
1
40
1
41
1
10
28.8836079263203
20
6.26363398497065
30
0
41
1
10
28.7281122224898
20
5.81354577312655
30
0
0
SPLINE
5
16E
100
AcDbEntity
8
1
62
256
6
ByLayer
370
18
48
1
60
0
100
AcDbSpline
70
4
71
3
72
8
73
4
40
0
40
0
40
0
40
0
40
1
40
1
40
1
40
1
41
1
10
83.4069504905434
20
9.66227273375631
30
0
41
1
10
83.4681736759076
20
9.81721216352065
30
0
41
1
10
83.5389106879808
20
9.96607198508872
30
0
41
1
10
83.619073218139
20
10.1089835825826
30
0
0
SPLINE
5
16F
100
AcDbEntity
8
1
62
256
6
ByLayer
370
18
48
1
60
0
100
AcDbSpline
70
4
71
3
72
16
73
12
40
0
40
0
40
0
40
0
40
0.314899655745622
40
0.314899655745622
40
0.629799311491244
40
0.629799311491244
40
0.78724913936405
40
0.78724913936405
40
0.944698967236856
40
0.944698967236856
40
1
40
1
40
1
40
1
41
1
10
83.4069504905452
20
9.66227273375412
30
0
41
1
10
83.2708132686229
20
9.31774600897057
30
0
41
1
10
83.1288759965857
20
8.98257278232757
30
0
41
1
10
82.8351756196251
20
8.32988696164097
30
0
41
1
10
82.6833635839506
20
8.01238480936084
30
0
41
1
10
82.4504572059275
20
7.54917872371581
30
0
41
1
10
82.371877199076
20
7.39680979764239
30
0
41
1
10
82.2163853298175
20
7.10150234370659
30
0
41
1
10
82.139146581799
20
6.95790144737302
30
0
41
1
10
82.0361003755826
20
6.76920487489974
30
0
41
1
10
82.0094335863852
20
6.72064107106757
30
0
41
1
10
81.9829119213586
20
6.67256284326669
30
0
0
SPLINE
5
170
100
AcDbEntity
8
1
62
256
6
ByLayer
370
18
48
1
60
0
100
AcDbSpline
70
4
71
3
72
28
73
24
40
0
40
0
40
0
40
0
40
0.124999999999998
40
0.124999999999998
40
0.187499999999997
40
0.187499999999997
40
0.249999999999997
40
0.249999999999997
40
0.374999999999996
40
0.374999999999996
40
0.437499999999996
40
0.437499999999996
40
0.499999999999996
40
0.499999999999996
40
0.624999999999996
40
0.624999999999996
40
0.687499999999997
40
0.687499999999997
40
0.749999999999997
40
0.749999999999997
40
0.874999999999999
40
0.874999999999999
40
1
40
1
40
1
40
1
41
1
10
81.2699501086919
20
-9.99036147540886
30
0
41
1
10
79.0820640299315
20
-9.5854167032544
30
0
41
1
10
76.8978464315156
20
-9.11474168011557
30
0
41
1
10
73.6196596298771
20
-8.320692954848
30
0
41
1
10
72.5271204090019
20
-8.04154085563522
30
0
41
1
10
70.3451169659398
20
-7.45864472639676
30
0
41
1
10
69.2550380460491
20
-7.15476708541627
30
0
41
1
10
65.9853154285184
20
-6.21111402993097
30
0
41
1
10
63.8061681330704
20
-5.5393676485827
30
0
41
1
10
60.5318830527529
20
-4.48448644256243
30
0
41
1
10
59.4391064944428
20
-4.12482219727394
30
0
41
1
10
57.2525466637997
20
-3.39303716503136
30
0
41
1
10
56.1605004709288
20
-3.02152421291666
30
0
41
1
10
52.8864753743757
20
-1.89457561186663
30
0
41
1
10
50.7066710559482
20
-1.12653311910998
30
0
41
1
10
47.433450801909
20
0.0284282715649624
30
0
41
1
10
46.341790382522
20
0.413887057458481
30
0
41
1
10
44.1563984807074
20
1.18317726388116
30
0
41
1
10
43.0623308415086
20
1.56712143142758
30
0
41
1
10
39.7860453606013
20
2.708670239062
30
0
41
1
10
37.6063130493017
20
3.45698593018014
30
0
41
1
10
33.2468632502308
20
4.90331275126689
30
0
41
1
10
31.0671324787638
20
5.6013396649594
30
0
41
1
10
28.8836079263203
20
6.26363398497065
30
0
0
SPLINE
5
171
100
AcDbEntity
8
1
62
256
6
ByLayer
370
18
48
1
60
0
100
AcDbSpline
70
4
71
3
72
8
73
4
40
0
40
0
40
0
40
0
40
1
40
1
40
1
40
1
41
1
10
31.5000000000992
20
-9.68302390530096
30
0
41
1
10
31.500000000105
20
-9.87486934002155
30
0
41
1
10
31.5000000001108
20
-10.0667245950382
30
0
41
1
10
31.5000000001166
20
-10.2585896630027
30
0
0
SPLINE
5
172
100
AcDbEntity
8
1
62
256
6
ByLayer
370
18
48
1
60
0
100
AcDbSpline
70
4
71
3
72
12
73
8
40
0
40
0
40
0
40
0
40
0.219856779199612
40
0.219856779199612
40
0.804395353964204
40
0.804395353964204
40
1
40
1
40
1
40
1
41
1
10
82.6839636297408
20
10.3204840020079
30
0
41
1
10
82.6843451349071
20
10.3286622122599
30
0
41
1
10
82.6847314569553
20
10.3368400766959
30
0
41
1
10
82.6861625629825
20
10.3667593906721
30
0
41
1
10
82.6872366426936
20
10.3884988151216
30
0
41
1
10
82.6887159219536
20
10.4175099940168
30
0
41
1
10
82.6890906613964
20
10.4247836999718
30
0
41
1
10
82.6894692480741
20
10.4320571683259
30
0
0
SPLINE
5
173
100
AcDbEntity
8
1
62
256
6
ByLayer
370
13
48
1
60
0
100
AcDbSpline
70
4
71
3
72
8
73
4
40
0
40
0
40
0
40
0
40
1
40
1
40
1
40
1
41
1
10
106.724910754695
20
1.1905381574675
30
0
41
1
10
107.062417660381
20
1.16674155053605
30
0
41
1
10
107.399924566066
20
1.14294494360459
30
0
41
1
10
107.737431471752
20
1.11914833667316
30
0
0
SPLINE
5
174
100
AcDbEntity
8
1
62
256
6
ByLayer
370
18
48
1
60
0
100
AcDbSpline
70
4
71
3
72
8
73
4
40
0
40
0
40
0
40
0
40
1
40
1
40
1
40
1
41
1
10
93.0000000000001
20
-11.2056682085452
30
0
41
1
10
92.9683333333334
20
-11.2361140395136
30
0
41
1
10
92.9366666666667
20
-11.2665598704821
30
0
41
1
10
92.905
20
-11.2970057014505
30
0
0
SPLINE
5
175
100
AcDbEntity
8
1
62
256
6
ByLayer
370
18
48
1
60
0
100
AcDbSpline
70
4
71
3
72
8
73
4
40
0
40
0
40
0
40
0
40
1
40
1
40
1
40
1
41
1
10
83.6190732181389
20
10.1089835825827
30
0
41
1
10
83.4000286845023
20
10.2012242243591
30
0
41
1
10
83.1598810500172
20
10.2604069573082
30
0
41
1
10
82.9052160242157
20
10.2970449299429
30
0
0
SPLINE
5
176
100
AcDbEntity
8
1
62
256
6
ByLayer
370
13
48
1
60
0
100
AcDbSpline
70
4
71
3
72
8
73
4
40
0
40
0
40
0
40
0
40
1
40
1
40
1
40
1
41
1
10
104.61297134944
20
4.10892688534307
30
0
41
1
10
104.605732975271
20
4.10716270032904
30
0
41
1
10
104.598494642861
20
4.10539624871831
30
0
41
1
10
104.591256465946
20
4.10362755224463
30
0
0
SPLINE
5
177
100
AcDbEntity
8
1
62
256
6
ByLayer
370
18
48
1
60
0
100
AcDbSpline
70
4
71
3
72
8
73
4
40
0
40
0
40
0
40
0
40
1
40
1
40
1
40
1
41
1
10
92.8000000000001
20
3.18813823064193
30
0
41
1
10
92.8000000000001
20
3.31328449125158
30
0
41
1
10
92.8000000000001
20
3.44804694965458
30
0
41
1
10
92.8000000000001
20
3.59237523064192
30
0
0
SPLINE
5
178
100
AcDbEntity
8
1
62
256
6
ByLayer
370
18
48
1
60
0
100
AcDbSpline
70
4
71
3
72
8
73
4
40
0
40
0
40
0
40
0
40
1
40
1
40
1
40
1
41
1
10
94.0596194077713
20
-11.0035709216247
30
0
41
1
10
94.0729905308566
20
-10.998534536924
30
0
41
1
10
94.0869512023767
20
-10.9936869709769
30
0
41
1
10
94.1015116318449
20
-10.9890379043163
30
0
0
SPLINE
5
179
100
AcDbEntity
8
1
62
256
6
ByLayer
370
18
48
1
60
0
100
AcDbSpline
70
2053
71
3
72
39
73
35
40
0
40
0
40
0
40
0
40
0.0312174196638039
40
0.0623417988884471
40
0.0935332002231987
40
0.124830413530601
40
0.156003995689729
40
0.187390577942739
40
0.218632242767539
40
0.250018120695256
40
0.281391005604328
40
0.312667215458742
40
0.344062157636188
40
0.375253488160871
40
0.406535345446014
40
0.437713359122822
40
0.468938240619264
40
0.50016291873309
40
0.531270282224146
40
0.562419850842908
40
0.59367913187327
40
0.624821007795863
40
0.656168625006054
40
0.687399773358775
40
0.718751408742862
40
0.750126161620163
40
0.781402377296513
40
0.812823624831163
40
0.844057429538065
40
0.875378070223735
40
0.906619363097375
40
0.937744482864106
40
0.968971968698726
40
1
40
1
40
1
40
1
41
1
10
87.9600000000001
20
-6.30882405632105
30
0
41
1
10
88.1318194686459
20
-6.3088248974023
30
0
41
1
10
88.4749549337345
20
-6.33853298452044
30
0
41
1
10
88.9685178851958
20
-6.46889128210316
30
0
41
1
10
89.4219673995508
20
-6.67633677148729
30
0
41
1
10
89.8183635237147
20
-6.9483566509208
30
0
41
1
10
90.1441379726896
20
-7.27041277622754
30
0
41
1
10
90.3865288834032
20
-7.6255403559895
30
0
41
1
10
90.5365342448656
20
-7.99772574551088
30
0
41
1
10
90.5873233563036
20
-8.36921514311794
30
0
41
1
10
90.536419710115
20
-8.72436839442244
30
0
41
1
10
90.3862385038537
20
-9.04984723024518
30
0
41
1
10
90.1435145347373
20
-9.33516961601219
30
0
41
1
10
89.8175129724371
20
-9.57437885711485
30
0
41
1
10
89.4210069419833
20
-9.76306852454661
30
0
41
1
10
88.967117009643
20
-9.89936925527601
30
0
41
1
10
88.4729242938546
20
-9.98165440911674
30
0
41
1
10
87.9579256064665
20
-10.0089810057604
30
0
41
1
10
87.4434655884547
20
-9.9812031541675
30
0
41
1
10
86.9500499006389
20
-9.89871970134988
30
0
41
1
10
86.4970638542935
20
-9.76231094678985
30
0
41
1
10
86.1004753469973
20
-9.57319674260566
30
0
41
1
10
85.7753376116344
20
-9.33411056935518
30
0
41
1
10
85.5328839774058
20
-9.0483949164578
30
0
41
1
10
85.3831554704765
20
-8.72308567073125
30
0
41
1
10
85.332736886255
20
-8.3679445476975
30
0
41
1
10
85.3838485029864
20
-7.99617104893923
30
0
41
1
10
85.5341233598329
20
-7.62430340941307
30
0
41
1
10
85.777333458982
20
-7.2686637183788
30
0
41
1
10
86.1032542672268
20
-6.94696755226269
30
0
41
1
10
86.5001210382575
20
-6.6752197244048
30
0
41
1
10
86.9536502358044
20
-6.46809735342566
30
0
41
1
10
87.4465795172972
20
-6.33830686447408
30
0
41
1
10
87.7892229175657
20
-6.30882322034243
30
0
41
1
10
87.96
20
-6.30882405632105
30
0
0
SPLINE
5
17A
100
AcDbEntity
8
1
62
256
6
ByLayer
370
18
48
1
60
0
100
AcDbSpline
70
2053
71
3
72
39
73
35
40
0
40
0
40
0
40
0
40
0.0303275423883898
40
0.0624416618522526
40
0.0936280684505475
40
0.124895448984893
40
0.15620080151723
40
0.187378133080954
40
0.219463695461677
40
0.249874324790942
40
0.280283972600185
40
0.31239904581713
40
0.34357344626085
40
0.374905471735587
40
0.406073040362408
40
0.43739364030434
40
0.469530171228342
40
0.499836545293782
40
0.530226387467715
40
0.562472871111205
40
0.593712218158469
40
0.625020065185933
40
0.656196090108099
40
0.687534172044394
40
0.719617491351858
40
0.749981937912917
40
0.780332509269436
40
0.81240816544535
40
0.843737825149565
40
0.87489600865723
40
0.906219128133306
40
0.937471827374949
40
0.969663732140015
40
1
40
1
40
1
40
1
41
1
10
87.96
20
-6.32210090910862
30
0
41
1
10
87.7987723638081
20
-6.32210276332119
30
0
41
1
10
87.4668192683894
20
-6.35011787488875
30
0
41
1
10
86.988543543985
20
-6.47448196114905
30
0
41
1
10
86.5453034308204
20
-6.67666213575723
30
0
41
1
10
86.1606439448379
20
-6.93943626036179
30
0
41
1
10
85.8447049735973
20
-7.25032672971437
30
0
41
1
10
85.6070042865
20
-7.59657249563145
30
0
41
1
10
85.4623493941833
20
-7.9553239005505
30
0
41
1
10
85.414451708651
20
-8.31034693580847
30
0
41
1
10
85.4615768922653
20
-8.649158570808
30
0
41
1
10
85.6055588660836
20
-8.96252609178325
30
0
41
1
10
85.8427702162726
20
-9.23889317496432
30
0
41
1
10
86.1579496544793
20
-9.46775773780857
30
0
41
1
10
86.5423414961582
20
-9.64849287966649
30
0
41
1
10
86.9855205692186
20
-9.77982649548369
30
0
41
1
10
87.4643461121618
20
-9.85805213119474
30
0
41
1
10
87.9578092595992
20
-9.88311345671366
30
0
41
1
10
88.4519681245904
20
-9.85847716382929
30
0
41
1
10
88.9315712221575
20
-9.78049679756253
30
0
41
1
10
89.3757881049977
20
-9.64921476194448
30
0
41
1
10
89.7601007611723
20
-9.46888912032762
30
0
41
1
10
90.0761167125028
20
-9.23990631967024
30
0
41
1
10
90.3137026676284
20
-8.96380082360182
30
0
41
1
10
90.4580615362376
20
-8.65022216675698
30
0
41
1
10
90.5054951080865
20
-8.31202731663456
30
0
41
1
10
90.4582000003136
20
-7.95747796209435
30
0
41
1
10
90.3140500624456
20
-7.59838978889249
30
0
41
1
10
90.0767212465493
20
-7.25201592437091
30
0
41
1
10
89.7609253346032
20
-6.94077998310433
30
0
41
1
10
89.3767183540917
20
-6.6777414444775
30
0
41
1
10
88.9327147348424
20
-6.47486290955598
30
0
41
1
10
88.4536870255415
20
-6.35015340424721
30
0
41
1
10
88.1212740226463
20
-6.32209905436257
30
0
41
1
10
87.96
20
-6.32210090910862
30
0
0
SPLINE
5
17B
100
AcDbEntity
8
1
62
256
6
ByLayer
370
18
48
1
60
0
100
AcDbSpline
70
4
71
3
72
8
73
4
40
0
40
0
40
0
40
0
40
1
40
1
40
1
40
1
41
1
10
82.6839636297412
20
10.3204840020084
30
0
41
1
10
82.7588733461312
20
10.3152560618502
30
0
41
1
10
82.8326331018606
20
10.3074872398557
30
0
41
1
10
82.9052160242147
20
10.2970449299445
30
0
0
SPLINE
5
17C
100
AcDbEntity
8
1
62
256
6
ByLayer
370
18
48
1
60
0
100
AcDbSpline
70
4
71
3
72
18
73
14
40
0
40
0
40
0
40
0
40
0.249999999999997
40
0.249999999999997
40
0.374999999999997
40
0.374999999999997
40
0.499999999999998
40
0.499999999999998
40
0.624999999999998
40
0.624999999999998
40
0.749999999999999
40
0.749999999999999
40
1
40
1
40
1
40
1
41
1
10
107.737431471752
20
1.11914833667316
30
0
41
1
10
107.695487794993
20
1.30065025912953
30
0
41
1
10
107.644140419829
20
1.50366753906911
30
0
41
1
10
107.553562270541
20
1.83921163404543
30
0
41
1
10
107.521193765439
20
1.95585326963419
30
0
41
1
10
107.453240182876
20
2.19491252359646
30
0
41
1
10
107.417521003212
20
2.31782207041982
30
0
41
1
10
107.342697025476
20
2.57020865439066
30
0
41
1
10
107.303588571984
20
2.6996927823939
30
0
41
1
10
107.221991619391
20
2.96521771849484
30
0
41
1
10
107.179311121485
20
3.10185030915059
30
0
41
1
10
107.048243626635
20
3.51500131121597
30
0
41
1
10
106.956489826986
20
3.79601917995015
30
0
41
1
10
106.860431811461
20
4.08252998359231
30
0
0
SPLINE
5
17D
100
AcDbEntity
8
1
62
256
6
ByLayer
370
18
48
1
60
0
100
AcDbSpline
70
4
71
3
72
26
73
22
40
0
40
0
40
0
40
0
40
0.250000000000012
40
0.250000000000012
40
0.312500000000012
40
0.312500000000012
40
0.375000000000011
40
0.375000000000011
40
0.500000000000009
40
0.500000000000009
40
0.562500000000008
40
0.562500000000008
40
0.625000000000007
40
0.625000000000007
40
0.750000000000005
40
0.750000000000005
40
0.875000000000003
40
0.875000000000003
40
0.937500000000002
40
0.937500000000002
40
1
40
1
40
1
40
1
41
1
10
33.5481812982554
20
7.61417042025502
30
0
41
1
10
33.241848666047
20
7.72522952351801
30
0
41
1
10
32.9633204684808
20
7.86472979516452
30
0
41
1
10
32.648362711646
20
8.06842411151419
30
0
41
1
10
32.586857105698
20
8.11081233884019
30
0
41
1
10
32.4683579498058
20
8.19776466154903
30
0
41
1
10
32.4115479345941
20
8.24217125764875
30
0
41
1
10
32.248248675642
20
8.37790846995028
30
0
41
1
10
32.1488539481336
20
8.47174195975293
30
0
41
1
10
32.0139067120939
20
8.61671707715658
30
0
41
1
10
31.9712908761358
20
8.66575011146023
30
0
41
1
10
31.8908955826061
20
8.76514365244918
30
0
41
1
10
31.852990819549
20
8.81570443118949
30
0
41
1
10
31.7482986885172
20
8.967018659205
30
0
41
1
10
31.6900668652613
20
9.06779728764565
30
0
41
1
10
31.5961029827725
20
9.26841525574417
30
0
41
1
10
31.5603703136645
20
9.36825705527079
30
0
41
1
10
31.5242176341654
20
9.5169124488315
30
0
41
1
10
31.5151128336381
20
9.56626157148401
30
0
41
1
10
31.5030246236399
20
9.6633775481794
30
0
41
1
10
31.5000000105298
20
9.71129302252476
30
0
41
1
10
31.5000000105231
20
9.7585561064781
30
0
0
SPLINE
5
17E
100
AcDbEntity
8
1
62
256
6
ByLayer
370
18
48
1
60
0
100
AcDbSpline
70
4
71
1
72
4
73
2
40
0
40
0
40
1
40
1
41
1
10
101.313368507197
20
-9.58516731661794
30
0
41
1
10
101.190698494653
20
-9.63998720182801
30
0
0
SPLINE
5
17F
100
AcDbEntity
8
1
62
256
6
ByLayer
370
18
48
1
60
0
100
AcDbSpline
70
4
71
3
72
12
73
8
40
0
40
0
40
0
40
0
40
0.500000000000016
40
0.500000000000016
40
0.750000000000008
40
0.750000000000008
40
1
40
1
40
1
40
1
41
1
10
28.4
20
6.39980561325606
30
0
41
1
10
28.1812573869036
20
6.42985981273247
30
0
41
1
10
27.9613952738225
20
6.43788680395014
30
0
41
1
10
27.6299576823269
20
6.41892574918779
30
0
41
1
10
27.5191288337884
20
6.40736567138271
30
0
41
1
10
27.2972083150459
20
6.37344284969819
30
0
41
1
10
27.1880977361999
20
6.35138974981553
30
0
41
1
10
27.0807677359217
20
6.32440596695099
30
0
0
SPLINE
5
180
100
AcDbEntity
8
1
62
256
6
ByLayer
370
18
48
1
60
0
100
AcDbSpline
70
4
71
3
72
12
73
8
40
0
40
0
40
0
40
0
40
0.414497196951418
40
0.414497196951418
40
0.707248527957948
40
0.707248527957948
40
1
40
1
40
1
40
1
41
1
10
92.9999999990067
20
11.5131443111476
30
0
41
1
10
92.9867340615331
20
11.5271064506457
30
0
41
1
10
92.9734642079024
20
11.5410670936031
30
0
41
1
10
92.9508155062187
20
11.5648853677577
30
0
41
1
10
92.9414385974691
20
11.5747437348947
30
0
41
1
10
92.9226809401037
20
11.5944590360294
30
0
41
1
10
92.9133001903564
20
11.6043159712139
30
0
41
1
10
92.9039175370297
20
11.6141721992384
30
0
0
SPLINE
5
181
100
AcDbEntity
8
1
62
256
6
ByLayer
370
18
48
1
60
0
100
AcDbSpline
70
4
71
3
72
18
73
14
40
0
40
0
40
0
40
0
40
0.250000000000009
40
0.250000000000009
40
0.375000000000005
40
0.375000000000005
40
0.500000000000001
40
0.500000000000001
40
0.749999999999993
40
0.749999999999993
40
0.874999999999997
40
0.874999999999997
40
1
40
1
40
1
40
1
41
1
10
104.591256465946
20
4.1036275522446
30
0
41
1
10
104.364589153979
20
3.91731544190068
30
0
41
1
10
104.14230658937
20
3.73034425501146
30
0
41
1
10
103.819427712779
20
3.44561142908896
30
0
41
1
10
103.713374677568
20
3.35000134236967
30
0
41
1
10
103.507178595105
20
3.16016589491986
30
0
41
1
10
103.406685804777
20
3.06566857926009
30
0
41
1
10
103.113024636971
20
2.78369973700606
30
0
41
1
10
102.927799021992
20
2.5975845555958
30
0
41
1
10
102.665824953365
20
2.32334857510679
30
0
41
1
10
102.580915834273
20
2.23247455141382
30
0
41
1
10
102.417918377502
20
2.05388941625793
30
0
41
1
10
102.3400363511
20
1.9664210864708
30
0
41
1
10
102.265819316465
20
1.88084122293529
30
0
0
SPLINE
5
182
100
AcDbEntity
8
1
62
256
6
ByLayer
370
18
48
1
60
0
100
AcDbSpline
70
4
71
3
72
34
73
30
40
0
40
0
40
0
40
0
40
0.0230750168696904
40
0.0460031704613275
40
0.0687846450845177
40
0.0914196286327236
40
0.113908312671988
40
0.136250892532259
40
0.158447567401395
40
0.180498540421934
40
0.202404018790731
40
0.224164213861546
40
0.245779341250671
40
0.26724962094573
40
0.33484838927719
40
0.401462521834477
40
0.467099756775905
40
0.53176818315268
40
0.575605055925243
40
0.619178816060336
40
0.662492370948405
40
0.705548680694056
40
0.748350758776396
40
0.790901672691864
40
0.833204544577555
40
0.875262551812933
40
0.917078927597791
40
0.95865696150418
40
1
40
1
40
1
40
1
41
1
10
101.190698422147
20
-9.6399879097084
30
0
41
1
10
101.173925175086
20
-9.60727509696565
30
0
41
1
10
101.140485435991
20
-9.54205767548456
30
0
41
1
10
101.091089641922
20
-9.44190467033241
30
0
41
1
10
101.042457776429
20
-9.34050636802218
30
0
41
1
10
100.994632341279
20
-9.23772651326956
30
0
41
1
10
100.947602056998
20
-9.13366847447438
30
0
41
1
10
100.901369916874
20
-9.02837138853081
30
0
41
1
10
100.855935124363
20
-8.92189077060937
30
0
41
1
10
100.811297897438
20
-8.81427712332382
30
0
41
1
10
100.767458151986
20
-8.70558152790042
30
0
41
1
10
100.72441600561
20
-8.59585439198253
30
0
41
1
10
100.682171073209
20
-8.48514484966375
30
0
41
1
10
100.610949602033
20
-8.2933013616551
30
0
41
1
10
100.513377234393
20
-8.01514312092911
30
0
41
1
10
100.393424217841
20
-7.64259458095404
30
0
41
1
10
100.280619252023
20
-7.26101403873173
30
0
41
1
10
100.185776528764
20
-6.9114428003104
30
0
41
1
10
100.106720561326
20
-6.5977518926197
30
0
41
1
10
100.041441565458
20
-6.32246183174456
30
0
41
1
10
99.9792454348823
20
-6.04344113334116
30
0
41
1
10
99.9201329860406
20
-5.76096966906829
30
0
41
1
10
99.8641043696047
20
-5.47532623689742
30
0
41
1
10
99.8111582341135
20
-5.18678835653776
30
0
41
1
10
99.7612998399686
20
-4.8956238139242
30
0
41
1
10
99.7145097081572
20
-4.60212290759929
30
0
41
1
10
99.6708599670275
20
-4.30647747332296
30
0
41
1
10
99.6300837728985
20
-4.00922759123395
30
0
41
1
10
99.6054043910183
20
-3.80891874693776
30
0
41
1
10
99.5930996703295
20
-3.70904815890893
30
0
0
SPLINE
5
183
100
AcDbEntity
8
1
62
256
6
ByLayer
370
18
48
1
60
0
100
AcDbSpline
70
4
71
3
72
8
73
4
40
0
40
0
40
0
40
0
40
1
40
1
40
1
40
1
41
1
10
78.1391825109664
20
-7.09434253888844
30
0
41
1
10
78.4303415650191
20
-7.05504156173126
30
0
41
1
10
78.7367487034437
20
-7.03140137696224
30
0
41
1
10
79.0547548014625
20
-7.01967409167094
30
0
0
SPLINE
5
184
100
AcDbEntity
8
1
62
256
6
ByLayer
370
18
48
1
60
0
100
AcDbSpline
70
4
71
3
72
26
73
22
40
0
40
0
40
0
40
0
40
0.0669777731181002
40
0.0669777731181002
40
0.133622217895378
40
0.133622217895378
40
0.200266662672656
40
0.200266662672656
40
0.333555552227213
40
0.333555552227213
40
0.46684444178177
40
0.46684444178177
40
0.533488886559049
40
0.533488886559049
40
0.600133331336327
40
0.600133331336327
40
0.733422220890885
40
0.733422220890885
40
0.866711110445442
40
0.866711110445442
40
1
40
1
40
1
40
1
41
1
10
73.6544926142492
20
-8.33433446371134
30
0
41
1
10
72.7113526268877
20
-8.54795905518176
30
0
41
1
10
71.7681234626036
20
-8.75126568195148
30
0
41
1
10
69.8858004247252
20
-9.13574906705412
30
0
41
1
10
68.9462525804199
20
-9.31703827167814
30
0
41
1
10
67.0685701913276
20
-9.65719128210114
30
0
41
1
10
66.130590669139
20
-9.81604558618329
30
0
41
1
10
63.3185794791451
20
-10.2576443473913
30
0
41
1
10
61.446676740233
20
-10.5056159826173
30
0
41
1
10
57.7026443221818
20
-10.8986591938308
30
0
41
1
10
55.8304913110709
20
-11.0429837767769
30
0
41
1
10
53.0163600166677
20
-11.1767583332672
30
0
41
1
10
52.0782163179955
20
-11.2076180815988
30
0
41
1
10
50.204811002445
20
-11.2420616991573
30
0
41
1
10
49.2689344386129
20
-11.2456750887312
30
0
41
1
10
46.4626972898748
20
-11.2171358260619
30
0
41
1
10
44.593789711802
20
-11.1458121471445
30
0
41
1
10
40.8564823385408
20
-10.9018539284906
30
0
41
1
10
38.9881992519005
20
-10.7291770017931
30
0
41
1
10
35.2483807010539
20
-10.2821610098041
30
0
41
1
10
33.3768216560811
20
-10.0076004477935
30
0
41
1
10
31.5000000000992
20
-9.68302612945311
30
0
0
SPLINE
5
185
100
AcDbEntity
8
1
62
256
6
ByLayer
370
18
48
1
60
0
100
AcDbSpline
70
4
71
3
72
8
73
4
40
0
40
0
40
0
40
0
40
1
40
1
40
1
40
1
41
1
10
81.3238949874207
20
9.51465848683938
30
0
41
1
10
81.3056231856639
20
9.67421750421659
30
0
41
1
10
81.2876167416251
20
9.83277967585153
30
0
41
1
10
81.2699501086921
20
9.99036147540889
30
0
0
SPLINE
5
186
100
AcDbEntity
8
1
62
256
6
ByLayer
370
18
48
1
60
0
100
AcDbSpline
70
4
71
1
72
4
73
2
40
0
40
0
40
1
40
1
41
1
10
99.6979322782875
20
-3.6398557659351
30
0
41
1
10
99.7000868597397
20
-3.70023570327822
30
0
0
SPLINE
5
187
100
AcDbEntity
8
1
62
256
6
ByLayer
370
18
48
1
60
0
100
AcDbSpline
70
4
71
3
72
12
73
8
40
0
40
0
40
0
40
0
40
0.0750696200074562
40
0.0750696200074562
40
0.537534810003728
40
0.537534810003728
40
1
40
1
40
1
40
1
41
1
10
98.5321169069023
20
11.9877754245499
30
0
41
1
10
98.6732712244827
20
11.9882682736439
30
0
41
1
10
98.8144409912022
20
11.9882134816971
30
0
41
1
10
99.8255141569121
20
11.9839078712041
30
0
41
1
10
100.695781314492
20
11.9595532852465
30
0
41
1
10
102.436790269529
20
11.869267828631
30
0
41
1
10
103.307144979198
20
11.8030276157273
30
0
41
1
10
104.180015161794
20
11.7164790552944
30
0
0
LINE
5
70
100
AcDbEntity
8
81
62
256
6
ByLayer
370
18
48
1
60
0
100
AcDbLine
10
93
20
0
30
0
11
98
21
0
31
0
39
0
210
0
220
0
230
1
0
LINE
5
71
100
AcDbEntity
8
1
62
256
6
ByLayer
370
18
48
1
60
0
100
AcDbLine
10
0.2
20
20
30
0
11
0
21
19.8
31
0
39
0
210
0
220
0
230
1
0
LINE
5
73
100
AcDbEntity
8
1
62
256
6
ByLayer
370
18
48
1
60
0
100
AcDbLine
10
0
20
-19.8
30
0
11
0.2
21
-20
31
0
39
0
210
0
220
0
230
1
0
LINE
5
74
100
AcDbEntity
8
1
62
256
6
ByLayer
370
18
48
1
60
0
100
AcDbLine
10
7.1233
20
20
30
0
11
0.2
21
20
31
0
39
0
210
0
220
0
230
1
0
LINE
5
75
100
AcDbEntity
8
1
62
256
6
ByLayer
370
18
48
1
60
0
100
AcDbLine
10
0.2
20
-20
30
0
11
7.1233
21
-20
31
0
39
0
210
0
220
0
230
1
0
LINE
5
76
100
AcDbEntity
8
SK1
62
256
6
ByLayer
370
18
48
1
60
0
100
AcDbLine
10
-1.6
20
-15.996
30
0
11
-1.144243
21
-15.783477
31
0
39
0
210
0
220
0
230
1
0
LINE
5
78
100
AcDbEntity
8
SK1
62
256
6
ByLayer
370
18
48
1
60
0
100
AcDbLine
10
-1.144243
20
15.783477
30
0
11
-1.6
21
15.996
31
0
39
0
210
0
220
0
230
1
0
LINE
5
79
100
AcDbEntity
8
SK1
62
256
6
ByLayer
370
18
48
1
60
0
100
AcDbLine
10
-59
20
15.996
30
0
11
-60
21
14.996
31
0
39
0
210
0
220
0
230
1
0
LINE
5
7A
100
AcDbEntity
8
SK1
62
256
6
ByLayer
370
18
48
1
60
0
100
AcDbLine
10
-60
20
-14.996
30
0
11
-59
21
-15.996
31
0
39
0
210
0
220
0
230
1
0
LINE
5
7B
100
AcDbEntity
8
SK1
62
256
6
ByLayer
370
18
48
1
60
0
100
AcDbLine
10
-57.3
20
15.996
30
0
11
-57.426311
21
15.887988
31
0
39
0
210
0
220
0
230
1
0
LINE
5
7C
100
AcDbEntity
8
SK1
62
256
6
ByLayer
370
18
48
1
60
0
100
AcDbLine
10
-57.426311
20
-15.887988
30
0
11
-57.3
21
-15.996
31
0
39
0
210
0
220
0
230
1
0
LINE
5
7D
100
AcDbEntity
8
SK1
62
256
6
ByLayer
370
18
48
1
60
0
100
AcDbLine
10
-58.6
20
-15.996
30
0
11
-58.449692
21
-15.874283
31
0
39
0
210
0
220
0
230
1
0
LINE
5
7E
100
AcDbEntity
8
SK1
62
256
6
ByLayer
370
18
48
1
60
0
100
AcDbLine
10
-58.449692
20
15.874283
30
0
11
-58.6
21
15.996
31
0
39
0
210
0
220
0
230
1
0
LINE
5
7F
100
AcDbEntity
8
SK1
62
256
6
ByLayer
370
18
48
1
60
0
100
AcDbLine
10
-58.6
20
15.996
30
0
11
-59
21
15.996
31
0
39
0
210
0
220
0
230
1
0
LINE
5
80
100
AcDbEntity
8
SK1
62
256
6
ByLayer
370
18
48
1
60
0
100
AcDbLine
10
-59
20
-15.996
30
0
11
-58.6
21
-15.996
31
0
39
0
210
0
220
0
230
1
0
LINE
5
81
100
AcDbEntity
8
SK1
62
256
6
ByLayer
370
18
48
1
60
0
100
AcDbLine
10
-0.975195
20
-15.746
30
0
11
-0.15
21
-15.746
31
0
39
0
210
0
220
0
230
1
0
LINE
5
82
100
AcDbEntity
8
SK1
62
256
6
ByLayer
370
18
48
1
60
0
100
AcDbLine
10
-0.15
20
15.746
30
0
11
-0.975195
21
15.746
31
0
39
0
210
0
220
0
230
1
0
LINE
5
83
100
AcDbEntity
8
1
62
256
6
ByLayer
370
18
48
1
60
0
100
AcDbLine
10
31.5
20
11.75
30
0
11
28.4
21
11.75
31
0
39
0
210
0
220
0
230
1
0
LINE
5
84
100
AcDbEntity
8
1
62
256
6
ByLayer
370
18
48
1
60
0
100
AcDbLine
10
22.241381
20
12.487933
30
0
11
22.153105
21
12.534916
31
0
39
0
210
0
220
0
230
1
0
LINE
5
85
100
AcDbEntity
8
1
62
256
6
ByLayer
370
18
48
1
60
0
100
AcDbLine
10
22.153105
20
-12.534916
30
0
11
22.241381
21
-12.487933
31
0
39
0
210
0
220
0
230
1
0
LINE
5
86
100
AcDbEntity
8
1
62
256
6
ByLayer
370
18
48
1
60
0
100
AcDbLine
10
28.4
20
-11.75
30
0
11
31.5
21
-11.75
31
0
39
0
210
0
220
0
230
1
0
LINE
5
87
100
AcDbEntity
8
1
62
256
6
ByLayer
370
18
48
1
60
0
100
AcDbLine
10
98.569549
20
-11.75825
30
0
11
103.874279
21
-11.75825
31
0
39
0
210
0
220
0
230
1
0
LINE
5
88
100
AcDbEntity
8
1
62
256
6
ByLayer
370
18
48
1
60
0
100
AcDbLine
10
28.4
20
11.75
30
0
11
26
21
11.55
31
0
39
0
210
0
220
0
230
1
0
LINE
5
89
100
AcDbEntity
8
1
62
256
6
ByLayer
370
18
48
1
60
0
100
AcDbLine
10
98.531626
20
11.987776
30
0
11
96.220427
21
11.979687
31
0
39
0
210
0
220
0
230
1
0
LINE
5
8A
100
AcDbEntity
8
1
62
256
6
ByLayer
370
18
48
1
60
0
100
AcDbLine
10
96.220427
20
-11.979687
30
0
11
98.531626
21
-11.987776
31
0
39
0
210
0
220
0
230
1
0
LINE
5
8B
100
AcDbEntity
8
1
62
256
6
ByLayer
370
18
48
1
60
0
100
AcDbLine
10
26
20
-11.55
30
0
11
28.4
21
-11.75
31
0
39
0
210
0
220
0
230
1
0
LINE
5
8C
100
AcDbEntity
8
SK1
62
256
6
ByLayer
370
18
48
1
60
0
100
AcDbLine
10
-1.6
20
15.996
30
0
11
-57.3
21
15.996
31
0
39
0
210
0
220
0
230
1
0
LINE
5
8D
100
AcDbEntity
8
SK1
62
256
6
ByLayer
370
18
48
1
60
0
100
AcDbLine
10
-57.3
20
-15.996
30
0
11
-1.6
21
-15.996
31
0
39
0
210
0
220
0
230
1
0
LINE
5
8E
100
AcDbEntity
8
80
62
256
6
ByLayer
370
18
48
1
60
0
100
AcDbLine
10
0
20
0
30
0
11
-5
21
0
31
0
39
0
210
0
220
0
230
1
0
LINE
5
8F
100
AcDbEntity
8
4
62
256
6
ByLayer
370
18
48
0.05
60
0
100
AcDbLine
10
93
20
0
30
0
11
0
21
0
31
0
39
0
210
0
220
0
230
1
0
LINE
5
91
100
AcDbEntity
8
SK4
62
256
6
ByLayer
370
18
48
0.05
60
0
100
AcDbLine
10
113
20
0
30
0
11
-65
21
0
31
0
39
0
210
0
220
0
230
1
0
LINE
5
93
100
AcDbEntity
8
SK1
62
256
6
ByLayer
370
18
48
1
60
0
100
AcDbLine
10
-53.5
20
-8.082178
30
0
11
-6.5
21
-8.082178
31
0
39
0
210
0
220
0
230
1
0
LINE
5
94
100
AcDbEntity
8
SK1
62
256
6
ByLayer
370
18
48
1
60
0
100
AcDbLine
10
-60
20
0
30
0
11
-60
21
-14.996
31
0
39
0
210
0
220
0
230
1
0
LINE
5
95
100
AcDbEntity
8
SK1
62
256
6
ByLayer
370
18
48
1
60
0
100
AcDbLine
10
-60
20
14.996
30
0
11
-60
21
0
31
0
39
0
210
0
220
0
230
1
0
LINE
5
96
100
AcDbEntity
8
SK1
62
256
6
ByLayer
370
13
48
1
60
0
100
AcDbLine
10
-53.5
20
8.082178
30
0
11
-53.5
21
-8.082178
31
0
39
0
210
0
220
0
230
1
0
LINE
5
97
100
AcDbEntity
8
SK1
62
256
6
ByLayer
370
13
48
1
60
0
100
AcDbLine
10
-6.5
20
-8.082178
30
0
11
-6.5
21
8.082178
31
0
39
0
210
0
220
0
230
1
0
LINE
5
98
100
AcDbEntity
8
SK1
62
256
6
ByLayer
370
18
48
1
60
0
100
AcDbLine
10
-57.3
20
0
30
0
11
-57.3
21
-15.996
31
0
39
0
210
0
220
0
230
1
0
LINE
5
99
100
AcDbEntity
8
SK1
62
256
6
ByLayer
370
18
48
1
60
0
100
AcDbLine
10
-57.3
20
15.996
30
0
11
-57.3
21
0
31
0
39
0
210
0
220
0
230
1
0
LINE
5
9A
100
AcDbEntity
8
SK1
62
256
6
ByLayer
370
18
48
1
60
0
100
AcDbLine
10
-6.5
20
8.082178
30
0
11
-53.5
21
8.082178
31
0
39
0
210
0
220
0
230
1
0
LINE
5
9B
100
AcDbEntity
8
SK1
62
256
6
ByLayer
370
18
48
1
60
0
100
AcDbLine
10
-58.6
20
-15.996
30
0
11
-58.6
21
15.996
31
0
39
0
210
0
220
0
230
1
0
LINE
5
9C
100
AcDbEntity
8
SK1
62
256
6
ByLayer
370
13
48
1
60
0
100
AcDbLine
10
-0.975195
20
15.746
30
0
11
-0.975195
21
-15.746
31
0
39
0
210
0
220
0
230
1
0
LINE
5
9D
100
AcDbEntity
8
SK1
62
256
6
ByLayer
370
18
48
1
60
0
100
AcDbLine
10
-1.6
20
-15.996
30
0
11
-1.6
21
0
31
0
39
0
210
0
220
0
230
1
0
LINE
5
9E
100
AcDbEntity
8
SK1
62
256
6
ByLayer
370
18
48
1
60
0
100
AcDbLine
10
-1.6
20
0
30
0
11
-1.6
21
15.996
31
0
39
0
210
0
220
0
230
1
0
LINE
5
9F
100
AcDbEntity
8
SK1
62
256
6
ByLayer
370
13
48
1
60
0
100
AcDbLine
10
-1.144243
20
0
30
0
11
-1.144243
21
-15.783477
31
0
39
0
210
0
220
0
230
1
0
LINE
5
A0
100
AcDbEntity
8
SK1
62
256
6
ByLayer
370
13
48
1
60
0
100
AcDbLine
10
-1.144243
20
15.783477
30
0
11
-1.144243
21
0
31
0
39
0
210
0
220
0
230
1
0
LINE
5
A1
100
AcDbEntity
8
SK1
62
256
6
ByLayer
370
13
48
1
60
0
100
AcDbLine
10
-58.449692
20
-15.874283
30
0
11
-58.449692
21
0
31
0
39
0
210
0
220
0
230
1
0
LINE
5
A2
100
AcDbEntity
8
SK1
62
256
6
ByLayer
370
13
48
1
60
0
100
AcDbLine
10
-58.449692
20
0
30
0
11
-58.449692
21
15.874283
31
0
39
0
210
0
220
0
230
1
0
LINE
5
A3
100
AcDbEntity
8
SK1
62
256
6
ByLayer
370
18
48
1
60
0
100
AcDbLine
10
-59
20
0
30
0
11
-59
21
-15.996
31
0
39
0
210
0
220
0
230
1
0
LINE
5
A4
100
AcDbEntity
8
SK1
62
256
6
ByLayer
370
18
48
1
60
0
100
AcDbLine
10
-59
20
15.996
30
0
11
-59
21
0
31
0
39
0
210
0
220
0
230
1
0
LINE
5
A5
100
AcDbEntity
8
SK1
62
256
6
ByLayer
370
13
48
1
60
0
100
AcDbLine
10
-0.15
20
0
30
0
11
-0.15
21
-15.746
31
0
39
0
210
0
220
0
230
1
0
LINE
5
A6
100
AcDbEntity
8
SK1
62
256
6
ByLayer
370
13
48
1
60
0
100
AcDbLine
10
-0.15
20
15.746
30
0
11
-0.15
21
0
31
0
39
0
210
0
220
0
230
1
0
LINE
5
A7
100
AcDbEntity
8
SK1
62
256
6
ByLayer
370
13
48
1
60
0
100
AcDbLine
10
-57.426311
20
-15.887988
30
0
11
-57.426311
21
0
31
0
39
0
210
0
220
0
230
1
0
LINE
5
A8
100
AcDbEntity
8
SK1
62
256
6
ByLayer
370
13
48
1
60
0
100
AcDbLine
10
-57.426311
20
0
30
0
11
-57.426311
21
15.887988
31
0
39
0
210
0
220
0
230
1
0
LINE
5
A9
100
AcDbEntity
8
1
62
256
6
ByLayer
370
13
48
1
60
0
100
AcDbLine
10
104.639452
20
4.11486
30
0
11
104.636042
21
4.130317
31
0
39
0
210
0
220
0
230
1
0
LINE
5
AA
100
AcDbEntity
8
1
62
256
6
ByLayer
370
18
48
1
60
0
100
AcDbLine
10
107.694522
20
-0.902165
30
0
11
108.005308
21
0.000285
31
0
39
0
210
0
220
0
230
1
0
LINE
5
AB
100
AcDbEntity
8
1
62
256
6
ByLayer
370
18
48
1
60
0
100
AcDbLine
10
93.729864
20
-11.914602
30
0
11
93.729864
21
-11.761086
31
0
39
0
210
0
220
0
230
1
0
LINE
5
AC
100
AcDbEntity
8
1
62
256
6
ByLayer
370
13
48
1
60
0
100
AcDbLine
10
22.241381
20
-12.487933
30
0
11
22.241381
21
-8.542237
31
0
39
0
210
0
220
0
230
1
0
LINE
5
AD
100
AcDbEntity
8
1
62
256
6
ByLayer
370
18
48
1
60
0
100
AcDbLine
10
93
20
-11.613463
30
0
11
93
21
-11.306472
31
0
39
0
210
0
220
0
230
1
0
LINE
5
AE
100
AcDbEntity
8
1
62
256
6
ByLayer
370
18
48
1
60
0
100
AcDbLine
10
101.605479
20
-10.931954
30
0
11
102.162286
21
-10.444104
31
0
39
0
210
0
220
0
230
1
0
LINE
5
AF
100
AcDbEntity
8
1
62
256
6
ByLayer
370
18
48
1
60
0
100
AcDbLine
10
99.697932
20
-3.6398
30
0
11
102.165684
21
-3.6398
31
0
39
0
210
0
220
0
230
1
0
LINE
5
B0
100
AcDbEntity
8
1
62
256
6
ByLayer
370
18
48
1
60
0
100
AcDbLine
10
94.101512
20
-10.989038
30
0
11
102.471721
21
-10.989038
31
0
39
0
210
0
220
0
230
1
0
LINE
5
B1
100
AcDbEntity
8
1
62
256
6
ByLayer
370
18
48
1
60
0
100
AcDbLine
10
94.101512
20
-10.989038
30
0
11
94.101512
21
-10.9265
31
0
39
0
210
0
220
0
230
1
0
LINE
5
B2
100
AcDbEntity
8
1
62
256
6
ByLayer
370
18
48
1
60
0
100
AcDbLine
10
106.860432
20
-4.08253
30
0
11
106.743145
21
-4.432361
31
0
39
0
210
0
220
0
230
1
0
LINE
5
B3
100
AcDbEntity
8
1
62
256
6
ByLayer
370
18
48
1
60
0
100
AcDbLine
10
93
20
-11.306472
30
0
11
93
21
-11.291639
31
0
39
0
210
0
220
0
230
1
0
LINE
5
B4
100
AcDbEntity
8
1
62
256
6
ByLayer
370
18
48
1
60
0
100
AcDbLine
10
107.912801
20
-0.360274
30
0
11
107.737431
21
-1.119148
31
0
39
0
210
0
220
0
230
1
0
LINE
5
B5
100
AcDbEntity
8
1
62
256
6
ByLayer
370
18
48
1
60
0
100
AcDbLine
10
26
20
-11.55
30
0
11
26
21
-8.94257
31
0
39
0
210
0
220
0
230
1
0
LINE
5
B6
100
AcDbEntity
8
1
62
256
6
ByLayer
370
18
48
1
60
0
100
AcDbLine
10
101.597735
20
-10.935343
30
0
11
101.605479
21
-10.931954
31
0
39
0
210
0
220
0
230
1
0
LINE
5
B7
100
AcDbEntity
8
1
62
256
6
ByLayer
370
18
48
1
60
0
100
AcDbLine
10
101.313366
20
-9.58517
30
0
11
102.165798
21
-10.437602
31
0
39
0
210
0
220
0
230
1
0
LINE
5
B8
100
AcDbEntity
8
1
62
256
6
ByLayer
370
18
48
1
60
0
100
AcDbLine
10
31.5
20
11.75
30
0
11
31.5
21
9.758556
31
0
39
0
210
0
220
0
230
1
0
LINE
5
B9
100
AcDbEntity
8
1
62
256
6
ByLayer
370
13
48
1
60
0
100
AcDbLine
10
106.67967
20
1.152115
30
0
11
107.93588
21
0.2741
31
0
39
0
210
0
220
0
230
1
0
LINE
5
BA
100
AcDbEntity
8
1
62
256
6
ByLayer
370
13
48
1
60
0
100
AcDbLine
10
107.912801
20
0.360274
30
0
11
106.724911
21
1.190538
31
0
39
0
210
0
220
0
230
1
0
LINE
5
BB
100
AcDbEntity
8
1
62
256
6
ByLayer
370
18
48
1
60
0
100
AcDbLine
10
108.005308
20
-0.000285
30
0
11
107.971588
21
-0.152254
31
0
39
0
210
0
220
0
230
1
0
LINE
5
BC
100
AcDbEntity
8
1
62
256
6
ByLayer
370
18
48
1
60
0
100
AcDbLine
10
102.162286
20
-10.444104
30
0
11
102.165798
21
-10.437602
31
0
39
0
210
0
220
0
230
1
0
LINE
5
BD
100
AcDbEntity
8
1
62
256
6
ByLayer
370
18
48
1
60
0
100
AcDbLine
10
104.435848
20
-5.398977
30
0
11
106.455118
21
-3.181764
31
0
39
0
210
0
220
0
230
1
0
LINE
5
BE
100
AcDbEntity
8
1
62
256
6
ByLayer
370
13
48
1
60
0
100
AcDbLine
10
93
20
-11.306472
30
0
11
93.145422
21
-11.357597
31
0
39
0
210
0
220
0
230
1
0
LINE
5
BF
100
AcDbEntity
8
1
62
256
6
ByLayer
370
18
48
1
60
0
100
AcDbLine
10
31.5
20
-10.25859
30
0
11
31.5
21
-11.75
31
0
39
0
210
0
220
0
230
1
0
LINE
5
C0
100
AcDbEntity
8
1
62
256
6
ByLayer
370
18
48
1
60
0
100
AcDbLine
10
103.956513
20
-11.756479
30
0
11
107.602716
21
-1.168751
31
0
39
0
210
0
220
0
230
1
0
LINE
5
C1
100
AcDbEntity
8
1
62
256
6
ByLayer
370
18
48
1
60
0
100
AcDbLine
10
93
20
3.15
30
0
11
93
21
3.311719
31
0
39
0
210
0
220
0
230
1
0
LINE
5
C2
100
AcDbEntity
8
1
62
256
6
ByLayer
370
18
48
1
60
0
100
AcDbLine
10
28.4
20
-9.676568
30
0
11
28.4
21
-11.75
31
0
39
0
210
0
220
0
230
1
0
LINE
5
C3
100
AcDbEntity
8
1
62
256
6
ByLayer
370
18
48
1
60
0
100
AcDbLine
10
93.145422
20
-11.495621
30
0
11
93.145422
21
-11.357597
31
0
39
0
210
0
220
0
230
1
0
LINE
5
C4
100
AcDbEntity
8
1
62
256
6
ByLayer
370
18
48
1
60
0
100
AcDbLine
10
102.165798
20
-10.437602
30
0
11
102.165798
21
-3.641198
31
0
39
0
210
0
220
0
230
1
0
LINE
5
C5
100
AcDbEntity
8
1
62
256
6
ByLayer
370
18
48
1
60
0
100
AcDbLine
10
26
20
6.359436
30
0
11
26
21
11.55
31
0
39
0
210
0
220
0
230
1
0
LINE
5
C6
100
AcDbEntity
8
1
62
256
6
ByLayer
370
18
48
1
60
0
100
AcDbLine
10
83.3
20
-4.902173
30
0
11
83.3
21
6.303821
31
0
39
0
210
0
220
0
230
1
0
LINE
5
C7
100
AcDbEntity
8
1
62
256
6
ByLayer
370
18
48
1
60
0
100
AcDbLine
10
92.905
20
-11.622457
30
0
11
92.905
21
-11.297006
31
0
39
0
210
0
220
0
230
1
0
LINE
5
C8
100
AcDbEntity
8
1
62
256
6
ByLayer
370
18
48
1
60
0
100
AcDbLine
10
94.277878
20
-10.935343
30
0
11
101.597735
21
-10.935343
31
0
39
0
210
0
220
0
230
1
0
LINE
5
C9
100
AcDbEntity
8
1
62
256
6
ByLayer
370
18
48
1
60
0
100
AcDbLine
10
102.165684
20
-3.6398
30
0
11
100.847707
21
1.7247
31
0
39
0
210
0
220
0
230
1
0
LINE
5
CA
100
AcDbEntity
8
1
62
256
6
ByLayer
370
18
48
1
60
0
100
AcDbLine
10
107.971588
20
0.152254
30
0
11
108.005308
21
0.000285
31
0
39
0
210
0
220
0
230
1
0
LINE
5
CB
100
AcDbEntity
8
1
62
256
6
ByLayer
370
18
48
1
60
0
100
AcDbLine
10
28.4
20
11.75
30
0
11
28.4
21
6.399806
31
0
39
0
210
0
220
0
230
1
0
LINE
5
CC
100
AcDbEntity
8
1
62
256
6
ByLayer
370
13
48
1
60
0
100
AcDbLine
10
22.241381
20
12.487933
30
0
11
22.241381
21
6.533329
31
0
39
0
210
0
220
0
230
1
0
LINE
5
CD
100
AcDbEntity
8
1
62
256
6
ByLayer
370
13
48
1
60
0
100
AcDbLine
10
22.153105
20
-12.534916
30
0
11
22.153105
21
-8.467617
31
0
39
0
210
0
220
0
230
1
0
LINE
5
CE
100
AcDbEntity
8
1
62
256
6
ByLayer
370
18
48
1
60
0
100
AcDbLine
10
108.005308
20
-0.000285
30
0
11
108.005308
21
0.000285
31
0
39
0
210
0
220
0
230
1
0
LINE
5
CF
100
AcDbEntity
8
1
62
256
6
ByLayer
370
18
48
1
60
0
100
AcDbLine
10
93
20
-11.205668
30
0
11
93
21
-11.239297
31
0
39
0
210
0
220
0
230
1
0
LINE
5
D0
100
AcDbEntity
8
1
62
256
6
ByLayer
370
18
48
1
60
0
100
AcDbLine
10
104.435848
20
-5.398977
30
0
11
104.411674
21
-5.334406
31
0
39
0
210
0
220
0
230
1
0
LINE
5
D1
100
AcDbEntity
8
1
62
256
6
ByLayer
370
13
48
1
60
0
100
AcDbLine
10
92.8
20
3.65
30
0
11
93.005013
21
3.65
31
0
39
0
210
0
220
0
230
1
0
LINE
5
D2
100
AcDbEntity
8
1
62
256
6
ByLayer
370
13
48
1
60
0
100
AcDbLine
10
79.574234
20
-7.123199
30
0
11
79.574234
21
-7.379874
31
0
39
0
210
0
220
0
230
1
0
LINE
5
D3
100
AcDbEntity
8
1
62
256
6
ByLayer
370
18
48
1
60
0
100
AcDbLine
10
106.860432
20
4.08253
30
0
11
106.743145
21
4.432361
31
0
39
0
210
0
220
0
230
1
0
LINE
5
D4
100
AcDbEntity
8
1
62
256
6
ByLayer
370
18
48
1
60
0
100
AcDbLine
10
107.912801
20
0.360274
30
0
11
107.737431
21
1.119148
31
0
39
0
210
0
220
0
230
1
0
LINE
5
D5
100
AcDbEntity
8
1
62
256
6
ByLayer
370
13
48
1
60
0
100
AcDbLine
10
22.153105
20
12.534916
30
0
11
22.153105
21
6.543957
31
0
39
0
210
0
220
0
230
1
0
LINE
5
D6
100
AcDbEntity
8
1
62
256
6
ByLayer
370
13
48
1
60
0
100
AcDbLine
10
94.059619
20
-10.924941
30
0
11
94.059619
21
-11.003571
31
0
39
0
210
0
220
0
230
1
0
LINE
5
D7
100
AcDbEntity
8
1
62
256
6
ByLayer
370
18
48
1
60
0
100
AcDbLine
10
93
20
-11.291639
30
0
11
93
21
-11.239297
31
0
39
0
210
0
220
0
230
1
0
LINE
5
D8
100
AcDbEntity
8
1
62
256
6
ByLayer
370
18
48
1
60
0
100
AcDbLine
10
0
20
19.8
30
0
11
0
21
-19.8
31
0
39
0
210
0
220
0
230
1
0
LINE
5
D9
100
AcDbEntity
8
1
62
256
6
ByLayer
370
18
48
1
60
0
100
AcDbLine
10
102.165798
20
-3.641198
30
0
11
102.165684
21
-3.6398
31
0
39
0
210
0
220
0
230
1
0
LINE
5
DA
100
AcDbEntity
8
1
62
256
6
ByLayer
370
18
48
1
60
0
100
AcDbLine
10
102.471721
20
-10.989038
30
0
11
104.435848
21
-5.398977
31
0
39
0
210
0
220
0
230
1
0
LINE
5
DB
100
AcDbEntity
8
1
62
256
6
ByLayer
370
13
48
1
60
0
100
AcDbLine
10
7.1233
20
0
30
0
11
7.1233
21
-20
31
0
39
0
210
0
220
0
230
1
0
LINE
5
DC
100
AcDbEntity
8
1
62
256
6
ByLayer
370
13
48
1
60
0
100
AcDbLine
10
7.1233
20
20
30
0
11
7.1233
21
0
31
0
39
0
210
0
220
0
230
1
0
LINE
5
DD
100
AcDbEntity
8
1
62
256
6
ByLayer
370
18
48
1
60
0
100
AcDbLine
10
0.2
20
0
30
0
11
0.2
21
-20
31
0
39
0
210
0
220
0
230
1
0
LINE
5
DE
100
AcDbEntity
8
1
62
256
6
ByLayer
370
18
48
1
60
0
100
AcDbLine
10
0.2
20
20
30
0
11
0.2
21
0
31
0
39
0
210
0
220
0
230
1
0
MTEXT
5
188
100
AcDbEntity
8
SK6
62
256
6
ByLayer
370
13
48
1
60
0
100
AcDbMText
10
4.107737
20
34.375134
30
0
210
0
220
0
230
1
1
\W0.7501;870-2400-24L32-3
40
3.5
41
0
44
1.084337
50
0
71
7
72
5
7
iso_b_vert
0
DIMENSION
5
196
100
AcDbEntity
8
2
62
256
6
ByLayer
370
13
48
1
60
0
100
AcDbDimension
2
DimnDraft3D1
10
26
20
-25
30
0
11
67
21
-25
31
0
70
32
71
5
72
1
41
1
210
0
220
0
230
1
3
Standard
100
AcDbAlignedDimension
13
108
23
-1.5875
33
0
14
26
24
-13.5875
34
0
50
0
100
AcDbRotatedDimension
1001
ACAD
1000
DSTYLE
1002
{
1070
   279
1070
     0
1070
   172
1070
     1
1070
   173
1070
     1
1070
   340
1005
189
1070
   271
1070
     1
1070
   272
1070
     2
1070
    77
1070
     1
1070
    73
1070
     0
1070
   171
1070
     3
1070
   274
1070
     4
1070
   177
1070
     7
1070
   176
1070
     7
1070
   178
1070
     7
1070
    48
1040
-0.005
1070
    41
1041
3.5
1070
   147
1041
1.5
1070
    42
1041
1.5875
1070
    44
1041
2.0
1070
   140
1041
3.0
1070
   343
1005
0
1070
   344
1005
0
1002
}
0
DIMENSION
5
1A0
100
AcDbEntity
8
2
62
256
6
ByLayer
370
13
48
1
60
0
100
AcDbDimension
2
DimnDraft3D2
10
28.9
20
19
30
0
11
68.45
21
19
31
0
70
32
71
5
72
1
41
1
210
0
220
0
230
1
3
Standard
100
AcDbAlignedDimension
13
108
23
1.5875
33
0
14
28.9
24
13.5875
34
0
50
0
100
AcDbRotatedDimension
1001
ACAD
1000
DSTYLE
1002
{
1070
   279
1070
     0
1070
   172
1070
     1
1070
   173
1070
     1
1070
   340
1005
189
1070
   271
1070
     1
1070
   272
1070
     2
1070
    77
1070
     1
1070
    73
1070
     0
1070
   171
1070
     3
1070
   274
1070
     4
1070
   177
1070
     7
1070
   176
1070
     7
1070
   178
1070
     7
1070
    48
1040
-0.005
1070
    41
1041
3.5
1070
   147
1041
1.5
1070
    42
1041
1.5875
1070
    44
1041
2.0
1070
   140
1041
3.0
1070
   343
1005
0
1070
   344
1005
0
1002
}
0
DIMENSION
5
1AB
100
AcDbEntity
8
SK2
62
256
6
ByLayer
370
13
48
1
60
0
100
AcDbDimension
2
DimnDraft3D3
10
0
20
-39
30
0
11
-30
21
-39
31
0
70
32
71
5
72
1
41
1
210
0
220
0
230
1
3
Standard
100
AcDbAlignedDimension
13
-60
23
-17.5875
33
0
14
0
24
-21.5875
34
0
50
0
100
AcDbRotatedDimension
1001
ACAD
1000
DSTYLE
1002
{
1070
   279
1070
     0
1070
   172
1070
     1
1070
   173
1070
     1
1070
   340
1005
189
1070
   271
1070
     1
1070
   272
1070
     2
1070
    77
1070
     1
1070
    73
1070
     0
1070
   171
1070
     3
1070
   274
1070
     4
1070
   177
1070
     7
1070
   176
1070
     7
1070
   178
1070
     7
1070
    48
1040
-0.005
1070
    41
1041
3.5
1070
   147
1041
1.5
1070
    42
1041
1.5875
1070
    44
1041
2.0
1070
   140
1041
3.0
1070
   343
1005
0
1070
   344
1005
0
1002
}
0
DIMENSION
5
1B5
100
AcDbEntity
8
2
62
256
6
ByLayer
370
13
48
1
60
0
100
AcDbDimension
2
DimnDraft3D4
10
108
20
-39
30
0
11
54
21
-39
31
0
70
32
71
5
72
1
41
1
210
0
220
0
230
1
3
Standard
100
AcDbAlignedDimension
13
0
23
-21.5875
33
0
14
108
24
-1.5875
34
0
50
0
100
AcDbRotatedDimension
1001
ACAD
1000
DSTYLE
1002
{
1070
   279
1070
     0
1070
   172
1070
     1
1070
   173
1070
     1
1070
   340
1005
189
1070
   271
1070
     1
1070
   272
1070
     2
1070
    77
1070
     1
1070
    73
1070
     0
1070
   171
1070
     3
1070
   274
1070
     4
1070
   177
1070
     7
1070
   176
1070
     7
1070
   178
1070
     7
1070
    48
1040
-0.005
1070
    41
1041
3.5
1070
   147
1041
1.5
1070
    42
1041
1.5875
1070
    44
1041
2.0
1070
   140
1041
3.0
1070
   343
1005
0
1070
   344
1005
0
1002
}
0
DIMENSION
5
1C0
100
AcDbEntity
8
SK2
62
256
6
ByLayer
370
13
48
1
60
0
100
AcDbDimension
2
DimnDraft3D5
10
-68.25
20
-16
30
0
11
-68.5
21
-0.520456
31
0
70
33
71
5
72
1
41
1
210
0
220
0
230
1
3
Standard
100
AcDbAlignedDimension
13
-61.5875
23
16
33
0
14
-61.5875
24
-16
34
0
1001
ACAD
1000
DSTYLE
1002
{
1070
   279
1070
     0
1070
    74
1070
     0
1070
   173
1070
     1
1070
   340
1005
189
1070
   271
1070
     1
1070
   272
1070
     2
1070
    77
1070
     1
1070
    73
1070
     0
1070
   171
1070
     3
1070
   274
1070
     4
1070
   177
1070
     7
1070
   176
1070
     7
1070
   178
1070
     7
1070
    48
1040
-0.005
1070
    41
1041
3.5
1070
   147
1041
1.5
1070
    42
1041
1.5875
1070
    44
1041
2.0
1070
   140
1041
3.0
1070
   343
1005
0
1070
   344
1005
0
1002
}
0
ENDSEC
0
SECTION
2
OBJECTS
0
DICTIONARY
5
22b
330
0
100
AcDbDictionary
280
0
281
1
3
ACAD_GROUP
350
22c
3
ACAD_MLINESTYLE
350
22d
0
DICTIONARY
5
22c
330
0
100
AcDbDictionary
280
0
281
1
0
DICTIONARY
5
22d
330
0
100
AcDbDictionary
280
0
281
1
3
Standard
350
18
0
MLINESTYLE
5
18
330
22d
100
AcDbMlineStyle
2
Standard
70
0
3

62
256
51
90
52
90
71
2
49
-0.5
62
256
6
ByLayer
49
0.5
62
256
6
ByLayer
0
RASTERVARIABLES
5
219
330

100
AcDbRasterVariables
90
0
70
1
71
1
72
1
0
ENDSEC
0
EOF
