0
SECTION
2
HEADER
9
$ACADVER
1
AC1015
9
$DWGCODEPAGE
3
ANSI_1252
9
$HANDSEED
5
22f
9
$ANGBASE
50
0
9
$ANGDIR
70
0
9
$ATTMODE
70
1
9
$AUNITS
70
0
9
$AUPREC
70
0
9
$CECOLOR
62
256
9
$CELTSCALE
40
1
9
$CELTYPE
6
ByLayer
9
$CELWEIGHT
370
18
9
$CLAYER
8
0
9
$CMLJUST
70
0
9
$CMLSCALE
40
1
9
$CMLSTYLE
2
Standard
9
$DIMSTYLE
2
Standard
9
$TEXTSIZE
40
0.2
9
$TEXTSTYLE
7
Standard
9
$LUNITS
70
2
9
$LUPREC
70
4
9
$EXTNAMES
290
1
9
$INSUNITS
70
4
9
$LTSCALE
40
1
9
$LWDISPLAY
290
1
9
$PDMODE
70
0
9
$PDSIZE
40
0
9
$PLINEGEN
70
0
0
ENDSEC
0
SECTION
2
CLASSES
0
CLASS
1
RASTERVARIABLES
2
AcDbRasterVariables
3
ISM
90
0
280
0
281
0
0
ENDSEC
0
SECTION
2
TABLES
0
TABLE
2
VPORT
5
225
100
AcDbSymbolTable
0
VPORT
5
1
100
AcDbSymbolTableRecord
100
AcDbViewportTableRecord
2
*Active
70
0
10
0
20
0
11
1
21
1
12
-1
22
1
13
0
23
0
14
0.5
24
0.5
15
10
25
10
16
0
26
0
36
1
17
0
27
0
37
0
0
ENDTAB
0
TABLE
2
LTYPE
5
226
100
AcDbSymbolTable
0
LTYPE
5
14
100
AcDbSymbolTableRecord
100
AcDbLinetypeTableRecord
70
0
2
ByBlock
3

72
65
73
0
40
0
0
LTYPE
5
15
100
AcDbSymbolTableRecord
100
AcDbLinetypeTableRecord
70
0
2
ByLayer
3

72
65
73
0
40
0
0
LTYPE
5
16
100
AcDbSymbolTableRecord
100
AcDbLinetypeTableRecord
70
0
2
CONTINUOUS
3
Solid line
72
65
73
0
40
0
0
LTYPE
5
6A
100
AcDbSymbolTableRecord
100
AcDbLinetypeTableRecord
70
0
2
CENTER
3
____ _ ____ _ ____ _ ____
72
65
73
4
40
47.5
49
22
74
0
49
-8.5
74
0
49
8.5
74
0
49
-8.5
74
0
0
LTYPE
5
6B
100
AcDbSymbolTableRecord
100
AcDbLinetypeTableRecord
70
0
2
DASHED
3
__ __ __ __ __ __ __ __ __
72
65
73
2
40
25.72
49
12.86
74
0
49
-12.86
74
0
0
ENDTAB
0
TABLE
2
LAYER
5
227
100
AcDbSymbolTable
0
LAYER
5
10
100
AcDbSymbolTableRecord
100
AcDbLayerTableRecord
2
0
70
0
62
7
6
CONTINUOUS
290
1
370
-3
390
0
0
LAYER
5
6D
100
AcDbSymbolTableRecord
100
AcDbLayerTableRecord
2
80
70
0
62
-6
6
CONTINUOUS
290
1
370
-3
390
0
0
LAYER
5
6F
100
AcDbSymbolTableRecord
100
AcDbLayerTableRecord
2
81
70
0
62
-3
6
CONTINUOUS
290
1
370
-3
390
0
0
LAYER
5
72
100
AcDbSymbolTableRecord
100
AcDbLayerTableRecord
2
1
70
0
62
4
6
CONTINUOUS
290
1
370
-3
390
0
0
LAYER
5
90
100
AcDbSymbolTableRecord
100
AcDbLayerTableRecord
2
4
70
0
62
-2
6
CENTER
290
1
370
-3
390
0
0
LAYER
5
185
100
AcDbSymbolTableRecord
100
AcDbLayerTableRecord
2
2
70
0
62
7
6
CONTINUOUS
290
1
370
-3
390
0
0
LAYER
5
211
100
AcDbSymbolTableRecord
100
AcDbLayerTableRecord
2
SK1
70
0
62
4
6
CONTINUOUS
290
1
370
-3
390
0
0
LAYER
5
212
100
AcDbSymbolTableRecord
100
AcDbLayerTableRecord
2
SK4
70
0
62
2
6
CENTER
290
1
370
-3
390
0
0
LAYER
5
213
100
AcDbSymbolTableRecord
100
AcDbLayerTableRecord
2
SK6
70
0
62
5
6
CONTINUOUS
290
1
370
-3
390
0
0
LAYER
5
214
100
AcDbSymbolTableRecord
100
AcDbLayerTableRecord
2
SK2
70
0
62
7
6
CONTINUOUS
290
1
370
-3
390
0
0
ENDTAB
0
TABLE
2
STYLE
5
228
100
AcDbSymbolTable
0
STYLE
5
11
100
AcDbSymbolTableRecord
100
AcDbTextStyleTableRecord
2
Standard
3
txt
70
0
71
0
40
0
41
1
42
0
50
0
0
STYLE
5
180
100
AcDbSymbolTableRecord
100
AcDbTextStyleTableRecord
2
iso_b_vert
3
simplex.shx
70
0
71
0
40
0
41
1
42
0
50
0
0
STYLE
5
181
100
AcDbSymbolTableRecord
100
AcDbTextStyleTableRecord
2
DWGDirectTextStyle
3
simplex
70
0
71
0
40
0
41
1
42
0
50
0
0
ENDTAB
0
TABLE
2
DIMSTYLE
5
229
100
AcDbSymbolTable
100
AcDbDimStyleTable
0
DIMSTYLE
105
27
100
AcDbSymbolTableRecord
100
AcDbDimStyleTableRecord
2
Standard
70
0
3
<>
41
0.18
42
0.0625
44
0.18
140
0.18
147
0.09
73
0
74
0
77
1
271
2
275
0
278
52
280
0
340
11
0
ENDTAB
0
TABLE
2
VIEW
5
22a
100
AcDbSymbolTable
0
ENDTAB
0
TABLE
2
UCS
5
22b
100
AcDbSymbolTable
0
ENDTAB
0
TABLE
2
APPID
5
22c
100
AcDbSymbolTable
0
APPID
5
12
100
AcDbSymbolTableRecord
100
AcDbRegAppTableRecord
2
ACAD
70
0
0
ENDTAB
0
TABLE
2
BLOCK_RECORD
5
22d
100
AcDbSymbolTable
0
BLOCK_RECORD
5
1F
100
AcDbSymbolTableRecord
100
AcDbBlockTableRecord
2
*Model_Space
340
0
70
0
0
BLOCK_RECORD
5
1B
100
AcDbSymbolTableRecord
100
AcDbBlockTableRecord
2
*Paper_Space
340
0
70
0
0
BLOCK_RECORD
5
23
100
AcDbSymbolTableRecord
100
AcDbBlockTableRecord
2
*Paper_Space0
340
0
70
0
0
BLOCK_RECORD
5
183
100
AcDbSymbolTableRecord
100
AcDbBlockTableRecord
2
DimnDraft3D1
340
0
70
0
0
BLOCK_RECORD
5
18E
100
AcDbSymbolTableRecord
100
AcDbBlockTableRecord
2
DimnDraft3D2
340
0
70
0
0
BLOCK_RECORD
5
198
100
AcDbSymbolTableRecord
100
AcDbBlockTableRecord
2
DimnDraft3D3
340
0
70
0
0
BLOCK_RECORD
5
1A3
100
AcDbSymbolTableRecord
100
AcDbBlockTableRecord
2
DimnDraft3D4
340
0
70
0
0
BLOCK_RECORD
5
1AD
100
AcDbSymbolTableRecord
100
AcDbBlockTableRecord
2
DimnDraft3D5
340
0
70
0
0
ENDTAB
0
ENDSEC
0
SECTION
2
BLOCKS
0
BLOCK
5
20
100
AcDbEntity
8
0
100
AcDbBlockBegin
2
*Model_Space
70
0
10
0
20
0
30
0
3
*Model_Space
0
ENDBLK
5
21
100
AcDbEntity
8
0
100
AcDbBlockEnd
0
BLOCK
5
1C
100
AcDbEntity
8
0
100
AcDbBlockBegin
2
*Paper_Space
70
0
10
0
20
0
30
0
3
*Paper_Space
0
ENDBLK
5
1D
100
AcDbEntity
8
0
100
AcDbBlockEnd
0
BLOCK
5
24
100
AcDbEntity
8
0
100
AcDbBlockBegin
2
*Paper_Space0
70
0
10
0
20
0
30
0
3
*Paper_Space0
0
ENDBLK
5
25
100
AcDbEntity
8
0
100
AcDbBlockEnd
0
BLOCK
5
18B
100
AcDbEntity
8
0
100
AcDbBlockBegin
2
DimnDraft3D1
70
0
10
0
20
0
30
0
3
DimnDraft3D1
0
MTEXT
5
184
100
AcDbEntity
8
2
62
256
6
ByLayer
370
13
48
1
60
0
100
AcDbMText
10
75.858515
20
-22.749886
30
0
210
0
220
0
230
1
1
\W0.6261;116.0
40
3
41
0
44
1.084337
50
0
71
7
72
5
7
iso_b_vert
0
LINE
5
186
100
AcDbEntity
8
2
62
256
6
ByLayer
370
13
48
1
60
0
100
AcDbLine
10
137
20
-1.5875
30
0
11
137
21
-25.5
31
0
39
0
210
0
220
0
230
1
0
LINE
5
187
100
AcDbEntity
8
2
62
256
6
ByLayer
370
13
48
1
60
0
100
AcDbLine
10
21
20
-12.0875
30
0
11
21
21
-25.5
31
0
39
0
210
0
220
0
230
1
0
LINE
5
188
100
AcDbEntity
8
2
62
256
6
ByLayer
370
13
48
1
60
0
100
AcDbLine
10
137
20
-23.5
30
0
11
21
21
-23.5
31
0
39
0
210
0
220
0
230
1
0
SOLID
5
189
100
AcDbEntity
8
2
62
256
6
ByLayer
370
13
48
1
60
0
100
AcDbTrace
10
137
20
-23.5
30
0
11
133.500002
21
-23.960784
31
0
12
133.499998
22
-23.039216
32
0
13
137
23
-23.5
33
0
39
0
210
0
220
0
230
1
0
SOLID
5
18A
100
AcDbEntity
8
2
62
256
6
ByLayer
370
13
48
1
60
0
100
AcDbTrace
10
21
20
-23.5
30
0
11
24.499998
21
-23.039216
31
0
12
24.500002
22
-23.960784
32
0
13
21
23
-23.5
33
0
39
0
210
0
220
0
230
1
0
ENDBLK
5
18C
100
AcDbEntity
8
0
100
AcDbBlockEnd
0
BLOCK
5
195
100
AcDbEntity
8
0
100
AcDbBlockBegin
2
DimnDraft3D2
70
0
10
0
20
0
30
0
3
DimnDraft3D2
0
MTEXT
5
18F
100
AcDbEntity
8
2
62
256
6
ByLayer
370
13
48
1
60
0
100
AcDbMText
10
77.108515
20
18.250114
30
0
210
0
220
0
230
1
1
\W0.6261;113.5
40
3
41
0
44
1.084337
50
0
71
7
72
5
7
iso_b_vert
0
LINE
5
190
100
AcDbEntity
8
2
62
256
6
ByLayer
370
13
48
1
60
0
100
AcDbLine
10
137
20
1.5875
30
0
11
137
21
19.5
31
0
39
0
210
0
220
0
230
1
0
LINE
5
191
100
AcDbEntity
8
2
62
256
6
ByLayer
370
13
48
1
60
0
100
AcDbLine
10
23.5
20
12.0875
30
0
11
23.5
21
19.5
31
0
39
0
210
0
220
0
230
1
0
LINE
5
192
100
AcDbEntity
8
2
62
256
6
ByLayer
370
13
48
1
60
0
100
AcDbLine
10
137
20
17.5
30
0
11
23.5
21
17.5
31
0
39
0
210
0
220
0
230
1
0
SOLID
5
193
100
AcDbEntity
8
2
62
256
6
ByLayer
370
13
48
1
60
0
100
AcDbTrace
10
137
20
17.5
30
0
11
133.500002
21
17.039216
31
0
12
133.499998
22
17.960784
32
0
13
137
23
17.5
33
0
39
0
210
0
220
0
230
1
0
SOLID
5
194
100
AcDbEntity
8
2
62
256
6
ByLayer
370
13
48
1
60
0
100
AcDbTrace
10
23.5
20
17.5
30
0
11
26.999998
21
17.960784
31
0
12
27.000002
22
17.039216
32
0
13
23.5
23
17.5
33
0
39
0
210
0
220
0
230
1
0
ENDBLK
5
196
100
AcDbEntity
8
0
100
AcDbBlockEnd
0
BLOCK
5
1A0
100
AcDbEntity
8
0
100
AcDbBlockBegin
2
DimnDraft3D3
70
0
10
0
20
0
30
0
3
DimnDraft3D3
0
MTEXT
5
199
100
AcDbEntity
8
SK2
62
256
6
ByLayer
370
13
48
1
60
0
100
AcDbMText
10
-30.770456
20
-34.749886
30
0
210
0
220
0
230
1
1
\W0.7346;56.0
40
3
41
0
44
1.084337
50
0
71
7
72
5
7
iso_b_vert
0
LINE
5
19B
100
AcDbEntity
8
SK2
62
256
6
ByLayer
370
13
48
1
60
0
100
AcDbLine
10
-56
20
-14.0875
30
0
11
-56
21
-37.5
31
0
39
0
210
0
220
0
230
1
0
LINE
5
19C
100
AcDbEntity
8
SK2
62
256
6
ByLayer
370
13
48
1
60
0
100
AcDbLine
10
0
20
-17.5875
30
0
11
0
21
-37.5
31
0
39
0
210
0
220
0
230
1
0
LINE
5
19D
100
AcDbEntity
8
SK2
62
256
6
ByLayer
370
13
48
1
60
0
100
AcDbLine
10
-56
20
-35.5
30
0
11
0
21
-35.5
31
0
39
0
210
0
220
0
230
1
0
SOLID
5
19E
100
AcDbEntity
8
SK2
62
256
6
ByLayer
370
13
48
1
60
0
100
AcDbTrace
10
-56
20
-35.5
30
0
11
-52.500002
21
-35.039216
31
0
12
-52.499998
22
-35.960784
32
0
13
-56
23
-35.5
33
0
39
0
210
0
220
0
230
1
0
SOLID
5
19F
100
AcDbEntity
8
SK2
62
256
6
ByLayer
370
13
48
1
60
0
100
AcDbTrace
10
0
20
-35.5
30
0
11
-3.499998
21
-35.960784
31
0
12
-3.500002
22
-35.039216
32
0
13
0
23
-35.5
33
0
39
0
210
0
220
0
230
1
0
ENDBLK
5
1A1
100
AcDbEntity
8
0
100
AcDbBlockEnd
0
BLOCK
5
1AA
100
AcDbEntity
8
0
100
AcDbBlockBegin
2
DimnDraft3D4
70
0
10
0
20
0
30
0
3
DimnDraft3D4
0
MTEXT
5
1A4
100
AcDbEntity
8
2
62
256
6
ByLayer
370
13
48
1
60
0
100
AcDbMText
10
64.983572
20
-34.749886
30
0
210
0
220
0
230
1
1
\W0.6864;137.0
40
3
41
0
44
1.084337
50
0
71
7
72
5
7
iso_b_vert
0
LINE
5
1A5
100
AcDbEntity
8
2
62
256
6
ByLayer
370
13
48
1
60
0
100
AcDbLine
10
0
20
-17.5875
30
0
11
0
21
-37.5
31
0
39
0
210
0
220
0
230
1
0
LINE
5
1A6
100
AcDbEntity
8
2
62
256
6
ByLayer
370
13
48
1
60
0
100
AcDbLine
10
137
20
-1.5875
30
0
11
137
21
-37.5
31
0
39
0
210
0
220
0
230
1
0
LINE
5
1A7
100
AcDbEntity
8
2
62
256
6
ByLayer
370
13
48
1
60
0
100
AcDbLine
10
0
20
-35.5
30
0
11
137
21
-35.5
31
0
39
0
210
0
220
0
230
1
0
SOLID
5
1A8
100
AcDbEntity
8
2
62
256
6
ByLayer
370
13
48
1
60
0
100
AcDbTrace
10
0
20
-35.5
30
0
11
3.499998
21
-35.039216
31
0
12
3.500002
22
-35.960784
32
0
13
0
23
-35.5
33
0
39
0
210
0
220
0
230
1
0
SOLID
5
1A9
100
AcDbEntity
8
2
62
256
6
ByLayer
370
13
48
1
60
0
100
AcDbTrace
10
137
20
-35.5
30
0
11
133.500002
21
-35.960784
31
0
12
133.499998
22
-35.039216
32
0
13
137
23
-35.5
33
0
39
0
210
0
220
0
230
1
0
ENDBLK
5
1AB
100
AcDbEntity
8
0
100
AcDbBlockEnd
0
BLOCK
5
1B5
100
AcDbEntity
8
0
100
AcDbBlockBegin
2
DimnDraft3D5
70
0
10
0
20
0
30
0
3
DimnDraft3D5
0
MTEXT
5
1AE
100
AcDbEntity
8
SK2
62
256
6
ByLayer
370
13
48
1
60
0
100
AcDbMText
10
-63.750114
20
0.229544
30
0
210
0
220
0
230
1
1
\W0.7346;25.0
40
3
41
0
44
1.084337
50
90
71
7
72
5
7
iso_b_vert
0
MTEXT
5
1AF
100
AcDbEntity
8
SK2
62
256
6
ByLayer
370
13
48
1
60
0
100
AcDbMText
10
-63.750114
20
-4.247019
30
0
210
0
220
0
230
1
1
%%c
40
3
41
0
44
1.084337
50
90
71
7
72
5
7
iso_b_vert
0
LINE
5
1B0
100
AcDbEntity
8
SK2
62
256
6
ByLayer
370
13
48
1
60
0
100
AcDbLine
10
-57.5875
20
12.5
30
0
11
-64.25
21
12.5
31
0
39
0
210
0
220
0
230
1
0
LINE
5
1B1
100
AcDbEntity
8
SK2
62
256
6
ByLayer
370
13
48
1
60
0
100
AcDbLine
10
-57.5875
20
-12.5
30
0
11
-64.25
21
-12.5
31
0
39
0
210
0
220
0
230
1
0
LINE
5
1B2
100
AcDbEntity
8
SK2
62
256
6
ByLayer
370
13
48
1
60
0
100
AcDbLine
10
-62.25
20
12.5
30
0
11
-62.25
21
-12.5
31
0
39
0
210
0
220
0
230
1
0
SOLID
5
1B3
100
AcDbEntity
8
SK2
62
256
6
ByLayer
370
13
48
1
60
0
100
AcDbTrace
10
-62.25
20
12.5
30
0
11
-61.789216
21
9.000002
31
0
12
-62.710784
22
8.999998
32
0
13
-62.25
23
12.5
33
0
39
0
210
0
220
0
230
1
0
SOLID
5
1B4
100
AcDbEntity
8
SK2
62
256
6
ByLayer
370
13
48
1
60
0
100
AcDbTrace
10
-62.25
20
-12.5
30
0
11
-62.710784
21
-9.000002
31
0
12
-61.789216
22
-8.999998
32
0
13
-62.25
23
-12.5
33
0
39
0
210
0
220
0
230
1
0
ENDBLK
5
1B6
100
AcDbEntity
8
0
100
AcDbBlockEnd
0
ENDSEC
0
SECTION
2
ENTITIES
0
ARC
5
DC
100
AcDbEntity
8
SK1
62
256
6
ByLayer
370
18
48
1
60
0
100
AcDbCircle
39
0
10
53.946236
20
-12.99675
30
0
40
0.799999999999998
210
0
220
0
230
-1
100
AcDbArc
50
51
51
130.534532
0
ARC
5
DD
100
AcDbEntity
8
SK1
62
256
6
ByLayer
370
18
48
1
60
0
100
AcDbCircle
39
0
10
53.946236
20
12.99675
30
0
40
0.799999999999998
210
0
220
0
230
-1
100
AcDbArc
50
229.465468
51
309
0
ARC
5
DE
100
AcDbEntity
8
SK1
62
256
6
ByLayer
370
18
48
1
60
0
100
AcDbCircle
39
0
10
0.975195
20
12.64675
30
0
40
0.4
210
0
220
0
230
-1
100
AcDbArc
50
270
51
295
0
ARC
5
DF
100
AcDbEntity
8
SK1
62
256
6
ByLayer
370
18
48
1
60
0
100
AcDbCircle
39
0
10
0.975195
20
-12.64675
30
0
40
0.4
210
0
220
0
230
-1
100
AcDbArc
50
65
51
90
0
ARC
5
E0
100
AcDbEntity
8
1
62
256
6
ByLayer
370
18
48
1
60
0
100
AcDbCircle
39
0
10
-21
20
-18.05
30
0
40
8
210
0
220
0
230
-1
100
AcDbArc
50
62.114553
51
90
0
ARC
5
E1
100
AcDbEntity
8
1
62
256
6
ByLayer
370
18
48
1
60
0
100
AcDbCircle
39
0
10
-21
20
18.05
30
0
40
8
210
0
220
0
230
-1
100
AcDbArc
50
270
51
297.885447
0
ARC
5
E2
100
AcDbEntity
8
SK1
62
256
6
ByLayer
370
18
48
1
60
0
100
AcDbCircle
39
0
10
0.15
20
12.64675
30
0
40
0.4
210
0
220
0
230
-1
100
AcDbArc
50
247.975687
51
270
0
ARC
5
E3
100
AcDbEntity
8
SK1
62
256
6
ByLayer
370
18
48
1
60
0
100
AcDbCircle
39
0
10
0.15
20
-12.64675
30
0
40
0.4
210
0
220
0
230
-1
100
AcDbArc
50
90
51
112.024313
0
ELLIPSE
5
E4
100
AcDbEntity
8
1
62
256
6
ByLayer
370
18
48
1
60
0
100
AcDbEllipse
10
137.005308
20
0
30
0
11
3.57079390323059
21
10.2545447230943
31
0
210
0
220
0
230
1
40
0.077207
41
-3.09737179148493
42
-2.89301110435819
0
ELLIPSE
5
E5
100
AcDbEntity
8
1
62
256
6
ByLayer
370
18
48
1
60
0
100
AcDbEllipse
10
111.5
20
10.495313
30
0
11
-0.270364384080703
21
-6.99477684417599
31
0
210
0
220
0
230
1
40
0.340086
41
1.23520752395522
42
1.23640221617035
0
ELLIPSE
5
E6
100
AcDbEntity
8
1
62
256
6
ByLayer
370
13
48
1
60
0
100
AcDbEllipse
10
22.1
20
1.210449
30
0
11
-1.38673069136631
21
-6.86126650040811
31
0
210
0
220
0
230
1
40
0.022864
41
0.371012931835049
42
2.58018960255154
0
ELLIPSE
5
E7
100
AcDbEntity
8
1
62
256
6
ByLayer
370
18
48
1
60
0
100
AcDbEllipse
10
120.965
20
0
30
0
11
3.32673672897268
21
-9.70384043948726
31
0
210
0
220
0
230
1
40
1
41
-0.0370851917382258
42
0.0381700240767662
0
ELLIPSE
5
E8
100
AcDbEntity
8
1
62
256
6
ByLayer
370
18
48
1
60
0
100
AcDbEllipse
10
136.956726
20
-0.231275
30
0
11
0.0446240259150823
21
0.146773164698406
31
0
210
0
220
0
230
1
40
0.05855
41
1.74694157481527
42
2.43183944732512
0
ELLIPSE
5
E9
100
AcDbEntity
8
1
62
256
6
ByLayer
370
18
48
1
60
0
100
AcDbEllipse
10
137.009989
20
-0.012735
30
0
11
3.66168454316486
21
-10.5155620391835
31
0
210
0
220
0
230
1
40
0.077207
41
2.79570715002978
42
2.8953290366084
0
ELLIPSE
5
EA
100
AcDbEntity
8
1
62
256
6
ByLayer
370
13
48
1
60
0
100
AcDbEllipse
10
134.052051
20
3.610291
30
0
11
-0.092808952759391
21
-0.0202854205700827
31
0
210
0
220
0
230
1
40
0.128956
41
-1.68827161228073
42
-1.40068300212492
0
ELLIPSE
5
EB
100
AcDbEntity
8
1
62
256
6
ByLayer
370
18
48
1
60
0
100
AcDbEllipse
10
120.24
20
-4.485764
30
0
11
-2.02000000000001
21
2.47370483472121E-16
31
0
210
0
220
0
230
1
40
0.702153
41
1.19007439284724
42
1.9474926249142
0
ELLIPSE
5
EC
100
AcDbEntity
8
1
62
256
6
ByLayer
370
18
48
1
60
0
100
AcDbEllipse
10
22.759142
20
4.223303
30
0
11
2.99873704408127
21
16.2949699906749
31
0
210
0
220
0
230
1
40
0.005237
41
-1.39840386770019
42
-1.37343646671363
0
ELLIPSE
5
ED
100
AcDbEntity
8
1
62
256
6
ByLayer
370
13
48
1
60
0
100
AcDbEllipse
10
111.5
20
10.495313
30
0
11
-0.270364384080703
21
-6.99477684417599
31
0
210
0
220
0
230
1
40
0.340086
41
0.906730488491251
42
1.23520752395522
0
ELLIPSE
5
EE
100
AcDbEntity
8
1
62
256
6
ByLayer
370
13
48
1
60
0
100
AcDbEllipse
10
22.1
20
1.210449
30
0
11
0.797533494180215
21
6.95441876260416
31
0
210
0
220
0
230
1
40
0.702442
41
0.674623861583256
42
2.74679364602893
0
ELLIPSE
5
EF
100
AcDbEntity
8
1
62
256
6
ByLayer
370
18
48
1
60
0
100
AcDbEllipse
10
136.956726
20
0.231275
30
0
11
0.0446240259383416
21
-0.146773164765351
31
0
210
0
220
0
230
1
40
0.05855
41
-2.43183944730098
42
-1.74694157507315
0
ELLIPSE
5
F0
100
AcDbEntity
8
1
62
256
6
ByLayer
370
18
48
1
60
0
100
AcDbEllipse
10
114.428731
20
-82.769881
30
0
11
79.0803194186449
21
-0.30397520754094
31
0
210
0
220
0
230
1
40
0.929258
41
1.45393530987765
42
1.45558673472247
0
ELLIPSE
5
F1
100
AcDbEntity
8
1
62
256
6
ByLayer
370
18
48
1
60
0
100
AcDbEllipse
10
22.1
20
1.210449
30
0
11
-1.38673069136631
21
-6.86126650040811
31
0
210
0
220
0
230
1
40
0.022864
41
0.370691304764174
42
0.371012931835049
0
ELLIPSE
5
F2
100
AcDbEntity
8
1
62
256
6
ByLayer
370
18
48
1
60
0
100
AcDbEllipse
10
22.1
20
1.210449
30
0
11
-1.38673069136631
21
-6.86126650040811
31
0
210
0
220
0
230
1
40
0.022864
41
2.58018960255154
42
2.58056323864424
0
ELLIPSE
5
F3
100
AcDbEntity
8
1
62
256
6
ByLayer
370
18
48
1
60
0
100
AcDbEllipse
10
137.009989
20
0.012735
30
0
11
3.66168454316485
21
10.5155620391834
31
0
210
0
220
0
230
1
40
0.077207
41
-2.8953290366084
42
-2.79570715002979
0
ELLIPSE
5
F4
100
AcDbEntity
8
1
62
256
6
ByLayer
370
13
48
1
60
0
100
AcDbEllipse
10
134.05138
20
3.613348
30
0
11
-0.0927699273740721
21
-0.020463151639212
31
0
210
0
220
0
230
1
40
0.128734
41
-1.68851840497366
42
-1.40093146230184
0
ELLIPSE
5
F5
100
AcDbEntity
8
1
62
256
6
ByLayer
370
18
48
1
60
0
100
AcDbEllipse
10
21.405509
20
-2.299751
30
0
11
2.9990694050218
21
14.0794819794902
31
0
210
0
220
0
230
1
40
0.005259
41
-1.81776859485312
42
-1.77688151050643
0
ELLIPSE
5
F6
100
AcDbEntity
8
1
62
256
6
ByLayer
370
18
48
1
60
0
100
AcDbEllipse
10
137.005664
20
0
30
0
11
4.14828104286119
21
10.1551507920211
31
0
210
0
220
0
230
1
40
0.349717
41
2.91051145023693
42
-2.98235399207754
0
ELLIPSE
5
F7
100
AcDbEntity
8
1
62
256
6
ByLayer
370
18
48
1
60
0
100
AcDbEllipse
10
145.041448
20
0
30
0
11
13.8994806343978
21
9.4217402931658
31
0
210
0
220
0
230
1
40
0.290406
41
2.92172047273492
42
-3.1217402990143
0
ELLIPSE
5
F8
100
AcDbEntity
8
1
62
256
6
ByLayer
370
13
48
1
60
0
100
AcDbEllipse
10
135.89144
20
0.975846
30
0
11
-0.0544235218676438
21
-0.0778657836762856
31
0
210
0
220
0
230
1
40
0.550074
41
-2.35740612272535
42
-1.67250824115565
0
ELLIPSE
5
F9
100
AcDbEntity
8
1
62
256
6
ByLayer
370
18
48
1
60
0
100
AcDbEllipse
10
129.48847
20
-1.388546
30
0
11
0.447400218343053
21
-1.51118051014754
31
0
210
0
220
0
230
1
40
0.315672
41
0
42
6.28318530717959
0
ELLIPSE
5
FA
100
AcDbEntity
8
1
62
256
6
ByLayer
370
18
48
1
60
0
100
AcDbEllipse
10
112.650389
20
9.110043
30
0
11
2.74902155389997
21
9.26746323332148
31
0
210
0
220
0
230
1
40
0.129615
41
-1.64010375218067
42
-1.58149803230825
0
ELLIPSE
5
FB
100
AcDbEntity
8
1
62
256
6
ByLayer
370
13
48
1
60
0
100
AcDbEllipse
10
135.868603
20
0.991949
30
0
11
-0.0550692013186458
21
-0.0774104842132283
31
0
210
0
220
0
230
1
40
0.550653
41
-2.34868978087738
42
-1.66796169022498
0
POINT
5
6C
100
AcDbEntity
8
80
62
256
6
ByLayer
370
18
48
1
60
0
100
AcDbPoint
10
0
20
0
30
0
39
0
210
0
220
0
230
1
50
360
0
POINT
5
6E
100
AcDbEntity
8
81
62
256
6
ByLayer
370
18
48
1
60
0
100
AcDbPoint
10
123.8
20
0
30
0
39
0
210
0
220
0
230
1
50
360
0
SPLINE
5
FC
100
AcDbEntity
8
1
62
256
6
ByLayer
370
18
48
1
60
0
100
AcDbSpline
70
4
71
3
72
15
73
11
40
0
40
0
40
0
40
0
40
0.10842081693461
40
0.215205592854533
40
0.322932225475315
40
0.432872235170451
40
0.54528833827536
40
0.695532539603308
40
0.84764501300005
40
1
40
1
40
1
40
1
41
1
10
6.75550000000001
20
-16
30
0
41
1
10
7.18216351696225
20
-15.9970329141779
30
0
41
1
10
8.0166509442729
20
-15.926304472727
30
0
41
1
10
9.24183670631163
20
-15.6087095353692
30
0
41
1
10
10.4157894683531
20
-15.1332253300675
30
0
41
1
10
11.5567584115635
20
-14.5355373832398
30
0
41
1
10
12.7973525835733
20
-13.7796779540318
30
0
41
1
10
14.1445139882962
20
-12.8862063027257
30
0
41
1
10
15.6211349797015
20
-11.9049071060459
30
0
41
1
10
16.6490633405331
20
-11.3118639532561
30
0
41
1
10
17.1699689669623
20
-11.0256948894593
30
0
0
SPLINE
5
FD
100
AcDbEntity
8
1
62
256
6
ByLayer
370
18
48
1
60
0
100
AcDbSpline
70
4
71
3
72
14
73
10
40
0
40
0
40
0
40
0
40
0.193906906969759
40
0.386759654397189
40
0.575039045654985
40
0.682868094057696
40
0.788598147930517
40
0.893482965736449
40
1
40
1
40
1
40
1
41
1
10
17.1699689669623
20
11.0256948894593
30
0
41
1
10
16.5105860862541
20
11.3961725949902
30
0
41
1
10
15.2091722580254
20
12.1574408798572
30
0
41
1
10
13.3573249049933
20
13.4207349303421
30
0
41
1
10
11.7458367007214
20
14.4408086780926
30
0
41
1
10
10.3533155730449
20
15.1616777915193
30
0
41
1
10
9.19860862362631
20
15.6220722453282
30
0
41
1
10
7.9943754182201
20
15.9288938957891
30
0
41
1
10
7.17453994360912
20
15.9972253522908
30
0
41
1
10
6.75550000000001
20
16
30
0
0
SPLINE
5
FE
100
AcDbEntity
8
1
62
256
6
ByLayer
370
18
48
1
60
0
100
AcDbSpline
70
4
71
3
72
37
73
33
40
0
40
0
40
0
40
0
40
0.0310696564842214
40
0.070114484609695
40
0.104468648519249
40
0.134209831372739
40
0.159967740300353
40
0.182589497280101
40
0.201058098634064
40
0.217473258809439
40
0.235977966676895
40
0.257242053779377
40
0.281220210923785
40
0.352288486725773
40
0.418290797923432
40
0.48067220048103
40
0.531679916114534
40
0.584211318289199
40
0.639259538140197
40
0.697399233209646
40
0.727967729642493
40
0.758801598676819
40
0.784857803979538
40
0.805188042763139
40
0.814540408140537
40
0.827960042366734
40
0.845745224118454
40
0.86789295445024
40
0.894399015839959
40
0.925257670472608
40
0.96046130003282
40
1
40
1
40
1
40
1
41
1
10
71.626037929844
20
9.74726223428101
30
0
41
1
10
71.1522102062412
20
9.74736215534921
30
0
41
1
10
70.0820377032295
20
9.74740226969521
30
0
41
1
10
68.4840678571975
20
9.7458455660815
30
0
41
1
10
66.9041437708593
20
9.74550771928344
30
0
41
1
10
65.5283159454513
20
9.74730767432536
30
0
41
1
10
64.3369317959239
20
9.74920391403575
30
0
41
1
10
63.3157839092611
20
9.74946576523774
30
0
41
1
10
62.4370165160132
20
9.74920872508213
30
0
41
1
10
61.6204100602487
20
9.74864268167306
30
0
41
1
10
60.7600189177199
20
9.74801979979691
30
0
41
1
10
59.7836893395063
20
9.74737705745125
30
0
41
1
10
58.0026910722511
20
9.74632107595255
30
0
41
1
10
55.5364458151413
20
9.74444463996426
30
0
41
1
10
52.4818075288076
20
9.74241177608255
30
0
41
1
10
49.7344637638182
20
9.74116875277224
30
0
41
1
10
47.1934091965799
20
9.74060762437026
30
0
41
1
10
44.7646642212489
20
9.7406269830195
30
0
41
1
10
42.2266939376269
20
9.74124222292917
30
0
41
1
10
40.0250833470821
20
9.74225993355901
30
0
41
1
10
38.1943116965075
20
9.74334396775987
30
0
41
1
10
36.8548949230382
20
9.74422856923744
30
0
41
1
10
35.6722757969984
20
9.74505734467354
30
0
41
1
10
34.8186434299982
20
9.7456682670333
30
0
41
1
10
34.1585377351896
20
9.74614045059226
30
0
41
1
10
33.5374124119755
20
9.74658198670596
30
0
41
1
10
32.7203310334488
20
9.74715160243861
30
0
41
1
10
31.7028352800056
20
9.74782938697822
30
0
41
1
10
30.4851219420345
20
9.74856996109236
30
0
41
1
10
29.0674582008206
20
9.74928957070355
30
0
41
1
10
27.4501981845993
20
9.74986488219511
30
0
41
1
10
26.3055302594651
20
9.74997581159792
30
0
41
1
10
25.7000000001377
20
9.74996050920043
30
0
0
SPLINE
5
FF
100
AcDbEntity
8
1
62
256
6
ByLayer
370
18
48
1
60
0
100
AcDbSpline
70
4
71
2
72
6
73
3
40
0
40
0
40
0
40
1
40
1
40
1
41
1
10
70.7212771298882
20
-1.07173847420398
30
0
41
1
10
70.7881816550008
20
-1.08408935667467
30
0
41
1
10
70.8550849537088
20
-1.09734710525714
30
0
0
SPLINE
5
100
100
AcDbEntity
8
1
62
256
6
ByLayer
370
18
48
1
60
0
100
AcDbSpline
70
4
71
1
72
4
73
2
40
0
40
0
40
1
40
1
41
1
10
79.8834028120345
20
0.0010703093077495
30
0
41
1
10
79.8828836841845
20
0.0011696168160142
30
0
0
SPLINE
5
101
100
AcDbEntity
8
1
62
256
6
ByLayer
370
18
48
1
60
0
100
AcDbSpline
70
4
71
3
72
39
73
35
40
0
40
0
40
0
40
0
40
0.0395352185492407
40
0.0747357483983459
40
0.105591685898821
40
0.132095413406098
40
0.153910162625615
40
0.171505997644676
40
0.184880041345747
40
0.194219776772422
40
0.203407327624956
40
0.225483906110855
40
0.252903179536006
40
0.30603071960415
40
0.356192513850002
40
0.412882350239486
40
0.466908340695926
40
0.519282071401515
40
0.563387809269592
40
0.60926135017099
40
0.657143193635479
40
0.686635178425564
40
0.717107173244209
40
0.746836216436953
40
0.772343310551988
40
0.7896494931733
40
0.806564888791806
40
0.826239439753386
40
0.848690958158216
40
0.874040577674072
40
0.902676113019113
40
0.935284791841276
40
0.97192299539289
40
1
40
1
40
1
40
1
41
1
10
25.7000000001378
20
-9.74996050920043
30
0
41
1
10
26.3055302594647
20
-9.74997581159792
30
0
41
1
10
27.4501981845277
20
-9.74986488220136
30
0
41
1
10
29.0674582010288
20
-9.74928957068528
30
0
41
1
10
30.4851219413997
20
-9.74856996114775
30
0
41
1
10
31.6977651782432
20
-9.74783247028995
30
0
41
1
10
32.7073147613433
20
-9.74716037770722
30
0
41
1
10
33.5157697842864
20
-9.74659722200772
30
0
41
1
10
34.1331578762147
20
-9.7461585577872
30
0
41
1
10
34.6217659922834
20
-9.74580911796988
30
0
41
1
10
35.2436635797738
20
-9.74536405514584
30
0
41
1
10
36.1424714200974
20
-9.74472458992412
30
0
41
1
10
37.714273708894
20
-9.74364342626967
30
0
41
1
10
39.7162360446702
20
-9.74240794769946
30
0
41
1
10
42.166511928968
20
-9.74127533264823
30
0
41
1
10
44.6305488564194
20
-9.74063921785094
30
0
41
1
10
47.1284656520423
20
-9.74059584565194
30
0
41
1
10
49.4336400624501
20
-9.741097897038
30
0
41
1
10
51.6139521285369
20
-9.74200437246063
30
0
41
1
10
53.7254579428917
20
-9.74321524893119
30
0
41
1
10
55.6131587826293
20
-9.74454039955478
30
0
41
1
10
57.264871408902
20
-9.74575195689908
30
0
41
1
10
58.6384171889623
20
-9.74670276654447
30
0
41
1
10
59.9509505270449
20
-9.74747514400863
30
0
41
1
10
61.0621620517285
20
-9.74822990220295
30
0
41
1
10
61.9765887048641
20
-9.74890839572035
30
0
41
1
10
62.8005856973853
20
-9.74937262068264
30
0
41
1
10
63.7027227791147
20
-9.74942321608722
30
0
41
1
10
64.7331109992154
20
-9.7488009569343
30
0
41
1
10
65.8995203846256
20
-9.7465708663465
30
0
41
1
10
67.2264983111147
20
-9.74551074665305
30
0
41
1
10
68.7254863748647
20
-9.74603616662415
30
0
41
1
10
70.2140269451171
20
-9.74746402484811
30
0
41
1
10
71.2017958044555
20
-9.74739739815303
30
0
41
1
10
71.6300198378834
20
-9.74728465846118
30
0
0
SPLINE
5
102
100
AcDbEntity
8
SK1
62
256
6
ByLayer
370
18
48
1
60
0
100
AcDbSpline
70
4
71
3
72
64
73
60
40
0
40
0
40
0
40
0
40
0.03125
40
0.03125
40
0.046875
40
0.046875
40
0.0625000000000001
40
0.0625000000000001
40
0.09375
40
0.09375
40
0.109375
40
0.109375
40
0.125
40
0.125
40
0.15625
40
0.15625
40
0.171875
40
0.171875
40
0.1875
40
0.1875
40
0.25
40
0.25
40
0.28125
40
0.28125
40
0.3125
40
0.3125
40
0.375
40
0.375
40
0.4375
40
0.4375
40
0.5
40
0.5
40
0.5625
40
0.5625
40
0.59375
40
0.59375
40
0.625
40
0.625
40
0.6875
40
0.6875
40
0.75
40
0.75
40
0.78125
40
0.78125
40
0.8125
40
0.8125
40
0.84375
40
0.84375
40
0.875
40
0.875
40
0.90625
40
0.90625
40
0.9375
40
0.9375
40
0.953125
40
0.953125
40
0.96875
40
0.96875
40
1
40
1
40
1
40
1
41
1
10
-49.5
20
6.99849805315398
30
0
41
1
10
-49.6914655252153
20
6.99849805315398
30
0
41
1
10
-49.8781166320867
20
6.97840315241657
30
0
41
1
10
-50.1515121226476
20
6.92047351118782
30
0
41
1
10
-50.2415381169684
20
6.89648863827941
30
0
41
1
10
-50.4193933744761
20
6.83910391373095
30
0
41
1
10
-50.506273449733
20
6.80596321889971
30
0
41
1
10
-50.7575437595959
20
6.6955243056172
30
0
41
1
10
-50.9143053159318
20
6.60675869544858
30
0
41
1
10
-51.1354699071776
20
6.45287807307128
30
0
41
1
10
-51.2066091628289
20
6.39821944342236
30
0
41
1
10
-51.3419791187847
20
6.28444859172765
30
0
41
1
10
-51.4065709621074
20
6.22509096722015
30
0
41
1
10
-51.5920640683408
20
6.0401455182845
30
0
41
1
10
-51.7047260109742
20
5.90771355623363
30
0
41
1
10
-51.8600324594575
20
5.69675807949747
30
0
41
1
10
-51.9096203323737
20
5.62417904728929
30
0
41
1
10
-52.0034790406928
20
5.47684573321774
30
0
41
1
10
-52.0478850975221
20
5.40193398687597
30
0
41
1
10
-52.2587663604383
20
5.02158235872483
30
0
41
1
10
-52.392448507075
20
4.69897386034114
30
0
41
1
10
-52.5583785014858
20
4.19258700908645
30
0
41
1
10
-52.6079175184408
20
4.01941859873125
30
0
41
1
10
-52.6960282850572
20
3.67068641712225
30
0
41
1
10
-52.7347645974349
20
3.49474424866864
30
0
41
1
10
-52.8380677922781
20
2.96257506816934
30
0
41
1
10
-52.8899084836562
20
2.60203245520535
30
0
41
1
10
-52.9697422695269
20
1.87062537676033
30
0
41
1
10
-52.9976833044348
20
1.49946628375946
30
0
41
1
10
-53.0344727707065
20
0.748365027890884
30
0
41
1
10
-53.0430847983843
20
0.373612626984993
30
0
41
1
10
-53.0430728991595
20
-0.374371447837348
30
0
41
1
10
-53.0344422963174
20
-0.747602890379881
30
0
41
1
10
-53.0071789817881
20
-1.30628204449945
30
0
41
1
10
-52.9956735714348
20
-1.49231292021335
30
0
41
1
10
-52.967178918833
20
-1.86396822844924
30
0
41
1
10
-52.9501324014574
20
-2.05007278812627
30
0
41
1
10
-52.889851187572
20
-2.60297567152125
30
0
41
1
10
-52.837692077745
20
-2.96488095092602
30
0
41
1
10
-52.6998974284753
20
-3.67399084568154
30
0
41
1
10
-52.6144373344436
20
-4.02122114608875
30
0
41
1
10
-52.4481915887
20
-4.52899799146797
30
0
41
1
10
-52.3863996350795
20
-4.69567554573538
30
0
41
1
10
-52.2490807100299
20
-5.01874839515168
30
0
41
1
10
-52.173375931039
20
-5.17576732390657
30
0
41
1
10
-52.0046325127763
20
-5.47977116054182
30
0
41
1
10
-51.9114899210751
20
-5.62695060366965
30
0
41
1
10
-51.7037165721103
20
-5.9089960348042
30
0
41
1
10
-51.5908201246101
20
-6.0415187919846
30
0
41
1
10
-51.3435297220028
20
-6.28781175241014
30
0
41
1
10
-51.2090808500351
20
-6.40169909356393
30
0
41
1
10
-50.9136034156047
20
-6.60720933870761
30
0
41
1
10
-50.7568368831618
20
-6.69585312510191
30
0
41
1
10
-50.5062845360234
20
-6.80594926188147
30
0
41
1
10
-50.4201881150016
20
-6.83881764830417
30
0
41
1
10
-50.2423052361807
20
-6.89627071119148
30
0
41
1
10
-50.1517882506761
20
-6.92041108839561
30
0
41
1
10
-49.8778897514919
20
-6.97845904737764
30
0
41
1
10
-49.6911785405792
20
-6.99849805315398
30
0
41
1
10
-49.5
20
-6.99849805315398
30
0
0
SPLINE
5
103
100
AcDbEntity
8
SK1
62
256
6
ByLayer
370
18
48
1
60
0
100
AcDbSpline
70
4
71
3
72
64
73
60
40
0
40
0
40
0
40
0
40
0.0312499999999995
40
0.0312499999999995
40
0.0468749999999992
40
0.0468749999999992
40
0.062499999999999
40
0.062499999999999
40
0.0937499999999985
40
0.0937499999999985
40
0.109374999999998
40
0.109374999999998
40
0.124999999999998
40
0.124999999999998
40
0.156249999999997
40
0.156249999999997
40
0.171874999999997
40
0.171874999999997
40
0.187499999999997
40
0.187499999999997
40
0.249999999999997
40
0.249999999999997
40
0.281249999999998
40
0.281249999999998
40
0.312499999999998
40
0.312499999999998
40
0.374999999999998
40
0.374999999999998
40
0.437499999999999
40
0.437499999999999
40
0.499999999999999
40
0.499999999999999
40
0.562499999999999
40
0.562499999999999
40
0.59375
40
0.59375
40
0.625
40
0.625
40
0.6875
40
0.6875
40
0.750000000000001
40
0.750000000000001
40
0.781250000000001
40
0.781250000000001
40
0.812500000000001
40
0.812500000000001
40
0.843750000000001
40
0.843750000000001
40
0.875000000000001
40
0.875000000000001
40
0.906250000000001
40
0.906250000000001
40
0.937500000000001
40
0.937500000000001
40
0.953125
40
0.953125
40
0.96875
40
0.96875
40
1
40
1
40
1
40
1
41
1
10
-6.5
20
-6.99849805315398
30
0
41
1
10
-6.30853447478469
20
-6.99849805315398
30
0
41
1
10
-6.12188336791326
20
-6.97840315241657
30
0
41
1
10
-5.84848787735237
20
-6.92047351118779
30
0
41
1
10
-5.75846188303157
20
-6.89648863827941
30
0
41
1
10
-5.5806066255239
20
-6.83910391373092
30
0
41
1
10
-5.49372655026696
20
-6.80596321889971
30
0
41
1
10
-5.2424562404041
20
-6.69552430561717
30
0
41
1
10
-5.08569468406813
20
-6.60675869544858
30
0
41
1
10
-4.86453009282241
20
-6.45287807307128
30
0
41
1
10
-4.7933908371711
20
-6.39821944342236
30
0
41
1
10
-4.65802088121532
20
-6.28444859172765
30
0
41
1
10
-4.59342903789255
20
-6.22509096722015
30
0
41
1
10
-4.40793593165918
20
-6.04014551828448
30
0
41
1
10
-4.29527398902582
20
-5.90771355623363
30
0
41
1
10
-4.13996754054247
20
-5.69675807949747
30
0
41
1
10
-4.09037966762625
20
-5.62417904728929
30
0
41
1
10
-3.99652095930719
20
-5.47684573321774
30
0
41
1
10
-3.95211490247786
20
-5.40193398687597
30
0
41
1
10
-3.7412336395617
20
-5.02158235872483
30
0
41
1
10
-3.60755149292498
20
-4.69897386034114
30
0
41
1
10
-3.44162149851414
20
-4.19258700908645
30
0
41
1
10
-3.39208248155919
20
-4.01941859873125
30
0
41
1
10
-3.30397171494275
20
-3.67068641712225
30
0
41
1
10
-3.26523540256505
20
-3.49474424866864
30
0
41
1
10
-3.16193220772186
20
-2.96257506816934
30
0
41
1
10
-3.11009151634377
20
-2.60203245520535
30
0
41
1
10
-3.03025773047307
20
-1.87062537676033
30
0
41
1
10
-3.00231669556513
20
-1.49946628375946
30
0
41
1
10
-2.96552722929346
20
-0.748365027890884
30
0
41
1
10
-2.95691520161572
20
-0.373612626984993
30
0
41
1
10
-2.95692710084049
20
0.374371447837348
30
0
41
1
10
-2.96555770368255
20
0.747602890379881
30
0
41
1
10
-2.99282101821183
20
1.30628204449945
30
0
41
1
10
-3.00432642856521
20
1.49231292021335
30
0
41
1
10
-3.03282108116699
20
1.86396822844924
30
0
41
1
10
-3.04986759854256
20
2.05007278812627
30
0
41
1
10
-3.11014881242801
20
2.60297567152125
30
0
41
1
10
-3.16230792225497
20
2.96488095092602
30
0
41
1
10
-3.30010257152463
20
3.67399084568154
30
0
41
1
10
-3.38556266555634
20
4.02122114608875
30
0
41
1
10
-3.55180841129999
20
4.52899799146797
30
0
41
1
10
-3.61360036492047
20
4.69567554573538
30
0
41
1
10
-3.75091928997011
20
5.01874839515168
30
0
41
1
10
-3.82662406896094
20
5.17576732390657
30
0
41
1
10
-3.99536748722372
20
5.47977116054182
30
0
41
1
10
-4.08851007892491
20
5.62695060366963
30
0
41
1
10
-4.29628342788973
20
5.90899603480418
30
0
41
1
10
-4.40917987538984
20
6.0415187919846
30
0
41
1
10
-4.65647027799722
20
6.28781175241014
30
0
41
1
10
-4.79091914996494
20
6.40169909356391
30
0
41
1
10
-5.08639658439523
20
6.60720933870761
30
0
41
1
10
-5.24316311683816
20
6.69585312510191
30
0
41
1
10
-5.49371546397657
20
6.80594926188147
30
0
41
1
10
-5.57981188499843
20
6.83881764830417
30
0
41
1
10
-5.75769476381925
20
6.89627071119145
30
0
41
1
10
-5.84821174932387
20
6.92041108839561
30
0
41
1
10
-6.12211024850808
20
6.97845904737764
30
0
41
1
10
-6.30882145942076
20
6.99849805315398
30
0
41
1
10
-6.49999999999997
20
6.99849805315398
30
0
0
SPLINE
5
104
100
AcDbEntity
8
1
62
256
6
ByLayer
370
18
48
1
60
0
100
AcDbSpline
70
4
71
3
72
8
73
4
40
0
40
0
40
0
40
0
40
1
40
1
40
1
40
1
41
1
10
123.6
20
2.83692017371712
30
0
41
1
10
123.6
20
2.95355231548916
30
0
41
1
10
123.6
20
3.07999192412365
30
0
41
1
10
123.6
20
3.21617717371711
30
0
0
SPLINE
5
105
100
AcDbEntity
8
1
62
256
6
ByLayer
370
18
48
1
60
0
100
AcDbSpline
70
4
71
3
72
8
73
4
40
0
40
0
40
0
40
0
40
1
40
1
40
1
40
1
41
1
10
114.730404425785
20
8.85593895259888
30
0
41
1
10
114.721370574719
20
8.8885247656369
30
0
41
1
10
114.71198990227
20
8.92088888188647
30
0
41
1
10
114.702215800359
20
8.9530086506854
30
0
0
SPLINE
5
106
100
AcDbEntity
8
1
62
256
6
ByLayer
370
18
48
1
60
0
100
AcDbSpline
70
4
71
2
72
6
73
3
40
0
40
0
40
0
40
1
40
1
40
1
41
0.500000000222048
10
23.431382113462
20
7.40551047846432
30
0
41
0.499999999777952
10
23.4311023124949
20
7.40427510874891
30
0
41
0.500000000222048
10
23.4308224306251
20
7.40303928901385
30
0
0
SPLINE
5
107
100
AcDbEntity
8
1
62
256
6
ByLayer
370
18
48
1
60
0
100
AcDbSpline
70
4
71
3
72
19
73
15
40
0
40
0
40
0
40
0
40
0.194215602794381
40
0.194215602794381
40
0.242769503492977
40
0.26704645384228
40
0.26704645384228
40
0.291323404191583
40
0.291323404191583
40
0.388431205588795
40
0.388431205588795
40
0.776862411177634
40
0.776862411177634
40
1
40
1
40
1
40
1
41
1
10
113.826380668712
20
8.64650936652123
30
0
41
1
10
113.372864523391
20
8.56041463600008
30
0
41
1
10
112.919443797704
20
8.47118624248083
30
0
41
1
10
112.352746622733
20
8.35581846861345
30
0
41
1
10
112.182743443752
20
8.32092055637048
30
0
41
1
10
112.012748003582
20
8.28559375601088
30
0
41
1
10
111.899419277115
20
8.26194755755054
30
0
41
1
10
111.8428764854
20
8.24982413989557
30
0
41
1
10
111.557580596674
20
8.19436572289075
30
0
41
1
10
111.328700768966
20
8.15070381363245
30
0
41
1
10
110.181505377349
20
7.93556065428271
30
0
41
1
10
109.254866828476
20
7.77371656296179
30
0
41
1
10
107.787043857613
20
7.53051928427297
30
0
41
1
10
107.249485582945
20
7.4441983355288
30
0
41
1
10
106.710522555163
20
7.35993882997795
30
0
0
SPLINE
5
108
100
AcDbEntity
8
1
62
256
6
ByLayer
370
18
48
1
60
0
100
AcDbSpline
70
4
71
3
72
49
73
45
40
0
40
0
40
0
40
0
40
0.0156249999999942
40
0.0156249999999942
40
0.0195312499999928
40
0.0214843749999925
40
0.0214843749999925
40
0.0234374999999922
40
0.0234374999999922
40
0.0312499999999927
40
0.0312499999999927
40
0.0624999999999938
40
0.0624999999999938
40
0.093749999999995
40
0.093749999999995
40
0.109374999999995
40
0.109374999999995
40
0.113281249999996
40
0.113281249999996
40
0.117187499999996
40
0.117187499999996
40
0.124999999999996
40
0.124999999999996
40
0.249999999999999
40
0.249999999999999
40
0.3125
40
0.3125
40
0.375000000000001
40
0.375000000000001
40
0.500000000000003
40
0.500000000000003
40
0.531250000000003
40
0.531250000000003
40
0.562500000000003
40
0.562500000000003
40
0.625000000000003
40
0.625000000000003
40
0.750000000000002
40
0.750000000000002
40
0.812500000000002
40
0.812500000000002
40
0.875000000000001
40
0.875000000000001
40
1
40
1
40
1
40
1
41
1
10
113.826380668712
20
-8.64650936652123
30
0
41
1
10
113.372864523391
20
-8.56041463600008
30
0
41
1
10
112.919443797704
20
-8.47118624248083
30
0
41
1
10
112.352746622733
20
-8.35581846861345
30
0
41
1
10
112.182743443752
20
-8.32092055637045
30
0
41
1
10
112.012748003582
20
-8.28559375601088
30
0
41
1
10
111.899419277115
20
-8.26194755755054
30
0
41
1
10
111.8428764854
20
-8.24982413989574
30
0
41
1
10
111.557580596675
20
-8.19436572289015
30
0
41
1
10
111.328700768966
20
-8.15070381363245
30
0
41
1
10
110.181505377349
20
-7.93556065428271
30
0
41
1
10
109.254866828476
20
-7.77371656296182
30
0
41
1
10
107.39032353793
20
-7.46478839978445
30
0
41
1
10
106.451970275086
20
-7.31763410604808
30
0
41
1
10
105.040082848308
20
-7.10509159072052
30
0
41
1
10
104.568790948716
20
-7.03566463937923
30
0
41
1
10
103.979001338919
20
-6.95031369104234
30
0
41
1
10
103.860889467932
20
-6.93375625134124
30
0
41
1
10
103.62513726447
20
-6.89880945266114
30
0
41
1
10
103.507240811043
20
-6.88135745381453
30
0
41
1
10
103.153585190621
20
-6.8287176895704
30
0
41
1
10
102.917810464659
20
-6.79342725167413
30
0
41
1
10
98.9095574284321
20
-6.19018414529231
30
0
41
1
10
95.1357173418576
20
-5.57147035864094
30
0
41
1
10
89.4758579604465
20
-4.59085396263308
30
0
41
1
10
87.589101109906
20
-4.25517860067237
30
0
41
1
10
83.8146440149157
20
-3.569543983904
30
0
41
1
10
81.9265898615119
20
-3.21955954014257
30
0
41
1
10
76.2641440432079
20
-2.15338381242154
30
0
41
1
10
72.4906047944152
20
-1.42124866870972
30
0
41
1
10
67.7731159199141
20
-0.490764464031742
30
0
41
1
10
66.8294938341813
20
-0.303869526462222
30
0
41
1
10
64.9427105395402
20
0.071154373510808
30
0
41
1
10
63.9996229488048
20
0.259571531222122
30
0
41
1
10
61.1706381223878
20
0.82428744898354
30
0
41
1
10
59.284723024699
20
1.1985585325003
30
0
41
1
10
53.6259586312257
20
2.30864459681754
30
0
41
1
10
49.8507276834134
20
3.03166563989578
30
0
41
1
10
44.189161506748
20
4.06839418929829
30
0
41
1
10
42.3019960524296
20
4.40607500643162
30
0
41
1
10
38.5271190394511
20
5.06296674780958
30
0
41
1
10
36.639097502409
20
5.38219171190462
30
0
41
1
10
30.9769847636191
20
6.30790086351522
30
0
41
1
10
27.2040769278108
20
6.88256337342446
30
0
41
1
10
23.431382113462
20
7.40551047846432
30
0
0
SPLINE
5
109
100
AcDbEntity
8
1
62
256
6
ByLayer
370
18
48
1
60
0
100
AcDbSpline
70
4
71
3
72
8
73
4
40
0
40
0
40
0
40
0
40
1
40
1
40
1
40
1
41
1
10
133.739059652953
20
-10.0071724843866
30
0
41
1
10
133.711646357383
20
-10.0895767019067
30
0
41
1
10
133.684192095744
20
-10.1720177996511
30
0
41
1
10
133.656697901843
20
-10.254492374436
30
0
0
SPLINE
5
10A
100
AcDbEntity
8
1
62
256
6
ByLayer
370
18
48
1
60
0
100
AcDbSpline
70
4
71
3
72
8
73
4
40
0
40
0
40
0
40
0
40
1
40
1
40
1
40
1
41
1
10
23.4308224306252
20
7.4030392890138
30
0
41
1
10
23.3221105729764
20
7.42041495812427
30
0
41
1
10
23.2118499658226
20
7.43354200566239
30
0
41
1
10
23.1000000000001
20
7.44238464181126
30
0
0
SPLINE
5
10B
100
AcDbEntity
8
1
62
256
6
ByLayer
370
18
48
1
60
0
100
AcDbSpline
70
4
71
3
72
8
73
4
40
0
40
0
40
0
40
0
40
1
40
1
40
1
40
1
41
1
10
123.945421537682
20
-9.90870860752983
30
0
41
1
10
123.945421537682
20
-9.88086316420549
30
0
41
1
10
123.940143243517
20
-9.85145707127489
30
0
41
1
10
123.929662989259
20
-9.82051253360117
30
0
0
SPLINE
5
10C
100
AcDbEntity
8
1
62
256
6
ByLayer
370
18
48
1
60
0
100
AcDbSpline
70
4
71
3
72
8
73
4
40
0
40
0
40
0
40
0
40
1
40
1
40
1
40
1
41
1
10
23.1000000000001
20
-6.35148010900835
30
0
41
1
10
23.9665796607284
20
-6.48916526195211
30
0
41
1
10
24.8332329985685
20
-6.62349770122032
30
0
41
1
10
25.7000000000955
20
-6.75439608536371
30
0
0
SPLINE
5
10D
100
AcDbEntity
8
1
62
256
6
ByLayer
370
18
48
1
60
0
100
AcDbSpline
70
2053
71
3
72
39
73
35
40
0
40
0
40
0
40
0
40
0.0303385726848846
40
0.0624389077773603
40
0.0936423571687247
40
0.12489284797383
40
0.156207084693192
40
0.187376614614895
40
0.219466561341007
40
0.249877739162492
40
0.280289667539959
40
0.312403820564487
40
0.343570526203531
40
0.374905676355797
40
0.406073573299485
40
0.437388405285069
40
0.469511175882151
40
0.499829603737453
40
0.53023792382874
40
0.562498804304292
40
0.593710829798247
40
0.625032128540315
40
0.656199925790293
40
0.68753375421695
40
0.719614123318902
40
0.749977126212586
40
0.780320072645764
40
0.812408213499186
40
0.843740430945102
40
0.874905072388221
40
0.906217154038913
40
0.937485690069472
40
0.969665705110994
40
1
40
1
40
1
40
1
41
1
10
120.24
20
-5.66522945319271
30
0
41
1
10
120.111285118028
20
-5.66523175390039
30
0
41
1
10
119.846380575783
20
-5.68726208763275
30
0
41
1
10
119.464521131945
20
-5.78518911693342
30
0
41
1
10
119.110582643325
20
-5.94458635148507
30
0
41
1
10
118.803288678431
20
-6.15219362076218
30
0
41
1
10
118.550985928556
20
-6.39822314869107
30
0
41
1
10
118.361210846312
20
-6.67282202527258
30
0
41
1
10
118.245796176755
20
-6.95794540188655
30
0
41
1
10
118.207597308267
20
-7.24084394637066
30
0
41
1
10
118.245197051456
20
-7.51167960650349
30
0
41
1
10
118.360083914377
20
-7.76306106120873
30
0
41
1
10
118.549453159716
20
-7.98569270066838
30
0
41
1
10
118.801179716687
20
-8.1707841432015
30
0
41
1
10
119.108235579975
20
-8.31745541710717
30
0
41
1
10
119.462105715357
20
-8.42431217587475
30
0
41
1
10
119.84431047246
20
-8.48807357939455
30
0
41
1
10
120.238189845506
20
-8.50856697097186
30
0
41
1
10
120.632746812613
20
-8.4884232306899
30
0
41
1
10
121.015624738626
20
-8.42484966861966
30
0
41
1
10
121.370380394782
20
-8.31799698109523
30
0
41
1
10
121.677301655556
20
-8.17167901107715
30
0
41
1
10
121.929696299531
20
-7.98647098084069
30
0
41
1
10
122.119339831804
20
-7.76406733386693
30
0
41
1
10
122.234516559795
20
-7.51251071252679
30
0
41
1
10
122.272355327717
20
-7.24221142388885
30
0
41
1
10
122.23465247008
20
-6.95969913429042
30
0
41
1
10
122.11964140783
20
-6.67426917305633
30
0
41
1
10
121.930122344309
20
-6.39952093024928
30
0
41
1
10
121.677882845194
20
-6.15318815307896
30
0
41
1
10
121.370927094873
20
-5.94537691189151
30
0
41
1
10
121.016339758461
20
-5.78543969974689
30
0
41
1
10
120.633920579606
20
-5.68727149982769
30
0
41
1
10
120.368696732931
20
-5.66522715280944
30
0
41
1
10
120.24
20
-5.66522945319271
30
0
0
SPLINE
5
10E
100
AcDbEntity
8
1
62
256
6
ByLayer
370
18
48
1
60
0
100
AcDbSpline
70
4
71
3
72
17
73
13
40
0
40
0
40
0
40
0
40
0.0526235996061526
40
0.45956187126772
40
0.593806888131383
40
0.663097016259217
40
0.732385921439641
40
0.801679091418254
40
0.836386207729015
40
0.871094873417934
40
0.905805242456647
40
1
40
1
40
1
40
1
41
1.10374900959774
10
79.9052485738415
20
-0.0030010331235346
30
0
41
1.10374900959774
10
80.4684149962942
20
-0.107956954289579
30
0
41
1.10374900959774
10
85.3868339747893
20
-1.02454837920052
30
0
41
1.10374900959774
10
91.743457339768
20
-2.2036257406242
30
0
41
1.10374900959774
10
98.2630357647847
20
-3.36076710409883
30
0
41
1.10374900959774
10
101.173082915191
20
-3.86351546537201
30
0
41
1.10374900959774
10
103.38737406247
20
-4.24728216116873
30
0
41
1.10374900959774
10
105.234407873977
20
-4.53468734282895
30
0
41
1.10374900959774
10
106.703693438795
20
-4.81909397940889
30
0
41
1.10374900959774
10
107.80808135891
20
-5.02195735465599
30
0
41
1.10374900959774
10
109.543136096388
20
-5.33868970974078
30
0
41
1.10374900959774
10
110.910318724091
20
-5.58094567753438
30
0
41
1.10374900959774
10
111.909154532908
20
-5.75377193602781
30
0
0
SPLINE
5
10F
100
AcDbEntity
8
1
62
256
6
ByLayer
370
18
48
1
60
0
100
AcDbSpline
70
4
71
3
72
8
73
4
40
0
40
0
40
0
40
0
40
1
40
1
40
1
40
1
41
1
10
128.32826195015
20
1.20004969927788
30
0
41
1
10
128.281227204326
20
1.12161202272191
30
0
41
1
10
128.233710691516
20
1.04439080317732
30
0
41
1
10
128.18569813358
20
0.968422092809675
30
0
0
SPLINE
5
110
100
AcDbEntity
8
1
62
256
6
ByLayer
370
18
48
1
60
0
100
AcDbSpline
70
4
71
3
72
8
73
4
40
0
40
0
40
0
40
0
40
1
40
1
40
1
40
1
41
1
10
123.6
20
4.09999999999999
30
0
41
1
10
123.666664307115
20
4.09999999999999
30
0
41
1
10
123.733331023949
20
4.09999999999999
30
0
41
1
10
123.8
20
4.09999999999999
30
0
0
SPLINE
5
111
100
AcDbEntity
8
1
62
256
6
ByLayer
370
18
48
1
60
0
100
AcDbSpline
70
4
71
3
72
10
73
6
40
0
40
0
40
0
40
0
40
0.5
40
0.5
40
1
40
1
40
1
40
1
41
1
10
19.671592949084
20
6.99136173661145
30
0
41
1
10
19.2496767903503
20
6.90891199548975
30
0
41
1
10
18.8390817662706
20
6.83588425262559
30
0
41
1
10
18.0348476067151
20
6.71596653904445
30
0
41
1
10
17.6398882216363
20
6.66900656708128
30
0
41
1
10
17.2583574124984
20
6.64093395724279
30
0
0
SPLINE
5
112
100
AcDbEntity
8
1
62
256
6
ByLayer
370
18
48
1
60
0
100
AcDbSpline
70
4
71
3
72
10
73
6
40
0
40
0
40
0
40
0
40
0.5
40
0.5
40
1
40
1
40
1
40
1
41
1
10
17.2583574124984
20
-4.47425944809982
30
0
41
1
10
17.5499117201896
20
-4.54300240406965
30
0
41
1
10
17.8468184555253
20
-4.61915192396836
30
0
41
1
10
18.451975993929
20
-4.78162228235823
30
0
41
1
10
18.7602137428647
20
-4.86795760463798
30
0
41
1
10
19.0751560796991
20
-4.95736712650378
30
0
0
SPLINE
5
113
100
AcDbEntity
8
1
62
256
6
ByLayer
370
18
48
1
60
0
100
AcDbSpline
70
4
71
3
72
12
73
8
40
0
40
0
40
0
40
0
40
0.499999999999999
40
0.499999999999999
40
0.749999999999999
40
0.749999999999999
40
1
40
1
40
1
40
1
41
1
10
113.822100214233
20
8.65457420458816
30
0
41
1
10
113.984117349004
20
8.69187801422248
30
0
41
1
10
114.139256524119
20
8.73614675090531
30
0
41
1
10
114.361414655657
20
8.81191383506476
30
0
41
1
10
114.433861370368
20
8.83882332504899
30
0
41
1
10
114.572298139028
20
8.89446094174633
30
0
41
1
10
114.638654789124
20
8.92330215001169
30
0
41
1
10
114.702215800359
20
8.95300865068538
30
0
0
SPLINE
5
114
100
AcDbEntity
8
1
62
256
6
ByLayer
370
18
48
1
60
0
100
AcDbSpline
70
4
71
3
72
8
73
4
40
0
40
0
40
0
40
0
40
1
40
1
40
1
40
1
41
1
10
134.681130866428
20
-7.42105365418053
30
0
41
1
10
134.405582259156
20
-8.26760493245928
30
0
41
1
10
134.125398153117
20
-9.11916039445549
30
0
41
1
10
133.840415615323
20
-9.97589593205214
30
0
0
SPLINE
5
115
100
AcDbEntity
8
1
62
256
6
ByLayer
370
18
48
1
60
0
100
AcDbSpline
70
4
71
1
72
4
73
2
40
0
40
0
40
1
40
1
41
1
10
131.015515810987
20
-8.25283963053292
30
0
41
1
10
130.879825871178
20
-8.31443333169736
30
0
0
SPLINE
5
116
100
AcDbEntity
8
1
62
256
6
ByLayer
370
18
48
1
60
0
100
AcDbSpline
70
4
71
3
72
8
73
4
40
0
40
0
40
0
40
0
40
1
40
1
40
1
40
1
41
1
10
124.542935856766
20
10.4307587299418
30
0
41
1
10
124.295714615348
20
10.3306295022282
30
0
41
1
10
124.04808010129
20
10.2287428345431
30
0
41
1
10
123.8
20
10.1251908751171
30
0
0
SPLINE
5
117
100
AcDbEntity
8
1
62
256
6
ByLayer
370
18
48
1
60
0
100
AcDbSpline
70
4
71
3
72
30
73
26
40
0
40
0
40
0
40
0
40
0.125000000000002
40
0.125000000000002
40
0.187500000000003
40
0.187500000000003
40
0.250000000000004
40
0.250000000000004
40
0.375000000000006
40
0.375000000000006
40
0.437500000000008
40
0.437500000000008
40
0.500000000000009
40
0.500000000000009
40
0.625000000000011
40
0.625000000000011
40
0.687500000000012
40
0.687500000000012
40
0.750000000000013
40
0.750000000000013
40
0.875000000000007
40
0.875000000000007
40
0.937500000000003
40
0.937500000000003
40
1
40
1
40
1
40
1
41
1
10
25.7000000001466
20
9.82610896919175
30
0
41
1
10
25.7000000001468
20
9.77622978670269
30
0
41
1
10
25.7139928138842
20
9.72274319970367
30
0
41
1
10
25.7560179139957
20
9.63760689287747
30
0
41
1
10
25.773549273988
20
9.60841049969736
30
0
41
1
10
25.8158790660346
20
9.54847265919932
30
0
41
1
10
25.8407729209107
20
9.51762702455073
30
0
41
1
10
25.926279412182
20
9.42362434807055
30
0
41
1
10
25.9966462639574
20
9.36000609071198
30
0
41
1
10
26.1219046920537
20
9.26442796158781
30
0
41
1
10
26.1669588203412
20
9.23254485597238
30
0
41
1
10
26.2638180171861
20
9.16897249962727
30
0
41
1
10
26.3158985711207
20
9.13713042427568
30
0
41
1
10
26.4805323051705
20
9.04351905464799
30
0
41
1
10
26.6007509141435
20
8.98393232946586
30
0
41
1
10
26.7963562471078
20
8.90017109440959
30
0
41
1
10
26.8641182588948
20
8.87319040765465
30
0
41
1
10
27.0048633059463
20
8.82139303490536
30
0
41
1
10
27.0781664128163
20
8.79648965443221
30
0
41
1
10
27.3020750365266
20
8.72674610877252
30
0
41
1
10
27.4575111491099
20
8.68646374503675
30
0
41
1
10
27.6997208229282
20
8.63630594347944
30
0
41
1
10
27.7819751086733
20
8.621302863159
30
0
41
1
10
27.9495916326019
20
8.59496063017977
30
0
41
1
10
28.0349930824132
20
8.58363208344483
30
0
41
1
10
28.1210046142827
20
8.57436208274638
30
0
0
SPLINE
5
118
100
AcDbEntity
8
1
62
256
6
ByLayer
370
18
48
1
60
0
100
AcDbSpline
70
4
71
3
72
8
73
4
40
0
40
0
40
0
40
0
40
1
40
1
40
1
40
1
41
1
10
123.8
20
-9.71032826427614
30
0
41
1
10
123.766666666667
20
-9.74221768386326
30
0
41
1
10
123.733333333333
20
-9.77410710345038
30
0
41
1
10
123.7
20
-9.80599652303746
30
0
0
SPLINE
5
119
100
AcDbEntity
8
1
62
256
6
ByLayer
370
18
48
1
60
0
100
AcDbSpline
70
4
71
3
72
25
73
21
40
0
40
0
40
0
40
0
40
0.0278429115934833
40
0.0555048818763769
40
0.0829861941179217
40
0.110287137211926
40
0.137408005817275
40
0.164349100502515
40
0.191110727894645
40
0.217693200832251
40
0.244096838523114
40
0.270321966706423
40
0.406145242633766
40
0.538075971139546
40
0.67196608535542
40
0.80339625671285
40
0.853008745492632
40
0.902310720306318
40
0.951306379336811
40
1
40
1
40
1
40
1
41
1
10
130.87981764777
20
-8.3145371362474
30
0
41
1
10
130.863987334034
20
-8.28248791041941
30
0
41
1
10
130.832429582214
20
-8.21859773543395
30
0
41
1
10
130.785899461181
20
-8.12033035188693
30
0
41
1
10
130.740157342127
20
-8.02074713724937
30
0
41
1
10
130.695249122245
20
-7.91970935609831
30
0
41
1
10
130.651162620565
20
-7.817327601339
30
0
41
1
10
130.607901079654
20
-7.71364564077047
30
0
41
1
10
130.565463597498
20
-7.60872410016808
30
0
41
1
10
130.523850565998
20
-7.50261887182342
30
0
41
1
10
130.483061315639
20
-7.39538447368801
30
0
41
1
10
130.387337403955
20
-7.13596694777115
30
0
41
1
10
130.244381767809
20
-6.71062987401427
30
0
41
1
10
130.065026567952
20
-6.0863162173485
30
0
41
1
10
129.904753127636
20
-5.42943559372264
30
0
41
1
10
129.792089482211
20
-4.8803366332107
30
0
41
1
10
129.717318100671
20
-4.46639272642673
30
0
41
1
10
129.672085223741
20
-4.1963491086434
30
0
41
1
10
129.629680807995
20
-3.92434555673088
30
0
41
1
10
129.603857015849
20
-3.74055852207644
30
0
41
1
10
129.590985041127
20
-3.64894912362106
30
0
0
SPLINE
5
11A
100
AcDbEntity
8
1
62
256
6
ByLayer
370
18
48
1
60
0
100
AcDbSpline
70
4
71
3
72
42
73
38
40
0
40
0
40
0
40
0
40
0.125
40
0.125
40
0.1875
40
0.1875
40
0.25
40
0.25
40
0.3125
40
0.3125
40
0.375
40
0.375
40
0.500000000000001
40
0.500000000000001
40
0.625000000000001
40
0.625000000000001
40
0.750000000000001
40
0.750000000000001
40
0.8125
40
0.8125
40
0.84375
40
0.84375
40
0.875
40
0.875
40
0.890625
40
0.890625
40
0.90625
40
0.90625
40
0.921875
40
0.921875
40
0.9375
40
0.9375
40
0.953124999999999
40
0.953124999999999
40
0.968749999999999
40
0.968749999999999
40
1
40
1
40
1
40
1
41
1
10
28.121004614282
20
8.57436208274646
30
0
41
1
10
31.6126308444133
20
8.19804768758877
30
0
41
1
10
35.1045712293798
20
7.76477549833012
30
0
41
1
10
40.3413411742063
20
7.04166478320556
30
0
41
1
10
42.0868817497118
20
6.78845647983118
30
0
41
1
10
45.5785064034761
20
6.26012549726133
30
0
41
1
10
47.3245801823267
20
5.98500424915648
30
0
41
1
10
50.8159437982333
20
5.41587178101042
30
0
41
1
10
52.5614826201245
20
5.12182908936896
30
0
41
1
10
56.052918514204
20
4.51763055324165
30
0
41
1
10
57.7990607434467
20
4.20743803498672
30
0
41
1
10
63.0364929490792
20
3.25716323160899
30
0
41
1
10
66.5270722717561
20
2.59642338638966
30
0
41
1
10
73.5109871790784
20
1.25087611560872
30
0
41
1
10
77.0016782818946
20
0.566085311687999
30
0
41
1
10
83.985304630278
20
-0.803196522643532
30
0
41
1
10
87.4765171226018
20
-1.48709242118412
30
0
41
1
10
92.7136006790237
20
-2.49195449507246
30
0
41
1
10
94.4596362643335
20
-2.82356941523761
30
0
41
1
10
97.0782616722031
20
-3.31295518773103
30
0
41
1
10
97.9511148909857
20
-3.47469655741949
30
0
41
1
10
99.696930649682
20
-3.79468467877695
30
0
41
1
10
100.569892377722
20
-3.9529504597526
30
0
41
1
10
101.878764288453
20
-4.19075424877104
30
0
41
1
10
102.315021956103
20
-4.26979109101094
30
0
41
1
10
103.188098061494
20
-4.4245162252567
30
0
41
1
10
103.625122253588
20
-4.499329630516
30
0
41
1
10
104.499102520343
20
-4.64818119078615
30
0
41
1
10
104.935860201806
20
-4.72307033038115
30
0
41
1
10
105.806302733462
20
-4.88416610425389
30
0
41
1
10
106.239525674046
20
-4.9721776877395
30
0
41
1
10
107.106549470485
20
-5.14430161468104
30
0
41
1
10
107.540509802474
20
-5.22783990681108
30
0
41
1
10
108.408123569778
20
-5.39471357841839
30
0
41
1
10
108.84185720677
20
-5.47771698559473
30
0
41
1
10
110.143154550619
20
-5.724176731
30
0
41
1
10
111.010743134491
20
-5.88536884766398
30
0
41
1
10
111.878434215401
20
-6.04327705120673
30
0
0
SPLINE
5
11B
100
AcDbEntity
8
1
62
256
6
ByLayer
370
18
48
1
60
0
100
AcDbSpline
70
4
71
3
72
10
73
6
40
0
40
0
40
0
40
0
40
0.0233896140064716
40
0.0233896140064716
40
1
40
1
40
1
40
1
41
1
10
133.942562670033
20
-4.46331555999726
30
0
41
1
10
133.943212667055
20
-4.46260381542396
30
0
41
1
10
133.943862665264
20
-4.46189204843031
30
0
41
1
10
133.971652741657
20
-4.43146019801054
30
0
41
1
10
133.998794899216
20
-4.40170107644397
30
0
41
1
10
134.025939453172
20
-4.37189563338382
30
0
0
SPLINE
5
11C
100
AcDbEntity
8
1
62
256
6
ByLayer
370
13
48
1
60
0
100
AcDbSpline
70
4
71
3
72
16
73
12
40
0
40
0
40
0
40
0
40
0.124999999999996
40
0.124999999999996
40
0.249999999999993
40
0.249999999999993
40
0.499999999999995
40
0.499999999999995
40
0.749999999999998
40
0.749999999999998
40
1
40
1
40
1
40
1
41
1
10
134.0337610621
20
3.61865195250999
30
0
41
1
10
134.065232818926
20
3.47459370387568
30
0
41
1
10
134.104911985427
20
3.33442888421519
30
0
41
1
10
134.199078441719
20
3.06111754625195
30
0
41
1
10
134.253551195139
20
2.9283161984699
30
0
41
1
10
134.43306967931
20
2.54796332776184
30
0
41
1
10
134.575010295877
20
2.3148903460405
30
0
41
1
10
134.894601413966
20
1.88159646005602
30
0
41
1
10
135.067900282908
20
1.68716077590702
30
0
41
1
10
135.435453287377
20
1.33290307051382
30
0
41
1
10
135.630211118265
20
1.17293005723221
30
0
41
1
10
135.831520107046
20
1.02963970410124
30
0
0
SPLINE
5
11D
100
AcDbEntity
8
1
62
256
6
ByLayer
370
18
48
1
60
0
100
AcDbSpline
70
4
71
1
72
4
73
2
40
0
40
0
40
1
40
1
41
1
10
130.318858344266
20
1.49406334937785
30
0
41
1
10
130.313010087798
20
1.5002521177326
30
0
0
SPLINE
5
11E
100
AcDbEntity
8
1
62
256
6
ByLayer
370
18
48
1
60
0
100
AcDbSpline
70
4
71
3
72
14
73
10
40
0
40
0
40
0
40
0
40
0.25
40
0.25
40
0.5
40
0.5
40
0.75
40
0.75
40
1
40
1
40
1
40
1
41
1
10
124.542935856766
20
-10.2977588374489
30
0
41
1
10
125.304506695993
20
-10.365351391788
30
0
41
1
10
126.065047092502
20
-10.4151251796013
30
0
41
1
10
127.583845851828
20
-10.479320029476
30
0
41
1
10
128.34174233565
20
-10.4936287893527
30
0
41
1
10
129.859114198832
20
-10.4864398657208
30
0
41
1
10
130.618104793005
20
-10.465098029252
30
0
41
1
10
132.136444044881
20
-10.386653972009
30
0
41
1
10
132.895489416659
20
-10.329294500344
30
0
41
1
10
133.656697901843
20
-10.254492374436
30
0
0
SPLINE
5
11F
100
AcDbEntity
8
1
62
256
6
ByLayer
370
18
48
1
60
0
100
AcDbSpline
70
4
71
3
72
16
73
12
40
0
40
0
40
0
40
0
40
0.250000000000004
40
0.250000000000004
40
0.375000000000006
40
0.375000000000006
40
0.500000000000007
40
0.500000000000007
40
0.750000000000004
40
0.750000000000004
40
1
40
1
40
1
40
1
41
1
10
124.542935856766
20
10.4307587299418
30
0
41
1
10
125.319659942765
20
10.4669226322208
30
0
41
1
10
126.095618869853
20
10.484334411904
30
0
41
1
10
127.258015410014
20
10.4827937234282
30
0
41
1
10
127.645116722359
20
10.4776485375124
30
0
41
1
10
128.4188340268
20
10.4580228523529
30
0
41
1
10
128.80540115682
20
10.4435187307782
30
0
41
1
10
129.965966238988
20
10.386322006126
30
0
41
1
10
130.740176079611
20
10.3299107832241
30
0
41
1
10
132.289442892681
20
10.1805029611383
30
0
41
1
10
133.063904501468
20
10.0870547254327
30
0
41
1
10
133.840415615323
20
9.97589593205214
30
0
0
SPLINE
5
120
100
AcDbEntity
8
1
62
256
6
ByLayer
370
18
48
1
60
0
100
AcDbSpline
70
4
71
1
72
4
73
2
40
0
40
0
40
1
40
1
41
1
10
20.8644974165878
20
-5.19547649673552
30
0
41
1
10
20.7427512913625
20
-5.76444079224902
30
0
0
SPLINE
5
121
100
AcDbEntity
8
1
62
256
6
ByLayer
370
18
48
1
60
0
100
AcDbSpline
70
4
71
3
72
21
73
17
40
0
40
0
40
0
40
0
40
0.25
40
0.25
40
0.3125
40
0.3125
40
0.375
40
0.375
40
0.5
40
0.625
40
0.625
40
0.6875
40
0.6875
40
0.75
40
0.75
40
1
40
1
40
1
40
1
41
1
10
123.8
20
7.87424252217005
30
0
41
1
10
123.8
20
7.32686419874486
30
0
41
1
10
123.8
20
6.8009495380374
30
0
41
1
10
123.8
20
6.16954200239994
30
0
41
1
10
123.8
20
6.04457968822692
30
0
41
1
10
123.8
20
5.79735336508961
30
0
41
1
10
123.8
20
5.67516893167971
30
0
41
1
10
123.8
20
5.31792531596162
30
0
41
1
10
123.8
20
4.86273180049011
30
0
41
1
10
123.8
20
4.44882495859261
30
0
41
1
10
123.8
20
4.15426926175661
30
0
41
1
10
123.8
20
4.05841483769478
30
0
41
1
10
123.8
20
3.87434012320364
30
0
41
1
10
123.8
20
3.78600270568674
30
0
41
1
10
123.8
20
3.36241255071485
30
0
41
1
10
123.8
20
3.08057625503628
30
0
41
1
10
123.8
20
2.85772563457732
30
0
0
SPLINE
5
122
100
AcDbEntity
8
1
62
256
6
ByLayer
370
13
48
1
60
0
100
AcDbSpline
70
4
71
3
72
8
73
4
40
0
40
0
40
0
40
0
40
1
40
1
40
1
40
1
41
1
10
134.060331033194
20
3.62455397808534
30
0
41
1
10
134.06010820528
20
3.62557345082058
30
0
41
1
10
134.059884397843
20
3.62659272551483
30
0
41
1
10
134.059659610983
20
3.62761179926656
30
0
0
SPLINE
5
123
100
AcDbEntity
8
1
62
256
6
ByLayer
370
18
48
1
60
0
100
AcDbSpline
70
4
71
3
72
14
73
10
40
0
40
0
40
0
40
0
40
0.25
40
0.25
40
0.5
40
0.5
40
0.75
40
0.75
40
1
40
1
40
1
40
1
41
1
10
20.8642887535803
20
-5.19626674721883
30
0
41
1
10
20.7387052565604
20
-5.17887173781551
30
0
41
1
10
20.6134297305895
20
-5.16126956718421
30
0
41
1
10
20.3663826821814
20
-5.12609470434762
30
0
41
1
10
20.2468112507389
20
-5.10883714759831
30
0
41
1
10
20.015243128243
20
-5.07491315458293
30
0
41
1
10
19.9032474622935
20
-5.05824665034132
30
0
41
1
10
19.6868826104263
20
-5.02537119810751
30
0
41
1
10
19.5825806010284
20
-5.00916429175433
30
0
41
1
10
19.4849077732095
20
-4.99352024757945
30
0
0
SPLINE
5
124
100
AcDbEntity
8
1
62
256
6
ByLayer
370
13
48
1
60
0
100
AcDbSpline
70
4
71
3
72
18
73
14
40
0
40
0
40
0
40
0
40
0.249999999999997
40
0.249999999999997
40
0.374999999999995
40
0.374999999999995
40
0.499999999999993
40
0.499999999999993
40
0.749999999999997
40
0.749999999999997
40
0.874999999999998
40
0.874999999999998
40
1
40
1
40
1
40
1
41
1
10
123.8
20
7.87424252217005
30
0
41
1
10
124.707074422728
20
7.91587592963867
30
0
41
1
10
125.613932987659
20
7.93427636973098
30
0
41
1
10
126.973722239874
20
7.93250629597421
30
0
41
1
10
127.426991758183
20
7.92740023918671
30
0
41
1
10
128.333694202617
20
7.90884379940624
30
0
41
1
10
128.787185886255
20
7.89573271265829
30
0
41
1
10
130.147662760939
20
7.83937281739469
30
0
41
1
10
131.054358687002
20
7.78059544285037
30
0
41
1
10
132.414052063644
20
7.66560316360565
30
0
41
1
10
132.867417914669
20
7.62365589415799
30
0
41
1
10
133.774329951524
20
7.5295970203488
30
0
41
1
10
134.227754044347
20
7.47764550698366
30
0
41
1
10
134.681130866428
20
7.42105365418053
30
0
0
SPLINE
5
125
100
AcDbEntity
8
1
62
256
6
ByLayer
370
18
48
1
60
0
100
AcDbSpline
70
4
71
3
72
10
73
6
40
0
40
0
40
0
40
0
40
0.533079476375248
40
0.533079476375248
40
1
40
1
40
1
40
1
41
1
10
134.030454282757
20
3.63365769234412
30
0
41
1
10
134.034277602258
20
3.63682781548977
30
0
41
1
10
134.038589036275
20
3.63955845252946
30
0
41
1
10
134.047226755398
20
3.64316542465687
30
0
41
1
10
134.051571883183
20
3.64425233134827
30
0
41
1
10
134.055904445849
20
3.64463588251738
30
0
0
SPLINE
5
126
100
AcDbEntity
8
1
62
256
6
ByLayer
370
18
48
1
60
0
100
AcDbSpline
70
4
71
3
72
16
73
12
40
0
40
0
40
0
40
0
40
0.150733962961141
40
0.150733962961141
40
0.301467925922281
40
0.301467925922281
40
0.602935851844571
40
0.602935851844571
40
0.904403777766861
40
0.904403777766861
40
1
40
1
40
1
40
1
41
1
10
115.706422910036
20
8.65533791983862
30
0
41
1
10
115.645035475126
20
8.50026526258986
30
0
41
1
10
115.581631021864
20
8.3459177698507
30
0
41
1
10
115.450787870956
20
8.03867116911903
30
0
41
1
10
115.383032289488
20
7.88509587773132
30
0
41
1
10
115.17657820868
20
7.43270734615959
30
0
41
1
10
115.034667227654
20
7.14202097796181
30
0
41
1
10
114.745331148016
20
6.58122078442216
30
0
41
1
10
114.597815274902
20
6.31111486226774
30
0
41
1
10
114.403786113426
20
5.9687248278106
30
0
41
1
10
114.357520634882
20
5.88803867767862
30
0
41
1
10
114.311920140386
20
5.80909341027453
30
0
0
SPLINE
5
127
100
AcDbEntity
8
1
62
256
6
ByLayer
370
18
48
1
60
0
100
AcDbSpline
70
4
71
3
72
8
73
4
40
0
40
0
40
0
40
0
40
1
40
1
40
1
40
1
41
1
10
129.711717057007
20
-3.63843300878878
30
0
41
1
10
129.671465098728
20
-3.64207939219347
30
0
41
1
10
129.631220338346
20
-3.64558219295481
30
0
41
1
10
129.590982788468
20
-3.64894119959777
30
0
0
SPLINE
5
128
100
AcDbEntity
8
1
62
256
6
ByLayer
370
13
48
1
60
0
100
AcDbSpline
70
4
71
3
72
44
73
40
40
0
40
0
40
0
40
0
40
0.249999999999941
40
0.249999999999941
40
0.312499999999926
40
0.32812499999993
40
0.32812499999993
40
0.343749999999933
40
0.343749999999933
40
0.37499999999994
40
0.499999999999942
40
0.499999999999942
40
0.515624999999945
40
0.515624999999945
40
0.531249999999949
40
0.562499999999956
40
0.578124999999954
40
0.578124999999954
40
0.593749999999951
40
0.593749999999951
40
0.624999999999947
40
0.656249999999943
40
0.656249999999943
40
0.671874999999941
40
0.671874999999941
40
0.687499999999939
40
0.749999999999942
40
0.812499999999944
40
0.828124999999949
40
0.828124999999949
40
0.843749999999954
40
0.843749999999954
40
0.874999999999965
40
0.906249999999975
40
0.906249999999975
40
0.921874999999981
40
0.921874999999981
40
0.937499999999986
40
1
40
1
40
1
40
1
41
1
10
134.58365080763
20
-1.55746319511041
30
0
41
1
10
134.384101539463
20
-1.41799020136364
30
0
41
1
10
134.148504887256
20
-1.23325066865118
30
0
41
1
10
133.882293946928
20
-1.00135031566504
30
0
41
1
10
133.817508929442
20
-0.943314180620064
30
0
41
1
10
133.756366260299
20
-0.886288050216109
30
0
41
1
10
133.732229245624
20
-0.863580135344677
30
0
41
1
10
133.720376166501
20
-0.85233011172383
30
0
41
1
10
133.683505184488
20
-0.817004969323591
30
0
41
1
10
133.555011165601
20
-0.69180609300588
30
0
41
1
10
133.410860404025
20
-0.541689374805799
30
0
41
1
10
133.305263811622
20
-0.424136836995075
30
0
41
1
10
133.293246286153
20
-0.410622847626627
30
0
41
1
10
133.267973792943
20
-0.381956982329768
30
0
41
1
10
133.228760219005
20
-0.337120039314584
30
0
41
1
10
133.174286838309
20
-0.273489207363724
30
0
41
1
10
133.136335945845
20
-0.228135957749487
30
0
41
1
10
133.112185906545
20
-0.199011260481029
30
0
41
1
10
133.100964628965
20
-0.185340679122532
30
0
41
1
10
133.064528323253
20
-0.140487231973424
30
0
41
1
10
133.011681531811
20
-0.0742845637712151
30
0
41
1
10
132.9586742886
20
-0.0058787435204692
30
0
41
1
10
132.921996932748
20
0.0422797985379759
30
0
41
1
10
132.910572369952
20
0.05742209194824
30
0
41
1
10
132.887893718447
20
0.0878438607167311
30
0
41
1
10
132.829670028536
20
0.166847697211949
30
0
41
1
10
132.714126031665
20
0.331289019620328
30
0
41
1
10
132.600590861546
20
0.503743710958076
30
0
41
1
10
132.544877453158
20
0.592764711179569
30
0
41
1
10
132.523314413581
20
0.627638565590019
30
0
41
1
10
132.513147409453
20
0.644294018787861
30
0
41
1
10
132.480236633567
20
0.698931955916919
30
0
41
1
10
132.432116481467
20
0.780597457412512
30
0
41
1
10
132.383917900158
20
0.865448829526486
30
0
41
1
10
132.350888883731
20
0.924866360572878
30
0
41
1
10
132.340697865468
20
0.943417212910759
30
0
41
1
10
132.320535024269
20
0.980694255725524
30
0
41
1
10
132.267102046814
20
1.08090572021896
30
0
41
1
10
132.205073223419
20
1.20351148597226
30
0
41
1
10
132.166667023789
20
1.28342655206055
30
0
0
SPLINE
5
129
100
AcDbEntity
8
1
62
256
6
ByLayer
370
18
48
1
60
0
100
AcDbSpline
70
4
71
3
72
8
73
4
40
0
40
0
40
0
40
0
40
1
40
1
40
1
40
1
41
1
10
128.064622163084
20
0.972734216556063
30
0
41
1
10
128.104980508855
20
0.971170048308238
30
0
41
1
10
128.145338830012
20
0.969732788283125
30
0
41
1
10
128.185697128803
20
0.96842212471384
30
0
0
SPLINE
5
12A
100
AcDbEntity
8
1
62
256
6
ByLayer
370
13
48
1
60
0
100
AcDbSpline
70
4
71
3
72
8
73
4
40
0
40
0
40
0
40
0
40
1
40
1
40
1
40
1
41
1
10
134.030454282757
20
3.63365769234414
30
0
41
1
10
134.031336439399
20
3.629658425315
30
0
41
1
10
134.032218596042
20
3.62565915828586
30
0
41
1
10
134.033100752684
20
3.62165989125671
30
0
0
SPLINE
5
12B
100
AcDbEntity
8
1
62
256
6
ByLayer
370
18
48
1
60
0
100
AcDbSpline
70
4
71
2
72
9
73
6
40
0
40
0
40
0
40
0.242058121926536
40
0.494705414617691
40
0.747352707308845
40
1
40
1
40
1
41
1
10
129.711716666425
20
-3.63843344735201
30
0
41
1
10
129.805544307814
20
-4.30762572027902
30
0
41
1
10
130.066379703172
20
-5.59173224836292
30
0
41
1
10
130.39922106959
20
-6.77717943308966
30
0
41
1
10
130.793388889784
20
-7.81906742669264
30
0
41
1
10
131.01544624377
20
-8.25287120959254
30
0
0
SPLINE
5
12C
100
AcDbEntity
8
1
62
256
6
ByLayer
370
18
48
1
60
0
100
AcDbSpline
70
4
71
3
72
8
73
4
40
0
40
0
40
0
40
0
40
1
40
1
40
1
40
1
41
1
10
124.659619407771
20
-9.56982134076807
30
0
41
1
10
124.674826367663
20
-9.56395039217378
30
0
41
1
10
124.690810898776
20
-9.55831984757884
30
0
41
1
10
124.707545968872
20
-9.55296022510822
30
0
0
SPLINE
5
12D
100
AcDbEntity
8
1
62
256
6
ByLayer
370
18
48
1
60
0
100
AcDbSpline
70
4
71
3
72
8
73
4
40
0
40
0
40
0
40
0
40
1
40
1
40
1
40
1
41
1
10
123.705141781433
20
9.43813200596423
30
0
41
1
10
123.704609578566
20
9.65801426620936
30
0
41
1
10
123.704074254061
20
9.87730204629077
30
0
41
1
10
123.70353587421
20
10.0959853803835
30
0
0
SPLINE
5
12E
100
AcDbEntity
8
1
62
256
6
ByLayer
370
18
48
1
60
0
100
AcDbSpline
70
4
71
3
72
8
73
4
40
0
40
0
40
0
40
0
40
1
40
1
40
1
40
1
41
1
10
123.703535725133
20
10.0959855090449
30
0
41
1
10
123.702357139355
20
10.0970027173998
30
0
41
1
10
123.701178564301
20
10.0980197825265
30
0
41
1
10
123.7
20
10.0990367043837
30
0
0
SPLINE
5
12F
100
AcDbEntity
8
1
62
256
6
ByLayer
370
18
48
1
60
0
100
AcDbSpline
70
4
71
3
72
8
73
4
40
0
40
0
40
0
40
0
40
1
40
1
40
1
40
1
41
1
10
21
20
7.19204910849029
30
0
41
1
10
21.3326566070894
20
7.24692735552424
30
0
41
1
10
21.6648139166451
20
7.28380564633821
30
0
41
1
10
21.9964444871902
20
7.30357424708725
30
0
0
SPLINE
5
130
100
AcDbEntity
8
1
62
256
6
ByLayer
370
18
48
1
60
0
100
AcDbSpline
70
4
71
3
72
28
73
24
40
0
40
0
40
0
40
0
40
0.125
40
0.125
40
0.187500000000008
40
0.187500000000008
40
0.250000000000016
40
0.250000000000016
40
0.375000000000017
40
0.375000000000017
40
0.500000000000017
40
0.500000000000017
40
0.562500000000012
40
0.562500000000012
40
0.625000000000006
40
0.625000000000006
40
0.750000000000005
40
0.750000000000005
40
0.875000000000004
40
0.875000000000004
40
0.937500000000002
40
0.937500000000002
40
1
40
1
40
1
40
1
41
1
10
111.878434215403
20
-6.04327705120696
30
0
41
1
10
112.100582327487
20
-6.08370504461553
30
0
41
1
10
112.324103995186
20
-6.10303352625303
30
0
41
1
10
112.661369965749
20
-6.10203051398071
30
0
41
1
10
112.774162695096
20
-6.09663491992362
30
0
41
1
10
113.000292898932
20
-6.07529873527173
30
0
41
1
10
113.111520074068
20
-6.05956001857322
30
0
41
1
10
113.439892159685
20
-5.99751124682007
30
0
41
1
10
113.651929303851
20
-5.93654337015985
30
0
41
1
10
114.06086903312
20
-5.77225159679943
30
0
41
1
10
114.250180073078
20
-5.67198069386632
30
0
41
1
10
114.512194477735
20
-5.49348748646571
30
0
41
1
10
114.595919439704
20
-5.42919404507356
30
0
41
1
10
114.75536101146
20
-5.29070667117784
30
0
41
1
10
114.829663012084
20
-5.21775513398529
30
0
41
1
10
115.036946918462
20
-4.987754226335
30
0
41
1
10
115.154700245387
20
-4.81927404844896
30
0
41
1
10
115.346868356993
20
-4.4513917594065
30
0
41
1
10
115.418019078646
20
-4.25847306704531
30
0
41
1
10
115.489787058959
20
-3.95547166735344
30
0
41
1
10
115.507862325034
20
-3.85188576819746
30
0
41
1
10
115.531911499602
20
-3.64130986898718
30
0
41
1
10
115.537844110561
20
-3.53502167039952
30
0
41
1
10
115.537844110581
20
-3.4277293636226
30
0
0
SPLINE
5
131
100
AcDbEntity
8
1
62
256
6
ByLayer
370
18
48
1
60
0
100
AcDbSpline
70
4
71
3
72
26
73
22
40
0
40
0
40
0
40
0
40
0.228676412422255
40
0.228676412422255
40
0.285845515527813
40
0.285845515527813
40
0.314430067080591
40
0.314430067080591
40
0.328722342856981
40
0.328722342856981
40
0.335868480745169
40
0.335868480745169
40
0.343014618633358
40
0.343014618633358
40
0.45735282484436
40
0.45735282484436
40
0.686029237266366
40
0.686029237266366
40
0.914705649688372
40
0.914705649688372
40
1
40
1
40
1
40
1
41
1
10
113.657089334858
20
8.10493911375687
30
0
41
1
10
113.202044586236
20
8.02495836954475
30
0
41
1
10
112.747025163634
20
7.9419261041148
30
0
41
1
10
112.178272501757
20
7.83484518450712
30
0
41
1
10
112.064522696584
20
7.81325352554251
30
0
41
1
10
111.893894741703
20
7.78055376061153
30
0
41
1
10
111.837018245547
20
7.76960597058846
30
0
41
1
10
111.751702621566
20
7.75310433255072
30
0
41
1
10
111.723264402132
20
7.74758996428122
30
0
41
1
10
111.680602958917
20
7.73925519035336
30
0
41
1
10
111.666401657483
20
7.73604287887321
30
0
41
1
10
111.637895908453
20
7.73174709784885
30
0
41
1
10
111.623639855556
20
7.72963675266141
30
0
41
1
10
111.381261687482
20
7.69366914077258
30
0
41
1
10
111.152517142106
20
7.65995185035547
30
0
41
1
10
110.464489168679
20
7.55728393707258
30
0
41
1
10
110.003524946656
20
7.48840131048286
30
0
41
1
10
109.078108925621
20
7.35165671466024
30
0
41
1
10
108.613663904947
20
7.28389494299012
30
0
41
1
10
107.974041251778
20
7.191464329383
30
0
41
1
10
107.800074971764
20
7.16647553234927
30
0
41
1
10
107.625925300639
20
7.14160472000825
30
0
0
SPLINE
5
132
100
AcDbEntity
8
1
62
256
6
ByLayer
370
13
48
1
60
0
100
AcDbSpline
70
4
71
3
72
8
73
4
40
0
40
0
40
0
40
0
40
1
40
1
40
1
40
1
41
1
10
111.878434215401
20
-6.04327705122341
30
0
41
1
10
111.888638754482
20
-5.94685940865398
30
0
41
1
10
111.898879310396
20
-5.85035811728486
30
0
41
1
10
111.909154532908
20
-5.75377193602782
30
0
0
SPLINE
5
133
100
AcDbEntity
8
1
62
256
6
ByLayer
370
18
48
1
60
0
100
AcDbSpline
70
4
71
3
72
12
73
8
40
0
40
0
40
0
40
0
40
0.510513654822797
40
0.510513654822797
40
0.765770482234196
40
0.765770482234196
40
1
40
1
40
1
40
1
41
1
10
123.945421537682
20
-10.0269264683537
30
0
41
1
10
124.76350786231
20
-10.1056796606866
30
0
41
1
10
125.580682622702
20
-10.1641252173993
30
0
41
1
10
126.80473112201
20
-10.2219575814
30
0
41
1
10
127.212464260539
20
-10.2362433192244
30
0
41
1
10
127.993894530842
20
-10.2539985315103
30
0
41
1
10
128.367563218143
20
-10.2582490272202
30
0
41
1
10
128.74147202032
20
-10.258249616377
30
0
0
SPLINE
5
134
100
AcDbEntity
8
1
62
256
6
ByLayer
370
18
48
1
60
0
100
AcDbSpline
70
4
71
3
72
8
73
4
40
0
40
0
40
0
40
0
40
1
40
1
40
1
40
1
41
1
10
21
20
-5.80216747273406
30
0
41
1
10
20.914373711665
20
-5.78820122758421
30
0
41
1
10
20.8286231779316
20
-5.77562441798403
30
0
41
1
10
20.7427512913625
20
-5.76444079224902
30
0
0
SPLINE
5
135
100
AcDbEntity
8
1
62
256
6
ByLayer
370
18
48
1
60
0
100
AcDbSpline
70
4
71
3
72
12
73
8
40
0
40
0
40
0
40
0
40
0.5
40
0.5
40
0.75
40
0.75
40
1
40
1
40
1
40
1
41
1
10
114.702215800359
20
8.95300865068538
30
0
41
1
10
116.200325614494
20
9.23490383540297
30
0
41
1
10
117.697608483388
20
9.47319513927098
30
0
41
1
10
119.947594828632
20
9.7607180704569
30
0
41
1
10
120.698587679291
20
9.8449417652987
30
0
41
1
10
122.199515054327
20
9.98968610579942
30
0
41
1
10
122.949752886493
20
10.0502575796295
30
0
41
1
10
123.7
20
10.0990367043837
30
0
0
SPLINE
5
136
100
AcDbEntity
8
1
62
256
6
ByLayer
370
18
48
1
60
0
100
AcDbSpline
70
4
71
3
72
12
73
8
40
0
40
0
40
0
40
0
40
0.415533960654226
40
0.415533960654226
40
0.707766885770438
40
0.707766885770438
40
1
40
1
40
1
40
1
41
1
10
123.799999998567
20
-9.99418265944925
30
0
41
1
10
123.786648996645
20
-10.0082880134844
30
0
41
1
10
123.77329363256
20
-10.0223914629348
30
0
41
1
10
123.75053849653
20
-10.0464102782833
30
0
41
1
10
123.741140898593
20
-10.0563265896776
30
0
41
1
10
123.722341473702
20
-10.0761574016836
30
0
41
1
10
123.712939645224
20
-10.0860719038988
30
0
41
1
10
123.703535723266
20
-10.0959855117755
30
0
0
SPLINE
5
137
100
AcDbEntity
8
1
62
256
6
ByLayer
370
18
48
1
60
0
100
AcDbSpline
70
4
71
3
72
8
73
4
40
0
40
0
40
0
40
0
40
1
40
1
40
1
40
1
41
1
10
136.940445913545
20
0.254422138124255
30
0
41
1
10
136.951980150175
20
0.215013802189162
30
0
41
1
10
136.963575134123
20
0.175485498330858
30
0
41
1
10
136.975230372704
20
0.13583970344601
30
0
0
SPLINE
5
138
100
AcDbEntity
8
1
62
256
6
ByLayer
370
18
48
1
60
0
100
AcDbSpline
70
4
71
3
72
30
73
26
40
0
40
0
40
0
40
0
40
0.0355723104432983
40
0.0708734662744018
40
0.105903880787085
40
0.140663976934403
40
0.175154187616177
40
0.209374955976572
40
0.243326735712204
40
0.277009991391155
40
0.310425198783325
40
0.343572845202593
40
0.37645342986122
40
0.409067464236992
40
0.441415472453606
40
0.473497991674814
40
0.505315572512864
40
0.569444777082306
40
0.632908262790594
40
0.695711020032891
40
0.757858198396072
40
0.819355112179319
40
0.880207246070392
40
0.940420260975552
40
1
40
1
40
1
40
1
41
1
10
129.590983264004
20
-3.64896162084335
30
0
41
1
10
129.569655280347
20
-3.59777300104727
30
0
41
1
10
129.527161888392
20
-3.495785953438
30
0
41
1
10
129.464363950693
20
-3.34200048418992
30
0
41
1
10
129.402567416963
20
-3.18843498656295
30
0
41
1
10
129.341821250368
20
-3.03504187663728
30
0
41
1
10
129.282112481451
20
-2.88190072507095
30
0
41
1
10
129.223444544224
20
-2.72905569518582
30
0
41
1
10
129.165816528418
20
-2.5765586021416
30
0
41
1
10
129.109228674048
20
-2.42445751389005
30
0
41
1
10
129.053680917142
20
-2.27279977673689
30
0
41
1
10
128.999173271914
20
-2.12163121844006
30
0
41
1
10
128.945705740343
20
-1.9709963786552
30
0
41
1
10
128.893278296402
20
-1.82093841668319
30
0
41
1
10
128.841891036632
20
-1.67149929658061
30
0
41
1
10
128.791543600596
20
-1.52271919616806
30
0
41
1
10
128.725410222649
20
-1.32410228644522
30
0
41
1
10
128.644664645397
20
-1.07553353508158
30
0
41
1
10
128.550852094327
20
-0.776902988914998
30
0
41
1
10
128.460676899374
20
-0.479906676448536
30
0
41
1
10
128.37414469994
20
-0.184808952621552
30
0
41
1
10
128.291235292181
20
0.108139741388527
30
0
41
1
10
128.212022803865
20
0.398698296094096
30
0
41
1
10
128.13623499984
20
0.686641897846101
30
0
41
1
10
128.088408407656
20
0.877710225971981
30
0
41
1
10
128.064621527505
20
0.97273935546562
30
0
0
SPLINE
5
139
100
AcDbEntity
8
1
62
256
6
ByLayer
370
18
48
1
60
0
100
AcDbSpline
70
4
71
3
72
40
73
36
40
0
40
0
40
0
40
0
40
0.129689064521424
40
0.129689064521424
40
0.259378129042848
40
0.259378129042848
40
0.32422266130356
40
0.32422266130356
40
0.389067193564272
40
0.389067193564272
40
0.453911725824983
40
0.453911725824983
40
0.48633399195534
40
0.48633399195534
40
0.518756258085696
40
0.518756258085696
40
0.64844532260712
40
0.64844532260712
40
0.778134387128544
40
0.778134387128544
40
0.907823451649968
40
0.907823451649968
40
0.924034584715145
40
0.924034584715145
40
0.940245717780323
40
0.940245717780323
40
0.956456850845501
40
0.956456850845501
40
0.972667983910678
40
0.972667983910678
40
0.988879116975856
40
0.988879116975856
40
0.996984683508445
40
0.996984683508445
40
1
40
1
40
1
40
1
41
1
10
20.8644974165879
20
-5.19547649673547
30
0
41
1
10
24.5582687734667
20
-5.75197242522114
30
0
41
1
10
28.2529615292863
20
-6.27132872979345
30
0
41
1
10
35.6414936924811
20
-7.22198035212861
30
0
41
1
10
39.3350539815337
20
-7.6532886885779
30
0
41
1
10
44.8773721762166
20
-8.21116904176094
30
0
41
1
10
46.7250379416527
20
-8.38205844598789
30
0
41
1
10
50.419016794049
20
-8.68855462918015
30
0
41
1
10
52.2656514043325
20
-8.82410461786799
30
0
41
1
10
55.958993497801
20
-9.05481778573011
30
0
41
1
10
57.8056990005095
20
-9.14989229167244
30
0
41
1
10
60.5765123347305
20
-9.25850244543841
30
0
41
1
10
61.5001409182992
20
-9.28843214342757
30
0
41
1
10
63.3472642312218
20
-9.34210665365575
30
0
41
1
10
64.2708174409877
20
-9.36538509599583
30
0
41
1
10
68.8885948886115
20
-9.46365471069035
30
0
41
1
10
72.5828982944482
20
-9.4852989159406
30
0
41
1
10
79.9739887480437
20
-9.4007284991678
30
0
41
1
10
83.6677130281204
20
-9.29409318899752
30
0
41
1
10
91.0560459314731
20
-8.93002836695942
30
0
41
1
10
94.7517782546342
20
-8.67155062512995
30
0
41
1
10
98.907973387822
20
-8.28850496317443
30
0
41
1
10
99.369766825893
20
-8.24469579463297
30
0
41
1
10
100.293372758174
20
-8.15446242326729
30
0
41
1
10
100.755325820545
20
-8.10803467376343
30
0
41
1
10
101.678741824053
20
-8.01229524737568
30
0
41
1
10
102.139695507966
20
-7.96052214904657
30
0
41
1
10
103.059640189875
20
-7.85020411801474
30
0
41
1
10
103.518602866002
20
-7.79141043693281
30
0
41
1
10
104.433767197441
20
-7.66358453832243
30
0
41
1
10
104.889999827318
20
-7.59458284912691
30
0
41
1
10
105.571540932388
20
-7.47813293770037
30
0
41
1
10
105.798249360804
20
-7.43713228950335
30
0
41
1
10
106.108413202154
20
-7.37686941223825
30
0
41
1
10
106.192420805108
20
-7.36013646308541
30
0
41
1
10
106.276326373802
20
-7.34292201356732
30
0
0
SPLINE
5
13A
100
AcDbEntity
8
1
62
256
6
ByLayer
370
18
48
1
60
0
100
AcDbSpline
70
4
71
3
72
16
73
12
40
0
40
0
40
0
40
0
40
0.250000000000021
40
0.250000000000021
40
0.375000000000032
40
0.375000000000032
40
0.500000000000043
40
0.500000000000043
40
0.750000000000021
40
0.750000000000021
40
1
40
1
40
1
40
1
41
1
10
111.113460494653
20
6.72539443297805
30
0
41
1
10
110.960304331553
20
6.68607773281786
30
0
41
1
10
110.804386773147
20
6.65742512112291
30
0
41
1
10
110.566444290873
20
6.63069726129282
30
0
41
1
10
110.486448687032
20
6.62450690080226
30
0
41
1
10
110.325059445199
20
6.61774531103654
30
0
41
1
10
110.2433676188
20
6.61720829560986
30
0
41
1
10
110.001228069906
20
6.62415943555851
30
0
41
1
10
109.842229604113
20
6.64001737143084
30
0
41
1
10
109.528976889449
20
6.69325893074583
30
0
41
1
10
109.373804605243
20
6.73107149347339
30
0
41
1
10
109.225587977453
20
6.77823629246657
30
0
0
SPLINE
5
13B
100
AcDbEntity
8
1
62
256
6
ByLayer
370
13
48
1
60
0
100
AcDbSpline
70
4
71
3
72
8
73
4
40
0
40
0
40
0
40
0
40
1
40
1
40
1
40
1
41
1
10
135.831520107046
20
1.02963970410113
30
0
41
1
10
135.839107117605
20
1.02423999440771
30
0
41
1
10
135.846719170533
20
1.01887166253147
30
0
41
1
10
135.854355503576
20
1.01353432304651
30
0
0
SPLINE
5
13C
100
AcDbEntity
8
1
62
256
6
ByLayer
370
18
48
1
60
0
100
AcDbSpline
70
4
71
3
72
8
73
4
40
0
40
0
40
0
40
0
40
1
40
1
40
1
40
1
41
1
10
136.940445913545
20
-0.254422138124283
30
0
41
1
10
136.951980150175
20
-0.215013802189162
30
0
41
1
10
136.963575134123
20
-0.175485498330858
30
0
41
1
10
136.975230372704
20
-0.13583970344601
30
0
0
SPLINE
5
13D
100
AcDbEntity
8
1
62
256
6
ByLayer
370
18
48
1
60
0
100
AcDbSpline
70
4
71
3
72
8
73
4
40
0
40
0
40
0
40
0
40
1
40
1
40
1
40
1
41
1
10
134.681130866428
20
7.42105365418053
30
0
41
1
10
134.405582259156
20
8.26760493245928
30
0
41
1
10
134.125398153117
20
9.11916039445549
30
0
41
1
10
133.840415615323
20
9.97589593205214
30
0
0
SPLINE
5
13E
100
AcDbEntity
8
1
62
256
6
ByLayer
370
18
48
1
60
0
100
AcDbSpline
70
4
71
3
72
16
73
12
40
0
40
0
40
0
40
0
40
0.250000000000011
40
0.250000000000011
40
0.375000000000009
40
0.375000000000009
40
0.500000000000007
40
0.500000000000007
40
0.750000000000004
40
0.750000000000004
40
1
40
1
40
1
40
1
41
1
10
19.075156079705
20
-4.95736712649776
30
0
41
1
10
19.1759890636604
20
-5.06396020155344
30
0
41
1
10
19.2876105707305
20
-5.15937415969881
30
0
41
1
10
19.4716060145028
20
-5.28793389939045
30
0
41
1
10
19.5357056652349
20
-5.32835332863718
30
0
41
1
10
19.669614400102
20
-5.40460377249369
30
0
41
1
10
19.7391747674298
20
-5.44025567124038
30
0
41
1
10
19.9523053876379
20
-5.53894152679791
30
0
41
1
10
20.1014923079675
20
-5.59448210994702
30
0
41
1
10
20.4137682040756
20
-5.68852548847227
30
0
41
1
10
20.5776976847697
20
-5.72706728958863
30
0
41
1
10
20.7441267549001
20
-5.75704456504627
30
0
0
SPLINE
5
13F
100
AcDbEntity
8
1
62
256
6
ByLayer
370
18
48
1
60
0
100
AcDbSpline
70
4
71
3
72
22
73
18
40
0
40
0
40
0
40
0
40
0.0451181636113101
40
0.0451181636113101
40
0.104798278385603
40
0.104798278385603
40
0.164478393159896
40
0.164478393159896
40
0.283838622708482
40
0.283838622708482
40
0.522559081805655
40
0.522559081805655
40
0.641919311354241
40
0.641919311354241
40
0.761279540902827
40
0.761279540902827
40
1
40
1
40
1
40
1
41
1
10
70.7265667919291
20
-1.07266346526381
30
0
41
1
10
70.0142534057068
20
-0.939950723384158
30
0
41
1
10
69.3019115871737
20
-0.806779639857467
30
0
41
1
10
67.6472009410617
20
-0.496615891281124
30
0
41
1
10
66.7046693072664
20
-0.319385181977054
30
0
41
1
10
64.8198751788173
20
0.0354712813970082
30
0
41
1
10
63.8777177163662
20
0.213217189710349
30
0
41
1
10
61.0513240568832
20
0.744933304976598
30
0
41
1
10
59.1670153567099
20
1.09704086003112
30
0
41
1
10
53.5135243823018
20
2.14390365426942
30
0
41
1
10
49.7428605055532
20
2.829853095858
30
0
41
1
10
44.0883541366058
20
3.82214121785799
30
0
41
1
10
42.2036437599471
20
4.14671719254551
30
0
41
1
10
38.4338446309136
20
4.77901203323583
30
0
41
1
10
36.5484140918559
20
5.0868120426257
30
0
41
1
10
30.8940772761608
20
5.97629086316957
30
0
41
1
10
27.1266278509304
20
6.52479008904422
30
0
41
1
10
23.3573950787677
20
7.00169312248431
30
0
0
SPLINE
5
140
100
AcDbEntity
8
1
62
256
6
ByLayer
370
18
48
1
60
0
100
AcDbSpline
70
4
71
3
72
14
73
10
40
0
40
0
40
0
40
0
40
0.25
40
0.25
40
0.5
40
0.5
40
0.75
40
0.75
40
1
40
1
40
1
40
1
41
1
10
23.3576212148298
20
7.00306755025042
30
0
41
1
10
23.2383164187069
20
7.01534229835841
30
0
41
1
10
23.1192672035964
20
7.03215781931567
30
0
41
1
10
22.8815834205982
20
7.07379785361286
30
0
41
1
10
22.7621110509519
20
7.0988539109029
30
0
41
1
10
22.5326335718323
20
7.15277140601577
30
0
41
1
10
22.4214419175919
20
7.18177489089646
30
0
41
1
10
22.2044875508951
20
7.24176433640136
30
0
41
1
10
22.0982140733007
20
7.27291873410493
30
0
41
1
10
21.9964444871902
20
7.30357424708725
30
0
0
SPLINE
5
141
100
AcDbEntity
8
1
62
256
6
ByLayer
370
18
48
1
60
0
100
AcDbSpline
70
4
71
3
72
12
73
8
40
0
40
0
40
0
40
0
40
0.250000000000014
40
0.250000000000014
40
0.500000000000027
40
0.500000000000027
40
1
40
1
40
1
40
1
41
1
10
114.730404425779
20
8.85593895259743
30
0
41
1
10
114.82023485437
20
8.85543620373497
30
0
41
1
10
114.908875739315
20
8.85117178913535
30
0
41
1
10
115.083654712676
20
8.83430480135647
30
0
41
1
10
115.169109499356
20
8.8217099631334
30
0
41
1
10
115.414975996315
20
8.77180482180779
30
0
41
1
10
115.566915844939
20
8.72230975932141
30
0
41
1
10
115.706422910036
20
8.65533791983867
30
0
0
SPLINE
5
142
100
AcDbEntity
8
1
62
256
6
ByLayer
370
18
48
1
60
0
100
AcDbSpline
70
4
71
3
72
12
73
8
40
0
40
0
40
0
40
0
40
0.25
40
0.25
40
0.5
40
0.5
40
1
40
1
40
1
40
1
41
1
10
123.705141786033
20
9.4381320059718
30
0
41
1
10
123.037336784381
20
9.40866385763647
30
0
41
1
10
122.369455288824
20
9.37076788764239
30
0
41
1
10
121.035273240163
20
9.27717350780929
30
0
41
1
10
120.368722434356
20
9.22146351699823
30
0
41
1
10
118.370016120093
20
9.02633686793084
30
0
41
1
10
117.038807188764
20
8.85847891757447
30
0
41
1
10
115.706422910036
20
8.65533791983864
30
0
0
SPLINE
5
143
100
AcDbEntity
8
1
62
256
6
ByLayer
370
18
48
1
60
0
100
AcDbSpline
70
4
71
3
72
10
73
6
40
0
40
0
40
0
40
0
40
0.083120176274642
40
0.535788690056047
40
1
40
1
40
1
40
1
41
1
10
123.817780481001
20
-9.65090840109582
30
0
41
1
10
123.816797946989
20
-9.65258628737405
30
0
41
1
10
123.810706777419
20
-9.66339613959624
30
0
41
1
10
123.802212025321
20
-9.68347444156316
30
0
41
1
10
123.800743504282
20
-9.7013013271897
30
0
41
1
10
123.8
20
-9.71032698324058
30
0
0
SPLINE
5
144
100
AcDbEntity
8
1
62
256
6
ByLayer
370
18
48
1
60
0
100
AcDbSpline
70
4
71
3
72
12
73
8
40
0
40
0
40
0
40
0
40
0.5
40
0.5
40
0.75
40
0.75
40
1
40
1
40
1
40
1
41
1
10
135.890245290882
20
3.91210245513148
30
0
41
1
10
135.680485125042
20
4.491128799244
30
0
41
1
10
135.474328856618
20
5.07376157552335
30
0
41
1
10
135.170847797885
20
5.95346813037915
30
0
41
1
10
135.070529147697
20
6.24804831382971
30
0
41
1
10
134.872558995586
20
6.83775747997294
30
0
41
1
10
134.775693653403
20
7.13053413755824
30
0
41
1
10
134.681130866428
20
7.42105365418053
30
0
0
SPLINE
5
145
100
AcDbEntity
8
1
62
256
6
ByLayer
370
18
48
1
60
0
100
AcDbSpline
70
4
71
3
72
8
73
4
40
0
40
0
40
0
40
0
40
1
40
1
40
1
40
1
41
1
10
111.113460494653
20
6.72539443297816
30
0
41
1
10
112.588599965264
20
6.33541127903001
30
0
41
1
10
114.062661584357
20
5.91507258973007
30
0
41
1
10
115.537844115116
20
5.46903616974649
30
0
0
SPLINE
5
146
100
AcDbEntity
8
1
62
256
6
ByLayer
370
18
48
1
60
0
100
AcDbSpline
70
4
71
3
72
12
73
8
40
0
40
0
40
0
40
0
40
0.5
40
0.5
40
0.75
40
0.75
40
1
40
1
40
1
40
1
41
1
10
135.890245290882
20
-3.91210245513148
30
0
41
1
10
135.680485125042
20
-4.491128799244
30
0
41
1
10
135.474328856618
20
-5.07376157552332
30
0
41
1
10
135.170847797885
20
-5.95346813037915
30
0
41
1
10
135.070529147697
20
-6.24804831382971
30
0
41
1
10
134.872558995586
20
-6.83775747997294
30
0
41
1
10
134.775693653403
20
-7.13053413755824
30
0
41
1
10
134.681130866428
20
-7.42105365418053
30
0
0
SPLINE
5
147
100
AcDbEntity
8
1
62
256
6
ByLayer
370
18
48
1
60
0
100
AcDbSpline
70
4
71
3
72
42
73
38
40
0
40
0
40
0
40
0
40
0.0645682006009388
40
0.0645682006009388
40
0.129136401201878
40
0.129136401201878
40
0.258272802403756
40
0.258272802403756
40
0.322841003004695
40
0.322841003004695
40
0.387409203605634
40
0.387409203605634
40
0.419693303906103
40
0.419693303906103
40
0.451977404206573
40
0.451977404206573
40
0.516545604807512
40
0.516545604807512
40
0.645682006009391
40
0.645682006009391
40
0.71025020661033
40
0.71025020661033
40
0.774818407211269
40
0.774818407211269
40
0.903954808413148
40
0.903954808413148
40
0.920096858563382
40
0.920096858563382
40
0.936238908713616
40
0.936238908713616
40
0.968523009014084
40
0.968523009014084
40
0.984665059164318
40
0.984665059164318
40
0.992736084239435
40
0.992736084239435
40
1
40
1
40
1
40
1
41
1
10
25.7000000000925
20
-6.20915420745408
30
0
41
1
10
27.4432387719895
20
-6.46581967420482
30
0
41
1
10
29.1867821784071
20
-6.70881326207763
30
0
41
1
10
32.6749111413965
20
-7.16757567681273
30
0
41
1
10
34.4196603428422
20
-7.38338597111323
30
0
41
1
10
39.6533637576047
20
-7.99041820064511
30
0
41
1
10
43.1424633762068
20
-8.34174334237892
30
0
41
1
10
48.3768007435102
20
-8.78899582607701
30
0
41
1
10
50.1219182834737
20
-8.92473155295065
30
0
41
1
10
53.6103218150276
20
-9.16816421543248
30
0
41
1
10
55.3538079170236
20
-9.2758804527019
30
0
41
1
10
57.9679949022879
20
-9.41469070908775
30
0
41
1
10
58.8392196438145
20
-9.45715091842862
30
0
41
1
10
60.5813459189707
20
-9.53402833849665
30
0
41
1
10
61.4521621128509
20
-9.56850090602978
30
0
41
1
10
64.0654864948887
20
-9.65802222557349
30
0
41
1
10
65.8088408871311
20
-9.69953991989857
30
0
41
1
10
71.0387807737955
20
-9.77093565500056
30
0
41
1
10
74.5261985593411
20
-9.74863457529582
30
0
41
1
10
79.7602074301377
20
-9.62252335779462
30
0
41
1
10
81.5055087254281
20
-9.56495729368095
30
0
41
1
10
84.9956422033284
20
-9.4195496686352
30
0
41
1
10
86.7405881771558
20
-9.3316852078234
30
0
41
1
10
91.9752340296351
20
-9.02206909351486
30
0
41
1
10
95.4637330322288
20
-8.75460205648128
30
0
41
1
10
99.3848556098589
20
-8.3777777554358
30
0
41
1
10
99.8204849805088
20
-8.33485111249212
30
0
41
1
10
100.69163784562
20
-8.24676251991914
30
0
41
1
10
101.127362438365
20
-8.20216398430645
30
0
41
1
10
102.432347015054
20
-8.05925995986948
30
0
41
1
10
103.300663133857
20
-7.95353385160914
30
0
41
1
10
104.591967883774
20
-7.76589414945536
30
0
41
1
10
105.020611268842
20
-7.69839990040725
30
0
41
1
10
105.659060320305
20
-7.58528160449598
30
0
41
1
10
105.87111161607
20
-7.54557995437881
30
0
41
1
10
106.271918733703
20
-7.4648086521961
30
0
41
1
10
106.460905002971
20
-7.42432455647017
30
0
41
1
10
106.64850934819
20
-7.3803246386361
30
0
0
SPLINE
5
148
100
AcDbEntity
8
1
62
256
6
ByLayer
370
18
48
1
60
0
100
AcDbSpline
70
4
71
3
72
12
73
8
40
0
40
0
40
0
40
0
40
0.500000000000032
40
0.500000000000032
40
0.750000000000016
40
0.750000000000016
40
1
40
1
40
1
40
1
41
1
10
113.822100214233
20
-8.65457420458816
30
0
41
1
10
113.984117349008
20
-8.69187801422345
30
0
41
1
10
114.139256524127
20
-8.73614675090761
30
0
41
1
10
114.36141465567
20
-8.81191383506953
30
0
41
1
10
114.433861370383
20
-8.83882332505465
30
0
41
1
10
114.572298139046
20
-8.89446094175375
30
0
41
1
10
114.638654789143
20
-8.92330215002002
30
0
41
1
10
114.702215800379
20
-8.95300865069467
30
0
0
SPLINE
5
149
100
AcDbEntity
8
1
62
256
6
ByLayer
370
18
48
1
60
0
100
AcDbSpline
70
4
71
3
72
8
73
4
40
0
40
0
40
0
40
0
40
1
40
1
40
1
40
1
41
1
10
124.542935856766
20
-10.4307587299418
30
0
41
1
10
124.295714615348
20
-10.3306295022282
30
0
41
1
10
124.04808010129
20
-10.2287428345431
30
0
41
1
10
123.8
20
-10.1251908751171
30
0
0
SPLINE
5
14A
100
AcDbEntity
8
1
62
256
6
ByLayer
370
18
48
1
60
0
100
AcDbSpline
70
4
71
3
72
8
73
4
40
0
40
0
40
0
40
0
40
1
40
1
40
1
40
1
41
1
10
124.542935856766
20
-10.2977588374489
30
0
41
1
10
124.344047785087
20
-10.208604042001
30
0
41
1
10
124.144882943953
20
-10.1183103280864
30
0
41
1
10
123.945421537682
20
-10.0269264683537
30
0
0
SPLINE
5
14B
100
AcDbEntity
8
1
62
256
6
ByLayer
370
18
48
1
60
0
100
AcDbSpline
70
4
71
3
72
16
73
12
40
0
40
0
40
0
40
0
40
0.25
40
0.25
40
0.5
40
0.5
40
0.625
40
0.625
40
0.75
40
0.75
40
1
40
1
40
1
40
1
41
1
10
134.008955559915
20
3.61576119889202
30
0
41
1
10
133.810872406331
20
3.45022098246213
30
0
41
1
10
133.6207137974
20
3.28226712176681
30
0
41
1
10
133.258596361624
20
2.94077434281968
30
0
41
1
10
133.086279617651
20
2.76755620983306
30
0
41
1
10
132.841344825831
20
2.50509184785489
30
0
41
1
10
132.762186174467
20
2.41725056629852
30
0
41
1
10
132.611852894647
20
2.24439528095226
30
0
41
1
10
132.540235783864
20
2.1589528063717
30
0
41
1
10
132.335896835499
20
1.90595458828122
30
0
41
1
10
132.213523658682
20
1.74172086311768
30
0
41
1
10
132.106431909597
20
1.58223886069871
30
0
0
SPLINE
5
14C
100
AcDbEntity
8
1
62
256
6
ByLayer
370
18
48
1
60
0
100
AcDbSpline
70
4
71
3
72
8
73
4
40
0
40
0
40
0
40
0
40
1
40
1
40
1
40
1
41
1
10
23.1
20
-6.35148010900835
30
0
41
1
10
22.4001134814293
20
-6.16944520134354
30
0
41
1
10
21.7001399073127
20
-5.98625093928541
30
0
41
1
10
21
20
-5.80216747273406
30
0
0
SPLINE
5
14D
100
AcDbEntity
8
1
62
256
6
ByLayer
370
18
48
1
60
0
100
AcDbSpline
70
4
71
3
72
12
73
8
40
0
40
0
40
0
40
0
40
0.41553396065431
40
0.41553396065431
40
0.707766885770526
40
0.707766885770526
40
1
40
1
40
1
40
1
41
1
10
123.799999998567
20
9.99418265944925
30
0
41
1
10
123.786648996645
20
10.0082880134844
30
0
41
1
10
123.77329363256
20
10.0223914629348
30
0
41
1
10
123.75053849653
20
10.0464102782833
30
0
41
1
10
123.741140898593
20
10.0563265896776
30
0
41
1
10
123.722341473702
20
10.0761574016836
30
0
41
1
10
123.712939645224
20
10.0860719038987
30
0
41
1
10
123.703535723266
20
10.0959855117755
30
0
0
SPLINE
5
14E
100
AcDbEntity
8
1
62
256
6
ByLayer
370
18
48
1
60
0
100
AcDbSpline
70
4
71
3
72
14
73
10
40
0
40
0
40
0
40
0
40
0.220589375579493
40
0.220589375579493
40
0.480392917052995
40
0.480392917052995
40
0.740196458526498
40
0.740196458526498
40
1
40
1
40
1
40
1
41
1
10
124.986036196925
20
2.38377177433804
30
0
41
1
10
125.50826974798
20
2.31705640381611
30
0
41
1
10
126.030737237364
20
2.25158775646531
30
0
41
1
10
127.169093420542
20
2.11190151286013
30
0
41
1
10
127.785289048268
20
2.03931965387596
30
0
41
1
10
129.019444654254
20
1.90355865629328
30
0
41
1
10
129.636720646993
20
1.83791965842363
30
0
41
1
10
130.87138908579
20
1.70796086735243
30
0
41
1
10
131.48878722613
20
1.64370484278967
30
0
41
1
10
132.106431909597
20
1.58223886069862
30
0
0
SPLINE
5
14F
100
AcDbEntity
8
1
62
256
6
ByLayer
370
18
48
1
60
0
100
AcDbSpline
70
4
71
3
72
12
73
8
40
0
40
0
40
0
40
0
40
0.5
40
0.5
40
0.75
40
0.75
40
1
40
1
40
1
40
1
41
1
10
114.702215800388
20
-8.95300865069069
30
0
41
1
10
116.200520167204
20
-9.23494044384819
30
0
41
1
10
117.697997361495
20
-9.47325700042978
30
0
41
1
10
119.948276976188
20
-9.76079915422488
30
0
41
1
10
120.699409842706
20
-9.84502884784951
30
0
41
1
10
122.200183609566
20
-9.98974277534717
30
0
41
1
10
122.950172589267
20
-10.0502848676173
30
0
41
1
10
123.7
20
-10.0990367043837
30
0
0
SPLINE
5
150
100
AcDbEntity
8
1
62
256
6
ByLayer
370
18
48
1
60
0
100
AcDbSpline
70
4
71
3
72
8
73
4
40
0
40
0
40
0
40
0
40
1
40
1
40
1
40
1
41
1
10
132.166667023789
20
1.28342655206077
30
0
41
1
10
132.14515458911
20
1.38270717834021
30
0
41
1
10
132.125260104963
20
1.48242945795343
30
0
41
1
10
132.106431909597
20
1.58223886069905
30
0
0
SPLINE
5
151
100
AcDbEntity
8
1
62
256
6
ByLayer
370
18
48
1
60
0
100
AcDbSpline
70
4
71
2
72
6
73
3
40
0
40
0
40
0
40
1
40
1
40
1
41
0.500000067696625
10
113.826380668712
20
-8.64650936652123
30
0
41
0.499999932303375
10
113.824241691634
20
-8.65054643850213
30
0
41
0.500000067696625
10
113.822100214233
20
-8.65457420458814
30
0
0
SPLINE
5
152
100
AcDbEntity
8
1
62
256
6
ByLayer
370
18
48
1
60
0
100
AcDbSpline
70
4
71
3
72
12
73
8
40
0
40
0
40
0
40
0
40
0.5
40
0.5
40
0.75
40
0.75
40
1
40
1
40
1
40
1
41
1
10
21.9964444871903
20
7.30357424708725
30
0
41
1
10
22.1761086190301
20
7.35021225063289
30
0
41
1
10
22.3580471636506
20
7.38483190087595
30
0
41
1
10
22.6342262710549
20
7.41963194435729
30
0
41
1
10
22.7268354530675
20
7.42835285199052
30
0
41
1
10
22.9131821421577
20
7.43988828042859
30
0
41
1
10
23.0068966737591
20
7.44267660520393
30
0
41
1
10
23.1
20
7.44238464181126
30
0
0
SPLINE
5
153
100
AcDbEntity
8
1
62
256
6
ByLayer
370
18
48
1
60
0
100
AcDbSpline
70
4
71
3
72
9
73
5
40
0
40
0
40
0
40
0
40
0.496129059174825
40
1
40
1
40
1
40
1
41
1
10
123.800000003181
20
9.26545049378871
30
0
41
1
10
123.784546001336
20
9.2941224905604
30
0
41
1
10
123.753396844561
20
9.35191389834324
30
0
41
1
10
123.721309608895
20
9.40924469062759
30
0
41
1
10
123.705141783272
20
9.43813201087414
30
0
0
SPLINE
5
154
100
AcDbEntity
8
1
62
256
6
ByLayer
370
18
48
1
60
0
100
AcDbSpline
70
4
71
3
72
12
73
8
40
0
40
0
40
0
40
0
40
0.5
40
0.5
40
0.75
40
0.75
40
1
40
1
40
1
40
1
41
1
10
115.537844114767
20
5.48093134639569
30
0
41
1
10
117.623239284728
20
4.80422666422277
30
0
41
1
10
119.708955065769
20
4.07757506799129
30
0
41
1
10
122.848585465558
20
2.93719446258697
30
0
41
1
10
123.893862067242
20
2.55008946215654
30
0
41
1
10
125.98079837734
20
1.76696970200251
30
0
41
1
10
127.022865554552
20
1.37074806702492
30
0
41
1
10
128.064625588466
20
0.97274149531242
30
0
0
SPLINE
5
155
100
AcDbEntity
8
1
62
256
6
ByLayer
370
18
48
1
60
0
100
AcDbSpline
70
4
71
3
72
8
73
4
40
0
40
0
40
0
40
0
40
1
40
1
40
1
40
1
41
1
10
134.030454282757
20
3.63365769234412
30
0
41
1
10
134.023274673191
20
3.62770468568263
30
0
41
1
10
134.01610848418
20
3.62173897443483
30
0
41
1
10
134.008955559915
20
3.61576119889202
30
0
0
SPLINE
5
156
100
AcDbEntity
8
1
62
256
6
ByLayer
370
18
48
1
60
0
100
AcDbSpline
70
4
71
1
72
4
73
2
40
0
40
0
40
1
40
1
41
1
10
129.7094160957
20
-3.57980724345492
30
0
41
1
10
129.71171723586
20
-3.63843750864709
30
0
0
SPLINE
5
157
100
AcDbEntity
8
1
62
256
6
ByLayer
370
18
48
1
60
0
100
AcDbSpline
70
4
71
3
72
30
73
26
40
0
40
0
40
0
40
0
40
0.0625
40
0.0625
40
0.125
40
0.125
40
0.25
40
0.25
40
0.3125
40
0.3125
40
0.375
40
0.375
40
0.437499999999999
40
0.437499999999999
40
0.499999999999999
40
0.499999999999999
40
0.624999999999999
40
0.624999999999999
40
0.749999999999999
40
0.749999999999999
40
0.812499999999999
40
0.812499999999999
40
0.874999999999999
40
0.874999999999999
40
1
40
1
40
1
40
1
41
1
10
111.909154532908
20
-5.75377193602782
30
0
41
1
10
112.019923213993
20
-5.77293798568405
30
0
41
1
10
112.131628609951
20
-5.78693775609506
30
0
41
1
10
112.356907895756
20
-5.80475219863123
30
0
41
1
10
112.469734827869
20
-5.80847603215202
30
0
41
1
10
112.805609189997
20
-5.80453406209517
30
0
41
1
10
113.027393306306
20
-5.7820974433599
30
0
41
1
10
113.356782460534
20
-5.71731954271365
30
0
41
1
10
113.464953798743
20
-5.69064185143193
30
0
41
1
10
113.675259170093
20
-5.62788111435077
30
0
41
1
10
113.777853606741
20
-5.59171022584397
30
0
41
1
10
113.97794502637
20
-5.50955580374628
30
0
41
1
10
114.075442475985
20
-5.46357391412457
30
0
41
1
10
114.265163909288
20
-5.36113207176234
30
0
41
1
10
114.356181703245
20
-5.3052777764878
30
0
41
1
10
114.615449433271
20
-5.12531052667529
30
0
41
1
10
114.771238986212
20
-4.98833728656106
30
0
41
1
10
115.047618592536
20
-4.67650729375501
30
0
41
1
10
115.162918467684
20
-4.50752386937822
30
0
41
1
10
115.30304851357
20
-4.2344252946701
30
0
41
1
10
115.344263863961
20
-4.14007152945968
30
0
41
1
10
115.41546132723
20
-3.94434371104407
30
0
41
1
10
115.444765689353
20
-3.84482032565782
30
0
41
1
10
115.514782161266
20
-3.54174132806315
30
0
41
1
10
115.537843751596
20
-3.33352771786741
30
0
41
1
10
115.537844110958
20
-3.11894649667076
30
0
0
SPLINE
5
158
100
AcDbEntity
8
1
62
256
6
ByLayer
370
18
48
1
60
0
100
AcDbSpline
70
4
71
3
72
12
73
8
40
0
40
0
40
0
40
0
40
0.0804104082198697
40
0.0804104082198697
40
0.540205204109935
40
0.540205204109935
40
1
40
1
40
1
40
1
41
1
10
128.702444055808
20
10.4902781092403
30
0
41
1
10
128.835089489
20
10.4907439950275
30
0
41
1
10
128.967746805826
20
10.490662938701
30
0
41
1
10
129.859114198832
20
10.4864398657208
30
0
41
1
10
130.618104793005
20
10.465098029252
30
0
41
1
10
132.136444044881
20
10.386653972009
30
0
41
1
10
132.895489416659
20
10.329294500344
30
0
41
1
10
133.656697901843
20
10.254492374436
30
0
0
SPLINE
5
159
100
AcDbEntity
8
1
62
256
6
ByLayer
370
18
48
1
60
0
100
AcDbSpline
70
4
71
3
72
10
73
6
40
0
40
0
40
0
40
0
40
0.5
40
0.5
40
1
40
1
40
1
40
1
41
1
10
19.671592949084
20
6.99136173661145
30
0
41
1
10
19.8805205820548
20
7.03218982270164
30
0
41
1
10
20.095460279947
20
7.06874437766865
30
0
41
1
10
20.5385404311048
20
7.13521906942478
30
0
41
1
10
20.7680445760554
20
7.16528204259438
30
0
41
1
10
21
20
7.19204910849029
30
0
0
SPLINE
5
15A
100
AcDbEntity
8
1
62
256
6
ByLayer
370
18
48
1
60
0
100
AcDbSpline
70
4
71
3
72
8
73
4
40
0
40
0
40
0
40
0
40
1
40
1
40
1
40
1
41
1
10
19.0751560797027
20
-4.95736712650825
30
0
41
1
10
19.1947969364863
20
-4.95756366801325
30
0
41
1
10
19.3303499454049
20
-4.96876505680896
30
0
41
1
10
19.4849077732095
20
-4.99352024757948
30
0
0
SPLINE
5
15B
100
AcDbEntity
8
1
62
256
6
ByLayer
370
18
48
1
60
0
100
AcDbSpline
70
4
71
3
72
8
73
4
40
0
40
0
40
0
40
0
40
1
40
1
40
1
40
1
41
1
10
123.59999999998
20
3.21617717371689
30
0
41
1
10
123.175379742203
20
3.24884511123423
30
0
41
1
10
122.750719014756
20
3.27993319800186
30
0
41
1
10
122.326006107691
20
3.30945520500364
30
0
0
SPLINE
5
15C
100
AcDbEntity
8
1
62
256
6
ByLayer
370
18
48
1
60
0
100
AcDbSpline
70
4
71
3
72
40
73
36
40
0
40
0
40
0
40
0
40
0.16903304262881
40
0.16903304262881
40
0.307527535523997
40
0.307527535523997
40
0.446022028419183
40
0.446022028419183
40
0.723011014209556
40
0.723011014209556
40
0.757634637433353
40
0.757634637433353
40
0.792258260657149
40
0.792258260657149
40
0.861505507104743
40
0.861505507104743
40
0.896129130328539
40
0.896129130328539
40
0.913440941940437
40
0.913440941940437
40
0.930752753552336
40
0.930752753552336
40
0.939408659358285
40
0.939408659358285
40
0.943736612261259
40
0.943736612261259
40
0.944818600487004
40
0.944818600487004
40
0.945900588712749
40
0.945900588712749
40
0.94806456516424
40
0.94806456516424
40
0.96537637677616
40
0.96537637677616
40
1
40
1
40
1
40
1
41
1
10
71.629300384764
20
9.74761886807488
30
0
41
1
10
73.7575018703468
20
9.74416849416394
30
0
41
1
10
75.8861620552434
20
9.71586683331086
30
0
41
1
10
79.7602074301378
20
9.62252335779462
30
0
41
1
10
81.5055087254281
20
9.56495729368095
30
0
41
1
10
84.9956422033284
20
9.4195496686352
30
0
41
1
10
86.7405881771558
20
9.3316852078234
30
0
41
1
10
91.9752340296352
20
9.02206909351489
30
0
41
1
10
95.4637330322288
20
8.75460205648128
30
0
41
1
10
99.3848556098588
20
8.37777775543583
30
0
41
1
10
99.8204849805089
20
8.33485111249212
30
0
41
1
10
100.69163784562
20
8.24676251991914
30
0
41
1
10
101.127362438365
20
8.20216398430645
30
0
41
1
10
102.432347015054
20
8.05925995986948
30
0
41
1
10
103.300663133857
20
7.95353385160914
30
0
41
1
10
104.591967883774
20
7.76589414945536
30
0
41
1
10
105.020611268842
20
7.69839990040725
30
0
41
1
10
105.659060320305
20
7.58528160449598
30
0
41
1
10
105.87111161607
20
7.54557995437881
30
0
41
1
10
106.293014032435
20
7.46055749328789
30
0
41
1
10
106.502891608752
20
7.41530054884501
30
0
41
1
10
106.815043440434
20
7.34063853324559
30
0
41
1
10
106.918643536081
20
7.31460521016939
30
0
41
1
10
107.073071877975
20
7.27311414559432
30
0
41
1
10
107.124384748241
20
7.25887380852461
30
0
41
1
10
107.188269065226
20
7.24043321734592
30
0
41
1
10
107.201012372665
20
7.23666710788825
30
0
41
1
10
107.226541790864
20
7.2292224393147
30
0
41
1
10
107.239833578326
20
7.22666709893429
30
0
41
1
10
107.279170191969
20
7.21779919068933
30
0
41
1
10
107.305378307818
20
7.21184176451914
30
0
41
1
10
107.541359837803
20
7.15838325448581
30
0
41
1
10
107.751134362065
20
7.1103039015594
30
0
41
1
10
108.380486372726
20
6.96440196233175
30
0
41
1
10
108.800111428552
20
6.86495307011612
30
0
41
1
10
109.219791298028
20
6.76329396063713
30
0
0
SPLINE
5
15D
100
AcDbEntity
8
1
62
256
6
ByLayer
370
18
48
1
60
0
100
AcDbSpline
70
4
71
3
72
8
73
4
40
0
40
0
40
0
40
0
40
1
40
1
40
1
40
1
41
1
10
123.6
20
4.09999999999999
30
0
41
1
10
123.6
20
3.75572016880153
30
0
41
1
10
123.6
20
3.46156706723781
30
0
41
1
10
123.6
20
3.21617717371674
30
0
0
SPLINE
5
15E
100
AcDbEntity
8
1
62
256
6
ByLayer
370
18
48
1
60
0
100
AcDbSpline
70
4
71
3
72
8
73
4
40
0
40
0
40
0
40
0
40
1
40
1
40
1
40
1
41
1
10
124.542935856766
20
-10.4307587299418
30
0
41
1
10
125.241985503915
20
-10.4633061474654
30
0
41
1
10
125.940415375947
20
-10.4806644339142
30
0
41
1
10
126.638033936046
20
-10.4830619226826
30
0
0
SPLINE
5
15F
100
AcDbEntity
8
1
62
256
6
ByLayer
370
18
48
1
60
0
100
AcDbSpline
70
4
71
1
72
4
73
2
40
0
40
0
40
1
40
1
41
1
10
23.431382113462
20
7.40551047846429
30
0
41
1
10
23.3573950787677
20
7.00169312248431
30
0
0
SPLINE
5
160
100
AcDbEntity
8
1
62
256
6
ByLayer
370
13
48
1
60
0
100
AcDbSpline
70
4
71
3
72
10
73
6
40
0
40
0
40
0
40
0
40
0.0193209112356514
40
0.0193209112356514
40
1
40
1
40
1
40
1
41
1
10
134.033100752685
20
3.62165989125688
30
0
41
1
10
134.033105024492
20
3.62164052317766
30
0
41
1
10
134.033109296677
20
3.62162115517572
30
0
41
1
10
134.033330374684
20
3.6206187098162
30
0
41
1
10
134.033546206133
20
3.61963543067455
30
0
41
1
10
134.033761062092
20
3.61865195250746
30
0
0
SPLINE
5
161
100
AcDbEntity
8
1
62
256
6
ByLayer
370
13
48
1
60
0
100
AcDbSpline
70
4
71
3
72
10
73
6
40
0
40
0
40
0
40
0
40
0.0018152904822347
40
0.0018152904822347
40
1
40
1
40
1
40
1
41
1
10
135.899719906441
20
1.05211490881791
30
0
41
1
10
135.899706045564
20
1.05212439208773
30
0
41
1
10
135.899692184612
20
1.05213387525876
30
0
41
1
10
135.892056602116
20
1.0573580349369
30
0
41
1
10
135.884457821914
20
1.06260235749588
30
0
41
1
10
135.876882720675
20
1.06787672089692
30
0
0
SPLINE
5
162
100
AcDbEntity
8
1
62
256
6
ByLayer
370
18
48
1
60
0
100
AcDbSpline
70
4
71
3
72
28
73
24
40
0
40
0
40
0
40
0
40
0.0624999999999978
40
0.0624999999999978
40
0.124999999999996
40
0.124999999999996
40
0.249999999999989
40
0.249999999999989
40
0.312499999999986
40
0.312499999999986
40
0.374999999999982
40
0.374999999999982
40
0.49999999999998
40
0.49999999999998
40
0.56249999999998
40
0.56249999999998
40
0.624999999999981
40
0.624999999999981
40
0.749999999999988
40
0.749999999999988
40
0.874999999999994
40
0.874999999999994
40
1
40
1
40
1
40
1
41
1
10
130.313009862214
20
1.50025257689293
30
0
41
1
10
130.296958746389
20
1.42046074427546
30
0
41
1
10
130.278777596306
20
1.34381449743202
30
0
41
1
10
130.238767772566
20
1.19993285351103
30
0
41
1
10
130.216899215956
20
1.13241128067688
30
0
41
1
10
130.145722225507
20
0.943057799939567
30
0
41
1
10
130.090867753213
20
0.834377178363042
30
0
41
1
10
129.997119210885
20
0.698547477531633
30
0
41
1
10
129.963952461109
20
0.657817239542055
30
0
41
1
10
129.893641985243
20
0.585787342640401
30
0
41
1
10
129.856631002931
20
0.554687816248475
30
0
41
1
10
129.741664793093
20
0.477182642284561
30
0
41
1
10
129.659225514488
20
0.445886103162138
30
0
41
1
10
129.527115182257
20
0.428653359657858
30
0
41
1
10
129.481664952056
20
0.427878292111927
30
0
41
1
10
129.387920204065
20
0.436327626343683
30
0
41
1
10
129.339422550566
20
0.445629942194472
30
0
41
1
10
129.191746065463
20
0.48809281580148
30
0
41
1
10
129.090104366308
20
0.535591652283415
30
0
41
1
10
128.880867885336
20
0.666393645131308
30
0
41
1
10
128.773101206572
20
0.749866260412801
30
0
41
1
10
128.552409852833
20
0.951438510959889
30
0
41
1
10
128.440890046763
20
1.06820294038755
30
0
41
1
10
128.32826195015
20
1.20004969927797
30
0
0
SPLINE
5
163
100
AcDbEntity
8
1
62
256
6
ByLayer
370
18
48
1
60
0
100
AcDbSpline
70
4
71
2
72
9
73
6
40
0
40
0
40
0
40
0.25
40
0.5
40
0.75
40
1
40
1
40
1
41
1
10
128.185696462446
20
0.968428741116469
30
0
41
1
10
128.330515958294
20
0.392290105310678
30
0
41
1
10
128.670392857742
20
-0.767436671818189
30
0
41
1
10
129.054662377041
20
-1.9145205451037
30
0
41
1
10
129.479944206938
20
-3.03882544757474
30
0
41
1
10
129.709415242942
20
-3.57979864186012
30
0
0
SPLINE
5
164
100
AcDbEntity
8
1
62
256
6
ByLayer
370
18
48
1
60
0
100
AcDbSpline
70
4
71
3
72
38
73
34
40
0
40
0
40
0
40
0
40
0.062500000000004
40
0.062500000000004
40
0.0937500000000056
40
0.0937500000000056
40
0.125000000000007
40
0.125000000000007
40
0.156250000000009
40
0.156250000000009
40
0.187500000000011
40
0.187500000000011
40
0.218750000000012
40
0.218750000000012
40
0.250000000000014
40
0.250000000000014
40
0.312500000000016
40
0.312500000000016
40
0.375000000000017
40
0.375000000000017
40
0.406250000000017
40
0.406250000000017
40
0.437500000000016
40
0.437500000000016
40
0.500000000000016
40
0.500000000000016
40
0.625000000000012
40
0.625000000000012
40
0.750000000000008
40
0.750000000000008
40
0.875000000000004
40
0.875000000000004
40
1
40
1
40
1
40
1
41
1
10
6.75550506338953
20
1.83488172663678
30
0
41
1
10
6.75550506338953
20
2.14452366673248
30
0
41
1
10
6.79361996727482
20
2.44806012890265
30
0
41
1
10
6.90623375937696
20
2.89422132703547
30
0
41
1
10
6.95335735661115
20
3.04170092782675
30
0
41
1
10
7.063311835116
20
3.32571050342907
30
0
41
1
10
7.12634416803476
20
3.46326201091179
30
0
41
1
10
7.26754792836576
20
3.72976921742247
30
0
41
1
10
7.34572427414611
20
3.85872232271166
30
0
41
1
10
7.51664472042648
20
4.10808618032462
30
0
41
1
10
7.60836421690482
20
4.22694271747199
30
0
41
1
10
7.80162411536838
20
4.45223510128608
30
0
41
1
10
7.90337108802203
20
4.55896249658616
30
0
41
1
10
8.11597280486149
20
4.76136764272442
30
0
41
1
10
8.22705630013724
20
4.85721818252284
30
0
41
1
10
8.57113085771033
20
5.1279840259746
30
0
41
1
10
8.81002718457086
20
5.28267020876922
30
0
41
1
10
9.2996764767488
20
5.55206669790343
30
0
41
1
10
9.55047680396024
20
5.66669517049934
30
0
41
1
10
9.93217800944609
20
5.81494243875423
30
0
41
1
10
10.0599587151263
20
5.8602229762061
30
0
41
1
10
10.3139624293299
20
5.94296038421163
30
0
41
1
10
10.4405516307454
20
5.98056027351421
30
0
41
1
10
10.8190013717647
20
6.08383943516134
30
0
41
1
10
11.0695270908147
20
6.14006646721427
30
0
41
1
10
11.8159973255092
20
6.28192108204894
30
0
41
1
10
12.3067535654699
20
6.34123270083742
30
0
41
1
10
13.2801685803035
20
6.42806760011962
30
0
41
1
10
13.7630200323849
20
6.45527630932159
30
0
41
1
10
14.7269051785673
20
6.50192252421269
30
0
41
1
10
15.2083561175626
20
6.52127331627671
30
0
41
1
10
16.1800820453331
20
6.5686636006813
30
0
41
1
10
16.6703090541204
20
6.59665033396314
30
0
41
1
10
17.1699689669623
20
6.63434794491937
30
0
0
SPLINE
5
165
100
AcDbEntity
8
1
62
256
6
ByLayer
370
18
48
1
60
0
100
AcDbSpline
70
4
71
3
72
18
73
14
40
0
40
0
40
0
40
0
40
0.249999999999998
40
0.249999999999998
40
0.374999999999997
40
0.374999999999997
40
0.499999999999996
40
0.499999999999996
40
0.624999999999995
40
0.624999999999995
40
0.749999999999995
40
0.749999999999995
40
1
40
1
40
1
40
1
41
1
10
136.767054394201
20
0.990961736732601
30
0
41
1
10
136.730139667847
20
1.15070199652325
30
0
41
1
10
136.684948861075
20
1.32937758952048
30
0
41
1
10
136.605230781767
20
1.62469060718732
30
0
41
1
10
136.576743297694
20
1.72734715309278
30
0
41
1
10
136.516936903127
20
1.9377444716647
30
0
41
1
10
136.485500578461
20
2.04591708618034
30
0
41
1
10
136.419647740985
20
2.26804327393427
30
0
41
1
10
136.385228208429
20
2.38200270486522
30
0
41
1
10
136.313414642929
20
2.61569149236328
30
0
41
1
10
136.275851487877
20
2.73594201303803
30
0
41
1
10
136.160498529718
20
3.09955765463354
30
0
41
1
10
136.079745739129
20
3.34688230863321
30
0
41
1
10
135.995204852059
20
3.59904114614781
30
0
0
SPLINE
5
166
100
AcDbEntity
8
1
62
256
6
ByLayer
370
18
48
1
60
0
100
AcDbSpline
70
4
71
3
72
8
73
4
40
0
40
0
40
0
40
0
40
1
40
1
40
1
40
1
41
1
10
25.7000000000924
20
-6.20917508293601
30
0
41
1
10
25.7000000000934
20
-6.39078008558397
30
0
41
1
10
25.7000000000945
20
-6.57252046683365
30
0
41
1
10
25.7000000000955
20
-6.75439608536368
30
0
0
SPLINE
5
167
100
AcDbEntity
8
1
62
256
6
ByLayer
370
18
48
1
60
0
100
AcDbSpline
70
4
71
3
72
21
73
17
40
0
40
0
40
0
40
0
40
0.0285611695545382
40
0.0570332175030165
40
0.0854856595952015
40
0.113988155033595
40
0.142609997566985
40
0.213711279221164
40
0.284281937537909
40
0.355570959469114
40
0.425904615671889
40
0.566954095105999
40
0.707600433844329
40
0.847955491218842
40
0.987901236220149
40
1
40
1
40
1
40
1
41
1
10
123.699999911822
20
-9.80599652305142
30
0
41
1
10
123.700236156782
20
-9.8011429463599
30
0
41
1
10
123.700707909529
20
-9.79145093796421
30
0
41
1
10
123.70451317221
20
-9.77666775221485
30
0
41
1
10
123.710590082824
20
-9.76175713760742
30
0
41
1
10
123.719157388768
20
-9.74670144107205
30
0
41
1
10
123.735575926473
20
-9.72404070264955
30
0
41
1
10
123.765451758677
20
-9.69379470673175
30
0
41
1
10
123.817202986841
20
-9.65655820479239
30
0
41
1
10
123.882099027888
20
-9.62073444576873
30
0
41
1
10
123.985594660684
20
-9.57598409072506
30
0
41
1
10
124.14425461288
20
-9.52763702965771
30
0
41
1
10
124.37108436079
20
-9.48948181377821
30
0
41
1
10
124.617047294623
20
-9.47734437264208
30
0
41
1
10
124.787436939189
20
-9.48835934872747
30
0
41
1
10
124.8709573513
20
-9.49915283856581
30
0
41
1
10
124.877603390312
20
-9.50001171788318
30
0
0
SPLINE
5
168
100
AcDbEntity
8
1
62
256
6
ByLayer
370
18
48
1
60
0
100
AcDbSpline
70
4
71
3
72
10
73
6
40
0
40
0
40
0
40
0
40
0.351758546072403
40
0.697663269076978
40
1
40
1
40
1
40
1
41
1
10
130.313009903359
20
1.50025257122178
30
0
41
1
10
129.838759937858
20
1.5495655497478
30
0
41
1
10
128.898152282451
20
1.64737086021012
30
0
41
1
10
127.550281811956
20
1.79093828051927
30
0
41
1
10
126.676733041595
20
1.88583561980954
30
0
41
1
10
126.269386900283
20
1.93075308545303
30
0
0
SPLINE
5
169
100
AcDbEntity
8
1
62
256
6
ByLayer
370
18
48
1
60
0
100
AcDbSpline
70
4
71
3
72
8
73
4
40
0
40
0
40
0
40
0
40
1
40
1
40
1
40
1
41
1
10
123.703535725133
20
-10.095985509045
30
0
41
1
10
123.702357139355
20
-10.0970027173998
30
0
41
1
10
123.701178564301
20
-10.0980197825265
30
0
41
1
10
123.7
20
-10.0990367043837
30
0
0
SPLINE
5
16A
100
AcDbEntity
8
1
62
256
6
ByLayer
370
18
48
1
60
0
100
AcDbSpline
70
2053
71
3
72
39
73
35
40
0
40
0
40
0
40
0
40
0.031203376854012
40
0.0622957961976115
40
0.0934927338141847
40
0.124774887650913
40
0.155957958489358
40
0.187357002359526
40
0.21860496058003
40
0.25002295805818
40
0.281395495322905
40
0.312701184294488
40
0.344101756785967
40
0.37528788810381
40
0.406579150573661
40
0.437719655601615
40
0.468957519995406
40
0.500169739217376
40
0.531250249649488
40
0.562392864654243
40
0.593636133983608
40
0.62477434530358
40
0.656128162276986
40
0.687361466765805
40
0.718739309316932
40
0.750122806371197
40
0.781424678514915
40
0.812858756559617
40
0.844094570718704
40
0.875427123396263
40
0.906647492099461
40
0.937779365621326
40
0.968985897588886
40
1
40
1
40
1
40
1
41
1
10
120.24
20
-5.65289127620607
30
0
41
1
10
120.378304090368
20
-5.65289194220271
30
0
41
1
10
120.654427469466
20
-5.67645381392688
30
0
41
1
10
121.051820144577
20
-5.77994509552411
30
0
41
1
10
121.417018861788
20
-5.94489962460486
30
0
41
1
10
121.736407702833
20
-6.16169438079163
30
0
41
1
10
121.99882453997
20
-6.4188639273701
30
0
41
1
10
122.193977614391
20
-6.70305266461233
30
0
41
1
10
122.314696856867
20
-7.00160983567633
30
0
41
1
10
122.355546642705
20
-7.30038652727819
30
0
41
1
10
122.3146124392
20
-7.58708273309716
30
0
41
1
10
122.193799073784
20
-7.85084420712667
30
0
41
1
10
121.998381363249
20
-8.08308611135951
30
0
41
1
10
121.735803208278
20
-8.27861836685733
30
0
41
1
10
121.416449211527
20
-8.43338531214303
30
0
41
1
10
121.050824869547
20
-8.54555550874699
30
0
41
1
10
120.652914892042
20
-8.61340417487
30
0
41
1
10
120.238301668119
20
-8.63594902193847
30
0
41
1
10
119.824214514793
20
-8.61302714362498
30
0
41
1
10
119.42697968866
20
-8.54504103815003
30
0
41
1
10
119.0621111752
20
-8.43281014712929
30
0
41
1
10
118.742616422476
20
-8.27767360653155
30
0
41
1
10
118.480734109761
20
-8.08226351006857
30
0
41
1
10
118.285519547615
20
-7.84969867823614
30
0
41
1
10
118.165052726056
20
-7.58607749713605
30
0
41
1
10
118.124500667332
20
-7.2993984870437
30
0
41
1
10
118.165609016753
20
-7.00036826955258
30
0
41
1
10
118.286528030139
20
-6.70210031313547
30
0
41
1
10
118.482328650855
20
-6.4175080815402
30
0
41
1
10
118.744810119893
20
-6.1606573198124
30
0
41
1
10
119.064554282505
20
-5.94407376500078
30
0
41
1
10
119.429826816398
20
-5.77934438081681
30
0
41
1
10
119.826758552437
20
-5.67627865993907
30
0
41
1
10
120.102534839014
20
-5.65289061424925
30
0
41
1
10
120.24
20
-5.65289127620607
30
0
0
SPLINE
5
16B
100
AcDbEntity
8
1
62
256
6
ByLayer
370
13
48
1
60
0
100
AcDbSpline
70
4
71
3
72
14
73
10
40
0
40
0
40
0
40
0
40
0.25
40
0.25
40
0.5
40
0.5
40
0.75
40
0.75
40
1
40
1
40
1
40
1
41
1
10
135.876882720675
20
1.06787672089692
30
0
41
1
10
135.674432583926
20
1.20883795139252
30
0
41
1
10
135.478256189996
20
1.36627022261928
30
0
41
1
10
135.107701114731
20
1.71511174277109
30
0
41
1
10
134.932756091026
20
1.90666778315386
30
0
41
1
10
134.609662305248
20
2.33408060959334
30
0
41
1
10
134.465881330511
20
2.56421731520058
30
0
41
1
10
134.223069714315
20
3.0658295252623
30
0
41
1
10
134.124034632592
20
3.34028385614289
30
0
41
1
10
134.0603310337
20
3.62455397799525
30
0
0
SPLINE
5
16C
100
AcDbEntity
8
1
62
256
6
ByLayer
370
18
48
1
60
0
100
AcDbSpline
70
4
71
3
72
18
73
14
40
0
40
0
40
0
40
0
40
0.249999999999996
40
0.249999999999996
40
0.374999999999996
40
0.374999999999996
40
0.499999999999996
40
0.499999999999996
40
0.749999999999996
40
0.749999999999996
40
0.874999999999998
40
0.874999999999998
40
1
40
1
40
1
40
1
41
1
10
133.942562670033
20
-4.4633155599972
30
0
41
1
10
133.767707380518
20
-3.99296106780909
30
0
41
1
10
133.597784002539
20
-3.52075014573612
30
0
41
1
10
133.349154219553
20
-2.81036845275992
30
0
41
1
10
133.267415897263
20
-2.57318473948612
30
0
41
1
10
133.108824396216
20
-2.09714433392401
30
0
41
1
10
133.031236157132
20
-1.85853522533338
30
0
41
1
10
132.803129611029
20
-1.14113780933542
30
0
41
1
10
132.659615192271
20
-0.660577177048538
30
0
41
1
10
132.461304824125
20
0.0648143769268472
30
0
41
1
10
132.397138630195
20
0.307131317531884
30
0
41
1
10
132.276927430694
20
0.793944065453303
30
0
41
1
10
132.219813632921
20
1.03815312215548
30
0
41
1
10
132.166667023789
20
1.2834265520608
30
0
0
SPLINE
5
16D
100
AcDbEntity
8
1
62
256
6
ByLayer
370
18
48
1
60
0
100
AcDbSpline
70
4
71
3
72
8
73
4
40
0
40
0
40
0
40
0
40
1
40
1
40
1
40
1
41
1
10
109.22558797743
20
6.77823629246478
30
0
41
1
10
109.223654148943
20
6.77326094250981
30
0
41
1
10
109.221721922277
20
6.76828016590631
30
0
41
1
10
109.219791298028
20
6.7632939606371
30
0
0
SPLINE
5
16E
100
AcDbEntity
8
1
62
256
6
ByLayer
370
13
48
1
60
0
100
AcDbSpline
70
4
71
3
72
8
73
4
40
0
40
0
40
0
40
0
40
1
40
1
40
1
40
1
41
1
10
134.025939453172
20
-4.37189563338382
30
0
41
1
10
134.211843237991
20
-3.43375148729268
30
0
41
1
10
134.397747022811
20
-2.49560734120155
30
0
41
1
10
134.58365080763
20
-1.55746319511041
30
0
0
SPLINE
5
16F
100
AcDbEntity
8
1
62
256
6
ByLayer
370
18
48
1
60
0
100
AcDbSpline
70
4
71
3
72
18
73
14
40
0
40
0
40
0
40
0
40
0.249999999999998
40
0.249999999999998
40
0.374999999999997
40
0.374999999999997
40
0.499999999999996
40
0.499999999999996
40
0.624999999999996
40
0.624999999999996
40
0.749999999999995
40
0.749999999999995
40
1
40
1
40
1
40
1
41
1
10
136.767054394201
20
-0.990961736732601
30
0
41
1
10
136.730139667847
20
-1.15070199652323
30
0
41
1
10
136.684948861075
20
-1.32937758952045
30
0
41
1
10
136.605230781767
20
-1.62469060718732
30
0
41
1
10
136.576743297694
20
-1.72734715309278
30
0
41
1
10
136.516936903127
20
-1.93774447166467
30
0
41
1
10
136.485500578461
20
-2.04591708618034
30
0
41
1
10
136.419647740985
20
-2.26804327393424
30
0
41
1
10
136.385228208429
20
-2.38200270486519
30
0
41
1
10
136.313414642929
20
-2.61569149236325
30
0
41
1
10
136.275851487877
20
-2.73594201303803
30
0
41
1
10
136.160498529718
20
-3.09955765463351
30
0
41
1
10
136.079745739129
20
-3.34688230863321
30
0
41
1
10
135.995204852059
20
-3.59904114614781
30
0
0
SPLINE
5
170
100
AcDbEntity
8
1
62
256
6
ByLayer
370
13
48
1
60
0
100
AcDbSpline
70
4
71
3
72
8
73
4
40
0
40
0
40
0
40
0
40
1
40
1
40
1
40
1
41
1
10
134.033100752684
20
3.62165989125671
30
0
41
1
10
134.025052165999
20
3.61969726482064
30
0
41
1
10
134.017003680947
20
3.61773101727377
30
0
41
1
10
134.008955559915
20
3.61576119889202
30
0
0
SPLINE
5
171
100
AcDbEntity
8
1
62
256
6
ByLayer
370
18
48
1
60
0
100
AcDbSpline
70
4
71
3
72
8
73
4
40
0
40
0
40
0
40
0
40
1
40
1
40
1
40
1
41
1
10
25.7000000001466
20
-9.82610896921037
30
0
41
1
10
25.7000000001467
20
-9.80236536214059
30
0
41
1
10
25.7031707340226
20
-9.77780432692762
30
0
41
1
10
25.7095155570275
20
-9.75246215527687
30
0
0
SPLINE
5
172
100
AcDbEntity
8
1
62
256
6
ByLayer
370
18
48
1
60
0
100
AcDbSpline
70
4
71
3
72
10
73
6
40
0
40
0
40
0
40
0
40
0.5
40
0.5
40
1
40
1
40
1
40
1
41
1
10
134.05590444585
20
3.64463588251547
30
0
41
1
10
134.364409787403
20
3.67194710535051
30
0
41
1
10
134.672053330373
20
3.7046073535067
30
0
41
1
10
135.284259138207
20
3.78905277640501
30
0
41
1
10
135.588902921778
20
3.84033197952209
30
0
41
1
10
135.890245290882
20
3.91210245513136
30
0
0
SPLINE
5
173
100
AcDbEntity
8
1
62
256
6
ByLayer
370
18
48
1
60
0
100
AcDbSpline
70
4
71
3
72
26
73
22
40
0
40
0
40
0
40
0
40
0.249999999999992
40
0.249999999999992
40
0.31249999999999
40
0.31249999999999
40
0.374999999999988
40
0.374999999999988
40
0.499999999999996
40
0.499999999999996
40
0.562500000000001
40
0.562500000000001
40
0.625000000000005
40
0.625000000000005
40
0.750000000000003
40
0.750000000000003
40
0.812500000000002
40
0.812500000000002
40
0.875000000000002
40
0.875000000000002
40
1
40
1
40
1
40
1
41
1
10
135.809077207769
20
-2.41396289673059
30
0
41
1
10
135.930724132179
20
-2.28039133446518
30
0
41
1
10
136.051545383248
20
-2.12408060309389
30
0
41
1
10
136.201223359938
20
-1.89155189431241
30
0
41
1
10
136.231008372172
20
-1.84326381892333
30
0
41
1
10
136.289330817388
20
-1.74454334484906
30
0
41
1
10
136.317999124758
20
-1.6939111288776
30
0
41
1
10
136.402503894982
20
-1.53814330504937
30
0
41
1
10
136.456844541372
20
-1.42914770892912
30
0
41
1
10
136.535204389048
20
-1.25752277330395
30
0
41
1
10
136.560905877537
20
-1.19868042496063
30
0
41
1
10
136.610280280282
20
-1.08048878018872
30
0
41
1
10
136.634047344369
20
-1.02095670639628
30
0
41
1
10
136.702720263474
20
-0.84111437981457
30
0
41
1
10
136.745005219082
20
-0.719561517828708
30
0
41
1
10
136.803557972695
20
-0.53492106329665
30
0
41
1
10
136.822287066124
20
-0.472876676624111
30
0
41
1
10
136.857687959359
20
-0.349752205394594
30
0
41
1
10
136.874428969901
20
-0.288465344811414
30
0
41
1
10
136.92199220132
20
-0.105368172511646
30
0
41
1
10
136.950164572571
20
0.0156815857474157
30
0
41
1
10
136.975230372704
20
0.13583970344601
30
0
0
SPLINE
5
174
100
AcDbEntity
8
1
62
256
6
ByLayer
370
13
48
1
60
0
100
AcDbSpline
70
4
71
3
72
8
73
4
40
0
40
0
40
0
40
0
40
1
40
1
40
1
40
1
41
1
10
135.899719906391
20
1.05211490882147
30
0
41
1
10
136.188831402328
20
1.03173051812516
30
0
41
1
10
136.477942898264
20
1.01134612742888
30
0
41
1
10
136.767054394201
20
0.990961736732601
30
0
0
SPLINE
5
175
100
AcDbEntity
8
1
62
256
6
ByLayer
370
18
48
1
60
0
100
AcDbSpline
70
4
71
3
72
14
73
10
40
0
40
0
40
0
40
0
40
0.25000000000004
40
0.25000000000004
40
0.375000000000034
40
0.375000000000034
40
0.500000000000027
40
0.500000000000027
40
1
40
1
40
1
40
1
41
1
10
113.658328709926
20
8.11279508716086
30
0
41
1
10
113.765077260559
20
8.14028328904882
30
0
41
1
10
113.867604489772
20
8.17861709904662
30
0
41
1
10
114.015719651468
20
8.25050215664572
30
0
41
1
10
114.064143168152
20
8.27686413609746
30
0
41
1
10
114.159176291107
20
8.33411641695406
30
0
41
1
10
114.205870174301
20
8.3650923734854
30
0
41
1
10
114.431015006853
20
8.52759556282658
30
0
41
1
10
114.588638362494
20
8.68318258490962
30
0
41
1
10
114.730404425779
20
8.85593895259763
30
0
0
SPLINE
5
176
100
AcDbEntity
8
1
62
256
6
ByLayer
370
18
48
1
60
0
100
AcDbSpline
70
4
71
3
72
42
73
38
40
0
40
0
40
0
40
0
40
0.125000000000004
40
0.125000000000004
40
0.250000000000008
40
0.250000000000008
40
0.375000000000012
40
0.375000000000012
40
0.437500000000012
40
0.437500000000012
40
0.500000000000013
40
0.500000000000013
40
0.562500000000014
40
0.562500000000014
40
0.625000000000015
40
0.625000000000015
40
0.656250000000015
40
0.656250000000015
40
0.687500000000016
40
0.687500000000016
40
0.750000000000014
40
0.750000000000014
40
0.781250000000013
40
0.781250000000013
40
0.812500000000011
40
0.812500000000011
40
0.875000000000007
40
0.875000000000007
40
0.906250000000006
40
0.906250000000006
40
0.937500000000004
40
0.937500000000004
40
0.968750000000002
40
0.968750000000002
40
0.984375000000001
40
0.984375000000001
40
1
40
1
40
1
40
1
41
1
10
17.1699689669623
20
-4.45334935367691
30
0
41
1
10
16.6692717343595
20
-4.33450288621492
30
0
41
1
10
16.1780015893909
20
-4.22220448770818
30
0
41
1
10
15.2041671200569
20
-4.00326169375992
30
0
41
1
10
14.7216354830657
20
-3.89665056699036
30
0
41
1
10
13.7556138638888
20
-3.67602107575888
30
0
41
1
10
13.2721799162404
20
-3.56214563910859
30
0
41
1
10
12.5391179764308
20
-3.37020781939972
30
0
41
1
10
12.293442408747
20
-3.30263783936294
30
0
41
1
10
11.7982603936003
20
-3.15642036965988
30
0
41
1
10
11.5482318729454
20
-3.07759914257625
30
0
41
1
10
11.0471457194036
20
-2.90499209952583
30
0
41
1
10
10.7958898399989
20
-2.81118914168474
30
0
41
1
10
10.2925985892319
20
-2.60256331293735
30
0
41
1
10
10.0405454766726
20
-2.48777809877296
30
0
41
1
10
9.66311294233736
20
-2.29365029454715
30
0
41
1
10
9.53741941445463
20
-2.22526191771385
30
0
41
1
10
9.28662845677587
20
-2.07974786498431
30
0
41
1
10
9.16127902187162
20
-2.00241914431601
30
0
41
1
10
8.79256819326167
20
-1.75876435362889
30
0
41
1
10
8.55476507598542
20
-1.57996192537468
30
0
41
1
10
8.21538251279821
20
-1.28044568622437
30
0
41
1
10
8.10509222422277
20
-1.17529758612213
30
0
41
1
10
7.891807741213
20
-0.953294031984399
30
0
41
1
10
7.79055064151845
20
-0.838240836740539
30
0
41
1
10
7.50406451304383
20
-0.480271062334054
30
0
41
1
10
7.33594611429487
20
-0.224671526995621
30
0
41
1
10
7.12475906849562
20
0.188362434811666
30
0
41
1
10
7.06088371615792
20
0.33214043280509
30
0
41
1
10
6.95148733630307
20
0.622559763759085
30
0
41
1
10
6.90558625892257
20
0.769638256446228
30
0
41
1
10
6.83149253478805
20
1.06759761001118
30
0
41
1
10
6.80329657683649
20
1.21847771782069
30
0
41
1
10
6.7747855260001
20
1.44777655791262
30
0
41
1
10
6.76758363603449
20
1.52470684025323
30
0
41
1
10
6.75793136780499
20
1.67959571825051
30
0
41
1
10
6.75550506338956
20
1.75758385108847
30
0
41
1
10
6.75550506338953
20
1.83488172663678
30
0
0
SPLINE
5
177
100
AcDbEntity
8
1
62
256
6
ByLayer
370
13
48
1
60
0
100
AcDbSpline
70
4
71
3
72
14
73
10
40
0
40
0
40
0
40
0
40
0.25
40
0.25
40
0.5
40
0.5
40
0.75
40
0.75
40
1
40
1
40
1
40
1
41
1
10
135.831520107046
20
1.02963970410113
30
0
41
1
10
135.679726569113
20
0.836505953685332
30
0
41
1
10
135.53428523742
20
0.630407915322877
30
0
41
1
10
135.265713206741
20
0.20210245082103
30
0
41
1
10
135.142644236052
20
-0.0200415280035315
30
0
41
1
10
134.926686093521
20
-0.467887119923148
30
0
41
1
10
134.833835908603
20
-0.693506736566917
30
0
41
1
10
134.682724728747
20
-1.13534640846066
30
0
41
1
10
134.624465333806
20
-1.35149692688788
30
0
41
1
10
134.58365080763
20
-1.55746319511041
30
0
0
SPLINE
5
178
100
AcDbEntity
8
1
62
256
6
ByLayer
370
18
48
1
60
0
100
AcDbSpline
70
4
71
3
72
14
73
10
40
0
40
0
40
0
40
0
40
0.303240623591061
40
0.303240623591061
40
0.477430467693294
40
0.477430467693294
40
0.651620311795527
40
0.651620311795527
40
1
40
1
40
1
40
1
41
1
10
116.071728535215
20
5.30664687217106
30
0
41
1
10
117.310213715906
20
4.93437303860182
30
0
41
1
10
118.54867819498
20
4.54592043229442
30
0
41
1
10
120.500128607178
20
3.91289842524949
30
0
41
1
10
121.21275537426
20
3.67727541913615
30
0
41
1
10
122.636998653257
20
3.19879379403173
30
0
41
1
10
123.348674709644
20
2.95585353712852
30
0
41
1
10
125.483034053536
20
2.21749386593601
30
0
41
1
10
126.905261806955
20
1.71236732847839
30
0
41
1
10
128.32826195015
20
1.200049699278
30
0
0
SPLINE
5
179
100
AcDbEntity
8
1
62
256
6
ByLayer
370
13
48
1
60
0
100
AcDbSpline
70
4
71
3
72
8
73
4
40
0
40
0
40
0
40
0
40
1
40
1
40
1
40
1
41
1
10
135.809077207769
20
-2.41396289673059
30
0
41
1
10
135.400601741056
20
-2.12846299619053
30
0
41
1
10
134.992126274343
20
-1.84296309565048
30
0
41
1
10
134.58365080763
20
-1.55746319511041
30
0
0
SPLINE
5
17A
100
AcDbEntity
8
1
62
256
6
ByLayer
370
18
48
1
60
0
100
AcDbSpline
70
4
71
3
72
8
73
4
40
0
40
0
40
0
40
0
40
1
40
1
40
1
40
1
41
1
10
20.7427512913625
20
-5.76444079224902
30
0
41
1
10
20.7432096057431
20
-5.76197611652395
30
0
41
1
10
20.7436680935892
20
-5.75951070743562
30
0
41
1
10
20.7441267548843
20
-5.75704456505287
30
0
0
SPLINE
5
17B
100
AcDbEntity
8
1
62
256
6
ByLayer
370
13
48
1
60
0
100
AcDbSpline
70
4
71
3
72
8
73
4
40
0
40
0
40
0
40
0
40
1
40
1
40
1
40
1
41
1
10
134.06033103321
20
3.6245539780017
30
0
41
1
10
134.705288972826
20
3.6160497007171
30
0
41
1
10
135.350246912442
20
3.60754542343247
30
0
41
1
10
135.995204852059
20
3.59904114614781
30
0
0
SPLINE
5
17C
100
AcDbEntity
8
1
62
256
6
ByLayer
370
18
48
1
60
0
100
AcDbSpline
70
4
71
3
72
8
73
4
40
0
40
0
40
0
40
0
40
1
40
1
40
1
40
1
41
1
10
17.2583574124984
20
6.64093395724282
30
0
41
1
10
17.2289005350148
20
6.63876655317256
30
0
41
1
10
17.1994376657358
20
6.63657125624212
30
0
41
1
10
17.1699689669623
20
6.63434794491937
30
0
0
SPLINE
5
17D
100
AcDbEntity
8
1
62
256
6
ByLayer
370
18
48
1
60
0
100
AcDbSpline
70
4
71
3
72
8
73
4
40
0
40
0
40
0
40
0
40
1
40
1
40
1
40
1
41
1
10
17.1699689669623
20
-4.45334935367691
30
0
41
1
10
17.1994376552682
20
-4.46034409876006
30
0
41
1
10
17.2289005454776
20
-4.46731407957259
30
0
41
1
10
17.2583574124984
20
-4.47425944809982
30
0
0
SPLINE
5
17E
100
AcDbEntity
8
1
62
256
6
ByLayer
370
18
48
1
60
0
100
AcDbSpline
70
4
71
3
72
8
73
4
40
0
40
0
40
0
40
0
40
1
40
1
40
1
40
1
41
1
10
123.8
20
10.1251908751171
30
0
41
1
10
123.8
20
9.37487383401944
30
0
41
1
10
123.8
20
8.62455768357444
30
0
41
1
10
123.8
20
7.87424252217005
30
0
0
LINE
5
70
100
AcDbEntity
8
81
62
256
6
ByLayer
370
18
48
1
60
0
100
AcDbLine
10
123.8
20
0
30
0
11
128.8
21
0
31
0
39
0
210
0
220
0
230
1
0
LINE
5
71
100
AcDbEntity
8
1
62
256
6
ByLayer
370
18
48
1
60
0
100
AcDbLine
10
0.2
20
16
30
0
11
0
21
15.8
31
0
39
0
210
0
220
0
230
1
0
LINE
5
73
100
AcDbEntity
8
1
62
256
6
ByLayer
370
18
48
1
60
0
100
AcDbLine
10
0
20
-15.8
30
0
11
0.2
21
-16
31
0
39
0
210
0
220
0
230
1
0
LINE
5
74
100
AcDbEntity
8
SK1
62
256
6
ByLayer
370
18
48
1
60
0
100
AcDbLine
10
-1.6
20
-12.49675
30
0
11
-1.144243
21
-12.284227
31
0
39
0
210
0
220
0
230
1
0
LINE
5
76
100
AcDbEntity
8
SK1
62
256
6
ByLayer
370
18
48
1
60
0
100
AcDbLine
10
-1.144243
20
12.284227
30
0
11
-1.6
21
12.49675
31
0
39
0
210
0
220
0
230
1
0
LINE
5
77
100
AcDbEntity
8
SK1
62
256
6
ByLayer
370
18
48
1
60
0
100
AcDbLine
10
-53.3
20
12.49675
30
0
11
-53.426311
21
12.388738
31
0
39
0
210
0
220
0
230
1
0
LINE
5
78
100
AcDbEntity
8
SK1
62
256
6
ByLayer
370
18
48
1
60
0
100
AcDbLine
10
-53.426311
20
-12.388738
30
0
11
-53.3
21
-12.49675
31
0
39
0
210
0
220
0
230
1
0
LINE
5
79
100
AcDbEntity
8
SK1
62
256
6
ByLayer
370
18
48
1
60
0
100
AcDbLine
10
-1.6
20
12.49675
30
0
11
-53.3
21
12.49675
31
0
39
0
210
0
220
0
230
1
0
LINE
5
7A
100
AcDbEntity
8
SK1
62
256
6
ByLayer
370
18
48
1
60
0
100
AcDbLine
10
-53.3
20
-12.49675
30
0
11
-1.6
21
-12.49675
31
0
39
0
210
0
220
0
230
1
0
LINE
5
7B
100
AcDbEntity
8
SK1
62
256
6
ByLayer
370
18
48
1
60
0
100
AcDbLine
10
-54.6
20
-12.49675
30
0
11
-54.449692
21
-12.375033
31
0
39
0
210
0
220
0
230
1
0
LINE
5
7C
100
AcDbEntity
8
SK1
62
256
6
ByLayer
370
18
48
1
60
0
100
AcDbLine
10
-54.449692
20
12.375033
30
0
11
-54.6
21
12.49675
31
0
39
0
210
0
220
0
230
1
0
LINE
5
7D
100
AcDbEntity
8
SK1
62
256
6
ByLayer
370
18
48
1
60
0
100
AcDbLine
10
-55
20
12.49675
30
0
11
-56
21
11.49675
31
0
39
0
210
0
220
0
230
1
0
LINE
5
7E
100
AcDbEntity
8
SK1
62
256
6
ByLayer
370
18
48
1
60
0
100
AcDbLine
10
-56
20
-11.49675
30
0
11
-55
21
-12.49675
31
0
39
0
210
0
220
0
230
1
0
LINE
5
7F
100
AcDbEntity
8
SK1
62
256
6
ByLayer
370
18
48
1
60
0
100
AcDbLine
10
-54.6
20
12.49675
30
0
11
-55
21
12.49675
31
0
39
0
210
0
220
0
230
1
0
LINE
5
80
100
AcDbEntity
8
SK1
62
256
6
ByLayer
370
18
48
1
60
0
100
AcDbLine
10
-55
20
-12.49675
30
0
11
-54.6
21
-12.49675
31
0
39
0
210
0
220
0
230
1
0
LINE
5
81
100
AcDbEntity
8
SK1
62
256
6
ByLayer
370
18
48
1
60
0
100
AcDbLine
10
-0.975195
20
-12.24675
30
0
11
-0.15
21
-12.24675
31
0
39
0
210
0
220
0
230
1
0
LINE
5
82
100
AcDbEntity
8
SK1
62
256
6
ByLayer
370
18
48
1
60
0
100
AcDbLine
10
-0.15
20
12.24675
30
0
11
-0.975195
21
12.24675
31
0
39
0
210
0
220
0
230
1
0
LINE
5
83
100
AcDbEntity
8
1
62
256
6
ByLayer
370
18
48
1
60
0
100
AcDbLine
10
25.7
20
10.25
30
0
11
23.1
21
10.25
31
0
39
0
210
0
220
0
230
1
0
LINE
5
84
100
AcDbEntity
8
1
62
256
6
ByLayer
370
18
48
1
60
0
100
AcDbLine
10
17.169969
20
-11.025695
30
0
11
17.258357
21
-10.978924
31
0
39
0
210
0
220
0
230
1
0
LINE
5
85
100
AcDbEntity
8
1
62
256
6
ByLayer
370
18
48
1
60
0
100
AcDbLine
10
17.258357
20
10.978924
30
0
11
17.169969
21
11.025695
31
0
39
0
210
0
220
0
230
1
0
LINE
5
86
100
AcDbEntity
8
1
62
256
6
ByLayer
370
18
48
1
60
0
100
AcDbLine
10
21
20
-10.05
30
0
11
23.1
21
-10.25
31
0
39
0
210
0
220
0
230
1
0
LINE
5
87
100
AcDbEntity
8
1
62
256
6
ByLayer
370
18
48
1
60
0
100
AcDbLine
10
23.1
20
-10.25
30
0
11
25.7
21
-10.25
31
0
39
0
210
0
220
0
230
1
0
LINE
5
88
100
AcDbEntity
8
1
62
256
6
ByLayer
370
18
48
1
60
0
100
AcDbLine
10
23.1
20
10.25
30
0
11
21
21
10.05
31
0
39
0
210
0
220
0
230
1
0
LINE
5
89
100
AcDbEntity
8
1
62
256
6
ByLayer
370
18
48
1
60
0
100
AcDbLine
10
128.741342
20
-10.25825
30
0
11
133.40132
21
-10.25825
31
0
39
0
210
0
220
0
230
1
0
LINE
5
8A
100
AcDbEntity
8
1
62
256
6
ByLayer
370
18
48
1
60
0
100
AcDbLine
10
128.701981
20
10.490284
30
0
11
126.635729
21
10.483052
31
0
39
0
210
0
220
0
230
1
0
LINE
5
8B
100
AcDbEntity
8
1
62
256
6
ByLayer
370
18
48
1
60
0
100
AcDbLine
10
126.635729
20
-10.483052
30
0
11
128.701981
21
-10.490284
31
0
39
0
210
0
220
0
230
1
0
LINE
5
8C
100
AcDbEntity
8
1
62
256
6
ByLayer
370
18
48
1
60
0
100
AcDbLine
10
6.7555
20
16
30
0
11
0.2
21
16
31
0
39
0
210
0
220
0
230
1
0
LINE
5
8D
100
AcDbEntity
8
1
62
256
6
ByLayer
370
18
48
1
60
0
100
AcDbLine
10
0.2
20
-16
30
0
11
6.7555
21
-16
31
0
39
0
210
0
220
0
230
1
0
LINE
5
8E
100
AcDbEntity
8
80
62
256
6
ByLayer
370
18
48
1
60
0
100
AcDbLine
10
0
20
0
30
0
11
-5
21
0
31
0
39
0
210
0
220
0
230
1
0
LINE
5
8F
100
AcDbEntity
8
4
62
256
6
ByLayer
370
18
48
0.05
60
0
100
AcDbLine
10
123.8
20
0
30
0
11
0
21
0
31
0
39
0
210
0
220
0
230
1
0
LINE
5
91
100
AcDbEntity
8
SK4
62
256
6
ByLayer
370
18
48
0.05
60
0
100
AcDbLine
10
142
20
0
30
0
11
-61
21
0
31
0
39
0
210
0
220
0
230
1
0
LINE
5
93
100
AcDbEntity
8
SK1
62
256
6
ByLayer
370
18
48
1
60
0
100
AcDbLine
10
-56
20
0
30
0
11
-56
21
-11.49675
31
0
39
0
210
0
220
0
230
1
0
LINE
5
94
100
AcDbEntity
8
SK1
62
256
6
ByLayer
370
18
48
1
60
0
100
AcDbLine
10
-56
20
11.49675
30
0
11
-56
21
0
31
0
39
0
210
0
220
0
230
1
0
LINE
5
95
100
AcDbEntity
8
SK1
62
256
6
ByLayer
370
13
48
1
60
0
100
AcDbLine
10
-0.15
20
0
30
0
11
-0.15
21
-12.24675
31
0
39
0
210
0
220
0
230
1
0
LINE
5
96
100
AcDbEntity
8
SK1
62
256
6
ByLayer
370
13
48
1
60
0
100
AcDbLine
10
-0.15
20
12.24675
30
0
11
-0.15
21
0
31
0
39
0
210
0
220
0
230
1
0
LINE
5
97
100
AcDbEntity
8
SK1
62
256
6
ByLayer
370
18
48
1
60
0
100
AcDbLine
10
-49.5
20
-6.998498
30
0
11
-6.5
21
-6.998498
31
0
39
0
210
0
220
0
230
1
0
LINE
5
98
100
AcDbEntity
8
SK1
62
256
6
ByLayer
370
13
48
1
60
0
100
AcDbLine
10
-49.5
20
6.998498
30
0
11
-49.5
21
-6.998498
31
0
39
0
210
0
220
0
230
1
0
LINE
5
99
100
AcDbEntity
8
SK1
62
256
6
ByLayer
370
13
48
1
60
0
100
AcDbLine
10
-6.5
20
-6.998498
30
0
11
-6.5
21
6.998498
31
0
39
0
210
0
220
0
230
1
0
LINE
5
9A
100
AcDbEntity
8
SK1
62
256
6
ByLayer
370
13
48
1
60
0
100
AcDbLine
10
-53.426311
20
-12.388738
30
0
11
-53.426311
21
0
31
0
39
0
210
0
220
0
230
1
0
LINE
5
9B
100
AcDbEntity
8
SK1
62
256
6
ByLayer
370
13
48
1
60
0
100
AcDbLine
10
-53.426311
20
0
30
0
11
-53.426311
21
12.388738
31
0
39
0
210
0
220
0
230
1
0
LINE
5
9C
100
AcDbEntity
8
SK1
62
256
6
ByLayer
370
13
48
1
60
0
100
AcDbLine
10
-0.975195
20
12.24675
30
0
11
-0.975195
21
-12.24675
31
0
39
0
210
0
220
0
230
1
0
LINE
5
9D
100
AcDbEntity
8
SK1
62
256
6
ByLayer
370
18
48
1
60
0
100
AcDbLine
10
-55
20
0
30
0
11
-55
21
-12.49675
31
0
39
0
210
0
220
0
230
1
0
LINE
5
9E
100
AcDbEntity
8
SK1
62
256
6
ByLayer
370
18
48
1
60
0
100
AcDbLine
10
-55
20
12.49675
30
0
11
-55
21
0
31
0
39
0
210
0
220
0
230
1
0
LINE
5
9F
100
AcDbEntity
8
SK1
62
256
6
ByLayer
370
18
48
1
60
0
100
AcDbLine
10
-6.5
20
6.998498
30
0
11
-49.5
21
6.998498
31
0
39
0
210
0
220
0
230
1
0
LINE
5
A0
100
AcDbEntity
8
SK1
62
256
6
ByLayer
370
18
48
1
60
0
100
AcDbLine
10
-54.6
20
-12.49675
30
0
11
-54.6
21
12.49675
31
0
39
0
210
0
220
0
230
1
0
LINE
5
A1
100
AcDbEntity
8
SK1
62
256
6
ByLayer
370
18
48
1
60
0
100
AcDbLine
10
-53.3
20
0
30
0
11
-53.3
21
-12.49675
31
0
39
0
210
0
220
0
230
1
0
LINE
5
A2
100
AcDbEntity
8
SK1
62
256
6
ByLayer
370
18
48
1
60
0
100
AcDbLine
10
-53.3
20
12.49675
30
0
11
-53.3
21
0
31
0
39
0
210
0
220
0
230
1
0
LINE
5
A3
100
AcDbEntity
8
SK1
62
256
6
ByLayer
370
18
48
1
60
0
100
AcDbLine
10
-1.6
20
-12.49675
30
0
11
-1.6
21
0
31
0
39
0
210
0
220
0
230
1
0
LINE
5
A4
100
AcDbEntity
8
SK1
62
256
6
ByLayer
370
18
48
1
60
0
100
AcDbLine
10
-1.6
20
0
30
0
11
-1.6
21
12.49675
31
0
39
0
210
0
220
0
230
1
0
LINE
5
A5
100
AcDbEntity
8
SK1
62
256
6
ByLayer
370
13
48
1
60
0
100
AcDbLine
10
-1.144243
20
0
30
0
11
-1.144243
21
-12.284227
31
0
39
0
210
0
220
0
230
1
0
LINE
5
A6
100
AcDbEntity
8
SK1
62
256
6
ByLayer
370
13
48
1
60
0
100
AcDbLine
10
-1.144243
20
12.284227
30
0
11
-1.144243
21
0
31
0
39
0
210
0
220
0
230
1
0
LINE
5
A7
100
AcDbEntity
8
SK1
62
256
6
ByLayer
370
13
48
1
60
0
100
AcDbLine
10
-54.449692
20
-12.375033
30
0
11
-54.449692
21
0
31
0
39
0
210
0
220
0
230
1
0
LINE
5
A8
100
AcDbEntity
8
SK1
62
256
6
ByLayer
370
13
48
1
60
0
100
AcDbLine
10
-54.449692
20
0
30
0
11
-54.449692
21
12.375033
31
0
39
0
210
0
220
0
230
1
0
LINE
5
A9
100
AcDbEntity
8
1
62
256
6
ByLayer
370
18
48
1
60
0
100
AcDbLine
10
0
20
15.8
30
0
11
0
21
-15.8
31
0
39
0
210
0
220
0
230
1
0
LINE
5
AA
100
AcDbEntity
8
1
62
256
6
ByLayer
370
18
48
1
60
0
100
AcDbLine
10
131.765798
20
-3.581407
30
0
11
131.765647
21
-3.5798
31
0
39
0
210
0
220
0
230
1
0
LINE
5
AB
100
AcDbEntity
8
1
62
256
6
ByLayer
370
18
48
1
60
0
100
AcDbLine
10
124.707546
20
-9.55296
30
0
11
124.707546
21
-9.487673
31
0
39
0
210
0
220
0
230
1
0
LINE
5
AC
100
AcDbEntity
8
1
62
256
6
ByLayer
370
13
48
1
60
0
100
AcDbLine
10
134.05966
20
3.627612
30
0
11
134.055904
21
3.644636
31
0
39
0
210
0
220
0
230
1
0
LINE
5
AD
100
AcDbEntity
8
1
62
256
6
ByLayer
370
13
48
1
60
0
100
AcDbLine
10
124.659619
20
-9.484625
30
0
11
124.659619
21
-9.569821
31
0
39
0
210
0
220
0
230
1
0
LINE
5
AE
100
AcDbEntity
8
1
62
256
6
ByLayer
370
18
48
1
60
0
100
AcDbLine
10
115.537844
20
-3.427729
30
0
11
115.537844
21
5.480931
31
0
39
0
210
0
220
0
230
1
0
LINE
5
AF
100
AcDbEntity
8
1
62
256
6
ByLayer
370
18
48
1
60
0
100
AcDbLine
10
131.765798
20
-9.003223
30
0
11
131.765798
21
-3.581407
31
0
39
0
210
0
220
0
230
1
0
LINE
5
B0
100
AcDbEntity
8
1
62
256
6
ByLayer
370
13
48
1
60
0
100
AcDbLine
10
17.258357
20
10.978924
30
0
11
17.258357
21
6.640934
31
0
39
0
210
0
220
0
230
1
0
LINE
5
B1
100
AcDbEntity
8
1
62
256
6
ByLayer
370
18
48
1
60
0
100
AcDbLine
10
124.877609
20
-9.500012
30
0
11
131.199021
21
-9.500012
31
0
39
0
210
0
220
0
230
1
0
LINE
5
B2
100
AcDbEntity
8
1
62
256
6
ByLayer
370
13
48
1
60
0
100
AcDbLine
10
17.258357
20
-4.474259
30
0
11
17.258357
21
-10.978924
31
0
39
0
210
0
220
0
230
1
0
LINE
5
B3
100
AcDbEntity
8
1
62
256
6
ByLayer
370
18
48
1
60
0
100
AcDbLine
10
135.995205
20
3.599041
30
0
11
135.890245
21
3.912102
31
0
39
0
210
0
220
0
230
1
0
LINE
5
B4
100
AcDbEntity
8
1
62
256
6
ByLayer
370
18
48
1
60
0
100
AcDbLine
10
123.8
20
-9.857583
30
0
11
123.8
21
-9.805964
31
0
39
0
210
0
220
0
230
1
0
LINE
5
B5
100
AcDbEntity
8
1
62
256
6
ByLayer
370
18
48
1
60
0
100
AcDbLine
10
25.7
20
-10.25
30
0
11
25.7
21
-6.754396
31
0
39
0
210
0
220
0
230
1
0
LINE
5
B6
100
AcDbEntity
8
1
62
256
6
ByLayer
370
18
48
1
60
0
100
AcDbLine
10
124.707546
20
-9.55296
30
0
11
132.154262
21
-9.55296
31
0
39
0
210
0
220
0
230
1
0
LINE
5
B7
100
AcDbEntity
8
1
62
256
6
ByLayer
370
13
48
1
60
0
100
AcDbLine
10
6.7555
20
1.834882
30
0
11
6.7555
21
-16
31
0
39
0
210
0
220
0
230
1
0
LINE
5
B8
100
AcDbEntity
8
1
62
256
6
ByLayer
370
18
48
1
60
0
100
AcDbLine
10
123.7
20
-10.099037
30
0
11
123.7
21
-9.805997
31
0
39
0
210
0
220
0
230
1
0
LINE
5
B9
100
AcDbEntity
8
1
62
256
6
ByLayer
370
18
48
1
60
0
100
AcDbLine
10
123.8
20
-9.710328
30
0
11
123.8
21
-9.746039
31
0
39
0
210
0
220
0
230
1
0
LINE
5
BA
100
AcDbEntity
8
1
62
256
6
ByLayer
370
18
48
1
60
0
100
AcDbLine
10
131.199021
20
-9.500012
30
0
11
131.206326
21
-9.496834
31
0
39
0
210
0
220
0
230
1
0
LINE
5
BB
100
AcDbEntity
8
1
62
256
6
ByLayer
370
13
48
1
60
0
100
AcDbLine
10
136.917278
20
0.340903
30
0
11
135.89972
21
1.052115
31
0
39
0
210
0
220
0
230
1
0
LINE
5
BC
100
AcDbEntity
8
1
62
256
6
ByLayer
370
18
48
1
60
0
100
AcDbLine
10
131.015446
20
-8.252871
30
0
11
131.765798
21
-9.003223
31
0
39
0
210
0
220
0
230
1
0
LINE
5
BD
100
AcDbEntity
8
1
62
256
6
ByLayer
370
13
48
1
60
0
100
AcDbLine
10
123.8
20
-9.857583
30
0
11
123.945422
21
-9.908709
31
0
39
0
210
0
220
0
230
1
0
LINE
5
BE
100
AcDbEntity
8
1
62
256
6
ByLayer
370
18
48
1
60
0
100
AcDbLine
10
133.473004
20
-10.256707
30
0
11
137.005308
21
0.000285
31
0
39
0
210
0
220
0
230
1
0
LINE
5
BF
100
AcDbEntity
8
1
62
256
6
ByLayer
370
18
48
1
60
0
100
AcDbLine
10
131.206326
20
-9.496834
30
0
11
131.762286
21
-9.009726
31
0
39
0
210
0
220
0
230
1
0
LINE
5
C0
100
AcDbEntity
8
1
62
256
6
ByLayer
370
18
48
1
60
0
100
AcDbLine
10
135.995205
20
-3.599041
30
0
11
135.890245
21
-3.912102
31
0
39
0
210
0
220
0
230
1
0
LINE
5
C1
100
AcDbEntity
8
1
62
256
6
ByLayer
370
18
48
1
60
0
100
AcDbLine
10
131.762286
20
-9.009726
30
0
11
131.765798
21
-9.003223
31
0
39
0
210
0
220
0
230
1
0
LINE
5
C2
100
AcDbEntity
8
1
62
256
6
ByLayer
370
18
48
1
60
0
100
AcDbLine
10
25.7
20
10.25
30
0
11
25.7
21
9.826109
31
0
39
0
210
0
220
0
230
1
0
LINE
5
C3
100
AcDbEntity
8
1
62
256
6
ByLayer
370
18
48
1
60
0
100
AcDbLine
10
23.1
20
-10.25
30
0
11
23.1
21
-6.35148
31
0
39
0
210
0
220
0
230
1
0
LINE
5
C4
100
AcDbEntity
8
1
62
256
6
ByLayer
370
18
48
1
60
0
100
AcDbLine
10
136.917278
20
-0.340903
30
0
11
136.767054
21
-0.990962
31
0
39
0
210
0
220
0
230
1
0
LINE
5
C5
100
AcDbEntity
8
1
62
256
6
ByLayer
370
18
48
1
60
0
100
AcDbLine
10
124.542936
20
-10.430759
30
0
11
124.542936
21
-10.297759
31
0
39
0
210
0
220
0
230
1
0
LINE
5
C6
100
AcDbEntity
8
1
62
256
6
ByLayer
370
18
48
1
60
0
100
AcDbLine
10
23.1
20
10.25
30
0
11
23.1
21
7.442385
31
0
39
0
210
0
220
0
230
1
0
LINE
5
C7
100
AcDbEntity
8
1
62
256
6
ByLayer
370
18
48
1
60
0
100
AcDbLine
10
123.8
20
-9.805964
30
0
11
123.8
21
-9.746039
31
0
39
0
210
0
220
0
230
1
0
LINE
5
C8
100
AcDbEntity
8
1
62
256
6
ByLayer
370
18
48
1
60
0
100
AcDbLine
10
21
20
10.05
30
0
11
21
21
7.192049
31
0
39
0
210
0
220
0
230
1
0
LINE
5
C9
100
AcDbEntity
8
1
62
256
6
ByLayer
370
18
48
1
60
0
100
AcDbLine
10
21
20
-10.05
30
0
11
21
21
-5.802167
31
0
39
0
210
0
220
0
230
1
0
LINE
5
CA
100
AcDbEntity
8
1
62
256
6
ByLayer
370
18
48
1
60
0
100
AcDbLine
10
137.005308
20
-0.000285
30
0
11
137.005308
21
0.000285
31
0
39
0
210
0
220
0
230
1
0
LINE
5
CB
100
AcDbEntity
8
1
62
256
6
ByLayer
370
18
48
1
60
0
100
AcDbLine
10
134.025939
20
-4.371896
30
0
11
135.809077
21
-2.413963
31
0
39
0
210
0
220
0
230
1
0
LINE
5
CC
100
AcDbEntity
8
1
62
256
6
ByLayer
370
18
48
1
60
0
100
AcDbLine
10
123.8
20
-10.125191
30
0
11
123.8
21
-9.857583
31
0
39
0
210
0
220
0
230
1
0
LINE
5
CD
100
AcDbEntity
8
1
62
256
6
ByLayer
370
13
48
1
60
0
100
AcDbLine
10
123.6
20
3.1
30
0
11
123.806275
21
3.1
31
0
39
0
210
0
220
0
230
1
0
LINE
5
CE
100
AcDbEntity
8
1
62
256
6
ByLayer
370
18
48
1
60
0
100
AcDbLine
10
131.765647
20
-3.5798
30
0
11
130.318856
21
1.494066
31
0
39
0
210
0
220
0
230
1
0
LINE
5
CF
100
AcDbEntity
8
1
62
256
6
ByLayer
370
18
48
1
60
0
100
AcDbLine
10
123.8
20
2.794378
30
0
11
123.8
21
2.857726
31
0
39
0
210
0
220
0
230
1
0
LINE
5
D0
100
AcDbEntity
8
1
62
256
6
ByLayer
370
18
48
1
60
0
100
AcDbLine
10
132.154262
20
-9.55296
30
0
11
133.942563
21
-4.463316
31
0
39
0
210
0
220
0
230
1
0
LINE
5
D1
100
AcDbEntity
8
1
62
256
6
ByLayer
370
18
48
1
60
0
100
AcDbLine
10
129.709416
20
-3.5798
30
0
11
131.765647
21
-3.5798
31
0
39
0
210
0
220
0
230
1
0
LINE
5
D2
100
AcDbEntity
8
1
62
256
6
ByLayer
370
13
48
1
60
0
100
AcDbLine
10
17.169969
20
11.025695
30
0
11
17.169969
21
6.634348
31
0
39
0
210
0
220
0
230
1
0
LINE
5
D3
100
AcDbEntity
8
1
62
256
6
ByLayer
370
13
48
1
60
0
100
AcDbLine
10
6.7555
20
16
30
0
11
6.7555
21
1.834882
31
0
39
0
210
0
220
0
230
1
0
LINE
5
D4
100
AcDbEntity
8
1
62
256
6
ByLayer
370
18
48
1
60
0
100
AcDbLine
10
123.945422
20
-10.026926
30
0
11
123.945422
21
-9.908709
31
0
39
0
210
0
220
0
230
1
0
LINE
5
D5
100
AcDbEntity
8
1
62
256
6
ByLayer
370
18
48
1
60
0
100
AcDbLine
10
137.005308
20
-0.000285
30
0
11
136.97523
21
-0.13584
31
0
39
0
210
0
220
0
230
1
0
LINE
5
D6
100
AcDbEntity
8
1
62
256
6
ByLayer
370
18
48
1
60
0
100
AcDbLine
10
136.917278
20
0.340903
30
0
11
136.767054
21
0.990962
31
0
39
0
210
0
220
0
230
1
0
LINE
5
D7
100
AcDbEntity
8
1
62
256
6
ByLayer
370
13
48
1
60
0
100
AcDbLine
10
17.169969
20
-4.453349
30
0
11
17.169969
21
-11.025695
31
0
39
0
210
0
220
0
230
1
0
LINE
5
D8
100
AcDbEntity
8
1
62
256
6
ByLayer
370
18
48
1
60
0
100
AcDbLine
10
136.97523
20
0.13584
30
0
11
137.005308
21
0.000285
31
0
39
0
210
0
220
0
230
1
0
LINE
5
D9
100
AcDbEntity
8
1
62
256
6
ByLayer
370
18
48
1
60
0
100
AcDbLine
10
0.2
20
0
30
0
11
0.2
21
-16
31
0
39
0
210
0
220
0
230
1
0
LINE
5
DA
100
AcDbEntity
8
1
62
256
6
ByLayer
370
18
48
1
60
0
100
AcDbLine
10
0.2
20
16
30
0
11
0.2
21
0
31
0
39
0
210
0
220
0
230
1
0
LINE
5
DB
100
AcDbEntity
8
1
62
256
6
ByLayer
370
13
48
1
60
0
100
AcDbLine
10
135.854356
20
1.013534
30
0
11
136.940446
21
0.254422
31
0
39
0
210
0
220
0
230
1
0
MTEXT
5
17F
100
AcDbEntity
8
SK6
62
256
6
ByLayer
370
13
48
1
60
0
100
AcDbMText
10
21.851137
20
32.875134
30
0
210
0
220
0
230
1
1
\W0.7057;870-2100-21L25-5
40
3.5
41
0
44
1.084337
50
0
71
7
72
5
7
iso_b_vert
0
DIMENSION
5
18D
100
AcDbEntity
8
2
62
256
6
ByLayer
370
13
48
1
60
0
100
AcDbDimension
2
DimnDraft3D1
10
21
20
-23.5
30
0
11
79
21
-23.5
31
0
70
32
71
5
72
1
41
1
210
0
220
0
230
1
3
Standard
100
AcDbAlignedDimension
13
137
23
-1.5875
33
0
14
21
24
-12.0875
34
0
50
0
100
AcDbRotatedDimension
1001
ACAD
1000
DSTYLE
1002
{
1070
   279
1070
     0
1070
   172
1070
     1
1070
   173
1070
     1
1070
   340
1005
180
1070
   271
1070
     1
1070
   272
1070
     2
1070
    77
1070
     1
1070
    73
1070
     0
1070
   171
1070
     3
1070
   274
1070
     4
1070
   177
1070
     7
1070
   176
1070
     7
1070
   178
1070
     7
1070
    48
1040
-0.005
1070
    41
1041
3.5
1070
   147
1041
1.5
1070
    42
1041
1.5875
1070
    44
1041
2.0
1070
   140
1041
3.0
1070
   343
1005
0
1070
   344
1005
0
1002
}
0
DIMENSION
5
197
100
AcDbEntity
8
2
62
256
6
ByLayer
370
13
48
1
60
0
100
AcDbDimension
2
DimnDraft3D2
10
23.5
20
17.5
30
0
11
80.25
21
17.5
31
0
70
32
71
5
72
1
41
1
210
0
220
0
230
1
3
Standard
100
AcDbAlignedDimension
13
137
23
1.5875
33
0
14
23.5
24
12.0875
34
0
50
0
100
AcDbRotatedDimension
1001
ACAD
1000
DSTYLE
1002
{
1070
   279
1070
     0
1070
   172
1070
     1
1070
   173
1070
     1
1070
   340
1005
180
1070
   271
1070
     1
1070
   272
1070
     2
1070
    77
1070
     1
1070
    73
1070
     0
1070
   171
1070
     3
1070
   274
1070
     4
1070
   177
1070
     7
1070
   176
1070
     7
1070
   178
1070
     7
1070
    48
1040
-0.005
1070
    41
1041
3.5
1070
   147
1041
1.5
1070
    42
1041
1.5875
1070
    44
1041
2.0
1070
   140
1041
3.0
1070
   343
1005
0
1070
   344
1005
0
1002
}
0
DIMENSION
5
1A2
100
AcDbEntity
8
SK2
62
256
6
ByLayer
370
13
48
1
60
0
100
AcDbDimension
2
DimnDraft3D3
10
0
20
-35.5
30
0
11
-28
21
-35.5
31
0
70
32
71
5
72
1
41
1
210
0
220
0
230
1
3
Standard
100
AcDbAlignedDimension
13
-56
23
-14.0875
33
0
14
0
24
-17.5875
34
0
50
0
100
AcDbRotatedDimension
1001
ACAD
1000
DSTYLE
1002
{
1070
   279
1070
     0
1070
   172
1070
     1
1070
   173
1070
     1
1070
   340
1005
180
1070
   271
1070
     1
1070
   272
1070
     2
1070
    77
1070
     1
1070
    73
1070
     0
1070
   171
1070
     3
1070
   274
1070
     4
1070
   177
1070
     7
1070
   176
1070
     7
1070
   178
1070
     7
1070
    48
1040
-0.005
1070
    41
1041
3.5
1070
   147
1041
1.5
1070
    42
1041
1.5875
1070
    44
1041
2.0
1070
   140
1041
3.0
1070
   343
1005
0
1070
   344
1005
0
1002
}
0
DIMENSION
5
1AC
100
AcDbEntity
8
2
62
256
6
ByLayer
370
13
48
1
60
0
100
AcDbDimension
2
DimnDraft3D4
10
137
20
-35.5
30
0
11
68.5
21
-35.5
31
0
70
32
71
5
72
1
41
1
210
0
220
0
230
1
3
Standard
100
AcDbAlignedDimension
13
0
23
-17.5875
33
0
14
137
24
-1.5875
34
0
50
0
100
AcDbRotatedDimension
1001
ACAD
1000
DSTYLE
1002
{
1070
   279
1070
     0
1070
   172
1070
     1
1070
   173
1070
     1
1070
   340
1005
180
1070
   271
1070
     1
1070
   272
1070
     2
1070
    77
1070
     1
1070
    73
1070
     0
1070
   171
1070
     3
1070
   274
1070
     4
1070
   177
1070
     7
1070
   176
1070
     7
1070
   178
1070
     7
1070
    48
1040
-0.005
1070
    41
1041
3.5
1070
   147
1041
1.5
1070
    42
1041
1.5875
1070
    44
1041
2.0
1070
   140
1041
3.0
1070
   343
1005
0
1070
   344
1005
0
1002
}
0
DIMENSION
5
1B7
100
AcDbEntity
8
SK2
62
256
6
ByLayer
370
13
48
1
60
0
100
AcDbDimension
2
DimnDraft3D5
10
-64.25
20
-12.5
30
0
11
-64.5
21
-0.520456
31
0
70
33
71
5
72
1
41
1
210
0
220
0
230
1
3
Standard
100
AcDbAlignedDimension
13
-57.5875
23
12.5
33
0
14
-57.5875
24
-12.5
34
0
1001
ACAD
1000
DSTYLE
1002
{
1070
   279
1070
     0
1070
    74
1070
     0
1070
   173
1070
     1
1070
   340
1005
180
1070
   271
1070
     1
1070
   272
1070
     2
1070
    77
1070
     1
1070
    73
1070
     0
1070
   171
1070
     3
1070
   274
1070
     4
1070
   177
1070
     7
1070
   176
1070
     7
1070
   178
1070
     7
1070
    48
1040
-0.005
1070
    41
1041
3.5
1070
   147
1041
1.5
1070
    42
1041
1.5875
1070
    44
1041
2.0
1070
   140
1041
3.0
1070
   343
1005
0
1070
   344
1005
0
1002
}
0
ENDSEC
0
SECTION
2
OBJECTS
0
DICTIONARY
5
222
330
0
100
AcDbDictionary
280
0
281
1
3
ACAD_GROUP
350
223
3
ACAD_MLINESTYLE
350
224
0
DICTIONARY
5
223
330
0
100
AcDbDictionary
280
0
281
1
0
DICTIONARY
5
224
330
0
100
AcDbDictionary
280
0
281
1
3
Standard
350
18
0
MLINESTYLE
5
18
330
224
100
AcDbMlineStyle
2
Standard
70
0
3

62
256
51
90
52
90
71
2
49
-0.5
62
256
6
ByLayer
49
0.5
62
256
6
ByLayer
0
RASTERVARIABLES
5
210
330

100
AcDbRasterVariables
90
0
70
1
71
1
72
1
0
ENDSEC
0
EOF
