0
SECTION
2
HEADER
9
$ACADVER
1
AC1015
9
$DWGCODEPAGE
3
ANSI_1252
9
$HANDSEED
5
22e
9
$ANGBASE
50
0
9
$ANGDIR
70
0
9
$ATTMODE
70
1
9
$AUNITS
70
0
9
$AUPREC
70
0
9
$CECOLOR
62
256
9
$CELTSCALE
40
1
9
$CELTYPE
6
ByLayer
9
$CELWEIGHT
370
18
9
$CLAYER
8
0
9
$CMLJUST
70
0
9
$CMLSCALE
40
1
9
$CMLSTYLE
2
Standard
9
$DIMSTYLE
2
Standard
9
$TEXTSIZE
40
0.2
9
$TEXTSTYLE
7
Standard
9
$LUNITS
70
2
9
$LUPREC
70
4
9
$EXTNAMES
290
1
9
$INSUNITS
70
4
9
$LTSCALE
40
1
9
$LWDISPLAY
290
1
9
$PDMODE
70
0
9
$PDSIZE
40
0
9
$PLINEGEN
70
0
0
ENDSEC
0
SECTION
2
CLASSES
0
CLASS
1
RASTERVARIABLES
2
AcDbRasterVariables
3
ISM
90
0
280
0
281
0
0
ENDSEC
0
SECTION
2
TABLES
0
TABLE
2
VPORT
5
224
100
AcDbSymbolTable
0
VPORT
5
1
100
AcDbSymbolTableRecord
100
AcDbViewportTableRecord
2
*Active
70
0
10
0
20
0
11
1
21
1
12
-1
22
1
13
0
23
0
14
0.5
24
0.5
15
10
25
10
16
0
26
0
36
1
17
0
27
0
37
0
0
ENDTAB
0
TABLE
2
LTYPE
5
225
100
AcDbSymbolTable
0
LTYPE
5
14
100
AcDbSymbolTableRecord
100
AcDbLinetypeTableRecord
70
0
2
ByBlock
3

72
65
73
0
40
0
0
LTYPE
5
15
100
AcDbSymbolTableRecord
100
AcDbLinetypeTableRecord
70
0
2
ByLayer
3

72
65
73
0
40
0
0
LTYPE
5
16
100
AcDbSymbolTableRecord
100
AcDbLinetypeTableRecord
70
0
2
CONTINUOUS
3
Solid line
72
65
73
0
40
0
0
LTYPE
5
6A
100
AcDbSymbolTableRecord
100
AcDbLinetypeTableRecord
70
0
2
CENTER
3
____ _ ____ _ ____ _ ____
72
65
73
4
40
47.5
49
22
74
0
49
-8.5
74
0
49
8.5
74
0
49
-8.5
74
0
0
LTYPE
5
6B
100
AcDbSymbolTableRecord
100
AcDbLinetypeTableRecord
70
0
2
DASHED
3
__ __ __ __ __ __ __ __ __
72
65
73
2
40
25.72
49
12.86
74
0
49
-12.86
74
0
0
ENDTAB
0
TABLE
2
LAYER
5
226
100
AcDbSymbolTable
0
LAYER
5
10
100
AcDbSymbolTableRecord
100
AcDbLayerTableRecord
2
0
70
0
62
7
6
CONTINUOUS
290
1
370
-3
390
0
0
LAYER
5
6D
100
AcDbSymbolTableRecord
100
AcDbLayerTableRecord
2
80
70
0
62
-6
6
CONTINUOUS
290
1
370
-3
390
0
0
LAYER
5
6F
100
AcDbSymbolTableRecord
100
AcDbLayerTableRecord
2
81
70
0
62
-3
6
CONTINUOUS
290
1
370
-3
390
0
0
LAYER
5
72
100
AcDbSymbolTableRecord
100
AcDbLayerTableRecord
2
1
70
0
62
4
6
CONTINUOUS
290
1
370
-3
390
0
0
LAYER
5
90
100
AcDbSymbolTableRecord
100
AcDbLayerTableRecord
2
4
70
0
62
-2
6
CENTER
290
1
370
-3
390
0
0
LAYER
5
184
100
AcDbSymbolTableRecord
100
AcDbLayerTableRecord
2
2
70
0
62
7
6
CONTINUOUS
290
1
370
-3
390
0
0
LAYER
5
210
100
AcDbSymbolTableRecord
100
AcDbLayerTableRecord
2
SK1
70
0
62
4
6
CONTINUOUS
290
1
370
-3
390
0
0
LAYER
5
211
100
AcDbSymbolTableRecord
100
AcDbLayerTableRecord
2
SK4
70
0
62
2
6
CENTER
290
1
370
-3
390
0
0
LAYER
5
212
100
AcDbSymbolTableRecord
100
AcDbLayerTableRecord
2
SK6
70
0
62
5
6
CONTINUOUS
290
1
370
-3
390
0
0
LAYER
5
213
100
AcDbSymbolTableRecord
100
AcDbLayerTableRecord
2
SK2
70
0
62
7
6
CONTINUOUS
290
1
370
-3
390
0
0
ENDTAB
0
TABLE
2
STYLE
5
227
100
AcDbSymbolTable
0
STYLE
5
11
100
AcDbSymbolTableRecord
100
AcDbTextStyleTableRecord
2
Standard
3
txt
70
0
71
0
40
0
41
1
42
0
50
0
0
STYLE
5
17F
100
AcDbSymbolTableRecord
100
AcDbTextStyleTableRecord
2
iso_b_vert
3
simplex.shx
70
0
71
0
40
0
41
1
42
0
50
0
0
STYLE
5
180
100
AcDbSymbolTableRecord
100
AcDbTextStyleTableRecord
2
DWGDirectTextStyle
3
simplex
70
0
71
0
40
0
41
1
42
0
50
0
0
ENDTAB
0
TABLE
2
DIMSTYLE
5
228
100
AcDbSymbolTable
100
AcDbDimStyleTable
0
DIMSTYLE
105
27
100
AcDbSymbolTableRecord
100
AcDbDimStyleTableRecord
2
Standard
70
0
3
<>
41
0.18
42
0.0625
44
0.18
140
0.18
147
0.09
73
0
74
0
77
1
271
2
275
0
278
52
280
0
340
11
0
ENDTAB
0
TABLE
2
VIEW
5
229
100
AcDbSymbolTable
0
ENDTAB
0
TABLE
2
UCS
5
22a
100
AcDbSymbolTable
0
ENDTAB
0
TABLE
2
APPID
5
22b
100
AcDbSymbolTable
0
APPID
5
12
100
AcDbSymbolTableRecord
100
AcDbRegAppTableRecord
2
ACAD
70
0
0
ENDTAB
0
TABLE
2
BLOCK_RECORD
5
22c
100
AcDbSymbolTable
0
BLOCK_RECORD
5
1F
100
AcDbSymbolTableRecord
100
AcDbBlockTableRecord
2
*Model_Space
340
0
70
0
0
BLOCK_RECORD
5
1B
100
AcDbSymbolTableRecord
100
AcDbBlockTableRecord
2
*Paper_Space
340
0
70
0
0
BLOCK_RECORD
5
23
100
AcDbSymbolTableRecord
100
AcDbBlockTableRecord
2
*Paper_Space0
340
0
70
0
0
BLOCK_RECORD
5
182
100
AcDbSymbolTableRecord
100
AcDbBlockTableRecord
2
DimnDraft3D1
340
0
70
0
0
BLOCK_RECORD
5
18D
100
AcDbSymbolTableRecord
100
AcDbBlockTableRecord
2
DimnDraft3D2
340
0
70
0
0
BLOCK_RECORD
5
197
100
AcDbSymbolTableRecord
100
AcDbBlockTableRecord
2
DimnDraft3D3
340
0
70
0
0
BLOCK_RECORD
5
1A2
100
AcDbSymbolTableRecord
100
AcDbBlockTableRecord
2
DimnDraft3D4
340
0
70
0
0
BLOCK_RECORD
5
1AC
100
AcDbSymbolTableRecord
100
AcDbBlockTableRecord
2
DimnDraft3D5
340
0
70
0
0
ENDTAB
0
ENDSEC
0
SECTION
2
BLOCKS
0
BLOCK
5
20
100
AcDbEntity
8
0
100
AcDbBlockBegin
2
*Model_Space
70
0
10
0
20
0
30
0
3
*Model_Space
0
ENDBLK
5
21
100
AcDbEntity
8
0
100
AcDbBlockEnd
0
BLOCK
5
1C
100
AcDbEntity
8
0
100
AcDbBlockBegin
2
*Paper_Space
70
0
10
0
20
0
30
0
3
*Paper_Space
0
ENDBLK
5
1D
100
AcDbEntity
8
0
100
AcDbBlockEnd
0
BLOCK
5
24
100
AcDbEntity
8
0
100
AcDbBlockBegin
2
*Paper_Space0
70
0
10
0
20
0
30
0
3
*Paper_Space0
0
ENDBLK
5
25
100
AcDbEntity
8
0
100
AcDbBlockEnd
0
BLOCK
5
18A
100
AcDbEntity
8
0
100
AcDbBlockBegin
2
DimnDraft3D1
70
0
10
0
20
0
30
0
3
DimnDraft3D1
0
MTEXT
5
183
100
AcDbEntity
8
2
62
256
6
ByLayer
370
13
48
1
60
0
100
AcDbMText
10
54.229544
20
-22.749886
30
0
210
0
220
0
230
1
1
\W0.7346;72.0
40
3
41
0
44
1.084337
50
0
71
7
72
5
7
iso_b_vert
0
LINE
5
185
100
AcDbEntity
8
2
62
256
6
ByLayer
370
13
48
1
60
0
100
AcDbLine
10
93
20
-1.5875
30
0
11
93
21
-25.5
31
0
39
0
210
0
220
0
230
1
0
LINE
5
186
100
AcDbEntity
8
2
62
256
6
ByLayer
370
13
48
1
60
0
100
AcDbLine
10
21
20
-12.0875
30
0
11
21
21
-25.5
31
0
39
0
210
0
220
0
230
1
0
LINE
5
187
100
AcDbEntity
8
2
62
256
6
ByLayer
370
13
48
1
60
0
100
AcDbLine
10
93
20
-23.5
30
0
11
21
21
-23.5
31
0
39
0
210
0
220
0
230
1
0
SOLID
5
188
100
AcDbEntity
8
2
62
256
6
ByLayer
370
13
48
1
60
0
100
AcDbTrace
10
93
20
-23.5
30
0
11
89.500002
21
-23.960784
31
0
12
89.499998
22
-23.039216
32
0
13
93
23
-23.5
33
0
39
0
210
0
220
0
230
1
0
SOLID
5
189
100
AcDbEntity
8
2
62
256
6
ByLayer
370
13
48
1
60
0
100
AcDbTrace
10
21
20
-23.5
30
0
11
24.499998
21
-23.039216
31
0
12
24.500002
22
-23.960784
32
0
13
21
23
-23.5
33
0
39
0
210
0
220
0
230
1
0
ENDBLK
5
18B
100
AcDbEntity
8
0
100
AcDbBlockEnd
0
BLOCK
5
194
100
AcDbEntity
8
0
100
AcDbBlockBegin
2
DimnDraft3D2
70
0
10
0
20
0
30
0
3
DimnDraft3D2
0
MTEXT
5
18E
100
AcDbEntity
8
2
62
256
6
ByLayer
370
13
48
1
60
0
100
AcDbMText
10
55.479544
20
18.250114
30
0
210
0
220
0
230
1
1
\W0.7346;69.5
40
3
41
0
44
1.084337
50
0
71
7
72
5
7
iso_b_vert
0
LINE
5
18F
100
AcDbEntity
8
2
62
256
6
ByLayer
370
13
48
1
60
0
100
AcDbLine
10
93
20
1.5875
30
0
11
93
21
19.5
31
0
39
0
210
0
220
0
230
1
0
LINE
5
190
100
AcDbEntity
8
2
62
256
6
ByLayer
370
13
48
1
60
0
100
AcDbLine
10
23.5
20
12.0875
30
0
11
23.5
21
19.5
31
0
39
0
210
0
220
0
230
1
0
LINE
5
191
100
AcDbEntity
8
2
62
256
6
ByLayer
370
13
48
1
60
0
100
AcDbLine
10
93
20
17.5
30
0
11
23.5
21
17.5
31
0
39
0
210
0
220
0
230
1
0
SOLID
5
192
100
AcDbEntity
8
2
62
256
6
ByLayer
370
13
48
1
60
0
100
AcDbTrace
10
93
20
17.5
30
0
11
89.500002
21
17.039216
31
0
12
89.499998
22
17.960784
32
0
13
93
23
17.5
33
0
39
0
210
0
220
0
230
1
0
SOLID
5
193
100
AcDbEntity
8
2
62
256
6
ByLayer
370
13
48
1
60
0
100
AcDbTrace
10
23.5
20
17.5
30
0
11
26.999998
21
17.960784
31
0
12
27.000002
22
17.039216
32
0
13
23.5
23
17.5
33
0
39
0
210
0
220
0
230
1
0
ENDBLK
5
195
100
AcDbEntity
8
0
100
AcDbBlockEnd
0
BLOCK
5
19F
100
AcDbEntity
8
0
100
AcDbBlockBegin
2
DimnDraft3D3
70
0
10
0
20
0
30
0
3
DimnDraft3D3
0
MTEXT
5
198
100
AcDbEntity
8
SK2
62
256
6
ByLayer
370
13
48
1
60
0
100
AcDbMText
10
-30.770456
20
-34.749886
30
0
210
0
220
0
230
1
1
\W0.7346;56.0
40
3
41
0
44
1.084337
50
0
71
7
72
5
7
iso_b_vert
0
LINE
5
19A
100
AcDbEntity
8
SK2
62
256
6
ByLayer
370
13
48
1
60
0
100
AcDbLine
10
-56
20
-14.0875
30
0
11
-56
21
-37.5
31
0
39
0
210
0
220
0
230
1
0
LINE
5
19B
100
AcDbEntity
8
SK2
62
256
6
ByLayer
370
13
48
1
60
0
100
AcDbLine
10
0
20
-17.5875
30
0
11
0
21
-37.5
31
0
39
0
210
0
220
0
230
1
0
LINE
5
19C
100
AcDbEntity
8
SK2
62
256
6
ByLayer
370
13
48
1
60
0
100
AcDbLine
10
-56
20
-35.5
30
0
11
0
21
-35.5
31
0
39
0
210
0
220
0
230
1
0
SOLID
5
19D
100
AcDbEntity
8
SK2
62
256
6
ByLayer
370
13
48
1
60
0
100
AcDbTrace
10
-56
20
-35.5
30
0
11
-52.500002
21
-35.039216
31
0
12
-52.499998
22
-35.960784
32
0
13
-56
23
-35.5
33
0
39
0
210
0
220
0
230
1
0
SOLID
5
19E
100
AcDbEntity
8
SK2
62
256
6
ByLayer
370
13
48
1
60
0
100
AcDbTrace
10
0
20
-35.5
30
0
11
-3.499998
21
-35.960784
31
0
12
-3.500002
22
-35.039216
32
0
13
0
23
-35.5
33
0
39
0
210
0
220
0
230
1
0
ENDBLK
5
1A0
100
AcDbEntity
8
0
100
AcDbBlockEnd
0
BLOCK
5
1A9
100
AcDbEntity
8
0
100
AcDbBlockBegin
2
DimnDraft3D4
70
0
10
0
20
0
30
0
3
DimnDraft3D4
0
MTEXT
5
1A3
100
AcDbEntity
8
2
62
256
6
ByLayer
370
13
48
1
60
0
100
AcDbMText
10
43.729544
20
-34.749886
30
0
210
0
220
0
230
1
1
\W0.7346;93.0
40
3
41
0
44
1.084337
50
0
71
7
72
5
7
iso_b_vert
0
LINE
5
1A4
100
AcDbEntity
8
2
62
256
6
ByLayer
370
13
48
1
60
0
100
AcDbLine
10
0
20
-17.5875
30
0
11
0
21
-37.5
31
0
39
0
210
0
220
0
230
1
0
LINE
5
1A5
100
AcDbEntity
8
2
62
256
6
ByLayer
370
13
48
1
60
0
100
AcDbLine
10
93
20
-1.5875
30
0
11
93
21
-37.5
31
0
39
0
210
0
220
0
230
1
0
LINE
5
1A6
100
AcDbEntity
8
2
62
256
6
ByLayer
370
13
48
1
60
0
100
AcDbLine
10
0
20
-35.5
30
0
11
93
21
-35.5
31
0
39
0
210
0
220
0
230
1
0
SOLID
5
1A7
100
AcDbEntity
8
2
62
256
6
ByLayer
370
13
48
1
60
0
100
AcDbTrace
10
0
20
-35.5
30
0
11
3.499998
21
-35.039216
31
0
12
3.500002
22
-35.960784
32
0
13
0
23
-35.5
33
0
39
0
210
0
220
0
230
1
0
SOLID
5
1A8
100
AcDbEntity
8
2
62
256
6
ByLayer
370
13
48
1
60
0
100
AcDbTrace
10
93
20
-35.5
30
0
11
89.500002
21
-35.960784
31
0
12
89.499998
22
-35.039216
32
0
13
93
23
-35.5
33
0
39
0
210
0
220
0
230
1
0
ENDBLK
5
1AA
100
AcDbEntity
8
0
100
AcDbBlockEnd
0
BLOCK
5
1B4
100
AcDbEntity
8
0
100
AcDbBlockBegin
2
DimnDraft3D5
70
0
10
0
20
0
30
0
3
DimnDraft3D5
0
MTEXT
5
1AD
100
AcDbEntity
8
SK2
62
256
6
ByLayer
370
13
48
1
60
0
100
AcDbMText
10
-63.750114
20
0.229544
30
0
210
0
220
0
230
1
1
\W0.7346;25.0
40
3
41
0
44
1.084337
50
90
71
7
72
5
7
iso_b_vert
0
MTEXT
5
1AE
100
AcDbEntity
8
SK2
62
256
6
ByLayer
370
13
48
1
60
0
100
AcDbMText
10
-63.750114
20
-4.247019
30
0
210
0
220
0
230
1
1
%%c
40
3
41
0
44
1.084337
50
90
71
7
72
5
7
iso_b_vert
0
LINE
5
1AF
100
AcDbEntity
8
SK2
62
256
6
ByLayer
370
13
48
1
60
0
100
AcDbLine
10
-57.5875
20
12.5
30
0
11
-64.25
21
12.5
31
0
39
0
210
0
220
0
230
1
0
LINE
5
1B0
100
AcDbEntity
8
SK2
62
256
6
ByLayer
370
13
48
1
60
0
100
AcDbLine
10
-57.5875
20
-12.5
30
0
11
-64.25
21
-12.5
31
0
39
0
210
0
220
0
230
1
0
LINE
5
1B1
100
AcDbEntity
8
SK2
62
256
6
ByLayer
370
13
48
1
60
0
100
AcDbLine
10
-62.25
20
12.5
30
0
11
-62.25
21
-12.5
31
0
39
0
210
0
220
0
230
1
0
SOLID
5
1B2
100
AcDbEntity
8
SK2
62
256
6
ByLayer
370
13
48
1
60
0
100
AcDbTrace
10
-62.25
20
12.5
30
0
11
-61.789216
21
9.000002
31
0
12
-62.710784
22
8.999998
32
0
13
-62.25
23
12.5
33
0
39
0
210
0
220
0
230
1
0
SOLID
5
1B3
100
AcDbEntity
8
SK2
62
256
6
ByLayer
370
13
48
1
60
0
100
AcDbTrace
10
-62.25
20
-12.5
30
0
11
-62.710784
21
-9.000002
31
0
12
-61.789216
22
-8.999998
32
0
13
-62.25
23
-12.5
33
0
39
0
210
0
220
0
230
1
0
ENDBLK
5
1B5
100
AcDbEntity
8
0
100
AcDbBlockEnd
0
ENDSEC
0
SECTION
2
ENTITIES
0
ARC
5
DD
100
AcDbEntity
8
SK1
62
256
6
ByLayer
370
18
48
1
60
0
100
AcDbCircle
39
0
10
53.946236
20
-12.99675
30
0
40
0.799999999999998
210
0
220
0
230
-1
100
AcDbArc
50
51
51
130.534532
0
ARC
5
DE
100
AcDbEntity
8
SK1
62
256
6
ByLayer
370
18
48
1
60
0
100
AcDbCircle
39
0
10
53.946236
20
12.99675
30
0
40
0.799999999999998
210
0
220
0
230
-1
100
AcDbArc
50
229.465468
51
309
0
ARC
5
DF
100
AcDbEntity
8
SK1
62
256
6
ByLayer
370
18
48
1
60
0
100
AcDbCircle
39
0
10
0.975195
20
12.64675
30
0
40
0.4
210
0
220
0
230
-1
100
AcDbArc
50
270
51
295
0
ARC
5
E0
100
AcDbEntity
8
SK1
62
256
6
ByLayer
370
18
48
1
60
0
100
AcDbCircle
39
0
10
0.975195
20
-12.64675
30
0
40
0.4
210
0
220
0
230
-1
100
AcDbArc
50
65
51
90
0
ARC
5
E1
100
AcDbEntity
8
1
62
256
6
ByLayer
370
18
48
1
60
0
100
AcDbCircle
39
0
10
-21
20
18.05
30
0
40
7.99999999999999
210
0
220
0
230
-1
100
AcDbArc
50
270
51
296.374697
0
ARC
5
E2
100
AcDbEntity
8
1
62
256
6
ByLayer
370
18
48
1
60
0
100
AcDbCircle
39
0
10
-21
20
-18.05
30
0
40
7.99999999999999
210
0
220
0
230
-1
100
AcDbArc
50
63.625303
51
90
0
ARC
5
E3
100
AcDbEntity
8
SK1
62
256
6
ByLayer
370
18
48
1
60
0
100
AcDbCircle
39
0
10
0.15
20
12.64675
30
0
40
0.4
210
0
220
0
230
-1
100
AcDbArc
50
247.975687
51
270
0
ARC
5
E4
100
AcDbEntity
8
SK1
62
256
6
ByLayer
370
18
48
1
60
0
100
AcDbCircle
39
0
10
0.15
20
-12.64675
30
0
40
0.4
210
0
220
0
230
-1
100
AcDbArc
50
90
51
112.024313
0
ELLIPSE
5
E5
100
AcDbEntity
8
1
62
256
6
ByLayer
370
18
48
1
60
0
100
AcDbEllipse
10
92.956726
20
0.231275
30
0
11
0.0446240259394429
21
-0.146773164768547
31
0
210
0
220
0
230
1
40
0.05855
41
-2.43183944728581
42
-1.7469415750761
0
ELLIPSE
5
E6
100
AcDbEntity
8
1
62
256
6
ByLayer
370
18
48
1
60
0
100
AcDbEllipse
10
85.48847
20
-1.388546
30
0
11
0.447400218343071
21
-1.5111805101475
31
0
210
0
220
0
230
1
40
0.315672
41
0
42
6.28318530717959
0
ELLIPSE
5
E7
100
AcDbEntity
8
1
62
256
6
ByLayer
370
13
48
1
60
0
100
AcDbEllipse
10
90.05138
20
3.613348
30
0
11
-0.0927699273740721
21
-0.020463151639212
31
0
210
0
220
0
230
1
40
0.128734
41
-1.68851840497396
42
-1.40093146230215
0
ELLIPSE
5
E8
100
AcDbEntity
8
1
62
256
6
ByLayer
370
13
48
1
60
0
100
AcDbEllipse
10
91.89144
20
0.975846
30
0
11
-0.0544235218676438
21
-0.0778657836762856
31
0
210
0
220
0
230
1
40
0.550074
41
-2.35740612272475
42
-1.6725082411558
0
ELLIPSE
5
E9
100
AcDbEntity
8
1
62
256
6
ByLayer
370
18
48
1
60
0
100
AcDbEllipse
10
70.391168
20
-83.060561
30
0
11
79.2404345231202
21
-0.0514124059305992
31
0
210
0
220
0
230
1
40
0.931056
41
1.45073373319366
42
1.45238187800726
0
ELLIPSE
5
EA
100
AcDbEntity
8
1
62
256
6
ByLayer
370
18
48
1
60
0
100
AcDbEllipse
10
76.24
20
-4.485764
30
0
11
-2.02000000000001
21
2.47370483472121E-16
31
0
210
0
220
0
230
1
40
0.702153
41
1.19007439284724
42
1.9474926249142
0
ELLIPSE
5
EB
100
AcDbEntity
8
1
62
256
6
ByLayer
370
18
48
1
60
0
100
AcDbEllipse
10
76.965
20
0
30
0
11
-1.88434772283586E-15
21
-10.2582500188964
31
0
210
0
220
0
230
1
40
1
41
0.293185026171436
42
0.368440242526938
0
ELLIPSE
5
EC
100
AcDbEntity
8
1
62
256
6
ByLayer
370
18
48
1
60
0
100
AcDbEllipse
10
93.009989
20
0.012735
30
0
11
3.66168447685972
21
10.5155618336823
31
0
210
0
220
0
230
1
40
0.077207
41
-2.89532903425516
42
-2.79570714666653
0
ELLIPSE
5
ED
100
AcDbEntity
8
1
62
256
6
ByLayer
370
18
48
1
60
0
100
AcDbEllipse
10
93.005664
20
0
30
0
11
4.14828104287272
21
10.1551507920472
31
0
210
0
220
0
230
1
40
0.349717
41
2.91051145023726
42
-2.98235399207772
0
ELLIPSE
5
EE
100
AcDbEntity
8
1
62
256
6
ByLayer
370
13
48
1
60
0
100
AcDbEllipse
10
67.5
20
10.486999
30
0
11
5.14369276454705
21
-4.74788634488424
31
0
210
0
220
0
230
1
40
0.20074
41
0.875554161630858
42
1.008868349424
0
ELLIPSE
5
EF
100
AcDbEntity
8
1
62
256
6
ByLayer
370
13
48
1
60
0
100
AcDbEllipse
10
90.052051
20
3.610291
30
0
11
-0.092808952759391
21
-0.0202854205700827
31
0
210
0
220
0
230
1
40
0.128956
41
-1.68827161228073
42
-1.40068300212492
0
ELLIPSE
5
F0
100
AcDbEntity
8
1
62
256
6
ByLayer
370
18
48
1
60
0
100
AcDbEllipse
10
60.77063
20
0
30
0
11
41.0982508470833
21
-9.22280059648262
31
0
210
0
220
0
230
1
40
0.108822
41
-1.41060520362153
42
-1.37518503770869
0
ELLIPSE
5
F1
100
AcDbEntity
8
1
62
256
6
ByLayer
370
18
48
1
60
0
100
AcDbEllipse
10
93.009989
20
-0.012735
30
0
11
3.66168447685971
21
-10.5155618336824
31
0
210
0
220
0
230
1
40
0.077207
41
2.79570714666654
42
2.89532903425516
0
ELLIPSE
5
F2
100
AcDbEntity
8
1
62
256
6
ByLayer
370
18
48
1
60
0
100
AcDbEllipse
10
23.455017
20
0
30
0
11
21.8499253924786
21
-6.99887051876964
31
0
210
0
220
0
230
1
40
0.342726
41
1.44063068684322
42
1.47892389466264
0
ELLIPSE
5
F3
100
AcDbEntity
8
1
62
256
6
ByLayer
370
18
48
1
60
0
100
AcDbEllipse
10
20.924168
20
-0.729157
30
0
11
2.90452665303437
21
6.3689657654766
31
0
210
0
220
0
230
1
40
0.683129
41
0.500366228694817
42
2.85186136874647
0
ELLIPSE
5
F4
100
AcDbEntity
8
1
62
256
6
ByLayer
370
18
48
1
60
0
100
AcDbEllipse
10
93.005308
20
0
30
0
11
3.57079389940908
21
10.2545447117045
31
0
210
0
220
0
230
1
40
0.077207
41
-3.09737179146015
42
-2.89301110421911
0
ELLIPSE
5
F5
100
AcDbEntity
8
1
62
256
6
ByLayer
370
18
48
1
60
0
100
AcDbEllipse
10
101.041448
20
0
30
0
11
13.8994806317604
21
9.42174029149261
31
0
210
0
220
0
230
1
40
0.290406
41
2.92172047271276
42
-3.12174029901406
0
ELLIPSE
5
F6
100
AcDbEntity
8
1
62
256
6
ByLayer
370
13
48
1
60
0
100
AcDbEllipse
10
91.868603
20
0.991949
30
0
11
-0.0550692013186458
21
-0.0774104842132283
31
0
210
0
220
0
230
1
40
0.550653
41
-2.34868978087742
42
-1.66796169022513
0
ELLIPSE
5
F7
100
AcDbEntity
8
1
62
256
6
ByLayer
370
18
48
1
60
0
100
AcDbEllipse
10
92.956726
20
-0.231275
30
0
11
0.0446240259452082
21
0.146773164784957
31
0
210
0
220
0
230
1
40
0.05855
41
1.74694157515595
42
2.43183944730494
0
POINT
5
6C
100
AcDbEntity
8
80
62
256
6
ByLayer
370
18
48
1
60
0
100
AcDbPoint
10
0
20
0
30
0
39
0
210
0
220
0
230
1
50
360
0
POINT
5
6E
100
AcDbEntity
8
81
62
256
6
ByLayer
370
18
48
1
60
0
100
AcDbPoint
10
79.8
20
0
30
0
39
0
210
0
220
0
230
1
50
360
0
SPLINE
5
F8
100
AcDbEntity
8
1
62
256
6
ByLayer
370
18
48
1
60
0
100
AcDbSpline
70
4
71
3
72
14
73
10
40
0
40
0
40
0
40
0
40
0.193094257536473
40
0.385277901693517
40
0.573385786185407
40
0.681453712683494
40
0.787654619653535
40
0.893103605382969
40
1
40
1
40
1
40
1
41
1
10
17.3564925946583
20
10.9271597106758
30
0
41
1
10
16.6392332887805
20
11.3044932094448
30
0
41
1
10
15.2211470061484
20
12.0800626954315
30
0
41
1
10
13.1905399812766
20
13.3695961680461
30
0
41
1
10
11.424367019236
20
14.4100146371543
30
0
41
1
10
9.90300074059536
20
15.1448712481413
30
0
41
1
10
8.64483226301627
20
15.6143297176445
30
0
41
1
10
7.33929263991632
20
15.9271949214462
30
0
41
1
10
6.45258228437714
20
15.9970386208935
30
0
41
1
10
6.00050000000002
20
16
30
0
0
SPLINE
5
F9
100
AcDbEntity
8
1
62
256
6
ByLayer
370
18
48
1
60
0
100
AcDbSpline
70
4
71
3
72
15
73
11
40
0
40
0
40
0
40
0
40
0.108810692038937
40
0.216170669629172
40
0.324368407927055
40
0.434535077108059
40
0.546908124020231
40
0.696767963779797
40
0.84828740353621
40
1
40
1
40
1
40
1
41
1
10
6.00049999999999
20
-16
30
0
41
1
10
6.46080623619929
20
-15.9968395849986
30
0
41
1
10
7.36339465053487
20
-15.9245442357155
30
0
41
1
10
8.69176965124419
20
-15.6007128933929
30
0
41
1
10
9.97114414818691
20
-15.1158736863888
30
0
41
1
10
11.2188484289315
20
-14.5060976210203
30
0
41
1
10
12.5778333451939
20
-13.7350315494734
30
0
41
1
10
14.0545527986183
20
-12.8234977609797
30
0
41
1
10
15.6708417983479
20
-11.8225683640538
30
0
41
1
10
16.7902112130372
20
-11.2185334378118
30
0
41
1
10
17.3564925946583
20
-10.9271597106758
30
0
0
SPLINE
5
FA
100
AcDbEntity
8
1
62
256
6
ByLayer
370
18
48
1
60
0
100
AcDbSpline
70
4
71
3
72
24
73
20
40
0
40
0
40
0
40
0
40
0.0248968812098751
40
0.0941350851806413
40
0.158733847741308
40
0.220178463627486
40
0.280347258423501
40
0.338172068563458
40
0.391835620688559
40
0.44137086842033
40
0.501068192853109
40
0.555582686737489
40
0.614655295451836
40
0.649316682836695
40
0.695552937793435
40
0.753722527572253
40
0.823839307576567
40
0.905922889675289
40
1
40
1
40
1
40
1
41
1
10
43.0299649854412
20
9.73393584956236
30
0
41
1
10
42.8993723552298
20
9.73251587994937
30
0
41
1
10
42.4003536994375
20
9.72600026624758
30
0
41
1
10
41.5134445750277
20
9.69731333082871
30
0
41
1
10
40.3923096322106
20
9.67393936171618
30
0
41
1
10
39.3011002585124
20
9.669729086334
30
0
41
1
10
38.2759916154935
20
9.69134702801722
30
0
41
1
10
37.3132095639035
20
9.71050294100164
30
0
41
1
10
36.3993416507265
20
9.72056667790298
30
0
41
1
10
35.4708712406017
20
9.72648826145644
30
0
41
1
10
34.5308560656165
20
9.72865311751494
30
0
41
1
10
33.52793576946
20
9.72890323154164
30
0
41
1
10
32.665160202943
20
9.72914306687065
30
0
41
1
10
31.8512247163169
20
9.72991514388454
30
0
41
1
10
31.0424028551947
20
9.7310708791484
30
0
41
1
10
30.0274185741979
20
9.73320156597489
30
0
41
1
10
28.8039392031655
20
9.73675856100454
30
0
41
1
10
27.3716403408583
20
9.74227087635521
30
0
41
1
10
26.3471295662409
20
9.74712657429924
30
0
41
1
10
25.8000000001568
20
9.74999847914393
30
0
0
SPLINE
5
FB
100
AcDbEntity
8
1
62
256
6
ByLayer
370
18
48
1
60
0
100
AcDbSpline
70
4
71
1
72
4
73
2
40
0
40
0
40
1
40
1
41
1
10
47.9611800231783
20
-2.47923496115945
30
0
41
1
10
48.3429379016526
20
-2.60423588589956
30
0
0
SPLINE
5
FC
100
AcDbEntity
8
1
62
256
6
ByLayer
370
18
48
1
60
0
100
AcDbSpline
70
4
71
3
72
21
73
17
40
0
40
0
40
0
40
0
40
0.121215958378723
40
0.226978561385052
40
0.317322244958214
40
0.392809863950888
40
0.452674800404875
40
0.497466286821443
40
0.536747716073475
40
0.574075680199221
40
0.643595581960185
40
0.719790824263118
40
0.783615728180866
40
0.852759847068007
40
0.92726564082581
40
1
40
1
40
1
40
1
41
1
10
25.8000000001568
20
-9.74999847914393
30
0
41
1
10
26.3471295662409
20
-9.74712657429924
30
0
41
1
10
27.3716400436863
20
-9.7422708388323
30
0
41
1
10
28.8039400464277
20
-9.73675866748039
30
0
41
1
10
30.0298426386644
20
-9.73319420081174
30
0
41
1
10
31.0485748685609
20
-9.73105952531478
30
0
41
1
10
31.8617028295457
20
-9.72989997330407
30
0
41
1
10
32.5113778947651
20
-9.72929724962509
30
0
41
1
10
33.0593960938123
20
-9.72901376747407
30
0
41
1
10
33.7184224033028
20
-9.728868320716
30
0
41
1
10
34.540517848363
20
-9.72863355226249
30
0
41
1
10
35.4740716823536
20
-9.72646869411776
30
0
41
1
10
36.399341358351
20
-9.7205664516718
30
0
41
1
10
37.3132096505477
20
-9.71050300855626
30
0
41
1
10
38.2551336915733
20
-9.69176200971694
30
0
41
1
10
38.907596581214
20
-9.67802667297164
30
0
41
1
10
39.2336945132652
20
-9.67474431419024
30
0
0
SPLINE
5
FD
100
AcDbEntity
8
1
62
256
6
ByLayer
370
18
48
1
60
0
100
AcDbSpline
70
4
71
3
72
8
73
4
40
0
40
0
40
0
40
0
40
1
40
1
40
1
40
1
41
1
10
42.637057594256
20
-9.72839979730705
30
0
41
1
10
42.7696808006684
20
-9.73082223028462
30
0
41
1
10
42.9004567955434
20
-9.73252728592331
30
0
41
1
10
43.0298696965872
20
-9.73393450336201
30
0
0
SPLINE
5
FE
100
AcDbEntity
8
SK1
62
256
6
ByLayer
370
18
48
1
60
0
100
AcDbSpline
70
4
71
3
72
64
73
60
40
0
40
0
40
0
40
0
40
0.0312499999999995
40
0.0312499999999995
40
0.0468749999999992
40
0.0468749999999992
40
0.062499999999999
40
0.062499999999999
40
0.0937499999999985
40
0.0937499999999985
40
0.109374999999998
40
0.109374999999998
40
0.124999999999998
40
0.124999999999998
40
0.156249999999997
40
0.156249999999997
40
0.171874999999997
40
0.171874999999997
40
0.187499999999997
40
0.187499999999997
40
0.249999999999997
40
0.249999999999997
40
0.281249999999998
40
0.281249999999998
40
0.312499999999998
40
0.312499999999998
40
0.374999999999998
40
0.374999999999998
40
0.437499999999999
40
0.437499999999999
40
0.499999999999999
40
0.499999999999999
40
0.562499999999999
40
0.562499999999999
40
0.59375
40
0.59375
40
0.625
40
0.625
40
0.6875
40
0.6875
40
0.750000000000001
40
0.750000000000001
40
0.781250000000001
40
0.781250000000001
40
0.812500000000001
40
0.812500000000001
40
0.843750000000001
40
0.843750000000001
40
0.875000000000001
40
0.875000000000001
40
0.906250000000001
40
0.906250000000001
40
0.937500000000001
40
0.937500000000001
40
0.953125
40
0.953125
40
0.96875
40
0.96875
40
1
40
1
40
1
40
1
41
1
10
-6.5
20
-6.99849805315398
30
0
41
1
10
-6.30853447478469
20
-6.99849805315398
30
0
41
1
10
-6.12188336791326
20
-6.97840315241657
30
0
41
1
10
-5.8484878773524
20
-6.92047351118779
30
0
41
1
10
-5.7584618830316
20
-6.89648863827941
30
0
41
1
10
-5.58060662552393
20
-6.83910391373092
30
0
41
1
10
-5.49372655026696
20
-6.80596321889971
30
0
41
1
10
-5.24245624040412
20
-6.69552430561717
30
0
41
1
10
-5.08569468406816
20
-6.60675869544858
30
0
41
1
10
-4.86453009282241
20
-6.45287807307128
30
0
41
1
10
-4.7933908371711
20
-6.39821944342236
30
0
41
1
10
-4.65802088121535
20
-6.28444859172765
30
0
41
1
10
-4.59342903789255
20
-6.22509096722015
30
0
41
1
10
-4.40793593165921
20
-6.04014551828448
30
0
41
1
10
-4.29527398902582
20
-5.90771355623363
30
0
41
1
10
-4.1399675405425
20
-5.69675807949747
30
0
41
1
10
-4.09037966762625
20
-5.62417904728929
30
0
41
1
10
-3.99652095930719
20
-5.47684573321774
30
0
41
1
10
-3.95211490247789
20
-5.40193398687597
30
0
41
1
10
-3.7412336395617
20
-5.02158235872483
30
0
41
1
10
-3.60755149292498
20
-4.69897386034114
30
0
41
1
10
-3.44162149851417
20
-4.19258700908645
30
0
41
1
10
-3.39208248155921
20
-4.01941859873125
30
0
41
1
10
-3.30397171494275
20
-3.67068641712225
30
0
41
1
10
-3.26523540256505
20
-3.49474424866864
30
0
41
1
10
-3.16193220772186
20
-2.96257506816934
30
0
41
1
10
-3.1100915163438
20
-2.60203245520535
30
0
41
1
10
-3.0302577304731
20
-1.87062537676033
30
0
41
1
10
-3.00231669556513
20
-1.49946628375946
30
0
41
1
10
-2.96552722929348
20
-0.748365027890884
30
0
41
1
10
-2.95691520161574
20
-0.373612626984993
30
0
41
1
10
-2.95692710084052
20
0.374371447837348
30
0
41
1
10
-2.96555770368255
20
0.747602890379881
30
0
41
1
10
-2.99282101821186
20
1.30628204449945
30
0
41
1
10
-3.00432642856524
20
1.49231292021335
30
0
41
1
10
-3.03282108116702
20
1.86396822844924
30
0
41
1
10
-3.04986759854256
20
2.05007278812627
30
0
41
1
10
-3.11014881242801
20
2.60297567152125
30
0
41
1
10
-3.16230792225497
20
2.96488095092602
30
0
41
1
10
-3.30010257152466
20
3.67399084568154
30
0
41
1
10
-3.38556266555636
20
4.02122114608875
30
0
41
1
10
-3.55180841129999
20
4.52899799146797
30
0
41
1
10
-3.6136003649205
20
4.69567554573538
30
0
41
1
10
-3.75091928997011
20
5.01874839515168
30
0
41
1
10
-3.82662406896094
20
5.17576732390657
30
0
41
1
10
-3.99536748722375
20
5.47977116054182
30
0
41
1
10
-4.08851007892491
20
5.62695060366963
30
0
41
1
10
-4.29628342788973
20
5.90899603480418
30
0
41
1
10
-4.40917987538987
20
6.0415187919846
30
0
41
1
10
-4.65647027799722
20
6.28781175241014
30
0
41
1
10
-4.79091914996496
20
6.40169909356391
30
0
41
1
10
-5.08639658439526
20
6.60720933870761
30
0
41
1
10
-5.24316311683816
20
6.69585312510191
30
0
41
1
10
-5.4937154639766
20
6.80594926188147
30
0
41
1
10
-5.57981188499843
20
6.83881764830417
30
0
41
1
10
-5.75769476381925
20
6.89627071119145
30
0
41
1
10
-5.8482117493239
20
6.92041108839561
30
0
41
1
10
-6.12211024850811
20
6.97845904737764
30
0
41
1
10
-6.30882145942078
20
6.99849805315398
30
0
41
1
10
-6.5
20
6.99849805315398
30
0
0
SPLINE
5
FF
100
AcDbEntity
8
SK1
62
256
6
ByLayer
370
18
48
1
60
0
100
AcDbSpline
70
4
71
3
72
64
73
60
40
0
40
0
40
0
40
0
40
0.03125
40
0.03125
40
0.046875
40
0.046875
40
0.0625000000000001
40
0.0625000000000001
40
0.09375
40
0.09375
40
0.109375
40
0.109375
40
0.125
40
0.125
40
0.15625
40
0.15625
40
0.171875
40
0.171875
40
0.1875
40
0.1875
40
0.25
40
0.25
40
0.28125
40
0.28125
40
0.3125
40
0.3125
40
0.375
40
0.375
40
0.4375
40
0.4375
40
0.5
40
0.5
40
0.5625
40
0.5625
40
0.59375
40
0.59375
40
0.625
40
0.625
40
0.6875
40
0.6875
40
0.75
40
0.75
40
0.78125
40
0.78125
40
0.8125
40
0.8125
40
0.84375
40
0.84375
40
0.875
40
0.875
40
0.90625
40
0.90625
40
0.9375
40
0.9375
40
0.953125
40
0.953125
40
0.96875
40
0.96875
40
1
40
1
40
1
40
1
41
1
10
-49.5
20
6.99849805315398
30
0
41
1
10
-49.6914655252153
20
6.99849805315398
30
0
41
1
10
-49.8781166320867
20
6.97840315241657
30
0
41
1
10
-50.1515121226476
20
6.92047351118782
30
0
41
1
10
-50.2415381169684
20
6.89648863827941
30
0
41
1
10
-50.4193933744761
20
6.83910391373095
30
0
41
1
10
-50.506273449733
20
6.80596321889971
30
0
41
1
10
-50.7575437595959
20
6.6955243056172
30
0
41
1
10
-50.9143053159318
20
6.60675869544858
30
0
41
1
10
-51.1354699071776
20
6.45287807307128
30
0
41
1
10
-51.2066091628289
20
6.39821944342236
30
0
41
1
10
-51.3419791187847
20
6.28444859172765
30
0
41
1
10
-51.4065709621075
20
6.22509096722015
30
0
41
1
10
-51.5920640683408
20
6.0401455182845
30
0
41
1
10
-51.7047260109742
20
5.90771355623363
30
0
41
1
10
-51.8600324594575
20
5.69675807949747
30
0
41
1
10
-51.9096203323737
20
5.62417904728929
30
0
41
1
10
-52.0034790406928
20
5.47684573321774
30
0
41
1
10
-52.0478850975221
20
5.40193398687597
30
0
41
1
10
-52.2587663604383
20
5.02158235872483
30
0
41
1
10
-52.392448507075
20
4.69897386034114
30
0
41
1
10
-52.5583785014859
20
4.19258700908645
30
0
41
1
10
-52.6079175184408
20
4.01941859873125
30
0
41
1
10
-52.6960282850573
20
3.67068641712225
30
0
41
1
10
-52.7347645974349
20
3.49474424866864
30
0
41
1
10
-52.8380677922781
20
2.96257506816934
30
0
41
1
10
-52.8899084836562
20
2.60203245520535
30
0
41
1
10
-52.9697422695269
20
1.87062537676033
30
0
41
1
10
-52.9976833044348
20
1.49946628375946
30
0
41
1
10
-53.0344727707065
20
0.748365027890884
30
0
41
1
10
-53.0430847983843
20
0.373612626984993
30
0
41
1
10
-53.0430728991595
20
-0.374371447837348
30
0
41
1
10
-53.0344422963175
20
-0.747602890379881
30
0
41
1
10
-53.0071789817881
20
-1.30628204449945
30
0
41
1
10
-52.9956735714348
20
-1.49231292021335
30
0
41
1
10
-52.967178918833
20
-1.86396822844924
30
0
41
1
10
-52.9501324014574
20
-2.05007278812627
30
0
41
1
10
-52.889851187572
20
-2.60297567152125
30
0
41
1
10
-52.837692077745
20
-2.96488095092602
30
0
41
1
10
-52.6998974284753
20
-3.67399084568154
30
0
41
1
10
-52.6144373344437
20
-4.02122114608875
30
0
41
1
10
-52.4481915887
20
-4.52899799146797
30
0
41
1
10
-52.3863996350795
20
-4.69567554573538
30
0
41
1
10
-52.2490807100299
20
-5.01874839515168
30
0
41
1
10
-52.1733759310391
20
-5.17576732390657
30
0
41
1
10
-52.0046325127763
20
-5.47977116054182
30
0
41
1
10
-51.9114899210751
20
-5.62695060366965
30
0
41
1
10
-51.7037165721103
20
-5.9089960348042
30
0
41
1
10
-51.5908201246101
20
-6.0415187919846
30
0
41
1
10
-51.3435297220028
20
-6.28781175241014
30
0
41
1
10
-51.2090808500351
20
-6.40169909356393
30
0
41
1
10
-50.9136034156048
20
-6.60720933870761
30
0
41
1
10
-50.7568368831618
20
-6.69585312510191
30
0
41
1
10
-50.5062845360234
20
-6.80594926188147
30
0
41
1
10
-50.4201881150016
20
-6.83881764830417
30
0
41
1
10
-50.2423052361807
20
-6.89627071119148
30
0
41
1
10
-50.1517882506761
20
-6.92041108839561
30
0
41
1
10
-49.8778897514919
20
-6.97845904737764
30
0
41
1
10
-49.6911785405792
20
-6.99849805315398
30
0
41
1
10
-49.5
20
-6.99849805315398
30
0
0
SPLINE
5
100
100
AcDbEntity
8
1
62
256
6
ByLayer
370
18
48
1
60
0
100
AcDbSpline
70
4
71
3
72
8
73
4
40
0
40
0
40
0
40
0
40
1
40
1
40
1
40
1
41
1
10
84.0646221630841
20
0.972734216556091
30
0
41
1
10
84.1049805088546
20
0.971170048308238
30
0
41
1
10
84.1453388300115
20
0.969732788283125
30
0
41
1
10
84.1856971288024
20
0.968422124713868
30
0
0
SPLINE
5
101
100
AcDbEntity
8
1
62
256
6
ByLayer
370
18
48
1
60
0
100
AcDbSpline
70
4
71
3
72
8
73
4
40
0
40
0
40
0
40
0
40
1
40
1
40
1
40
1
41
1
10
21.3853250693982
20
5.81091574731727
30
0
41
1
10
21.5002645486112
20
5.81062731053009
30
0
41
1
10
21.614697703084
20
5.80789483192652
30
0
41
1
10
21.7286343923763
20
5.80273697794487
30
0
0
SPLINE
5
102
100
AcDbEntity
8
1
62
256
6
ByLayer
370
18
48
1
60
0
100
AcDbSpline
70
4
71
3
72
12
73
8
40
0
40
0
40
0
40
0
40
0.500000000000003
40
0.500000000000003
40
0.750000000000001
40
0.750000000000001
40
1
40
1
40
1
40
1
41
1
10
71.5
20
5.49320603189091
30
0
41
1
10
73.5917055636762
20
4.81507508152728
30
0
41
1
10
75.6836802203118
20
4.08657531270188
30
0
41
1
10
78.8327354559943
20
2.94304036592229
30
0
41
1
10
79.8812296590871
20
2.55479859224073
30
0
41
1
10
81.9744946823193
20
1.76936603602789
30
0
41
1
10
83.0197147162143
20
1.37195185131665
30
0
41
1
10
84.0646255884664
20
0.972741495312391
30
0
0
SPLINE
5
103
100
AcDbEntity
8
1
62
256
6
ByLayer
370
18
48
1
60
0
100
AcDbSpline
70
4
71
3
72
14
73
10
40
0
40
0
40
0
40
0
40
0.25
40
0.25
40
0.5
40
0.5
40
0.75
40
0.75
40
1
40
1
40
1
40
1
41
1
10
80.5429358567658
20
-10.2977588374489
30
0
41
1
10
81.3045066959933
20
-10.365351391788
30
0
41
1
10
82.0650470925016
20
-10.4151251796013
30
0
41
1
10
83.5838458518283
20
-10.479320029476
30
0
41
1
10
84.3417423356503
20
-10.4936287893527
30
0
41
1
10
85.8591141988319
20
-10.4864398657208
30
0
41
1
10
86.6181047930054
20
-10.465098029252
30
0
41
1
10
88.1364440448811
20
-10.386653972009
30
0
41
1
10
88.8954894166585
20
-10.329294500344
30
0
41
1
10
89.656697901843
20
-10.254492374436
30
0
0
SPLINE
5
104
100
AcDbEntity
8
1
62
256
6
ByLayer
370
18
48
1
60
0
100
AcDbSpline
70
4
71
3
72
8
73
4
40
0
40
0
40
0
40
0
40
1
40
1
40
1
40
1
41
1
10
88.1666670237888
20
1.28342655206077
30
0
41
1
10
88.1451545891099
20
1.38270717834021
30
0
41
1
10
88.1252601049627
20
1.4824294579534
30
0
41
1
10
88.1064319095971
20
1.58223886069905
30
0
0
SPLINE
5
105
100
AcDbEntity
8
1
62
256
6
ByLayer
370
18
48
1
60
0
100
AcDbSpline
70
4
71
3
72
18
73
14
40
0
40
0
40
0
40
0
40
0.250000000000002
40
0.250000000000002
40
0.375000000000001
40
0.375000000000001
40
0.5
40
0.5
40
0.750000000000002
40
0.750000000000002
40
0.875000000000001
40
0.875000000000001
40
1
40
1
40
1
40
1
41
1
10
89.9425626700328
20
-4.46331555999723
30
0
41
1
10
89.7677073805176
20
-3.99296106780909
30
0
41
1
10
89.5977840025391
20
-3.52075014573612
30
0
41
1
10
89.3491542195535
20
-2.81036845275992
30
0
41
1
10
89.2674158972625
20
-2.57318473948609
30
0
41
1
10
89.1088243962156
20
-2.09714433392401
30
0
41
1
10
89.0312361571323
20
-1.85853522533338
30
0
41
1
10
88.8031296110283
20
-1.14113780933548
30
0
41
1
10
88.6596151922709
20
-0.660577177048509
30
0
41
1
10
88.4613048241247
20
0.0648143769268472
30
0
41
1
10
88.3971386301951
20
0.307131317531855
30
0
41
1
10
88.2769274306945
20
0.793944065453303
30
0
41
1
10
88.2198136329212
20
1.03815312215542
30
0
41
1
10
88.1666670237888
20
1.28342655206077
30
0
0
SPLINE
5
106
100
AcDbEntity
8
1
62
256
6
ByLayer
370
18
48
1
60
0
100
AcDbSpline
70
4
71
3
72
8
73
4
40
0
40
0
40
0
40
0
40
1
40
1
40
1
40
1
41
1
10
79.6
20
4.09999999999999
30
0
41
1
10
79.6666643071146
20
4.09999999999999
30
0
41
1
10
79.7333310239485
20
4.09999999999999
30
0
41
1
10
79.8
20
4.09999999999999
30
0
0
SPLINE
5
107
100
AcDbEntity
8
1
62
256
6
ByLayer
370
18
48
1
60
0
100
AcDbSpline
70
4
71
3
72
10
73
6
40
0
40
0
40
0
40
0
40
0.0233896140064716
40
0.0233896140064716
40
1
40
1
40
1
40
1
41
1
10
89.9425626700328
20
-4.46331555999723
30
0
41
1
10
89.9432126670548
20
-4.4626038154239
30
0
41
1
10
89.9438626652644
20
-4.46189204843031
30
0
41
1
10
89.9716527416575
20
-4.43146019801054
30
0
41
1
10
89.9987948992156
20
-4.40170107644397
30
0
41
1
10
90.025939453172
20
-4.37189563338382
30
0
0
SPLINE
5
108
100
AcDbEntity
8
1
62
256
6
ByLayer
370
18
48
1
60
0
100
AcDbSpline
70
4
71
3
72
11
73
7
40
0
40
0
40
0
40
0
40
0.0009314490413605
40
0.308407113780032
40
0.615882778518705
40
1
40
1
40
1
40
1
41
1
10
48.6412220399079
20
-0.0030641473059632
30
0
41
1
10
48.6469914634991
20
-0.0049994190449638
30
0
41
1
10
50.5572732652673
20
-0.645781295660413
30
0
41
1
10
54.3712577451722
20
-1.92823269926629
30
0
41
1
10
60.562946848934
20
-3.92416150979832
30
0
41
1
10
64.8432006789482
20
-5.17881740228205
30
0
41
1
10
67.2188443890711
20
-5.82152338422921
30
0
0
SPLINE
5
109
100
AcDbEntity
8
1
62
256
6
ByLayer
370
18
48
1
60
0
100
AcDbSpline
70
4
71
3
72
14
73
10
40
0
40
0
40
0
40
0
40
0.308031796828383
40
0.308031796828383
40
0.481023847621287
40
0.481023847621287
40
0.654015898414192
40
0.654015898414192
40
1
40
1
40
1
40
1
41
1
10
72.0715223250218
20
5.30671433962863
30
0
41
1
10
73.3296004960702
20
4.92855303960266
30
0
41
1
10
74.587636794571
20
4.53370137924921
30
0
41
1
10
76.5538014318487
20
3.89523711682736
30
0
41
1
10
77.2615330897626
20
3.66103962827461
30
0
41
1
10
78.6760140979169
20
3.1855253380659
30
0
41
1
10
79.3828142576912
20
2.94412976490835
30
0
41
1
10
81.5025505619018
20
2.2105639363767
30
0
41
1
10
82.9149911692728
20
1.70886450111763
30
0
41
1
10
84.3282619501496
20
1.20004969927791
30
0
0
SPLINE
5
10A
100
AcDbEntity
8
1
62
256
6
ByLayer
370
18
48
1
60
0
100
AcDbSpline
70
4
71
3
72
16
73
12
40
0
40
0
40
0
40
0
40
0.250000000000006
40
0.250000000000006
40
0.500000000000011
40
0.500000000000011
40
0.625000000000009
40
0.625000000000009
40
0.750000000000006
40
0.750000000000006
40
1
40
1
40
1
40
1
41
1
10
17.446083397744
20
5.97173272672106
30
0
41
1
10
17.7206050762594
20
5.94015526076893
30
0
41
1
10
18.000606442252
20
5.9162696641477
30
0
41
1
10
18.5719466101686
20
5.87928579915004
30
0
41
1
10
18.8632815940567
20
5.86620771365585
30
0
41
1
10
19.3096450970197
20
5.8512865375109
30
0
41
1
10
19.4599994268169
20
5.8470940518458
30
0
41
1
10
19.7640721261807
20
5.83964332281423
30
0
41
1
10
19.9179096492504
20
5.83638518812822
30
0
41
1
10
20.379427110832
20
5.82705024425482
30
0
41
1
10
20.6887968196792
20
5.82141824396831
30
0
41
1
10
21
20
5.81302604714955
30
0
0
SPLINE
5
10B
100
AcDbEntity
8
1
62
256
6
ByLayer
370
18
48
1
60
0
100
AcDbSpline
70
4
71
1
72
4
73
2
40
0
40
0
40
1
40
1
41
1
10
85.7094160957001
20
-3.57980724345489
30
0
41
1
10
85.7117172358602
20
-3.63843750864726
30
0
0
SPLINE
5
10C
100
AcDbEntity
8
1
62
256
6
ByLayer
370
18
48
1
60
0
100
AcDbSpline
70
4
71
1
72
4
73
2
40
0
40
0
40
1
40
1
41
1
10
86.3188583442658
20
1.49406334937785
30
0
41
1
10
86.3130100877982
20
1.50025211773263
30
0
0
SPLINE
5
10D
100
AcDbEntity
8
1
62
256
6
ByLayer
370
13
48
1
60
0
100
AcDbSpline
70
4
71
3
72
8
73
4
40
0
40
0
40
0
40
0
40
1
40
1
40
1
40
1
41
1
10
90.025939453172
20
-4.37189563338382
30
0
41
1
10
90.2118432379913
20
-3.43375148729268
30
0
41
1
10
90.3977470228106
20
-2.49560734120155
30
0
41
1
10
90.5836508076299
20
-1.55746319511041
30
0
0
SPLINE
5
10E
100
AcDbEntity
8
1
62
256
6
ByLayer
370
18
48
1
60
0
100
AcDbSpline
70
4
71
3
72
10
73
6
40
0
40
0
40
0
40
0
40
0.533079476375248
40
0.533079476375248
40
1
40
1
40
1
40
1
41
1
10
90.0304542827566
20
3.63365769234412
30
0
41
1
10
90.034277602258
20
3.63682781548977
30
0
41
1
10
90.0385890362753
20
3.63955845252946
30
0
41
1
10
90.0472267553978
20
3.64316542465687
30
0
41
1
10
90.0515718831831
20
3.64425233134827
30
0
41
1
10
90.055904445849
20
3.64463588251738
30
0
0
SPLINE
5
10F
100
AcDbEntity
8
1
62
256
6
ByLayer
370
18
48
1
60
0
100
AcDbSpline
70
4
71
3
72
26
73
22
40
0
40
0
40
0
40
0
40
0.249999999999993
40
0.249999999999993
40
0.312499999999991
40
0.312499999999991
40
0.374999999999989
40
0.374999999999989
40
0.499999999999997
40
0.499999999999997
40
0.562500000000001
40
0.562500000000001
40
0.625000000000005
40
0.625000000000005
40
0.750000000000003
40
0.750000000000003
40
0.812500000000002
40
0.812500000000002
40
0.875000000000001
40
0.875000000000001
40
1
40
1
40
1
40
1
41
1
10
91.809077207769
20
-2.41396289673059
30
0
41
1
10
91.9307241321792
20
-2.28039133446518
30
0
41
1
10
92.0515453832473
20
-2.12408060309386
30
0
41
1
10
92.2012233599378
20
-1.89155189431239
30
0
41
1
10
92.2310083721719
20
-1.84326381892331
30
0
41
1
10
92.2893308173878
20
-1.74454334484906
30
0
41
1
10
92.3179991247578
20
-1.69391112887757
30
0
41
1
10
92.4025038949824
20
-1.53814330504937
30
0
41
1
10
92.456844541372
20
-1.42914770892915
30
0
41
1
10
92.5352043890484
20
-1.25752277330398
30
0
41
1
10
92.560905877537
20
-1.19868042496066
30
0
41
1
10
92.6102802802826
20
-1.08048878018875
30
0
41
1
10
92.6340473443694
20
-1.02095670639628
30
0
41
1
10
92.7027202634741
20
-0.84111437981457
30
0
41
1
10
92.7450052190824
20
-0.719561517828708
30
0
41
1
10
92.8035579726948
20
-0.53492106329665
30
0
41
1
10
92.8222870661243
20
-0.472876676624111
30
0
41
1
10
92.8576879593589
20
-0.349752205394594
30
0
41
1
10
92.874428969901
20
-0.288465344811414
30
0
41
1
10
92.9219922013195
20
-0.105368172511675
30
0
41
1
10
92.9501645725708
20
0.0156815857474157
30
0
41
1
10
92.9752303727038
20
0.13583970344601
30
0
0
SPLINE
5
110
100
AcDbEntity
8
1
62
256
6
ByLayer
370
18
48
1
60
0
100
AcDbSpline
70
4
71
2
72
9
73
6
40
0
40
0
40
0
40
0.242058121927291
40
0.494705414618194
40
0.747352707309097
40
1
40
1
40
1
41
1
10
85.7117166664245
20
-3.63843344735193
30
0
41
1
10
85.8055443078227
20
-4.30762572034115
30
0
41
1
10
86.0663797031921
20
-5.59173224844173
30
0
41
1
10
86.399221069603
20
-6.77717943312933
30
0
41
1
10
86.7933888897925
20
-7.81906742670893
30
0
41
1
10
87.0154462437697
20
-8.25287120959254
30
0
0
SPLINE
5
111
100
AcDbEntity
8
1
62
256
6
ByLayer
370
18
48
1
60
0
100
AcDbSpline
70
4
71
3
72
8
73
4
40
0
40
0
40
0
40
0
40
1
40
1
40
1
40
1
41
1
10
80.5429358567658
20
10.4307587299418
30
0
41
1
10
80.2957146153477
20
10.3306295022282
30
0
41
1
10
80.0480801012894
20
10.2287428345431
30
0
41
1
10
79.8
20
10.1251908751171
30
0
0
SPLINE
5
112
100
AcDbEntity
8
1
62
256
6
ByLayer
370
18
48
1
60
0
100
AcDbSpline
70
4
71
3
72
8
73
4
40
0
40
0
40
0
40
0
40
1
40
1
40
1
40
1
41
1
10
70.9664945503944
20
8.83917214032874
30
0
41
1
10
70.9935821123647
20
8.83684058746545
30
0
41
1
10
71.0204806335067
20
8.83412117530744
30
0
41
1
10
71.0471883802178
20
8.83100586212132
30
0
0
SPLINE
5
113
100
AcDbEntity
8
1
62
256
6
ByLayer
370
18
48
1
60
0
100
AcDbSpline
70
4
71
3
72
24
73
20
40
0
40
0
40
0
40
0
40
0.0789626637620892
40
0.0789626637620892
40
0.21053942608179
40
0.21053942608179
40
0.342116188401491
40
0.342116188401491
40
0.473692950721192
40
0.473692950721192
40
0.539481331881043
40
0.539481331881043
40
0.605269713040894
40
0.605269713040894
40
0.736846475360596
40
0.736846475360596
40
0.868423237680298
40
0.868423237680298
40
1
40
1
40
1
40
1
41
1
10
63.4461805282989
20
-7.19687109513146
30
0
41
1
10
62.4536816033333
20
-7.42095564019766
30
0
41
1
10
61.4611542501094
20
-7.63191153445038
30
0
41
1
10
58.8138383249751
20
-8.15829901253892
30
0
41
1
10
57.1567218493397
20
-8.44970074281753
30
0
41
1
10
53.8520281622719
20
-8.95020762310097
30
0
41
1
10
52.2033265758685
20
-9.15930087529819
30
0
41
1
10
48.9078742156258
20
-9.48582719278258
30
0
41
1
10
47.261159337556
20
-9.60259839059376
30
0
41
1
10
44.7872252978312
20
-9.70444772570119
30
0
41
1
10
43.9619044889658
20
-9.72629050437195
30
0
41
1
10
42.3091745856834
20
-9.7459400669639
30
0
41
1
10
41.4814029425702
20
-9.7437240830138
30
0
41
1
10
39.0016456153272
20
-9.70220719281201
30
0
41
1
10
37.3509477123529
20
-9.62830649381408
30
0
41
1
10
34.051480667531
20
-9.3915097394129
30
0
41
1
10
32.4028331159055
20
-9.22852625807693
30
0
41
1
10
29.1041354137291
20
-8.81347045736774
30
0
41
1
10
27.4540494224387
20
-8.56121865493881
30
0
41
1
10
25.8000000000552
20
-8.26554497207201
30
0
0
SPLINE
5
114
100
AcDbEntity
8
1
62
256
6
ByLayer
370
18
48
1
60
0
100
AcDbSpline
70
4
71
3
72
10
73
6
40
0
40
0
40
0
40
0
40
0.802795792650901
40
0.802795792650901
40
1
40
1
40
1
40
1
41
1
10
69.7953239202794
20
8.13694671623844
30
0
41
1
10
69.7327833365366
20
7.53129851414309
30
0
41
1
10
69.6410056292625
20
6.95564872846856
30
0
41
1
10
69.49455720949
20
6.3028884636488
30
0
41
1
10
69.4641220673533
20
6.17728211968901
30
0
41
1
10
69.4322118178201
20
6.05505942428044
30
0
0
SPLINE
5
115
100
AcDbEntity
8
1
62
256
6
ByLayer
370
18
48
1
60
0
100
AcDbSpline
70
4
71
3
72
30
73
26
40
0
40
0
40
0
40
0
40
0.0355723106552896
40
0.0708734666680997
40
0.105903881332203
40
0.140663977600659
40
0.175154188373285
40
0.20937495679425
40
0.243326736560174
40
0.277009992239142
40
0.310425199601062
40
0.34357284595982
40
0.376453430527684
40
0.409067464782452
40
0.441415472847836
40
0.473497991887598
40
0.505315572514004
40
0.569444777388349
40
0.632908263314559
40
0.695711020687684
40
0.757858199094507
40
0.819355112834137
40
0.880207246594283
40
0.940420261281172
40
1
40
1
40
1
40
1
41
1
10
85.590983264021
20
-3.64896162088394
30
0
41
1
10
85.5696552802364
20
-3.59777300078201
30
0
41
1
10
85.5271618880441
20
-3.49578595260471
30
0
41
1
10
85.4643639500166
20
-3.34200048255789
30
0
41
1
10
85.4025674160127
20
-3.1884349842573
30
0
41
1
10
85.3418212491978
20
-3.03504187378508
30
0
41
1
10
85.2821124801165
20
-2.88190072180183
30
0
41
1
10
85.2234445427793
20
-2.72905569163157
30
0
41
1
10
85.1658165269179
20
-2.57655859843601
30
0
41
1
10
85.1092286725462
20
-2.42445751016865
30
0
41
1
10
85.053680915694
20
-2.27279977313682
30
0
41
1
10
84.9991732705749
20
-2.12163121509977
30
0
41
1
10
84.9457057391668
20
-1.97099637571424
30
0
41
1
10
84.8932782954425
20
-1.82093841428215
30
0
41
1
10
84.8418910359455
20
-1.67149929486058
30
0
41
1
10
84.7915436002348
20
-1.52271919527141
30
0
41
1
10
84.7254102224115
20
-1.32410228565689
30
0
41
1
10
84.6446646450904
20
-1.07553353377446
30
0
41
1
10
84.5508520937576
20
-0.776902986556024
30
0
41
1
10
84.4606768986475
20
-0.479906673453712
30
0
41
1
10
84.3741446991585
20
-0.184808949411917
30
0
41
1
10
84.2912352914485
20
0.108139744390598
30
0
41
1
10
84.2120228032846
20
0.398698298466741
30
0
41
1
10
84.1362349995148
20
0.686641899169189
30
0
41
1
10
84.0884084075365
20
0.877710226459442
30
0
41
1
10
84.0646215275052
20
0.97273935546562
30
0
0
SPLINE
5
116
100
AcDbEntity
8
1
62
256
6
ByLayer
370
18
48
1
60
0
100
AcDbSpline
70
4
71
1
72
4
73
2
40
0
40
0
40
1
40
1
41
1
10
87.0155158109873
20
-8.252839630533
30
0
41
1
10
86.879825871178
20
-8.31443333169742
30
0
0
SPLINE
5
117
100
AcDbEntity
8
1
62
256
6
ByLayer
370
18
48
1
60
0
100
AcDbSpline
70
4
71
3
72
8
73
4
40
0
40
0
40
0
40
0
40
1
40
1
40
1
40
1
41
1
10
79.6
20
2.8368281737171
30
0
41
1
10
79.6
20
2.9534858201128
30
0
41
1
10
79.6
20
3.07995611104138
30
0
41
1
10
79.6
20
3.21617717371711
30
0
0
SPLINE
5
118
100
AcDbEntity
8
1
62
256
6
ByLayer
370
18
48
1
60
0
100
AcDbSpline
70
4
71
3
72
14
73
10
40
0
40
0
40
0
40
0
40
0.220475496292053
40
0.220475496292053
40
0.480316997528035
40
0.480316997528035
40
0.740158498764018
40
0.740158498764018
40
1
40
1
40
1
40
1
41
1
10
80.9870737648354
20
2.38363922664891
30
0
41
1
10
81.5089617696815
20
2.31696968949518
30
0
41
1
10
82.0310834130365
20
2.25154527768751
30
0
41
1
10
83.1690934205423
20
2.11190151286013
30
0
41
1
10
83.7852890482677
20
2.03931965387596
30
0
41
1
10
85.0194446542539
20
1.90355865629331
30
0
41
1
10
85.6367206469931
20
1.83791965842366
30
0
41
1
10
86.8713890857899
20
1.70796086735243
30
0
41
1
10
87.4887872261299
20
1.64370484278967
30
0
41
1
10
88.1064319095972
20
1.58223886069862
30
0
0
SPLINE
5
119
100
AcDbEntity
8
1
62
256
6
ByLayer
370
18
48
1
60
0
100
AcDbSpline
70
4
71
3
72
8
73
4
40
0
40
0
40
0
40
0
40
1
40
1
40
1
40
1
41
1
10
23.1
20
-8.30984948952442
30
0
41
1
10
22.4008652067558
20
-8.08984400569227
30
0
41
1
10
21.7010225837714
20
-7.8632290004557
30
0
41
1
10
21
20
-7.63108079748613
30
0
0
SPLINE
5
11A
100
AcDbEntity
8
1
62
256
6
ByLayer
370
18
48
1
60
0
100
AcDbSpline
70
4
71
3
72
14
73
10
40
0
40
0
40
0
40
0
40
0.065116279306847
40
0.065116279306847
40
0.447246484322423
40
0.447246484322423
40
0.829376694066607
40
0.829376694066607
40
1
40
1
40
1
40
1
41
1
10
70.9664945503944
20
8.83917214032877
30
0
41
1
10
70.9666225640208
20
8.84274112423685
30
0
41
1
10
70.9667514761177
20
8.84630995183858
30
0
41
1
10
70.9676430809699
20
8.87082111416095
30
0
41
1
10
70.968435870038
20
8.89175827413746
30
0
41
1
10
70.9700840519927
20
8.93362239925852
30
0
41
1
10
70.9709394458187
20
8.95454938745692
30
0
41
1
10
70.9722224844146
20
8.98481339120832
30
0
41
1
10
70.9726248308895
20
8.9941542872964
30
0
41
1
10
70.9730335025054
20
9.00349424184697
30
0
0
SPLINE
5
11B
100
AcDbEntity
8
1
62
256
6
ByLayer
370
18
48
1
60
0
100
AcDbSpline
70
4
71
3
72
8
73
4
40
0
40
0
40
0
40
0
40
1
40
1
40
1
40
1
41
1
10
80.5429358567658
20
-10.4307587299418
30
0
41
1
10
80.2957146153478
20
-10.3306295022282
30
0
41
1
10
80.0480801012895
20
-10.2287428345431
30
0
41
1
10
79.8000000000001
20
-10.1251908751171
30
0
0
SPLINE
5
11C
100
AcDbEntity
8
1
62
256
6
ByLayer
370
18
48
1
60
0
100
AcDbSpline
70
4
71
2
72
9
73
6
40
0
40
0
40
0
40
0.25
40
0.5
40
0.75
40
1
40
1
40
1
41
1
10
84.1856964624458
20
0.968428741116924
30
0
41
1
10
84.3305159583081
20
0.392290105255824
30
0
41
1
10
84.6703928577455
20
-0.767436671822225
30
0
41
1
10
85.0546623770276
20
-1.91452054506866
30
0
41
1
10
85.479944206944
20
-3.0388254475879
30
0
41
1
10
85.7094152429422
20
-3.57979864186012
30
0
0
SPLINE
5
11D
100
AcDbEntity
8
1
62
256
6
ByLayer
370
18
48
1
60
0
100
AcDbSpline
70
4
71
3
72
66
73
62
40
0
40
0
40
0
40
0
40
0.0625000000000018
40
0.0625000000000018
40
0.125000000000003
40
0.125000000000003
40
0.187500000000005
40
0.187500000000005
40
0.218750000000006
40
0.218750000000006
40
0.250000000000007
40
0.250000000000007
40
0.281250000000008
40
0.281250000000008
40
0.312500000000009
40
0.312500000000009
40
0.34375000000001
40
0.34375000000001
40
0.35937500000001
40
0.35937500000001
40
0.37500000000001
40
0.37500000000001
40
0.406250000000011
40
0.406250000000011
40
0.414062500000011
40
0.414062500000011
40
0.421875000000011
40
0.421875000000011
40
0.437500000000011
40
0.437500000000011
40
0.453125000000011
40
0.453125000000011
40
0.468750000000011
40
0.468750000000011
40
0.484375000000011
40
0.484375000000011
40
0.500000000000011
40
0.500000000000011
40
0.531250000000011
40
0.531250000000011
40
0.562500000000011
40
0.562500000000011
40
0.578125000000011
40
0.578125000000011
40
0.59375000000001
40
0.59375000000001
40
0.62500000000001
40
0.62500000000001
40
0.656250000000009
40
0.656250000000009
40
0.687500000000008
40
0.687500000000008
40
0.750000000000006
40
0.750000000000006
40
0.812500000000005
40
0.812500000000005
40
0.875000000000003
40
0.875000000000003
40
0.937500000000002
40
0.937500000000002
40
1
40
1
40
1
40
1
41
1
10
17.3564925946583
20
5.98194651454483
30
0
41
1
10
16.7769024988196
20
6.04742899494733
30
0
41
1
10
16.2127225441629
20
6.11864704934737
30
0
41
1
10
15.0991823807472
20
6.26309899586391
30
0
41
1
10
14.5498007329498
20
6.33637592729792
30
0
41
1
10
13.4528232434409
20
6.46621654266889
30
0
41
1
10
12.9053542811093
20
6.52299139470171
30
0
41
1
10
12.0761130849064
20
6.57229431088649
30
0
41
1
10
11.7983636812239
20
6.582639886621
30
0
41
1
10
11.2386605320031
20
6.58511064671313
30
0
41
1
10
10.957515148761
20
6.5772060286082
30
0
41
1
10
10.3950067799937
20
6.53563878539353
30
0
41
1
10
10.1132759360854
20
6.50202508120555
30
0
41
1
10
9.54975208087723
20
6.3989910424358
30
0
41
1
10
9.26792995944595
20
6.32967890338395
30
0
41
1
10
8.70649538291366
20
6.14045333640283
30
0
41
1
10
8.43321068601773
20
6.02250547843096
30
0
41
1
10
8.04086928337512
20
5.80157567831444
30
0
41
1
10
7.91299172494161
20
5.72055446576354
30
0
41
1
10
7.66435733196161
20
5.54162617433801
30
0
41
1
10
7.54499400619414
20
5.44460545410155
30
0
41
1
10
7.20790926445665
20
5.133573132078
30
0
41
1
10
7.00898931676161
20
4.89843539057571
30
0
41
1
10
6.79952211718023
20
4.56515160157204
30
0
41
1
10
6.75948088957051
20
4.49623715723806
30
0
41
1
10
6.68481313921487
20
4.35660383202242
30
0
41
1
10
6.65004258447237
20
4.28569447787612
30
0
41
1
10
6.55333872805733
20
4.06976496026593
30
0
41
1
10
6.49899311739978
20
3.92155421357745
30
0
41
1
10
6.41058384258187
20
3.6167648920995
30
0
41
1
10
6.37647068773077
20
3.45986522239258
30
0
41
1
10
6.32943187096478
20
3.13881942497443
30
0
41
1
10
6.31691953448288
20
2.97784505388196
30
0
41
1
10
6.31238960601377
20
2.65504861741314
30
0
41
1
10
6.32037945462287
20
2.49322604673119
30
0
41
1
10
6.35613339913141
20
2.1687038662966
30
0
41
1
10
6.38410586098649
20
2.00567329702108
30
0
41
1
10
6.4940422630882
20
1.52690065172013
30
0
41
1
10
6.60207049854898
20
1.21728174915003
30
0
41
1
10
6.87762694081388
20
0.614440409978272
30
0
41
1
10
7.04070743182842
20
0.330769869662078
30
0
41
1
10
7.31415438916889
20
-0.0739997920870792
30
0
41
1
10
7.41015974593285
20
-0.20543145898506
30
0
41
1
10
7.61080117095054
20
-0.461995042709361
30
0
41
1
10
7.71589534462476
20
-0.587620176787965
30
0
41
1
10
8.03872747049053
20
-0.951486711414447
30
0
41
1
10
8.26374008133132
20
-1.17697877141043
30
0
41
1
10
8.72639355876686
20
-1.60224740584926
30
0
41
1
10
8.96407432768393
20
-1.80197401587634
30
0
41
1
10
9.44748670858263
20
-2.18160745917274
30
0
41
1
10
9.6938319724153
20
-2.36181971163515
30
0
41
1
10
10.4263062302976
20
-2.87034502639446
30
0
41
1
10
10.9104740919986
20
-3.17128023574099
30
0
41
1
10
11.8666209215544
20
-3.73216574529576
30
0
41
1
10
12.3388210198223
20
-3.99169058357984
30
0
41
1
10
13.2731823029797
20
-4.48754600305085
30
0
41
1
10
13.735919259082
20
-4.72394782240531
30
0
41
1
10
14.6515607684499
20
-5.18228407375528
30
0
41
1
10
15.1046275395243
20
-5.40422939928087
30
0
41
1
10
16.0049903293769
20
-5.84022721748795
30
0
41
1
10
16.4522927326135
20
-6.05423883949197
30
0
41
1
10
16.8976924524366
20
-6.26580234103128
30
0
0
SPLINE
5
11E
100
AcDbEntity
8
1
62
256
6
ByLayer
370
18
48
1
60
0
100
AcDbSpline
70
4
71
3
72
31
73
27
40
0
40
0
40
0
40
0
40
0.125000000000002
40
0.125000000000002
40
0.187500000000004
40
0.187500000000004
40
0.250000000000005
40
0.250000000000005
40
0.312500000000006
40
0.312500000000006
40
0.375000000000007
40
0.375000000000007
40
0.50000000000001
40
0.50000000000001
40
0.562500000000005
40
0.562500000000005
40
0.625
40
0.687499999999995
40
0.687499999999995
40
0.74999999999999
40
0.74999999999999
40
0.874999999999995
40
0.874999999999995
40
0.937499999999997
40
0.937499999999997
40
1
40
1
40
1
40
1
41
1
10
71.5
20
-3.63056598770305
30
0
41
1
10
71.5
20
-3.84496176217377
30
0
41
1
10
71.4743874800247
20
-4.05236894317443
30
0
41
1
10
71.3983323173265
20
-4.35361742549881
30
0
41
1
10
71.3664907055488
20
-4.4527720232316
30
0
41
1
10
71.2902438301434
20
-4.64601287470791
30
0
41
1
10
71.2463148820664
20
-4.73905265189708
30
0
41
1
10
71.1472217843434
20
-4.91841887187809
30
0
41
1
10
71.0920566618142
20
-5.00474419473255
30
0
41
1
10
70.9704188419113
20
-5.17089379572752
30
0
41
1
10
70.9035027711537
20
-5.25116696580847
30
0
41
1
10
70.6884487463043
20
-5.47871453026727
30
0
41
1
10
70.5275103122921
20
-5.61203509453279
30
0
41
1
10
70.2600710699278
20
-5.7868378974697
30
0
41
1
10
70.1659059880944
20
-5.84115938675245
30
0
41
1
10
69.972212940505
20
-5.9393421100217
30
0
41
1
10
69.773185744751
20
-6.02727676182215
30
0
41
1
10
69.5636781558489
20
-6.09570028389484
30
0
41
1
10
69.3488207610493
20
-6.1544284995403
30
0
41
1
10
69.2379727951014
20
-6.17904622953529
30
0
41
1
10
68.9041049420974
20
-6.236711439799
30
0
41
1
10
68.6793077328644
20
-6.25428394841416
30
0
41
1
10
68.3387973179219
20
-6.24992241060005
30
0
41
1
10
68.2241919679569
20
-6.24321052304453
30
0
41
1
10
67.9975620725457
20
-6.21929595782922
30
0
41
1
10
67.8853467752361
20
-6.20214722046231
30
0
41
1
10
67.774234313201
20
-6.1797170401272
30
0
0
SPLINE
5
11F
100
AcDbEntity
8
1
62
256
6
ByLayer
370
18
48
1
60
0
100
AcDbSpline
70
4
71
3
72
10
73
6
40
0
40
0
40
0
40
0
40
0.0831201760206265
40
0.535788690165628
40
1
40
1
40
1
40
1
41
1
10
79.8177804809908
20
-9.65090840111279
30
0
41
1
10
79.8167979469827
20
-9.65258628738533
30
0
41
1
10
79.8107067774142
20
-9.66339613960639
30
0
41
1
10
79.8022120253193
20
-9.68347444156746
30
0
41
1
10
79.8007435042813
20
-9.70130132719422
30
0
41
1
10
79.8000000000001
20
-9.71032698324058
30
0
0
SPLINE
5
120
100
AcDbEntity
8
1
62
256
6
ByLayer
370
18
48
1
60
0
100
AcDbSpline
70
4
71
3
72
8
73
4
40
0
40
0
40
0
40
0
40
1
40
1
40
1
40
1
41
1
10
79.8
20
10.1251908751171
30
0
41
1
10
79.8
20
9.37487383401944
30
0
41
1
10
79.8
20
8.62455768357444
30
0
41
1
10
79.8
20
7.87424252217005
30
0
0
SPLINE
5
121
100
AcDbEntity
8
1
62
256
6
ByLayer
370
18
48
1
60
0
100
AcDbSpline
70
4
71
3
72
8
73
4
40
0
40
0
40
0
40
0
40
1
40
1
40
1
40
1
41
1
10
67.2188443911726
20
-5.82152338465974
30
0
41
1
10
67.4039848664152
20
-5.85945344646137
30
0
41
1
10
67.5891153300832
20
-5.8972449360505
30
0
41
1
10
67.774234313201
20
-5.93489621668479
30
0
0
SPLINE
5
122
100
AcDbEntity
8
1
62
256
6
ByLayer
370
18
48
1
60
0
100
AcDbSpline
70
4
71
3
72
12
73
8
40
0
40
0
40
0
40
0
40
0.0804104082247367
40
0.0804104082247367
40
0.540205204112368
40
0.540205204112368
40
1
40
1
40
1
40
1
41
1
10
84.7024440557815
20
10.4902781092402
30
0
41
1
10
84.8350894889827
20
10.4907439950275
30
0
41
1
10
84.967746805817
20
10.490662938701
30
0
41
1
10
85.8591141988319
20
10.4864398657208
30
0
41
1
10
86.6181047930054
20
10.465098029252
30
0
41
1
10
88.1364440448811
20
10.386653972009
30
0
41
1
10
88.8954894166585
20
10.329294500344
30
0
41
1
10
89.656697901843
20
10.254492374436
30
0
0
SPLINE
5
123
100
AcDbEntity
8
1
62
256
6
ByLayer
370
13
48
1
60
0
100
AcDbSpline
70
4
71
3
72
10
73
6
40
0
40
0
40
0
40
0
40
0.0193209112356514
40
0.0193209112356514
40
1
40
1
40
1
40
1
41
1
10
90.0331007526851
20
3.62165989125688
30
0
41
1
10
90.0331050244922
20
3.62164052317766
30
0
41
1
10
90.0331092966771
20
3.62162115517572
30
0
41
1
10
90.0333303746843
20
3.6206187098162
30
0
41
1
10
90.0335462061331
20
3.61963543067455
30
0
41
1
10
90.0337610620923
20
3.61865195250746
30
0
0
SPLINE
5
124
100
AcDbEntity
8
1
62
256
6
ByLayer
370
18
48
1
60
0
100
AcDbSpline
70
4
71
3
72
24
73
20
40
0
40
0
40
0
40
0
40
0.249999999999988
40
0.249999999999988
40
0.312499999999985
40
0.312499999999985
40
0.374999999999982
40
0.374999999999982
40
0.499999999999983
40
0.499999999999983
40
0.562499999999983
40
0.562499999999983
40
0.624999999999984
40
0.624999999999984
40
0.749999999999989
40
0.749999999999989
40
0.874999999999995
40
0.874999999999995
40
1
40
1
40
1
40
1
41
1
10
27.8481812987756
20
6.81486486744944
30
0
41
1
10
27.5418492155676
20
6.92376194821102
30
0
41
1
10
27.2632554666632
20
7.06018855728962
30
0
41
1
10
26.9481328596889
20
7.25812249582413
30
0
41
1
10
26.8865852349597
20
7.29925956611785
30
0
41
1
10
26.768030810865
20
7.38348312014131
30
0
41
1
10
26.7111925124543
20
7.42642758877176
30
0
41
1
10
26.5478095168858
20
7.55745672654325
30
0
41
1
10
26.4483604201679
20
7.64772408692255
30
0
41
1
10
26.3133453920357
20
7.7865727538657
30
0
41
1
10
26.2707092513734
20
7.83343375784119
30
0
41
1
10
26.190280067141
20
7.92819547193403
30
0
41
1
10
26.1523642834495
20
7.9762836761571
30
0
41
1
10
26.0477030501573
20
8.11974115230612
30
0
41
1
10
25.9895318598076
20
8.21473976832664
30
0
41
1
10
25.8957261773294
20
8.40258939265561
30
0
41
1
10
25.8600914077167
20
8.49544354087067
30
0
41
1
10
25.8120635864989
20
8.67830828820618
30
0
41
1
10
25.8000000106063
20
8.76742878703661
30
0
41
1
10
25.8000000105814
20
8.85296775653569
30
0
0
SPLINE
5
125
100
AcDbEntity
8
1
62
256
6
ByLayer
370
18
48
1
60
0
100
AcDbSpline
70
4
71
3
72
16
73
12
40
0
40
0
40
0
40
0
40
0.250000000000003
40
0.250000000000003
40
0.500000000000007
40
0.500000000000007
40
0.625000000000009
40
0.625000000000009
40
0.750000000000011
40
0.750000000000011
40
1
40
1
40
1
40
1
41
1
10
90.0089555599152
20
3.61576119889202
30
0
41
1
10
89.8108724063308
20
3.45022098246216
30
0
41
1
10
89.6207137973995
20
3.28226712176681
30
0
41
1
10
89.2585963616238
20
2.94077434281968
30
0
41
1
10
89.0862796176506
20
2.76755620983309
30
0
41
1
10
88.8413448258309
20
2.50509184785491
30
0
41
1
10
88.7621861744673
20
2.41725056629849
30
0
41
1
10
88.6118528946471
20
2.24439528095223
30
0
41
1
10
88.5402357838636
20
2.15895280637173
30
0
41
1
10
88.3358968354988
20
1.90595458828125
30
0
41
1
10
88.2135236586823
20
1.74172086311765
30
0
41
1
10
88.1064319095972
20
1.58223886069868
30
0
0
SPLINE
5
126
100
AcDbEntity
8
1
62
256
6
ByLayer
370
18
48
1
60
0
100
AcDbSpline
70
4
71
3
72
31
73
27
40
0
40
0
40
0
40
0
40
0.0624999999999984
40
0.0624999999999984
40
0.124999999999997
40
0.124999999999997
40
0.250000000000001
40
0.250000000000001
40
0.312500000000003
40
0.312500000000003
40
0.375000000000006
40
0.437500000000008
40
0.437500000000008
40
0.50000000000001
40
0.50000000000001
40
0.625000000000015
40
0.625000000000015
40
0.687500000000012
40
0.687500000000012
40
0.75000000000001
40
0.75000000000001
40
0.812500000000007
40
0.812500000000007
40
0.875000000000005
40
0.875000000000005
40
1
40
1
40
1
40
1
41
1
10
67.774234313201
20
-5.93489621668479
30
0
41
1
10
67.8853951898889
20
-5.95750518575562
30
0
41
1
10
67.997640976305
20
-5.97485452548753
30
0
41
1
10
68.2242934218133
20
-5.99923409170881
30
0
41
1
10
68.3390052163783
20
-6.00621998921616
30
0
41
1
10
68.6797812168297
20
-6.01146522164248
30
0
41
1
10
68.9045739309906
20
-5.99458160192867
30
0
41
1
10
69.2381838110344
20
-5.93823129705862
30
0
41
1
10
69.3490717711098
20
-5.91406698142842
30
0
41
1
10
69.563983222647
20
-5.85626843579897
30
0
41
1
10
69.7734563553808
20
-5.788828876265
30
0
41
1
10
69.9723107709609
20
-5.7019999703007
30
0
41
1
10
70.1657783696938
20
-5.60498834527877
30
0
41
1
10
70.2599558349908
20
-5.55120414728495
30
0
41
1
10
70.5274207454154
20
-5.3779480256978
30
0
41
1
10
70.6882971073464
20
-5.24565289955714
30
0
41
1
10
70.9032339906361
20
-5.01955661235795
30
0
41
1
10
70.9702146978732
20
-4.93962539271544
30
0
41
1
10
71.0919185704249
20
-4.77410066257627
30
0
41
1
10
71.1471069639218
20
-4.68804456397362
30
0
41
1
10
71.2462347540709
20
-4.50911668178424
30
0
41
1
10
71.2901750799023
20
-4.41624604741489
30
0
41
1
10
71.3664386557103
20
-4.22322775789638
30
0
41
1
10
71.3983183270311
20
-4.12402197785022
30
0
41
1
10
71.4744050445694
20
-3.82258869173961
30
0
41
1
10
71.5
20
-3.61485055158303
30
0
41
1
10
71.5
20
-3.39991051931798
30
0
0
SPLINE
5
127
100
AcDbEntity
8
1
62
256
6
ByLayer
370
18
48
1
60
0
100
AcDbSpline
70
4
71
3
72
18
73
14
40
0
40
0
40
0
40
0
40
0.217344269734306
40
0.217344269734306
40
0.434688539468612
40
0.434688539468612
40
0.652032809202917
40
0.652032809202917
40
0.869377078937223
40
0.869377078937223
40
0.978049213804376
40
0.978049213804376
40
1
40
1
40
1
40
1
41
1
10
65.4301909997971
20
6.73157127529359
30
0
41
1
10
63.7762017310663
20
7.13381992716205
30
0
41
1
10
62.1227222214405
20
7.50036656367195
30
0
41
1
10
58.8138383249751
20
8.15829901253892
30
0
41
1
10
57.1567218493397
20
8.4497007428175
30
0
41
1
10
53.8520281622719
20
8.95020762310097
30
0
41
1
10
52.2033265758684
20
9.15930087529819
30
0
41
1
10
48.9078742156258
20
9.48582719278261
30
0
41
1
10
47.261159337556
20
9.60259839059376
30
0
41
1
10
44.7872252978312
20
9.70444772570119
30
0
41
1
10
43.9619044889659
20
9.72629050437195
30
0
41
1
10
42.9686213075944
20
9.73809980243396
30
0
41
1
10
42.8016456843765
20
9.73959305190743
30
0
41
1
10
42.6346340337222
20
9.7405984771857
30
0
0
SPLINE
5
128
100
AcDbEntity
8
1
62
256
6
ByLayer
370
18
48
1
60
0
100
AcDbSpline
70
4
71
3
72
12
73
8
40
0
40
0
40
0
40
0
40
0.5
40
0.5
40
0.75
40
0.75
40
1
40
1
40
1
40
1
41
1
10
91.8902452908816
20
3.91210245513148
30
0
41
1
10
91.6804851250417
20
4.491128799244
30
0
41
1
10
91.4743288566179
20
5.07376157552332
30
0
41
1
10
91.1708477978852
20
5.95346813037912
30
0
41
1
10
91.070529147697
20
6.24804831382968
30
0
41
1
10
90.8725589955862
20
6.83775747997291
30
0
41
1
10
90.7756936534028
20
7.13053413755824
30
0
41
1
10
90.6811308664283
20
7.42105365418053
30
0
0
SPLINE
5
129
100
AcDbEntity
8
1
62
256
6
ByLayer
370
18
48
1
60
0
100
AcDbSpline
70
4
71
3
72
8
73
4
40
0
40
0
40
0
40
0
40
1
40
1
40
1
40
1
41
1
10
79.7051417814328
20
9.43813200596421
30
0
41
1
10
79.7046095785656
20
9.65801426620936
30
0
41
1
10
79.7040742540609
20
9.87730204629077
30
0
41
1
10
79.7035358742098
20
10.0959853803835
30
0
0
SPLINE
5
12A
100
AcDbEntity
8
1
62
256
6
ByLayer
370
18
48
1
60
0
100
AcDbSpline
70
4
71
3
72
12
73
8
40
0
40
0
40
0
40
0
40
0.510513654823316
40
0.510513654823316
40
0.765770482234981
40
0.765770482234981
40
1
40
1
40
1
40
1
41
1
10
79.9454215376824
20
-10.0269264683537
30
0
41
1
10
80.7635078623097
20
-10.1056796606866
30
0
41
1
10
81.5806826227018
20
-10.1641252173993
30
0
41
1
10
82.8047311220098
20
-10.2219575814
30
0
41
1
10
83.2124642605386
20
-10.2362433192244
30
0
41
1
10
83.9938945308402
20
-10.2539985315102
30
0
41
1
10
84.3675632181397
20
-10.2582490272202
30
0
41
1
10
84.7414720203151
20
-10.258249616377
30
0
0
SPLINE
5
12B
100
AcDbEntity
8
1
62
256
6
ByLayer
370
18
48
1
60
0
100
AcDbSpline
70
4
71
3
72
8
73
4
40
0
40
0
40
0
40
0
40
1
40
1
40
1
40
1
41
1
10
80.6596194077712
20
-9.56982134076807
30
0
41
1
10
80.6748263676627
20
-9.56395039217378
30
0
41
1
10
80.6908108987757
20
-9.55831984757884
30
0
41
1
10
80.7075459688716
20
-9.55296022510822
30
0
0
SPLINE
5
12C
100
AcDbEntity
8
1
62
256
6
ByLayer
370
18
48
1
60
0
100
AcDbSpline
70
4
71
3
72
28
73
24
40
0
40
0
40
0
40
0
40
0.125
40
0.125
40
0.187499999999999
40
0.187499999999999
40
0.249999999999999
40
0.249999999999999
40
0.374999999999998
40
0.374999999999998
40
0.437499999999998
40
0.437499999999998
40
0.499999999999998
40
0.499999999999998
40
0.624999999999998
40
0.624999999999998
40
0.687499999999998
40
0.687499999999998
40
0.749999999999999
40
0.749999999999999
40
0.874999999999999
40
0.874999999999999
40
1
40
1
40
1
40
1
41
1
10
69.6174885417888
20
-8.57441294484315
30
0
41
1
10
67.6936415816049
20
-8.20428642446325
30
0
41
1
10
65.7743321943717
20
-7.77541291070364
30
0
41
1
10
62.894474799373
20
-7.05482686125814
30
0
41
1
10
61.9337060960935
20
-6.80177393576776
30
0
41
1
10
60.0144394145161
20
-6.27628321313088
30
0
41
1
10
59.0555827836753
20
-6.00364308653437
30
0
41
1
10
56.1800536454129
20
-5.15945812356102
30
0
41
1
10
54.2643470976931
20
-4.56181945516218
30
0
41
1
10
51.3874600478796
20
-3.62714172226495
30
0
41
1
10
50.4279673996411
20
-3.30915680897053
30
0
41
1
10
48.5073687713195
20
-2.66170896858023
30
0
41
1
10
47.5454651195724
20
-2.33208047584696
30
0
41
1
10
44.6632540727297
20
-1.3346139281384
30
0
41
1
10
42.74532238244
20
-0.657489528639303
30
0
41
1
10
39.8668295650192
20
0.356703859793811
30
0
41
1
10
38.9070657579243
20
0.694516747237458
30
0
41
1
10
36.9862646328404
20
1.3675192345022
30
0
41
1
10
36.0245520295434
20
1.70294274596037
30
0
41
1
10
33.1414794913176
20
2.6999381943491
30
0
41
1
10
31.2239268676971
20
3.35141870165452
30
0
41
1
10
27.3897384232243
20
4.60552968327949
30
0
41
1
10
25.4730885272208
20
5.20817806772598
30
0
41
1
10
23.5534566085468
20
5.77690563654997
30
0
0
SPLINE
5
12D
100
AcDbEntity
8
1
62
256
6
ByLayer
370
18
48
1
60
0
100
AcDbSpline
70
4
71
3
72
14
73
10
40
0
40
0
40
0
40
0
40
0.25
40
0.25
40
0.5
40
0.5
40
0.75
40
0.75
40
1
40
1
40
1
40
1
41
1
10
21.7286343923763
20
5.80273697794487
30
0
41
1
10
21.8564834202329
20
5.76766597962865
30
0
41
1
10
21.9879445457382
20
5.72984257975793
30
0
41
1
10
22.260005187424
20
5.64921531101388
30
0
41
1
10
22.3986397386141
20
5.60699261049319
30
0
41
1
10
22.6792414060385
20
5.52103993607156
30
0
41
1
10
22.8222502218128
20
5.4769990064525
30
0
41
1
10
23.1117065798892
20
5.38941785938701
30
0
41
1
10
23.2553713297857
20
5.3467558055591
30
0
41
1
10
23.398015026909
20
5.3059457620447
30
0
0
SPLINE
5
12E
100
AcDbEntity
8
1
62
256
6
ByLayer
370
18
48
1
60
0
100
AcDbSpline
70
4
71
3
72
8
73
4
40
0
40
0
40
0
40
0
40
1
40
1
40
1
40
1
41
1
10
90.6811308664283
20
-7.42105365418053
30
0
41
1
10
90.4055822591556
20
-8.26760493245928
30
0
41
1
10
90.1253981531166
20
-9.11916039445549
30
0
41
1
10
89.8404156153231
20
-9.97589593205214
30
0
0
SPLINE
5
12F
100
AcDbEntity
8
1
62
256
6
ByLayer
370
18
48
1
60
0
100
AcDbSpline
70
4
71
3
72
12
73
8
40
0
40
0
40
0
40
0
40
0.250000000000002
40
0.250000000000002
40
0.500000000000005
40
0.500000000000005
40
1
40
1
40
1
40
1
41
1
10
79.7051417860329
20
9.43813200597182
30
0
41
1
10
79.0401757248171
20
9.40878913120838
30
0
41
1
10
78.3751337026468
20
9.37109002837917
30
0
41
1
10
77.0466174899377
20
9.27804455590123
30
0
41
1
10
76.3828953007618
20
9.2226867322745
30
0
41
1
10
74.3926715164592
20
9.02886340865942
30
0
41
1
10
73.067115051804
20
8.86219312050343
30
0
41
1
10
71.7404110749573
20
8.66051229125003
30
0
0
SPLINE
5
130
100
AcDbEntity
8
1
62
256
6
ByLayer
370
18
48
1
60
0
100
AcDbSpline
70
4
71
3
72
8
73
4
40
0
40
0
40
0
40
0
40
1
40
1
40
1
40
1
41
1
10
17.3564925946583
20
-6.81413378119603
30
0
41
1
10
17.3837906128561
20
-6.85756776352775
30
0
41
1
10
17.4135910231247
20
-6.89860569433694
30
0
41
1
10
17.446083397744
20
-6.93716832564658
30
0
0
SPLINE
5
131
100
AcDbEntity
8
1
62
256
6
ByLayer
370
18
48
1
60
0
100
AcDbSpline
70
4
71
3
72
8
73
4
40
0
40
0
40
0
40
0
40
1
40
1
40
1
40
1
41
1
10
71.5
20
5.48047317929033
30
0
41
1
10
70.1183270674369
20
5.89779163650598
30
0
41
1
10
68.7376623448244
20
6.29218267548657
30
0
41
1
10
67.355974088693
20
6.65993777387467
30
0
0
SPLINE
5
132
100
AcDbEntity
8
1
62
256
6
ByLayer
370
18
48
1
60
0
100
AcDbSpline
70
4
71
3
72
8
73
4
40
0
40
0
40
0
40
0
40
1
40
1
40
1
40
1
41
1
10
25.8000000000552
20
-8.26554188350607
30
0
41
1
10
25.800000000059
20
-8.45503887746375
30
0
41
1
10
25.8000000000629
20
-8.64459979434903
30
0
41
1
10
25.8000000000668
20
-8.83422458335787
30
0
0
SPLINE
5
133
100
AcDbEntity
8
1
62
256
6
ByLayer
370
13
48
1
60
0
100
AcDbSpline
70
4
71
3
72
8
73
4
40
0
40
0
40
0
40
0
40
1
40
1
40
1
40
1
41
1
10
90.060331033194
20
3.62455397808534
30
0
41
1
10
90.0601082052804
20
3.62557345082058
30
0
41
1
10
90.0598843978433
20
3.62659272551483
30
0
41
1
10
90.059659610983
20
3.62761179926656
30
0
0
SPLINE
5
134
100
AcDbEntity
8
1
62
256
6
ByLayer
370
18
48
1
60
0
100
AcDbSpline
70
4
71
3
72
20
73
16
40
0
40
0
40
0
40
0
40
0.249999999999992
40
0.249999999999992
40
0.374999999999993
40
0.374999999999993
40
0.499999999999994
40
0.499999999999994
40
0.624999999999996
40
0.624999999999996
40
0.749999999999997
40
0.749999999999997
40
0.874999999999999
40
0.874999999999999
40
1
40
1
40
1
40
1
41
1
10
17.4460833977439
20
-6.93716832564658
30
0
41
1
10
17.5502837138061
20
-7.06083544501689
30
0
41
1
10
17.6776662606382
20
-7.15769773872876
30
0
41
1
10
17.9049885217757
20
-7.27141014071947
30
0
41
1
10
17.987291987797
20
-7.3040675105828
30
0
41
1
10
18.1592687404648
20
-7.35845607824621
30
0
41
1
10
18.2494411843732
20
-7.38050884225481
30
0
41
1
10
18.4380226119471
20
-7.41617290051582
30
0
41
1
10
18.5368113455652
20
-7.42981447863633
30
0
41
1
10
18.741153846891
20
-7.44972343855386
30
0
41
1
10
18.845604850757
20
-7.4559233768922
30
0
41
1
10
19.058972261832
20
-7.46221670018366
30
0
41
1
10
19.1678891489478
20
-7.46230457256041
30
0
41
1
10
19.390269163149
20
-7.45713019174883
30
0
41
1
10
19.5042170300924
20
-7.45181099991103
30
0
41
1
10
19.6179065655818
20
-7.44415485087882
30
0
0
SPLINE
5
135
100
AcDbEntity
8
1
62
256
6
ByLayer
370
18
48
1
60
0
100
AcDbSpline
70
4
71
3
72
14
73
10
40
0
40
0
40
0
40
0
40
0.25
40
0.25
40
0.5
40
0.5
40
0.75
40
0.75
40
1
40
1
40
1
40
1
41
1
10
19.1889209001096
20
-6.41080724230497
30
0
41
1
10
19.300110780942
20
-6.14426640711861
30
0
41
1
10
19.4283448208039
20
-5.82776552900245
30
0
41
1
10
19.712121475475
20
-5.11157711159771
30
0
41
1
10
19.8676506917139
20
-4.71192338728537
30
0
41
1
10
20.1977680609051
20
-3.85062662921757
30
0
41
1
10
20.3723406273012
20
-3.38902426175704
30
0
41
1
10
20.7312838592791
20
-2.42831650107576
30
0
41
1
10
20.915637577286
20
-1.92925646785986
30
0
41
1
10
21.1000000000007
20
-1.4246829520859
30
0
0
SPLINE
5
136
100
AcDbEntity
8
1
62
256
6
ByLayer
370
18
48
1
60
0
100
AcDbSpline
70
4
71
3
72
21
73
17
40
0
40
0
40
0
40
0
40
0.0285611695285794
40
0.0570332174641176
40
0.0854856595563206
40
0.113988155007528
40
0.142609997566278
40
0.213711279180808
40
0.284281937537917
40
0.355570959439617
40
0.425904615671511
40
0.566954095105722
40
0.707600433844143
40
0.847955491218748
40
0.987901236220114
40
1
40
1
40
1
40
1
41
1
10
79.6999999118225
20
-9.80599652305142
30
0
41
1
10
79.7002361567824
20
-9.80114294636437
30
0
41
1
10
79.700707909529
20
-9.7914509379753
30
0
41
1
10
79.704513172211
20
-9.77666775223298
30
0
41
1
10
79.7105900828255
20
-9.76175713762592
30
0
41
1
10
79.7191573887708
20
-9.74670144108404
30
0
41
1
10
79.735575926457
20
-9.72404070266063
30
0
41
1
10
79.7654517586577
20
-9.69379470673744
30
0
41
1
10
79.8172029868218
20
-9.65655820480427
30
0
41
1
10
79.8820990278858
20
-9.62073444577575
30
0
41
1
10
79.9855946606664
20
-9.57598409072773
30
0
41
1
10
80.1442546128811
20
-9.52763702965819
30
0
41
1
10
80.3710843607897
20
-9.48948181377787
30
0
41
1
10
80.617047294622
20
-9.47734437264288
30
0
41
1
10
80.7874369391907
20
-9.48835934872565
30
0
41
1
10
80.8709573512997
20
-9.49915283856612
30
0
41
1
10
80.8776033903116
20
-9.50001171788369
30
0
0
SPLINE
5
137
100
AcDbEntity
8
1
62
256
6
ByLayer
370
18
48
1
60
0
100
AcDbSpline
70
4
71
3
72
8
73
4
40
0
40
0
40
0
40
0
40
1
40
1
40
1
40
1
41
1
10
79.6
20
4.09999999999999
30
0
41
1
10
79.6
20
3.75572017040219
30
0
41
1
10
79.6000000000001
20
3.46156706836825
30
0
41
1
10
79.6000000000001
20
3.21617717371672
30
0
0
SPLINE
5
138
100
AcDbEntity
8
1
62
256
6
ByLayer
370
18
48
1
60
0
100
AcDbSpline
70
4
71
3
72
16
73
12
40
0
40
0
40
0
40
0
40
0.329693010183084
40
0.329693010183084
40
0.659386020366167
40
0.659386020366167
40
0.82423252545771
40
0.82423252545771
40
0.989079030549252
40
0.989079030549252
40
1
40
1
40
1
40
1
41
1
10
71.5267789440385
20
8.2385281832745
30
0
41
1
10
71.4039227311006
20
7.94604012867083
30
0
41
1
10
71.2763673399827
20
7.66197175903622
30
0
41
1
10
71.0136446591221
20
7.1096914782178
30
0
41
1
10
70.8784279569891
20
6.84148934171697
30
0
41
1
10
70.6722165758569
20
6.45082370721471
30
0
41
1
10
70.6028417186941
20
6.32240656822009
30
0
41
1
10
70.4660648632766
20
6.07370705509965
30
0
41
1
10
70.3983760152289
20
5.95287100848878
30
0
41
1
10
70.3274553687534
20
5.82768848911937
30
0
41
1
10
70.3230547179007
20
5.81992543224729
30
0
41
1
10
70.3186601134086
20
5.81217729990055
30
0
0
SPLINE
5
139
100
AcDbEntity
8
1
62
256
6
ByLayer
370
18
48
1
60
0
100
AcDbSpline
70
4
71
3
72
8
73
4
40
0
40
0
40
0
40
0
40
1
40
1
40
1
40
1
41
1
10
79.7035357251331
20
-10.0959855090449
30
0
41
1
10
79.7023571393549
20
-10.0970027173998
30
0
41
1
10
79.7011785643011
20
-10.0980197825265
30
0
41
1
10
79.7
20
-10.0990367043837
30
0
0
SPLINE
5
13A
100
AcDbEntity
8
1
62
256
6
ByLayer
370
18
48
1
60
0
100
AcDbSpline
70
4
71
3
72
18
73
14
40
0
40
0
40
0
40
0
40
0.249999999999998
40
0.249999999999998
40
0.374999999999997
40
0.374999999999997
40
0.499999999999996
40
0.499999999999996
40
0.624999999999995
40
0.624999999999995
40
0.749999999999994
40
0.749999999999994
40
1
40
1
40
1
40
1
41
1
10
92.7670543942007
20
0.990961736732601
30
0
41
1
10
92.7301396678471
20
1.15070199652323
30
0
41
1
10
92.6849488610751
20
1.32937758952045
30
0
41
1
10
92.6052307817669
20
1.62469060718732
30
0
41
1
10
92.5767432976937
20
1.72734715309278
30
0
41
1
10
92.5169369031267
20
1.93774447166467
30
0
41
1
10
92.4855005784606
20
2.04591708618034
30
0
41
1
10
92.4196477409848
20
2.26804327393424
30
0
41
1
10
92.3852282084291
20
2.38200270486522
30
0
41
1
10
92.3134146429286
20
2.61569149236325
30
0
41
1
10
92.2758514878767
20
2.735942013038
30
0
41
1
10
92.1604985297182
20
3.09955765463351
30
0
41
1
10
92.0797457391287
20
3.34688230863321
30
0
41
1
10
91.9952048520587
20
3.59904114614781
30
0
0
SPLINE
5
13B
100
AcDbEntity
8
1
62
256
6
ByLayer
370
18
48
1
60
0
100
AcDbSpline
70
4
71
3
72
12
73
8
40
0
40
0
40
0
40
0
40
0.415533960654399
40
0.415533960654399
40
0.707766885770628
40
0.707766885770628
40
1
40
1
40
1
40
1
41
1
10
79.7999999985666
20
-9.99418265944925
30
0
41
1
10
79.7866489966449
20
-10.0082880134844
30
0
41
1
10
79.7732936325599
20
-10.0223914629348
30
0
41
1
10
79.7505384965297
20
-10.0464102782833
30
0
41
1
10
79.7411408985934
20
-10.0563265896776
30
0
41
1
10
79.7223414737023
20
-10.0761574016836
30
0
41
1
10
79.712939645224
20
-10.0860719038987
30
0
41
1
10
79.7035357232664
20
-10.0959855117755
30
0
0
SPLINE
5
13C
100
AcDbEntity
8
1
62
256
6
ByLayer
370
18
48
1
60
0
100
AcDbSpline
70
2053
71
3
72
39
73
35
40
0
40
0
40
0
40
0
40
0.0303385727145268
40
0.0624389077774192
40
0.0936423571687845
40
0.124892847973886
40
0.156207084693247
40
0.187376614614948
40
0.219466561370896
40
0.24987773916248
40
0.280289667541727
40
0.312403820564477
40
0.343570526203521
40
0.374905676355781
40
0.40607357329947
40
0.437388405285052
40
0.46951117588427
40
0.499829603737429
40
0.530237923833511
40
0.562498804304275
40
0.593710829798229
40
0.625032128540294
40
0.656199925790273
40
0.687533754216927
40
0.719614123318882
40
0.749977126212559
40
0.780320072645734
40
0.812408213499157
40
0.843740430945072
40
0.874905072388191
40
0.90621715403888
40
0.937485690069435
40
0.969665705093053
40
1
40
1
40
1
40
1
41
1
10
76.24
20
-5.66522945319273
30
0
41
1
10
76.1112851179021
20
-5.6652317538993
30
0
41
1
10
75.8463805756546
20
-5.68726208763496
30
0
41
1
10
75.4645211318355
20
-5.78518911698853
30
0
41
1
10
75.1105826433244
20
-5.94458635148359
30
0
41
1
10
74.8032886784308
20
-6.15219362076289
30
0
41
1
10
74.5509859285556
20
-6.39822314868985
30
0
41
1
10
74.3612108462523
20
-6.67282202536353
30
0
41
1
10
74.2457961767292
20
-6.95794540196295
30
0
41
1
10
74.2075973082784
20
-7.24084394646735
30
0
41
1
10
74.2451970514576
20
-7.51167960650855
30
0
41
1
10
74.360083914381
20
-7.76306106121291
30
0
41
1
10
74.5494531597158
20
-7.98569270066832
30
0
41
1
10
74.8011797166866
20
-8.17078414320153
30
0
41
1
10
75.1082355799749
20
-8.31745541710723
30
0
41
1
10
75.4621057153651
20
-8.42431217587688
30
0
41
1
10
75.8443104724695
20
-8.48807357939668
30
0
41
1
10
76.2381898455353
20
-8.50856697097291
30
0
41
1
10
76.6327468126335
20
-8.48842323068465
30
0
41
1
10
77.0156247386434
20
-8.42484966861505
30
0
41
1
10
77.3703803947822
20
-8.31799698109501
30
0
41
1
10
77.6773016555558
20
-8.1716790110772
30
0
41
1
10
77.9296962995313
20
-7.98647098084066
30
0
41
1
10
78.119339831804
20
-7.76406733386693
30
0
41
1
10
78.2345165597953
20
-7.51251071252676
30
0
41
1
10
78.272355327717
20
-7.24221142388885
30
0
41
1
10
78.2346524700798
20
-6.95969913429042
30
0
41
1
10
78.1196414078303
20
-6.67426917305636
30
0
41
1
10
77.9301223443094
20
-6.39952093024922
30
0
41
1
10
77.6778828451937
20
-6.15318815307919
30
0
41
1
10
77.3709270948732
20
-5.94537691189061
30
0
41
1
10
77.0163397585275
20
-5.78543969978048
30
0
41
1
10
76.6339205796834
20
-5.68727149982814
30
0
41
1
10
76.3686967330077
20
-5.66522715281056
30
0
41
1
10
76.24
20
-5.66522945319273
30
0
0
SPLINE
5
13D
100
AcDbEntity
8
1
62
256
6
ByLayer
370
18
48
1
60
0
100
AcDbSpline
70
4
71
3
72
8
73
4
40
0
40
0
40
0
40
0
40
1
40
1
40
1
40
1
41
1
10
79.8
20
-9.71032826427614
30
0
41
1
10
79.7666666666667
20
-9.74221768386326
30
0
41
1
10
79.7333333333333
20
-9.77410710345038
30
0
41
1
10
79.7
20
-9.80599652303746
30
0
0
SPLINE
5
13E
100
AcDbEntity
8
1
62
256
6
ByLayer
370
18
48
1
60
0
100
AcDbSpline
70
4
71
3
72
8
73
4
40
0
40
0
40
0
40
0
40
1
40
1
40
1
40
1
41
1
10
71.7404110749573
20
8.66051229125
30
0
41
1
10
71.5304099571912
20
8.7492053666773
30
0
41
1
10
71.2966578082666
20
8.8019066121104
30
0
41
1
10
71.0471883802188
20
8.83100586211989
30
0
0
SPLINE
5
13F
100
AcDbEntity
8
1
62
256
6
ByLayer
370
13
48
1
60
0
100
AcDbSpline
70
4
71
3
72
44
73
40
40
0
40
0
40
0
40
0
40
0.249999999999938
40
0.249999999999938
40
0.312499999999923
40
0.328124999999926
40
0.328124999999926
40
0.343749999999929
40
0.343749999999929
40
0.374999999999936
40
0.499999999999937
40
0.499999999999937
40
0.51562499999994
40
0.51562499999994
40
0.531249999999943
40
0.562499999999939
40
0.578124999999932
40
0.578124999999932
40
0.593749999999924
40
0.593749999999924
40
0.62499999999992
40
0.656249999999917
40
0.656249999999917
40
0.671874999999915
40
0.671874999999915
40
0.687499999999913
40
0.749999999999916
40
0.812499999999919
40
0.828124999999922
40
0.828124999999922
40
0.843749999999925
40
0.843749999999925
40
0.87499999999994
40
0.906249999999955
40
0.906249999999955
40
0.921874999999963
40
0.921874999999963
40
0.93749999999997
40
1
40
1
40
1
40
1
41
1
10
90.5836508076299
20
-1.55746319511041
30
0
41
1
10
90.3841015394627
20
-1.41799020136364
30
0
41
1
10
90.1485048872561
20
-1.23325066865118
30
0
41
1
10
89.8822939469283
20
-1.00135031566504
30
0
41
1
10
89.8175089294422
20
-0.943314180620064
30
0
41
1
10
89.7563662602986
20
-0.886288050216109
30
0
41
1
10
89.7322292456241
20
-0.863580135344677
30
0
41
1
10
89.7203761665012
20
-0.85233011172383
30
0
41
1
10
89.6835051844878
20
-0.817004969323591
30
0
41
1
10
89.5550111656011
20
-0.69180609300588
30
0
41
1
10
89.4108604040255
20
-0.541689374805799
30
0
41
1
10
89.3052638116224
20
-0.424136836995075
30
0
41
1
10
89.2932462861527
20
-0.410622847626627
30
0
41
1
10
89.2679737929433
20
-0.381956982329768
30
0
41
1
10
89.2287602190052
20
-0.337120039314584
30
0
41
1
10
89.1742868383092
20
-0.273489207363724
30
0
41
1
10
89.1363359458446
20
-0.228135957749487
30
0
41
1
10
89.1121859065445
20
-0.199011260481029
30
0
41
1
10
89.100964628965
20
-0.185340679122532
30
0
41
1
10
89.0645283232532
20
-0.140487231973424
30
0
41
1
10
89.0116816407405
20
-0.0742847018998418
30
0
41
1
10
88.9586742886001
20
-0.0058787435204692
30
0
41
1
10
88.921996932748
20
0.0422797985379759
30
0
41
1
10
88.9105723699523
20
0.05742209194824
30
0
41
1
10
88.8878937184474
20
0.0878438607167311
30
0
41
1
10
88.8296700285364
20
0.166847697211949
30
0
41
1
10
88.7141262692286
20
0.331288669130203
30
0
41
1
10
88.6005908615464
20
0.503743710958076
30
0
41
1
10
88.5448774531579
20
0.592764711179569
30
0
41
1
10
88.5233144135816
20
0.627638565590019
30
0
41
1
10
88.513147409453
20
0.644294018787861
30
0
41
1
10
88.4802366335666
20
0.698931955916919
30
0
41
1
10
88.4321166172713
20
0.780597224657527
30
0
41
1
10
88.3839179001575
20
0.865448829526486
30
0
41
1
10
88.350888883731
20
0.92486636057285
30
0
41
1
10
88.3406978654679
20
0.943417212910759
30
0
41
1
10
88.3205350242689
20
0.980694255725496
30
0
41
1
10
88.267102046814
20
1.08090572021896
30
0
41
1
10
88.2050732234189
20
1.20351148597226
30
0
41
1
10
88.1666670237889
20
1.28342655206052
30
0
0
SPLINE
5
140
100
AcDbEntity
8
1
62
256
6
ByLayer
370
18
48
1
60
0
100
AcDbSpline
70
4
71
3
72
8
73
4
40
0
40
0
40
0
40
0
40
1
40
1
40
1
40
1
41
1
10
89.7390596529527
20
-10.0071724843866
30
0
41
1
10
89.7116463573832
20
-10.0895767019067
30
0
41
1
10
89.6841920957437
20
-10.1720177996511
30
0
41
1
10
89.656697901843
20
-10.254492374436
30
0
0
SPLINE
5
141
100
AcDbEntity
8
1
62
256
6
ByLayer
370
13
48
1
60
0
100
AcDbSpline
70
4
71
3
72
14
73
10
40
0
40
0
40
0
40
0
40
0.25
40
0.25
40
0.5
40
0.5
40
0.75
40
0.75
40
1
40
1
40
1
40
1
41
1
10
91.8315201070462
20
1.02963970410113
30
0
41
1
10
91.6797265691127
20
0.836505953685332
30
0
41
1
10
91.5342852374197
20
0.630407915322877
30
0
41
1
10
91.2657132067409
20
0.20210245082103
30
0
41
1
10
91.1426442360523
20
-0.0200415280035315
30
0
41
1
10
90.926686093521
20
-0.467887119923148
30
0
41
1
10
90.8338359086027
20
-0.693506736566917
30
0
41
1
10
90.6827247287466
20
-1.13534640846066
30
0
41
1
10
90.6244653338061
20
-1.35149692688788
30
0
41
1
10
90.5836508076299
20
-1.55746319511041
30
0
0
SPLINE
5
142
100
AcDbEntity
8
1
62
256
6
ByLayer
370
18
48
1
60
0
100
AcDbSpline
70
2053
71
3
72
39
73
35
40
0
40
0
40
0
40
0
40
0.031203376854012
40
0.0622957961976095
40
0.0934927338141829
40
0.124774887650913
40
0.155957958489358
40
0.187357002359527
40
0.21860496058003
40
0.25002295805818
40
0.281395495322905
40
0.312701184294489
40
0.344101756785967
40
0.375287888103809
40
0.40657915057366
40
0.437719655601616
40
0.468957519995407
40
0.500169739217375
40
0.531250249649487
40
0.562392864654242
40
0.593636133983607
40
0.624774345303582
40
0.656128162276987
40
0.687361466765805
40
0.718739309316932
40
0.750122806371197
40
0.781424678514915
40
0.812858756559617
40
0.844094570718702
40
0.875427123396263
40
0.906647492099461
40
0.937779365621326
40
0.968985897588886
40
1
40
1
40
1
40
1
41
1
10
76.24
20
-5.65289127620607
30
0
41
1
10
76.3783040903681
20
-5.65289194220271
30
0
41
1
10
76.6544274694661
20
-5.67645381392688
30
0
41
1
10
77.0518201445771
20
-5.77994509552411
30
0
41
1
10
77.417018861788
20
-5.94489962460486
30
0
41
1
10
77.736407702833
20
-6.16169438079163
30
0
41
1
10
77.9988245399697
20
-6.4188639273701
30
0
41
1
10
78.1939776143905
20
-6.7030526646123
30
0
41
1
10
78.3146968568668
20
-7.00160983567636
30
0
41
1
10
78.3555466427052
20
-7.30038652727819
30
0
41
1
10
78.3146124391998
20
-7.58708273309719
30
0
41
1
10
78.1937990737844
20
-7.85084420712664
30
0
41
1
10
77.9983813632485
20
-8.08308611135951
30
0
41
1
10
77.735803208278
20
-8.27861836685733
30
0
41
1
10
77.4164492115266
20
-8.43338531214303
30
0
41
1
10
77.0508248695467
20
-8.54555550874699
30
0
41
1
10
76.6529148920417
20
-8.61340417487
30
0
41
1
10
76.2383016681193
20
-8.63594902193847
30
0
41
1
10
75.8242145147926
20
-8.61302714362495
30
0
41
1
10
75.4269796886595
20
-8.54504103815003
30
0
41
1
10
75.0621111751997
20
-8.43281014712929
30
0
41
1
10
74.742616422476
20
-8.27767360653155
30
0
41
1
10
74.4807341097606
20
-8.0822635100686
30
0
41
1
10
74.2855195476154
20
-7.84969867823611
30
0
41
1
10
74.1650527260559
20
-7.58607749713605
30
0
41
1
10
74.1245006673319
20
-7.2993984870437
30
0
41
1
10
74.1656090167528
20
-7.00036826955258
30
0
41
1
10
74.2865280301394
20
-6.70210031313547
30
0
41
1
10
74.4823286508546
20
-6.41750808154018
30
0
41
1
10
74.7448101198926
20
-6.1606573198124
30
0
41
1
10
75.0645542825047
20
-5.94407376500081
30
0
41
1
10
75.4298268163982
20
-5.77934438081681
30
0
41
1
10
75.8267585524374
20
-5.67627865993907
30
0
41
1
10
76.1025348390137
20
-5.65289061424925
30
0
41
1
10
76.24
20
-5.65289127620607
30
0
0
SPLINE
5
143
100
AcDbEntity
8
1
62
256
6
ByLayer
370
13
48
1
60
0
100
AcDbSpline
70
4
71
3
72
10
73
6
40
0
40
0
40
0
40
0
40
0.0018152904828157
40
0.0018152904828157
40
1
40
1
40
1
40
1
41
1
10
91.8997199064411
20
1.05211490881791
30
0
41
1
10
91.8997060455644
20
1.05212439208773
30
0
41
1
10
91.8996921846125
20
1.05213387525876
30
0
41
1
10
91.8920566021159
20
1.0573580349369
30
0
41
1
10
91.8844578219138
20
1.06260235749588
30
0
41
1
10
91.8768827206746
20
1.06787672089692
30
0
0
SPLINE
5
144
100
AcDbEntity
8
1
62
256
6
ByLayer
370
18
48
1
60
0
100
AcDbSpline
70
4
71
3
72
12
73
8
40
0
40
0
40
0
40
0
40
0.500000000000025
40
0.500000000000025
40
0.750000000000012
40
0.750000000000012
40
1
40
1
40
1
40
1
41
1
10
69.7953239193661
20
8.13694671606325
30
0
41
1
10
70.022328949141
20
8.1804906871408
30
0
41
1
10
70.2349929997392
20
8.26480063705338
30
0
41
1
10
70.533731015183
20
8.44788569674409
30
0
41
1
10
70.6281320239042
20
8.51737334905224
30
0
41
1
10
70.8051421982039
20
8.66883319056146
30
0
41
1
10
70.8882512715442
20
8.75111946542518
30
0
41
1
10
70.9664945503944
20
8.83917214032874
30
0
0
SPLINE
5
145
100
AcDbEntity
8
1
62
256
6
ByLayer
370
18
48
1
60
0
100
AcDbSpline
70
4
71
3
72
8
73
4
40
0
40
0
40
0
40
0
40
1
40
1
40
1
40
1
41
1
10
79.5999999999794
20
3.21617717371689
30
0
41
1
10
79.1756299457161
20
3.24882586195776
30
0
41
1
10
78.7512196692531
20
3.27989674815379
30
0
41
1
10
78.3267573277705
20
3.30940344185592
30
0
0
SPLINE
5
146
100
AcDbEntity
8
1
62
256
6
ByLayer
370
18
48
1
60
0
100
AcDbSpline
70
4
71
3
72
10
73
6
40
0
40
0
40
0
40
0
40
0.351789084075212
40
0.697723836616255
40
1
40
1
40
1
40
1
41
1
10
86.3130099033582
20
1.50025257122178
30
0
41
1
10
85.8387599376759
20
1.54956554976741
30
0
41
1
10
84.8981522822657
20
1.64737086023141
30
0
41
1
10
83.5503988167938
20
1.79092581783635
30
0
41
1
10
82.6769669989494
20
1.88581020405383
30
0
41
1
10
82.2697377735831
20
1.93071439532906
30
0
0
SPLINE
5
147
100
AcDbEntity
8
1
62
256
6
ByLayer
370
18
48
1
60
0
100
AcDbSpline
70
4
71
3
72
25
73
21
40
0
40
0
40
0
40
0
40
0.0278429113042217
40
0.0555048813621598
40
0.0829861934430533
40
0.110287136440711
40
0.137408005014012
40
0.1643490997315
40
0.191110727220164
40
0.217693200318581
40
0.244096838234516
40
0.270321966707146
40
0.406145241694924
40
0.5380759711415
40
0.671966085344852
40
0.80339625671601
40
0.853008745570156
40
0.902310720408134
40
0.951306379412798
40
1
40
1
40
1
40
1
41
1
10
86.8798176477699
20
-8.3145371362474
30
0
41
1
10
86.8639873341988
20
-8.28248791075447
30
0
41
1
10
86.8324295826731
20
-8.21859773636507
30
0
41
1
10
86.7858994620259
20
-8.12033035364729
30
0
41
1
10
86.7401573432473
20
-8.02074713963393
30
0
41
1
10
86.695249123531
20
-7.9197093588904
30
0
41
1
10
86.6511626219068
20
-7.81732760430714
30
0
41
1
10
86.6079010809415
20
-7.71364564366962
30
0
41
1
10
86.5654635986206
20
-7.60872410273998
30
0
41
1
10
86.5238505668464
20
-7.50261887379745
30
0
41
1
10
86.4830613161051
20
-7.39538447478049
30
0
41
1
10
86.3873374044858
20
-7.13596694949911
30
0
41
1
10
86.2443817681703
20
-6.71062987544587
30
0
41
1
10
86.0650265683809
20
-6.08631621891519
30
0
41
1
10
85.9047531275463
20
-5.42943559376084
30
0
41
1
10
85.7920894821713
20
-4.88033663310753
30
0
41
1
10
85.7173181006488
20
-4.46639272611094
30
0
41
1
10
85.6720852237038
20
-4.19634910818817
30
0
41
1
10
85.6296808079751
20
-3.92434555641464
30
0
41
1
10
85.6038570158476
20
-3.74055852195283
30
0
41
1
10
85.5909850411413
20
-3.64894912364096
30
0
0
SPLINE
5
148
100
AcDbEntity
8
1
62
256
6
ByLayer
370
18
48
1
60
0
100
AcDbSpline
70
4
71
3
72
8
73
4
40
0
40
0
40
0
40
0
40
1
40
1
40
1
40
1
41
1
10
64.2745983039532
20
6.9969093054936
30
0
41
1
10
66.0667519857347
20
7.41211303899803
30
0
41
1
10
67.85896324039
20
7.78776795260168
30
0
41
1
10
69.6552668481534
20
8.1117893383969
30
0
0
SPLINE
5
149
100
AcDbEntity
8
1
62
256
6
ByLayer
370
18
48
1
60
0
100
AcDbSpline
70
4
71
3
72
21
73
17
40
0
40
0
40
0
40
0
40
0.25
40
0.25
40
0.3125
40
0.3125
40
0.375
40
0.375
40
0.5
40
0.625
40
0.625
40
0.6875
40
0.6875
40
0.75
40
0.75
40
1
40
1
40
1
40
1
41
1
10
79.8
20
7.87424252217005
30
0
41
1
10
79.8
20
7.32686419874486
30
0
41
1
10
79.8
20
6.8009495380374
30
0
41
1
10
79.8
20
6.16954200239994
30
0
41
1
10
79.8
20
6.04457968822689
30
0
41
1
10
79.8
20
5.79735336508961
30
0
41
1
10
79.8
20
5.67516893167971
30
0
41
1
10
79.8
20
5.31792531596162
30
0
41
1
10
79.8000000000002
20
4.86273166235466
30
0
41
1
10
79.7999999999998
20
4.44882495859258
30
0
41
1
10
79.7999999999998
20
4.15426926175661
30
0
41
1
10
79.8000000000001
20
4.05841483769476
30
0
41
1
10
79.8
20
3.87434012320364
30
0
41
1
10
79.8
20
3.78600270568674
30
0
41
1
10
79.8
20
3.36241255071485
30
0
41
1
10
79.8
20
3.08057625503628
30
0
41
1
10
79.8
20
2.85772563457732
30
0
0
SPLINE
5
14A
100
AcDbEntity
8
1
62
256
6
ByLayer
370
18
48
1
60
0
100
AcDbSpline
70
4
71
3
72
8
73
4
40
0
40
0
40
0
40
0
40
1
40
1
40
1
40
1
41
1
10
21
20
5.81302604714952
30
0
41
1
10
21.128832943846
20
5.81432729496092
30
0
41
1
10
21.2572748473458
20
5.81363204782832
30
0
41
1
10
21.3853250693982
20
5.81091574731732
30
0
0
SPLINE
5
14B
100
AcDbEntity
8
1
62
256
6
ByLayer
370
18
48
1
60
0
100
AcDbSpline
70
4
71
3
72
9
73
5
40
0
40
0
40
0
40
0
40
0.496129059176585
40
1
40
1
40
1
40
1
41
1
10
79.8000000031807
20
9.26545049378871
30
0
41
1
10
79.7845460013358
20
9.29412249056051
30
0
41
1
10
79.7533968445608
20
9.35191389834338
30
0
41
1
10
79.7213096088954
20
9.40924469062767
30
0
41
1
10
79.7051417832723
20
9.43813201087411
30
0
0
SPLINE
5
14C
100
AcDbEntity
8
1
62
256
6
ByLayer
370
18
48
1
60
0
100
AcDbSpline
70
4
71
1
72
4
73
2
40
0
40
0
40
1
40
1
41
1
10
23.5534566085468
20
5.77690563654997
30
0
41
1
10
23.3980150251193
20
5.30594576255669
30
0
0
SPLINE
5
14D
100
AcDbEntity
8
1
62
256
6
ByLayer
370
18
48
1
60
0
100
AcDbSpline
70
4
71
3
72
8
73
4
40
0
40
0
40
0
40
0
40
1
40
1
40
1
40
1
41
1
10
69.7953239202794
20
8.13694671623847
30
0
41
1
10
69.7485009444526
20
8.1259021023069
30
0
41
1
10
69.7018128602478
20
8.1175514343978
30
0
41
1
10
69.6552668481538
20
8.11178933839693
30
0
0
SPLINE
5
14E
100
AcDbEntity
8
1
62
256
6
ByLayer
370
18
48
1
60
0
100
AcDbSpline
70
4
71
3
72
8
73
4
40
0
40
0
40
0
40
0
40
1
40
1
40
1
40
1
41
1
10
19.4467307272424
20
-6.46935780681289
30
0
41
1
10
19.5051248445407
20
-6.79294064311128
30
0
41
1
10
19.562329052079
20
-7.11791481340515
30
0
41
1
10
19.6179065655818
20
-7.44415485087882
30
0
0
SPLINE
5
14F
100
AcDbEntity
8
1
62
256
6
ByLayer
370
18
48
1
60
0
100
AcDbSpline
70
4
71
3
72
8
73
4
40
0
40
0
40
0
40
0
40
1
40
1
40
1
40
1
41
1
10
92.9404459135452
20
0.254422138124255
30
0
41
1
10
92.9519801501747
20
0.215013802189162
30
0
41
1
10
92.9635751341232
20
0.175485498330858
30
0
41
1
10
92.9752303727038
20
0.13583970344601
30
0
0
SPLINE
5
150
100
AcDbEntity
8
1
62
256
6
ByLayer
370
18
48
1
60
0
100
AcDbSpline
70
4
71
3
72
73
73
69
40
0
40
0
40
0
40
0
40
0.0151515151515155
40
0.0303030303030305
40
0.0454545454545457
40
0.0606060606060609
40
0.0757575757575759
40
0.0909090909090914
40
0.106060606060606
40
0.121212121212121
40
0.136363636363636
40
0.151515151515152
40
0.166666666666667
40
0.181818181818182
40
0.196969696969697
40
0.212121212121212
40
0.227272727272727
40
0.242424242424242
40
0.257575757575758
40
0.272727272727273
40
0.287878787878788
40
0.303030303030303
40
0.318181818181818
40
0.333333333333334
40
0.348484848484849
40
0.363636363636364
40
0.378787878787879
40
0.393939393939394
40
0.409090909090909
40
0.424242424242424
40
0.43939393939394
40
0.454545454545455
40
0.46969696969697
40
0.484848484848485
40
0.5
40
0.515151515151515
40
0.530303030303031
40
0.545454545454546
40
0.560606060606061
40
0.575757575757576
40
0.590909090909091
40
0.606060606060606
40
0.621212121212121
40
0.636363636363636
40
0.651515151515151
40
0.666666666666667
40
0.681818181818182
40
0.696969696969697
40
0.712121212121212
40
0.727272727272727
40
0.742424242424242
40
0.757575757575758
40
0.772727272727273
40
0.787878787878788
40
0.803030303030303
40
0.818181818181818
40
0.833333333333333
40
0.848484848484849
40
0.863636363636364
40
0.878787878787879
40
0.893939393939394
40
0.909090909090909
40
0.924242424242424
40
0.939393939393939
40
0.954545454545454
40
0.96969696969697
40
0.984848484848485
40
1
40
1
40
1
40
1
41
1
10
21.1000000000007
20
-1.4246829520859
30
0
41
1
10
21.115537151529
20
-1.38213758409893
30
0
41
1
10
21.1466114545855
20
-1.29704684812504
30
0
41
1
10
21.1932052673002
20
-1.16916374942926
30
0
41
1
10
21.2397638029517
20
-1.04116118452171
30
0
41
1
10
21.2862694396991
20
-0.913066398986615
30
0
41
1
10
21.332704575723
20
-0.784933556160809
30
0
41
1
10
21.3790516358877
20
-0.656809630547912
30
0
41
1
10
21.4252930783931
20
-0.528743523378097
30
0
41
1
10
21.471411401414
20
-0.400783596828802
30
0
41
1
10
21.5173891497246
20
-0.27297831146447
30
0
41
1
10
21.5632089213049
20
-0.145376032188608
30
0
41
1
10
21.6088533739272
20
-0.0180250570186899
30
0
41
1
10
21.6543052317197
20
0.109026413809346
30
0
41
1
10
21.6995472917056
20
0.23573029270392
30
0
41
1
10
21.744562430314
20
0.362038623824191
30
0
41
1
10
21.7893336098611
20
0.487903600988119
30
0
41
1
10
21.8338438849981
20
0.613277585831497
30
0
41
1
10
21.8780764091262
20
0.738113125820973
30
0
41
1
10
21.9220144407714
20
0.862362972219188
30
0
41
1
10
21.9656413499216
20
0.985980097966291
30
0
41
1
10
22.0089406243209
20
1.10891771547966
30
0
41
1
10
22.0518958757192
20
1.23112929436232
30
0
41
1
10
22.0944908460749
20
1.35256857901402
30
0
41
1
10
22.1367094137083
20
1.47318960613859
30
0
41
1
10
22.1785355994037
20
1.59294672214034
30
0
41
1
10
22.2199535724573
20
1.71179460040352
30
0
41
1
10
22.2609476566684
20
1.82968825844779
30
0
41
1
10
22.3015023362736
20
1.94658307495365
30
0
41
1
10
22.3416022618185
20
2.06243480665094
30
0
41
1
10
22.3812322559678
20
2.17719960506446
30
0
41
1
10
22.4203773192493
20
2.29083403311012
30
0
41
1
10
22.4590226357314
20
2.40329508153525
30
0
41
1
10
22.4971535786306
20
2.51454018519712
30
0
41
1
10
22.5347557158475
20
2.62452723917343
30
0
41
1
10
22.5718148154292
20
2.73321461469837
30
0
41
1
10
22.6083168509562
20
2.84056117491863
30
0
41
1
10
22.6442480068507
20
2.94652629046331
30
0
41
1
10
22.6795946836061
20
3.05106985482146
30
0
41
1
10
22.7143435029339
20
3.15415229952208
30
0
41
1
10
22.7484813128275
20
3.25573460911025
30
0
41
1
10
22.7819951925401
20
3.35577833591393
30
0
41
1
10
22.8148724574745
20
3.45424561459606
30
0
41
1
10
22.847100663985
20
3.55109917648602
30
0
41
1
10
22.8786676140861
20
3.64630236368549
30
0
41
1
10
22.9095613600702
20
3.73981914294291
30
0
41
1
10
22.9397702090291
20
3.83161411929166
30
0
41
1
10
22.96928272728
20
3.92165254944663
30
0
41
1
10
22.9980877446928
20
4.0099003549542
30
0
41
1
10
23.0261743589176
20
4.09632413509036
30
0
41
1
10
23.0535319395117
20
4.18089117950276
30
0
41
1
10
23.0801501319626
20
4.26356948059035
30
0
41
1
10
23.106018861608
20
4.34432774562111
30
0
41
1
10
23.1311283374447
20
4.42313540856355
30
0
41
1
10
23.1554690558514
20
4.49996264170207
30
0
41
1
10
23.179031804121
20
4.57478036675309
30
0
41
1
10
23.2018076641901
20
4.64756026651716
30
0
41
1
10
23.2237880151084
20
4.71827479318489
30
0
41
1
10
23.2449645396833
20
4.78689718776445
30
0
41
1
10
23.2653292150055
20
4.85340145661687
30
0
41
1
10
23.284874362596
20
4.91776250666439
30
0
41
1
10
23.3035924754899
20
4.97995568699989
30
0
41
1
10
23.3214768772601
20
5.03995854439913
30
0
41
1
10
23.3385192756346
20
5.09774431497834
30
0
41
1
10
23.3547189050922
20
5.15330625550439
30
0
41
1
10
23.3700484182327
20
5.20656687806644
30
0
41
1
10
23.3845811923495
20
5.25771672974602
30
0
41
1
10
23.3935378812419
20
5.28987230125566
30
0
41
1
10
23.3980162256881
20
5.3059500870105
30
0
0
SPLINE
5
151
100
AcDbEntity
8
1
62
256
6
ByLayer
370
13
48
1
60
0
100
AcDbSpline
70
4
71
3
72
8
73
4
40
0
40
0
40
0
40
0
40
1
40
1
40
1
40
1
41
1
10
91.8997199063908
20
1.05211490882147
30
0
41
1
10
92.1888314023274
20
1.03173051812516
30
0
41
1
10
92.4779428982641
20
1.01134612742888
30
0
41
1
10
92.7670543942007
20
0.990961736732601
30
0
0
SPLINE
5
152
100
AcDbEntity
8
1
62
256
6
ByLayer
370
18
48
1
60
0
100
AcDbSpline
70
4
71
3
72
12
73
8
40
0
40
0
40
0
40
0
40
0.415533960654317
40
0.415533960654317
40
0.707766885770502
40
0.707766885770502
40
1
40
1
40
1
40
1
41
1
10
79.7999999985666
20
9.99418265944925
30
0
41
1
10
79.7866489966449
20
10.0082880134844
30
0
41
1
10
79.7732936325599
20
10.0223914629348
30
0
41
1
10
79.7505384965297
20
10.0464102782833
30
0
41
1
10
79.7411408985934
20
10.0563265896776
30
0
41
1
10
79.7223414737023
20
10.0761574016836
30
0
41
1
10
79.712939645224
20
10.0860719038987
30
0
41
1
10
79.7035357232664
20
10.0959855117755
30
0
0
SPLINE
5
153
100
AcDbEntity
8
1
62
256
6
ByLayer
370
13
48
1
60
0
100
AcDbSpline
70
4
71
3
72
8
73
4
40
0
40
0
40
0
40
0
40
1
40
1
40
1
40
1
41
1
10
91.8090772077691
20
-2.41396289673059
30
0
41
1
10
91.400601741056
20
-2.12846299619053
30
0
41
1
10
90.9921262743429
20
-1.84296309565048
30
0
41
1
10
90.5836508076299
20
-1.55746319511041
30
0
0
SPLINE
5
154
100
AcDbEntity
8
1
62
256
6
ByLayer
370
18
48
1
60
0
100
AcDbSpline
70
4
71
3
72
28
73
24
40
0
40
0
40
0
40
0
40
0.0624999999999993
40
0.0624999999999993
40
0.124999999999999
40
0.124999999999999
40
0.249999999999997
40
0.249999999999997
40
0.312499999999994
40
0.312499999999994
40
0.374999999999992
40
0.374999999999992
40
0.499999999999991
40
0.499999999999991
40
0.56249999999999
40
0.56249999999999
40
0.624999999999989
40
0.624999999999989
40
0.749999999999993
40
0.749999999999993
40
0.874999999999996
40
0.874999999999996
40
1
40
1
40
1
40
1
41
1
10
86.3130098622143
20
1.50025257689293
30
0
41
1
10
86.2969587542698
20
1.42046078344845
30
0
41
1
10
86.2787776108938
20
1.34381455647215
30
0
41
1
10
86.2387677934377
20
1.19993292198953
30
0
41
1
10
86.2168992414005
20
1.13241135678834
30
0
41
1
10
86.1457222707364
20
0.943057903422442
30
0
41
1
10
86.0908678196291
20
0.834377306191271
30
0
41
1
10
85.9971193291548
20
0.698547633090413
30
0
41
1
10
85.9639526000269
20
0.657817402857916
30
0
41
1
10
85.8936421739008
20
0.585787514911488
30
0
41
1
10
85.8566311942781
20
0.554687966750777
30
0
41
1
10
85.741665018553
20
0.477182751269993
30
0
41
1
10
85.6592257719767
20
0.44588618395008
30
0
41
1
10
85.5271155067429
20
0.428653378384212
30
0
41
1
10
85.4816653020374
20
0.427878286866587
30
0
41
1
10
85.3879206123412
20
0.436327563246493
30
0
41
1
10
85.3394229870706
20
0.445629844623312
30
0
41
1
10
85.1917465404787
20
0.488092623333415
30
0
41
1
10
85.0901048762058
20
0.535591390561109
30
0
41
1
10
84.8808684856563
20
0.666393212812721
30
0
41
1
10
84.7731019170554
20
0.749865676223777
30
0
41
1
10
84.5524105734362
20
0.951437788041062
30
0
41
1
10
84.4408905289837
20
1.06820237588221
30
0
41
1
10
84.3282619501496
20
1.20004969927794
30
0
0
SPLINE
5
155
100
AcDbEntity
8
1
62
256
6
ByLayer
370
18
48
1
60
0
100
AcDbSpline
70
4
71
3
72
8
73
4
40
0
40
0
40
0
40
0
40
1
40
1
40
1
40
1
41
1
10
85.7117170570071
20
-3.63843300878887
30
0
41
1
10
85.671465098728
20
-3.64207939219509
30
0
41
1
10
85.6312203383467
20
-3.64558219295796
30
0
41
1
10
85.590982788469
20
-3.64894119960252
30
0
0
SPLINE
5
156
100
AcDbEntity
8
1
62
256
6
ByLayer
370
13
48
1
60
0
100
AcDbSpline
70
4
71
3
72
16
73
12
40
0
40
0
40
0
40
0
40
0.125
40
0.125
40
0.25
40
0.25
40
0.5
40
0.5
40
0.75
40
0.75
40
1
40
1
40
1
40
1
41
1
10
90.0337610621004
20
3.61865195250999
30
0
41
1
10
90.0652328189257
20
3.47459370387568
30
0
41
1
10
90.104911985427
20
3.33442888421516
30
0
41
1
10
90.1990784417186
20
3.06111754625195
30
0
41
1
10
90.2535511951388
20
2.92831619846987
30
0
41
1
10
90.4330696793099
20
2.54796332776186
30
0
41
1
10
90.5750102958773
20
2.31489034604047
30
0
41
1
10
90.8946014139658
20
1.88159646005605
30
0
41
1
10
91.067900282908
20
1.68716077590702
30
0
41
1
10
91.4354532873765
20
1.33290307051385
30
0
41
1
10
91.6302111182648
20
1.17293005723221
30
0
41
1
10
91.8315201070463
20
1.02963970410124
30
0
0
SPLINE
5
157
100
AcDbEntity
8
1
62
256
6
ByLayer
370
18
48
1
60
0
100
AcDbSpline
70
4
71
3
72
16
73
12
40
0
40
0
40
0
40
0
40
0.249999999999998
40
0.249999999999998
40
0.375000000000001
40
0.375000000000001
40
0.500000000000004
40
0.500000000000004
40
0.750000000000002
40
0.750000000000002
40
1
40
1
40
1
40
1
41
1
10
80.5429358567658
20
10.4307587299418
30
0
41
1
10
81.3196599427651
20
10.4669226322208
30
0
41
1
10
82.0956188698528
20
10.484334411904
30
0
41
1
10
83.2580154100137
20
10.4827937234282
30
0
41
1
10
83.6451167223587
20
10.4776485375124
30
0
41
1
10
84.4188340267998
20
10.4580228523529
30
0
41
1
10
84.8054011568206
20
10.4435187307782
30
0
41
1
10
85.9659662389881
20
10.386322006126
30
0
41
1
10
86.7401760796108
20
10.3299107832241
30
0
41
1
10
88.2894428926812
20
10.1805029611382
30
0
41
1
10
89.0639045014678
20
10.0870547254327
30
0
41
1
10
89.8404156153231
20
9.97589593205214
30
0
0
SPLINE
5
158
100
AcDbEntity
8
1
62
256
6
ByLayer
370
13
48
1
60
0
100
AcDbSpline
70
4
71
3
72
8
73
4
40
0
40
0
40
0
40
0
40
1
40
1
40
1
40
1
41
1
10
91.8315201070462
20
1.02963970410113
30
0
41
1
10
91.8391071176052
20
1.02423999440771
30
0
41
1
10
91.8467191705328
20
1.01887166253147
30
0
41
1
10
91.854355503576
20
1.01353432304651
30
0
0
SPLINE
5
159
100
AcDbEntity
8
1
62
256
6
ByLayer
370
18
48
1
60
0
100
AcDbSpline
70
4
71
3
72
8
73
4
40
0
40
0
40
0
40
0
40
1
40
1
40
1
40
1
41
1
10
69.6552668481533
20
8.11178933839687
30
0
41
1
10
69.6424060074932
20
8.26708603512142
30
0
41
1
10
69.6297826586653
20
8.42128733486712
30
0
41
1
10
69.6174885417888
20
8.57441294484315
30
0
0
SPLINE
5
15A
100
AcDbEntity
8
1
62
256
6
ByLayer
370
18
48
1
60
0
100
AcDbSpline
70
4
71
3
72
8
73
4
40
0
40
0
40
0
40
0
40
1
40
1
40
1
40
1
41
1
10
80.5429358567658
20
-10.2977588374489
30
0
41
1
10
80.344047785087
20
-10.208604042001
30
0
41
1
10
80.1448829439529
20
-10.1183103280864
30
0
41
1
10
79.9454215376824
20
-10.0269264683537
30
0
0
SPLINE
5
15B
100
AcDbEntity
8
1
62
256
6
ByLayer
370
13
48
1
60
0
100
AcDbSpline
70
4
71
3
72
14
73
10
40
0
40
0
40
0
40
0
40
0.25
40
0.25
40
0.5
40
0.5
40
0.75
40
0.75
40
1
40
1
40
1
40
1
41
1
10
91.8768827206746
20
1.06787672089692
30
0
41
1
10
91.6744325839256
20
1.20883795139252
30
0
41
1
10
91.4782561899962
20
1.36627022261931
30
0
41
1
10
91.1077011147314
20
1.71511174277106
30
0
41
1
10
90.9327560910261
20
1.90666778315392
30
0
41
1
10
90.6096623052484
20
2.33408060959332
30
0
41
1
10
90.465881330511
20
2.56421731520044
30
0
41
1
10
90.2230697143151
20
3.06582952526242
30
0
41
1
10
90.1240346324675
20
3.34028385611211
30
0
41
1
10
90.0603310336995
20
3.62455397799525
30
0
0
SPLINE
5
15C
100
AcDbEntity
8
1
62
256
6
ByLayer
370
18
48
1
60
0
100
AcDbSpline
70
4
71
3
72
10
73
6
40
0
40
0
40
0
40
0
40
0.933384171644754
40
0.933384171644754
40
1
40
1
40
1
40
1
41
1
10
69.6174885417888
20
8.57441294484315
30
0
41
1
10
67.6936415816049
20
8.20428642446328
30
0
41
1
10
65.7743321943717
20
7.77541291070361
30
0
41
1
10
63.7174032380814
20
7.26073662389257
30
0
41
1
10
63.580362581074
20
7.22618906579379
30
0
41
1
10
63.4433109692144
20
7.19138874199103
30
0
0
SPLINE
5
15D
100
AcDbEntity
8
1
62
256
6
ByLayer
370
13
48
1
60
0
100
AcDbSpline
70
4
71
3
72
8
73
4
40
0
40
0
40
0
40
0
40
1
40
1
40
1
40
1
41
1
10
90.0331007526844
20
3.62165989125671
30
0
41
1
10
90.0250521659988
20
3.61969726482064
30
0
41
1
10
90.0170036809467
20
3.61773101727377
30
0
41
1
10
90.0089555599151
20
3.61576119889202
30
0
0
SPLINE
5
15E
100
AcDbEntity
8
1
62
256
6
ByLayer
370
13
48
1
60
0
100
AcDbSpline
70
4
71
3
72
8
73
4
40
0
40
0
40
0
40
0
40
1
40
1
40
1
40
1
41
1
10
90.0603310332098
20
3.6245539780017
30
0
41
1
10
90.7052889728261
20
3.6160497007171
30
0
41
1
10
91.3502469124423
20
3.60754542343247
30
0
41
1
10
91.9952048520587
20
3.59904114614781
30
0
0
SPLINE
5
15F
100
AcDbEntity
8
1
62
256
6
ByLayer
370
18
48
1
60
0
100
AcDbSpline
70
4
71
3
72
8
73
4
40
0
40
0
40
0
40
0
40
1
40
1
40
1
40
1
41
1
10
92.9404459135452
20
-0.254422138124283
30
0
41
1
10
92.9519801501747
20
-0.215013802189162
30
0
41
1
10
92.9635751341232
20
-0.175485498330858
30
0
41
1
10
92.9752303727038
20
-0.13583970344601
30
0
0
SPLINE
5
160
100
AcDbEntity
8
1
62
256
6
ByLayer
370
18
48
1
60
0
100
AcDbSpline
70
4
71
3
72
10
73
6
40
0
40
0
40
0
40
0
40
0.5
40
0.5
40
1
40
1
40
1
40
1
41
1
10
90.0559044458498
20
3.64463588251547
30
0
41
1
10
90.3644097874026
20
3.67194710535051
30
0
41
1
10
90.6720533303733
20
3.70460735350673
30
0
41
1
10
91.2842591382075
20
3.78905277640504
30
0
41
1
10
91.5889029217782
20
3.84033197952215
30
0
41
1
10
91.8902452908816
20
3.91210245513136
30
0
0
SPLINE
5
161
100
AcDbEntity
8
1
62
256
6
ByLayer
370
18
48
1
60
0
100
AcDbSpline
70
4
71
3
72
8
73
4
40
0
40
0
40
0
40
0
40
1
40
1
40
1
40
1
41
1
10
66.3352867333766
20
-5.88624857703158
30
0
41
1
10
66.6110259334676
20
-5.84877472687444
30
0
41
1
10
66.9070834472356
20
-5.82850195197975
30
0
41
1
10
67.2188443911521
20
-5.82152338471724
30
0
0
SPLINE
5
162
100
AcDbEntity
8
1
62
256
6
ByLayer
370
13
48
1
60
0
100
AcDbSpline
70
4
71
3
72
18
73
14
40
0
40
0
40
0
40
0
40
0.25
40
0.25
40
0.375
40
0.375
40
0.5
40
0.5
40
0.75
40
0.75
40
0.875
40
0.875
40
1
40
1
40
1
40
1
41
1
10
79.8
20
7.87424252217005
30
0
41
1
10
80.7070744227278
20
7.91587592963867
30
0
41
1
10
81.6139329876586
20
7.93427636973098
30
0
41
1
10
82.973722239874
20
7.93250629597421
30
0
41
1
10
83.4269917581829
20
7.92740023918671
30
0
41
1
10
84.3336942026173
20
7.90884379940624
30
0
41
1
10
84.7871858862546
20
7.89573271265829
30
0
41
1
10
86.1476627609392
20
7.83937281739469
30
0
41
1
10
87.0543586870023
20
7.78059544285037
30
0
41
1
10
88.414052063644
20
7.66560316360562
30
0
41
1
10
88.8674179146687
20
7.62365589415796
30
0
41
1
10
89.7743299515242
20
7.5295970203488
30
0
41
1
10
90.227754044347
20
7.47764550698366
30
0
41
1
10
90.6811308664284
20
7.4210536541805
30
0
0
SPLINE
5
163
100
AcDbEntity
8
1
62
256
6
ByLayer
370
18
48
1
60
0
100
AcDbSpline
70
4
71
3
72
24
73
20
40
0
40
0
40
0
40
0
40
0.0748541013912814
40
0.0748541013912814
40
0.140935951291904
40
0.140935951291904
40
0.207017801192526
40
0.207017801192526
40
0.339181500993772
40
0.339181500993772
40
0.471345200795017
40
0.471345200795017
40
0.603508900596263
40
0.603508900596263
40
0.735672600397509
40
0.735672600397509
40
0.867836300198754
40
0.867836300198754
40
1
40
1
40
1
40
1
41
1
10
63.0913363551807
20
-7.108174307231
30
0
41
1
10
62.0028789740321
20
-7.33048261687981
30
0
41
1
10
60.9144540934626
20
-7.53622637093008
30
0
41
1
10
58.8641578103152
20
-7.89118610316442
30
0
41
1
10
57.9018352992354
20
-8.04418548072837
30
0
41
1
10
55.9789943521973
20
-8.32370303736269
30
0
41
1
10
55.0184623690473
20
-8.45036703107036
30
0
41
1
10
52.1384385073069
20
-8.79041238251986
30
0
41
1
10
50.2205106952533
20
-8.96395520975003
30
0
41
1
10
46.3815871012619
20
-9.19666350163459
30
0
41
1
10
44.4605769952082
20
-9.25529475907771
30
0
41
1
10
40.6079580396886
20
-9.2457981355866
30
0
41
1
10
38.6843515665185
20
-9.17783892494487
30
0
41
1
10
34.837712327388
20
-8.92444248451542
30
0
41
1
10
32.9145233998419
20
-8.73959624618556
30
0
41
1
10
29.0629117170033
20
-8.26403147719935
30
0
41
1
10
27.1404549400542
20
-7.97363705906125
30
0
41
1
10
23.2957502969578
20
-7.29411216737739
30
0
41
1
10
21.37335202772
20
-6.9048909294867
30
0
41
1
10
19.4467307272423
20
-6.46935780681289
30
0
0
SPLINE
5
164
100
AcDbEntity
8
1
62
256
6
ByLayer
370
18
48
1
60
0
100
AcDbSpline
70
4
71
3
72
12
73
8
40
0
40
0
40
0
40
0
40
0.5
40
0.5
40
0.75
40
0.75
40
1
40
1
40
1
40
1
41
1
10
70.9730335025054
20
-9.00349424184694
30
0
41
1
10
72.4261178924457
20
-9.2718319318009
30
0
41
1
10
73.8786100931659
20
-9.49894861370007
30
0
41
1
10
76.0613393885793
20
-9.77374848395755
30
0
41
1
10
76.7898403068553
20
-9.854404805342
30
0
41
1
10
78.24535887744
20
-9.99337865315624
30
0
41
1
10
78.9727539608201
20
-10.0517530499271
30
0
41
1
10
79.7
20
-10.0990367043837
30
0
0
SPLINE
5
165
100
AcDbEntity
8
1
62
256
6
ByLayer
370
18
48
1
60
0
100
AcDbSpline
70
4
71
3
72
8
73
4
40
0
40
0
40
0
40
0
40
1
40
1
40
1
40
1
41
1
10
23.1
20
-8.30984948952442
30
0
41
1
10
24.0006516347647
20
-8.49683673773325
30
0
41
1
10
24.9004487618252
20
-8.67196599069229
30
0
41
1
10
25.8000000000669
20
-8.83422458335787
30
0
0
SPLINE
5
166
100
AcDbEntity
8
1
62
256
6
ByLayer
370
18
48
1
60
0
100
AcDbSpline
70
4
71
3
72
28
73
24
40
0
40
0
40
0
40
0
40
0.0624999999999998
40
0.0624999999999998
40
0.125
40
0.125
40
0.25
40
0.25
40
0.312500000000001
40
0.312500000000001
40
0.375000000000001
40
0.375000000000001
40
0.500000000000001
40
0.500000000000001
40
0.562500000000001
40
0.562500000000001
40
0.625000000000001
40
0.625000000000001
40
0.750000000000001
40
0.750000000000001
40
0.875
40
0.875
40
1
40
1
40
1
40
1
41
1
10
66.3352867333766
20
-5.88624857703161
30
0
41
1
10
65.5497375327084
20
-5.65966559080852
30
0
41
1
10
64.764433905927
20
-5.42647055993527
30
0
41
1
10
63.1937707465795
20
-4.94808981766462
30
0
41
1
10
62.4081603830821
20
-4.70282215986765
30
0
41
1
10
60.0535459122033
20
-3.95200399404729
30
0
41
1
10
58.4861921636184
20
-3.43085208995095
30
0
41
1
10
56.1343227362489
20
-2.62979635036396
30
0
41
1
10
55.3502157881991
20
-2.35959589683944
30
0
41
1
10
53.7810713073341
20
-1.8145675689438
30
0
41
1
10
52.9956761002236
20
-1.53958570079988
30
0
41
1
10
50.6412166102104
20
-0.711513990878274
30
0
41
1
10
49.0732229553209
20
-0.155103597751491
30
0
41
1
10
46.7199078966203
20
0.675274410807447
30
0
41
1
10
45.9352567267754
20
0.951383541610994
30
0
41
1
10
44.3649900384911
20
1.50070476762201
30
0
41
1
10
43.5790253625186
20
1.77403341887847
30
0
41
1
10
41.222326608309
20
2.58645516253722
30
0
41
1
10
39.6526431922927
20
3.11847096087277
30
0
41
1
10
36.5135450059549
20
4.1558189126637
30
0
41
1
10
34.9431209616406
20
4.66153002310642
30
0
41
1
10
31.8063053664871
20
5.62696311273632
30
0
41
1
10
30.2389509496296
20
6.08684306805193
30
0
41
1
10
28.6695072731613
20
6.51675331083013
30
0
0
SPLINE
5
167
100
AcDbEntity
8
1
62
256
6
ByLayer
370
18
48
1
60
0
100
AcDbSpline
70
4
71
3
72
8
73
4
40
0
40
0
40
0
40
0
40
1
40
1
40
1
40
1
41
1
10
17.3564925946583
20
-6.81413378119603
30
0
41
1
10
17.279503586121
20
-6.69163627195158
30
0
41
1
10
17.2245342344105
20
-6.55478485387431
30
0
41
1
10
17.1856234490335
20
-6.40573741490471
30
0
0
SPLINE
5
168
100
AcDbEntity
8
1
62
256
6
ByLayer
370
18
48
1
60
0
100
AcDbSpline
70
4
71
3
72
18
73
14
40
0
40
0
40
0
40
0
40
0.250000000000002
40
0.250000000000002
40
0.375000000000003
40
0.375000000000003
40
0.500000000000004
40
0.500000000000004
40
0.625000000000005
40
0.625000000000005
40
0.750000000000006
40
0.750000000000006
40
1
40
1
40
1
40
1
41
1
10
92.7670543942007
20
-0.990961736732601
30
0
41
1
10
92.7301396678471
20
-1.15070199652325
30
0
41
1
10
92.6849488610752
20
-1.32937758952048
30
0
41
1
10
92.6052307817669
20
-1.62469060718732
30
0
41
1
10
92.5767432976936
20
-1.72734715309278
30
0
41
1
10
92.5169369031267
20
-1.93774447166467
30
0
41
1
10
92.4855005784606
20
-2.04591708618034
30
0
41
1
10
92.4196477409848
20
-2.26804327393427
30
0
41
1
10
92.3852282084291
20
-2.38200270486522
30
0
41
1
10
92.3134146429286
20
-2.61569149236325
30
0
41
1
10
92.2758514878767
20
-2.735942013038
30
0
41
1
10
92.1604985297182
20
-3.09955765463351
30
0
41
1
10
92.0797457391286
20
-3.34688230863321
30
0
41
1
10
91.9952048520587
20
-3.59904114614781
30
0
0
SPLINE
5
169
100
AcDbEntity
8
1
62
256
6
ByLayer
370
18
48
1
60
0
100
AcDbSpline
70
4
71
3
72
18
73
14
40
0
40
0
40
0
40
0
40
0.124999999999983
40
0.124999999999983
40
0.249999999999965
40
0.249999999999965
40
0.499999999999978
40
0.499999999999978
40
0.624999999999983
40
0.624999999999983
40
0.749999999999989
40
0.749999999999989
40
1
40
1
40
1
40
1
41
1
10
69.6174885417888
20
8.57441294484315
30
0
41
1
10
69.6824168609777
20
8.58450522747108
30
0
41
1
10
69.7471773474168
20
8.59587810536175
30
0
41
1
10
69.8740919845155
20
8.62071565558972
30
0
41
1
10
69.9364635173475
20
8.63420737715313
30
0
41
1
10
70.1203855074713
20
8.67771808725888
30
0
41
1
10
70.2387568701739
20
8.71076521249475
30
0
41
1
10
70.4099483517935
20
8.76582618527107
30
0
41
1
10
70.4659478302395
20
8.78509689976582
30
0
41
1
10
70.5757763815521
20
8.82539847359729
30
0
41
1
10
70.6296207846179
20
8.84644837495563
30
0
41
1
10
70.7853964487326
20
8.91107486163418
30
0
41
1
10
70.8824736651075
20
8.95643115538908
30
0
41
1
10
70.9730335025054
20
9.00349424184694
30
0
0
SPLINE
5
16A
100
AcDbEntity
8
1
62
256
6
ByLayer
370
18
48
1
60
0
100
AcDbSpline
70
4
71
3
72
8
73
4
40
0
40
0
40
0
40
0
40
1
40
1
40
1
40
1
41
1
10
90.6811308664283
20
7.42105365418053
30
0
41
1
10
90.4055822591556
20
8.26760493245928
30
0
41
1
10
90.1253981531166
20
9.11916039445549
30
0
41
1
10
89.8404156153231
20
9.97589593205214
30
0
0
SPLINE
5
16B
100
AcDbEntity
8
1
62
256
6
ByLayer
370
18
48
1
60
0
100
AcDbSpline
70
4
71
3
72
12
73
8
40
0
40
0
40
0
40
0
40
0.5
40
0.5
40
0.75
40
0.75
40
1
40
1
40
1
40
1
41
1
10
70.9730335025054
20
9.00349424184697
30
0
41
1
10
72.4259270818819
20
9.27179669526112
30
0
41
1
10
73.8782286382004
20
9.49888899394506
30
0
41
1
10
76.0606702464448
20
9.77367003508888
30
0
41
1
10
76.7890451048065
20
9.85432161606866
30
0
41
1
10
78.2447237662816
20
9.99332526807322
30
0
41
1
10
78.9723575891671
20
10.0517272788685
30
0
41
1
10
79.7
20
10.0990367043837
30
0
0
SPLINE
5
16C
100
AcDbEntity
8
1
62
256
6
ByLayer
370
13
48
1
60
0
100
AcDbSpline
70
4
71
3
72
8
73
4
40
0
40
0
40
0
40
0
40
1
40
1
40
1
40
1
41
1
10
90.0304542827566
20
3.63365769234412
30
0
41
1
10
90.0313364393992
20
3.62965842531497
30
0
41
1
10
90.0322185960417
20
3.62565915828586
30
0
41
1
10
90.0331007526843
20
3.62165989125671
30
0
0
SPLINE
5
16D
100
AcDbEntity
8
1
62
256
6
ByLayer
370
18
48
1
60
0
100
AcDbSpline
70
4
71
3
72
18
73
14
40
0
40
0
40
0
40
0
40
0.125000000000006
40
0.125000000000006
40
0.250000000000013
40
0.250000000000013
40
0.499999999999979
40
0.499999999999979
40
0.624999999999984
40
0.624999999999984
40
0.749999999999989
40
0.749999999999989
40
1
40
1
40
1
40
1
41
1
10
69.6174885417889
20
-8.57441294484315
30
0
41
1
10
69.6824168609777
20
-8.58450522747111
30
0
41
1
10
69.7471773474168
20
-8.59587810536175
30
0
41
1
10
69.8740919845155
20
-8.62071565558972
30
0
41
1
10
69.9364635173475
20
-8.63420737715313
30
0
41
1
10
70.1203855074713
20
-8.67771808725888
30
0
41
1
10
70.2387568701739
20
-8.71076521249475
30
0
41
1
10
70.4099483517936
20
-8.7658261852711
30
0
41
1
10
70.4659478302396
20
-8.78509689976579
30
0
41
1
10
70.5757763815521
20
-8.82539847359729
30
0
41
1
10
70.6296207846179
20
-8.84644837495563
30
0
41
1
10
70.7853964487326
20
-8.91107486163418
30
0
41
1
10
70.8824736651075
20
-8.95643115538905
30
0
41
1
10
70.9730335025054
20
-9.00349424184694
30
0
0
SPLINE
5
16E
100
AcDbEntity
8
1
62
256
6
ByLayer
370
18
48
1
60
0
100
AcDbSpline
70
4
71
3
72
8
73
4
40
0
40
0
40
0
40
0
40
1
40
1
40
1
40
1
41
1
10
80.5429358567658
20
-10.4307587299418
30
0
41
1
10
81.2419855039154
20
-10.4633061474654
30
0
41
1
10
81.9404153759467
20
-10.4806644339142
30
0
41
1
10
82.6380339360462
20
-10.4830619226826
30
0
0
SPLINE
5
16F
100
AcDbEntity
8
1
62
256
6
ByLayer
370
18
48
1
60
0
100
AcDbSpline
70
4
71
3
72
8
73
4
40
0
40
0
40
0
40
0
40
1
40
1
40
1
40
1
41
1
10
17.3564925946583
20
5.98194651454483
30
0
41
1
10
17.3863529167058
20
5.97857287519639
30
0
41
1
10
17.4162165398433
20
5.9751682284037
30
0
41
1
10
17.446083397744
20
5.97173272672109
30
0
0
SPLINE
5
170
100
AcDbEntity
8
1
62
256
6
ByLayer
370
18
48
1
60
0
100
AcDbSpline
70
4
71
3
72
16
73
12
40
0
40
0
40
0
40
0
40
0.250000000000026
40
0.250000000000026
40
0.375000000000028
40
0.375000000000028
40
0.500000000000031
40
0.500000000000031
40
0.750000000000016
40
0.750000000000016
40
1
40
1
40
1
40
1
41
1
10
65.430190997867
20
6.73157127592273
30
0
41
1
10
65.5809037924528
20
6.68244069635594
30
0
41
1
10
65.7354927740307
20
6.64354890836577
30
0
41
1
10
65.9730615402495
20
6.60094614372815
30
0
41
1
10
66.0532037248754
20
6.58937723046856
30
0
41
1
10
66.2154362402841
20
6.57169587484944
30
0
41
1
10
66.2978569396698
20
6.56557865489972
30
0
41
1
10
66.5450452329565
20
6.55592989368205
30
0
41
1
10
66.7107278359091
20
6.56103016253536
30
0
41
1
10
67.0377172447012
20
6.59391398042979
30
0
41
1
10
67.1994560389607
20
6.62176493367588
30
0
41
1
10
67.355974088693
20
6.65993777387467
30
0
0
SPLINE
5
171
100
AcDbEntity
8
1
62
256
6
ByLayer
370
18
48
1
60
0
100
AcDbSpline
70
4
71
3
72
8
73
4
40
0
40
0
40
0
40
0
40
1
40
1
40
1
40
1
41
1
10
71.5267789440367
20
8.23852818327626
30
0
41
1
10
71.5884466036289
20
8.38534252302142
30
0
41
1
10
71.6597798542999
20
8.52590684185157
30
0
41
1
10
71.7404110749573
20
8.66051229125003
30
0
0
SPLINE
5
172
100
AcDbEntity
8
1
62
256
6
ByLayer
370
18
48
1
60
0
100
AcDbSpline
70
4
71
3
72
8
73
4
40
0
40
0
40
0
40
0
40
1
40
1
40
1
40
1
41
1
10
79.9454215376824
20
-9.90870860752983
30
0
41
1
10
79.9454215376824
20
-9.88086316420549
30
0
41
1
10
79.9401432435166
20
-9.85145707127489
30
0
41
1
10
79.929662989259
20
-9.82051253360117
30
0
0
SPLINE
5
173
100
AcDbEntity
8
1
62
256
6
ByLayer
370
18
48
1
60
0
100
AcDbSpline
70
4
71
3
72
8
73
4
40
0
40
0
40
0
40
0
40
1
40
1
40
1
40
1
41
1
10
79.7035357251331
20
10.0959855090449
30
0
41
1
10
79.7023571393549
20
10.0970027173998
30
0
41
1
10
79.7011785643011
20
10.0980197825265
30
0
41
1
10
79.7
20
10.0990367043837
30
0
0
SPLINE
5
174
100
AcDbEntity
8
1
62
256
6
ByLayer
370
18
48
1
60
0
100
AcDbSpline
70
4
71
3
72
18
73
14
40
0
40
0
40
0
40
0
40
0.235162498643228
40
0.235162498643228
40
0.352743747964842
40
0.352743747964842
40
0.470324997286456
40
0.470324997286456
40
0.705487495929685
40
0.705487495929685
40
0.940649994572913
40
0.940649994572913
40
1
40
1
40
1
40
1
41
1
10
23.398015026898
20
5.30594576200517
30
0
41
1
10
25.3235471591658
20
4.76233085853303
30
0
41
1
10
27.2472839128991
20
4.18394272630809
30
0
41
1
10
30.1363230951333
20
3.28318191390406
30
0
41
1
10
31.1005741690666
20
2.97720638997458
30
0
41
1
10
33.027277295857
20
2.35885355683521
30
0
41
1
10
33.9897461678312
20
2.04648302925909
30
0
41
1
10
36.8761294031833
20
1.10481278618769
30
0
41
1
10
38.7992472060738
20
0.471646742996768
30
0
41
1
10
42.6496135587061
20
-0.785071415049657
30
0
41
1
10
44.5765888006583
20
-1.40945540192004
30
0
41
1
10
46.9955577146397
20
-2.17602947585132
30
0
41
1
10
47.4828614933227
20
-2.32959658060142
30
0
41
1
10
47.970025152035
20
-2.48201853143101
30
0
0
SPLINE
5
175
100
AcDbEntity
8
1
62
256
6
ByLayer
370
18
48
1
60
0
100
AcDbSpline
70
4
71
3
72
12
73
8
40
0
40
0
40
0
40
0
40
0.499999999999985
40
0.499999999999985
40
0.749999999999993
40
0.749999999999993
40
1
40
1
40
1
40
1
41
1
10
23.1
20
5.90166472320269
30
0
41
1
10
22.8724947809843
20
5.93021048763814
30
0
41
1
10
22.6437244190435
20
5.93540269937665
30
0
41
1
10
22.2986979805321
20
5.91047767138667
30
0
41
1
10
22.1828827787442
20
5.89655633203833
30
0
41
1
10
21.9528325299776
20
5.8575659714889
30
0
41
1
10
21.8397789924071
20
5.83274847429544
30
0
41
1
10
21.7286343923763
20
5.80273697794487
30
0
0
SPLINE
5
176
100
AcDbEntity
8
1
62
256
6
ByLayer
370
18
48
1
60
0
100
AcDbSpline
70
4
71
3
72
20
73
16
40
0
40
0
40
0
40
0
40
0.249999999999991
40
0.249999999999991
40
0.374999999999993
40
0.374999999999993
40
0.499999999999994
40
0.499999999999994
40
0.624999999999996
40
0.624999999999996
40
0.749999999999997
40
0.749999999999997
40
0.874999999999999
40
0.874999999999999
40
1
40
1
40
1
40
1
41
1
10
19.1889209001096
20
-6.41080724230497
30
0
41
1
10
18.9419546208805
20
-6.37540446177584
30
0
41
1
10
18.708958548497
20
-6.35002168981714
30
0
41
1
10
18.3804472131394
20
-6.32653550877433
30
0
41
1
10
18.2766793694595
20
-6.32130265063094
30
0
41
1
10
18.0812556807092
20
-6.31542013833601
30
0
41
1
10
17.9893456885585
20
-6.31475287524842
30
0
41
1
10
17.8167827513257
20
-6.31740702185638
30
0
41
1
10
17.7361018531666
20
-6.3207633002711
30
0
41
1
10
17.5897254495228
20
-6.3306802490352
30
0
41
1
10
17.5234128509298
20
-6.33724107780728
30
0
41
1
10
17.4038328102373
20
-6.35298335549783
30
0
41
1
10
17.3503636948292
20
-6.36221433433809
30
0
41
1
10
17.2573957569135
20
-6.38268351197505
30
0
41
1
10
17.2181153903726
20
-6.39384533297442
30
0
41
1
10
17.1856234490335
20
-6.40573741490471
30
0
0
SPLINE
5
177
100
AcDbEntity
8
1
62
256
6
ByLayer
370
18
48
1
60
0
100
AcDbSpline
70
4
71
3
72
8
73
4
40
0
40
0
40
0
40
0
40
1
40
1
40
1
40
1
41
1
10
21
20
-7.63108079748613
30
0
41
1
10
20.5399654557241
20
-7.52747634058625
30
0
41
1
10
20.0787151341542
20
-7.46489089908661
30
0
41
1
10
19.6179065655818
20
-7.44415485087882
30
0
0
SPLINE
5
178
100
AcDbEntity
8
1
62
256
6
ByLayer
370
18
48
1
60
0
100
AcDbSpline
70
4
71
3
72
8
73
4
40
0
40
0
40
0
40
0
40
1
40
1
40
1
40
1
41
1
10
90.0304542827566
20
3.63365769234412
30
0
41
1
10
90.0232746731912
20
3.62770468568263
30
0
41
1
10
90.0161084841802
20
3.62173897443483
30
0
41
1
10
90.0089555599152
20
3.61576119889202
30
0
0
SPLINE
5
179
100
AcDbEntity
8
1
62
256
6
ByLayer
370
18
48
1
60
0
100
AcDbSpline
70
4
71
3
72
8
73
4
40
0
40
0
40
0
40
0
40
1
40
1
40
1
40
1
41
1
10
23.1
20
5.90166472320269
30
0
41
1
10
23.2564346650677
20
5.87023482385916
30
0
41
1
10
23.4075139227105
20
5.82861059277047
30
0
41
1
10
23.5534566085468
20
5.77690563654997
30
0
0
SPLINE
5
17A
100
AcDbEntity
8
1
62
256
6
ByLayer
370
18
48
1
60
0
100
AcDbSpline
70
4
71
3
72
12
73
8
40
0
40
0
40
0
40
0
40
0.5
40
0.5
40
0.75
40
0.75
40
1
40
1
40
1
40
1
41
1
10
91.8902452908816
20
-3.91210245513148
30
0
41
1
10
91.6804851250417
20
-4.491128799244
30
0
41
1
10
91.4743288566179
20
-5.07376157552332
30
0
41
1
10
91.1708477978852
20
-5.95346813037915
30
0
41
1
10
91.070529147697
20
-6.24804831382968
30
0
41
1
10
90.8725589955862
20
-6.83775747997291
30
0
41
1
10
90.7756936534028
20
-7.13053413755824
30
0
41
1
10
90.6811308664283
20
-7.42105365418053
30
0
0
SPLINE
5
17B
100
AcDbEntity
8
1
62
256
6
ByLayer
370
18
48
1
60
0
100
AcDbSpline
70
4
71
3
72
8
73
4
40
0
40
0
40
0
40
0
40
1
40
1
40
1
40
1
41
1
10
84.3282619501496
20
1.20004969927791
30
0
41
1
10
84.2812272038794
20
1.12161202197686
30
0
41
1
10
84.2337106910558
20
1.04439080244867
30
0
41
1
10
84.18569813358
20
0.968422092809675
30
0
0
SPLINE
5
17C
100
AcDbEntity
8
1
62
256
6
ByLayer
370
18
48
1
60
0
100
AcDbSpline
70
4
71
3
72
8
73
4
40
0
40
0
40
0
40
0
40
1
40
1
40
1
40
1
41
1
10
19.1889209001098
20
-6.410807242305
30
0
41
1
10
19.2753723682567
20
-6.42681989636648
30
0
41
1
10
19.3613108802261
20
-6.44639033137463
30
0
41
1
10
19.4467307272424
20
-6.46935780681289
30
0
0
SPLINE
5
17D
100
AcDbEntity
8
1
62
256
6
ByLayer
370
18
48
1
60
0
100
AcDbSpline
70
4
71
3
72
8
73
4
40
0
40
0
40
0
40
0
40
1
40
1
40
1
40
1
41
1
10
16.8976924524367
20
-6.2658023410311
30
0
41
1
10
16.9913408013572
20
-6.31601211422122
30
0
41
1
10
17.0872662858839
20
-6.36259874499075
30
0
41
1
10
17.1856234490335
20
-6.40573741490471
30
0
0
LINE
5
70
100
AcDbEntity
8
81
62
256
6
ByLayer
370
18
48
1
60
0
100
AcDbLine
10
79.8
20
0
30
0
11
84.8
21
0
31
0
39
0
210
0
220
0
230
1
0
LINE
5
71
100
AcDbEntity
8
1
62
256
6
ByLayer
370
18
48
1
60
0
100
AcDbLine
10
6.0005
20
16
30
0
11
0.2
21
16
31
0
39
0
210
0
220
0
230
1
0
LINE
5
73
100
AcDbEntity
8
1
62
256
6
ByLayer
370
18
48
1
60
0
100
AcDbLine
10
0.2
20
-16
30
0
11
6.0005
21
-16
31
0
39
0
210
0
220
0
230
1
0
LINE
5
74
100
AcDbEntity
8
1
62
256
6
ByLayer
370
18
48
1
60
0
100
AcDbLine
10
0.2
20
16
30
0
11
0
21
15.8
31
0
39
0
210
0
220
0
230
1
0
LINE
5
75
100
AcDbEntity
8
1
62
256
6
ByLayer
370
18
48
1
60
0
100
AcDbLine
10
0
20
-15.8
30
0
11
0.2
21
-16
31
0
39
0
210
0
220
0
230
1
0
LINE
5
76
100
AcDbEntity
8
SK1
62
256
6
ByLayer
370
18
48
1
60
0
100
AcDbLine
10
-55
20
12.49675
30
0
11
-56
21
11.49675
31
0
39
0
210
0
220
0
230
1
0
LINE
5
78
100
AcDbEntity
8
SK1
62
256
6
ByLayer
370
18
48
1
60
0
100
AcDbLine
10
-56
20
-11.49675
30
0
11
-55
21
-12.49675
31
0
39
0
210
0
220
0
230
1
0
LINE
5
79
100
AcDbEntity
8
SK1
62
256
6
ByLayer
370
18
48
1
60
0
100
AcDbLine
10
-1.6
20
-12.49675
30
0
11
-1.144243
21
-12.284227
31
0
39
0
210
0
220
0
230
1
0
LINE
5
7A
100
AcDbEntity
8
SK1
62
256
6
ByLayer
370
18
48
1
60
0
100
AcDbLine
10
-1.144243
20
12.284227
30
0
11
-1.6
21
12.49675
31
0
39
0
210
0
220
0
230
1
0
LINE
5
7B
100
AcDbEntity
8
SK1
62
256
6
ByLayer
370
18
48
1
60
0
100
AcDbLine
10
-1.6
20
12.49675
30
0
11
-53.3
21
12.49675
31
0
39
0
210
0
220
0
230
1
0
LINE
5
7C
100
AcDbEntity
8
SK1
62
256
6
ByLayer
370
18
48
1
60
0
100
AcDbLine
10
-53.3
20
-12.49675
30
0
11
-1.6
21
-12.49675
31
0
39
0
210
0
220
0
230
1
0
LINE
5
7D
100
AcDbEntity
8
SK1
62
256
6
ByLayer
370
18
48
1
60
0
100
AcDbLine
10
-54.6
20
-12.49675
30
0
11
-54.449692
21
-12.375033
31
0
39
0
210
0
220
0
230
1
0
LINE
5
7E
100
AcDbEntity
8
SK1
62
256
6
ByLayer
370
18
48
1
60
0
100
AcDbLine
10
-54.449692
20
12.375033
30
0
11
-54.6
21
12.49675
31
0
39
0
210
0
220
0
230
1
0
LINE
5
7F
100
AcDbEntity
8
SK1
62
256
6
ByLayer
370
18
48
1
60
0
100
AcDbLine
10
-53.3
20
12.49675
30
0
11
-53.426311
21
12.388738
31
0
39
0
210
0
220
0
230
1
0
LINE
5
80
100
AcDbEntity
8
SK1
62
256
6
ByLayer
370
18
48
1
60
0
100
AcDbLine
10
-53.426311
20
-12.388738
30
0
11
-53.3
21
-12.49675
31
0
39
0
210
0
220
0
230
1
0
LINE
5
81
100
AcDbEntity
8
SK1
62
256
6
ByLayer
370
18
48
1
60
0
100
AcDbLine
10
-54.6
20
12.49675
30
0
11
-55
21
12.49675
31
0
39
0
210
0
220
0
230
1
0
LINE
5
82
100
AcDbEntity
8
SK1
62
256
6
ByLayer
370
18
48
1
60
0
100
AcDbLine
10
-55
20
-12.49675
30
0
11
-54.6
21
-12.49675
31
0
39
0
210
0
220
0
230
1
0
LINE
5
83
100
AcDbEntity
8
SK1
62
256
6
ByLayer
370
18
48
1
60
0
100
AcDbLine
10
-0.975195
20
-12.24675
30
0
11
-0.15
21
-12.24675
31
0
39
0
210
0
220
0
230
1
0
LINE
5
84
100
AcDbEntity
8
SK1
62
256
6
ByLayer
370
18
48
1
60
0
100
AcDbLine
10
-0.15
20
12.24675
30
0
11
-0.975195
21
12.24675
31
0
39
0
210
0
220
0
230
1
0
LINE
5
85
100
AcDbEntity
8
1
62
256
6
ByLayer
370
18
48
1
60
0
100
AcDbLine
10
25.8
20
10.25
30
0
11
23.1
21
10.25
31
0
39
0
210
0
220
0
230
1
0
LINE
5
86
100
AcDbEntity
8
1
62
256
6
ByLayer
370
18
48
1
60
0
100
AcDbLine
10
23.1
20
10.25
30
0
11
21
21
10.05
31
0
39
0
210
0
220
0
230
1
0
LINE
5
87
100
AcDbEntity
8
1
62
256
6
ByLayer
370
18
48
1
60
0
100
AcDbLine
10
17.356493
20
-10.92716
30
0
11
17.446083
21
-10.882736
31
0
39
0
210
0
220
0
230
1
0
LINE
5
88
100
AcDbEntity
8
1
62
256
6
ByLayer
370
18
48
1
60
0
100
AcDbLine
10
21
20
-10.05
30
0
11
23.1
21
-10.25
31
0
39
0
210
0
220
0
230
1
0
LINE
5
89
100
AcDbEntity
8
1
62
256
6
ByLayer
370
18
48
1
60
0
100
AcDbLine
10
84.741342
20
-10.25825
30
0
11
89.40132
21
-10.25825
31
0
39
0
210
0
220
0
230
1
0
LINE
5
8A
100
AcDbEntity
8
1
62
256
6
ByLayer
370
18
48
1
60
0
100
AcDbLine
10
84.701981
20
10.490284
30
0
11
82.635729
21
10.483052
31
0
39
0
210
0
220
0
230
1
0
LINE
5
8B
100
AcDbEntity
8
1
62
256
6
ByLayer
370
18
48
1
60
0
100
AcDbLine
10
82.635729
20
-10.483052
30
0
11
84.701981
21
-10.490284
31
0
39
0
210
0
220
0
230
1
0
LINE
5
8C
100
AcDbEntity
8
1
62
256
6
ByLayer
370
18
48
1
60
0
100
AcDbLine
10
17.446083
20
10.882736
30
0
11
17.356493
21
10.92716
31
0
39
0
210
0
220
0
230
1
0
LINE
5
8D
100
AcDbEntity
8
1
62
256
6
ByLayer
370
18
48
1
60
0
100
AcDbLine
10
23.1
20
-10.25
30
0
11
25.8
21
-10.25
31
0
39
0
210
0
220
0
230
1
0
LINE
5
8E
100
AcDbEntity
8
80
62
256
6
ByLayer
370
18
48
1
60
0
100
AcDbLine
10
0
20
0
30
0
11
-5
21
0
31
0
39
0
210
0
220
0
230
1
0
LINE
5
8F
100
AcDbEntity
8
4
62
256
6
ByLayer
370
18
48
0.05
60
0
100
AcDbLine
10
79.8
20
0
30
0
11
0
21
0
31
0
39
0
210
0
220
0
230
1
0
LINE
5
91
100
AcDbEntity
8
SK4
62
256
6
ByLayer
370
18
48
0.05
60
0
100
AcDbLine
10
98
20
0
30
0
11
-61
21
0
31
0
39
0
210
0
220
0
230
1
0
LINE
5
93
100
AcDbEntity
8
SK1
62
256
6
ByLayer
370
18
48
1
60
0
100
AcDbLine
10
-56
20
0
30
0
11
-56
21
-11.49675
31
0
39
0
210
0
220
0
230
1
0
LINE
5
94
100
AcDbEntity
8
SK1
62
256
6
ByLayer
370
18
48
1
60
0
100
AcDbLine
10
-56
20
11.49675
30
0
11
-56
21
0
31
0
39
0
210
0
220
0
230
1
0
LINE
5
95
100
AcDbEntity
8
SK1
62
256
6
ByLayer
370
13
48
1
60
0
100
AcDbLine
10
-1.144243
20
0
30
0
11
-1.144243
21
-12.284227
31
0
39
0
210
0
220
0
230
1
0
LINE
5
96
100
AcDbEntity
8
SK1
62
256
6
ByLayer
370
13
48
1
60
0
100
AcDbLine
10
-1.144243
20
12.284227
30
0
11
-1.144243
21
0
31
0
39
0
210
0
220
0
230
1
0
LINE
5
97
100
AcDbEntity
8
SK1
62
256
6
ByLayer
370
18
48
1
60
0
100
AcDbLine
10
-55
20
0
30
0
11
-55
21
-12.49675
31
0
39
0
210
0
220
0
230
1
0
LINE
5
98
100
AcDbEntity
8
SK1
62
256
6
ByLayer
370
18
48
1
60
0
100
AcDbLine
10
-55
20
12.49675
30
0
11
-55
21
0
31
0
39
0
210
0
220
0
230
1
0
LINE
5
99
100
AcDbEntity
8
SK1
62
256
6
ByLayer
370
18
48
1
60
0
100
AcDbLine
10
-6.5
20
6.998498
30
0
11
-49.5
21
6.998498
31
0
39
0
210
0
220
0
230
1
0
LINE
5
9A
100
AcDbEntity
8
SK1
62
256
6
ByLayer
370
13
48
1
60
0
100
AcDbLine
10
-54.449692
20
-12.375033
30
0
11
-54.449692
21
0
31
0
39
0
210
0
220
0
230
1
0
LINE
5
9B
100
AcDbEntity
8
SK1
62
256
6
ByLayer
370
13
48
1
60
0
100
AcDbLine
10
-54.449692
20
0
30
0
11
-54.449692
21
12.375033
31
0
39
0
210
0
220
0
230
1
0
LINE
5
9C
100
AcDbEntity
8
SK1
62
256
6
ByLayer
370
13
48
1
60
0
100
AcDbLine
10
-53.426311
20
-12.388738
30
0
11
-53.426311
21
0
31
0
39
0
210
0
220
0
230
1
0
LINE
5
9D
100
AcDbEntity
8
SK1
62
256
6
ByLayer
370
13
48
1
60
0
100
AcDbLine
10
-53.426311
20
0
30
0
11
-53.426311
21
12.388738
31
0
39
0
210
0
220
0
230
1
0
LINE
5
9E
100
AcDbEntity
8
SK1
62
256
6
ByLayer
370
18
48
1
60
0
100
AcDbLine
10
-53.3
20
0
30
0
11
-53.3
21
-12.49675
31
0
39
0
210
0
220
0
230
1
0
LINE
5
9F
100
AcDbEntity
8
SK1
62
256
6
ByLayer
370
18
48
1
60
0
100
AcDbLine
10
-53.3
20
12.49675
30
0
11
-53.3
21
0
31
0
39
0
210
0
220
0
230
1
0
LINE
5
A0
100
AcDbEntity
8
SK1
62
256
6
ByLayer
370
18
48
1
60
0
100
AcDbLine
10
-1.6
20
-12.49675
30
0
11
-1.6
21
0
31
0
39
0
210
0
220
0
230
1
0
LINE
5
A1
100
AcDbEntity
8
SK1
62
256
6
ByLayer
370
18
48
1
60
0
100
AcDbLine
10
-1.6
20
0
30
0
11
-1.6
21
12.49675
31
0
39
0
210
0
220
0
230
1
0
LINE
5
A2
100
AcDbEntity
8
SK1
62
256
6
ByLayer
370
13
48
1
60
0
100
AcDbLine
10
-49.5
20
6.998498
30
0
11
-49.5
21
-6.998498
31
0
39
0
210
0
220
0
230
1
0
LINE
5
A3
100
AcDbEntity
8
SK1
62
256
6
ByLayer
370
13
48
1
60
0
100
AcDbLine
10
-6.5
20
-6.998498
30
0
11
-6.5
21
6.998498
31
0
39
0
210
0
220
0
230
1
0
LINE
5
A4
100
AcDbEntity
8
SK1
62
256
6
ByLayer
370
18
48
1
60
0
100
AcDbLine
10
-49.5
20
-6.998498
30
0
11
-6.5
21
-6.998498
31
0
39
0
210
0
220
0
230
1
0
LINE
5
A5
100
AcDbEntity
8
SK1
62
256
6
ByLayer
370
18
48
1
60
0
100
AcDbLine
10
-54.6
20
-12.49675
30
0
11
-54.6
21
12.49675
31
0
39
0
210
0
220
0
230
1
0
LINE
5
A6
100
AcDbEntity
8
SK1
62
256
6
ByLayer
370
13
48
1
60
0
100
AcDbLine
10
-0.15
20
0
30
0
11
-0.15
21
-12.24675
31
0
39
0
210
0
220
0
230
1
0
LINE
5
A7
100
AcDbEntity
8
SK1
62
256
6
ByLayer
370
13
48
1
60
0
100
AcDbLine
10
-0.15
20
12.24675
30
0
11
-0.15
21
0
31
0
39
0
210
0
220
0
230
1
0
LINE
5
A8
100
AcDbEntity
8
SK1
62
256
6
ByLayer
370
13
48
1
60
0
100
AcDbLine
10
-0.975195
20
12.24675
30
0
11
-0.975195
21
-12.24675
31
0
39
0
210
0
220
0
230
1
0
LINE
5
A9
100
AcDbEntity
8
1
62
256
6
ByLayer
370
18
48
1
60
0
100
AcDbLine
10
88.154262
20
-9.55296
30
0
11
89.942563
21
-4.463316
31
0
39
0
210
0
220
0
230
1
0
LINE
5
AA
100
AcDbEntity
8
1
62
256
6
ByLayer
370
18
48
1
60
0
100
AcDbLine
10
87.206326
20
-9.496834
30
0
11
87.762286
21
-9.009726
31
0
39
0
210
0
220
0
230
1
0
LINE
5
AB
100
AcDbEntity
8
1
62
256
6
ByLayer
370
18
48
1
60
0
100
AcDbLine
10
80.707546
20
-9.55296
30
0
11
80.707546
21
-9.487673
31
0
39
0
210
0
220
0
230
1
0
LINE
5
AC
100
AcDbEntity
8
1
62
256
6
ByLayer
370
18
48
1
60
0
100
AcDbLine
10
89.473004
20
-10.256707
30
0
11
93.005308
21
0.000285
31
0
39
0
210
0
220
0
230
1
0
LINE
5
AD
100
AcDbEntity
8
1
62
256
6
ByLayer
370
18
48
1
60
0
100
AcDbLine
10
23.1
20
-8.309849
30
0
11
23.1
21
-10.25
31
0
39
0
210
0
220
0
230
1
0
LINE
5
AE
100
AcDbEntity
8
1
62
256
6
ByLayer
370
18
48
1
60
0
100
AcDbLine
10
87.765798
20
-3.581407
30
0
11
87.765647
21
-3.5798
31
0
39
0
210
0
220
0
230
1
0
LINE
5
AF
100
AcDbEntity
8
1
62
256
6
ByLayer
370
18
48
1
60
0
100
AcDbLine
10
92.97523
20
0.13584
30
0
11
93.005308
21
0.000285
31
0
39
0
210
0
220
0
230
1
0
LINE
5
B0
100
AcDbEntity
8
1
62
256
6
ByLayer
370
18
48
1
60
0
100
AcDbLine
10
92.917278
20
0.340903
30
0
11
92.767054
21
0.990962
31
0
39
0
210
0
220
0
230
1
0
LINE
5
B1
100
AcDbEntity
8
1
62
256
6
ByLayer
370
18
48
1
60
0
100
AcDbLine
10
0
20
15.8
30
0
11
0
21
-15.8
31
0
39
0
210
0
220
0
230
1
0
LINE
5
B2
100
AcDbEntity
8
1
62
256
6
ByLayer
370
18
48
1
60
0
100
AcDbLine
10
80.542936
20
-10.430759
30
0
11
80.542936
21
-10.297759
31
0
39
0
210
0
220
0
230
1
0
LINE
5
B3
100
AcDbEntity
8
1
62
256
6
ByLayer
370
18
48
1
60
0
100
AcDbLine
10
79.8
20
-9.710328
30
0
11
79.8
21
-9.746039
31
0
39
0
210
0
220
0
230
1
0
LINE
5
B4
100
AcDbEntity
8
1
62
256
6
ByLayer
370
18
48
1
60
0
100
AcDbLine
10
79.945422
20
-10.026926
30
0
11
79.945422
21
-9.908709
31
0
39
0
210
0
220
0
230
1
0
LINE
5
B5
100
AcDbEntity
8
1
62
256
6
ByLayer
370
18
48
1
60
0
100
AcDbLine
10
87.765647
20
-3.5798
30
0
11
86.318856
21
1.494066
31
0
39
0
210
0
220
0
230
1
0
LINE
5
B6
100
AcDbEntity
8
1
62
256
6
ByLayer
370
18
48
1
60
0
100
AcDbLine
10
87.015446
20
-8.252871
30
0
11
87.765798
21
-9.003223
31
0
39
0
210
0
220
0
230
1
0
LINE
5
B7
100
AcDbEntity
8
1
62
256
6
ByLayer
370
18
48
1
60
0
100
AcDbLine
10
71.5
20
-3.630566
30
0
11
71.5
21
5.493206
31
0
39
0
210
0
220
0
230
1
0
LINE
5
B8
100
AcDbEntity
8
1
62
256
6
ByLayer
370
18
48
1
60
0
100
AcDbLine
10
90.025939
20
-4.371896
30
0
11
91.809077
21
-2.413963
31
0
39
0
210
0
220
0
230
1
0
LINE
5
B9
100
AcDbEntity
8
1
62
256
6
ByLayer
370
13
48
1
60
0
100
AcDbLine
10
90.05966
20
3.627612
30
0
11
90.055904
21
3.644636
31
0
39
0
210
0
220
0
230
1
0
LINE
5
BA
100
AcDbEntity
8
1
62
256
6
ByLayer
370
18
48
1
60
0
100
AcDbLine
10
80.877609
20
-9.500012
30
0
11
87.199021
21
-9.500012
31
0
39
0
210
0
220
0
230
1
0
LINE
5
BB
100
AcDbEntity
8
1
62
256
6
ByLayer
370
18
48
1
60
0
100
AcDbLine
10
79.8
20
-9.805964
30
0
11
79.8
21
-9.746039
31
0
39
0
210
0
220
0
230
1
0
LINE
5
BC
100
AcDbEntity
8
1
62
256
6
ByLayer
370
18
48
1
60
0
100
AcDbLine
10
87.199021
20
-9.500012
30
0
11
87.206326
21
-9.496834
31
0
39
0
210
0
220
0
230
1
0
LINE
5
BD
100
AcDbEntity
8
1
62
256
6
ByLayer
370
18
48
1
60
0
100
AcDbLine
10
93.005308
20
-0.000285
30
0
11
93.005308
21
0.000285
31
0
39
0
210
0
220
0
230
1
0
LINE
5
BE
100
AcDbEntity
8
1
62
256
6
ByLayer
370
18
48
1
60
0
100
AcDbLine
10
85.709416
20
-3.5798
30
0
11
87.765647
21
-3.5798
31
0
39
0
210
0
220
0
230
1
0
LINE
5
BF
100
AcDbEntity
8
1
62
256
6
ByLayer
370
18
48
1
60
0
100
AcDbLine
10
25.8
20
-10.25
30
0
11
25.8
21
-8.834225
31
0
39
0
210
0
220
0
230
1
0
LINE
5
C0
100
AcDbEntity
8
1
62
256
6
ByLayer
370
18
48
1
60
0
100
AcDbLine
10
87.765798
20
-9.003223
30
0
11
87.765798
21
-3.581407
31
0
39
0
210
0
220
0
230
1
0
LINE
5
C1
100
AcDbEntity
8
1
62
256
6
ByLayer
370
13
48
1
60
0
100
AcDbLine
10
6.0005
20
0
30
0
11
6.0005
21
-16
31
0
39
0
210
0
220
0
230
1
0
LINE
5
C2
100
AcDbEntity
8
1
62
256
6
ByLayer
370
13
48
1
60
0
100
AcDbLine
10
6.0005
20
16
30
0
11
6.0005
21
0
31
0
39
0
210
0
220
0
230
1
0
LINE
5
C3
100
AcDbEntity
8
1
62
256
6
ByLayer
370
13
48
1
60
0
100
AcDbLine
10
91.854356
20
1.013534
30
0
11
92.940446
21
0.254422
31
0
39
0
210
0
220
0
230
1
0
LINE
5
C4
100
AcDbEntity
8
1
62
256
6
ByLayer
370
18
48
1
60
0
100
AcDbLine
10
87.762286
20
-9.009726
30
0
11
87.765798
21
-9.003223
31
0
39
0
210
0
220
0
230
1
0
LINE
5
C5
100
AcDbEntity
8
1
62
256
6
ByLayer
370
18
48
1
60
0
100
AcDbLine
10
92.917278
20
-0.340903
30
0
11
92.767054
21
-0.990962
31
0
39
0
210
0
220
0
230
1
0
LINE
5
C6
100
AcDbEntity
8
1
62
256
6
ByLayer
370
18
48
1
60
0
100
AcDbLine
10
0.2
20
0
30
0
11
0.2
21
-16
31
0
39
0
210
0
220
0
230
1
0
LINE
5
C7
100
AcDbEntity
8
1
62
256
6
ByLayer
370
18
48
1
60
0
100
AcDbLine
10
0.2
20
16
30
0
11
0.2
21
0
31
0
39
0
210
0
220
0
230
1
0
LINE
5
C8
100
AcDbEntity
8
1
62
256
6
ByLayer
370
13
48
1
60
0
100
AcDbLine
10
67.774234
20
-5.934896
30
0
11
67.774234
21
-6.179717
31
0
39
0
210
0
220
0
230
1
0
LINE
5
C9
100
AcDbEntity
8
1
62
256
6
ByLayer
370
13
48
1
60
0
100
AcDbLine
10
17.356493
20
10.92716
30
0
11
17.356493
21
5.981947
31
0
39
0
210
0
220
0
230
1
0
LINE
5
CA
100
AcDbEntity
8
1
62
256
6
ByLayer
370
13
48
1
60
0
100
AcDbLine
10
17.356493
20
-10.92716
30
0
11
17.356493
21
-6.814134
31
0
39
0
210
0
220
0
230
1
0
LINE
5
CB
100
AcDbEntity
8
1
62
256
6
ByLayer
370
18
48
1
60
0
100
AcDbLine
10
91.995205
20
3.599041
30
0
11
91.890245
21
3.912102
31
0
39
0
210
0
220
0
230
1
0
LINE
5
CC
100
AcDbEntity
8
1
62
256
6
ByLayer
370
13
48
1
60
0
100
AcDbLine
10
79.6
20
3.1
30
0
11
79.806275
21
3.1
31
0
39
0
210
0
220
0
230
1
0
LINE
5
CD
100
AcDbEntity
8
1
62
256
6
ByLayer
370
18
48
1
60
0
100
AcDbLine
10
21
20
-10.05
30
0
11
21
21
-7.631081
31
0
39
0
210
0
220
0
230
1
0
LINE
5
CE
100
AcDbEntity
8
1
62
256
6
ByLayer
370
18
48
1
60
0
100
AcDbLine
10
93.005308
20
-0.000285
30
0
11
92.97523
21
-0.13584
31
0
39
0
210
0
220
0
230
1
0
LINE
5
CF
100
AcDbEntity
8
1
62
256
6
ByLayer
370
18
48
1
60
0
100
AcDbLine
10
79.8
20
-9.857583
30
0
11
79.8
21
-9.805964
31
0
39
0
210
0
220
0
230
1
0
LINE
5
D0
100
AcDbEntity
8
1
62
256
6
ByLayer
370
18
48
1
60
0
100
AcDbLine
10
21
20
5.813026
30
0
11
21
21
10.05
31
0
39
0
210
0
220
0
230
1
0
LINE
5
D1
100
AcDbEntity
8
1
62
256
6
ByLayer
370
18
48
1
60
0
100
AcDbLine
10
79.8
20
2.794237
30
0
11
79.8
21
2.857726
31
0
39
0
210
0
220
0
230
1
0
LINE
5
D2
100
AcDbEntity
8
1
62
256
6
ByLayer
370
18
48
1
60
0
100
AcDbLine
10
25.8
20
10.25
30
0
11
25.8
21
8.852968
31
0
39
0
210
0
220
0
230
1
0
LINE
5
D3
100
AcDbEntity
8
1
62
256
6
ByLayer
370
18
48
1
60
0
100
AcDbLine
10
91.995205
20
-3.599041
30
0
11
91.890245
21
-3.912102
31
0
39
0
210
0
220
0
230
1
0
LINE
5
D4
100
AcDbEntity
8
1
62
256
6
ByLayer
370
13
48
1
60
0
100
AcDbLine
10
17.446083
20
10.882736
30
0
11
17.446083
21
5.971733
31
0
39
0
210
0
220
0
230
1
0
LINE
5
D5
100
AcDbEntity
8
1
62
256
6
ByLayer
370
18
48
1
60
0
100
AcDbLine
10
79.8
20
-10.125191
30
0
11
79.8
21
-9.857583
31
0
39
0
210
0
220
0
230
1
0
LINE
5
D6
100
AcDbEntity
8
1
62
256
6
ByLayer
370
13
48
1
60
0
100
AcDbLine
10
79.8
20
-9.857583
30
0
11
79.945422
21
-9.908709
31
0
39
0
210
0
220
0
230
1
0
LINE
5
D7
100
AcDbEntity
8
1
62
256
6
ByLayer
370
13
48
1
60
0
100
AcDbLine
10
92.917278
20
0.340903
30
0
11
91.89972
21
1.052115
31
0
39
0
210
0
220
0
230
1
0
LINE
5
D8
100
AcDbEntity
8
1
62
256
6
ByLayer
370
13
48
1
60
0
100
AcDbLine
10
17.446083
20
-10.882736
30
0
11
17.446083
21
-6.937168
31
0
39
0
210
0
220
0
230
1
0
LINE
5
D9
100
AcDbEntity
8
1
62
256
6
ByLayer
370
18
48
1
60
0
100
AcDbLine
10
23.1
20
10.25
30
0
11
23.1
21
5.901665
31
0
39
0
210
0
220
0
230
1
0
LINE
5
DA
100
AcDbEntity
8
1
62
256
6
ByLayer
370
13
48
1
60
0
100
AcDbLine
10
80.659619
20
-9.484625
30
0
11
80.659619
21
-9.569821
31
0
39
0
210
0
220
0
230
1
0
LINE
5
DB
100
AcDbEntity
8
1
62
256
6
ByLayer
370
18
48
1
60
0
100
AcDbLine
10
79.7
20
-10.099037
30
0
11
79.7
21
-9.805997
31
0
39
0
210
0
220
0
230
1
0
LINE
5
DC
100
AcDbEntity
8
1
62
256
6
ByLayer
370
18
48
1
60
0
100
AcDbLine
10
80.707546
20
-9.55296
30
0
11
88.154262
21
-9.55296
31
0
39
0
210
0
220
0
230
1
0
MTEXT
5
17E
100
AcDbEntity
8
SK6
62
256
6
ByLayer
370
13
48
1
60
0
100
AcDbMText
10
-0.148863
20
32.875134
30
0
210
0
220
0
230
1
1
\W0.7057;870-2100-21L25-3
40
3.5
41
0
44
1.084337
50
0
71
7
72
5
7
iso_b_vert
0
DIMENSION
5
18C
100
AcDbEntity
8
2
62
256
6
ByLayer
370
13
48
1
60
0
100
AcDbDimension
2
DimnDraft3D1
10
21
20
-23.5
30
0
11
57
21
-23.5
31
0
70
32
71
5
72
1
41
1
210
0
220
0
230
1
3
Standard
100
AcDbAlignedDimension
13
93
23
-1.5875
33
0
14
21
24
-12.0875
34
0
50
0
100
AcDbRotatedDimension
1001
ACAD
1000
DSTYLE
1002
{
1070
   279
1070
     0
1070
   172
1070
     1
1070
   173
1070
     1
1070
   340
1005
17F
1070
   271
1070
     1
1070
   272
1070
     2
1070
    77
1070
     1
1070
    73
1070
     0
1070
   171
1070
     3
1070
   274
1070
     4
1070
   177
1070
     7
1070
   176
1070
     7
1070
   178
1070
     7
1070
    48
1040
-0.005
1070
    41
1041
3.5
1070
   147
1041
1.5
1070
    42
1041
1.5875
1070
    44
1041
2.0
1070
   140
1041
3.0
1070
   343
1005
0
1070
   344
1005
0
1002
}
0
DIMENSION
5
196
100
AcDbEntity
8
2
62
256
6
ByLayer
370
13
48
1
60
0
100
AcDbDimension
2
DimnDraft3D2
10
23.5
20
17.5
30
0
11
58.25
21
17.5
31
0
70
32
71
5
72
1
41
1
210
0
220
0
230
1
3
Standard
100
AcDbAlignedDimension
13
93
23
1.5875
33
0
14
23.5
24
12.0875
34
0
50
0
100
AcDbRotatedDimension
1001
ACAD
1000
DSTYLE
1002
{
1070
   279
1070
     0
1070
   172
1070
     1
1070
   173
1070
     1
1070
   340
1005
17F
1070
   271
1070
     1
1070
   272
1070
     2
1070
    77
1070
     1
1070
    73
1070
     0
1070
   171
1070
     3
1070
   274
1070
     4
1070
   177
1070
     7
1070
   176
1070
     7
1070
   178
1070
     7
1070
    48
1040
-0.005
1070
    41
1041
3.5
1070
   147
1041
1.5
1070
    42
1041
1.5875
1070
    44
1041
2.0
1070
   140
1041
3.0
1070
   343
1005
0
1070
   344
1005
0
1002
}
0
DIMENSION
5
1A1
100
AcDbEntity
8
SK2
62
256
6
ByLayer
370
13
48
1
60
0
100
AcDbDimension
2
DimnDraft3D3
10
0
20
-35.5
30
0
11
-28
21
-35.5
31
0
70
32
71
5
72
1
41
1
210
0
220
0
230
1
3
Standard
100
AcDbAlignedDimension
13
-56
23
-14.0875
33
0
14
0
24
-17.5875
34
0
50
0
100
AcDbRotatedDimension
1001
ACAD
1000
DSTYLE
1002
{
1070
   279
1070
     0
1070
   172
1070
     1
1070
   173
1070
     1
1070
   340
1005
17F
1070
   271
1070
     1
1070
   272
1070
     2
1070
    77
1070
     1
1070
    73
1070
     0
1070
   171
1070
     3
1070
   274
1070
     4
1070
   177
1070
     7
1070
   176
1070
     7
1070
   178
1070
     7
1070
    48
1040
-0.005
1070
    41
1041
3.5
1070
   147
1041
1.5
1070
    42
1041
1.5875
1070
    44
1041
2.0
1070
   140
1041
3.0
1070
   343
1005
0
1070
   344
1005
0
1002
}
0
DIMENSION
5
1AB
100
AcDbEntity
8
2
62
256
6
ByLayer
370
13
48
1
60
0
100
AcDbDimension
2
DimnDraft3D4
10
93
20
-35.5
30
0
11
46.5
21
-35.5
31
0
70
32
71
5
72
1
41
1
210
0
220
0
230
1
3
Standard
100
AcDbAlignedDimension
13
0
23
-17.5875
33
0
14
93
24
-1.5875
34
0
50
0
100
AcDbRotatedDimension
1001
ACAD
1000
DSTYLE
1002
{
1070
   279
1070
     0
1070
   172
1070
     1
1070
   173
1070
     1
1070
   340
1005
17F
1070
   271
1070
     1
1070
   272
1070
     2
1070
    77
1070
     1
1070
    73
1070
     0
1070
   171
1070
     3
1070
   274
1070
     4
1070
   177
1070
     7
1070
   176
1070
     7
1070
   178
1070
     7
1070
    48
1040
-0.005
1070
    41
1041
3.5
1070
   147
1041
1.5
1070
    42
1041
1.5875
1070
    44
1041
2.0
1070
   140
1041
3.0
1070
   343
1005
0
1070
   344
1005
0
1002
}
0
DIMENSION
5
1B6
100
AcDbEntity
8
SK2
62
256
6
ByLayer
370
13
48
1
60
0
100
AcDbDimension
2
DimnDraft3D5
10
-64.25
20
-12.5
30
0
11
-64.5
21
-0.520456
31
0
70
33
71
5
72
1
41
1
210
0
220
0
230
1
3
Standard
100
AcDbAlignedDimension
13
-57.5875
23
12.5
33
0
14
-57.5875
24
-12.5
34
0
1001
ACAD
1000
DSTYLE
1002
{
1070
   279
1070
     0
1070
    74
1070
     0
1070
   173
1070
     1
1070
   340
1005
17F
1070
   271
1070
     1
1070
   272
1070
     2
1070
    77
1070
     1
1070
    73
1070
     0
1070
   171
1070
     3
1070
   274
1070
     4
1070
   177
1070
     7
1070
   176
1070
     7
1070
   178
1070
     7
1070
    48
1040
-0.005
1070
    41
1041
3.5
1070
   147
1041
1.5
1070
    42
1041
1.5875
1070
    44
1041
2.0
1070
   140
1041
3.0
1070
   343
1005
0
1070
   344
1005
0
1002
}
0
ENDSEC
0
SECTION
2
OBJECTS
0
DICTIONARY
5
221
330
0
100
AcDbDictionary
280
0
281
1
3
ACAD_GROUP
350
222
3
ACAD_MLINESTYLE
350
223
0
DICTIONARY
5
222
330
0
100
AcDbDictionary
280
0
281
1
0
DICTIONARY
5
223
330
0
100
AcDbDictionary
280
0
281
1
3
Standard
350
18
0
MLINESTYLE
5
18
330
223
100
AcDbMlineStyle
2
Standard
70
0
3

62
256
51
90
52
90
71
2
49
-0.5
62
256
6
ByLayer
49
0.5
62
256
6
ByLayer
0
RASTERVARIABLES
5
20f
330

100
AcDbRasterVariables
90
0
70
1
71
1
72
1
0
ENDSEC
0
EOF
