0
SECTION
2
HEADER
9
$ACADVER
1
AC1015
9
$DWGCODEPAGE
3
ANSI_1252
9
$HANDSEED
5
244
9
$ANGBASE
50
0
9
$ANGDIR
70
0
9
$ATTMODE
70
1
9
$AUNITS
70
0
9
$AUPREC
70
0
9
$CECOLOR
62
256
9
$CELTSCALE
40
1
9
$CELTYPE
6
ByLayer
9
$CELWEIGHT
370
18
9
$CLAYER
8
0
9
$CMLJUST
70
0
9
$CMLSCALE
40
1
9
$CMLSTYLE
2
Standard
9
$DIMSTYLE
2
Standard
9
$TEXTSIZE
40
0.2
9
$TEXTSTYLE
7
Standard
9
$LUNITS
70
2
9
$LUPREC
70
4
9
$EXTNAMES
290
1
9
$INSUNITS
70
4
9
$LTSCALE
40
1
9
$LWDISPLAY
290
1
9
$PDMODE
70
0
9
$PDSIZE
40
0
9
$PLINEGEN
70
0
0
ENDSEC
0
SECTION
2
CLASSES
0
CLASS
1
RASTERVARIABLES
2
AcDbRasterVariables
3
ISM
90
0
280
0
281
0
0
ENDSEC
0
SECTION
2
TABLES
0
TABLE
2
VPORT
5
23a
100
AcDbSymbolTable
0
VPORT
5
1
100
AcDbSymbolTableRecord
100
AcDbViewportTableRecord
2
*Active
70
0
10
0
20
0
11
1
21
1
12
-1
22
1
13
0
23
0
14
0.5
24
0.5
15
10
25
10
16
0
26
0
36
1
17
0
27
0
37
0
0
ENDTAB
0
TABLE
2
LTYPE
5
23b
100
AcDbSymbolTable
0
LTYPE
5
14
100
AcDbSymbolTableRecord
100
AcDbLinetypeTableRecord
70
0
2
ByBlock
3

72
65
73
0
40
0
0
LTYPE
5
15
100
AcDbSymbolTableRecord
100
AcDbLinetypeTableRecord
70
0
2
ByLayer
3

72
65
73
0
40
0
0
LTYPE
5
16
100
AcDbSymbolTableRecord
100
AcDbLinetypeTableRecord
70
0
2
CONTINUOUS
3
Solid line
72
65
73
0
40
0
0
LTYPE
5
6A
100
AcDbSymbolTableRecord
100
AcDbLinetypeTableRecord
70
0
2
CENTER
3
____ _ ____ _ ____ _ ____
72
65
73
4
40
47.5
49
22
74
0
49
-8.5
74
0
49
8.5
74
0
49
-8.5
74
0
0
LTYPE
5
6B
100
AcDbSymbolTableRecord
100
AcDbLinetypeTableRecord
70
0
2
DASHED
3
__ __ __ __ __ __ __ __ __
72
65
73
2
40
25.72
49
12.86
74
0
49
-12.86
74
0
0
ENDTAB
0
TABLE
2
LAYER
5
23c
100
AcDbSymbolTable
0
LAYER
5
10
100
AcDbSymbolTableRecord
100
AcDbLayerTableRecord
2
0
70
0
62
7
6
CONTINUOUS
290
1
370
-3
390
0
0
LAYER
5
6D
100
AcDbSymbolTableRecord
100
AcDbLayerTableRecord
2
80
70
0
62
-6
6
CONTINUOUS
290
1
370
-3
390
0
0
LAYER
5
6F
100
AcDbSymbolTableRecord
100
AcDbLayerTableRecord
2
81
70
0
62
-3
6
CONTINUOUS
290
1
370
-3
390
0
0
LAYER
5
72
100
AcDbSymbolTableRecord
100
AcDbLayerTableRecord
2
1
70
0
62
4
6
CONTINUOUS
290
1
370
-3
390
0
0
LAYER
5
91
100
AcDbSymbolTableRecord
100
AcDbLayerTableRecord
2
4
70
0
62
-2
6
CENTER
290
1
370
-3
390
0
0
LAYER
5
19A
100
AcDbSymbolTableRecord
100
AcDbLayerTableRecord
2
2
70
0
62
7
6
CONTINUOUS
290
1
370
-3
390
0
0
LAYER
5
226
100
AcDbSymbolTableRecord
100
AcDbLayerTableRecord
2
SK1
70
0
62
4
6
CONTINUOUS
290
1
370
-3
390
0
0
LAYER
5
227
100
AcDbSymbolTableRecord
100
AcDbLayerTableRecord
2
SK4
70
0
62
2
6
CENTER
290
1
370
-3
390
0
0
LAYER
5
228
100
AcDbSymbolTableRecord
100
AcDbLayerTableRecord
2
SK6
70
0
62
5
6
CONTINUOUS
290
1
370
-3
390
0
0
LAYER
5
229
100
AcDbSymbolTableRecord
100
AcDbLayerTableRecord
2
SK2
70
0
62
7
6
CONTINUOUS
290
1
370
-3
390
0
0
ENDTAB
0
TABLE
2
STYLE
5
23d
100
AcDbSymbolTable
0
STYLE
5
11
100
AcDbSymbolTableRecord
100
AcDbTextStyleTableRecord
2
Standard
3
txt
70
0
71
0
40
0
41
1
42
0
50
0
0
STYLE
5
195
100
AcDbSymbolTableRecord
100
AcDbTextStyleTableRecord
2
iso_b_vert
3
simplex.shx
70
0
71
0
40
0
41
1
42
0
50
0
0
STYLE
5
196
100
AcDbSymbolTableRecord
100
AcDbTextStyleTableRecord
2
DWGDirectTextStyle
3
simplex
70
0
71
0
40
0
41
1
42
0
50
0
0
ENDTAB
0
TABLE
2
DIMSTYLE
5
23e
100
AcDbSymbolTable
100
AcDbDimStyleTable
0
DIMSTYLE
105
27
100
AcDbSymbolTableRecord
100
AcDbDimStyleTableRecord
2
Standard
70
0
3
<>
41
0.18
42
0.0625
44
0.18
140
0.18
147
0.09
73
0
74
0
77
1
271
2
275
0
278
52
280
0
340
11
0
ENDTAB
0
TABLE
2
VIEW
5
23f
100
AcDbSymbolTable
0
ENDTAB
0
TABLE
2
UCS
5
240
100
AcDbSymbolTable
0
ENDTAB
0
TABLE
2
APPID
5
241
100
AcDbSymbolTable
0
APPID
5
12
100
AcDbSymbolTableRecord
100
AcDbRegAppTableRecord
2
ACAD
70
0
0
ENDTAB
0
TABLE
2
BLOCK_RECORD
5
242
100
AcDbSymbolTable
0
BLOCK_RECORD
5
1F
100
AcDbSymbolTableRecord
100
AcDbBlockTableRecord
2
*Model_Space
340
0
70
0
0
BLOCK_RECORD
5
1B
100
AcDbSymbolTableRecord
100
AcDbBlockTableRecord
2
*Paper_Space
340
0
70
0
0
BLOCK_RECORD
5
23
100
AcDbSymbolTableRecord
100
AcDbBlockTableRecord
2
*Paper_Space0
340
0
70
0
0
BLOCK_RECORD
5
198
100
AcDbSymbolTableRecord
100
AcDbBlockTableRecord
2
DimnDraft3D1
340
0
70
0
0
BLOCK_RECORD
5
1A3
100
AcDbSymbolTableRecord
100
AcDbBlockTableRecord
2
DimnDraft3D2
340
0
70
0
0
BLOCK_RECORD
5
1AD
100
AcDbSymbolTableRecord
100
AcDbBlockTableRecord
2
DimnDraft3D3
340
0
70
0
0
BLOCK_RECORD
5
1B8
100
AcDbSymbolTableRecord
100
AcDbBlockTableRecord
2
DimnDraft3D4
340
0
70
0
0
BLOCK_RECORD
5
1C2
100
AcDbSymbolTableRecord
100
AcDbBlockTableRecord
2
DimnDraft3D5
340
0
70
0
0
ENDTAB
0
ENDSEC
0
SECTION
2
BLOCKS
0
BLOCK
5
20
100
AcDbEntity
8
0
100
AcDbBlockBegin
2
*Model_Space
70
0
10
0
20
0
30
0
3
*Model_Space
0
ENDBLK
5
21
100
AcDbEntity
8
0
100
AcDbBlockEnd
0
BLOCK
5
1C
100
AcDbEntity
8
0
100
AcDbBlockBegin
2
*Paper_Space
70
0
10
0
20
0
30
0
3
*Paper_Space
0
ENDBLK
5
1D
100
AcDbEntity
8
0
100
AcDbBlockEnd
0
BLOCK
5
24
100
AcDbEntity
8
0
100
AcDbBlockBegin
2
*Paper_Space0
70
0
10
0
20
0
30
0
3
*Paper_Space0
0
ENDBLK
5
25
100
AcDbEntity
8
0
100
AcDbBlockEnd
0
BLOCK
5
1A0
100
AcDbEntity
8
0
100
AcDbBlockBegin
2
DimnDraft3D1
70
0
10
0
20
0
30
0
3
DimnDraft3D1
0
MTEXT
5
199
100
AcDbEntity
8
2
62
256
6
ByLayer
370
13
48
1
60
0
100
AcDbMText
10
99.483572
20
-21.749886
30
0
210
0
220
0
230
1
1
\W0.6864;166.0
40
3
41
0
44
1.084337
50
0
71
7
72
5
7
iso_b_vert
0
LINE
5
19B
100
AcDbEntity
8
2
62
256
6
ByLayer
370
13
48
1
60
0
100
AcDbLine
10
186
20
-1.5875
30
0
11
186
21
-24.5
31
0
39
0
210
0
220
0
230
1
0
LINE
5
19C
100
AcDbEntity
8
2
62
256
6
ByLayer
370
13
48
1
60
0
100
AcDbLine
10
20
20
-11.0875
30
0
11
20
21
-24.5
31
0
39
0
210
0
220
0
230
1
0
LINE
5
19D
100
AcDbEntity
8
2
62
256
6
ByLayer
370
13
48
1
60
0
100
AcDbLine
10
186
20
-22.5
30
0
11
20
21
-22.5
31
0
39
0
210
0
220
0
230
1
0
SOLID
5
19E
100
AcDbEntity
8
2
62
256
6
ByLayer
370
13
48
1
60
0
100
AcDbTrace
10
186
20
-22.5
30
0
11
182.500002
21
-22.960784
31
0
12
182.499998
22
-22.039216
32
0
13
186
23
-22.5
33
0
39
0
210
0
220
0
230
1
0
SOLID
5
19F
100
AcDbEntity
8
2
62
256
6
ByLayer
370
13
48
1
60
0
100
AcDbTrace
10
20
20
-22.5
30
0
11
23.499998
21
-22.039216
31
0
12
23.500002
22
-22.960784
32
0
13
20
23
-22.5
33
0
39
0
210
0
220
0
230
1
0
ENDBLK
5
1A1
100
AcDbEntity
8
0
100
AcDbBlockEnd
0
BLOCK
5
1AA
100
AcDbEntity
8
0
100
AcDbBlockBegin
2
DimnDraft3D2
70
0
10
0
20
0
30
0
3
DimnDraft3D2
0
MTEXT
5
1A4
100
AcDbEntity
8
2
62
256
6
ByLayer
370
13
48
1
60
0
100
AcDbMText
10
100.979572
20
17.250114
30
0
210
0
220
0
230
1
1
\W0.6864;163.0
40
3
41
0
44
1.084337
50
0
71
7
72
5
7
iso_b_vert
0
LINE
5
1A5
100
AcDbEntity
8
2
62
256
6
ByLayer
370
13
48
1
60
0
100
AcDbLine
10
186
20
1.5875
30
0
11
186
21
18.5
31
0
39
0
210
0
220
0
230
1
0
LINE
5
1A6
100
AcDbEntity
8
2
62
256
6
ByLayer
370
13
48
1
60
0
100
AcDbLine
10
22.992
20
11.0875
30
0
11
22.992
21
18.5
31
0
39
0
210
0
220
0
230
1
0
LINE
5
1A7
100
AcDbEntity
8
2
62
256
6
ByLayer
370
13
48
1
60
0
100
AcDbLine
10
186
20
16.5
30
0
11
22.992
21
16.5
31
0
39
0
210
0
220
0
230
1
0
SOLID
5
1A8
100
AcDbEntity
8
2
62
256
6
ByLayer
370
13
48
1
60
0
100
AcDbTrace
10
186
20
16.5
30
0
11
182.500002
21
16.039216
31
0
12
182.499998
22
16.960784
32
0
13
186
23
16.5
33
0
39
0
210
0
220
0
230
1
0
SOLID
5
1A9
100
AcDbEntity
8
2
62
256
6
ByLayer
370
13
48
1
60
0
100
AcDbTrace
10
22.992
20
16.5
30
0
11
26.491998
21
16.960784
31
0
12
26.492002
22
16.039216
32
0
13
22.992
23
16.5
33
0
39
0
210
0
220
0
230
1
0
ENDBLK
5
1AB
100
AcDbEntity
8
0
100
AcDbBlockEnd
0
BLOCK
5
1B5
100
AcDbEntity
8
0
100
AcDbBlockBegin
2
DimnDraft3D3
70
0
10
0
20
0
30
0
3
DimnDraft3D3
0
MTEXT
5
1AE
100
AcDbEntity
8
SK2
62
256
6
ByLayer
370
13
48
1
60
0
100
AcDbMText
10
-30.770456
20
-34.749886
30
0
210
0
220
0
230
1
1
\W0.7346;56.0
40
3
41
0
44
1.084337
50
0
71
7
72
5
7
iso_b_vert
0
LINE
5
1B0
100
AcDbEntity
8
SK2
62
256
6
ByLayer
370
13
48
1
60
0
100
AcDbLine
10
-56
20
-14.0875
30
0
11
-56
21
-37.5
31
0
39
0
210
0
220
0
230
1
0
LINE
5
1B1
100
AcDbEntity
8
SK2
62
256
6
ByLayer
370
13
48
1
60
0
100
AcDbLine
10
0
20
-17.5875
30
0
11
0
21
-37.5
31
0
39
0
210
0
220
0
230
1
0
LINE
5
1B2
100
AcDbEntity
8
SK2
62
256
6
ByLayer
370
13
48
1
60
0
100
AcDbLine
10
-56
20
-35.5
30
0
11
0
21
-35.5
31
0
39
0
210
0
220
0
230
1
0
SOLID
5
1B3
100
AcDbEntity
8
SK2
62
256
6
ByLayer
370
13
48
1
60
0
100
AcDbTrace
10
-56
20
-35.5
30
0
11
-52.500002
21
-35.039216
31
0
12
-52.499998
22
-35.960784
32
0
13
-56
23
-35.5
33
0
39
0
210
0
220
0
230
1
0
SOLID
5
1B4
100
AcDbEntity
8
SK2
62
256
6
ByLayer
370
13
48
1
60
0
100
AcDbTrace
10
0
20
-35.5
30
0
11
-3.499998
21
-35.960784
31
0
12
-3.500002
22
-35.039216
32
0
13
0
23
-35.5
33
0
39
0
210
0
220
0
230
1
0
ENDBLK
5
1B6
100
AcDbEntity
8
0
100
AcDbBlockEnd
0
BLOCK
5
1BF
100
AcDbEntity
8
0
100
AcDbBlockBegin
2
DimnDraft3D4
70
0
10
0
20
0
30
0
3
DimnDraft3D4
0
MTEXT
5
1B9
100
AcDbEntity
8
2
62
256
6
ByLayer
370
13
48
1
60
0
100
AcDbMText
10
89.483572
20
-34.749886
30
0
210
0
220
0
230
1
1
\W0.6864;186.0
40
3
41
0
44
1.084337
50
0
71
7
72
5
7
iso_b_vert
0
LINE
5
1BA
100
AcDbEntity
8
2
62
256
6
ByLayer
370
13
48
1
60
0
100
AcDbLine
10
0
20
-17.5875
30
0
11
0
21
-37.5
31
0
39
0
210
0
220
0
230
1
0
LINE
5
1BB
100
AcDbEntity
8
2
62
256
6
ByLayer
370
13
48
1
60
0
100
AcDbLine
10
186
20
-1.5875
30
0
11
186
21
-37.5
31
0
39
0
210
0
220
0
230
1
0
LINE
5
1BC
100
AcDbEntity
8
2
62
256
6
ByLayer
370
13
48
1
60
0
100
AcDbLine
10
0
20
-35.5
30
0
11
186
21
-35.5
31
0
39
0
210
0
220
0
230
1
0
SOLID
5
1BD
100
AcDbEntity
8
2
62
256
6
ByLayer
370
13
48
1
60
0
100
AcDbTrace
10
0
20
-35.5
30
0
11
3.499998
21
-35.039216
31
0
12
3.500002
22
-35.960784
32
0
13
0
23
-35.5
33
0
39
0
210
0
220
0
230
1
0
SOLID
5
1BE
100
AcDbEntity
8
2
62
256
6
ByLayer
370
13
48
1
60
0
100
AcDbTrace
10
186
20
-35.5
30
0
11
182.500002
21
-35.960784
31
0
12
182.499998
22
-35.039216
32
0
13
186
23
-35.5
33
0
39
0
210
0
220
0
230
1
0
ENDBLK
5
1C0
100
AcDbEntity
8
0
100
AcDbBlockEnd
0
BLOCK
5
1CA
100
AcDbEntity
8
0
100
AcDbBlockBegin
2
DimnDraft3D5
70
0
10
0
20
0
30
0
3
DimnDraft3D5
0
MTEXT
5
1C3
100
AcDbEntity
8
SK2
62
256
6
ByLayer
370
13
48
1
60
0
100
AcDbMText
10
-63.750114
20
0.229544
30
0
210
0
220
0
230
1
1
\W0.7346;25.0
40
3
41
0
44
1.084337
50
90
71
7
72
5
7
iso_b_vert
0
MTEXT
5
1C4
100
AcDbEntity
8
SK2
62
256
6
ByLayer
370
13
48
1
60
0
100
AcDbMText
10
-63.750114
20
-4.247019
30
0
210
0
220
0
230
1
1
%%c
40
3
41
0
44
1.084337
50
90
71
7
72
5
7
iso_b_vert
0
LINE
5
1C5
100
AcDbEntity
8
SK2
62
256
6
ByLayer
370
13
48
1
60
0
100
AcDbLine
10
-57.5875
20
12.5
30
0
11
-64.25
21
12.5
31
0
39
0
210
0
220
0
230
1
0
LINE
5
1C6
100
AcDbEntity
8
SK2
62
256
6
ByLayer
370
13
48
1
60
0
100
AcDbLine
10
-57.5875
20
-12.5
30
0
11
-64.25
21
-12.5
31
0
39
0
210
0
220
0
230
1
0
LINE
5
1C7
100
AcDbEntity
8
SK2
62
256
6
ByLayer
370
13
48
1
60
0
100
AcDbLine
10
-62.25
20
12.5
30
0
11
-62.25
21
-12.5
31
0
39
0
210
0
220
0
230
1
0
SOLID
5
1C8
100
AcDbEntity
8
SK2
62
256
6
ByLayer
370
13
48
1
60
0
100
AcDbTrace
10
-62.25
20
12.5
30
0
11
-61.789216
21
9.000002
31
0
12
-62.710784
22
8.999998
32
0
13
-62.25
23
12.5
33
0
39
0
210
0
220
0
230
1
0
SOLID
5
1C9
100
AcDbEntity
8
SK2
62
256
6
ByLayer
370
13
48
1
60
0
100
AcDbTrace
10
-62.25
20
-12.5
30
0
11
-62.710784
21
-9.000002
31
0
12
-61.789216
22
-8.999998
32
0
13
-62.25
23
-12.5
33
0
39
0
210
0
220
0
230
1
0
ENDBLK
5
1CB
100
AcDbEntity
8
0
100
AcDbBlockEnd
0
ENDSEC
0
SECTION
2
ENTITIES
0
ARC
5
DE
100
AcDbEntity
8
SK1
62
256
6
ByLayer
370
18
48
1
60
0
100
AcDbCircle
39
0
10
53.946236
20
-12.99675
30
0
40
0.799999999999998
210
0
220
0
230
-1
100
AcDbArc
50
51
51
130.534532
0
ARC
5
DF
100
AcDbEntity
8
1
62
256
6
ByLayer
370
18
48
1
60
0
100
AcDbCircle
39
0
10
-20
20
17.1
30
0
40
7.99999999999999
210
0
220
0
230
-1
100
AcDbArc
50
275.495709
51
278.175734
0
ARC
5
E0
100
AcDbEntity
8
SK1
62
256
6
ByLayer
370
18
48
1
60
0
100
AcDbCircle
39
0
10
0.15
20
-12.64675
30
0
40
0.4
210
0
220
0
230
-1
100
AcDbArc
50
90
51
112.024313
0
ARC
5
E1
100
AcDbEntity
8
SK1
62
256
6
ByLayer
370
18
48
1
60
0
100
AcDbCircle
39
0
10
0.975195
20
12.64675
30
0
40
0.4
210
0
220
0
230
-1
100
AcDbArc
50
270
51
295
0
ARC
5
E2
100
AcDbEntity
8
1
62
256
6
ByLayer
370
18
48
1
60
0
100
AcDbCircle
39
0
10
-20
20
-17.1
30
0
40
7.99999999999999
210
0
220
0
230
-1
100
AcDbArc
50
57.899431
51
87.314906
0
ARC
5
E3
100
AcDbEntity
8
SK1
62
256
6
ByLayer
370
18
48
1
60
0
100
AcDbCircle
39
0
10
0.975195
20
-12.64675
30
0
40
0.4
210
0
220
0
230
-1
100
AcDbArc
50
65
51
90
0
ARC
5
E4
100
AcDbEntity
8
SK1
62
256
6
ByLayer
370
18
48
1
60
0
100
AcDbCircle
39
0
10
0.15
20
12.64675
30
0
40
0.4
210
0
220
0
230
-1
100
AcDbArc
50
247.975687
51
270
0
ARC
5
E5
100
AcDbEntity
8
SK1
62
256
6
ByLayer
370
18
48
1
60
0
100
AcDbCircle
39
0
10
53.946236
20
12.99675
30
0
40
0.799999999999998
210
0
220
0
230
-1
100
AcDbArc
50
229.465468
51
309
0
ELLIPSE
5
E6
100
AcDbEntity
8
1
62
256
6
ByLayer
370
13
48
1
60
0
100
AcDbEllipse
10
161.9
20
9.09751
30
0
11
4.44977544424254
21
-4.02486005915849
31
0
210
0
220
0
230
1
40
0.137236
41
0.801330685098727
42
1.00344034503976
0
ELLIPSE
5
E7
100
AcDbEntity
8
1
62
256
6
ByLayer
370
18
48
1
60
0
100
AcDbEllipse
10
20.739207
20
7.254905
30
0
11
4.45461696903242
21
4.01950092165787
31
0
210
0
220
0
230
1
40
0.127341
41
1.28434927583869
42
2.59577600036666
0
ELLIPSE
5
E8
100
AcDbEntity
8
1
62
256
6
ByLayer
370
18
48
1
60
0
100
AcDbEllipse
10
155.064454
20
-3E-06
30
0
11
37.2925167696748
21
-8.71326027419786
31
0
210
0
220
0
230
1
40
0.087176
41
-1.41168774979959
42
-1.38317112053078
0
ELLIPSE
5
E9
100
AcDbEntity
8
1
62
256
6
ByLayer
370
18
48
1
60
0
100
AcDbEllipse
10
178.932607
20
-1.617979
30
0
11
0.368873939168962
21
-1.26421280031945
31
0
210
0
220
0
230
1
40
0.314013
41
0.092755901506881
42
-2.82152058501435
0
ELLIPSE
5
EA
100
AcDbEntity
8
1
62
256
6
ByLayer
370
18
48
1
60
0
100
AcDbEllipse
10
164.746336
20
-82.299223
30
0
11
79.2281692444023
21
0.13348062210581
31
0
210
0
220
0
230
1
40
0.93232
41
1.44928202452128
42
1.4508899190581
0
ELLIPSE
5
EB
100
AcDbEntity
8
1
62
256
6
ByLayer
370
18
48
1
60
0
100
AcDbEllipse
10
186
20
0
30
0
11
3.31791467189911
21
9.49701665279782
31
0
210
0
220
0
230
1
40
0.07175
41
-2.87361694352937
42
-2.78443794911848
0
ELLIPSE
5
EC
100
AcDbEntity
8
1
62
256
6
ByLayer
370
18
48
1
60
0
100
AcDbEllipse
10
185.965737
20
-0.164107
30
0
11
0.0470796687606743
21
0.15314951677033
31
0
210
0
220
0
230
1
40
0.055315
41
1.75915903937897
42
2.44405691299132
0
ELLIPSE
5
ED
100
AcDbEntity
8
1
62
256
6
ByLayer
370
18
48
1
60
0
100
AcDbEllipse
10
193.175358
20
0
30
0
11
12.6112360878199
21
8.54850582696245
31
0
210
0
220
0
230
1
40
0.290406
41
2.90750165076219
42
-3.12773187775548
0
ELLIPSE
5
EE
100
AcDbEntity
8
1
62
256
6
ByLayer
370
18
48
1
60
0
100
AcDbEllipse
10
185.965737
20
0.164107
30
0
11
0.0470796687606741
21
-0.15314951677033
31
0
210
0
220
0
230
1
40
0.055315
41
-2.44405691299132
42
-1.75915903937897
0
ELLIPSE
5
EF
100
AcDbEntity
8
1
62
256
6
ByLayer
370
18
48
1
60
0
100
AcDbEllipse
10
177.145653
20
-2.767478
30
0
11
17.5818082218569
21
11.8192219327234
31
0
210
0
220
0
230
1
40
0.05642
41
1.45825324913921
42
1.46904897739371
0
ELLIPSE
5
F0
100
AcDbEntity
8
1
62
256
6
ByLayer
370
18
48
1
60
0
100
AcDbEllipse
10
178.804497
20
-1.611054
30
0
11
1.50346811906097
21
0.428309958212515
31
0
210
0
220
0
230
1
40
0.772412
41
2.05791200413133
42
-1.78739021773683
0
ELLIPSE
5
F1
100
AcDbEntity
8
1
62
256
6
ByLayer
370
18
48
1
60
0
100
AcDbEllipse
10
186
20
0
30
0
11
3.31791465752413
21
-9.49701660787444
31
0
210
0
220
0
230
1
40
0.07175
41
2.78443794829289
42
2.87361694291042
0
ELLIPSE
5
F2
100
AcDbEntity
8
1
62
256
6
ByLayer
370
18
48
1
60
0
100
AcDbEllipse
10
170.35
20
-3.852061
30
0
11
-1.84999999999999
21
2.26552175457139E-16
31
0
210
0
220
0
230
1
40
0.702153
41
1.47193442101349
42
1.63235188161854
0
POINT
5
6C
100
AcDbEntity
8
80
62
256
6
ByLayer
370
18
48
1
60
0
100
AcDbPoint
10
0
20
0
30
0
39
0
210
0
220
0
230
1
50
360
0
POINT
5
6E
100
AcDbEntity
8
81
62
256
6
ByLayer
370
18
48
1
60
0
100
AcDbPoint
10
174.1
20
0
30
0
39
0
210
0
220
0
230
1
50
360
0
SPLINE
5
F3
100
AcDbEntity
8
1
62
256
6
ByLayer
370
18
48
1
60
0
100
AcDbSpline
70
4
71
3
72
15
73
11
40
0
40
0
40
0
40
0
40
0.147643108448033
40
0.294942506632246
40
0.440102266643043
40
0.581054018033535
40
0.688046118088262
40
0.792066350152016
40
0.894872626945337
40
1
40
1
40
1
40
1
41
1
10
15.6640324421665
20
10.3762075182665
30
0
41
1
10
15.194052881332
20
10.6821543059775
30
0
41
1
10
14.2735035957034
20
11.3177924791813
30
0
41
1
10
12.9764467726487
20
12.3703434712444
30
0
41
1
10
11.7094935939093
20
13.4171283718833
30
0
41
1
10
10.5257414953771
20
14.3253720584055
30
0
41
1
10
9.39975700084966
20
15.0464259594981
30
0
41
1
10
8.32802727145696
20
15.5705266294461
30
0
41
1
10
7.18798122655625
20
15.9201749761989
30
0
41
1
10
6.40484548696926
20
15.9973528106534
30
0
41
1
10
6.00069999999999
20
16
30
0
0
SPLINE
5
F4
100
AcDbEntity
8
1
62
256
6
ByLayer
370
18
48
1
60
0
100
AcDbSpline
70
4
71
3
72
15
73
11
40
0
40
0
40
0
40
0
40
0.106998439205771
40
0.211670460908751
40
0.317694149320031
40
0.426849492432752
40
0.539460824048606
40
0.69110797314306
40
0.84532681002846
40
1
40
1
40
1
40
1
41
1
10
6.00069999999999
20
-16
30
0
41
1
10
6.41220106975177
20
-15.9971423824352
30
0
41
1
10
7.20923641654079
20
-15.9172737074624
30
0
41
1
10
8.3686892363159
20
-15.5552362617596
30
0
41
1
10
9.45755780929181
20
-15.0141017475476
30
0
41
1
10
10.502094966904
20
-14.3362808755902
30
0
41
1
10
11.6310358557095
20
-13.4801278100846
30
0
41
1
10
12.855615327125
20
-12.4706999944597
30
0
41
1
10
14.2090692538175
20
-11.364678477379
30
0
41
1
10
15.1721853063872
20
-10.697516657507
30
0
41
1
10
15.6640324421665
20
-10.3762075182665
30
0
0
SPLINE
5
F5
100
AcDbEntity
8
1
62
256
6
ByLayer
370
18
48
1
60
0
100
AcDbSpline
70
4
71
3
72
35
73
31
40
0
40
0
40
0
40
0
40
0.0116200057648806
40
0.0337004062550273
40
0.0658575290739416
40
0.101513414073612
40
0.134307121305377
40
0.161545515597966
40
0.183300854731434
40
0.204485460507223
40
0.228420775642373
40
0.257406404019269
40
0.288163902691732
40
0.320080135681602
40
0.347118658644735
40
0.369007013034675
40
0.403866116859903
40
0.439937603099994
40
0.47301719895141
40
0.513622266727954
40
0.560399717958679
40
0.601361698438405
40
0.634147456228434
40
0.663302102138827
40
0.713057094875307
40
0.769933181412739
40
0.83444168540219
40
0.905824405239814
40
0.968094957872256
40
1
40
1
40
1
40
1
41
1
10
142.188968322229
20
8.79560447043698
30
0
41
1
10
142.096858215492
20
8.7952208177567
30
0
41
1
10
141.825705020837
20
8.7940190654414
30
0
41
1
10
141.261676073276
20
8.7893082661314
30
0
41
1
10
140.479978065107
20
8.78799686331956
30
0
41
1
10
139.617382632283
20
8.79226047688971
30
0
41
1
10
138.799913531922
20
8.79379690200886
30
0
41
1
10
138.098055067578
20
8.79379670581864
30
0
41
1
10
137.494493963674
20
8.79317932428322
30
0
41
1
10
136.914513767575
20
8.79280606057191
30
0
41
1
10
136.274842772042
20
8.7930196745819
30
0
41
1
10
135.554606136868
20
8.79276231206526
30
0
41
1
10
134.759851766825
20
8.79303669425008
30
0
41
1
10
133.98457750721
20
8.79410404100668
30
0
41
1
10
133.285234549112
20
8.79499881922905
30
0
41
1
10
132.559893241073
20
8.79581807327142
30
0
41
1
10
131.756456845609
20
8.79625747427926
30
0
41
1
10
130.856110620676
20
8.79562679465081
30
0
41
1
10
129.906038847138
20
8.7943896042043
30
0
41
1
10
128.863288826884
20
8.79300918924881
30
0
41
1
10
127.752309493659
20
8.79186308511137
30
0
41
1
10
126.709015350361
20
8.79131243536565
30
0
41
1
10
125.818265134507
20
8.79133520508671
30
0
41
1
10
124.8514100629
20
8.79190489693454
30
0
41
1
10
123.675974187469
20
8.79317990763812
30
0
41
1
10
122.194988439867
20
8.79133722047791
30
0
41
1
10
120.526440173129
20
8.78723916195912
30
0
41
1
10
118.811156011592
20
8.78582102088839
30
0
41
1
10
117.377841439234
20
8.78677648829765
30
0
41
1
10
116.562943598358
20
8.78827957444548
30
0
41
1
10
116.286767136499
20
8.78884551955804
30
0
0
SPLINE
5
F6
100
AcDbEntity
8
1
62
256
6
ByLayer
370
18
48
1
60
0
100
AcDbSpline
70
4
71
2
72
6
73
3
40
0
40
0
40
0
40
1
40
1
40
1
41
1
10
68.7647085100044
20
-2.51851385117658
30
0
41
1
10
68.950619250299
20
-2.5792491491419
30
0
41
1
10
69.1364791171425
20
-2.64586177143156
30
0
0
SPLINE
5
F7
100
AcDbEntity
8
1
62
256
6
ByLayer
370
18
48
1
60
0
100
AcDbSpline
70
4
71
2
72
6
73
3
40
0
40
0
40
0
40
1
40
1
40
1
41
1
10
147.328564304244
20
-2.52006844914286
30
0
41
1
10
147.514214405075
20
-2.58046453189863
30
0
41
1
10
147.699777330921
20
-2.64671032123502
30
0
0
SPLINE
5
F8
100
AcDbEntity
8
1
62
256
6
ByLayer
370
18
48
1
60
0
100
AcDbSpline
70
4
71
3
72
36
73
32
40
0
40
0
40
0
40
0
40
0.0136719484477757
40
0.0350942473838242
40
0.0582705867353894
40
0.0818201735661325
40
0.102735422732671
40
0.120941035986985
40
0.13774895037429
40
0.175427718017114
40
0.218993368368668
40
0.260375831771768
40
0.30383704368296
40
0.346067229311161
40
0.380373263652524
40
0.40969082522572
40
0.448097473795721
40
0.493719803240894
40
0.531019347813809
40
0.561859083732513
40
0.595611080704401
40
0.632501030846217
40
0.679743418177404
40
0.724354776202272
40
0.768403528871719
40
0.819313454296034
40
0.864250919785188
40
0.901334540097098
40
0.942476178442128
40
0.987940501509609
40
1
40
1
40
1
40
1
41
1
10
63.6468192127042
20
8.79540680074919
30
0
41
1
10
63.5477216775978
20
8.79463982553773
30
0
41
1
10
63.2836789002475
20
8.79270258822652
30
0
41
1
10
62.7840805707071
20
8.78561293097118
30
0
41
1
10
62.1871324320713
20
8.78727790677124
30
0
41
1
10
61.6124616157224
20
8.79297450018873
30
0
41
1
10
61.0751877321857
20
8.79554367560777
30
0
41
1
10
60.5960022666694
20
8.79712218472923
30
0
41
1
10
59.9705552805477
20
8.79791856953435
30
0
41
1
10
59.1196795963732
20
8.79735624817641
30
0
41
1
10
58.0548027246195
20
8.79633696134729
30
0
41
1
10
56.939726613242
20
8.79531723779724
30
0
41
1
10
55.8362028806445
20
8.79457811402307
30
0
41
1
10
54.7941486289472
20
8.79439404960794
30
0
41
1
10
53.8749130489836
20
8.79454210346236
30
0
41
1
10
52.9888783271724
20
8.79441057638172
30
0
41
1
10
52.0045740649381
20
8.79323583367915
30
0
41
1
10
50.9509540529846
20
8.7911237970458
30
0
41
1
10
49.9630496945846
20
8.78959584717225
30
0
41
1
10
49.0782094819243
20
8.78876413901975
30
0
41
1
10
48.1970139858274
20
8.78846086499186
30
0
41
1
10
47.1732985422946
20
8.7888366082492
30
0
41
1
10
46.0553219904465
20
8.79034638902829
30
0
41
1
10
44.8751411606224
20
8.79285962144368
30
0
41
1
10
43.6631153079387
20
8.79389372368678
30
0
41
1
10
42.4482512955332
20
8.79209626537644
30
0
41
1
10
41.2938800653649
20
8.79033822494233
30
0
41
1
10
40.2243170789269
20
8.78937786749736
30
0
41
1
10
39.150355024159
20
8.78904577530835
30
0
41
1
10
38.2935161415924
20
8.7894551228722
30
0
41
1
10
37.7939610542066
20
8.79004930004209
30
0
41
1
10
37.6892335613637
20
8.79018504198632
30
0
0
SPLINE
5
F9
100
AcDbEntity
8
1
62
256
6
ByLayer
370
18
48
1
60
0
100
AcDbSpline
70
4
71
1
72
4
73
2
40
0
40
0
40
1
40
1
41
1
10
90.3059108376528
20
4.17681072009586
30
0
41
1
10
89.9569777793903
20
4.28097182225704
30
0
0
SPLINE
5
FA
100
AcDbEntity
8
1
62
256
6
ByLayer
370
18
48
1
60
0
100
AcDbSpline
70
4
71
3
72
43
73
39
40
0
40
0
40
0
40
0
40
0.0148471771539326
40
0.0307330396158097
40
0.0548167973362704
40
0.0825346259302822
40
0.107744045534916
40
0.128708820861484
40
0.145629963707561
40
0.161564846712891
40
0.17775267644011
40
0.196155836718104
40
0.215602708810933
40
0.238366540384315
40
0.264893348428704
40
0.291285476191194
40
0.324680559287912
40
0.358333915346301
40
0.394663129685939
40
0.428155210331804
40
0.458092414536788
40
0.487762856919313
40
0.534640662127147
40
0.577193498800312
40
0.617624339924468
40
0.661050507894072
40
0.699173362510283
40
0.727052180567775
40
0.746269271362463
40
0.767932042418201
40
0.792299807818197
40
0.821734517115475
40
0.856806271159677
40
0.887725282929488
40
0.916581354372441
40
0.943285222249718
40
0.973712856755865
40
1
40
1
40
1
40
1
41
1
10
29.4779304430616
20
-8.78414133635101
30
0
41
1
10
29.6232346720998
20
-8.78332069647422
30
0
41
1
10
29.9353778594504
20
-8.7815961333155
30
0
41
1
10
30.5493332891879
20
-8.77569567243029
30
0
41
1
10
31.3275474210433
20
-8.77673466663592
30
0
41
1
10
32.188914490491
20
-8.78524042212689
30
0
41
1
10
33.0181935293124
20
-8.78922931821774
30
0
41
1
10
33.7307463044472
20
-8.79108697203489
30
0
41
1
10
34.342592389494
20
-8.79196922331846
30
0
41
1
10
34.9018642113479
20
-8.79266824325597
30
0
41
1
10
35.4761848952793
20
-8.79310179474552
30
0
41
1
10
36.0912721797207
20
-8.79259984653501
30
0
41
1
10
36.781878520585
20
-8.79154472010703
30
0
41
1
10
37.5648918044718
20
-8.79024576926557
30
0
41
1
10
38.4270698253287
20
-8.78939196357032
30
0
41
1
10
39.4103406531252
20
-8.7890834559378
30
0
41
1
10
40.4748215039383
20
-8.78951914755962
30
0
41
1
10
41.6523678350963
20
-8.7907922751865
30
0
41
1
10
42.8306098571962
20
-8.79252140007392
30
0
41
1
10
43.9669403972249
20
-8.7938198413575
30
0
41
1
10
45.0268717888255
20
-8.79251244229175
30
0
41
1
10
46.2401111957353
20
-8.79000259065214
30
0
41
1
10
47.59682277609
20
-8.78840976170045
30
0
41
1
10
49.0762137017275
20
-8.78861255544763
30
0
41
1
10
50.5162246199179
20
-8.79023985613176
30
0
41
1
10
51.9057869900134
20
-8.79312643727022
30
0
41
1
10
53.1523017098235
20
-8.79457958776175
30
0
41
1
10
54.1230981659879
20
-8.79449470693254
30
0
41
1
10
54.9063857187809
20
-8.79441843409975
30
0
41
1
10
55.6496722818688
20
-8.79454877941521
30
0
41
1
10
56.5093706053145
20
-8.79500445554308
30
0
41
1
10
57.5217749686699
20
-8.79582335547548
30
0
41
1
10
58.6083308979517
20
-8.79681925130259
30
0
41
1
10
59.6884912184237
20
-8.79749389482814
30
0
41
1
10
60.6704276412408
20
-8.79747369363201
30
0
41
1
10
61.6376075963365
20
-8.79218191427623
30
0
41
1
10
62.5952080265997
20
-8.79466087259308
30
0
41
1
10
63.2270433820836
20
-8.79565089574396
30
0
41
1
10
63.5181880384999
20
-8.79639795257012
30
0
0
SPLINE
5
FB
100
AcDbEntity
8
1
62
256
6
ByLayer
370
18
48
1
60
0
100
AcDbSpline
70
4
71
3
72
14
73
10
40
0
40
0
40
0
40
0
40
0.148837237299183
40
0.269910013037656
40
0.36478008284781
40
0.44808709977408
40
0.605161542153834
40
0.820539564830951
40
1
40
1
40
1
40
1
41
1
10
177.93692983558
20
-9.34998406112285
30
0
41
1
10
178.163961508644
20
-9.3496670154515
30
0
41
1
10
178.579538281493
20
-9.34906599362
30
0
41
1
10
179.149523737013
20
-9.34695509886603
30
0
41
1
10
179.624988979206
20
-9.34698807784375
30
0
41
1
10
180.143075096043
20
-9.3493973821563
30
0
41
1
10
180.86253016802
20
-9.34957971615279
30
0
41
1
10
181.731931314322
20
-9.34985440239262
30
0
41
1
10
182.354863331932
20
-9.3499286250613
30
0
41
1
10
182.638022853371
20
-9.34994899397105
30
0
0
SPLINE
5
FC
100
AcDbEntity
8
1
62
256
6
ByLayer
370
18
48
1
60
0
100
AcDbSpline
70
4
71
3
72
41
73
37
40
0
40
0
40
0
40
0
40
0.0149555292325277
40
0.0301490314269379
40
0.0478260715137738
40
0.0659903982481725
40
0.081997732516771
40
0.0958462189981121
40
0.108931096046179
40
0.13815135916077
40
0.171162159847738
40
0.211765789629253
40
0.252880139586377
40
0.292589519386166
40
0.320454924161241
40
0.345687033179854
40
0.368941914484687
40
0.393375636181269
40
0.42031244684764
40
0.452597297367666
40
0.487580024426502
40
0.537585429353931
40
0.582056664856571
40
0.626156493001901
40
0.664212063255665
40
0.709731326931613
40
0.747652157874637
40
0.786590772058703
40
0.828605698097122
40
0.872185458170517
40
0.888408578433411
40
0.904256107485332
40
0.923609984945014
40
0.947922930085759
40
0.977266791743157
40
1
40
1
40
1
40
1
41
1
10
108.044943996931
20
-8.79027393305685
30
0
41
1
10
108.180434884305
20
-8.78884356213214
30
0
41
1
10
108.470738123602
20
-8.78620890787661
30
0
41
1
10
109.010555546296
20
-8.77885632918793
30
0
41
1
10
109.59410256783
20
-8.78109906035246
30
0
41
1
10
110.170994944966
20
-8.78522977310607
30
0
41
1
10
110.710558585603
20
-8.78728079479185
30
0
41
1
10
111.192915702063
20
-8.78864101353173
30
0
41
1
10
111.827015521493
20
-8.78964602619087
30
0
41
1
10
112.683424872695
20
-8.79060541572258
30
0
41
1
10
113.852307346175
20
-8.79239113231714
30
0
41
1
10
115.156500895851
20
-8.79161092501107
30
0
41
1
10
116.536817681127
20
-8.78806253323665
30
0
41
1
10
117.772339143717
20
-8.78640191788313
30
0
41
1
10
118.827284095309
20
-8.7861333190059
30
0
41
1
10
119.695186196653
20
-8.78660780731468
30
0
41
1
10
120.524121118478
20
-8.78763364568437
30
0
41
1
10
121.372423544786
20
-8.78927349239109
30
0
41
1
10
122.323373574467
20
-8.79147398930692
30
0
41
1
10
123.394244420228
20
-8.79303231855542
30
0
41
1
10
124.727343380524
20
-8.79210550811288
30
0
41
1
10
126.198977264006
20
-8.79099944990796
30
0
41
1
10
127.774219639268
20
-8.79183398815931
30
0
41
1
10
129.213647589825
20
-8.79340354731994
30
0
41
1
10
130.66498984992
20
-8.79550558056076
30
0
41
1
10
132.046102232807
20
-8.79650527531356
30
0
41
1
10
133.437222601886
20
-8.7947839209456
30
0
41
1
10
134.788605221221
20
-8.79322839746175
30
0
41
1
10
136.20390049221
20
-8.79278297857638
30
0
41
1
10
137.362239308154
20
-8.79314836701298
30
0
41
1
10
138.220642559561
20
-8.79383437172152
30
0
41
1
10
138.798641686554
20
-8.79356937447733
30
0
41
1
10
139.475392023532
20
-8.79358495456114
30
0
41
1
10
140.305438130938
20
-8.79456875795316
30
0
41
1
10
141.172906417482
20
-8.79578239363838
30
0
41
1
10
141.763209906357
20
-8.79623047794172
30
0
41
1
10
142.020719150806
20
-8.79638822703811
30
0
0
SPLINE
5
FD
100
AcDbEntity
8
1
62
256
6
ByLayer
370
18
48
1
60
0
100
AcDbSpline
70
4
71
3
72
9
73
5
40
0
40
0
40
0
40
0
40
0.841815712622693
40
1
40
1
40
1
40
1
41
1
10
182.648836423875
20
9.35005631569933
30
0
41
1
10
182.362019671807
20
9.35003770873544
30
0
41
1
10
182.021406946471
20
9.34999368722865
30
0
41
1
10
181.681129963917
20
9.34991467374445
30
0
41
1
10
181.627309437052
20
9.34990140047137
30
0
0
SPLINE
5
FE
100
AcDbEntity
8
1
62
256
6
ByLayer
370
18
48
1
60
0
100
AcDbSpline
70
4
71
3
72
8
73
4
40
0
40
0
40
0
40
0
40
1
40
1
40
1
40
1
41
1
10
20
20
1.31474714291275
30
0
41
1
10
19.8612998551143
20
1.36463434008095
30
0
41
1
10
19.7221932880117
20
1.41316185558128
30
0
41
1
10
19.5827288096036
20
1.4604689363839
30
0
0
SPLINE
5
FF
100
AcDbEntity
8
1
62
256
6
ByLayer
370
18
48
1
60
0
100
AcDbSpline
70
4
71
3
72
20
73
16
40
0
40
0
40
0
40
0
40
0.25
40
0.25
40
0.375
40
0.375
40
0.5
40
0.5
40
0.625
40
0.625
40
0.75
40
0.75
40
0.875
40
0.875
40
1
40
1
40
1
40
1
41
1
10
17.3797078054897
20
3.40006108102489
30
0
41
1
10
17.4620726400526
20
3.16284186653701
30
0
41
1
10
17.5704597346187
20
2.93392062478591
30
0
41
1
10
17.7815719419048
20
2.60862480373044
30
0
41
1
10
17.8589177725989
20
2.50515670378954
30
0
41
1
10
18.0258053571575
20
2.3107538443241
30
0
41
1
10
18.1156108822965
20
2.21939846722347
30
0
41
1
10
18.3082216827605
20
2.04867703369558
30
0
41
1
10
18.4116467816112
20
1.9690218469652
30
0
41
1
10
18.6256851642556
20
1.82627420037102
30
0
41
1
10
18.7368599259148
20
1.76256099086993
30
0
41
1
10
18.9673310526221
20
1.64991790941849
30
0
41
1
10
19.0872598373468
20
1.60078425272062
30
0
41
1
10
19.3324651678032
20
1.51849267986344
30
0
41
1
10
19.4567747987267
20
1.48555471778044
30
0
41
1
10
19.5827288096036
20
1.46046893638388
30
0
0
SPLINE
5
100
100
AcDbEntity
8
1
62
256
6
ByLayer
370
18
48
1
60
0
100
AcDbSpline
70
4
71
3
72
8
73
4
40
0
40
0
40
0
40
0
40
1
40
1
40
1
40
1
41
1
10
160.941916099278
20
-4.55650423086522
30
0
41
1
10
161.052693147133
20
-4.58046261939518
30
0
41
1
10
161.163466007381
20
-4.60438058184539
30
0
41
1
10
161.274234313201
20
-4.62825740148713
30
0
0
SPLINE
5
101
100
AcDbEntity
8
1
62
256
6
ByLayer
370
18
48
1
60
0
100
AcDbSpline
70
4
71
3
72
10
73
6
40
0
40
0
40
0
40
0
40
0.927912234539147
40
0.927912234539147
40
1
40
1
40
1
40
1
41
1
10
21.9
20
-9.29964662004636
30
0
41
1
10
22.1019899513626
20
-9.29964650002881
30
0
41
1
10
22.3004334726779
20
-9.29989484172665
30
0
41
1
10
22.5106186823464
20
-9.29998650167468
30
0
41
1
10
22.5257497111901
20
-9.29999184584651
30
0
41
1
10
22.5408598919888
20
-9.29999544949172
30
0
0
SPLINE
5
102
100
AcDbEntity
8
1
62
256
6
ByLayer
370
18
48
1
60
0
100
AcDbSpline
70
4
71
3
72
12
73
8
40
0
40
0
40
0
40
0
40
0.301264766047654
40
0.301264766047654
40
0.669096035307902
40
0.669096035307902
40
1
40
1
40
1
40
1
41
1
10
165.130360734996
20
7.81246549394555
30
0
41
1
10
165.130765600518
20
7.82799965258999
30
0
41
1
10
165.131188214371
20
7.84352718896778
30
0
41
1
10
165.132166637071
20
7.87799881269638
30
0
41
1
10
165.132731244048
20
7.89693974179161
30
0
41
1
10
165.133855153024
20
7.93290233735402
30
0
41
1
10
165.134409297535
20
7.94992579859482
30
0
41
1
10
165.134985560366
20
7.96694192099554
30
0
0
SPLINE
5
103
100
AcDbEntity
8
1
62
256
6
ByLayer
370
18
48
1
60
0
100
AcDbSpline
70
4
71
3
72
8
73
4
40
0
40
0
40
0
40
0
40
1
40
1
40
1
40
1
41
1
10
163.907273615898
20
7.06694293997984
30
0
41
1
10
163.870830457854
20
6.58537649566489
30
0
41
1
10
163.812272460546
20
6.12623579490113
30
0
41
1
10
163.733594831512
20
5.70430641395853
30
0
0
SPLINE
5
104
100
AcDbEntity
8
1
62
256
6
ByLayer
370
18
48
1
60
0
100
AcDbSpline
70
4
71
4
72
10
73
5
40
0
40
0
40
0
40
0
40
0
40
1
40
1
40
1
40
1
40
1
41
1
10
174.1
20
9.24546565663363
30
0
41
1
10
174.1
20
8.72705590675798
30
0
41
1
10
174.1
20
8.20864615688234
30
0
41
1
10
174.1
20
7.69023640700669
30
0
41
1
10
174.1
20
7.17182665713105
30
0
0
SPLINE
5
105
100
AcDbEntity
8
1
62
256
6
ByLayer
370
18
48
1
60
0
100
AcDbSpline
70
4
71
3
72
8
73
4
40
0
40
0
40
0
40
0
40
1
40
1
40
1
40
1
41
1
10
20
20
9.09999440068981
30
0
41
1
10
20.352336114983
20
9.13708967874334
30
0
41
1
10
20.7019479054096
20
9.1739875180117
30
0
41
1
10
21.0488198464374
20
9.210113187817
30
0
0
SPLINE
5
106
100
AcDbEntity
8
1
62
256
6
ByLayer
370
18
48
1
60
0
100
AcDbSpline
70
4
71
3
72
8
73
4
40
0
40
0
40
0
40
0
40
1
40
1
40
1
40
1
41
1
10
185.983461814753
20
0.072657854775656
30
0
41
1
10
185.971785301441
20
0.111953891680258
30
0
41
1
10
185.960164784181
20
0.151143017368668
30
0
41
1
10
185.948599894711
20
0.190225934953048
30
0
0
SPLINE
5
107
100
AcDbEntity
8
1
62
256
6
ByLayer
370
18
48
1
60
0
100
AcDbSpline
70
4
71
1
72
4
73
2
40
0
40
0
40
1
40
1
41
1
10
180.467325130588
20
-7.40366773368851
30
0
41
1
10
180.332234777745
20
-7.46576312076175
30
0
0
SPLINE
5
108
100
AcDbEntity
8
1
62
256
6
ByLayer
370
18
48
1
60
0
100
AcDbSpline
70
4
71
3
72
28
73
24
40
0
40
0
40
0
40
0
40
0.125
40
0.125
40
0.187499999999999
40
0.187499999999999
40
0.249999999999998
40
0.249999999999998
40
0.374999999999995
40
0.374999999999995
40
0.437499999999994
40
0.437499999999994
40
0.499999999999993
40
0.499999999999993
40
0.624999999999991
40
0.624999999999991
40
0.687499999999992
40
0.687499999999992
40
0.749999999999993
40
0.749999999999993
40
0.874999999999997
40
0.874999999999997
40
1
40
1
40
1
40
1
41
1
10
179.778414154717
20
1.30981202953458
30
0
41
1
10
179.747379114653
20
1.1733344622354
30
0
41
1
10
179.709111278975
20
1.05278420254274
30
0
41
1
10
179.64057803936
20
0.896471409878984
30
0
41
1
10
179.615871726739
20
0.8484672262218
30
0
41
1
10
179.562599513015
20
0.760958041835664
30
0
41
1
10
179.533868987186
20
0.721284580066538
30
0
41
1
10
179.443008242062
20
0.617205345719015
30
0
41
1
10
179.376381571161
20
0.567472287201497
30
0
41
1
10
179.267673156815
20
0.521343030024099
30
0
41
1
10
179.229969696782
20
0.51073088973817
30
0
41
1
10
179.151610717168
20
0.499091714159931
30
0
41
1
10
179.110786344078
20
0.498085321755241
30
0
41
1
10
178.985022948865
20
0.509611450202698
30
0
41
1
10
178.897584847272
20
0.53635879679419
30
0
41
1
10
178.761427561974
20
0.602987917251824
30
0
41
1
10
178.715204542293
20
0.629636329490125
30
0
41
1
10
178.621107512753
20
0.691685844035703
30
0
41
1
10
178.573060418573
20
0.727233138348282
30
0
41
1
10
178.427757242045
20
0.845913822210974
30
0
41
1
10
178.329875633451
20
0.940456047093448
30
0
41
1
10
178.132260547399
20
1.15773797924868
30
0
41
1
10
178.032521809031
20
1.28050015107274
30
0
41
1
10
177.931891461031
20
1.41695384282588
30
0
0
SPLINE
5
109
100
AcDbEntity
8
1
62
256
6
ByLayer
370
18
48
1
60
0
100
AcDbSpline
70
4
71
3
72
38
73
34
40
0
40
0
40
0
40
0
40
0.0959647182622943
40
0.0959647182622943
40
0.143947077393441
40
0.143947077393441
40
0.191929436524588
40
0.191929436524588
40
0.287894154786883
40
0.287894154786883
40
0.33587651391803
40
0.33587651391803
40
0.383858873049177
40
0.383858873049177
40
0.479823591311471
40
0.479823591311471
40
0.527805950442618
40
0.527805950442618
40
0.575788309573766
40
0.575788309573766
40
0.623770668704913
40
0.623770668704913
40
0.67175302783606
40
0.67175302783606
40
0.767717746098354
40
0.767717746098354
40
0.815700105229501
40
0.815700105229501
40
0.863682464360648
40
0.863682464360648
40
0.959647182622943
40
0.959647182622943
40
1
40
1
40
1
40
1
41
1
10
22.9115784622914
20
8.63771801139612
30
0
41
1
10
24.3763249144933
20
8.61009092268051
30
0
41
1
10
25.8394193891533
20
8.53401869800453
30
0
41
1
10
28.0360621753935
20
8.34943373159803
30
0
41
1
10
28.7686447398583
20
8.27612767702686
30
0
41
1
10
30.2348780247747
20
8.11022805789486
30
0
41
1
10
30.9686568613157
20
8.01780598245372
30
0
41
1
10
33.1685732569322
20
7.71711520236633
30
0
41
1
10
34.6341542039612
20
7.48427110082292
30
0
41
1
10
36.8344748168255
20
7.07979200354535
30
0
41
1
10
37.5684248696934
20
6.93582886456056
30
0
41
1
10
39.0369433353303
20
6.63066968622596
30
0
41
1
10
39.7708540800095
20
6.46951078769854
30
0
41
1
10
41.9721537740623
20
5.96295770262822
30
0
41
1
10
43.4389194338052
20
5.59445097230235
30
0
41
1
10
45.6416170163329
20
4.99805050513271
30
0
41
1
10
46.3763618462611
20
4.79207011846248
30
0
41
1
10
47.8444555693153
20
4.36846788648364
30
0
41
1
10
48.578175640861
20
4.15070670700283
30
0
41
1
10
50.0453086776768
20
3.70533722202572
30
0
41
1
10
50.7786810807989
20
3.47774120968816
30
0
41
1
10
52.2458088655796
20
3.01380783683365
30
0
41
1
10
52.979843829479
20
2.77738791523282
30
0
41
1
10
55.1819051670424
20
2.05830377888563
30
0
41
1
10
56.648387996861
20
1.56667173359349
30
0
41
1
10
58.8494214245243
20
0.822252741074749
30
0
41
1
10
59.5832395657395
20
0.572806400465055
30
0
41
1
10
61.0517537436641
20
0.0727710027563546
30
0
41
1
10
61.7863363143878
20
-0.177763579354064
30
0
41
1
10
63.9881510158706
20
-0.926750621146425
30
0
41
1
10
65.4549763035667
20
-1.42248764745278
30
0
41
1
10
67.5395919643995
20
-2.11554486875886
30
0
41
1
10
68.1569626726553
20
-2.31962532425999
30
0
41
1
10
68.7741814681229
20
-2.52161421316856
30
0
0
SPLINE
5
10A
100
AcDbEntity
8
1
62
256
6
ByLayer
370
18
48
1
60
0
100
AcDbSpline
70
4
71
3
72
8
73
4
40
0
40
0
40
0
40
0
40
1
40
1
40
1
40
1
41
1
10
160.956491141198
20
6.42282763713135
30
0
41
1
10
161.896504682211
20
6.64340665685955
30
0
41
1
10
162.837268642021
20
6.84993574159583
30
0
41
1
10
163.779448198672
20
7.04110289882777
30
0
0
SPLINE
5
10B
100
AcDbEntity
8
1
62
256
6
ByLayer
370
18
48
1
60
0
100
AcDbSpline
70
4
71
3
72
8
73
4
40
0
40
0
40
0
40
0
40
1
40
1
40
1
40
1
41
1
10
182.780533424617
20
9.34431407516863
30
0
41
1
10
182.815824962581
20
9.3310024086735
30
0
41
1
10
182.858830229008
20
9.29468486803393
30
0
41
1
10
182.909504942559
20
9.23549352050478
30
0
0
SPLINE
5
10C
100
AcDbEntity
8
1
62
256
6
ByLayer
370
18
48
1
60
0
100
AcDbSpline
70
4
71
3
72
8
73
4
40
0
40
0
40
0
40
0
40
1
40
1
40
1
40
1
41
1
10
173.9
20
2.79919969560007
30
0
41
1
10
173.9
20
2.88923432142258
30
0
41
1
10
173.9
20
2.98479570797073
30
0
41
1
10
173.9
20
3.08585169560007
30
0
0
SPLINE
5
10D
100
AcDbEntity
8
1
62
256
6
ByLayer
370
18
48
1
60
0
100
AcDbSpline
70
4
71
3
72
14
73
10
40
0
40
0
40
0
40
0
40
0.0563626575932101
40
0.0563626575932101
40
0.370908438395473
40
0.370908438395473
40
0.685454219197737
40
0.685454219197737
40
1
40
1
40
1
40
1
41
1
10
176.300769155471
20
1.96012328346464
30
0
41
1
10
176.395447670252
20
1.94830505643759
30
0
41
1
10
176.490131389476
20
1.9365330070334
30
0
41
1
10
177.113255428286
20
1.85936895007998
30
0
41
1
10
177.641872615923
20
1.79554624503237
30
0
41
1
10
178.699878062756
20
1.67474234480784
30
0
41
1
10
179.229191107825
20
1.61709379497756
30
0
41
1
10
180.287817318477
20
1.50179776460686
30
0
41
1
10
180.817216051553
20
1.4449095013384
30
0
41
1
10
181.346764034768
20
1.38934549427412
30
0
0
SPLINE
5
10E
100
AcDbEntity
8
1
62
256
6
ByLayer
370
18
48
1
60
0
100
AcDbSpline
70
4
71
3
72
8
73
4
40
0
40
0
40
0
40
0
40
1
40
1
40
1
40
1
41
1
10
174.003518876834
20
9.17868388213327
30
0
41
1
10
174.002345908398
20
9.17969516121889
30
0
41
1
10
174.001172949439
20
9.18070626295747
30
0
41
1
10
174
20
9.18171718729801
30
0
0
SPLINE
5
10F
100
AcDbEntity
8
1
62
256
6
ByLayer
370
18
48
1
60
0
100
AcDbSpline
70
4
71
3
72
8
73
4
40
0
40
0
40
0
40
0
40
1
40
1
40
1
40
1
41
1
10
181.465727737981
20
0.742009217471519
30
0
41
1
10
181.419338894761
20
0.956881195328208
30
0
41
1
10
181.380050021702
20
1.17270919564396
30
0
41
1
10
181.346764034763
20
1.38934549427935
30
0
0
SPLINE
5
110
100
AcDbEntity
8
1
62
256
6
ByLayer
370
18
48
1
60
0
100
AcDbSpline
70
4
71
3
72
12
73
8
40
0
40
0
40
0
40
0
40
0.500000000000037
40
0.500000000000037
40
0.750000000000018
40
0.750000000000018
40
1
40
1
40
1
40
1
41
1
10
163.907273610017
20
7.0669429387132
30
0
41
1
10
164.061156536962
20
7.10009115077159
30
0
41
1
10
164.208911200509
20
7.148757095348
30
0
41
1
10
164.421610671887
20
7.24453165190783
30
0
41
1
10
164.491014667451
20
7.28026419977809
30
0
41
1
10
164.626789929121
20
7.35940182753052
30
0
41
1
10
164.693168973814
20
7.40285435295243
30
0
41
1
10
164.75714441505
20
7.44952734312153
30
0
0
SPLINE
5
111
100
AcDbEntity
8
1
62
256
6
ByLayer
370
18
48
1
60
0
100
AcDbSpline
70
4
71
3
72
10
73
6
40
0
40
0
40
0
40
0
40
0.412805699080908
40
0.412805699080908
40
1
40
1
40
1
40
1
41
1
10
177.979870655817
20
-9.34997971795428
30
0
41
1
10
177.465097099994
20
-9.34971458852607
30
0
41
1
10
176.950331569608
20
-9.34060285509773
30
0
41
1
10
175.702794837635
20
-9.29717254209299
30
0
41
1
10
174.970013549113
20
-9.2538091678592
30
0
41
1
10
174.237318350422
20
-9.19237545992922
30
0
0
SPLINE
5
112
100
AcDbEntity
8
1
62
256
6
ByLayer
370
18
48
1
60
0
100
AcDbSpline
70
4
71
3
72
16
73
12
40
0
40
0
40
0
40
0
40
0.249999999999993
40
0.249999999999993
40
0.499999999999987
40
0.499999999999987
40
0.624999999999988
40
0.624999999999988
40
0.749999999999989
40
0.749999999999989
40
1
40
1
40
1
40
1
41
1
10
15.7487441069215
20
10.3014575623655
30
0
41
1
10
16.0667905283952
20
10.1064918702785
30
0
41
1
10
16.3939010021985
20
9.93639886567422
30
0
41
1
10
17.066544163659
20
9.64165138912153
30
0
41
1
10
17.4120649309803
20
9.51699360601248
30
0
41
1
10
17.9458781912255
20
9.36415721308086
30
0
41
1
10
18.1264211008069
20
9.31893782016607
30
0
41
1
10
18.4932496943556
20
9.24041558504666
30
0
41
1
10
18.6799357900575
20
9.20710564978651
30
0
41
1
10
19.2407840533857
20
9.12723529479811
30
0
41
1
10
19.6182398683911
20
9.09999427492954
30
0
41
1
10
19.9999999999999
20
9.09999440068935
30
0
0
SPLINE
5
113
100
AcDbEntity
8
1
62
256
6
ByLayer
370
18
48
1
60
0
100
AcDbSpline
70
4
71
3
72
18
73
14
40
0
40
0
40
0
40
0
40
0.124999999999999
40
0.124999999999999
40
0.249999999999998
40
0.249999999999998
40
0.499999999999996
40
0.499999999999996
40
0.624999999999995
40
0.624999999999995
40
0.749999999999994
40
0.749999999999994
40
1
40
1
40
1
40
1
41
1
10
24.301999990837
20
-7.99189541293555
30
0
41
1
10
24.3019999908238
20
-8.03524330523308
30
0
41
1
10
24.3065260659906
20
-8.07694854718207
30
0
41
1
10
24.3243860067767
20
-8.15602239255045
30
0
41
1
10
24.3376997956208
20
-8.19350489505709
30
0
41
1
10
24.3905547193892
20
-8.30008837025019
30
0
41
1
10
24.4429121014364
20
-8.36333601141581
30
0
41
1
10
24.5479287319689
20
-8.4474302625685
30
0
41
1
10
24.5873208495134
20
-8.47355946747302
30
0
41
1
10
24.673325538766
20
-8.52147274536523
30
0
41
1
10
24.7201062123554
20
-8.54340073344059
30
0
41
1
10
24.8715738568955
20
-8.60373188998472
30
0
41
1
10
24.9872959651365
20
-8.63669833305525
30
0
41
1
10
25.1182828359129
20
-8.66380659714429
30
0
0
SPLINE
5
114
100
AcDbEntity
8
1
62
256
6
ByLayer
370
18
48
1
60
0
100
AcDbSpline
70
4
71
3
72
8
73
4
40
0
40
0
40
0
40
0
40
1
40
1
40
1
40
1
41
1
10
174.649495483882
20
-9.46829213148084
30
0
41
1
10
174.466589071582
20
-9.39507881057091
30
0
41
1
10
174.283429397693
20
-9.32078817918909
30
0
41
1
10
174.1
20
-9.24546565663363
30
0
0
SPLINE
5
115
100
AcDbEntity
8
1
62
256
6
ByLayer
370
18
48
1
60
0
100
AcDbSpline
70
4
71
3
72
8
73
4
40
0
40
0
40
0
40
0
40
1
40
1
40
1
40
1
41
1
10
165
20
5.3966816115055
30
0
41
1
10
163.635980325295
20
5.76757880254092
30
0
41
1
10
162.273012636741
20
6.11497484322564
30
0
41
1
10
160.908983115167
20
6.4350109496456
30
0
0
SPLINE
5
116
100
AcDbEntity
8
1
62
256
6
ByLayer
370
18
48
1
60
0
100
AcDbSpline
70
4
71
1
72
4
73
2
40
0
40
0
40
1
40
1
41
1
10
179.784775907503
20
1.30289335044927
30
0
41
1
10
179.778414633202
20
1.30981102306345
30
0
0
SPLINE
5
117
100
AcDbEntity
8
1
62
256
6
ByLayer
370
18
48
1
60
0
100
AcDbSpline
70
4
71
3
72
8
73
4
40
0
40
0
40
0
40
0
40
1
40
1
40
1
40
1
41
1
10
19.4559351386829
20
1.77363724896037
30
0
41
1
10
19.499286717713
20
1.67323349635032
30
0
41
1
10
19.5416759760039
20
1.56876563502311
30
0
41
1
10
19.5827288096036
20
1.4604689363839
30
0
0
SPLINE
5
118
100
AcDbEntity
8
1
62
256
6
ByLayer
370
13
48
1
60
0
100
AcDbSpline
70
4
71
3
72
16
73
12
40
0
40
0
40
0
40
0
40
0.246898209602727
40
0.37034731440409
40
0.432071866804772
40
0.493796419205454
40
0.74069462880818
40
0.802419181208862
40
0.864143733609544
40
0.987592838410907
40
1
40
1
40
1
40
1
41
1
10
174.1
20
7.17182665713105
30
0
41
1
10
174.905012431487
20
7.20390278528822
30
0
41
1
10
176.112390722884
20
7.2223303785016
30
0
41
1
10
177.520280774564
20
7.19899113086436
30
0
41
1
10
178.324960612077
20
7.1752806189306
30
0
41
1
10
179.532425215962
20
7.12751453833522
30
0
41
1
10
180.739553551303
20
7.04531567518654
30
0
41
1
10
181.946335813424
20
6.93399579726804
30
0
41
1
10
182.751163000263
20
6.85327337389754
30
0
41
1
10
183.395236414491
20
6.77808242175601
30
0
41
1
10
183.838071796241
20
6.72153155841528
30
0
41
1
10
183.878513767176
20
6.71632689532674
30
0
0
SPLINE
5
119
100
AcDbEntity
8
1
62
256
6
ByLayer
370
18
48
1
60
0
100
AcDbSpline
70
4
71
3
72
8
73
4
40
0
40
0
40
0
40
0
40
1
40
1
40
1
40
1
41
1
10
19.6225877989274
20
-9.10888958715822
30
0
41
1
10
19.7479390287944
20
-9.10297431913503
30
0
41
1
10
19.8737340824757
20
-9.09999435909472
30
0
41
1
10
19.9999999999999
20
-9.09999440068935
30
0
0
SPLINE
5
11A
100
AcDbEntity
8
1
62
256
6
ByLayer
370
18
48
1
60
0
100
AcDbSpline
70
4
71
3
72
12
73
8
40
0
40
0
40
0
40
0
40
0.499999999999981
40
0.499999999999981
40
0.749999999999991
40
0.749999999999991
40
1
40
1
40
1
40
1
41
1
10
165.392686578919
20
6.73584170096964
30
0
41
1
10
165.45933177123
20
6.91519646442143
30
0
41
1
10
165.543651668949
20
7.08756841965067
30
0
41
1
10
165.697083710869
20
7.33486265308579
30
0
41
1
10
165.753079098356
20
7.41596706781741
30
0
41
1
10
165.870420597641
20
7.57104491306578
30
0
41
1
10
165.931852484477
20
7.64531635361408
30
0
41
1
10
165.995511761098
20
7.71696368596028
30
0
0
SPLINE
5
11B
100
AcDbEntity
8
1
62
256
6
ByLayer
370
18
48
1
60
0
100
AcDbSpline
70
4
71
3
72
80
73
76
40
0
40
0
40
0
40
0
40
0.0625000000000033
40
0.0625000000000033
40
0.125000000000006
40
0.125000000000006
40
0.18750000000001
40
0.18750000000001
40
0.218750000000011
40
0.218750000000011
40
0.250000000000013
40
0.250000000000013
40
0.281250000000014
40
0.281250000000014
40
0.312500000000016
40
0.312500000000016
40
0.328125000000017
40
0.328125000000017
40
0.343750000000019
40
0.343750000000019
40
0.35937500000002
40
0.35937500000002
40
0.36718750000002
40
0.36718750000002
40
0.375000000000021
40
0.375000000000021
40
0.39062500000002
40
0.39062500000002
40
0.398437500000019
40
0.398437500000019
40
0.406250000000019
40
0.406250000000019
40
0.437500000000018
40
0.437500000000018
40
0.445312500000018
40
0.445312500000018
40
0.453125000000018
40
0.453125000000018
40
0.468750000000017
40
0.468750000000017
40
0.476562500000017
40
0.476562500000017
40
0.484375000000017
40
0.484375000000017
40
0.500000000000016
40
0.500000000000016
40
0.515625000000016
40
0.515625000000016
40
0.531250000000016
40
0.531250000000016
40
0.562500000000015
40
0.562500000000015
40
0.593750000000014
40
0.593750000000014
40
0.609375000000013
40
0.609375000000013
40
0.625000000000013
40
0.625000000000013
40
0.656250000000012
40
0.656250000000012
40
0.687500000000011
40
0.687500000000011
40
0.70312500000001
40
0.70312500000001
40
0.71875000000001
40
0.71875000000001
40
0.750000000000009
40
0.750000000000009
40
0.812500000000007
40
0.812500000000007
40
0.875000000000004
40
0.875000000000004
40
0.937500000000002
40
0.937500000000002
40
1
40
1
40
1
40
1
41
1
10
15.6640324421665
20
10.3533675826265
30
0
41
1
10
15.1710981123298
20
10.6553187503938
30
0
41
1
10
14.6971061483808
20
10.9842508107028
30
0
41
1
10
13.768911540283
20
11.671437707504
30
0
41
1
10
13.3147693558072
20
12.0298284701378
30
0
41
1
10
12.4096719251507
20
12.7493595352385
30
0
41
1
10
11.9587482347048
20
13.1106859559503
30
0
41
1
10
11.2703186338912
20
13.631466461071
30
0
41
1
10
11.0384422667059
20
13.8017298575961
30
0
41
1
10
10.569695331236
20
14.1288537264073
30
0
41
1
10
10.3332834041304
20
14.2854018709287
30
0
41
1
10
9.85506867685439
20
14.5781366007893
30
0
41
1
10
9.61325249822264
20
14.714340507625
30
0
41
1
10
9.1234212723956
20
14.9589092502038
30
0
41
1
10
8.87537775867634
20
15.067318686907
30
0
41
1
10
8.49888497034249
20
15.2019536611738
30
0
41
1
10
8.37198105993264
20
15.242293000747
30
0
41
1
10
8.12265825446755
20
15.3106620465612
30
0
41
1
10
7.99980396885962
20
15.3389003055088
30
0
41
1
10
7.75875373383994
20
15.3829210706543
30
0
41
1
10
7.64055411696091
20
15.3987076748479
30
0
41
1
10
7.46774359867538
20
15.4125966987552
30
0
41
1
10
7.41081949171286
20
15.4155827525603
30
0
41
1
10
7.30027014866511
20
15.4182108976169
30
0
41
1
10
7.24644171313963
20
15.4178751020371
30
0
41
1
10
7.08946870259715
20
15.4120898028095
30
0
41
1
10
6.99082563394734
20
15.4018723718597
30
0
41
1
10
6.85271639775755
20
15.3775487974551
30
0
41
1
10
6.80832492712429
20
15.3679391256164
30
0
41
1
10
6.72301122516407
20
15.3457726251271
30
0
41
1
10
6.68194204537244
20
15.3331609495278
30
0
41
1
10
6.48762045712863
20
15.2634758099909
30
0
41
1
10
6.36909837854938
20
15.1880213034488
30
0
41
1
10
6.26695674044009
20
15.0743735858161
30
0
41
1
10
6.24880063940651
20
15.0505551735372
30
0
41
1
10
6.21756095615387
20
15.0014707071585
30
0
41
1
10
6.20447627137935
20
14.9762479112474
30
0
41
1
10
6.17255941696033
20
14.8986735151587
30
0
41
1
10
6.16103930190692
20
14.8444336282656
30
0
41
1
10
6.15783549252149
20
14.759474393715
30
0
41
1
10
6.15912019485015
20
14.7305501517504
30
0
41
1
10
6.16637534652719
20
14.6714707549925
30
0
41
1
10
6.17237641913897
20
14.6412471262723
30
0
41
1
10
6.19705634053994
20
14.5498271881295
30
0
41
1
10
6.22238915136927
20
14.4875682482905
30
0
41
1
10
6.28948140439869
20
14.3600508264513
30
0
41
1
10
6.33124858415567
20
14.2947914652483
30
0
41
1
10
6.43051269661655
20
14.1605709609227
30
0
41
1
10
6.48795877920901
20
14.0917811043201
30
0
41
1
10
6.67847115708827
20
13.8831677590782
30
0
41
1
10
6.83062263105288
20
13.7396770890095
30
0
41
1
10
7.17686822786089
20
13.4365628329123
30
0
41
1
10
7.36670309309488
20
13.2805731478437
30
0
41
1
10
7.66793484939305
20
13.0366945843327
30
0
41
1
10
7.77119834048821
20
12.9537001387913
30
0
41
1
10
7.98250908481663
20
12.783733429901
30
0
41
1
10
8.09036652517636
20
12.6969081492981
30
0
41
1
10
8.41482998284886
20
12.4339528516154
30
0
41
1
10
8.63390661798661
20
12.2539598002778
30
0
41
1
10
9.0734874508945
20
11.883123293175
30
0
41
1
10
9.2940211899176
20
11.6923034840622
30
0
41
1
10
9.62430110950243
20
11.3980643812665
30
0
41
1
10
9.73444221191977
20
11.2985432020488
30
0
41
1
10
9.95282142158283
20
11.0984549870812
30
0
41
1
10
10.0612589292904
20
10.9977150023878
30
0
41
1
10
10.3844528690123
20
10.6935182327596
30
0
41
1
10
10.5970845567156
20
10.4880774388373
30
0
41
1
10
11.2279819627003
20
9.86515380473276
30
0
41
1
10
11.6392812479049
20
9.44109317864786
30
0
41
1
10
12.4522670319526
20
8.5838115562251
30
0
41
1
10
12.8535535485304
20
8.15114802109062
30
0
41
1
10
13.6535345729275
20
7.28483965645634
30
0
41
1
10
14.0524270069466
20
6.85099059917755
30
0
41
1
10
14.8542814265529
20
5.98593489585619
30
0
41
1
10
15.2572282566435
20
5.55471711470673
30
0
41
1
10
15.6640324421665
20
5.12605241630706
30
0
0
SPLINE
5
11C
100
AcDbEntity
8
1
62
256
6
ByLayer
370
18
48
1
60
0
100
AcDbSpline
70
4
71
3
72
8
73
4
40
0
40
0
40
0
40
0
40
1
40
1
40
1
40
1
41
1
10
183.274298608495
20
3.25664491624161
30
0
41
1
10
183.284975230836
20
3.25748371075227
30
0
41
1
10
183.295651169601
20
3.25833020731156
30
0
41
1
10
183.306326390634
20
3.25918460369996
30
0
0
SPLINE
5
11D
100
AcDbEntity
8
1
62
256
6
ByLayer
370
18
48
1
60
0
100
AcDbSpline
70
4
71
3
72
11
73
7
40
0
40
0
40
0
40
0
40
0.25404800870047
40
0.505395349896617
40
0.75404499171465
40
1
40
1
40
1
40
1
41
1
10
179.245402134865
20
-3.6074060937118
30
0
41
1
10
179.224129980341
20
-3.55797568487063
30
0
41
1
10
179.181811805781
20
-3.45964033912389
30
0
41
1
10
179.119365402357
20
-3.31135445268063
30
0
41
1
10
179.058058014005
20
-3.16367058081536
30
0
41
1
10
179.01788771168
20
-3.0648092429563
30
0
41
1
10
178.997911985533
20
-3.01564787504933
30
0
0
SPLINE
5
11E
100
AcDbEntity
8
1
62
256
6
ByLayer
370
18
48
1
60
0
100
AcDbSpline
70
4
71
3
72
12
73
8
40
0
40
0
40
0
40
0
40
0.500000000000013
40
0.500000000000013
40
0.750000000000007
40
0.750000000000007
40
1
40
1
40
1
40
1
41
1
10
21.5068485547094
20
8.93474013412012
30
0
41
1
10
21.7355365432375
20
8.84375871038736
30
0
41
1
10
21.9674560141557
20
8.76993512795946
30
0
41
1
10
22.3220794153628
20
8.69194710059492
30
0
41
1
10
22.4419652527203
20
8.67148708649827
30
0
41
1
10
22.6783635789528
20
8.64428123634616
30
0
41
1
10
22.7955069431378
20
8.63734613111464
30
0
41
1
10
22.911578462196
20
8.63771801000587
30
0
0
SPLINE
5
11F
100
AcDbEntity
8
1
62
256
6
ByLayer
370
18
48
1
60
0
100
AcDbSpline
70
4
71
3
72
8
73
4
40
0
40
0
40
0
40
0
40
1
40
1
40
1
40
1
41
1
10
17.2331794558278
20
3.54584942181557
30
0
41
1
10
16.726154332585
20
4.03178848968824
30
0
41
1
10
16.2300504860434
20
4.52767451951388
30
0
41
1
10
15.7487441069214
20
5.03663193778942
30
0
0
SPLINE
5
120
100
AcDbEntity
8
1
62
256
6
ByLayer
370
18
48
1
60
0
100
AcDbSpline
70
4
71
3
72
8
73
4
40
0
40
0
40
0
40
0
40
1
40
1
40
1
40
1
41
1
10
181.530603419932
20
-8.69417595981213
30
0
41
1
10
179.353735611383
20
-8.69420074166894
30
0
41
1
10
177.176867806185
20
-8.69424065820803
30
0
41
1
10
175
20
-8.69414583234084
30
0
0
SPLINE
5
121
100
AcDbEntity
8
1
62
256
6
ByLayer
370
18
48
1
60
0
100
AcDbSpline
70
4
71
3
72
8
73
4
40
0
40
0
40
0
40
0
40
1
40
1
40
1
40
1
41
1
10
174.1
20
-8.8100794548063
30
0
41
1
10
174.066666666667
20
-8.84200003254111
30
0
41
1
10
174.033333333333
20
-8.87392061027592
30
0
41
1
10
174
20
-8.90584118801073
30
0
0
SPLINE
5
122
100
AcDbEntity
8
1
62
256
6
ByLayer
370
18
48
1
60
0
100
AcDbSpline
70
4
71
3
72
12
73
8
40
0
40
0
40
0
40
0
40
0.250000000000007
40
0.250000000000007
40
0.500000000000013
40
0.500000000000013
40
1
40
1
40
1
40
1
41
1
10
185.555016812707
20
-1.29153776343671
30
0
41
1
10
185.583786237633
20
-1.21131152566946
30
0
41
1
10
185.612482907508
20
-1.13046292734427
30
0
41
1
10
185.669732178682
20
-0.967533340679353
30
0
41
1
10
185.698378852078
20
-0.885178411692834
30
0
41
1
10
185.783418254572
20
-0.638250294939809
30
0
41
1
10
185.838486934497
20
-0.475082111780296
30
0
41
1
10
185.892079882982
20
-0.313231849073787
30
0
0
SPLINE
5
123
100
AcDbEntity
8
1
62
256
6
ByLayer
370
18
48
1
60
0
100
AcDbSpline
70
4
71
3
72
16
73
12
40
0
40
0
40
0
40
0
40
0.249999999999997
40
0.249999999999997
40
0.374999999999999
40
0.374999999999999
40
0.500000000000002
40
0.500000000000002
40
0.750000000000001
40
0.750000000000001
40
1
40
1
40
1
40
1
41
1
10
25.2215491410546
20
-9.16656197629334
30
0
41
1
10
25.0756433863213
20
-9.13902427329197
30
0
41
1
10
24.945926424884
20
-9.10541309223277
30
0
41
1
10
24.7752010679987
20
-9.04321796957544
30
0
41
1
10
24.7222942018147
20
-9.02051686872696
30
0
41
1
10
24.6247447638108
20
-8.970616472232
30
0
41
1
10
24.5803140177422
20
-8.94346692058761
30
0
41
1
10
24.4623628032113
20
-8.85650727025242
30
0
41
1
10
24.4029848536607
20
-8.79069145951658
30
0
41
1
10
24.3226679145094
20
-8.64134516876703
30
0
41
1
10
24.3019999901434
20
-8.55728410892013
30
0
41
1
10
24.30199999017
20
-8.46604619181952
30
0
0
SPLINE
5
124
100
AcDbEntity
8
1
62
256
6
ByLayer
370
18
48
1
60
0
100
AcDbSpline
70
4
71
3
72
8
73
4
40
0
40
0
40
0
40
0
40
1
40
1
40
1
40
1
41
1
10
176.328279993788
20
-9.50000424037427
30
0
41
1
10
175.769171520593
20
-9.50005029991087
30
0
41
1
10
175.209564582606
20
-9.48953400533281
30
0
41
1
10
174.649495483872
20
-9.46829213148388
30
0
0
SPLINE
5
125
100
AcDbEntity
8
1
62
256
6
ByLayer
370
18
48
1
60
0
100
AcDbSpline
70
4
71
3
72
20
73
16
40
0
40
0
40
0
40
0
40
0.237501463146662
40
0.237501463146662
40
0.356252194719994
40
0.356252194719994
40
0.475002926293327
40
0.475002926293327
40
0.59375365786666
40
0.59375365786666
40
0.712504389439993
40
0.712504389439993
40
0.950005852586659
40
0.950005852586659
40
1
40
1
40
1
40
1
41
1
10
160.048696222093
20
6.5924204766599
30
0
41
1
10
158.631860345308
20
6.92301787551966
30
0
41
1
10
157.216295461763
20
7.22008546012452
30
0
41
1
10
155.092272228822
20
7.61137994562893
30
0
41
1
10
154.3840940203
20
7.7328008905385
30
0
41
1
10
152.967032792769
20
7.95746572892358
30
0
41
1
10
152.257742337786
20
8.06071299362972
30
0
41
1
10
150.841454181325
20
8.24810268274061
30
0
41
1
10
150.134441097218
20
8.33242730987533
30
0
41
1
10
148.721387700817
20
8.48011150773291
30
0
41
1
10
148.015410938001
20
8.54360349268723
30
0
41
1
10
145.897909224014
20
8.70243388481228
30
0
41
1
10
144.486701955767
20
8.76606178519393
30
0
41
1
10
142.775857442884
20
8.79253849308222
30
0
41
1
10
142.47825893692
20
8.79529472979303
30
0
41
1
10
142.180550771836
20
8.79618471592991
30
0
0
SPLINE
5
126
100
AcDbEntity
8
1
62
256
6
ByLayer
370
18
48
1
60
0
100
AcDbSpline
70
4
71
3
72
40
73
36
40
0
40
0
40
0
40
0
40
0.0366087916784433
40
0.0366087916784433
40
0.073662299690811
40
0.073662299690811
40
0.110715807703178
40
0.110715807703178
40
0.184822823727914
40
0.184822823727914
40
0.258929839752649
40
0.258929839752649
40
0.295983347765016
40
0.295983347765016
40
0.333036855777384
40
0.333036855777384
40
0.407143871802119
40
0.407143871802119
40
0.481250887826854
40
0.481250887826854
40
0.555357903851589
40
0.555357903851589
40
0.629464919876324
40
0.629464919876324
40
0.703571935901059
40
0.703571935901059
40
0.740625443913427
40
0.740625443913427
40
0.777678951925795
40
0.777678951925795
40
0.85178596795053
40
0.85178596795053
40
0.925892983975265
40
0.925892983975265
40
1
40
1
40
1
40
1
41
1
10
81.5342991465386
20
-6.57323519171098
30
0
41
1
10
80.8361989651141
20
-6.73638026045654
30
0
41
1
10
80.1380257371554
20
-6.89220945808219
30
0
41
1
10
78.7326934424373
20
-7.18983885695303
30
0
41
1
10
78.0254537029244
20
-7.33120596723316
30
0
41
1
10
76.6094921852352
20
-7.59594312885912
30
0
41
1
10
75.9012664443014
20
-7.71917265968858
30
0
41
1
10
73.7795869970429
20
-8.05947957394747
30
0
41
1
10
72.3671475230469
20
-8.24776853972764
30
0
41
1
10
69.5417754701507
20
-8.54324601594644
30
0
41
1
10
68.1288959078973
20
-8.6500009345346
30
0
41
1
10
66.0064152086123
20
-8.74969819610499
30
0
41
1
10
65.2984192211064
20
-8.77280026795793
30
0
41
1
10
63.8811179624484
20
-8.79837927731154
30
0
41
1
10
63.172630831951
20
-8.80087713830849
30
0
41
1
10
61.0507110556529
20
-8.77608402591994
30
0
41
1
10
59.6393121607025
20
-8.71566161084212
30
0
41
1
10
56.8162243932152
20
-8.51071435432698
30
0
41
1
10
55.4044471329459
20
-8.36672404776121
30
0
41
1
10
52.5755745975102
20
-8.00130730023952
30
0
41
1
10
51.1567800510471
20
-7.77848515636515
30
0
41
1
10
48.3265987945282
20
-7.26481559211192
30
0
41
1
10
46.9136469257851
20
-6.97396538782104
30
0
41
1
10
44.0899252592473
20
-6.32633929417304
30
0
41
1
10
42.679290765115
20
-5.9682131360949
30
0
41
1
10
40.5602998911095
20
-5.38885104775946
30
0
41
1
10
39.8534444558471
20
-5.1888389049233
30
0
41
1
10
38.4380036677065
20
-4.77683407604815
30
0
41
1
10
37.7291583308027
20
-4.56476534679041
30
0
41
1
10
35.6061423504173
20
-3.91509291285814
30
0
41
1
10
34.1933900106173
20
-3.46281879918229
30
0
41
1
10
31.3689364997299
20
-2.53177081843322
30
0
41
1
10
29.9571365197606
20
-2.05342465343369
30
0
41
1
10
27.1318182528567
20
-1.07821397907489
30
0
41
1
10
25.7185956562597
20
-0.580400372072802
30
0
41
1
10
24.3019999999416
20
-0.0795046310577732
30
0
0
SPLINE
5
127
100
AcDbEntity
8
1
62
256
6
ByLayer
370
18
48
1
60
0
100
AcDbSpline
70
4
71
3
72
18
73
14
40
0
40
0
40
0
40
0
40
0.249999999999997
40
0.249999999999997
40
0.374999999999998
40
0.374999999999998
40
0.499999999999999
40
0.499999999999999
40
0.750000000000002
40
0.750000000000002
40
0.875000000000001
40
0.875000000000001
40
1
40
1
40
1
40
1
41
1
10
183.035463135564
20
-4.4940178508453
30
0
41
1
10
182.882329675811
20
-4.06458018462141
30
0
41
1
10
182.733723464649
20
-3.63362571064596
30
0
41
1
10
182.515702344817
20
-2.98555625993538
30
0
41
1
10
182.443934215597
20
-2.76922970537291
30
0
41
1
10
182.303930208748
20
-2.33539315193613
30
0
41
1
10
182.235946682261
20
-2.11778850738969
30
0
41
1
10
182.03507779723
20
-1.4640057505996
30
0
41
1
10
181.907523283354
20
-1.02645409795719
30
0
41
1
10
181.730751593444
20
-0.366241653387334
30
0
41
1
10
181.674150620914
20
-0.145551028770257
30
0
41
1
10
181.565267742928
20
0.296982647236376
30
0
41
1
10
181.51386057385
20
0.51905909847855
30
0
41
1
10
181.465727735926
20
0.74200921683871
30
0
0
SPLINE
5
128
100
AcDbEntity
8
1
62
256
6
ByLayer
370
18
48
1
60
0
100
AcDbSpline
70
4
71
3
72
8
73
4
40
0
40
0
40
0
40
0
40
1
40
1
40
1
40
1
41
1
10
174.003518876834
20
-9.17868388213321
30
0
41
1
10
174.002345908398
20
-9.17969516121886
30
0
41
1
10
174.001172949439
20
-9.18070626295744
30
0
41
1
10
174
20
-9.18171718729801
30
0
0
SPLINE
5
129
100
AcDbEntity
8
1
62
256
6
ByLayer
370
18
48
1
60
0
100
AcDbSpline
70
4
71
3
72
8
73
4
40
0
40
0
40
0
40
0
40
1
40
1
40
1
40
1
41
1
10
19.2115989008982
20
1.85282466448174
30
0
41
1
10
19.2934004579755
20
1.82397115189863
30
0
41
1
10
19.3748529716462
20
1.79767719666663
30
0
41
1
10
19.4559351386829
20
1.77363724896037
30
0
0
SPLINE
5
12A
100
AcDbEntity
8
1
62
256
6
ByLayer
370
18
48
1
60
0
100
AcDbSpline
70
4
71
2
72
6
73
3
40
0
40
0
40
0
40
1
40
1
40
1
41
1
10
177.777863707665
20
1.2088190938976
30
0
41
1
10
177.990245074723
20
0.316993822536404
30
0
41
1
10
178.268074863172
20
-0.580135719544302
30
0
0
SPLINE
5
12B
100
AcDbEntity
8
1
62
256
6
ByLayer
370
18
48
1
60
0
100
AcDbSpline
70
4
71
3
72
8
73
4
40
0
40
0
40
0
40
0
40
1
40
1
40
1
40
1
41
1
10
15.6640324421665
20
10.3533675826265
30
0
41
1
10
15.6922680496316
20
10.3360716181731
30
0
41
1
10
15.7205052886829
20
10.3187682452403
30
0
41
1
10
15.7487441069215
20
10.3014575623655
30
0
0
SPLINE
5
12C
100
AcDbEntity
8
1
62
256
6
ByLayer
370
18
48
1
60
0
100
AcDbSpline
70
4
71
3
72
52
73
48
40
0
40
0
40
0
40
0
40
0.056891239409481
40
0.056891239409481
40
0.0885678778614554
40
0.0885678778614554
40
0.12024451631343
40
0.12024451631343
40
0.151921154765404
40
0.151921154765404
40
0.183597793217379
40
0.183597793217379
40
0.246951070121328
40
0.246951070121328
40
0.310304347025278
40
0.310304347025278
40
0.341980985477254
40
0.341980985477254
40
0.373657623929229
40
0.373657623929229
40
0.43701090083318
40
0.43701090083318
40
0.500364177737131
40
0.500364177737131
40
0.532040816189107
40
0.532040816189107
40
0.563717454641083
40
0.563717454641083
40
0.627070731545035
40
0.627070731545035
40
0.658747369997011
40
0.658747369997011
40
0.690424008448987
40
0.690424008448987
40
0.753777285352939
40
0.753777285352939
40
0.785453923804915
40
0.785453923804915
40
0.81713056225689
40
0.81713056225689
40
0.848807200708866
40
0.848807200708866
40
0.880483839160841
40
0.880483839160841
40
0.943837116064792
40
0.943837116064792
40
1
40
1
40
1
40
1
41
1
10
159.763933388356
20
-6.4848409680433
30
0
41
1
10
158.448552829729
20
-6.76044773690478
30
0
41
1
10
157.134196700894
20
-7.00627347775262
30
0
41
1
10
155.087178636393
20
-7.33993299701888
30
0
41
1
10
154.354874482247
20
-7.44942656832504
30
0
41
1
10
152.889405813953
20
-7.64899107902301
30
0
41
1
10
152.15605199025
20
-7.73886491400395
30
0
41
1
10
150.690414774502
20
-7.90103179982336
30
0
41
1
10
149.957893910149
20
-7.97337837955175
30
0
41
1
10
148.492809104593
20
-8.09744739963182
30
0
41
1
10
147.760254106675
20
-8.1495162956036
30
0
41
1
10
145.561657055447
20
-8.27451111340937
30
0
41
1
10
144.093835908897
20
-8.31615830756101
30
0
41
1
10
141.161265731601
20
-8.31265956088342
30
0
41
1
10
139.695475399913
20
-8.26706088642607
30
0
41
1
10
137.494589931644
20
-8.13412678147705
30
0
41
1
10
136.760488749736
20
-8.07905045165106
30
0
41
1
10
135.293650546234
20
-7.94851090287079
30
0
41
1
10
134.560594388318
20
-7.87302789591806
30
0
41
1
10
132.361851883694
20
-7.61749488053144
30
0
41
1
10
130.896111273056
20
-7.40792290440641
30
0
41
1
10
127.962347217981
20
-6.91418393870555
30
0
41
1
10
126.497090331625
20
-6.63059676552683
30
0
41
1
10
124.297950753871
20
-6.15644839286333
30
0
41
1
10
123.564705444736
20
-5.9902392639485
30
0
41
1
10
122.097319513356
20
-5.64231240966291
30
0
41
1
10
121.363216280785
20
-5.46064828241845
30
0
41
1
10
119.162845749068
20
-4.89538170726524
30
0
41
1
10
117.697136746088
20
-4.49121288350872
30
0
41
1
10
115.497675709169
20
-3.85283833284936
30
0
41
1
10
114.764111637163
20
-3.63457335902206
30
0
41
1
10
113.297370609896
20
-3.18918245700485
30
0
41
1
10
112.564455705114
20
-2.96216539149597
30
0
41
1
10
110.366064034762
20
-2.27082333521153
30
0
41
1
10
108.900896611592
20
-1.79628895572785
30
0
41
1
10
106.700090311315
20
-1.07470877134512
30
0
41
1
10
105.966187566304
20
-0.832586006646295
30
0
41
1
10
104.499518204453
20
-0.347349144009968
30
0
41
1
10
103.766442589879
20
-0.104129362914961
30
0
41
1
10
102.300306712037
20
0.381993591451277
30
0
41
1
10
101.567241826098
20
0.624882240858057
30
0
41
1
10
100.100653669894
20
1.10891954368895
30
0
41
1
10
99.3668274585141
20
1.35016355531164
30
0
41
1
10
97.1665619895001
20
2.06863526646379
30
0
41
1
10
95.701704406116
20
2.54054094107013
30
0
41
1
10
92.9368435379922
20
3.40141060153493
30
0
41
1
10
91.6359737076265
20
3.79384089772384
30
0
41
1
10
90.3357900567848
20
4.16820270503155
30
0
0
SPLINE
5
12D
100
AcDbEntity
8
1
62
256
6
ByLayer
370
18
48
1
60
0
100
AcDbSpline
70
4
71
3
72
8
73
4
40
0
40
0
40
0
40
0
40
1
40
1
40
1
40
1
41
1
10
174.23731835042
20
-9.19237545992908
30
0
41
1
10
174.37485615512
20
-9.2531393050196
30
0
41
1
10
174.512245718965
20
-9.31337694542316
30
0
41
1
10
174.649495483891
20
-9.37306966734798
30
0
0
SPLINE
5
12E
100
AcDbEntity
8
1
62
256
6
ByLayer
370
18
48
1
60
0
100
AcDbSpline
70
4
71
3
72
60
73
56
40
0
40
0
40
0
40
0
40
0.0534759357044613
40
0.0534759357044613
40
0.080213903556692
40
0.080213903556692
40
0.0935828874828078
40
0.0935828874828078
40
0.106951871408924
40
0.106951871408924
40
0.133689839261154
40
0.133689839261154
40
0.160427807113385
40
0.160427807113385
40
0.213903742817846
40
0.213903742817846
40
0.267379678522308
40
0.267379678522308
40
0.320855614226769
40
0.320855614226769
40
0.37433154993123
40
0.37433154993123
40
0.387700533857346
40
0.387700533857346
40
0.401069517783461
40
0.401069517783461
40
0.427807485635692
40
0.427807485635692
40
0.481283421340152
40
0.481283421340152
40
0.534759357044613
40
0.534759357044613
40
0.588235292749073
40
0.588235292749073
40
0.641711228453534
40
0.641711228453534
40
0.668449196305764
40
0.668449196305764
40
0.695187164157994
40
0.695187164157994
40
0.748663099862456
40
0.748663099862456
40
0.802139035566917
40
0.802139035566917
40
0.855614971271378
40
0.855614971271378
40
0.90909090697584
40
0.90909090697584
40
0.962566842680301
40
0.962566842680301
40
0.975935826606416
40
0.975935826606416
40
0.989304810532531
40
0.989304810532531
40
1
40
1
40
1
40
1
41
1
10
163.758977312891
20
-7.45871304558128
30
0
41
1
10
162.280397781939
20
-7.13268821861934
30
0
41
1
10
160.804949153871
20
-6.76702425219617
30
0
41
1
10
158.592732096772
20
-6.16428584366616
30
0
41
1
10
157.855418539896
20
-5.95444833317851
30
0
41
1
10
156.748611133292
20
-5.62819587375137
30
0
41
1
10
156.379367160427
20
-5.5174740552257
30
0
41
1
10
155.641950117914
20
-5.29299145157674
30
0
41
1
10
155.273578373144
20
-5.17936162353445
30
0
41
1
10
154.16886678937
20
-4.83590916371679
30
0
41
1
10
153.43372287756
20
-4.60149476540064
30
0
41
1
10
151.966235601405
20
-4.12146617821185
30
0
41
1
10
151.23379261689
20
-3.8761076910628
30
0
41
1
10
149.039559487045
20
-3.12614385199765
30
0
41
1
10
147.580751179353
20
-2.60792675917494
30
0
41
1
10
144.664718159109
20
-1.55251805202798
30
0
41
1
10
143.208061348395
20
-1.01379588219322
30
0
41
1
10
140.2928153355
20
0.0729974824127737
30
0
41
1
10
138.834058430942
20
0.620649771463292
30
0
41
1
10
135.905629659801
20
1.69979733968449
30
0
41
1
10
134.4365581203
20
2.23294936318791
30
0
41
1
10
132.592343583629
20
2.88625749417915
30
0
41
1
10
132.222798303943
20
3.0163358006738
30
0
41
1
10
131.484459784642
20
3.27426205838927
30
0
41
1
10
131.115745731768
20
3.40208618566228
30
0
41
1
10
130.010833717422
20
3.78178727676661
30
0
41
1
10
129.275847262771
20
4.02983335376817
30
0
41
1
10
127.074558813478
20
4.75579850488387
30
0
41
1
10
125.612428400154
20
5.21688549897979
30
0
41
1
10
122.694417620521
20
6.08225134376622
30
0
41
1
10
121.238397705858
20
6.4859660181969
30
0
41
1
10
118.323509218957
20
7.21837316466241
30
0
41
1
10
116.865190514242
20
7.54846175033043
30
0
41
1
10
113.944022152627
20
8.13151080159454
30
0
41
1
10
112.481057612096
20
8.38407265120821
30
0
41
1
10
110.278211452607
20
8.69698313908063
30
0
41
1
10
109.542603858697
20
8.79042105362396
30
0
41
1
10
108.068330660244
20
8.95480481405178
30
0
41
1
10
107.328971347456
20
9.02573199200384
30
0
41
1
10
105.119565978168
20
9.20219055725852
30
0
41
1
10
103.653805565144
20
9.27161479253667
30
0
41
1
10
100.727850458479
20
9.31414184914019
30
0
41
1
10
99.2681264318666
20
9.28780844600718
30
0
41
1
10
96.3524543608751
20
9.14176511421979
30
0
41
1
10
94.8964181682649
20
9.02179581888313
30
0
41
1
10
91.98159057213
20
8.69165957663702
30
0
41
1
10
90.5232422499989
20
8.48127277531995
30
0
41
1
10
87.6002232947714
20
7.97247045997179
30
0
41
1
10
86.1354083021596
20
7.673866313324
30
0
41
1
10
84.2948507170248
20
7.25344054596067
30
0
41
1
10
83.9262700990033
20
7.16700888118388
30
0
41
1
10
83.1881907943459
20
6.9894055222488
30
0
41
1
10
82.8185464699428
20
6.89819988899916
30
0
41
1
10
82.1539188519632
20
6.73025280325052
30
0
41
1
10
81.8586618154996
20
6.65423751272061
30
0
41
1
10
81.5635238593703
20
6.57687909446531
30
0
0
SPLINE
5
12F
100
AcDbEntity
8
1
62
256
6
ByLayer
370
18
48
1
60
0
100
AcDbSpline
70
4
71
3
72
18
73
14
40
0
40
0
40
0
40
0
40
0.124999999999988
40
0.124999999999988
40
0.249999999999976
40
0.249999999999976
40
0.499999999999997
40
0.499999999999997
40
0.625000000000007
40
0.625000000000007
40
0.750000000000017
40
0.750000000000017
40
1
40
1
40
1
40
1
41
1
10
163.758977312892
20
7.45871304558136
30
0
41
1
10
163.825779351035
20
7.47092940591668
30
0
41
1
10
163.892387245845
20
7.48464959209221
30
0
41
1
10
164.023225079827
20
7.51464238527524
30
0
41
1
10
164.087366870622
20
7.53087909253142
30
0
41
1
10
164.276053682638
20
7.58306923967385
30
0
41
1
10
164.396876665365
20
7.62249346298594
30
0
41
1
10
164.570704343914
20
7.68782434455579
30
0
41
1
10
164.627408205637
20
7.71063628335159
30
0
41
1
10
164.738295734804
20
7.75823053298276
30
0
41
1
10
164.792536679005
20
7.78305476265137
30
0
41
1
10
164.948884015946
20
7.85906400632584
30
0
41
1
10
165.045546894006
20
7.91214570249502
30
0
41
1
10
165.134985560366
20
7.96694192099554
30
0
0
SPLINE
5
130
100
AcDbEntity
8
1
62
256
6
ByLayer
370
18
48
1
60
0
100
AcDbSpline
70
4
71
3
72
14
73
10
40
0
40
0
40
0
40
0
40
0.25
40
0.25
40
0.5
40
0.5
40
0.75
40
0.75
40
1
40
1
40
1
40
1
41
1
10
185.779871749513
20
0.889853658666254
30
0
41
1
10
185.747321372789
20
1.02742450335879
30
0
41
1
10
185.707035327066
20
1.18405568653063
30
0
41
1
10
185.612603796343
20
1.52917214437392
30
0
41
1
10
185.558461076711
20
1.71764718774585
30
0
41
1
10
185.438489811097
20
2.11888363964638
30
0
41
1
10
185.372664499421
20
2.33163423124233
30
0
41
1
10
185.231970416094
20
2.77288079664373
30
0
41
1
10
185.157106777657
20
3.00136088202535
30
0
41
1
10
185.07922146229
20
3.233135058832
30
0
0
SPLINE
5
131
100
AcDbEntity
8
1
62
256
6
ByLayer
370
18
48
1
60
0
100
AcDbSpline
70
4
71
3
72
18
73
14
40
0
40
0
40
0
40
0
40
0.124999999999999
40
0.124999999999999
40
0.249999999999997
40
0.249999999999997
40
0.500000000000011
40
0.500000000000011
40
0.625000000000008
40
0.625000000000008
40
0.750000000000006
40
0.750000000000006
40
1
40
1
40
1
40
1
41
1
10
181.346764034765
20
1.38934549427606
30
0
41
1
10
181.403850862007
20
1.46074328288282
30
0
41
1
10
181.464437169535
20
1.53383042848003
30
0
41
1
10
181.592551409565
20
1.68330141764693
30
0
41
1
10
181.660326114167
20
1.75994134204379
30
0
41
1
10
181.870834845092
20
1.99100888858422
30
0
41
1
10
182.021425571126
20
2.14752943424722
30
0
41
1
10
182.262236368501
20
2.38470687772548
30
0
41
1
10
182.34499676948
20
2.46416681305763
30
0
41
1
10
182.515584597897
20
2.62360745820075
30
0
41
1
10
182.603358851793
20
2.7034794839303
30
0
41
1
10
182.870858948174
20
2.93989907380018
30
0
41
1
10
183.056165132795
20
3.0941604123619
30
0
41
1
10
183.247374381038
20
3.2455963190443
30
0
0
SPLINE
5
132
100
AcDbEntity
8
1
62
256
6
ByLayer
370
18
48
1
60
0
100
AcDbSpline
70
4
71
3
72
8
73
4
40
0
40
0
40
0
40
0
40
1
40
1
40
1
40
1
41
1
10
160.223018255547
20
-4.59045633761323
30
0
41
1
10
160.445543190643
20
-4.56773901396872
30
0
41
1
10
160.68603723208
20
-4.55699567950748
30
0
41
1
10
160.941916096794
20
-4.55650423843932
30
0
0
SPLINE
5
133
100
AcDbEntity
8
1
62
256
6
ByLayer
370
18
48
1
60
0
100
AcDbSpline
70
4
71
3
72
8
73
4
40
0
40
0
40
0
40
0
40
1
40
1
40
1
40
1
41
1
10
163.779448198671
20
7.04110289882755
30
0
41
1
10
163.772397959754
20
7.18155190127831
30
0
41
1
10
163.765536686546
20
7.32074585868006
30
0
41
1
10
163.758977312892
20
7.45871304558142
30
0
0
SPLINE
5
134
100
AcDbEntity
8
1
62
256
6
ByLayer
370
18
48
1
60
0
100
AcDbSpline
70
4
71
3
72
12
73
8
40
0
40
0
40
0
40
0
40
0.5
40
0.5
40
0.75
40
0.75
40
1
40
1
40
1
40
1
41
1
10
165
20
5.44869625476414
30
0
41
1
10
167.105372146031
20
4.82785413453212
30
0
41
1
10
169.20892079969
20
4.15163414616239
30
0
41
1
10
172.372952633667
20
3.08169038919019
30
0
41
1
10
173.430114602579
20
2.71511733114204
30
0
41
1
10
175.540207743571
20
1.97205851586585
30
0
41
1
10
176.593787372432
20
1.59512292477473
30
0
41
1
10
177.646703147469
20
1.21499583442338
30
0
0
SPLINE
5
135
100
AcDbEntity
8
1
62
256
6
ByLayer
370
18
48
1
60
0
100
AcDbSpline
70
4
71
3
72
8
73
4
40
0
40
0
40
0
40
0
40
1
40
1
40
1
40
1
41
1
10
178.268074934619
20
-0.580135964913808
30
0
41
1
10
178.225975132963
20
-0.594095402207017
30
0
41
1
10
178.184165699211
20
-0.609288643049808
30
0
41
1
10
178.142739273055
20
-0.625693849295402
30
0
0
SPLINE
5
136
100
AcDbEntity
8
1
62
256
6
ByLayer
370
13
48
1
60
0
100
AcDbSpline
70
4
71
3
72
16
73
12
40
0
40
0
40
0
40
0
40
0.25
40
0.25
40
0.5
40
0.5
40
0.75
40
0.75
40
0.875
40
0.875
40
1
40
1
40
1
40
1
41
1
10
184.923672886781
20
0.964755798445168
30
0
41
1
10
184.739977522447
20
1.08990189617631
30
0
41
1
10
184.563493033271
20
1.22883394544468
30
0
41
1
10
184.228512592072
20
1.53842460234637
30
0
41
1
10
184.069834125903
20
1.70910334278054
30
0
41
1
10
183.775675469183
20
2.09225649352933
30
0
41
1
10
183.644043031741
20
2.29981610143739
30
0
41
1
10
183.476812189808
20
2.64175974042851
30
0
41
1
10
183.426824098793
20
2.75969496553051
30
0
41
1
10
183.340271935979
20
3.00240390511558
30
0
41
1
10
183.303551412918
20
3.12743145834406
30
0
41
1
10
183.274298610228
20
3.25664489800388
30
0
0
SPLINE
5
137
100
AcDbEntity
8
1
62
256
6
ByLayer
370
18
48
1
60
0
100
AcDbSpline
70
4
71
3
72
8
73
4
40
0
40
0
40
0
40
0
40
1
40
1
40
1
40
1
41
1
10
174.226487645313
20
-8.96169575581399
30
0
41
1
10
174.233659098518
20
-8.98588710211735
30
0
41
1
10
174.23731835042
20
-9.00913067188438
30
0
41
1
10
174.23731835042
20
-9.03138695653936
30
0
0
SPLINE
5
138
100
AcDbEntity
8
1
62
256
6
ByLayer
370
18
48
1
60
0
100
AcDbSpline
70
4
71
3
72
10
73
6
40
0
40
0
40
0
40
0
40
0.5
40
0.5
40
1
40
1
40
1
40
1
41
1
10
184.815831695473
20
-2.49175266844068
30
0
41
1
10
184.945106981562
20
-2.34636149053804
30
0
41
1
10
185.07360058083
20
-2.17561445175892
30
0
41
1
10
185.327668345152
20
-1.76762344411642
30
0
41
1
10
185.446175057622
20
-1.5414399594091
30
0
41
1
10
185.555016812706
20
-1.29153776343631
30
0
0
SPLINE
5
139
100
AcDbEntity
8
1
62
256
6
ByLayer
370
18
48
1
60
0
100
AcDbSpline
70
4
71
3
72
8
73
4
40
0
40
0
40
0
40
0
40
1
40
1
40
1
40
1
41
1
10
174.649495483882
20
9.46829213148084
30
0
41
1
10
174.466589071582
20
9.39507881057088
30
0
41
1
10
174.283429397693
20
9.32078817918909
30
0
41
1
10
174.1
20
9.24546565663363
30
0
0
SPLINE
5
13A
100
AcDbEntity
8
1
62
256
6
ByLayer
370
18
48
1
60
0
100
AcDbSpline
70
4
71
3
72
8
73
4
40
0
40
0
40
0
40
0
40
1
40
1
40
1
40
1
41
1
10
17.3797078054895
20
3.40006108102503
30
0
41
1
10
17.3301438036923
20
3.44774787590845
30
0
41
1
10
17.2813064885613
20
3.49635014697324
30
0
41
1
10
17.2331794558213
20
3.54584942182299
30
0
0
SPLINE
5
13B
100
AcDbEntity
8
1
62
256
6
ByLayer
370
13
48
1
60
0
100
AcDbSpline
70
4
71
3
72
8
73
4
40
0
40
0
40
0
40
0
40
1
40
1
40
1
40
1
41
1
10
184.923672886781
20
0.964755798445253
30
0
41
1
10
184.907158369101
20
0.956903532225141
30
0
41
1
10
184.890004567153
20
0.942608706444588
30
0
41
1
10
184.875922978666
20
0.924964233892013
30
0
0
SPLINE
5
13C
100
AcDbEntity
8
1
62
256
6
ByLayer
370
18
48
1
60
0
100
AcDbSpline
70
4
71
3
72
38
73
34
40
0
40
0
40
0
40
0
40
0.0624999999999999
40
0.0624999999999999
40
0.125
40
0.125
40
0.1875
40
0.1875
40
0.25
40
0.25
40
0.3125
40
0.3125
40
0.375
40
0.375
40
0.4375
40
0.4375
40
0.5
40
0.5
40
0.5625
40
0.5625
40
0.625
40
0.625
40
0.6875
40
0.6875
40
0.75
40
0.75
40
0.8125
40
0.8125
40
0.875
40
0.875
40
0.9375
40
0.9375
40
1
40
1
40
1
40
1
41
1
10
178.142739195359
20
-0.625693152068237
30
0
41
1
10
178.070448950426
20
-0.648374215515048
30
0
41
1
10
177.999901688463
20
-0.677159881460796
30
0
41
1
10
177.865951835405
20
-0.745108964964572
30
0
41
1
10
177.80196452199
20
-0.784441938801223
30
0
41
1
10
177.680202823618
20
-0.874218089321914
30
0
41
1
10
177.622953804716
20
-0.924437446276585
30
0
41
1
10
177.519240586041
20
-1.03243135114272
30
0
41
1
10
177.472217923267
20
-1.09059174770584
30
0
41
1
10
177.388439417927
20
-1.21570618236194
30
0
41
1
10
177.352072295418
20
-1.28239140181569
30
0
41
1
10
177.293241825932
20
-1.41907849715483
30
0
41
1
10
177.270307716995
20
-1.48972833965183
30
0
41
1
10
177.238188814365
20
-1.63588142442191
30
0
41
1
10
177.229367223506
20
-1.71045312746264
30
0
41
1
10
177.226516395819
20
-1.85793150670398
30
0
41
1
10
177.232348715629
20
-1.93168457481448
30
0
41
1
10
177.258959565263
20
-2.07825933455101
30
0
41
1
10
177.279316157735
20
-2.14895234012749
30
0
41
1
10
177.333285149763
20
-2.28551286515523
30
0
41
1
10
177.36733672947
20
-2.35198710013552
30
0
41
1
10
177.446713836435
20
-2.47646441270342
30
0
41
1
10
177.491846284883
20
-2.534501034268
30
0
41
1
10
177.592536332718
20
-2.64263948794738
30
0
41
1
10
177.648491513784
20
-2.69290885460998
30
0
41
1
10
177.766841039408
20
-2.78226484116394
30
0
41
1
10
177.829608692633
20
-2.82184693924452
30
0
41
1
10
177.96226640629
20
-2.89103196196339
30
0
41
1
10
178.032250590013
20
-2.92051791022874
30
0
41
1
10
178.174420100999
20
-2.96746954150584
30
0
41
1
10
178.247203259781
20
-2.98528434707984
30
0
41
1
10
178.396239056834
20
-3.00942033501079
30
0
41
1
10
178.472548104235
20
-3.01564786726149
30
0
41
1
10
178.548754971656
20
-3.01564786726149
30
0
0
SPLINE
5
13D
100
AcDbEntity
8
1
62
256
6
ByLayer
370
18
48
1
60
0
100
AcDbSpline
70
4
71
3
72
8
73
4
40
0
40
0
40
0
40
0
40
1
40
1
40
1
40
1
41
1
10
21.9
20
-9.29964662004636
30
0
41
1
10
21.746153376959
20
-9.28349296816398
30
0
41
1
10
21.5946955757425
20
-9.2677702693951
30
0
41
1
10
21.4456076816379
20
-9.25216866618445
30
0
0
SPLINE
5
13E
100
AcDbEntity
8
1
62
256
6
ByLayer
370
18
48
1
60
0
100
AcDbSpline
70
4
71
3
72
8
73
4
40
0
40
0
40
0
40
0
40
1
40
1
40
1
40
1
41
1
10
25.1182828359129
20
-8.66380659714426
30
0
41
1
10
25.149922166247
20
-8.83183966994687
30
0
41
1
10
25.1840242388138
20
-8.99947814287196
30
0
41
1
10
25.2215491410545
20
-9.16656197629376
30
0
0
SPLINE
5
13F
100
AcDbEntity
8
1
62
256
6
ByLayer
370
18
48
1
60
0
100
AcDbSpline
70
4
71
3
72
8
73
4
40
0
40
0
40
0
40
0
40
1
40
1
40
1
40
1
41
1
10
185.983461814753
20
-0.0726578547756276
30
0
41
1
10
185.971785301441
20
-0.11195389168023
30
0
41
1
10
185.960164784181
20
-0.151143017368668
30
0
41
1
10
185.948599894711
20
-0.190225934953048
30
0
0
SPLINE
5
140
100
AcDbEntity
8
1
62
256
6
ByLayer
370
18
48
1
60
0
100
AcDbSpline
70
4
71
3
72
8
73
4
40
0
40
0
40
0
40
0
40
1
40
1
40
1
40
1
41
1
10
183.87851377239
20
-6.71632689291613
30
0
41
1
10
183.632674036129
20
-7.46722392054011
30
0
41
1
10
183.383104930581
20
-8.22205302661456
30
0
41
1
10
183.129688211089
20
-8.98093889336914
30
0
0
SPLINE
5
141
100
AcDbEntity
8
1
62
256
6
ByLayer
370
18
48
1
60
0
100
AcDbSpline
70
4
71
3
72
42
73
38
40
0
40
0
40
0
40
0
40
0.0017113550072562
40
0.0017113550072562
40
0.0730176867924524
40
0.0730176867924524
40
0.144324018577649
40
0.144324018577649
40
0.179977184470247
40
0.179977184470247
40
0.215630350362845
40
0.215630350362845
40
0.286936682148041
40
0.286936682148041
40
0.358243013933237
40
0.358243013933237
40
0.429549345718433
40
0.429549345718433
40
0.46520251161103
40
0.46520251161103
40
0.500855677503628
40
0.500855677503628
40
0.572162009288824
40
0.572162009288824
40
0.643468341074019
40
0.643468341074019
40
0.679121506966617
40
0.679121506966617
40
0.714774672859215
40
0.714774672859215
40
0.786081004644411
40
0.786081004644411
40
0.857387336429608
40
0.857387336429608
40
0.928693668214804
40
0.928693668214804
40
1
40
1
40
1
40
1
41
1
10
81.1422753783409
20
-6.46868834960711
30
0
41
1
10
81.1070928385015
20
-6.47602518781176
30
0
41
1
10
81.0719107967773
20
-6.48334399633427
30
0
41
1
10
79.570833160249
20
-6.79484254634602
30
0
41
1
10
78.1058028348592
20
-7.06760273086635
30
0
41
1
10
75.1719387084284
20
-7.53768960276983
30
0
41
1
10
73.706186727607
20
-7.73437037456657
30
0
41
1
10
71.5073176526233
20
-7.96703483633445
30
0
41
1
10
70.7742404249485
20
-8.03422307750219
30
0
41
1
10
69.3073416271963
20
-8.14714272484898
30
0
41
1
10
68.5732251719164
20
-8.19297200948478
30
0
41
1
10
66.372541493337
20
-8.29807491659443
30
0
41
1
10
64.9069024618126
20
-8.32484404875575
30
0
41
1
10
61.9749100525872
20
-8.29614101833675
30
0
41
1
10
60.5076201221311
20
-8.24040598462534
30
0
41
1
10
57.5762545388635
20
-8.04457113535585
30
0
41
1
10
56.1112634167942
20
-7.90451987296791
30
0
41
1
10
53.9110894206254
20
-7.63400464887906
30
0
41
1
10
53.1770149312041
20
-7.53371164042105
30
0
41
1
10
51.7100322676256
20
-7.31364551314644
30
0
41
1
10
50.976866587507
20
-7.19392309286425
30
0
41
1
10
48.7775977618728
20
-6.80706247486202
30
0
41
1
10
47.3115186944936
20
-6.51209869970114
30
0
41
1
10
44.376999348918
20
-5.85861173796297
30
0
41
1
10
42.9120089994097
20
-5.50061184451744
30
0
41
1
10
40.7138733126991
20
-4.92393665412618
30
0
41
1
10
39.9810452457156
20
-4.72511638244234
30
0
41
1
10
38.5145086927722
20
-4.31582741815953
30
0
41
1
10
37.7806516544192
20
-4.10531439709564
30
0
41
1
10
35.5807555874607
20
-3.45966415716993
30
0
41
1
10
34.1151770665053
20
-3.00988205484558
30
0
41
1
10
31.1819433338913
20
-2.08393163303026
30
0
41
1
10
29.7134654324681
20
-1.60771541796046
30
0
41
1
10
26.7822611976261
20
-0.645604749091689
30
0
41
1
10
25.3182647566034
20
-0.158972170876609
30
0
41
1
10
22.3892138576646
20
0.812587176813537
30
0
41
1
10
20.9240835046763
20
1.29729592983293
30
0
41
1
10
19.4559351386711
20
1.77363724896421
30
0
0
SPLINE
5
142
100
AcDbEntity
8
1
62
256
6
ByLayer
370
18
48
1
60
0
100
AcDbSpline
70
4
71
3
72
9
73
5
40
0
40
0
40
0
40
0
40
0.820931704178957
40
1
40
1
40
1
40
1
41
1
10
25.1182828359125
20
-8.66380659714426
30
0
41
1
10
26.3142359588654
20
-8.7310091729386
30
0
41
1
10
27.7702309192452
20
-8.77743568343814
30
0
41
1
10
29.2247247776092
20
-8.78422172695457
30
0
41
1
10
29.4851396207196
20
-8.78413938837485
30
0
0
SPLINE
5
143
100
AcDbEntity
8
1
62
256
6
ByLayer
370
18
48
1
60
0
100
AcDbSpline
70
4
71
3
72
15
73
11
40
0
40
0
40
0
40
0
40
0.0070413165185303
40
0.168420906384977
40
0.329800496251422
40
0.531524983584481
40
0.652559675984315
40
0.77359436838415
40
0.975318855717207
40
1
40
1
40
1
40
1
41
1
10
147.320445525778
20
-0.001225942407558
30
0
41
1
10
147.352413273437
20
-0.0124392331549927
30
0
41
1
10
148.117039565817
20
-0.280647230517076
30
0
41
1
10
149.613911706732
20
-0.805669546012012
30
0
41
1
10
151.995399321514
20
-1.63909109969598
30
0
41
1
10
154.192882060799
20
-2.39484306036013
30
0
41
1
10
156.207241420792
20
-3.06680851392261
30
0
41
1
10
158.222911026419
20
-3.72064097199583
30
0
41
1
10
159.801683956605
20
-4.21261944094954
30
0
41
1
10
160.82984068971
20
-4.52281588346662
30
0
41
1
10
160.94191588814
20
-4.55650418520096
30
0
0
SPLINE
5
144
100
AcDbEntity
8
1
62
256
6
ByLayer
370
18
48
1
60
0
100
AcDbSpline
70
4
71
3
72
12
73
8
40
0
40
0
40
0
40
0
40
0.418072216665069
40
0.418072216665069
40
0.709035981530649
40
0.709035981530649
40
1
40
1
40
1
40
1
41
1
10
174.099999998045
20
9.07790339606132
30
0
41
1
10
174.086564548292
20
9.0919518994092
30
0
41
1
10
174.073124906475
20
9.10599870140913
30
0
41
1
10
174.050324739522
20
9.12981876669937
30
0
41
1
10
174.040966339958
20
9.13959289142642
30
0
41
1
10
174.022245573021
20
9.15913956440187
30
0
41
1
10
174.012883203604
20
9.16891211477883
30
0
41
1
10
174.003518873851
20
9.17868388627869
30
0
0
SPLINE
5
145
100
AcDbEntity
8
1
62
256
6
ByLayer
370
18
48
1
60
0
100
AcDbSpline
70
4
71
3
72
12
73
8
40
0
40
0
40
0
40
0
40
0.5
40
0.5
40
0.75
40
0.75
40
1
40
1
40
1
40
1
41
1
10
165.134985560366
20
-7.96694192099554
30
0
41
1
10
166.611131501233
20
-8.27484233584974
30
0
41
1
10
168.085489777212
20
-8.53249986429685
30
0
41
1
10
170.301211866457
20
-8.8376638055091
30
0
41
1
10
171.040973158246
20
-8.92586271835535
30
0
41
1
10
172.520835141532
20
-9.07456053488403
30
0
41
1
10
173.26041390074
20
-9.13504678258059
30
0
41
1
10
174
20
-9.18171718729801
30
0
0
SPLINE
5
146
100
AcDbEntity
8
1
62
256
6
ByLayer
370
18
48
1
60
0
100
AcDbSpline
70
4
71
3
72
21
73
17
40
0
40
0
40
0
40
0
40
0.028546601432493
40
0.0570062921390627
40
0.0854486482193089
40
0.11394337275209
40
0.142559786146013
40
0.213633896070787
40
0.284184933671816
40
0.355440400876493
40
0.425744098629064
40
0.566684096861547
40
0.707182996277148
40
0.847364613127035
40
0.987128265088992
40
1
40
1
40
1
40
1
41
1
10
174.000001143399
20
-8.90584118809002
30
0
41
1
10
174.000238196058
20
-8.90102984207493
30
0
41
1
10
174.000711579663
20
-8.89142179828846
30
0
41
1
10
174.004526252192
20
-8.87673271078498
30
0
41
1
10
174.010617650291
20
-8.86189229867315
30
0
41
1
10
174.019204909768
20
-8.84688108109464
30
0
41
1
10
174.035659922042
20
-8.82425278496095
30
0
41
1
10
174.065590514678
20
-8.79396941400526
30
0
41
1
10
174.1174070268
20
-8.75656113671891
30
0
41
1
10
174.182366411705
20
-8.7204609720402
30
0
41
1
10
174.285916327052
20
-8.6752468269068
30
0
41
1
10
174.444623949354
20
-8.62621322168246
30
0
41
1
10
174.671585790777
20
-8.58737848209378
30
0
41
1
10
174.917760625109
20
-8.57505740338308
30
0
41
1
10
175.088700621645
20
-8.58638885062922
30
0
41
1
10
175.172613007251
20
-8.59750798391161
30
0
41
1
10
175.179689334735
20
-8.59844565989215
30
0
0
SPLINE
5
147
100
AcDbEntity
8
1
62
256
6
ByLayer
370
18
48
1
60
0
100
AcDbSpline
70
2053
71
3
72
39
73
35
40
0
40
0
40
0
40
0
40
0.0303408064284908
40
0.0624380574138046
40
0.0936391526521952
40
0.124893171153512
40
0.156207008857974
40
0.187377970089038
40
0.219466648238233
40
0.249877137721535
40
0.28028776363631
40
0.312401846141042
40
0.343569912714654
40
0.374905512514159
40
0.406074176161856
40
0.437390282032021
40
0.469514360526129
40
0.499830513216437
40
0.530234092161328
40
0.562493627871096
40
0.593710062896956
40
0.625030385163164
40
0.656200015397528
40
0.687535043483544
40
0.719613004925457
40
0.749977766276242
40
0.780317023279847
40
0.81240678870771
40
0.84373913298922
40
0.874903404371492
40
0.906218226408287
40
0.937484848368031
40
0.969666625469604
40
1
40
1
40
1
40
1
41
1
10
170.35
20
-5.11892247978625
30
0
41
1
10
170.232096460136
20
-5.11892417820482
30
0
41
1
10
169.989463442688
20
-5.13917293430706
30
0
41
1
10
169.639741765568
20
-5.22915538890987
30
0
41
1
10
169.315615733428
20
-5.37556191665419
30
0
41
1
10
169.034211075403
20
-5.5661752601641
30
0
41
1
10
168.803151026879
20
-5.7919748211697
30
0
41
1
10
168.629345890566
20
-6.0438675526554
30
0
41
1
10
168.52363079754
20
-6.30527549413245
30
0
41
1
10
168.488639229061
20
-6.56448143066217
30
0
41
1
10
168.523078936183
20
-6.81244889201835
30
0
41
1
10
168.628308603155
20
-7.04241461149041
30
0
41
1
10
168.801744437945
20
-7.24588533023609
30
0
41
1
10
169.032271687532
20
-7.4148952186506
30
0
41
1
10
169.313461245416
20
-7.54871748368041
30
0
41
1
10
169.63754199116
20
-7.64615219079934
30
0
41
1
10
169.987596215715
20
-7.70427027066546
30
0
41
1
10
170.348343060662
20
-7.72293558369901
30
0
41
1
10
170.709699904826
20
-7.7045881002349
30
0
41
1
10
171.060364277328
20
-7.64664589782839
30
0
41
1
10
171.385254323749
20
-7.54921824273538
30
0
41
1
10
171.666330162182
20
-7.41571627806175
30
0
41
1
10
171.897470237362
20
-7.24660258357918
30
0
41
1
10
172.071156346478
20
-7.04334472398716
30
0
41
1
10
172.176656149612
20
-6.81321775414466
30
0
41
1
10
172.211317405587
20
-6.56575025809221
30
0
41
1
10
172.176782508054
20
-6.30689238747615
30
0
41
1
10
172.071441810542
20
-6.0452065879586
30
0
41
1
10
171.897869673456
20
-5.7931730856956
30
0
41
1
10
171.666874955318
20
-5.56709916639434
30
0
41
1
10
171.385783615102
20
-5.37629771938032
30
0
41
1
10
171.061050315042
20
-5.22938437002628
30
0
41
1
10
170.710806377838
20
-5.13918257556227
30
0
41
1
10
170.467874659712
20
-5.1189207817837
30
0
41
1
10
170.35
20
-5.11892247978624
30
0
0
SPLINE
5
148
100
AcDbEntity
8
1
62
256
6
ByLayer
370
18
48
1
60
0
100
AcDbSpline
70
4
71
3
72
8
73
4
40
0
40
0
40
0
40
0
40
1
40
1
40
1
40
1
41
1
10
173.9
20
3.08585169560013
30
0
41
1
10
173.505605119874
20
3.11377025163955
30
0
41
1
10
173.111190403451
20
3.14022588072174
30
0
41
1
10
172.716763065281
20
3.16518083069533
30
0
0
SPLINE
5
149
100
AcDbEntity
8
1
62
256
6
ByLayer
370
18
48
1
60
0
100
AcDbSpline
70
4
71
3
72
20
73
16
40
0
40
0
40
0
40
0
40
0.0793169190675151
40
0.158227473439938
40
0.236733601402244
40
0.314837271350004
40
0.392540482265154
40
0.469845264196254
40
0.546753678743147
40
0.623267819545762
40
0.699389812776944
40
0.775121817638992
40
0.850466026863768
40
0.925424667216071
40
1
40
1
40
1
40
1
41
1
10
178.142739185437
20
-0.625693134660423
30
0
41
1
10
178.128096923272
20
-0.577444009843163
30
0
41
1
10
178.098887415703
20
-0.481192955146639
30
0
41
1
10
178.056085616904
20
-0.336759276211069
30
0
41
1
10
178.014170058593
20
-0.192800575497159
30
0
41
1
10
177.973204313888
20
-0.0493190665562224
30
0
41
1
10
177.933171486714
20
0.093641999671263
30
0
41
1
10
177.89407604441
20
0.236051239508754
30
0
41
1
10
177.855916894837
20
0.377875052762818
30
0
41
1
10
177.818693976677
20
0.519081435902194
30
0
41
1
10
177.78240861154
20
0.659638717989878
30
0
41
1
10
177.747055616869
20
0.799516824189425
30
0
41
1
10
177.712654265618
20
0.93868350377474
30
0
41
1
10
177.679133163472
20
1.07711805447772
30
0
41
1
10
177.657493623211
20
1.16911459816083
30
0
41
1
10
177.646701587914
20
1.21499496043737
30
0
0
SPLINE
5
14A
100
AcDbEntity
8
1
62
256
6
ByLayer
370
18
48
1
60
0
100
AcDbSpline
70
4
71
3
72
8
73
4
40
0
40
0
40
0
40
0
40
1
40
1
40
1
40
1
41
1
10
174.23731835042
20
-9.03138695653936
30
0
41
1
10
174.23731835042
20
-9.09428643092204
30
0
41
1
10
174.23731835042
20
-9.14794807652811
30
0
41
1
10
174.23731835042
20
-9.19237545992905
30
0
0
SPLINE
5
14B
100
AcDbEntity
8
1
62
256
6
ByLayer
370
18
48
1
60
0
100
AcDbSpline
70
4
71
3
72
32
73
28
40
0
40
0
40
0
40
0
40
0.0625000000000067
40
0.0625000000000067
40
0.125000000000013
40
0.125000000000013
40
0.250000000000011
40
0.250000000000011
40
0.31250000000001
40
0.31250000000001
40
0.375000000000009
40
0.375000000000009
40
0.437500000000009
40
0.437500000000009
40
0.500000000000008
40
0.500000000000008
40
0.625000000000006
40
0.625000000000006
40
0.687500000000005
40
0.687500000000005
40
0.750000000000004
40
0.750000000000004
40
0.812500000000003
40
0.812500000000003
40
0.875000000000002
40
0.875000000000002
40
1
40
1
40
1
40
1
41
1
10
161.274234313201
20
-4.62825740148713
30
0
41
1
10
161.385393060459
20
-4.65221838328833
30
0
41
1
10
161.497613317352
20
-4.67054688135877
30
0
41
1
10
161.724167206602
20
-4.69614261674317
30
0
41
1
10
161.83895687154
20
-4.70337580877535
30
0
41
1
10
162.180105123353
20
-4.70818181080881
30
0
41
1
10
162.404941098055
20
-4.68946640390536
30
0
41
1
10
162.73832783989
20
-4.62825308688605
30
0
41
1
10
162.849299839535
20
-4.60206048113392
30
0
41
1
10
163.064501232677
20
-4.5395017716919
30
0
41
1
10
163.169333733585
20
-4.50307730931115
30
0
41
1
10
163.373606122541
20
-4.419939723239
30
0
41
1
10
163.473045971791
20
-4.37322713688266
30
0
41
1
10
163.666466353197
20
-4.26906179400521
30
0
41
1
10
163.760744692745
20
-4.21131929672893
30
0
41
1
10
164.028552999462
20
-4.02550456487711
30
0
41
1
10
164.189497023988
20
-3.88401878808398
30
0
41
1
10
164.40436698705
20
-3.64318573302563
30
0
41
1
10
164.471400207412
20
-3.55806268094381
30
0
41
1
10
164.593096091571
20
-3.38215717451931
30
0
41
1
10
164.648240743633
20
-3.29087100304813
30
0
41
1
10
164.747225908196
20
-3.10145685057665
30
0
41
1
10
164.791067182017
20
-3.00332985772351
30
0
41
1
10
164.867105440819
20
-2.79982227211804
30
0
41
1
10
164.898893449716
20
-2.69532583771968
30
0
41
1
10
164.974643598295
20
-2.37868775387659
30
0
41
1
10
165
20
-2.16142060374003
30
0
41
1
10
165
20
-1.9376803687617
30
0
0
SPLINE
5
14C
100
AcDbEntity
8
1
62
256
6
ByLayer
370
18
48
1
60
0
100
AcDbSpline
70
4
71
3
72
8
73
4
40
0
40
0
40
0
40
0
40
1
40
1
40
1
40
1
41
1
10
163.758977312892
20
7.45871304558136
30
0
41
1
10
162.533972779948
20
7.18860116960849
30
0
41
1
10
161.31111734198
20
6.89128044091402
30
0
41
1
10
160.088992876132
20
6.56872849468931
30
0
0
SPLINE
5
14D
100
AcDbEntity
8
1
62
256
6
ByLayer
370
18
48
1
60
0
100
AcDbSpline
70
4
71
3
72
54
73
50
40
0
40
0
40
0
40
0
40
0.0434926659520111
40
0.0434926659520111
40
0.0997578032489483
40
0.0997578032489483
40
0.156022940545885
40
0.156022940545885
40
0.212288077842822
40
0.212288077842822
40
0.226354362167057
40
0.226354362167057
40
0.240420646491292
40
0.240420646491292
40
0.268553215139762
40
0.268553215139762
40
0.324818352436704
40
0.324818352436704
40
0.381083489733646
40
0.381083489733646
40
0.395149774057881
40
0.395149774057881
40
0.409216058382117
40
0.409216058382117
40
0.437348627030588
40
0.437348627030588
40
0.493613764327529
40
0.493613764327529
40
0.54987890162447
40
0.54987890162447
40
0.606144038921412
40
0.606144038921412
40
0.662409176218353
40
0.662409176218353
40
0.690541744866824
40
0.690541744866824
40
0.704608029191059
40
0.704608029191059
40
0.718674313515294
40
0.718674313515294
40
0.774939450812235
40
0.774939450812235
40
0.831204588109176
40
0.831204588109176
40
0.887469725406117
40
0.887469725406117
40
0.943734862703059
40
0.943734862703059
40
1
40
1
40
1
40
1
41
1
10
101.195005054333
20
-9.30001154100032
30
0
41
1
10
100.065218243882
20
-9.29978031025055
30
0
41
1
10
98.9371902628017
20
-9.27123215774074
30
0
41
1
10
96.3524543608753
20
-9.14176511421982
30
0
41
1
10
94.896418168265
20
-9.02179581888316
30
0
41
1
10
91.9815905721301
20
-8.69165957663705
30
0
41
1
10
90.5232422499992
20
-8.48127277531998
30
0
41
1
10
87.6002232947716
20
-7.97247045997182
30
0
41
1
10
86.1354083021598
20
-7.67386631332403
30
0
41
1
10
84.294850717025
20
-7.2534405459607
30
0
41
1
10
83.9262700990034
20
-7.1670088811839
30
0
41
1
10
83.188190794346
20
-6.98940552224883
30
0
41
1
10
82.8185464699429
20
-6.89819988899922
30
0
41
1
10
81.7108338804064
20
-6.61828810648063
30
0
41
1
10
80.9731903932938
20
-6.42310442840261
30
0
41
1
10
78.7620997437371
20
-5.81318551293344
30
0
41
1
10
77.2904953841617
20
-5.37396705066243
30
0
41
1
10
74.3454059275771
20
-4.44512330236788
30
0
41
1
10
72.8723857607001
20
-3.95452273506518
30
0
41
1
10
71.0275833960658
20
-3.31498419174173
30
0
41
1
10
70.6582506427371
20
-3.18572678513024
30
0
41
1
10
69.9207953330172
20
-2.9256023489456
30
0
41
1
10
69.5525090789411
20
-2.79467927234049
30
0
41
1
10
68.4487849017274
20
-2.39987601083283
30
0
41
1
10
67.7144689103146
20
-2.13400160553601
30
0
41
1
10
65.5142985108894
20
-1.33326423548166
30
0
41
1
10
64.051696631297
20
-0.793876268090088
30
0
41
1
10
61.1321199514478
20
0.288454119375501
30
0
41
1
10
59.6750656611763
20
0.831131342307231
30
0
41
1
10
56.7600586300627
20
1.90169859403406
30
0
41
1
10
55.3025308858172
20
2.43078673396957
30
0
41
1
10
52.3830307982574
20
3.46429119530052
30
0
41
1
10
50.9209250409416
20
3.96829668251755
30
0
41
1
10
48.71768969064
20
4.68764990404526
30
0
41
1
10
47.981656591865
20
4.92149350777629
30
0
41
1
10
46.8750692743636
20
5.26305962363128
30
0
41
1
10
46.5054787919281
20
5.37544624482865
30
0
41
1
10
45.7671232490448
20
5.59644238933942
30
0
41
1
10
45.3983766264208
20
5.70505020732492
30
0
41
1
10
43.5566660141967
20
6.23838102474539
30
0
41
1
10
42.0897921467185
20
6.63386632076595
30
0
41
1
10
39.1625886200059
20
7.35034329871834
30
0
41
1
10
37.7026484083835
20
7.67224238442432
30
0
41
1
10
34.7858935970721
20
8.23603196874618
30
0
41
1
10
33.328972420969
20
8.47744090636553
30
0
41
1
10
30.4092510433156
20
8.86910365777456
30
0
41
1
10
28.9461656051224
20
9.0196862723177
30
0
41
1
10
26.0132808591242
20
9.22973724644331
30
0
41
1
10
24.5434398417569
20
9.28878798111657
30
0
41
1
10
23.0672646045365
20
9.29855039997915
30
0
0
SPLINE
5
14E
100
AcDbEntity
8
1
62
256
6
ByLayer
370
18
48
1
60
0
100
AcDbSpline
70
4
71
3
72
14
73
10
40
0
40
0
40
0
40
0
40
0.499999999999997
40
0.499999999999997
40
0.749999999999995
40
0.749999999999995
40
0.874999999999997
40
0.874999999999997
40
1
40
1
40
1
40
1
41
1
10
184.994725144962
20
3.48458250831976
30
0
41
1
10
184.801905579389
20
4.01724641482457
30
0
41
1
10
184.612114053745
20
4.55321006047274
30
0
41
1
10
184.332278654629
20
5.36244276741448
30
0
41
1
10
184.239816516155
20
5.63307657822645
30
0
41
1
10
184.102478435579
20
6.04050401408955
30
0
41
1
10
184.056870329767
20
6.1767304786031
30
0
41
1
10
183.966883670456
20
6.44746290157465
30
0
41
1
10
183.922421029834
20
6.58221581338378
30
0
41
1
10
183.878513768222
20
6.71632689213163
30
0
0
SPLINE
5
14F
100
AcDbEntity
8
1
62
256
6
ByLayer
370
18
48
1
60
0
100
AcDbSpline
70
4
71
3
72
18
73
14
40
0
40
0
40
0
40
0
40
0.125000000000028
40
0.125000000000028
40
0.250000000000055
40
0.250000000000055
40
0.500000000000065
40
0.500000000000065
40
0.625000000000049
40
0.625000000000049
40
0.750000000000032
40
0.750000000000032
40
1
40
1
40
1
40
1
41
1
10
163.758977312891
20
-7.45871304558128
30
0
41
1
10
163.825779351034
20
-7.47092940591656
30
0
41
1
10
163.892387245844
20
-7.48464959209213
30
0
41
1
10
164.023225079827
20
-7.51464238527512
30
0
41
1
10
164.087366870621
20
-7.53087909253131
30
0
41
1
10
164.276053682637
20
-7.58306923967373
30
0
41
1
10
164.396876665365
20
-7.62249346298586
30
0
41
1
10
164.570704343913
20
-7.68782434455571
30
0
41
1
10
164.627408205637
20
-7.71063628335153
30
0
41
1
10
164.738295734804
20
-7.75823053298271
30
0
41
1
10
164.792536679005
20
-7.78305476265129
30
0
41
1
10
164.948884015945
20
-7.85906400632581
30
0
41
1
10
165.045546894006
20
-7.912145702495
30
0
41
1
10
165.134985560366
20
-7.96694192099554
30
0
0
SPLINE
5
150
100
AcDbEntity
8
1
62
256
6
ByLayer
370
18
48
1
60
0
100
AcDbSpline
70
4
71
3
72
8
73
4
40
0
40
0
40
0
40
0
40
1
40
1
40
1
40
1
41
1
10
179.367755161047
20
-3.59675115923801
30
0
41
1
10
179.326960601494
20
-3.60046427540627
30
0
41
1
10
179.286176154972
20
-3.6039966269544
30
0
41
1
10
179.245401844864
20
-3.60734785345119
30
0
0
SPLINE
5
151
100
AcDbEntity
8
1
62
256
6
ByLayer
370
18
48
1
60
0
100
AcDbSpline
70
4
71
3
72
12
73
8
40
0
40
0
40
0
40
0
40
0.5
40
0.5
40
0.75
40
0.75
40
1
40
1
40
1
40
1
41
1
10
21.9
20
9.29964662004636
30
0
41
1
10
22.1019899513626
20
9.29964650002881
30
0
41
1
10
22.3004334726779
20
9.29989484172665
30
0
41
1
10
22.5929836140338
20
9.30002242030741
30
0
41
1
10
22.6896406872772
20
9.3000126144471
30
0
41
1
10
22.8811850119053
20
9.29963393712259
30
0
41
1
10
22.9757553222417
20
9.29926134683888
30
0
41
1
10
23.0672646045365
20
9.29855039997915
30
0
0
SPLINE
5
152
100
AcDbEntity
8
1
62
256
6
ByLayer
370
18
48
1
60
0
100
AcDbSpline
70
4
71
3
72
73
73
69
40
0
40
0
40
0
40
0
40
0.0151515151515151
40
0.0303030303030308
40
0.0454545454545455
40
0.0606060606060606
40
0.075757575757576
40
0.0909090909090912
40
0.106060606060606
40
0.121212121212121
40
0.136363636363636
40
0.151515151515152
40
0.166666666666667
40
0.181818181818182
40
0.196969696969697
40
0.212121212121212
40
0.227272727272727
40
0.242424242424243
40
0.257575757575758
40
0.272727272727273
40
0.287878787878788
40
0.303030303030303
40
0.318181818181818
40
0.333333333333333
40
0.348484848484849
40
0.363636363636364
40
0.378787878787879
40
0.393939393939394
40
0.409090909090909
40
0.424242424242425
40
0.43939393939394
40
0.454545454545455
40
0.46969696969697
40
0.484848484848485
40
0.5
40
0.515151515151515
40
0.530303030303031
40
0.545454545454545
40
0.560606060606061
40
0.575757575757576
40
0.590909090909091
40
0.606060606060606
40
0.621212121212121
40
0.636363636363636
40
0.651515151515152
40
0.666666666666667
40
0.681818181818182
40
0.696969696969697
40
0.712121212121212
40
0.727272727272728
40
0.742424242424242
40
0.757575757575758
40
0.772727272727273
40
0.787878787878788
40
0.803030303030303
40
0.818181818181818
40
0.833333333333333
40
0.848484848484849
40
0.863636363636364
40
0.878787878787879
40
0.893939393939394
40
0.909090909090909
40
0.924242424242425
40
0.93939393939394
40
0.954545454545455
40
0.96969696969697
40
0.984848484848485
40
1
40
1
40
1
40
1
41
1
10
20.9020000000008
20
1.80685393560648
30
0
41
1
10
20.9161365293618
20
1.8257174506449
30
0
41
1
10
20.9444095880838
20
1.86344448072171
30
0
41
1
10
20.9868010941304
20
1.92285864062669
30
0
41
1
10
21.0291564438136
20
1.98430803263398
30
0
41
1
10
21.0714575782227
20
2.04797091552527
30
0
41
1
10
21.1136864615622
20
2.11376536100815
30
0
41
1
10
21.1558250888422
20
2.18167799599982
30
0
41
1
10
21.1978554935548
20
2.25167593145935
30
0
41
1
10
21.2397597553349
20
2.32373037653667
30
0
41
1
10
21.2815200076004
20
2.39781032721314
30
0
41
1
10
21.32311844517
20
2.47388427393355
30
0
41
1
10
21.3645373318549
20
2.55191976102424
30
0
41
1
10
21.4057590080207
20
2.6318835221843
30
0
41
1
10
21.4467658981171
20
2.71374146207256
30
0
41
1
10
21.4875405181715
20
2.79745867957877
30
0
41
1
10
21.5280654832433
20
2.88299948036408
30
0
41
1
10
21.5683235148368
20
2.97032739270691
30
0
41
1
10
21.6082974482673
20
3.0594051828854
30
0
41
1
10
21.6479702399807
20
3.15019487109748
30
0
41
1
10
21.6873249748194
20
3.2426577476422
30
0
41
1
10
21.7263448732346
20
3.33675438942754
30
0
41
1
10
21.7650132984408
20
3.43244467677815
30
0
41
1
10
21.8033137635089
20
3.52968781054133
30
0
41
1
10
21.8412299383957
20
3.6284423294824
30
0
41
1
10
21.8787456569065
20
3.72866612796224
30
0
41
1
10
21.9158449235881
20
3.83031647388998
30
0
41
1
10
21.9525119205481
20
3.93335002694238
30
0
41
1
10
21.9887310142
20
4.03772285704267
30
0
41
1
10
22.024486761928
20
4.14339046309101
30
0
41
1
10
22.0597639186715
20
4.25030779193818
30
0
41
1
10
22.0945474434258
20
4.35842925759474
30
0
41
1
10
22.1288225056535
20
4.46770876066742
30
0
41
1
10
22.1625744916095
20
4.57809970801438
30
0
41
1
10
22.1957890105706
20
4.68955503261091
30
0
41
1
10
22.2284519009717
20
4.80202721361729
30
0
41
1
10
22.2605492364439
20
4.91546829664006
30
0
41
1
10
22.2920673317518
20
5.02982991417824
30
0
41
1
10
22.322992748629
20
5.1450633062455
30
0
41
1
10
22.3533123015073
20
5.26111934116
30
0
41
1
10
22.3830130631388
20
5.37794853649226
30
0
41
1
10
22.4120823701076
20
5.49550108016302
30
0
41
1
10
22.4405078282289
20
5.61372685168132
30
0
41
1
10
22.468277317834
20
5.73257544351426
30
0
41
1
10
22.4953789989366
20
5.85199618257914
30
0
41
1
10
22.5218013162827
20
5.97193815184869
30
0
41
1
10
22.5475330042755
20
6.09235021206044
30
0
41
1
10
22.57256309178
20
6.2131810235208
30
0
41
1
10
22.5968809068003
20
6.33437906799458
30
0
41
1
10
22.6204760810297
20
6.45589267067066
30
0
41
1
10
22.6433385542713
20
6.57767002219447
30
0
41
1
10
22.6654585787277
20
6.69965920075745
30
0
41
1
10
22.6868267231576
20
6.8218081942359
30
0
41
1
10
22.7074338768927
20
6.94406492236345
30
0
41
1
10
22.7272712537395
20
7.06637725894987
30
0
41
1
10
22.7463303956611
20
7.1886930540559
30
0
41
1
10
22.7646031766226
20
7.31096015641458
30
0
41
1
10
22.7820818051633
20
7.43312643497211
30
0
41
1
10
22.7987588310504
20
7.55513980370679
30
0
41
1
10
22.8146271360205
20
7.67694823416343
30
0
41
1
10
22.8296799832239
20
7.79849981373843
30
0
41
1
10
22.8439108468928
20
7.91974263307887
30
0
41
1
10
22.8573140615336
20
8.04062531105228
30
0
41
1
10
22.8698824119049
20
8.16109514003881
30
0
41
1
10
22.8816161394352
20
8.28110511202701
30
0
41
1
10
22.8924893411927
20
8.40058780077953
30
0
41
1
10
22.9025753812949
20
8.51955293846626
30
0
41
1
10
22.9085776998295
20
8.59833321805692
30
0
41
1
10
22.9115788590969
20
8.63772335785225
30
0
0
SPLINE
5
153
100
AcDbEntity
8
1
62
256
6
ByLayer
370
18
48
1
60
0
100
AcDbSpline
70
4
71
2
72
9
73
6
40
0
40
0
40
0
40
0.240573514473609
40
0.493715676315739
40
0.74685783815787
40
1
40
1
40
1
41
1
10
179.367754831958
20
-3.59675153496718
30
0
41
1
10
179.452187833177
20
-4.14095340295259
30
0
41
1
10
179.676793848144
20
-5.19033542995146
30
0
41
1
10
179.957332330246
20
-6.16827556577988
30
0
41
1
10
180.284431433592
20
-7.03587448139675
30
0
41
1
10
180.467282043466
20
-7.40368754522549
30
0
0
SPLINE
5
154
100
AcDbEntity
8
1
62
256
6
ByLayer
370
13
48
1
60
0
100
AcDbSpline
70
4
71
3
72
20
73
16
40
0
40
0
40
0
40
0
40
0.354942794876428
40
0.354942794876428
40
0.532414192314642
40
0.532414192314642
40
0.621149891033748
40
0.621149891033748
40
0.709885589752855
40
0.709885589752855
40
0.887356987191069
40
0.887356987191069
40
0.976092685910176
40
0.976092685910176
40
1
40
1
40
1
40
1
41
1
10
183.626447607419
20
-1.67725225825618
30
0
41
1
10
183.378011702967
20
-1.50712122310691
30
0
41
1
10
183.064465628854
20
-1.25837487042557
30
0
41
1
10
182.706747797212
20
-0.924435335320737
30
0
41
1
10
182.551103261607
20
-0.76720809118487
30
0
41
1
10
182.376038113618
20
-0.574346215161938
30
0
41
1
10
182.298754010441
20
-0.485491005708553
30
0
41
1
10
182.183619479956
20
-0.346959168490883
30
0
41
1
10
182.106630721983
20
-0.250041571012332
30
0
41
1
10
181.937274844876
20
-0.0262820001820216
30
0
41
1
10
181.787647052174
20
0.191538056966664
30
0
41
1
10
181.630594345176
20
0.446796781236031
30
0
41
1
10
181.559336221073
20
0.569294410253093
30
0
41
1
10
181.495895558035
20
0.685215639538342
30
0
41
1
10
181.481091386228
20
0.712849627628742
30
0
41
1
10
181.465727737981
20
0.742009217471548
30
0
0
SPLINE
5
155
100
AcDbEntity
8
1
62
256
6
ByLayer
370
18
48
1
60
0
100
AcDbSpline
70
4
71
3
72
70
73
66
40
0
40
0
40
0
40
0
40
0.0440053090296915
40
0.0440053090296915
40
0.0660079635445373
40
0.0660079635445373
40
0.0880106180593831
40
0.0880106180593831
40
0.110013272574229
40
0.110013272574229
40
0.132015927089075
40
0.132015927089075
40
0.176021236118766
40
0.176021236118766
40
0.198023890633612
40
0.198023890633612
40
0.220026545148457
40
0.220026545148457
40
0.264031854178148
40
0.264031854178148
40
0.308037163207839
40
0.308037163207839
40
0.330039817722683
40
0.330039817722683
40
0.352042472237528
40
0.352042472237528
40
0.396047781267219
40
0.396047781267219
40
0.440053090296909
40
0.440053090296909
40
0.462055744811754
40
0.462055744811754
40
0.484058399326599
40
0.484058399326599
40
0.528063708356289
40
0.528063708356289
40
0.572069017385979
40
0.572069017385979
40
0.594071671900825
40
0.594071671900825
40
0.61607432641567
40
0.61607432641567
40
0.660079635445362
40
0.660079635445362
40
0.704084944475053
40
0.704084944475053
40
0.726087598989899
40
0.726087598989899
40
0.748090253504744
40
0.748090253504744
40
0.792095562534435
40
0.792095562534435
40
0.836100871564125
40
0.836100871564125
40
0.858103526078971
40
0.858103526078971
40
0.880106180593816
40
0.880106180593816
40
0.924111489623506
40
0.924111489623506
40
0.968116798653196
40
0.968116798653196
40
0.99011945316804
40
0.99011945316804
40
1
40
1
40
1
40
1
41
1
10
160.048696222093
20
-6.5924204766599
30
0
41
1
10
158.631860345308
20
-6.92301787551966
30
0
41
1
10
157.216295461763
20
-7.22008546012452
30
0
41
1
10
155.092272228822
20
-7.61137994562893
30
0
41
1
10
154.3840940203
20
-7.7328008905385
30
0
41
1
10
152.967032792769
20
-7.95746572892358
30
0
41
1
10
152.257742337786
20
-8.06071299362969
30
0
41
1
10
150.841454181325
20
-8.24810268274061
30
0
41
1
10
150.134441097218
20
-8.33242730987533
30
0
41
1
10
148.721387700817
20
-8.48011150773294
30
0
41
1
10
148.015410938001
20
-8.54360349268723
30
0
41
1
10
145.897909224014
20
-8.70243388481228
30
0
41
1
10
144.486701955767
20
-8.76606178519393
30
0
41
1
10
142.36669702299
20
-8.79887058278146
30
0
41
1
10
141.659517461227
20
-8.79938074609484
30
0
41
1
10
140.243625397116
20
-8.77905807692696
30
0
41
1
10
139.534474947862
20
-8.75817520240011
30
0
41
1
10
137.409940016619
20
-8.66496745467688
30
0
41
1
10
135.995925395776
20
-8.56235920307876
30
0
41
1
10
133.170046350853
20
-8.27762297965933
30
0
41
1
10
131.758560640283
20
-8.0945375052307
30
0
41
1
10
129.639284827889
20
-7.75952606638253
30
0
41
1
10
128.932475794257
20
-7.63801215205865
30
0
41
1
10
127.517285179498
20
-7.37668924588579
30
0
41
1
10
126.808550049195
20
-7.2367933371379
30
0
41
1
10
124.685331180676
20
-6.79297678802013
30
0
41
1
10
123.271990311424
20
-6.46460141748125
30
0
41
1
10
120.44573718206
20
-5.75061978234578
30
0
41
1
10
119.032653475719
20
-5.3661016410594
30
0
41
1
10
116.910996083267
20
-4.75287020694026
30
0
41
1
10
116.203458304821
20
-4.54233801273517
30
0
41
1
10
114.78743568816
20
-4.10914887718948
30
0
41
1
10
114.078658780523
20
-3.8864262706303
30
0
41
1
10
111.956246955281
20
-3.20492024260031
30
0
41
1
10
110.54430786634
20
-2.73257059049047
30
0
41
1
10
107.720218796102
20
-1.76951594870673
30
0
41
1
10
106.30809150105
20
-1.27883768778645
30
0
41
1
10
104.186777636251
20
-0.537381130166096
30
0
41
1
10
103.479155058953
20
-0.289350185184219
30
0
41
1
10
102.062392676268
20
0.206961443340333
30
0
41
1
10
101.353205967348
20
0.455264993359265
30
0
41
1
10
99.2292913980094
20
1.1970274687869
30
0
41
1
10
97.8162863846782
20
1.68875623488637
30
0
41
1
10
94.992670558773
20
2.65497838313112
30
0
41
1
10
93.5816978348147
20
3.12847688693415
30
0
41
1
10
91.4616491792438
20
3.81160579392792
30
0
41
1
10
90.7543916194402
20
4.03487401407631
30
0
41
1
10
89.3381210636754
20
4.47101000789141
30
0
41
1
10
88.6293166455421
20
4.68383912084747
30
0
41
1
10
86.5061057009544
20
5.30278343724149
30
0
41
1
10
85.0926787007447
20
5.69019910316578
30
0
41
1
10
82.2662074059032
20
6.40884784015941
30
0
41
1
10
80.8534183584775
20
6.74069947240758
30
0
41
1
10
78.7326934424374
20
7.18983885695303
30
0
41
1
10
78.0254537029245
20
7.33120596723313
30
0
41
1
10
76.6094921852353
20
7.59594312885912
30
0
41
1
10
75.9012664443014
20
7.71917265968858
30
0
41
1
10
73.7795869970429
20
8.05947957394747
30
0
41
1
10
72.3671475230469
20
8.24776853972764
30
0
41
1
10
69.5417754701507
20
8.54324601594644
30
0
41
1
10
68.1288959078973
20
8.6500009345346
30
0
41
1
10
66.0064152086124
20
8.74969819610496
30
0
41
1
10
65.2984192211065
20
8.77280026795793
30
0
41
1
10
64.271540819494
20
8.79133304783053
30
0
41
1
10
63.9533460177805
20
8.79500094820068
30
0
41
1
10
63.6352762857726
20
8.79655085912151
30
0
0
SPLINE
5
156
100
AcDbEntity
8
1
62
256
6
ByLayer
370
18
48
1
60
0
100
AcDbSpline
70
4
71
3
72
10
73
6
40
0
40
0
40
0
40
0
40
0.162993640874741
40
0.162993640874741
40
1
40
1
40
1
40
1
41
1
10
178.004112394307
20
9.49999347586527
30
0
41
1
10
178.274468399915
20
9.49999270316886
30
0
41
1
10
178.544801921511
20
9.4975094563971
30
0
41
1
10
180.203342814318
20
9.46699159976936
30
0
41
1
10
181.593235134038
20
9.37639261623337
30
0
41
1
10
182.980928693391
20
9.22109082844798
30
0
0
SPLINE
5
157
100
AcDbEntity
8
1
62
256
6
ByLayer
370
18
48
1
60
0
100
AcDbSpline
70
4
71
3
72
8
73
4
40
0
40
0
40
0
40
0
40
1
40
1
40
1
40
1
41
1
10
183.0324111609
20
-9.06981907187182
30
0
41
1
10
182.925563242687
20
-9.22958192039624
30
0
41
1
10
182.841527796895
20
-9.32130751924421
30
0
41
1
10
182.780533424617
20
-9.34431407516979
30
0
0
SPLINE
5
158
100
AcDbEntity
8
1
62
256
6
ByLayer
370
18
48
1
60
0
100
AcDbSpline
70
4
71
3
72
14
73
10
40
0
40
0
40
0
40
0
40
0.499999999999994
40
0.499999999999994
40
0.624999999999994
40
0.624999999999994
40
0.749999999999994
40
0.749999999999994
40
1
40
1
40
1
40
1
41
1
10
182.780533424617
20
-9.34431407516979
30
0
41
1
10
182.526508024423
20
-9.36615687584555
30
0
41
1
10
182.293669451086
20
-9.32590803235377
30
0
41
1
10
182.030928713703
20
-9.19263703580054
30
0
41
1
10
181.979810194744
20
-9.16179306395705
30
0
41
1
10
181.880541128947
20
-9.091406966931
30
0
41
1
10
181.832317600883
20
-9.05177690181233
30
0
41
1
10
181.693430562773
20
-8.92039434177227
30
0
41
1
10
181.608192016965
20
-8.81601822746595
30
0
41
1
10
181.530603419927
20
-8.69417595981264
30
0
0
SPLINE
5
159
100
AcDbEntity
8
1
62
256
6
ByLayer
370
18
48
1
60
0
100
AcDbSpline
70
4
71
3
72
12
73
8
40
0
40
0
40
0
40
0
40
0.471615018760003
40
0.471615018760003
40
0.943230037520005
40
0.943230037520005
40
1
40
1
40
1
40
1
41
1
10
165.39268657892
20
6.73584170096777
30
0
41
1
10
165.31067934123
20
6.51514478034875
30
0
41
1
10
165.227719542661
20
6.3017104738646
30
0
41
1
10
165.062034815594
20
5.88874674502671
30
0
41
1
10
164.97931070079
20
5.68921318608511
30
0
41
1
10
164.888221169795
20
5.47360126812754
30
0
41
1
10
164.878451440937
20
5.45053031791716
30
0
41
1
10
164.868711991333
20
5.427579863381
30
0
0
SPLINE
5
15A
100
AcDbEntity
8
1
62
256
6
ByLayer
370
13
48
1
60
0
100
AcDbSpline
70
4
71
3
72
10
73
6
40
0
40
0
40
0
40
0
40
0.0018191703362594
40
0.0018191703362594
40
1
40
1
40
1
40
1
41
1
10
184.946501995011
20
0.949356494453497
30
0
41
1
10
184.946488104551
20
0.949365772138691
30
0
41
1
10
184.94647421402
20
0.949375049856712
30
0
41
1
10
184.938838662948
20
0.954475103033928
30
0
41
1
10
184.931242576019
20
0.959598798035216
30
0
41
1
10
184.923672886782
20
0.964755798444656
30
0
0
SPLINE
5
15B
100
AcDbEntity
8
1
62
256
6
ByLayer
370
18
48
1
60
0
100
AcDbSpline
70
4
71
3
72
8
73
4
40
0
40
0
40
0
40
0
40
1
40
1
40
1
40
1
41
1
10
21.0488198464374
20
9.210113187817
30
0
41
1
10
21.1907288001372
20
9.10490087635282
30
0
41
1
10
21.3443778606813
20
9.01094045413237
30
0
41
1
10
21.5068485547191
20
8.93474013411512
30
0
0
SPLINE
5
15C
100
AcDbEntity
8
1
62
256
6
ByLayer
370
18
48
1
60
0
100
AcDbSpline
70
4
71
3
72
12
73
8
40
0
40
0
40
0
40
0
40
0.499999999999968
40
0.499999999999968
40
0.749999999999984
40
0.749999999999984
40
1
40
1
40
1
40
1
41
1
10
165.995511761099
20
7.71696368596028
30
0
41
1
10
165.867453350563
20
7.75634919305719
30
0
41
1
10
165.729500129292
20
7.78172291245323
30
0
41
1
10
165.511433911247
20
7.80412577547068
30
0
41
1
10
165.436665897864
20
7.80896127553413
30
0
41
1
10
165.285013528306
20
7.81399047730733
30
0
41
1
10
165.20813809761
20
7.81420271887876
30
0
41
1
10
165.130360734996
20
7.81246549394558
30
0
0
SPLINE
5
15D
100
AcDbEntity
8
1
62
256
6
ByLayer
370
18
48
1
60
0
100
AcDbSpline
70
4
71
3
72
14
73
10
40
0
40
0
40
0
40
0
40
0.25
40
0.25
40
0.5
40
0.5
40
0.75
40
0.75
40
1
40
1
40
1
40
1
41
1
10
183.129688211089
20
8.9809388933692
30
0
41
1
10
182.42136324263
20
9.08797598752903
30
0
41
1
10
181.714927279238
20
9.17905304096814
30
0
41
1
10
180.301799733721
20
9.32721311750203
30
0
41
1
10
179.595631036092
20
9.38471648689546
30
0
41
1
10
178.184356225159
20
9.46653043524339
30
0
41
1
10
177.478982711101
20
9.49063372322095
30
0
41
1
10
176.065421395984
20
9.50486648834678
30
0
41
1
10
175.35782805891
20
9.49515722944423
30
0
41
1
10
174.649495483872
20
9.46829213148388
30
0
0
SPLINE
5
15E
100
AcDbEntity
8
1
62
256
6
ByLayer
370
18
48
1
60
0
100
AcDbSpline
70
4
71
3
72
8
73
4
40
0
40
0
40
0
40
0
40
1
40
1
40
1
40
1
41
1
10
20.5378046004773
20
1.40995468906973
30
0
41
1
10
20.6579164235292
20
1.51292080527594
30
0
41
1
10
20.7799556592184
20
1.64586621502286
30
0
41
1
10
20.9020000000008
20
1.80685393560648
30
0
0
SPLINE
5
15F
100
AcDbEntity
8
1
62
256
6
ByLayer
370
18
48
1
60
0
100
AcDbSpline
70
4
71
3
72
8
73
4
40
0
40
0
40
0
40
0
40
1
40
1
40
1
40
1
41
1
10
177.646701848914
20
1.2149931845008
30
0
41
1
10
177.690422532183
20
1.21277751031798
30
0
41
1
10
177.734143243331
20
1.21071834453724
30
0
41
1
10
177.777864029183
20
1.2088160491171
30
0
0
SPLINE
5
160
100
AcDbEntity
8
1
62
256
6
ByLayer
370
13
48
1
60
0
100
AcDbSpline
70
4
71
2
72
6
73
3
40
0
40
0
40
0
40
1
40
1
40
1
41
0.99820619967633
10
184.875922978669
20
0.924964233895379
30
0
41
0.924787257147032
10
183.891591644918
20
-0.32488251207
30
0
41
1
10
183.626447607419
20
-1.67725225825618
30
0
0
SPLINE
5
161
100
AcDbEntity
8
1
62
256
6
ByLayer
370
18
48
1
60
0
100
AcDbSpline
70
4
71
3
72
8
73
4
40
0
40
0
40
0
40
0
40
1
40
1
40
1
40
1
41
1
10
183.274298606144
20
3.25664491605636
30
0
41
1
10
183.264426423304
20
3.25586932125745
30
0
41
1
10
183.25513297505
20
3.2517410511137
30
0
41
1
10
183.247374383438
20
3.24559632094494
30
0
0
SPLINE
5
162
100
AcDbEntity
8
1
62
256
6
ByLayer
370
18
48
1
60
0
100
AcDbSpline
70
4
71
3
72
70
73
66
40
0
40
0
40
0
40
0
40
0.028446492478573
40
0.028446492478573
40
0.0527389738730812
40
0.0527389738730812
40
0.0770314552675896
40
0.0770314552675896
40
0.125616418056606
40
0.125616418056606
40
0.149908899451115
40
0.149908899451115
40
0.174201380845623
40
0.174201380845623
40
0.198493862240131
40
0.198493862240131
40
0.22278634363464
40
0.22278634363464
40
0.271371306423657
40
0.271371306423657
40
0.295663787818166
40
0.295663787818166
40
0.319956269212675
40
0.319956269212675
40
0.344248750607183
40
0.344248750607183
40
0.368541232001692
40
0.368541232001692
40
0.392833713396201
40
0.392833713396201
40
0.417126194790709
40
0.417126194790709
40
0.465711157579727
40
0.465711157579727
40
0.490003638974235
40
0.490003638974235
40
0.514296120368744
40
0.514296120368744
40
0.562881083157762
40
0.562881083157762
40
0.611466045946779
40
0.611466045946779
40
0.635758527341288
40
0.635758527341288
40
0.660051008735796
40
0.660051008735796
40
0.708635971524814
40
0.708635971524814
40
0.732928452919323
40
0.732928452919323
40
0.757220934313832
40
0.757220934313832
40
0.80580589710285
40
0.80580589710285
40
0.830098378497359
40
0.830098378497359
40
0.854390859891868
40
0.854390859891868
40
0.902975822680886
40
0.902975822680886
40
0.927268304075395
40
0.927268304075395
40
0.951560785469903
40
0.951560785469903
40
1
40
1
40
1
40
1
41
1
10
116.281763919381
20
-8.79799519195669
30
0
41
1
10
115.459152190113
20
-8.89749641091012
30
0
41
1
10
114.636785791053
20
-8.98255188005621
30
0
41
1
10
113.111114293731
20
-9.11243429067596
30
0
41
1
10
112.408104264075
20
-9.16149269931864
30
0
41
1
10
111.001348498262
20
-9.23796769677611
30
0
41
1
10
110.297229322668
20
-9.26536478858151
30
0
41
1
10
108.185193322951
20
-9.3144989570271
30
0
41
1
10
106.779970095123
20
-9.30302349063047
30
0
41
1
10
104.671343637238
20
-9.22040826809473
30
0
41
1
10
103.968409987398
20
-9.18201725517068
30
0
41
1
10
102.562460907744
20
-9.08338130229757
30
0
41
1
10
101.859407232877
20
-9.02312520911673
30
0
41
1
10
100.452353793604
20
-8.88093127399958
30
0
41
1
10
99.7484603863698
20
-8.79898737465905
30
0
41
1
10
98.3425265251828
20
-8.61443551368055
30
0
41
1
10
97.6400205276499
20
-8.51179301873253
30
0
41
1
10
95.5321422115298
20
-8.17495034520127
30
0
41
1
10
94.1267294429993
20
-7.91165621412506
30
0
41
1
10
92.0164814858575
20
-7.46144322683304
30
0
41
1
10
91.31223357767
20
-7.30213192696337
30
0
41
1
10
89.9044121783579
20
-6.96659922989869
30
0
41
1
10
89.2011494578714
20
-6.79041878200542
30
0
41
1
10
87.7949268273427
20
-6.4231541658821
30
0
41
1
10
87.0919195309295
20
-6.23218676290375
30
0
41
1
10
85.6861808302464
20
-5.83549015732964
30
0
41
1
10
84.983502178433
20
-5.6296345591372
30
0
41
1
10
83.5778662162525
20
-5.20414095435746
30
0
41
1
10
82.8748922129424
20
-4.98453640206924
30
0
41
1
10
81.4678325803176
20
-4.53329031630633
30
0
41
1
10
80.7641100289444
20
-4.30167120264213
30
0
41
1
10
78.6549493032737
20
-3.59440952226993
30
0
41
1
10
77.2495625963709
20
-3.10673105760208
30
0
41
1
10
75.140989362485
20
-2.35522155243544
30
0
41
1
10
74.4379969038606
20
-2.10150957334025
30
0
41
1
10
73.031151249479
20
-1.58919438954001
30
0
41
1
10
72.3268812936356
20
-1.3303439672317
30
0
41
1
10
70.2154100640511
20
-0.551015653208509
30
0
41
1
10
68.8093308078291
20
-0.0292979092894825
30
0
41
1
10
65.9989875460104
20
1.01489263389968
30
0
41
1
10
64.5944910720978
20
1.53671870710175
30
0
41
1
10
62.4837171117082
20
2.30545162522554
30
0
41
1
10
61.7799451464399
20
2.55886321032199
30
0
41
1
10
60.3733946339657
20
3.05717629191526
30
0
41
1
10
59.6703907233725
20
3.30247962916113
30
0
41
1
10
57.5618730495144
20
4.02608713546229
30
0
41
1
10
56.1567517657717
20
4.49179443290038
30
0
41
1
10
54.0463222140066
20
5.15650685821669
30
0
41
1
10
53.3418839550991
20
5.37241636892347
30
0
41
1
10
51.9340048774157
20
5.78989790228835
30
0
41
1
10
51.230540557445
20
5.99171222794004
30
0
41
1
10
49.1216473610535
20
6.5764993294892
30
0
41
1
10
47.7175946585501
20
6.93838576796836
30
0
41
1
10
45.6095923418135
20
7.42972989088784
30
0
41
1
10
44.9065845549687
20
7.58490850207821
30
0
41
1
10
43.4987361720344
20
7.87626594773295
30
0
41
1
10
42.7948098929
20
8.01230040535228
30
0
41
1
10
40.6849974365465
20
8.39129166368585
30
0
41
1
10
39.2802186967084
20
8.6052268583708
30
0
41
1
10
37.1721752134597
20
8.86407402303144
30
0
41
1
10
36.4693641072352
20
8.94002159150767
30
0
41
1
10
35.062490253701
20
9.07046913649913
30
0
41
1
10
34.3579280169701
20
9.12499844841105
30
0
41
1
10
32.2501342100169
20
9.25586358473936
30
0
41
1
10
30.8495194538648
20
9.30000536157937
30
0
41
1
10
29.4494742912644
20
9.29999999702983
30
0
0
SPLINE
5
163
100
AcDbEntity
8
1
62
256
6
ByLayer
370
18
48
1
60
0
100
AcDbSpline
70
4
71
3
72
46
73
42
40
0
40
0
40
0
40
0
40
0.0404105483038173
40
0.0404105483038173
40
0.0808210966076345
40
0.0808210966076345
40
0.161642193215269
40
0.161642193215269
40
0.202052741519086
40
0.202052741519086
40
0.242463289822902
40
0.242463289822902
40
0.323284386430535
40
0.323284386430535
40
0.363694934734353
40
0.363694934734353
40
0.40410548303817
40
0.40410548303817
40
0.444516031341987
40
0.444516031341987
40
0.484926579645804
40
0.484926579645804
40
0.525337127949622
40
0.525337127949622
40
0.565747676253439
40
0.565747676253439
40
0.646568772861074
40
0.646568772861074
40
0.727389869468708
40
0.727389869468708
40
0.767800417772526
40
0.767800417772526
40
0.808210966076344
40
0.808210966076344
40
0.889032062683979
40
0.889032062683979
40
0.929442610987795
40
0.929442610987795
40
0.969853159291612
40
0.969853159291612
40
1
40
1
40
1
40
1
41
1
10
160.223018255547
20
-4.59045633761318
30
0
41
1
10
159.519226531607
20
-4.36280933866638
30
0
41
1
10
158.815532194119
20
-4.12978754431973
30
0
41
1
10
157.407537777098
20
-3.65495417799968
30
0
41
1
10
156.702975821348
20
-3.41308629600832
30
0
41
1
10
154.591831396711
20
-2.67649753389168
30
0
41
1
10
153.187303710192
20
-2.16906648039512
30
0
41
1
10
151.080390143073
20
-1.39489781388795
30
0
41
1
10
150.377990592998
20
-1.13487244173103
30
0
41
1
10
148.971891360205
20
-0.61389167352263
30
0
41
1
10
148.268113944377
20
-0.352884876655139
30
0
41
1
10
146.155317296509
20
0.431136107455956
30
0
41
1
10
144.749503943543
20
0.953479874099912
30
0
41
1
10
142.6413674485
20
1.72703332520453
30
0
41
1
10
141.93876527513
20
1.98325687843362
30
0
41
1
10
140.532786348335
20
2.48981583066734
30
0
41
1
10
139.82936718477
20
2.74004652635605
30
0
41
1
10
138.421739590799
20
3.23458630576488
30
0
41
1
10
137.717352198655
20
3.47908867121822
30
0
41
1
10
136.310725818049
20
3.95939354313333
30
0
41
1
10
135.608062680486
20
4.19530150760923
30
0
41
1
10
134.203238739058
20
4.65664709147939
30
0
41
1
10
133.501108368487
20
4.88215019338594
30
0
41
1
10
132.096259493127
20
5.32019127579059
30
0
41
1
10
131.39346036257
20
5.53256451197197
30
0
41
1
10
129.283535534082
20
6.149020800757
30
0
41
1
10
127.874196567142
20
6.53333261620526
30
0
41
1
10
125.061726651593
20
7.23569969715913
30
0
41
1
10
123.656922945001
20
7.55398976294256
30
0
41
1
10
121.547450286675
20
7.97517731632931
30
0
41
1
10
120.844114284915
20
8.10652404389984
30
0
41
1
10
119.436768027424
20
8.35045182268408
30
0
41
1
10
118.73262661064
20
8.46294735441199
30
0
41
1
10
116.623249925169
20
8.76955041315136
30
0
41
1
10
115.219366146641
20
8.93295605218873
30
0
41
1
10
113.111114293731
20
9.11243429067596
30
0
41
1
10
112.408104264075
20
9.16149269931864
30
0
41
1
10
111.001348498262
20
9.23796769677611
30
0
41
1
10
110.297229322668
20
9.26536478858151
30
0
41
1
10
109.068014411424
20
9.2939611063114
30
0
41
1
10
108.543201183469
20
9.30002523918176
30
0
41
1
10
108.018604895341
20
9.29996795106479
30
0
0
SPLINE
5
164
100
AcDbEntity
8
1
62
256
6
ByLayer
370
18
48
1
60
0
100
AcDbSpline
70
4
71
3
72
14
73
10
40
0
40
0
40
0
40
0
40
0.154262497847746
40
0.154262497847746
40
0.323409998278197
40
0.323409998278197
40
0.661704999139099
40
0.661704999139099
40
1
40
1
40
1
40
1
41
1
10
37.6893449102246
20
-8.80032985546461
30
0
41
1
10
37.0484754250467
20
-8.87735777000097
30
0
41
1
10
36.4074615639221
20
-8.94576129218069
30
0
41
1
10
35.0624902537009
20
-9.0704691364991
30
0
41
1
10
34.35792801697
20
-9.12499844841105
30
0
41
1
10
32.2459103668405
20
-9.25612582756941
30
0
41
1
10
30.8410908916626
20
-9.30027060763845
30
0
41
1
10
28.0325822319397
20
-9.29972689141636
30
0
41
1
10
26.6287896987384
20
-9.25484531065058
30
0
41
1
10
25.2215491410545
20
-9.16656197629331
30
0
0
SPLINE
5
165
100
AcDbEntity
8
1
62
256
6
ByLayer
370
18
48
1
60
0
100
AcDbSpline
70
4
71
3
72
8
73
4
40
0
40
0
40
0
40
0
40
1
40
1
40
1
40
1
41
1
10
20
20
-9.09999440068981
30
0
41
1
10
20.0428306598854
20
-9.10450377446702
30
0
41
1
10
20.0856210615986
20
-9.10901023063127
30
0
41
1
10
20.1283711772513
20
-9.1135127367607
30
0
0
SPLINE
5
166
100
AcDbEntity
8
1
62
256
6
ByLayer
370
18
48
1
60
0
100
AcDbSpline
70
4
71
3
72
22
73
18
40
0
40
0
40
0
40
0
40
0.0438128390302366
40
0.0997165413114609
40
0.211523945873909
40
0.267427648155134
40
0.323331350436358
40
0.435138754998806
40
0.49104245728003
40
0.546946159561254
40
0.658753564123703
40
0.714657266404927
40
0.770560968686151
40
0.8823683732486
40
0.938272075529825
40
0.994175777811049
40
1
40
1
40
1
40
1
41
1
10
68.7480683039893
20
-0.0062388902159682
30
0
41
1
10
69.3220434265515
20
-0.207538609153772
30
0
41
1
10
70.6284134491225
20
-0.665186754669918
30
0
41
1
10
73.4028960194834
20
-1.63437551221813
30
0
41
1
10
76.3350096290376
20
-2.63612311515047
30
0
41
1
10
79.2647936815481
20
-3.59452687821732
30
0
41
1
10
82.1973145985421
20
-4.51761915002731
30
0
41
1
10
85.1278730661925
20
-5.37581671266693
30
0
41
1
10
88.057051992085
20
-6.14591830451653
30
0
41
1
10
90.99019650921
20
-6.84796931489521
30
0
41
1
10
93.9223763970165
20
-7.45024522396199
30
0
41
1
10
96.8521864211303
20
-7.93931112919236
30
0
41
1
10
99.7846985784217
20
-8.33885289805019
30
0
41
1
10
102.71520952362
20
-8.61723720200575
30
0
41
1
10
105.644321971766
20
-8.76597404863381
30
0
41
1
10
107.187253176331
20
-8.7905959943011
30
0
41
1
10
107.996818300797
20
-8.79036666661631
30
0
41
1
10
108.073202361934
20
-8.7902279589332
30
0
0
SPLINE
5
167
100
AcDbEntity
8
1
62
256
6
ByLayer
370
18
48
1
60
0
100
AcDbSpline
70
4
71
3
72
8
73
4
40
0
40
0
40
0
40
0
40
1
40
1
40
1
40
1
41
1
10
21.9
20
0.531506102124524
30
0
41
1
10
21.2675585390011
20
0.798843654882376
30
0
41
1
10
20.6343856254845
20
1.06023492434179
30
0
41
1
10
20
20
1.31474714291278
30
0
0
SPLINE
5
168
100
AcDbEntity
8
1
62
256
6
ByLayer
370
18
48
1
60
0
100
AcDbSpline
70
4
71
3
72
9
73
5
40
0
40
0
40
0
40
0
40
0.502168240072972
40
1
40
1
40
1
40
1
41
1
10
179.778414231417
20
1.30981201785878
30
0
41
1
10
179.38397249276
20
1.35549045062842
30
0
41
1
10
178.598495222036
20
1.44645285948775
30
0
41
1
10
177.813220477739
20
1.53913960984451
30
0
41
1
10
177.422329649054
20
1.58565285658327
30
0
0
SPLINE
5
169
100
AcDbEntity
8
1
62
256
6
ByLayer
370
18
48
1
60
0
100
AcDbSpline
70
4
71
3
72
8
73
4
40
0
40
0
40
0
40
0
40
1
40
1
40
1
40
1
41
1
10
173.9
20
3.90000000000001
30
0
41
1
10
173.96666183031
20
3.90000000000001
30
0
41
1
10
174.033328596027
20
3.90000000000001
30
0
41
1
10
174.1
20
3.90000000000001
30
0
0
SPLINE
5
16A
100
AcDbEntity
8
1
62
256
6
ByLayer
370
18
48
1
60
0
100
AcDbSpline
70
4
71
3
72
8
73
4
40
0
40
0
40
0
40
0
40
1
40
1
40
1
40
1
41
1
10
177.93189146103
20
1.41695384282588
30
0
41
1
10
177.881082925519
20
1.34617222885572
30
0
41
1
10
177.829745734017
20
1.276779429416
30
0
41
1
10
177.77786443691
20
1.20881603167658
30
0
0
SPLINE
5
16B
100
AcDbEntity
8
1
62
256
6
ByLayer
370
18
48
1
60
0
100
AcDbSpline
70
4
71
3
72
10
73
6
40
0
40
0
40
0
40
0
40
0.082711402429855
40
0.535539523076474
40
1
40
1
40
1
40
1
41
1
10
174.117790414253
20
-8.75110392994532
30
0
41
1
10
174.116812502907
20
-8.75276660642925
30
0
41
1
10
174.110721322826
20
-8.76352384386337
30
0
41
1
10
174.102217130821
20
-8.7834825620682
30
0
41
1
10
174.1007452653
20
-8.80113816710224
30
0
41
1
10
174.1
20
-8.81007791709609
30
0
0
SPLINE
5
16C
100
AcDbEntity
8
1
62
256
6
ByLayer
370
18
48
1
60
0
100
AcDbSpline
70
4
71
3
72
8
73
4
40
0
40
0
40
0
40
0
40
1
40
1
40
1
40
1
41
1
10
15.7487441069215
20
5.03663193778939
30
0
41
1
10
15.720536994569
20
5.06645954802411
30
0
41
1
10
15.6922995219479
20
5.09626634315353
30
0
41
1
10
15.6640324421665
20
5.12605241630706
30
0
0
SPLINE
5
16D
100
AcDbEntity
8
1
62
256
6
ByLayer
370
18
48
1
60
0
100
AcDbSpline
70
4
71
3
72
12
73
8
40
0
40
0
40
0
40
0
40
0.5
40
0.5
40
0.75
40
0.75
40
1
40
1
40
1
40
1
41
1
10
165.134985560366
20
7.96694192099554
30
0
41
1
10
166.611131501234
20
8.27484233584974
30
0
41
1
10
168.085489777212
20
8.53249986429685
30
0
41
1
10
170.301211866457
20
8.83766380550912
30
0
41
1
10
171.040973158246
20
8.92586271835535
30
0
41
1
10
172.520835141532
20
9.07456053488403
30
0
41
1
10
173.26041390074
20
9.13504678258059
30
0
41
1
10
174
20
9.18171718729801
30
0
0
SPLINE
5
16E
100
AcDbEntity
8
1
62
256
6
ByLayer
370
18
48
1
60
0
100
AcDbSpline
70
4
71
3
72
10
73
6
40
0
40
0
40
0
40
0
40
0.50992492955893
40
0.50992492955893
40
1
40
1
40
1
40
1
41
1
10
182.980928693364
20
-9.22109082848766
30
0
41
1
10
182.989686177971
20
-9.19537481746781
30
0
41
1
10
182.998440243046
20
-9.16966056789082
30
0
41
1
10
183.015600814693
20
-9.11923675178545
30
0
41
1
10
183.024007598678
20
-9.09452700245663
30
0
41
1
10
183.0324111609
20
-9.06981907187182
30
0
0
SPLINE
5
16F
100
AcDbEntity
8
1
62
256
6
ByLayer
370
18
48
1
60
0
100
AcDbSpline
70
4
71
3
72
10
73
6
40
0
40
0
40
0
40
0
40
0.5
40
0.5
40
1
40
1
40
1
40
1
41
1
10
165.130360734996
20
7.81246549394552
30
0
41
1
10
165.075720799191
20
7.74385260838537
30
0
41
1
10
165.01763105418
20
7.67884151576746
30
0
41
1
10
164.893400999308
20
7.55722596376367
30
0
41
1
10
164.826857965745
20
7.5003865447672
30
0
41
1
10
164.757144415051
20
7.44952734312096
30
0
0
SPLINE
5
170
100
AcDbEntity
8
1
62
256
6
ByLayer
370
18
48
1
60
0
100
AcDbSpline
70
4
71
3
72
8
73
4
40
0
40
0
40
0
40
0
40
1
40
1
40
1
40
1
41
1
10
174.226487645313
20
-8.96169575581393
30
0
41
1
10
174.486325679215
20
-8.88434875990751
30
0
41
1
10
174.744194156585
20
-8.79534901420112
30
0
41
1
10
175
20
-8.69414583234084
30
0
0
SPLINE
5
171
100
AcDbEntity
8
1
62
256
6
ByLayer
370
18
48
1
60
0
100
AcDbSpline
70
4
71
3
72
8
73
4
40
0
40
0
40
0
40
0
40
1
40
1
40
1
40
1
41
1
10
183.035463135564
20
-4.4940178508453
30
0
41
1
10
183.052021014474
20
-4.47542856152535
30
0
41
1
10
183.068579826741
20
-4.456822829739
30
0
41
1
10
183.085139691509
20
-4.43819855655065
30
0
0
SPLINE
5
172
100
AcDbEntity
8
1
62
256
6
ByLayer
370
18
48
1
60
0
100
AcDbSpline
70
4
71
3
72
8
73
4
40
0
40
0
40
0
40
0
40
1
40
1
40
1
40
1
41
1
10
163.907273615898
20
7.06694293997984
30
0
41
1
10
163.864532593327
20
7.05640670695237
30
0
41
1
10
163.821922650148
20
7.04782055617329
30
0
41
1
10
163.779448198672
20
7.04110289882783
30
0
0
SPLINE
5
173
100
AcDbEntity
8
1
62
256
6
ByLayer
370
18
48
1
60
0
100
AcDbSpline
70
4
71
3
72
14
73
10
40
0
40
0
40
0
40
0
40
0.249687822429815
40
0.249687822429815
40
0.437265866822361
40
0.437265866822361
40
0.624843911214907
40
0.624843911214907
40
1
40
1
40
1
40
1
41
1
10
167.321906500595
20
4.74510840906518
30
0
41
1
10
168.207287151335
20
4.51005745694508
30
0
41
1
10
169.092364647326
20
4.26303184929736
30
0
41
1
10
170.642607013003
20
3.81100994169779
30
0
41
1
10
171.307438963584
20
3.61089964311015
30
0
41
1
10
172.635073425076
20
3.19969961228597
30
0
41
1
10
173.298169424538
20
2.98853174900103
30
0
41
1
10
175.285893866612
20
2.33970781696843
30
0
41
1
10
176.608914813216
20
1.88651726847567
30
0
41
1
10
177.93189146103
20
1.41695384282588
30
0
0
SPLINE
5
174
100
AcDbEntity
8
1
62
256
6
ByLayer
370
18
48
1
60
0
100
AcDbSpline
70
4
71
2
72
6
73
3
40
0
40
0
40
0
40
1
40
1
40
1
41
1
10
179.133640423695
20
-2.99670636365192
30
0
41
1
10
179.247014277371
20
-3.27158711093455
30
0
41
1
10
179.364758300776
20
-3.53980004514847
30
0
0
SPLINE
5
175
100
AcDbEntity
8
1
62
256
6
ByLayer
370
18
48
1
60
0
100
AcDbSpline
70
4
71
1
72
4
73
2
40
0
40
0
40
1
40
1
41
1
10
179.364758283421
20
-3.53980004778626
30
0
41
1
10
179.36775535572
20
-3.59675491079915
30
0
0
SPLINE
5
176
100
AcDbEntity
8
1
62
256
6
ByLayer
370
18
48
1
60
0
100
AcDbSpline
70
4
71
4
72
10
73
5
40
0
40
0
40
0
40
0
40
0
40
1
40
1
40
1
40
1
40
1
41
1
10
174.1
20
7.17182665713105
30
0
41
1
10
174.1
20
5.84667212028694
30
0
41
0.990129239353665
10
174.1
20
4.4362778883841
30
0
41
0.997282644380939
10
174.1
20
3.36141575829967
30
0
41
0.999501286555649
10
174.1
20
2.71215265713104
30
0
0
SPLINE
5
177
100
AcDbEntity
8
1
62
256
6
ByLayer
370
18
48
1
60
0
100
AcDbSpline
70
4
71
3
72
8
73
4
40
0
40
0
40
0
40
0
40
1
40
1
40
1
40
1
41
1
10
173.9
20
3.90000000000001
30
0
41
1
10
173.9
20
3.58021944763198
30
0
41
1
10
173.9
20
3.30913528257969
30
0
41
1
10
173.9
20
3.08585169560007
30
0
0
SPLINE
5
178
100
AcDbEntity
8
1
62
256
6
ByLayer
370
18
48
1
60
0
100
AcDbSpline
70
4
71
3
72
8
73
4
40
0
40
0
40
0
40
0
40
1
40
1
40
1
40
1
41
1
10
21.9
20
0.531506102124524
30
0
41
1
10
22.7013649385283
20
0.233180572094255
30
0
41
1
10
23.5018121380545
20
-0.0662758725289621
30
0
41
1
10
24.3019999999265
20
-0.365078167448161
30
0
0
SPLINE
5
179
100
AcDbEntity
8
1
62
256
6
ByLayer
370
18
48
1
60
0
100
AcDbSpline
70
4
71
1
72
4
73
2
40
0
40
0
40
1
40
1
41
1
10
23.0672646045365
20
9.29855039997915
30
0
41
1
10
22.9115784916932
20
8.63771801084155
30
0
0
SPLINE
5
17A
100
AcDbEntity
8
1
62
256
6
ByLayer
370
13
48
1
60
0
100
AcDbSpline
70
4
71
3
72
8
73
4
40
0
40
0
40
0
40
0
40
1
40
1
40
1
40
1
41
1
10
184.875922978669
20
0.924964233895366
30
0
41
1
10
184.883504356518
20
0.919665479731179
30
0
41
1
10
184.891113648686
20
0.914401573255191
30
0
41
1
10
184.898749993324
20
0.90917213904396
30
0
0
SPLINE
5
17B
100
AcDbEntity
8
1
62
256
6
ByLayer
370
18
48
1
60
0
100
AcDbSpline
70
4
71
3
72
12
73
8
40
0
40
0
40
0
40
0
40
0.25
40
0.25
40
0.5
40
0.5
40
1
40
1
40
1
40
1
41
1
10
174.005303883877
20
8.54266608567954
30
0
41
1
10
173.336424776688
20
8.51709346707798
30
0
41
1
10
172.667206508603
20
8.48117891373724
30
0
41
1
10
171.330483970636
20
8.38763686369649
30
0
41
1
10
170.662934363841
20
8.33001125577337
30
0
41
1
10
168.661708095678
20
8.12342268102321
30
0
41
1
10
167.329364109276
20
7.94105274538663
30
0
41
1
10
165.995511761099
20
7.71696368596025
30
0
0
SPLINE
5
17C
100
AcDbEntity
8
1
62
256
6
ByLayer
370
13
48
1
60
0
100
AcDbSpline
70
4
71
3
72
18
73
14
40
0
40
0
40
0
40
0
40
0.124999999999998
40
0.124999999999998
40
0.249999999999996
40
0.249999999999996
40
0.499999999999992
40
0.499999999999992
40
0.749999999999988
40
0.749999999999988
40
0.874999999999994
40
0.874999999999994
40
1
40
1
40
1
40
1
41
1
10
183.247374381038
20
3.24559631904518
30
0
41
1
10
183.276076918384
20
3.11595093780909
30
0
41
1
10
183.312017231434
20
2.99034686671783
30
0
41
1
10
183.39674827811
20
2.74629718262216
30
0
41
1
10
183.445656727915
20
2.62757919721358
30
0
41
1
10
183.609364877174
20
2.28309602004816
30
0
41
1
10
183.738314234636
20
2.07352001775149
30
0
41
1
10
184.027160601091
20
1.68584904977598
30
0
41
1
10
184.18434582709
20
1.51141042968314
30
0
41
1
10
184.43510389831
20
1.27309633281777
30
0
41
1
10
184.520774440157
20
1.19807475026542
30
0
41
1
10
184.695691252986
20
1.05580106133209
30
0
41
1
10
184.784651458055
20
0.988766273054125
30
0
41
1
10
184.875922978666
20
0.92496423389224
30
0
0
SPLINE
5
17D
100
AcDbEntity
8
1
62
256
6
ByLayer
370
18
48
1
60
0
100
AcDbSpline
70
4
71
1
72
4
73
2
40
0
40
0
40
1
40
1
41
1
10
178.997911984085
20
-3.01564788575001
30
0
41
1
10
179.133640421437
20
-2.99670632973638
30
0
0
SPLINE
5
17E
100
AcDbEntity
8
1
62
256
6
ByLayer
370
18
48
1
60
0
100
AcDbSpline
70
4
71
3
72
12
73
8
40
0
40
0
40
0
40
0
40
0.298457139228553
40
0.298457139228553
40
0.596914278457106
40
0.596914278457106
40
1
40
1
40
1
40
1
41
1
10
174.649495483891
20
-9.37306966734795
30
0
41
1
10
175.343347463766
20
-9.42567300643748
30
0
41
1
10
176.037955506766
20
-9.46180039866181
30
0
41
1
10
177.426911720729
20
-9.50165693226882
30
0
41
1
10
178.12102890309
20
-9.50530705986611
30
0
41
1
10
179.752566865362
20
-9.47528606863156
30
0
41
1
10
180.690767670052
20
-9.42837124746683
30
0
41
1
10
181.62854061777
20
-9.35189933482837
30
0
0
SPLINE
5
17F
100
AcDbEntity
8
1
62
256
6
ByLayer
370
18
48
1
60
0
100
AcDbSpline
70
4
71
3
72
8
73
4
40
0
40
0
40
0
40
0
40
1
40
1
40
1
40
1
41
1
10
182.912236653957
20
-9.22872535645283
30
0
41
1
10
182.935134587404
20
-9.22619812989956
30
0
41
1
10
182.958031939685
20
-9.22365328671663
30
0
41
1
10
182.980928693364
20
-9.22109082848766
30
0
0
SPLINE
5
180
100
AcDbEntity
8
1
62
256
6
ByLayer
370
18
48
1
60
0
100
AcDbSpline
70
4
71
3
72
32
73
28
40
0
40
0
40
0
40
0
40
0.124999999999994
40
0.124999999999994
40
0.187499999999991
40
0.187499999999991
40
0.249999999999988
40
0.249999999999988
40
0.312499999999985
40
0.312499999999985
40
0.374999999999982
40
0.374999999999982
40
0.499999999999976
40
0.499999999999976
40
0.562499999999979
40
0.562499999999979
40
0.624999999999982
40
0.624999999999982
40
0.687499999999985
40
0.687499999999985
40
0.749999999999988
40
0.749999999999988
40
0.874999999999994
40
0.874999999999994
40
0.937499999999997
40
0.937499999999997
40
1
40
1
40
1
40
1
41
1
10
165
20
-2.12409588092532
30
0
41
1
10
165
20
-2.34734412898342
30
0
41
1
10
164.974593174243
20
-2.5642177172449
30
0
41
1
10
164.898820225283
20
-2.88041973971943
30
0
41
1
10
164.867050150899
20
-2.98475481689169
30
0
41
1
10
164.790992838283
20
-3.18822546395415
30
0
41
1
10
164.747146732975
20
-3.28637074096633
30
0
41
1
10
164.648170677942
20
-3.47588503507137
30
0
41
1
10
164.593039903831
20
-3.56725307661625
30
0
41
1
10
164.471400811335
20
-3.74337655180793
30
0
41
1
10
164.404423154192
20
-3.82863090696276
30
0
41
1
10
164.189448576426
20
-4.07024086429146
30
0
41
1
10
164.028467190658
20
-4.21226697630851
30
0
41
1
10
163.760745835881
20
-4.39886551101003
30
0
41
1
10
163.66647334436
20
-4.45690291522473
30
0
41
1
10
163.472872272157
20
-4.56172854750778
30
0
41
1
10
163.373370170266
20
-4.60873746634272
30
0
41
1
10
163.169045363396
20
-4.69240581620423
30
0
41
1
10
163.064222618713
20
-4.72906460010211
30
0
41
1
10
162.849131725642
20
-4.79203687895773
30
0
41
1
10
162.738180538242
20
-4.8184348941025
30
0
41
1
10
162.404573964465
20
-4.88020710276208
30
0
41
1
10
162.179752421511
20
-4.89911642974974
30
0
41
1
10
161.838888416137
20
-4.89445545595999
30
0
41
1
10
161.724168727685
20
-4.88724735205281
30
0
41
1
10
161.497591215624
20
-4.86161772555604
30
0
41
1
10
161.385374535628
20
-4.84323970259805
30
0
41
1
10
161.274234313201
20
-4.81920462910335
30
0
0
SPLINE
5
181
100
AcDbEntity
8
1
62
256
6
ByLayer
370
18
48
1
60
0
100
AcDbSpline
70
4
71
3
72
14
73
10
40
0
40
0
40
0
40
0
40
0.499999999999997
40
0.499999999999997
40
0.749999999999995
40
0.749999999999995
40
0.874999999999997
40
0.874999999999997
40
1
40
1
40
1
40
1
41
1
10
184.994725144962
20
-3.48458250831979
30
0
41
1
10
184.801905579388
20
-4.01724641482457
30
0
41
1
10
184.612114053745
20
-4.55321006047271
30
0
41
1
10
184.332278654629
20
-5.36244276741448
30
0
41
1
10
184.239816516155
20
-5.63307657822642
30
0
41
1
10
184.102478435579
20
-6.04050401408955
30
0
41
1
10
184.056870329767
20
-6.17673047860308
30
0
41
1
10
183.966883670456
20
-6.44746290157463
30
0
41
1
10
183.922421029834
20
-6.58221581338381
30
0
41
1
10
183.878513768222
20
-6.71632689213163
30
0
0
SPLINE
5
182
100
AcDbEntity
8
1
62
256
6
ByLayer
370
18
48
1
60
0
100
AcDbSpline
70
2053
71
3
72
39
73
35
40
0
40
0
40
0
40
0
40
0.0311904138106314
40
0.0622748188688696
40
0.0934626374573573
40
0.124744436377078
40
0.155928888372212
40
0.187334725030297
40
0.21859410070993
40
0.25002232471046
40
0.281410023454132
40
0.31272361823966
40
0.344132049341952
40
0.375321752631495
40
0.406608933868472
40
0.437746631854587
40
0.468969837904026
40
0.500168772205907
40
0.531238096866716
40
0.562369156438457
40
0.593606488490541
40
0.624742397049522
40
0.656098436901035
40
0.687339748686951
40
0.718726395286901
40
0.750123471438773
40
0.781436313035285
40
0.812881173417577
40
0.844125032130106
40
0.875458922663128
40
0.906679700978877
40
0.937802016623766
40
0.968999020641109
40
1
40
1
40
1
40
1
41
1
10
170.35
20
-5.10640981309275
30
0
41
1
10
170.477117095594
20
-5.1064104303815
30
0
41
1
10
170.730925689009
20
-5.12814359218623
30
0
41
1
10
171.096163196567
20
-5.22358446717288
30
0
41
1
10
171.431790454879
20
-5.37566424377593
30
0
41
1
10
171.725290304609
20
-5.57545867184783
30
0
41
1
10
171.966441498643
20
-5.81237937847746
30
0
41
1
10
172.145789876172
20
-6.07409066923793
30
0
41
1
10
172.25673923629
20
-6.34891933862656
30
0
41
1
10
172.294286131127
20
-6.62382644301525
30
0
41
1
10
172.256660107906
20
-6.88745636621721
30
0
41
1
10
172.14561712758
20
-7.12984257459766
30
0
41
1
10
171.966024578488
20
-7.3431105295434
30
0
41
1
10
171.72472168188
20
-7.52254721390648
30
0
41
1
10
171.431237049387
20
-7.66449626098702
30
0
41
1
10
171.095228495259
20
-7.76732331471541
30
0
41
1
10
170.729517034441
20
-7.82950195005054
30
0
41
1
10
170.348441730408
20
-7.85016086833528
30
0
41
1
10
169.967837209459
20
-7.82915681552089
30
0
41
1
10
169.602739416553
20
-7.76684839318403
30
0
41
1
10
169.267422290991
20
-7.66396157909534
30
0
41
1
10
168.973818219324
20
-7.52167597562638
30
0
41
1
10
168.733155912737
20
-7.34234859802308
30
0
41
1
10
168.553751906391
20
-7.12878355508818
30
0
41
1
10
168.443030611455
20
-6.88652610586655
30
0
41
1
10
168.405757671322
20
-6.62291089793843
30
0
41
1
10
168.443542532564
20
-6.3477742857277
30
0
41
1
10
168.554678032276
20
-6.07320742839897
30
0
41
1
10
168.734624279608
20
-5.81112274695761
30
0
41
1
10
168.975842508336
20
-5.57449158355828
30
0
41
1
10
169.269672873494
20
-5.37489290986952
30
0
41
1
10
169.605366132536
20
-5.22302571174757
30
0
41
1
10
169.970172337563
20
-5.12798125912184
30
0
41
1
10
170.22365494794
20
-5.10640919955309
30
0
41
1
10
170.35
20
-5.10640981309275
30
0
0
SPLINE
5
183
100
AcDbEntity
8
1
62
256
6
ByLayer
370
18
48
1
60
0
100
AcDbSpline
70
4
71
3
72
12
73
8
40
0
40
0
40
0
40
0
40
0.418072216665256
40
0.418072216665256
40
0.709035981530385
40
0.709035981530385
40
1
40
1
40
1
40
1
41
1
10
174.099999998045
20
-9.07790339606132
30
0
41
1
10
174.086564548292
20
-9.0919518994092
30
0
41
1
10
174.073124906475
20
-9.10599870140913
30
0
41
1
10
174.050324739522
20
-9.12981876669937
30
0
41
1
10
174.040966339958
20
-9.13959289142642
30
0
41
1
10
174.022245573021
20
-9.15913956440184
30
0
41
1
10
174.012883203604
20
-9.16891211477878
30
0
41
1
10
174.003518873851
20
-9.17868388627863
30
0
0
SPLINE
5
184
100
AcDbEntity
8
1
62
256
6
ByLayer
370
18
48
1
60
0
100
AcDbSpline
70
4
71
3
72
17
73
13
40
0
40
0
40
0
40
0
40
0.25
40
0.25
40
0.375
40
0.375
40
0.500000000000001
40
0.625000000000001
40
0.625000000000001
40
0.750000000000001
40
0.750000000000001
40
1
40
1
40
1
40
1
41
1
10
19.2115989008982
20
1.85282466448174
30
0
41
1
10
19.0057281510136
20
1.92277057256135
30
0
41
1
10
18.8098224461729
20
2.01001950061595
30
0
41
1
10
18.5307927529979
20
2.1666016225573
30
0
41
1
10
18.439724131957
20
2.22353325797286
30
0
41
1
10
18.2664258956889
20
2.34383546547264
30
0
41
1
10
18.101597368857
20
2.47060485948512
30
0
41
1
10
17.953097059852
20
2.60993786197304
30
0
41
1
10
17.8127383495879
20
2.75559993368961
30
0
41
1
10
17.7463321054929
20
2.83203320921865
30
0
41
1
10
17.563391792851
20
3.06616886393255
30
0
41
1
10
17.4618302225505
20
3.22949626893012
30
0
41
1
10
17.3797078054897
20
3.40006108102489
30
0
0
SPLINE
5
185
100
AcDbEntity
8
1
62
256
6
ByLayer
370
18
48
1
60
0
100
AcDbSpline
70
4
71
3
72
33
73
29
40
0
40
0
40
0
40
0
40
0.0319360471860742
40
0.0636764394222173
40
0.0952215563385631
40
0.126571784660356
40
0.157727518371243
40
0.188689158880801
40
0.219457115196379
40
0.250031804099415
40
0.280413650326288
40
0.310603086753873
40
0.340600554589883
40
0.370406503568137
40
0.400021392148869
40
0.429445687724226
40
0.458679866829041
40
0.487724415357055
40
0.516579828782694
40
0.54524661238854
40
0.603538049027529
40
0.661406621425435
40
0.718856882795318
40
0.775893486540113
40
0.83252118804919
40
0.888744846475638
40
0.94456942648927
40
1
40
1
40
1
40
1
41
1
10
180.332230868201
20
-7.46582946539641
30
0
41
1
10
180.317289123258
20
-7.43460819492728
30
0
41
1
10
180.287497173392
20
-7.37235692988727
30
0
41
1
10
180.243620526123
20
-7.27653045543076
30
0
41
1
10
180.200513796511
20
-7.17934244371591
30
0
41
1
10
180.15822446495
20
-7.080653798714
30
0
41
1
10
180.116739926341
20
-6.98057436255681
30
0
41
1
10
180.076063526681
20
-6.87914728152006
30
0
41
1
10
180.036194377552
20
-6.77643276824685
30
0
41
1
10
179.997132714578
20
-6.67248583795981
30
0
41
1
10
179.958878475013
20
-6.56736219143878
30
0
41
1
10
179.921431675359
20
-6.46111662781345
30
0
41
1
10
179.884792310926
20
-6.35380344120011
30
0
41
1
10
179.848960383281
20
-6.24547629295941
30
0
41
1
10
179.81393589003
20
-6.13618822075259
30
0
41
1
10
179.779718838385
20
-6.0259916257115
30
0
41
1
10
179.746309201445
20
-5.91493821765042
30
0
41
1
10
179.713707078071
20
-5.80307915340109
30
0
41
1
10
179.68191210249
20
-5.69046445665671
30
0
41
1
10
179.640183959612
20
-5.53786219705577
30
0
41
1
10
179.58955039517
20
-5.34340881019412
30
0
41
1
10
179.531391262224
20
-5.10473647046132
30
0
41
1
10
179.476212183767
20
-4.86250269667218
30
0
41
1
10
179.424018078259
20
-4.61701128279751
30
0
41
1
10
179.374790505374
20
-4.36859127764035
30
0
41
1
10
179.328597684807
20
-4.11745374762214
30
0
41
1
10
179.285187753849
20
-3.86422785434564
30
0
41
1
10
179.258629883355
20
-3.69279251947978
30
0
41
1
10
179.245397975025
20
-3.60737841837442
30
0
0
SPLINE
5
186
100
AcDbEntity
8
1
62
256
6
ByLayer
370
18
48
1
60
0
100
AcDbSpline
70
4
71
3
72
8
73
4
40
0
40
0
40
0
40
0
40
1
40
1
40
1
40
1
41
1
10
160.048696206048
20
6.5924204815804
30
0
41
1
10
160.323009558843
20
6.50829535777791
30
0
41
1
10
160.609750668251
20
6.45479537172699
30
0
41
1
10
160.908983115167
20
6.4350109496456
30
0
0
SPLINE
5
187
100
AcDbEntity
8
1
62
256
6
ByLayer
370
18
48
1
60
0
100
AcDbSpline
70
4
71
3
72
9
73
5
40
0
40
0
40
0
40
0
40
0.493500892684728
40
1
40
1
40
1
40
1
41
1
10
174.100000003691
20
8.39303540378819
30
0
41
1
10
174.084614121759
20
8.41776332614884
30
0
41
1
10
174.053437112434
20
8.46787047433685
30
0
41
1
10
174.021486722682
20
8.51751910594493
30
0
41
1
10
174.005303878795
20
8.54266609353385
30
0
0
SPLINE
5
188
100
AcDbEntity
8
1
62
256
6
ByLayer
370
18
48
1
60
0
100
AcDbSpline
70
4
71
3
72
8
73
4
40
0
40
0
40
0
40
0
40
1
40
1
40
1
40
1
41
1
10
183.87851377239
20
6.71632689291613
30
0
41
1
10
183.632674036131
20
7.46722392053425
30
0
41
1
10
183.383104930585
20
8.22205302660285
30
0
41
1
10
183.129688211095
20
8.98093889335146
30
0
0
SPLINE
5
189
100
AcDbEntity
8
1
62
256
6
ByLayer
370
18
48
1
60
0
100
AcDbSpline
70
4
71
3
72
8
73
4
40
0
40
0
40
0
40
0
40
1
40
1
40
1
40
1
41
1
10
182.645506813712
20
9.35000458254311
30
0
41
1
10
182.689898098327
20
9.35014341892631
30
0
41
1
10
182.734909847123
20
9.34823709510493
30
0
41
1
10
182.780533424617
20
9.34431407516863
30
0
0
SPLINE
5
18A
100
AcDbEntity
8
1
62
256
6
ByLayer
370
18
48
1
60
0
100
AcDbSpline
70
4
71
3
72
8
73
4
40
0
40
0
40
0
40
0
40
1
40
1
40
1
40
1
41
1
10
174.005303877014
20
8.54266608575972
30
0
41
1
10
174.004712949208
20
8.75538685959754
30
0
41
1
10
174.004117967286
20
8.96739683269578
30
0
41
1
10
174.003519071627
20
9.17868371419638
30
0
0
SPLINE
5
18B
100
AcDbEntity
8
1
62
256
6
ByLayer
370
18
48
1
60
0
100
AcDbSpline
70
4
71
3
72
14
73
10
40
0
40
0
40
0
40
0
40
0.25
40
0.25
40
0.5
40
0.5
40
0.75
40
0.75
40
1
40
1
40
1
40
1
41
1
10
185.779871749513
20
-0.889853658666254
30
0
41
1
10
185.747321372789
20
-1.02742450335879
30
0
41
1
10
185.707035327066
20
-1.18405568653063
30
0
41
1
10
185.612603796343
20
-1.52917214437392
30
0
41
1
10
185.558461076711
20
-1.71764718774585
30
0
41
1
10
185.438489811097
20
-2.11888363964638
30
0
41
1
10
185.372664499421
20
-2.33163423124233
30
0
41
1
10
185.231970416094
20
-2.77288079664373
30
0
41
1
10
185.157106777657
20
-3.00136088202535
30
0
41
1
10
185.07922146229
20
-3.233135058832
30
0
0
SPLINE
5
18C
100
AcDbEntity
8
1
62
256
6
ByLayer
370
18
48
1
60
0
100
AcDbSpline
70
4
71
3
72
8
73
4
40
0
40
0
40
0
40
0
40
1
40
1
40
1
40
1
41
1
10
24.3019999999416
20
-0.0795042093785696
30
0
41
1
10
24.3019999999366
20
-0.173487988044116
30
0
41
1
10
24.3019999999315
20
-0.268679859631163
30
0
41
1
10
24.3019999999264
20
-0.365078167448161
30
0
0
SPLINE
5
18D
100
AcDbEntity
8
1
62
256
6
ByLayer
370
18
48
1
60
0
100
AcDbSpline
70
4
71
3
72
50
73
46
40
0
40
0
40
0
40
0
40
0.0330113660055797
40
0.0330113660055797
40
0.100796483776534
40
0.100796483776534
40
0.134689042662012
40
0.134689042662012
40
0.168581601547489
40
0.168581601547489
40
0.236366719318443
40
0.236366719318443
40
0.270259278203921
40
0.270259278203921
40
0.304151837089399
40
0.304151837089399
40
0.371936954860353
40
0.371936954860353
40
0.439722072631308
40
0.439722072631308
40
0.473614631516785
40
0.473614631516785
40
0.507507190402262
40
0.507507190402262
40
0.575292308173215
40
0.575292308173215
40
0.643077425944168
40
0.643077425944168
40
0.71086254371512
40
0.71086254371512
40
0.744755102600597
40
0.744755102600597
40
0.778647661486074
40
0.778647661486074
40
0.812540220371551
40
0.812540220371551
40
0.846432779257028
40
0.846432779257028
40
0.914217897027981
40
0.914217897027981
40
0.948110455913456
40
0.948110455913456
40
0.982003014798932
40
0.982003014798932
40
1
40
1
40
1
40
1
41
1
10
82.3872957079484
20
6.37956218405944
30
0
41
1
10
83.1021383687323
20
6.54039799540934
30
0
41
1
10
83.8175594105814
20
6.69332637813724
30
0
41
1
10
86.0004824130514
20
7.13726886429623
30
0
41
1
10
87.4663430603213
20
7.40518059017066
30
0
41
1
10
89.6665292035905
20
7.74468677065107
30
0
41
1
10
90.4001858385827
20
7.84747792418813
30
0
41
1
10
91.8687004878842
20
8.0318248215157
30
0
41
1
10
92.6029153520098
20
8.11311067584671
30
0
41
1
10
94.8044581706712
20
8.32609504946078
30
0
41
1
10
96.271219681321
20
8.42788547547173
30
0
41
1
10
98.4735772139121
20
8.51056236153104
30
0
41
1
10
99.2084036363242
20
8.52650374120813
30
0
41
1
10
100.676869782387
20
8.53601890431767
30
0
41
1
10
101.410720703759
20
8.52942843551125
30
0
41
1
10
103.611674820908
20
8.47947791663125
30
0
41
1
10
105.077941411566
20
8.40676962275529
30
0
41
1
10
108.014923983856
20
8.17082094440491
30
0
41
1
10
109.481715270843
20
8.00780204796072
30
0
41
1
10
111.682758456945
20
7.70424454540449
30
0
41
1
10
112.416520928098
20
7.59362165958461
30
0
41
1
10
113.884794037106
20
7.35269692393965
30
0
41
1
10
114.619548324705
20
7.22232796168274
30
0
41
1
10
116.821855265166
20
6.80272139019442
30
0
41
1
10
118.28876420928
20
6.48450219323391
30
0
41
1
10
121.223617133082
20
5.78695968464763
30
0
41
1
10
122.692029646089
20
5.40796906767585
30
0
41
1
10
125.625492706772
20
4.59700151647155
30
0
41
1
10
127.091793023356
20
4.16522410472208
30
0
41
1
10
129.294153776706
20
3.48975401847053
30
0
41
1
10
130.028770483281
20
3.25997783426342
30
0
41
1
10
131.496690961082
20
2.79291277254487
30
0
41
1
10
132.230318200771
20
2.55553439364007
30
0
41
1
10
133.697528078373
20
2.0746158147733
30
0
41
1
10
134.431123979515
20
1.83109848268026
30
0
41
1
10
135.898814022692
20
1.33969871428513
30
0
41
1
10
136.633155368341
20
1.09176454036034
30
0
41
1
10
138.835785574217
20
0.343955704114762
30
0
41
1
10
140.30185235828
20
-0.160035763689962
30
0
41
1
10
142.501939460273
20
-0.910519369916415
30
0
41
1
10
143.235496784354
20
-1.15967577247403
30
0
41
1
10
144.703681450799
20
-1.65400430481887
30
0
41
1
10
145.438231586985
20
-1.89905898876737
30
0
41
1
10
146.561947159605
20
-2.2696027907221
30
0
41
1
10
146.951608944252
20
-2.39736413406956
30
0
41
1
10
147.341236938639
20
-2.52422170953761
30
0
0
SPLINE
5
18E
100
AcDbEntity
8
1
62
256
6
ByLayer
370
18
48
1
60
0
100
AcDbSpline
70
4
71
3
72
8
73
4
40
0
40
0
40
0
40
0
40
1
40
1
40
1
40
1
41
1
10
21.9
20
9.29964662004636
30
0
41
1
10
21.607686100431
20
9.26895412332016
30
0
41
1
10
21.3240031153685
20
9.23981810469721
30
0
41
1
10
21.0488198464374
20
9.210113187817
30
0
0
SPLINE
5
18F
100
AcDbEntity
8
1
62
256
6
ByLayer
370
18
48
1
60
0
100
AcDbSpline
70
4
71
3
72
10
73
6
40
0
40
0
40
0
40
0
40
0.5
40
0.5
40
1
40
1
40
1
40
1
41
1
10
183.306326390634
20
3.25918460369999
30
0
41
1
10
183.590051430172
20
3.2818926720642
30
0
41
1
10
183.873053128964
20
3.3092228628438
30
0
41
1
10
184.43645138934
20
3.38052998128546
30
0
41
1
10
184.716916878891
20
3.42406646161683
30
0
41
1
10
184.994725144962
20
3.48458250831976
30
0
0
SPLINE
5
190
100
AcDbEntity
8
1
62
256
6
ByLayer
370
13
48
1
60
0
100
AcDbSpline
70
4
71
3
72
8
73
4
40
0
40
0
40
0
40
0
40
1
40
1
40
1
40
1
41
1
10
184.946501995013
20
0.94935649445307
30
0
41
1
10
184.929977927138
20
0.941471034936001
30
0
41
1
10
184.912806323543
20
0.927020754375263
30
0
41
1
10
184.898749993325
20
0.909172139043648
30
0
0
SPLINE
5
191
100
AcDbEntity
8
1
62
256
6
ByLayer
370
18
48
1
60
0
100
AcDbSpline
70
4
71
3
72
8
73
4
40
0
40
0
40
0
40
0
40
1
40
1
40
1
40
1
41
1
10
185.892079882981
20
-0.313231849073645
30
0
41
1
10
185.926461996888
20
-0.183193202064757
30
0
41
1
10
185.956736801551
20
-0.0546300615285986
30
0
41
1
10
185.983461814753
20
0.0726578547756276
30
0
0
SPLINE
5
192
100
AcDbEntity
8
SK1
62
256
6
ByLayer
370
18
48
1
60
0
100
AcDbSpline
70
4
71
3
72
64
73
60
40
0
40
0
40
0
40
0
40
0.0312499999999995
40
0.0312499999999995
40
0.0468749999999992
40
0.0468749999999992
40
0.062499999999999
40
0.062499999999999
40
0.0937499999999985
40
0.0937499999999985
40
0.109374999999998
40
0.109374999999998
40
0.124999999999998
40
0.124999999999998
40
0.156249999999997
40
0.156249999999997
40
0.171874999999997
40
0.171874999999997
40
0.187499999999997
40
0.187499999999997
40
0.249999999999997
40
0.249999999999997
40
0.281249999999998
40
0.281249999999998
40
0.312499999999998
40
0.312499999999998
40
0.374999999999998
40
0.374999999999998
40
0.437499999999999
40
0.437499999999999
40
0.499999999999999
40
0.499999999999999
40
0.562499999999999
40
0.562499999999999
40
0.59375
40
0.59375
40
0.625
40
0.625
40
0.6875
40
0.6875
40
0.750000000000001
40
0.750000000000001
40
0.781250000000001
40
0.781250000000001
40
0.812500000000001
40
0.812500000000001
40
0.843750000000001
40
0.843750000000001
40
0.875000000000001
40
0.875000000000001
40
0.906250000000001
40
0.906250000000001
40
0.937500000000001
40
0.937500000000001
40
0.953125
40
0.953125
40
0.96875
40
0.96875
40
1
40
1
40
1
40
1
41
1
10
-6.5
20
-6.99849805315398
30
0
41
1
10
-6.30853447478472
20
-6.99849805315398
30
0
41
1
10
-6.12188336791326
20
-6.97840315241657
30
0
41
1
10
-5.8484878773524
20
-6.92047351118779
30
0
41
1
10
-5.7584618830316
20
-6.89648863827941
30
0
41
1
10
-5.58060662552396
20
-6.83910391373092
30
0
41
1
10
-5.49372655026699
20
-6.80596321889971
30
0
41
1
10
-5.24245624040412
20
-6.69552430561717
30
0
41
1
10
-5.08569468406816
20
-6.60675869544858
30
0
41
1
10
-4.86453009282243
20
-6.45287807307128
30
0
41
1
10
-4.7933908371711
20
-6.39821944342236
30
0
41
1
10
-4.65802088121535
20
-6.28444859172765
30
0
41
1
10
-4.59342903789258
20
-6.22509096722015
30
0
41
1
10
-4.40793593165921
20
-6.04014551828448
30
0
41
1
10
-4.29527398902584
20
-5.90771355623363
30
0
41
1
10
-4.1399675405425
20
-5.69675807949747
30
0
41
1
10
-4.09037966762628
20
-5.62417904728929
30
0
41
1
10
-3.99652095930722
20
-5.47684573321774
30
0
41
1
10
-3.95211490247789
20
-5.40193398687597
30
0
41
1
10
-3.74123363956173
20
-5.02158235872483
30
0
41
1
10
-3.60755149292501
20
-4.69897386034114
30
0
41
1
10
-3.44162149851417
20
-4.19258700908645
30
0
41
1
10
-3.39208248155921
20
-4.01941859873125
30
0
41
1
10
-3.30397171494278
20
-3.67068641712225
30
0
41
1
10
-3.26523540256508
20
-3.49474424866864
30
0
41
1
10
-3.16193220772189
20
-2.96257506816934
30
0
41
1
10
-3.1100915163438
20
-2.60203245520535
30
0
41
1
10
-3.0302577304731
20
-1.87062537676033
30
0
41
1
10
-3.00231669556516
20
-1.49946628375946
30
0
41
1
10
-2.96552722929348
20
-0.748365027890884
30
0
41
1
10
-2.95691520161574
20
-0.373612626984993
30
0
41
1
10
-2.95692710084052
20
0.374371447837348
30
0
41
1
10
-2.96555770368258
20
0.747602890379881
30
0
41
1
10
-2.99282101821189
20
1.30628204449945
30
0
41
1
10
-3.00432642856526
20
1.49231292021335
30
0
41
1
10
-3.03282108116702
20
1.86396822844924
30
0
41
1
10
-3.04986759854259
20
2.05007278812627
30
0
41
1
10
-3.11014881242801
20
2.60297567152125
30
0
41
1
10
-3.162307922255
20
2.96488095092602
30
0
41
1
10
-3.30010257152469
20
3.67399084568154
30
0
41
1
10
-3.38556266555636
20
4.02122114608875
30
0
41
1
10
-3.55180841130002
20
4.52899799146797
30
0
41
1
10
-3.6136003649205
20
4.69567554573538
30
0
41
1
10
-3.75091928997014
20
5.01874839515168
30
0
41
1
10
-3.82662406896097
20
5.17576732390657
30
0
41
1
10
-3.99536748722375
20
5.47977116054182
30
0
41
1
10
-4.08851007892494
20
5.62695060366963
30
0
41
1
10
-4.29628342788976
20
5.90899603480418
30
0
41
1
10
-4.4091798753899
20
6.0415187919846
30
0
41
1
10
-4.65647027799724
20
6.28781175241014
30
0
41
1
10
-4.79091914996496
20
6.40169909356391
30
0
41
1
10
-5.08639658439529
20
6.60720933870761
30
0
41
1
10
-5.24316311683819
20
6.69585312510191
30
0
41
1
10
-5.4937154639766
20
6.80594926188147
30
0
41
1
10
-5.57981188499843
20
6.83881764830417
30
0
41
1
10
-5.75769476381925
20
6.89627071119145
30
0
41
1
10
-5.8482117493239
20
6.92041108839561
30
0
41
1
10
-6.12211024850811
20
6.97845904737764
30
0
41
1
10
-6.30882145942078
20
6.99849805315398
30
0
41
1
10
-6.5
20
6.99849805315398
30
0
0
SPLINE
5
193
100
AcDbEntity
8
SK1
62
256
6
ByLayer
370
18
48
1
60
0
100
AcDbSpline
70
4
71
3
72
64
73
60
40
0
40
0
40
0
40
0
40
0.03125
40
0.03125
40
0.046875
40
0.046875
40
0.0625000000000001
40
0.0625000000000001
40
0.09375
40
0.09375
40
0.109375
40
0.109375
40
0.125
40
0.125
40
0.15625
40
0.15625
40
0.171875
40
0.171875
40
0.1875
40
0.1875
40
0.25
40
0.25
40
0.28125
40
0.28125
40
0.3125
40
0.3125
40
0.375
40
0.375
40
0.4375
40
0.4375
40
0.5
40
0.5
40
0.5625
40
0.5625
40
0.59375
40
0.59375
40
0.625
40
0.625
40
0.6875
40
0.6875
40
0.75
40
0.75
40
0.78125
40
0.78125
40
0.8125
40
0.8125
40
0.84375
40
0.84375
40
0.875
40
0.875
40
0.90625
40
0.90625
40
0.9375
40
0.9375
40
0.953125
40
0.953125
40
0.96875
40
0.96875
40
1
40
1
40
1
40
1
41
1
10
-49.5
20
6.99849805315398
30
0
41
1
10
-49.6914655252153
20
6.99849805315398
30
0
41
1
10
-49.8781166320868
20
6.97840315241657
30
0
41
1
10
-50.1515121226476
20
6.92047351118782
30
0
41
1
10
-50.2415381169684
20
6.89648863827941
30
0
41
1
10
-50.4193933744761
20
6.83910391373095
30
0
41
1
10
-50.5062734497331
20
6.80596321889971
30
0
41
1
10
-50.7575437595959
20
6.6955243056172
30
0
41
1
10
-50.9143053159319
20
6.60675869544858
30
0
41
1
10
-51.1354699071776
20
6.45287807307128
30
0
41
1
10
-51.2066091628289
20
6.39821944342236
30
0
41
1
10
-51.3419791187847
20
6.28444859172765
30
0
41
1
10
-51.4065709621075
20
6.22509096722015
30
0
41
1
10
-51.5920640683408
20
6.0401455182845
30
0
41
1
10
-51.7047260109742
20
5.90771355623363
30
0
41
1
10
-51.8600324594575
20
5.69675807949747
30
0
41
1
10
-51.9096203323737
20
5.62417904728929
30
0
41
1
10
-52.0034790406928
20
5.47684573321774
30
0
41
1
10
-52.0478850975221
20
5.40193398687597
30
0
41
1
10
-52.2587663604383
20
5.02158235872483
30
0
41
1
10
-52.392448507075
20
4.69897386034114
30
0
41
1
10
-52.5583785014859
20
4.19258700908645
30
0
41
1
10
-52.6079175184408
20
4.01941859873125
30
0
41
1
10
-52.6960282850573
20
3.67068641712225
30
0
41
1
10
-52.734764597435
20
3.49474424866864
30
0
41
1
10
-52.8380677922782
20
2.96257506816934
30
0
41
1
10
-52.8899084836562
20
2.60203245520535
30
0
41
1
10
-52.9697422695269
20
1.87062537676033
30
0
41
1
10
-52.9976833044349
20
1.49946628375946
30
0
41
1
10
-53.0344727707065
20
0.748365027890884
30
0
41
1
10
-53.0430847983843
20
0.373612626984993
30
0
41
1
10
-53.0430728991595
20
-0.374371447837348
30
0
41
1
10
-53.0344422963175
20
-0.747602890379881
30
0
41
1
10
-53.0071789817882
20
-1.30628204449945
30
0
41
1
10
-52.9956735714348
20
-1.49231292021335
30
0
41
1
10
-52.967178918833
20
-1.86396822844924
30
0
41
1
10
-52.9501324014574
20
-2.05007278812627
30
0
41
1
10
-52.889851187572
20
-2.60297567152125
30
0
41
1
10
-52.837692077745
20
-2.96488095092602
30
0
41
1
10
-52.6998974284754
20
-3.67399084568154
30
0
41
1
10
-52.6144373344437
20
-4.02122114608875
30
0
41
1
10
-52.4481915887
20
-4.52899799146797
30
0
41
1
10
-52.3863996350796
20
-4.69567554573538
30
0
41
1
10
-52.2490807100299
20
-5.01874839515168
30
0
41
1
10
-52.1733759310391
20
-5.17576732390657
30
0
41
1
10
-52.0046325127763
20
-5.47977116054182
30
0
41
1
10
-51.9114899210751
20
-5.62695060366965
30
0
41
1
10
-51.7037165721103
20
-5.9089960348042
30
0
41
1
10
-51.5908201246101
20
-6.0415187919846
30
0
41
1
10
-51.3435297220028
20
-6.28781175241014
30
0
41
1
10
-51.2090808500351
20
-6.40169909356393
30
0
41
1
10
-50.9136034156048
20
-6.60720933870761
30
0
41
1
10
-50.7568368831618
20
-6.69585312510191
30
0
41
1
10
-50.5062845360234
20
-6.80594926188147
30
0
41
1
10
-50.4201881150016
20
-6.83881764830417
30
0
41
1
10
-50.2423052361808
20
-6.89627071119148
30
0
41
1
10
-50.1517882506761
20
-6.92041108839561
30
0
41
1
10
-49.8778897514919
20
-6.97845904737764
30
0
41
1
10
-49.6911785405792
20
-6.99849805315398
30
0
41
1
10
-49.5
20
-6.99849805315398
30
0
0
LINE
5
70
100
AcDbEntity
8
81
62
256
6
ByLayer
370
18
48
1
60
0
100
AcDbLine
10
174.1
20
0
30
0
11
179.1
21
0
31
0
39
0
210
0
220
0
230
1
0
LINE
5
71
100
AcDbEntity
8
1
62
256
6
ByLayer
370
18
48
1
60
0
100
AcDbLine
10
0.2
20
16
30
0
11
0
21
15.8
31
0
39
0
210
0
220
0
230
1
0
LINE
5
73
100
AcDbEntity
8
1
62
256
6
ByLayer
370
18
48
1
60
0
100
AcDbLine
10
0
20
-15.8
30
0
11
0.2
21
-16
31
0
39
0
210
0
220
0
230
1
0
LINE
5
74
100
AcDbEntity
8
SK1
62
256
6
ByLayer
370
18
48
1
60
0
100
AcDbLine
10
-54.6
20
-12.49675
30
0
11
-54.449692
21
-12.375033
31
0
39
0
210
0
220
0
230
1
0
LINE
5
76
100
AcDbEntity
8
SK1
62
256
6
ByLayer
370
18
48
1
60
0
100
AcDbLine
10
-54.449692
20
12.375033
30
0
11
-54.6
21
12.49675
31
0
39
0
210
0
220
0
230
1
0
LINE
5
77
100
AcDbEntity
8
SK1
62
256
6
ByLayer
370
18
48
1
60
0
100
AcDbLine
10
-1.6
20
12.49675
30
0
11
-53.3
21
12.49675
31
0
39
0
210
0
220
0
230
1
0
LINE
5
78
100
AcDbEntity
8
SK1
62
256
6
ByLayer
370
18
48
1
60
0
100
AcDbLine
10
-53.3
20
-12.49675
30
0
11
-1.6
21
-12.49675
31
0
39
0
210
0
220
0
230
1
0
LINE
5
79
100
AcDbEntity
8
SK1
62
256
6
ByLayer
370
18
48
1
60
0
100
AcDbLine
10
-53.3
20
12.49675
30
0
11
-53.426311
21
12.388738
31
0
39
0
210
0
220
0
230
1
0
LINE
5
7A
100
AcDbEntity
8
SK1
62
256
6
ByLayer
370
18
48
1
60
0
100
AcDbLine
10
-53.426311
20
-12.388738
30
0
11
-53.3
21
-12.49675
31
0
39
0
210
0
220
0
230
1
0
LINE
5
7B
100
AcDbEntity
8
SK1
62
256
6
ByLayer
370
18
48
1
60
0
100
AcDbLine
10
-1.6
20
-12.49675
30
0
11
-1.144243
21
-12.284227
31
0
39
0
210
0
220
0
230
1
0
LINE
5
7C
100
AcDbEntity
8
SK1
62
256
6
ByLayer
370
18
48
1
60
0
100
AcDbLine
10
-1.144243
20
12.284227
30
0
11
-1.6
21
12.49675
31
0
39
0
210
0
220
0
230
1
0
LINE
5
7D
100
AcDbEntity
8
SK1
62
256
6
ByLayer
370
18
48
1
60
0
100
AcDbLine
10
-54.6
20
12.49675
30
0
11
-55
21
12.49675
31
0
39
0
210
0
220
0
230
1
0
LINE
5
7E
100
AcDbEntity
8
SK1
62
256
6
ByLayer
370
18
48
1
60
0
100
AcDbLine
10
-55
20
-12.49675
30
0
11
-54.6
21
-12.49675
31
0
39
0
210
0
220
0
230
1
0
LINE
5
7F
100
AcDbEntity
8
SK1
62
256
6
ByLayer
370
18
48
1
60
0
100
AcDbLine
10
-55
20
12.49675
30
0
11
-56
21
11.49675
31
0
39
0
210
0
220
0
230
1
0
LINE
5
80
100
AcDbEntity
8
SK1
62
256
6
ByLayer
370
18
48
1
60
0
100
AcDbLine
10
-56
20
-11.49675
30
0
11
-55
21
-12.49675
31
0
39
0
210
0
220
0
230
1
0
LINE
5
81
100
AcDbEntity
8
SK1
62
256
6
ByLayer
370
18
48
1
60
0
100
AcDbLine
10
-0.975195
20
-12.24675
30
0
11
-0.15
21
-12.24675
31
0
39
0
210
0
220
0
230
1
0
LINE
5
82
100
AcDbEntity
8
SK1
62
256
6
ByLayer
370
18
48
1
60
0
100
AcDbLine
10
-0.15
20
12.24675
30
0
11
-0.975195
21
12.24675
31
0
39
0
210
0
220
0
230
1
0
LINE
5
83
100
AcDbEntity
8
1
62
256
6
ByLayer
370
18
48
1
60
0
100
AcDbLine
10
22.539832
20
-9.3
30
0
11
29.450026
21
-9.3
31
0
39
0
210
0
220
0
230
1
0
LINE
5
84
100
AcDbEntity
8
1
62
256
6
ByLayer
370
18
48
1
60
0
100
AcDbLine
10
29.450026
20
9.3
30
0
11
22.539832
21
9.3
31
0
39
0
210
0
220
0
230
1
0
LINE
5
85
100
AcDbEntity
8
1
62
256
6
ByLayer
370
18
48
1
60
0
100
AcDbLine
10
20.127488
20
-9.11342
30
0
11
21.451932
21
-9.252835
31
0
39
0
210
0
220
0
230
1
0
LINE
5
86
100
AcDbEntity
8
1
62
256
6
ByLayer
370
18
48
1
60
0
100
AcDbLine
10
21.451932
20
9.252835
30
0
11
20.127488
21
9.11342
31
0
39
0
210
0
220
0
230
1
0
LINE
5
87
100
AcDbEntity
8
1
62
256
6
ByLayer
370
18
48
1
60
0
100
AcDbLine
10
108.024593
20
9.3
30
0
11
101.209868
21
9.3
31
0
39
0
210
0
220
0
230
1
0
LINE
5
88
100
AcDbEntity
8
1
62
256
6
ByLayer
370
18
48
1
60
0
100
AcDbLine
10
101.209868
20
-9.3
30
0
11
108.024593
21
-9.3
31
0
39
0
210
0
220
0
230
1
0
LINE
5
89
100
AcDbEntity
8
1
62
256
6
ByLayer
370
18
48
1
60
0
100
AcDbLine
10
178.004102
20
9.5
30
0
11
176.325981
21
9.5
31
0
39
0
210
0
220
0
230
1
0
LINE
5
8A
100
AcDbEntity
8
1
62
256
6
ByLayer
370
18
48
1
60
0
100
AcDbLine
10
176.325981
20
-9.5
30
0
11
178.004102
21
-9.5
31
0
39
0
210
0
220
0
230
1
0
LINE
5
8B
100
AcDbEntity
8
1
62
256
6
ByLayer
370
18
48
1
60
0
100
AcDbLine
10
6.0007
20
16
30
0
11
0.2
21
16
31
0
39
0
210
0
220
0
230
1
0
LINE
5
8C
100
AcDbEntity
8
1
62
256
6
ByLayer
370
18
48
1
60
0
100
AcDbLine
10
0.2
20
-16
30
0
11
6.0007
21
-16
31
0
39
0
210
0
220
0
230
1
0
LINE
5
8D
100
AcDbEntity
8
1
62
256
6
ByLayer
370
18
48
1
60
0
100
AcDbLine
10
15.664032
20
-10.376208
30
0
11
15.748744
21
-10.323067
31
0
39
0
210
0
220
0
230
1
0
LINE
5
8E
100
AcDbEntity
8
1
62
256
6
ByLayer
370
18
48
1
60
0
100
AcDbLine
10
15.748744
20
10.323067
30
0
11
15.664032
21
10.376208
31
0
39
0
210
0
220
0
230
1
0
LINE
5
8F
100
AcDbEntity
8
80
62
256
6
ByLayer
370
18
48
1
60
0
100
AcDbLine
10
0
20
0
30
0
11
-5
21
0
31
0
39
0
210
0
220
0
230
1
0
LINE
5
90
100
AcDbEntity
8
4
62
256
6
ByLayer
370
18
48
0.05
60
0
100
AcDbLine
10
174.1
20
0
30
0
11
0
21
0
31
0
39
0
210
0
220
0
230
1
0
LINE
5
92
100
AcDbEntity
8
SK4
62
256
6
ByLayer
370
18
48
0.05
60
0
100
AcDbLine
10
191
20
0
30
0
11
-61
21
0
31
0
39
0
210
0
220
0
230
1
0
LINE
5
94
100
AcDbEntity
8
1
62
256
6
ByLayer
370
18
48
1
60
0
100
AcDbLine
10
180.599742
20
-8.598447
30
0
11
180.606831
21
-8.595372
31
0
39
0
210
0
220
0
230
1
0
LINE
5
95
100
AcDbEntity
8
1
62
256
6
ByLayer
370
13
48
1
60
0
100
AcDbLine
10
161.274234
20
-4.628257
30
0
11
161.274234
21
-4.819205
31
0
39
0
210
0
220
0
230
1
0
LINE
5
96
100
AcDbEntity
8
1
62
256
6
ByLayer
370
13
48
1
60
0
100
AcDbLine
10
6.0007
20
0
30
0
11
6.0007
21
-16
31
0
39
0
210
0
220
0
230
1
0
LINE
5
97
100
AcDbEntity
8
1
62
256
6
ByLayer
370
13
48
1
60
0
100
AcDbLine
10
6.0007
20
16
30
0
11
6.0007
21
0
31
0
39
0
210
0
220
0
230
1
0
LINE
5
98
100
AcDbEntity
8
1
62
256
6
ByLayer
370
13
48
1
60
0
100
AcDbLine
10
15.748744
20
5.036632
30
0
11
15.748744
21
-10.323067
31
0
39
0
210
0
220
0
230
1
0
LINE
5
99
100
AcDbEntity
8
1
62
256
6
ByLayer
370
13
48
1
60
0
100
AcDbLine
10
174.1
20
-8.98311
30
0
11
174.237318
21
-9.031387
31
0
39
0
210
0
220
0
230
1
0
LINE
5
9A
100
AcDbEntity
8
1
62
256
6
ByLayer
370
13
48
1
60
0
100
AcDbLine
10
178.548755
20
-3.015648
30
0
11
178.804497
21
-2.837263
31
0
39
0
210
0
220
0
230
1
0
LINE
5
9B
100
AcDbEntity
8
1
62
256
6
ByLayer
370
18
48
1
60
0
100
AcDbLine
10
0
20
15.8
30
0
11
0
21
-15.8
31
0
39
0
210
0
220
0
230
1
0
LINE
5
9C
100
AcDbEntity
8
1
62
256
6
ByLayer
370
13
48
1
60
0
100
AcDbLine
10
183.306326
20
3.259185
30
0
11
185.079221
21
3.233135
31
0
39
0
210
0
220
0
230
1
0
LINE
5
9D
100
AcDbEntity
8
1
62
256
6
ByLayer
370
18
48
1
60
0
100
AcDbLine
10
185.079221
20
-3.233135
30
0
11
184.994725
21
-3.484583
31
0
39
0
210
0
220
0
230
1
0
LINE
5
9E
100
AcDbEntity
8
1
62
256
6
ByLayer
370
13
48
1
60
0
100
AcDbLine
10
15.664032
20
10.376208
30
0
11
15.664032
21
10.353368
31
0
39
0
210
0
220
0
230
1
0
LINE
5
9F
100
AcDbEntity
8
1
62
256
6
ByLayer
370
13
48
1
60
0
100
AcDbLine
10
185.924213
20
0.279812
30
0
11
184.946502
21
0.949356
31
0
39
0
210
0
220
0
230
1
0
LINE
5
A0
100
AcDbEntity
8
1
62
256
6
ByLayer
370
18
48
1
60
0
100
AcDbLine
10
181.162286
20
-8.108706
30
0
11
181.165798
21
-8.102203
31
0
39
0
210
0
220
0
230
1
0
LINE
5
A1
100
AcDbEntity
8
1
62
256
6
ByLayer
370
18
48
1
60
0
100
AcDbLine
10
181.165798
20
-3.541407
30
0
11
181.165647
21
-3.5398
31
0
39
0
210
0
220
0
230
1
0
LINE
5
A2
100
AcDbEntity
8
1
62
256
6
ByLayer
370
18
48
1
60
0
100
AcDbLine
10
185.924213
20
0.279812
30
0
11
185.779872
21
0.889854
31
0
39
0
210
0
220
0
230
1
0
LINE
5
A3
100
AcDbEntity
8
1
62
256
6
ByLayer
370
18
48
1
60
0
100
AcDbLine
10
181.165798
20
-8.102203
30
0
11
181.165798
21
-3.541407
31
0
39
0
210
0
220
0
230
1
0
LINE
5
A4
100
AcDbEntity
8
1
62
256
6
ByLayer
370
18
48
1
60
0
100
AcDbLine
10
185.983462
20
0.072658
30
0
11
186
21
0
31
0
39
0
210
0
220
0
230
1
0
LINE
5
A5
100
AcDbEntity
8
1
62
256
6
ByLayer
370
18
48
1
60
0
100
AcDbLine
10
179.13364
20
-2.996706
30
0
11
179.336665
21
-2.866028
31
0
39
0
210
0
220
0
230
1
0
LINE
5
A6
100
AcDbEntity
8
1
62
256
6
ByLayer
370
18
48
1
60
0
100
AcDbLine
10
179.364758
20
-3.5398
30
0
11
181.165647
21
-3.5398
31
0
39
0
210
0
220
0
230
1
0
LINE
5
A7
100
AcDbEntity
8
1
62
256
6
ByLayer
370
13
48
1
60
0
100
AcDbLine
10
183.08514
20
-4.438199
30
0
11
183.626448
21
-1.677252
31
0
39
0
210
0
220
0
230
1
0
LINE
5
A8
100
AcDbEntity
8
1
62
256
6
ByLayer
370
18
48
1
60
0
100
AcDbLine
10
175
20
-8.585105
30
0
11
175
21
-8.694146
31
0
39
0
210
0
220
0
230
1
0
LINE
5
A9
100
AcDbEntity
8
1
62
256
6
ByLayer
370
13
48
1
60
0
100
AcDbLine
10
179.336665
20
-2.866028
30
0
11
178.804497
21
-2.837263
31
0
39
0
210
0
220
0
230
1
0
LINE
5
AA
100
AcDbEntity
8
1
62
256
6
ByLayer
370
18
48
1
60
0
100
AcDbLine
10
175.179696
20
-8.598447
30
0
11
180.599742
21
-8.598447
31
0
39
0
210
0
220
0
230
1
0
LINE
5
AB
100
AcDbEntity
8
1
62
256
6
ByLayer
370
18
48
1
60
0
100
AcDbLine
10
185.079221
20
3.233135
30
0
11
184.994725
21
3.484583
31
0
39
0
210
0
220
0
230
1
0
LINE
5
AC
100
AcDbEntity
8
1
62
256
6
ByLayer
370
13
48
1
60
0
100
AcDbLine
10
184.946502
20
0.949356
30
0
11
185.779872
21
0.889854
31
0
39
0
210
0
220
0
230
1
0
LINE
5
AD
100
AcDbEntity
8
1
62
256
6
ByLayer
370
18
48
1
60
0
100
AcDbLine
10
181.165647
20
-3.5398
30
0
11
179.784773
21
1.302896
31
0
39
0
210
0
220
0
230
1
0
LINE
5
AE
100
AcDbEntity
8
1
62
256
6
ByLayer
370
18
48
1
60
0
100
AcDbLine
10
178.997912
20
-3.015648
30
0
11
178.548755
21
-3.015648
31
0
39
0
210
0
220
0
230
1
0
LINE
5
AF
100
AcDbEntity
8
1
62
256
6
ByLayer
370
18
48
1
60
0
100
AcDbLine
10
183.08514
20
-4.438199
30
0
11
184.815832
21
-2.491753
31
0
39
0
210
0
220
0
230
1
0
LINE
5
B0
100
AcDbEntity
8
1
62
256
6
ByLayer
370
18
48
1
60
0
100
AcDbLine
10
182.780533
20
-9.344314
30
0
11
185.555017
21
-1.291538
31
0
39
0
210
0
220
0
230
1
0
LINE
5
B1
100
AcDbEntity
8
1
62
256
6
ByLayer
370
18
48
1
60
0
100
AcDbLine
10
20
20
-9.099994
30
0
11
20
21
1.314747
31
0
39
0
210
0
220
0
230
1
0
LINE
5
B2
100
AcDbEntity
8
1
62
256
6
ByLayer
370
18
48
1
60
0
100
AcDbLine
10
174.1
20
-9.245466
30
0
11
174.1
21
-8.98311
31
0
39
0
210
0
220
0
230
1
0
LINE
5
B3
100
AcDbEntity
8
1
62
256
6
ByLayer
370
13
48
1
60
0
100
AcDbLine
10
184.815832
20
-2.491753
30
0
11
183.626448
21
-1.677252
31
0
39
0
210
0
220
0
230
1
0
LINE
5
B4
100
AcDbEntity
8
1
62
256
6
ByLayer
370
18
48
1
60
0
100
AcDbLine
10
180.467282
20
-7.403688
30
0
11
181.165798
21
-8.102203
31
0
39
0
210
0
220
0
230
1
0
LINE
5
B5
100
AcDbEntity
8
1
62
256
6
ByLayer
370
18
48
1
60
0
100
AcDbLine
10
186
20
0
30
0
11
185.983462
21
-0.072658
31
0
39
0
210
0
220
0
230
1
0
LINE
5
B6
100
AcDbEntity
8
1
62
256
6
ByLayer
370
18
48
1
60
0
100
AcDbLine
10
174.1
20
-8.810079
30
0
11
174.1
21
-8.84242
31
0
39
0
210
0
220
0
230
1
0
LINE
5
B7
100
AcDbEntity
8
1
62
256
6
ByLayer
370
18
48
1
60
0
100
AcDbLine
10
174
20
-9.181717
30
0
11
174
21
-8.905841
31
0
39
0
210
0
220
0
230
1
0
LINE
5
B8
100
AcDbEntity
8
1
62
256
6
ByLayer
370
18
48
1
60
0
100
AcDbLine
10
180.606831
20
-8.595372
30
0
11
181.162286
21
-8.108706
31
0
39
0
210
0
220
0
230
1
0
LINE
5
B9
100
AcDbEntity
8
1
62
256
6
ByLayer
370
18
48
1
60
0
100
AcDbLine
10
0.2
20
0
30
0
11
0.2
21
-16
31
0
39
0
210
0
220
0
230
1
0
LINE
5
BA
100
AcDbEntity
8
1
62
256
6
ByLayer
370
18
48
1
60
0
100
AcDbLine
10
0.2
20
16
30
0
11
0.2
21
0
31
0
39
0
210
0
220
0
230
1
0
LINE
5
BB
100
AcDbEntity
8
1
62
256
6
ByLayer
370
13
48
1
60
0
100
AcDbLine
10
173.9
20
2.9
30
0
11
174.106275
21
2.9
31
0
39
0
210
0
220
0
230
1
0
LINE
5
BC
100
AcDbEntity
8
1
62
256
6
ByLayer
370
18
48
1
60
0
100
AcDbLine
10
174.649495
20
-9.468292
30
0
11
174.649495
21
-9.37307
31
0
39
0
210
0
220
0
230
1
0
LINE
5
BD
100
AcDbEntity
8
1
62
256
6
ByLayer
370
18
48
1
60
0
100
AcDbLine
10
21.9
20
-9.299647
30
0
11
21.9
21
0.531506
31
0
39
0
210
0
220
0
230
1
0
LINE
5
BE
100
AcDbEntity
8
1
62
256
6
ByLayer
370
13
48
1
60
0
100
AcDbLine
10
184.89875
20
0.909172
30
0
11
185.9486
21
0.190226
31
0
39
0
210
0
220
0
230
1
0
LINE
5
BF
100
AcDbEntity
8
1
62
256
6
ByLayer
370
13
48
1
60
0
100
AcDbLine
10
15.664032
20
5.126052
30
0
11
15.664032
21
-10.376208
31
0
39
0
210
0
220
0
230
1
0
LINE
5
C0
100
AcDbEntity
8
1
62
256
6
ByLayer
370
18
48
1
60
0
100
AcDbLine
10
24.302
20
-8.466046
30
0
11
24.302
21
-0.365078
31
0
39
0
210
0
220
0
230
1
0
LINE
5
C1
100
AcDbEntity
8
1
62
256
6
ByLayer
370
18
48
1
60
0
100
AcDbLine
10
181.530603
20
-8.694176
30
0
11
183.035463
21
-4.494018
31
0
39
0
210
0
220
0
230
1
0
LINE
5
C2
100
AcDbEntity
8
1
62
256
6
ByLayer
370
18
48
1
60
0
100
AcDbLine
10
185.89208
20
-0.313232
30
0
11
186
21
0
31
0
39
0
210
0
220
0
230
1
0
LINE
5
C3
100
AcDbEntity
8
1
62
256
6
ByLayer
370
18
48
1
60
0
100
AcDbLine
10
174.1
20
-8.947607
30
0
11
174.1
21
-8.84242
31
0
39
0
210
0
220
0
230
1
0
LINE
5
C4
100
AcDbEntity
8
1
62
256
6
ByLayer
370
18
48
1
60
0
100
AcDbLine
10
185.924213
20
-0.279812
30
0
11
185.779872
21
-0.889854
31
0
39
0
210
0
220
0
230
1
0
LINE
5
C5
100
AcDbEntity
8
1
62
256
6
ByLayer
370
18
48
1
60
0
100
AcDbLine
10
174.1
20
-8.98311
30
0
11
174.1
21
-8.947607
31
0
39
0
210
0
220
0
230
1
0
LINE
5
C6
100
AcDbEntity
8
1
62
256
6
ByLayer
370
13
48
1
60
0
100
AcDbLine
10
15.748744
20
10.323067
30
0
11
15.748744
21
10.301458
31
0
39
0
210
0
220
0
230
1
0
LINE
5
C7
100
AcDbEntity
8
1
62
256
6
ByLayer
370
18
48
1
60
0
100
AcDbLine
10
165
20
-2.124096
30
0
11
165
21
5.448696
31
0
39
0
210
0
220
0
230
1
0
LINE
5
C8
100
AcDbEntity
8
SK1
62
256
6
ByLayer
370
18
48
1
60
0
100
AcDbLine
10
-6.5
20
6.998498
30
0
11
-49.5
21
6.998498
31
0
39
0
210
0
220
0
230
1
0
LINE
5
C9
100
AcDbEntity
8
SK1
62
256
6
ByLayer
370
18
48
1
60
0
100
AcDbLine
10
-1.6
20
-12.49675
30
0
11
-1.6
21
0
31
0
39
0
210
0
220
0
230
1
0
LINE
5
CA
100
AcDbEntity
8
SK1
62
256
6
ByLayer
370
18
48
1
60
0
100
AcDbLine
10
-1.6
20
0
30
0
11
-1.6
21
12.49675
31
0
39
0
210
0
220
0
230
1
0
LINE
5
CB
100
AcDbEntity
8
SK1
62
256
6
ByLayer
370
18
48
1
60
0
100
AcDbLine
10
-55
20
0
30
0
11
-55
21
-12.49675
31
0
39
0
210
0
220
0
230
1
0
LINE
5
CC
100
AcDbEntity
8
SK1
62
256
6
ByLayer
370
18
48
1
60
0
100
AcDbLine
10
-55
20
12.49675
30
0
11
-55
21
0
31
0
39
0
210
0
220
0
230
1
0
LINE
5
CD
100
AcDbEntity
8
SK1
62
256
6
ByLayer
370
13
48
1
60
0
100
AcDbLine
10
-1.144243
20
0
30
0
11
-1.144243
21
-12.284227
31
0
39
0
210
0
220
0
230
1
0
LINE
5
CE
100
AcDbEntity
8
SK1
62
256
6
ByLayer
370
13
48
1
60
0
100
AcDbLine
10
-1.144243
20
12.284227
30
0
11
-1.144243
21
0
31
0
39
0
210
0
220
0
230
1
0
LINE
5
CF
100
AcDbEntity
8
SK1
62
256
6
ByLayer
370
13
48
1
60
0
100
AcDbLine
10
-53.426311
20
-12.388738
30
0
11
-53.426311
21
0
31
0
39
0
210
0
220
0
230
1
0
LINE
5
D0
100
AcDbEntity
8
SK1
62
256
6
ByLayer
370
13
48
1
60
0
100
AcDbLine
10
-53.426311
20
0
30
0
11
-53.426311
21
12.388738
31
0
39
0
210
0
220
0
230
1
0
LINE
5
D1
100
AcDbEntity
8
SK1
62
256
6
ByLayer
370
18
48
1
60
0
100
AcDbLine
10
-53.3
20
0
30
0
11
-53.3
21
-12.49675
31
0
39
0
210
0
220
0
230
1
0
LINE
5
D2
100
AcDbEntity
8
SK1
62
256
6
ByLayer
370
18
48
1
60
0
100
AcDbLine
10
-53.3
20
12.49675
30
0
11
-53.3
21
0
31
0
39
0
210
0
220
0
230
1
0
LINE
5
D3
100
AcDbEntity
8
SK1
62
256
6
ByLayer
370
13
48
1
60
0
100
AcDbLine
10
-0.15
20
0
30
0
11
-0.15
21
-12.24675
31
0
39
0
210
0
220
0
230
1
0
LINE
5
D4
100
AcDbEntity
8
SK1
62
256
6
ByLayer
370
13
48
1
60
0
100
AcDbLine
10
-0.15
20
12.24675
30
0
11
-0.15
21
0
31
0
39
0
210
0
220
0
230
1
0
LINE
5
D5
100
AcDbEntity
8
SK1
62
256
6
ByLayer
370
13
48
1
60
0
100
AcDbLine
10
-0.975195
20
12.24675
30
0
11
-0.975195
21
-12.24675
31
0
39
0
210
0
220
0
230
1
0
LINE
5
D6
100
AcDbEntity
8
SK1
62
256
6
ByLayer
370
18
48
1
60
0
100
AcDbLine
10
-49.5
20
-6.998498
30
0
11
-6.5
21
-6.998498
31
0
39
0
210
0
220
0
230
1
0
LINE
5
D7
100
AcDbEntity
8
SK1
62
256
6
ByLayer
370
18
48
1
60
0
100
AcDbLine
10
-54.6
20
-12.49675
30
0
11
-54.6
21
12.49675
31
0
39
0
210
0
220
0
230
1
0
LINE
5
D8
100
AcDbEntity
8
SK1
62
256
6
ByLayer
370
13
48
1
60
0
100
AcDbLine
10
-54.449692
20
-12.375033
30
0
11
-54.449692
21
0
31
0
39
0
210
0
220
0
230
1
0
LINE
5
D9
100
AcDbEntity
8
SK1
62
256
6
ByLayer
370
13
48
1
60
0
100
AcDbLine
10
-54.449692
20
0
30
0
11
-54.449692
21
12.375033
31
0
39
0
210
0
220
0
230
1
0
LINE
5
DA
100
AcDbEntity
8
SK1
62
256
6
ByLayer
370
18
48
1
60
0
100
AcDbLine
10
-56
20
0
30
0
11
-56
21
-11.49675
31
0
39
0
210
0
220
0
230
1
0
LINE
5
DB
100
AcDbEntity
8
SK1
62
256
6
ByLayer
370
18
48
1
60
0
100
AcDbLine
10
-56
20
11.49675
30
0
11
-56
21
0
31
0
39
0
210
0
220
0
230
1
0
LINE
5
DC
100
AcDbEntity
8
SK1
62
256
6
ByLayer
370
13
48
1
60
0
100
AcDbLine
10
-6.5
20
-6.998498
30
0
11
-6.5
21
6.998498
31
0
39
0
210
0
220
0
230
1
0
LINE
5
DD
100
AcDbEntity
8
SK1
62
256
6
ByLayer
370
13
48
1
60
0
100
AcDbLine
10
-49.5
20
6.998498
30
0
11
-49.5
21
-6.998498
31
0
39
0
210
0
220
0
230
1
0
MTEXT
5
194
100
AcDbEntity
8
SK6
62
256
6
ByLayer
370
13
48
1
60
0
100
AcDbMText
10
46.351137
20
31.875134
30
0
210
0
220
0
230
1
1
\W0.7057;870-1900-19L25-8
40
3.5
41
0
44
1.084337
50
0
71
7
72
5
7
iso_b_vert
0
DIMENSION
5
1A2
100
AcDbEntity
8
2
62
256
6
ByLayer
370
13
48
1
60
0
100
AcDbDimension
2
DimnDraft3D1
10
20
20
-22.5
30
0
11
103
21
-22.5
31
0
70
32
71
5
72
1
41
1
210
0
220
0
230
1
3
Standard
100
AcDbAlignedDimension
13
186
23
-1.5875
33
0
14
20
24
-11.0875
34
0
50
0
100
AcDbRotatedDimension
1001
ACAD
1000
DSTYLE
1002
{
1070
   279
1070
     0
1070
   172
1070
     1
1070
   173
1070
     1
1070
   340
1005
195
1070
   271
1070
     1
1070
   272
1070
     2
1070
    77
1070
     1
1070
    73
1070
     0
1070
   171
1070
     3
1070
   274
1070
     4
1070
   177
1070
     7
1070
   176
1070
     7
1070
   178
1070
     7
1070
    48
1040
-0.005
1070
    41
1041
3.5
1070
   147
1041
1.5
1070
    42
1041
1.5875
1070
    44
1041
2.0
1070
   140
1041
3.0
1070
   343
1005
0
1070
   344
1005
0
1002
}
0
DIMENSION
5
1AC
100
AcDbEntity
8
2
62
256
6
ByLayer
370
13
48
1
60
0
100
AcDbDimension
2
DimnDraft3D2
10
22.992
20
16.5
30
0
11
104.496
21
16.5
31
0
70
32
71
5
72
1
41
1
210
0
220
0
230
1
3
Standard
100
AcDbAlignedDimension
13
186
23
1.5875
33
0
14
22.992
24
11.0875
34
0
50
0
100
AcDbRotatedDimension
1001
ACAD
1000
DSTYLE
1002
{
1070
   279
1070
     0
1070
   172
1070
     1
1070
   173
1070
     1
1070
   340
1005
195
1070
   271
1070
     1
1070
   272
1070
     2
1070
    77
1070
     1
1070
    73
1070
     0
1070
   171
1070
     3
1070
   274
1070
     4
1070
   177
1070
     7
1070
   176
1070
     7
1070
   178
1070
     7
1070
    48
1040
-0.005
1070
    41
1041
3.5
1070
   147
1041
1.5
1070
    42
1041
1.5875
1070
    44
1041
2.0
1070
   140
1041
3.0
1070
   343
1005
0
1070
   344
1005
0
1002
}
0
DIMENSION
5
1B7
100
AcDbEntity
8
SK2
62
256
6
ByLayer
370
13
48
1
60
0
100
AcDbDimension
2
DimnDraft3D3
10
0
20
-35.5
30
0
11
-28
21
-35.5
31
0
70
32
71
5
72
1
41
1
210
0
220
0
230
1
3
Standard
100
AcDbAlignedDimension
13
-56
23
-14.0875
33
0
14
0
24
-17.5875
34
0
50
0
100
AcDbRotatedDimension
1001
ACAD
1000
DSTYLE
1002
{
1070
   279
1070
     0
1070
   172
1070
     1
1070
   173
1070
     1
1070
   340
1005
195
1070
   271
1070
     1
1070
   272
1070
     2
1070
    77
1070
     1
1070
    73
1070
     0
1070
   171
1070
     3
1070
   274
1070
     4
1070
   177
1070
     7
1070
   176
1070
     7
1070
   178
1070
     7
1070
    48
1040
-0.005
1070
    41
1041
3.5
1070
   147
1041
1.5
1070
    42
1041
1.5875
1070
    44
1041
2.0
1070
   140
1041
3.0
1070
   343
1005
0
1070
   344
1005
0
1002
}
0
DIMENSION
5
1C1
100
AcDbEntity
8
2
62
256
6
ByLayer
370
13
48
1
60
0
100
AcDbDimension
2
DimnDraft3D4
10
186
20
-35.5
30
0
11
93
21
-35.5
31
0
70
32
71
5
72
1
41
1
210
0
220
0
230
1
3
Standard
100
AcDbAlignedDimension
13
0
23
-17.5875
33
0
14
186
24
-1.5875
34
0
50
0
100
AcDbRotatedDimension
1001
ACAD
1000
DSTYLE
1002
{
1070
   279
1070
     0
1070
   172
1070
     1
1070
   173
1070
     1
1070
   340
1005
195
1070
   271
1070
     1
1070
   272
1070
     2
1070
    77
1070
     1
1070
    73
1070
     0
1070
   171
1070
     3
1070
   274
1070
     4
1070
   177
1070
     7
1070
   176
1070
     7
1070
   178
1070
     7
1070
    48
1040
-0.005
1070
    41
1041
3.5
1070
   147
1041
1.5
1070
    42
1041
1.5875
1070
    44
1041
2.0
1070
   140
1041
3.0
1070
   343
1005
0
1070
   344
1005
0
1002
}
0
DIMENSION
5
1CC
100
AcDbEntity
8
SK2
62
256
6
ByLayer
370
13
48
1
60
0
100
AcDbDimension
2
DimnDraft3D5
10
-64.25
20
-12.5
30
0
11
-64.5
21
-0.520456
31
0
70
33
71
5
72
1
41
1
210
0
220
0
230
1
3
Standard
100
AcDbAlignedDimension
13
-57.5875
23
12.5
33
0
14
-57.5875
24
-12.5
34
0
1001
ACAD
1000
DSTYLE
1002
{
1070
   279
1070
     0
1070
    74
1070
     0
1070
   173
1070
     1
1070
   340
1005
195
1070
   271
1070
     1
1070
   272
1070
     2
1070
    77
1070
     1
1070
    73
1070
     0
1070
   171
1070
     3
1070
   274
1070
     4
1070
   177
1070
     7
1070
   176
1070
     7
1070
   178
1070
     7
1070
    48
1040
-0.005
1070
    41
1041
3.5
1070
   147
1041
1.5
1070
    42
1041
1.5875
1070
    44
1041
2.0
1070
   140
1041
3.0
1070
   343
1005
0
1070
   344
1005
0
1002
}
0
ENDSEC
0
SECTION
2
OBJECTS
0
DICTIONARY
5
237
330
0
100
AcDbDictionary
280
0
281
1
3
ACAD_GROUP
350
238
3
ACAD_MLINESTYLE
350
239
0
DICTIONARY
5
238
330
0
100
AcDbDictionary
280
0
281
1
0
DICTIONARY
5
239
330
0
100
AcDbDictionary
280
0
281
1
3
Standard
350
18
0
MLINESTYLE
5
18
330
239
100
AcDbMlineStyle
2
Standard
70
0
3

62
256
51
90
52
90
71
2
49
-0.5
62
256
6
ByLayer
49
0.5
62
256
6
ByLayer
0
RASTERVARIABLES
5
225
330

100
AcDbRasterVariables
90
0
70
1
71
1
72
1
0
ENDSEC
0
EOF
