0
SECTION
2
HEADER
9
$ACADVER
1
AC1015
9
$DWGCODEPAGE
3
ANSI_1252
9
$HANDSEED
5
24e
9
$ANGBASE
50
0
9
$ANGDIR
70
0
9
$ATTMODE
70
1
9
$AUNITS
70
0
9
$AUPREC
70
0
9
$CECOLOR
62
256
9
$CELTSCALE
40
1
9
$CELTYPE
6
ByLayer
9
$CELWEIGHT
370
18
9
$CLAYER
8
0
9
$CMLJUST
70
0
9
$CMLSCALE
40
1
9
$CMLSTYLE
2
Standard
9
$DIMSTYLE
2
Standard
9
$TEXTSIZE
40
0.2
9
$TEXTSTYLE
7
Standard
9
$LUNITS
70
2
9
$LUPREC
70
4
9
$EXTNAMES
290
1
9
$INSUNITS
70
4
9
$LTSCALE
40
1
9
$LWDISPLAY
290
1
9
$PDMODE
70
0
9
$PDSIZE
40
0
9
$PLINEGEN
70
0
0
ENDSEC
0
SECTION
2
CLASSES
0
CLASS
1
RASTERVARIABLES
2
AcDbRasterVariables
3
ISM
90
0
280
0
281
0
0
ENDSEC
0
SECTION
2
TABLES
0
TABLE
2
VPORT
5
244
100
AcDbSymbolTable
0
VPORT
5
1
100
AcDbSymbolTableRecord
100
AcDbViewportTableRecord
2
*Active
70
0
10
0
20
0
11
1
21
1
12
-1
22
1
13
0
23
0
14
0.5
24
0.5
15
10
25
10
16
0
26
0
36
1
17
0
27
0
37
0
0
ENDTAB
0
TABLE
2
LTYPE
5
245
100
AcDbSymbolTable
0
LTYPE
5
14
100
AcDbSymbolTableRecord
100
AcDbLinetypeTableRecord
70
0
2
ByBlock
3

72
65
73
0
40
0
0
LTYPE
5
15
100
AcDbSymbolTableRecord
100
AcDbLinetypeTableRecord
70
0
2
ByLayer
3

72
65
73
0
40
0
0
LTYPE
5
16
100
AcDbSymbolTableRecord
100
AcDbLinetypeTableRecord
70
0
2
CONTINUOUS
3
Solid line
72
65
73
0
40
0
0
LTYPE
5
6A
100
AcDbSymbolTableRecord
100
AcDbLinetypeTableRecord
70
0
2
CENTER
3
____ _ ____ _ ____ _ ____
72
65
73
4
40
47.5
49
22
74
0
49
-8.5
74
0
49
8.5
74
0
49
-8.5
74
0
0
LTYPE
5
6B
100
AcDbSymbolTableRecord
100
AcDbLinetypeTableRecord
70
0
2
DASHED
3
__ __ __ __ __ __ __ __ __
72
65
73
2
40
25.72
49
12.86
74
0
49
-12.86
74
0
0
ENDTAB
0
TABLE
2
LAYER
5
246
100
AcDbSymbolTable
0
LAYER
5
10
100
AcDbSymbolTableRecord
100
AcDbLayerTableRecord
2
0
70
0
62
7
6
CONTINUOUS
290
1
370
-3
390
0
0
LAYER
5
6D
100
AcDbSymbolTableRecord
100
AcDbLayerTableRecord
2
80
70
0
62
-6
6
CONTINUOUS
290
1
370
-3
390
0
0
LAYER
5
6F
100
AcDbSymbolTableRecord
100
AcDbLayerTableRecord
2
81
70
0
62
-3
6
CONTINUOUS
290
1
370
-3
390
0
0
LAYER
5
72
100
AcDbSymbolTableRecord
100
AcDbLayerTableRecord
2
1
70
0
62
4
6
CONTINUOUS
290
1
370
-3
390
0
0
LAYER
5
93
100
AcDbSymbolTableRecord
100
AcDbLayerTableRecord
2
4
70
0
62
-2
6
CENTER
290
1
370
-3
390
0
0
LAYER
5
1A4
100
AcDbSymbolTableRecord
100
AcDbLayerTableRecord
2
2
70
0
62
7
6
CONTINUOUS
290
1
370
-3
390
0
0
LAYER
5
230
100
AcDbSymbolTableRecord
100
AcDbLayerTableRecord
2
SK1
70
0
62
4
6
CONTINUOUS
290
1
370
-3
390
0
0
LAYER
5
231
100
AcDbSymbolTableRecord
100
AcDbLayerTableRecord
2
SK4
70
0
62
2
6
CENTER
290
1
370
-3
390
0
0
LAYER
5
232
100
AcDbSymbolTableRecord
100
AcDbLayerTableRecord
2
SK6
70
0
62
5
6
CONTINUOUS
290
1
370
-3
390
0
0
LAYER
5
233
100
AcDbSymbolTableRecord
100
AcDbLayerTableRecord
2
SK2
70
0
62
7
6
CONTINUOUS
290
1
370
-3
390
0
0
ENDTAB
0
TABLE
2
STYLE
5
247
100
AcDbSymbolTable
0
STYLE
5
11
100
AcDbSymbolTableRecord
100
AcDbTextStyleTableRecord
2
Standard
3
txt
70
0
71
0
40
0
41
1
42
0
50
0
0
STYLE
5
19F
100
AcDbSymbolTableRecord
100
AcDbTextStyleTableRecord
2
iso_b_vert
3
simplex.shx
70
0
71
0
40
0
41
1
42
0
50
0
0
STYLE
5
1A0
100
AcDbSymbolTableRecord
100
AcDbTextStyleTableRecord
2
DWGDirectTextStyle
3
simplex
70
0
71
0
40
0
41
1
42
0
50
0
0
ENDTAB
0
TABLE
2
DIMSTYLE
5
248
100
AcDbSymbolTable
100
AcDbDimStyleTable
0
DIMSTYLE
105
27
100
AcDbSymbolTableRecord
100
AcDbDimStyleTableRecord
2
Standard
70
0
3
<>
41
0.18
42
0.0625
44
0.18
140
0.18
147
0.09
73
0
74
0
77
1
271
2
275
0
278
52
280
0
340
11
0
ENDTAB
0
TABLE
2
VIEW
5
249
100
AcDbSymbolTable
0
ENDTAB
0
TABLE
2
UCS
5
24a
100
AcDbSymbolTable
0
ENDTAB
0
TABLE
2
APPID
5
24b
100
AcDbSymbolTable
0
APPID
5
12
100
AcDbSymbolTableRecord
100
AcDbRegAppTableRecord
2
ACAD
70
0
0
ENDTAB
0
TABLE
2
BLOCK_RECORD
5
24c
100
AcDbSymbolTable
0
BLOCK_RECORD
5
1F
100
AcDbSymbolTableRecord
100
AcDbBlockTableRecord
2
*Model_Space
340
0
70
0
0
BLOCK_RECORD
5
1B
100
AcDbSymbolTableRecord
100
AcDbBlockTableRecord
2
*Paper_Space
340
0
70
0
0
BLOCK_RECORD
5
23
100
AcDbSymbolTableRecord
100
AcDbBlockTableRecord
2
*Paper_Space0
340
0
70
0
0
BLOCK_RECORD
5
1A2
100
AcDbSymbolTableRecord
100
AcDbBlockTableRecord
2
DimnDraft3D1
340
0
70
0
0
BLOCK_RECORD
5
1AD
100
AcDbSymbolTableRecord
100
AcDbBlockTableRecord
2
DimnDraft3D2
340
0
70
0
0
BLOCK_RECORD
5
1B7
100
AcDbSymbolTableRecord
100
AcDbBlockTableRecord
2
DimnDraft3D3
340
0
70
0
0
BLOCK_RECORD
5
1C2
100
AcDbSymbolTableRecord
100
AcDbBlockTableRecord
2
DimnDraft3D4
340
0
70
0
0
BLOCK_RECORD
5
1CC
100
AcDbSymbolTableRecord
100
AcDbBlockTableRecord
2
DimnDraft3D5
340
0
70
0
0
ENDTAB
0
ENDSEC
0
SECTION
2
BLOCKS
0
BLOCK
5
20
100
AcDbEntity
8
0
100
AcDbBlockBegin
2
*Model_Space
70
0
10
0
20
0
30
0
3
*Model_Space
0
ENDBLK
5
21
100
AcDbEntity
8
0
100
AcDbBlockEnd
0
BLOCK
5
1C
100
AcDbEntity
8
0
100
AcDbBlockBegin
2
*Paper_Space
70
0
10
0
20
0
30
0
3
*Paper_Space
0
ENDBLK
5
1D
100
AcDbEntity
8
0
100
AcDbBlockEnd
0
BLOCK
5
24
100
AcDbEntity
8
0
100
AcDbBlockBegin
2
*Paper_Space0
70
0
10
0
20
0
30
0
3
*Paper_Space0
0
ENDBLK
5
25
100
AcDbEntity
8
0
100
AcDbBlockEnd
0
BLOCK
5
1AA
100
AcDbEntity
8
0
100
AcDbBlockBegin
2
DimnDraft3D1
70
0
10
0
20
0
30
0
3
DimnDraft3D1
0
MTEXT
5
1A3
100
AcDbEntity
8
2
62
256
6
ByLayer
370
13
48
1
60
0
100
AcDbMText
10
119.10863
20
-21.749886
30
0
210
0
220
0
230
1
1
\W0.7468;206.0
40
3
41
0
44
1.084337
50
0
71
7
72
5
7
iso_b_vert
0
LINE
5
1A5
100
AcDbEntity
8
2
62
256
6
ByLayer
370
13
48
1
60
0
100
AcDbLine
10
226
20
-1.5875
30
0
11
226
21
-24.5
31
0
39
0
210
0
220
0
230
1
0
LINE
5
1A6
100
AcDbEntity
8
2
62
256
6
ByLayer
370
13
48
1
60
0
100
AcDbLine
10
20
20
-11.0875
30
0
11
20
21
-24.5
31
0
39
0
210
0
220
0
230
1
0
LINE
5
1A7
100
AcDbEntity
8
2
62
256
6
ByLayer
370
13
48
1
60
0
100
AcDbLine
10
226
20
-22.5
30
0
11
20
21
-22.5
31
0
39
0
210
0
220
0
230
1
0
SOLID
5
1A8
100
AcDbEntity
8
2
62
256
6
ByLayer
370
13
48
1
60
0
100
AcDbTrace
10
226
20
-22.5
30
0
11
222.500002
21
-22.960784
31
0
12
222.499998
22
-22.039216
32
0
13
226
23
-22.5
33
0
39
0
210
0
220
0
230
1
0
SOLID
5
1A9
100
AcDbEntity
8
2
62
256
6
ByLayer
370
13
48
1
60
0
100
AcDbTrace
10
20
20
-22.5
30
0
11
23.499998
21
-22.039216
31
0
12
23.500002
22
-22.960784
32
0
13
20
23
-22.5
33
0
39
0
210
0
220
0
230
1
0
ENDBLK
5
1AB
100
AcDbEntity
8
0
100
AcDbBlockEnd
0
BLOCK
5
1B4
100
AcDbEntity
8
0
100
AcDbBlockBegin
2
DimnDraft3D2
70
0
10
0
20
0
30
0
3
DimnDraft3D2
0
MTEXT
5
1AE
100
AcDbEntity
8
2
62
256
6
ByLayer
370
13
48
1
60
0
100
AcDbMText
10
120.60463
20
17.250114
30
0
210
0
220
0
230
1
1
\W0.7468;203.0
40
3
41
0
44
1.084337
50
0
71
7
72
5
7
iso_b_vert
0
LINE
5
1AF
100
AcDbEntity
8
2
62
256
6
ByLayer
370
13
48
1
60
0
100
AcDbLine
10
226
20
1.5875
30
0
11
226
21
18.5
31
0
39
0
210
0
220
0
230
1
0
LINE
5
1B0
100
AcDbEntity
8
2
62
256
6
ByLayer
370
13
48
1
60
0
100
AcDbLine
10
22.992
20
11.0875
30
0
11
22.992
21
18.5
31
0
39
0
210
0
220
0
230
1
0
LINE
5
1B1
100
AcDbEntity
8
2
62
256
6
ByLayer
370
13
48
1
60
0
100
AcDbLine
10
226
20
16.5
30
0
11
22.992
21
16.5
31
0
39
0
210
0
220
0
230
1
0
SOLID
5
1B2
100
AcDbEntity
8
2
62
256
6
ByLayer
370
13
48
1
60
0
100
AcDbTrace
10
226
20
16.5
30
0
11
222.500002
21
16.039216
31
0
12
222.499998
22
16.960784
32
0
13
226
23
16.5
33
0
39
0
210
0
220
0
230
1
0
SOLID
5
1B3
100
AcDbEntity
8
2
62
256
6
ByLayer
370
13
48
1
60
0
100
AcDbTrace
10
22.992
20
16.5
30
0
11
26.491998
21
16.960784
31
0
12
26.492002
22
16.039216
32
0
13
22.992
23
16.5
33
0
39
0
210
0
220
0
230
1
0
ENDBLK
5
1B5
100
AcDbEntity
8
0
100
AcDbBlockEnd
0
BLOCK
5
1BF
100
AcDbEntity
8
0
100
AcDbBlockBegin
2
DimnDraft3D3
70
0
10
0
20
0
30
0
3
DimnDraft3D3
0
MTEXT
5
1B8
100
AcDbEntity
8
SK2
62
256
6
ByLayer
370
13
48
1
60
0
100
AcDbMText
10
-30.770456
20
-34.749886
30
0
210
0
220
0
230
1
1
\W0.7346;56.0
40
3
41
0
44
1.084337
50
0
71
7
72
5
7
iso_b_vert
0
LINE
5
1BA
100
AcDbEntity
8
SK2
62
256
6
ByLayer
370
13
48
1
60
0
100
AcDbLine
10
-56
20
-14.0875
30
0
11
-56
21
-37.5
31
0
39
0
210
0
220
0
230
1
0
LINE
5
1BB
100
AcDbEntity
8
SK2
62
256
6
ByLayer
370
13
48
1
60
0
100
AcDbLine
10
0
20
-17.5875
30
0
11
0
21
-37.5
31
0
39
0
210
0
220
0
230
1
0
LINE
5
1BC
100
AcDbEntity
8
SK2
62
256
6
ByLayer
370
13
48
1
60
0
100
AcDbLine
10
-56
20
-35.5
30
0
11
0
21
-35.5
31
0
39
0
210
0
220
0
230
1
0
SOLID
5
1BD
100
AcDbEntity
8
SK2
62
256
6
ByLayer
370
13
48
1
60
0
100
AcDbTrace
10
-56
20
-35.5
30
0
11
-52.500002
21
-35.039216
31
0
12
-52.499998
22
-35.960784
32
0
13
-56
23
-35.5
33
0
39
0
210
0
220
0
230
1
0
SOLID
5
1BE
100
AcDbEntity
8
SK2
62
256
6
ByLayer
370
13
48
1
60
0
100
AcDbTrace
10
0
20
-35.5
30
0
11
-3.499998
21
-35.960784
31
0
12
-3.500002
22
-35.039216
32
0
13
0
23
-35.5
33
0
39
0
210
0
220
0
230
1
0
ENDBLK
5
1C0
100
AcDbEntity
8
0
100
AcDbBlockEnd
0
BLOCK
5
1C9
100
AcDbEntity
8
0
100
AcDbBlockBegin
2
DimnDraft3D4
70
0
10
0
20
0
30
0
3
DimnDraft3D4
0
MTEXT
5
1C3
100
AcDbEntity
8
2
62
256
6
ByLayer
370
13
48
1
60
0
100
AcDbMText
10
109.10863
20
-34.749886
30
0
210
0
220
0
230
1
1
\W0.7468;226.0
40
3
41
0
44
1.084337
50
0
71
7
72
5
7
iso_b_vert
0
LINE
5
1C4
100
AcDbEntity
8
2
62
256
6
ByLayer
370
13
48
1
60
0
100
AcDbLine
10
0
20
-17.5875
30
0
11
0
21
-37.5
31
0
39
0
210
0
220
0
230
1
0
LINE
5
1C5
100
AcDbEntity
8
2
62
256
6
ByLayer
370
13
48
1
60
0
100
AcDbLine
10
226
20
-1.5875
30
0
11
226
21
-37.5
31
0
39
0
210
0
220
0
230
1
0
LINE
5
1C6
100
AcDbEntity
8
2
62
256
6
ByLayer
370
13
48
1
60
0
100
AcDbLine
10
0
20
-35.5
30
0
11
226
21
-35.5
31
0
39
0
210
0
220
0
230
1
0
SOLID
5
1C7
100
AcDbEntity
8
2
62
256
6
ByLayer
370
13
48
1
60
0
100
AcDbTrace
10
0
20
-35.5
30
0
11
3.499998
21
-35.039216
31
0
12
3.500002
22
-35.960784
32
0
13
0
23
-35.5
33
0
39
0
210
0
220
0
230
1
0
SOLID
5
1C8
100
AcDbEntity
8
2
62
256
6
ByLayer
370
13
48
1
60
0
100
AcDbTrace
10
226
20
-35.5
30
0
11
222.500002
21
-35.960784
31
0
12
222.499998
22
-35.039216
32
0
13
226
23
-35.5
33
0
39
0
210
0
220
0
230
1
0
ENDBLK
5
1CA
100
AcDbEntity
8
0
100
AcDbBlockEnd
0
BLOCK
5
1D4
100
AcDbEntity
8
0
100
AcDbBlockBegin
2
DimnDraft3D5
70
0
10
0
20
0
30
0
3
DimnDraft3D5
0
MTEXT
5
1CD
100
AcDbEntity
8
SK2
62
256
6
ByLayer
370
13
48
1
60
0
100
AcDbMText
10
-63.750114
20
0.229544
30
0
210
0
220
0
230
1
1
\W0.7346;25.0
40
3
41
0
44
1.084337
50
90
71
7
72
5
7
iso_b_vert
0
MTEXT
5
1CE
100
AcDbEntity
8
SK2
62
256
6
ByLayer
370
13
48
1
60
0
100
AcDbMText
10
-63.750114
20
-4.247019
30
0
210
0
220
0
230
1
1
%%c
40
3
41
0
44
1.084337
50
90
71
7
72
5
7
iso_b_vert
0
LINE
5
1CF
100
AcDbEntity
8
SK2
62
256
6
ByLayer
370
13
48
1
60
0
100
AcDbLine
10
-57.5875
20
12.5
30
0
11
-64.25
21
12.5
31
0
39
0
210
0
220
0
230
1
0
LINE
5
1D0
100
AcDbEntity
8
SK2
62
256
6
ByLayer
370
13
48
1
60
0
100
AcDbLine
10
-57.5875
20
-12.5
30
0
11
-64.25
21
-12.5
31
0
39
0
210
0
220
0
230
1
0
LINE
5
1D1
100
AcDbEntity
8
SK2
62
256
6
ByLayer
370
13
48
1
60
0
100
AcDbLine
10
-62.25
20
12.5
30
0
11
-62.25
21
-12.5
31
0
39
0
210
0
220
0
230
1
0
SOLID
5
1D2
100
AcDbEntity
8
SK2
62
256
6
ByLayer
370
13
48
1
60
0
100
AcDbTrace
10
-62.25
20
12.5
30
0
11
-61.789216
21
9.000002
31
0
12
-62.710784
22
8.999998
32
0
13
-62.25
23
12.5
33
0
39
0
210
0
220
0
230
1
0
SOLID
5
1D3
100
AcDbEntity
8
SK2
62
256
6
ByLayer
370
13
48
1
60
0
100
AcDbTrace
10
-62.25
20
-12.5
30
0
11
-62.710784
21
-9.000002
31
0
12
-61.789216
22
-8.999998
32
0
13
-62.25
23
-12.5
33
0
39
0
210
0
220
0
230
1
0
ENDBLK
5
1D5
100
AcDbEntity
8
0
100
AcDbBlockEnd
0
ENDSEC
0
SECTION
2
ENTITIES
0
ARC
5
E2
100
AcDbEntity
8
SK1
62
256
6
ByLayer
370
18
48
1
60
0
100
AcDbCircle
39
0
10
53.946236
20
-12.99675
30
0
40
0.799999999999998
210
0
220
0
230
-1
100
AcDbArc
50
51
51
130.534532
0
ARC
5
E3
100
AcDbEntity
8
SK1
62
256
6
ByLayer
370
18
48
1
60
0
100
AcDbCircle
39
0
10
53.946236
20
12.99675
30
0
40
0.799999999999998
210
0
220
0
230
-1
100
AcDbArc
50
229.465468
51
309
0
ARC
5
E4
100
AcDbEntity
8
SK1
62
256
6
ByLayer
370
18
48
1
60
0
100
AcDbCircle
39
0
10
0.975195
20
12.64675
30
0
40
0.4
210
0
220
0
230
-1
100
AcDbArc
50
270
51
295
0
ARC
5
E5
100
AcDbEntity
8
SK1
62
256
6
ByLayer
370
18
48
1
60
0
100
AcDbCircle
39
0
10
0.975195
20
-12.64675
30
0
40
0.4
210
0
220
0
230
-1
100
AcDbArc
50
65
51
90
0
ARC
5
E6
100
AcDbEntity
8
1
62
256
6
ByLayer
370
18
48
1
60
0
100
AcDbCircle
39
0
10
-20
20
17.1
30
0
40
7.99999999999999
210
0
220
0
230
-1
100
AcDbArc
50
270
51
302.100569
0
ARC
5
E7
100
AcDbEntity
8
1
62
256
6
ByLayer
370
18
48
1
60
0
100
AcDbCircle
39
0
10
-20
20
-17.1
30
0
40
7.99999999999999
210
0
220
0
230
-1
100
AcDbArc
50
57.899431
51
90
0
ARC
5
E8
100
AcDbEntity
8
SK1
62
256
6
ByLayer
370
18
48
1
60
0
100
AcDbCircle
39
0
10
0.15
20
12.64675
30
0
40
0.4
210
0
220
0
230
-1
100
AcDbArc
50
247.975687
51
270
0
ARC
5
E9
100
AcDbEntity
8
SK1
62
256
6
ByLayer
370
18
48
1
60
0
100
AcDbCircle
39
0
10
0.15
20
-12.64675
30
0
40
0.4
210
0
220
0
230
-1
100
AcDbArc
50
90
51
112.024313
0
ELLIPSE
5
EA
100
AcDbEntity
8
1
62
256
6
ByLayer
370
18
48
1
60
0
100
AcDbEllipse
10
22.381064
20
0
30
0
11
19.9056394403346
21
-8.87821879999572
31
0
210
0
220
0
230
1
40
0.139105
41
1.38265173773509
42
1.43240826299414
0
ELLIPSE
5
EB
100
AcDbEntity
8
1
62
256
6
ByLayer
370
18
48
1
60
0
100
AcDbEllipse
10
217.144841
20
-2.768992
30
0
11
17.5877694393863
21
11.8233323445421
31
0
210
0
220
0
230
1
40
0.056439
41
1.45821951294925
42
1.46901159379926
0
ELLIPSE
5
EC
100
AcDbEntity
8
1
62
256
6
ByLayer
370
13
48
1
60
0
100
AcDbEllipse
10
201.9
20
9.09751
30
0
11
4.44977544424254
21
-4.0248600591585
31
0
210
0
220
0
230
1
40
0.137236
41
0.801330685098768
42
1.00322564714675
0
ELLIPSE
5
ED
100
AcDbEntity
8
1
62
256
6
ByLayer
370
18
48
1
60
0
100
AcDbEllipse
10
225.965737
20
-0.164107
30
0
11
0.0470796689744708
21
0.153149517376351
31
0
210
0
220
0
230
1
40
0.055315
41
1.75915904199033
42
2.44405691336639
0
ELLIPSE
5
EE
100
AcDbEntity
8
1
62
256
6
ByLayer
370
18
48
1
60
0
100
AcDbEllipse
10
218.804497
20
-1.611054
30
0
11
1.50346811906114
21
0.428309958212513
31
0
210
0
220
0
230
1
40
0.772412
41
2.05791200413142
42
-1.78739021773687
0
ELLIPSE
5
EF
100
AcDbEntity
8
1
62
256
6
ByLayer
370
18
48
1
60
0
100
AcDbEllipse
10
204.787141
20
-81.981277
30
0
11
79.0538127410057
21
-0.150807024473949
31
0
210
0
220
0
230
1
40
0.930354
41
1.45288166689887
42
1.45449305786305
0
ELLIPSE
5
F0
100
AcDbEntity
8
1
62
256
6
ByLayer
370
18
48
1
60
0
100
AcDbEllipse
10
233.175358
20
0
30
0
11
12.6112360881519
21
8.54850582716999
31
0
210
0
220
0
230
1
40
0.290406
41
2.9075016507655
42
-3.12773187775538
0
ELLIPSE
5
F1
100
AcDbEntity
8
1
62
256
6
ByLayer
370
18
48
1
60
0
100
AcDbEllipse
10
225.965737
20
0.164107
30
0
11
0.0470796689474205
21
-0.153149517299667
31
0
210
0
220
0
230
1
40
0.055315
41
-2.44405691331998
42
-1.75915904166046
0
ELLIPSE
5
F2
100
AcDbEntity
8
1
62
256
6
ByLayer
370
18
48
1
60
0
100
AcDbEllipse
10
226
20
-1E-06
30
0
11
3.31791490199596
21
-9.49701736082613
31
0
210
0
220
0
230
1
40
0.07175
41
2.78443796234647
42
2.87361695328106
0
ELLIPSE
5
F3
100
AcDbEntity
8
1
62
256
6
ByLayer
370
18
48
1
60
0
100
AcDbEllipse
10
20.739207
20
-5.550598
30
0
11
-0.947675820582944
21
5.92468653509048
31
0
210
0
220
0
230
1
40
0.739725
41
0.100639562809667
42
2.03091338979354
0
ELLIPSE
5
F4
100
AcDbEntity
8
1
62
256
6
ByLayer
370
18
48
1
60
0
100
AcDbEllipse
10
218.932607
20
-1.617979
30
0
11
0.368873939168926
21
-1.26421280031945
31
0
210
0
220
0
230
1
40
0.314013
41
0.0927559015072117
42
-2.82152058501449
0
ELLIPSE
5
F5
100
AcDbEntity
8
1
62
256
6
ByLayer
370
18
48
1
60
0
100
AcDbEllipse
10
226
20
0
30
0
11
3.31791479859485
21
9.49701704260261
31
0
210
0
220
0
230
1
40
0.07175
41
-2.87361694891045
42
-2.78443795640339
0
ELLIPSE
5
F6
100
AcDbEntity
8
1
62
256
6
ByLayer
370
18
48
1
60
0
100
AcDbEllipse
10
195.060886
20
1E-06
30
0
11
37.2925325953156
21
-8.71325188314689
31
0
210
0
220
0
230
1
40
0.087177
41
-1.41246319877042
42
-1.38307399945043
0
ELLIPSE
5
F7
100
AcDbEntity
8
1
62
256
6
ByLayer
370
18
48
1
60
0
100
AcDbEllipse
10
210.35
20
-3.852061
30
0
11
-1.85000000000002
21
2.26552175457142E-16
31
0
210
0
220
0
230
1
40
0.702153
41
1.47193442101355
42
1.63235188161858
0
ELLIPSE
5
F8
100
AcDbEntity
8
1
62
256
6
ByLayer
370
18
48
1
60
0
100
AcDbEllipse
10
210.35
20
-3.852061
30
0
11
-1.85000000000002
21
2.26552175457142E-16
31
0
210
0
220
0
230
1
40
0.702153
41
3.14159231166806
42
-3.41874522419717E-16
0
POINT
5
6C
100
AcDbEntity
8
80
62
256
6
ByLayer
370
18
48
1
60
0
100
AcDbPoint
10
0
20
0
30
0
39
0
210
0
220
0
230
1
50
360
0
POINT
5
6E
100
AcDbEntity
8
81
62
256
6
ByLayer
370
18
48
1
60
0
100
AcDbPoint
10
214.1
20
0
30
0
39
0
210
0
220
0
230
1
50
360
0
SPLINE
5
F9
100
AcDbEntity
8
1
62
256
6
ByLayer
370
18
48
1
60
0
100
AcDbSpline
70
4
71
3
72
15
73
11
40
0
40
0
40
0
40
0
40
0.147643108448033
40
0.294942506632246
40
0.440102266643043
40
0.581054018033535
40
0.688046118088262
40
0.792066350152016
40
0.894872626945337
40
1
40
1
40
1
40
1
41
1
10
15.6640324421665
20
10.3762075182665
30
0
41
1
10
15.194052881332
20
10.6821543059775
30
0
41
1
10
14.2735035957034
20
11.3177924791813
30
0
41
1
10
12.9764467726487
20
12.3703434712444
30
0
41
1
10
11.7094935939093
20
13.4171283718833
30
0
41
1
10
10.5257414953771
20
14.3253720584055
30
0
41
1
10
9.39975700084968
20
15.0464259594981
30
0
41
1
10
8.32802727145697
20
15.5705266294461
30
0
41
1
10
7.18798122655626
20
15.9201749761989
30
0
41
1
10
6.40484548696928
20
15.9973528106534
30
0
41
1
10
6.00070000000001
20
16
30
0
0
SPLINE
5
FA
100
AcDbEntity
8
1
62
256
6
ByLayer
370
18
48
1
60
0
100
AcDbSpline
70
4
71
3
72
15
73
11
40
0
40
0
40
0
40
0
40
0.106998439205771
40
0.211670460908751
40
0.317694149320031
40
0.426849492432752
40
0.539460824048606
40
0.69110797314306
40
0.84532681002846
40
1
40
1
40
1
40
1
41
1
10
6.00070000000001
20
-16
30
0
41
1
10
6.41220106975179
20
-15.9971423824352
30
0
41
1
10
7.2092364165408
20
-15.9172737074624
30
0
41
1
10
8.36868923631592
20
-15.5552362617596
30
0
41
1
10
9.45755780929183
20
-15.0141017475476
30
0
41
1
10
10.502094966904
20
-14.3362808755902
30
0
41
1
10
11.6310358557095
20
-13.4801278100846
30
0
41
1
10
12.855615327125
20
-12.4706999944597
30
0
41
1
10
14.2090692538175
20
-11.364678477379
30
0
41
1
10
15.1721853063872
20
-10.697516657507
30
0
41
1
10
15.6640324421665
20
-10.3762075182665
30
0
0
SPLINE
5
FB
100
AcDbEntity
8
1
62
256
6
ByLayer
370
18
48
1
60
0
100
AcDbSpline
70
4
71
3
72
40
73
36
40
0
40
0
40
0
40
0
40
0.0315844882347928
40
0.0559742530713798
40
0.0731678648752676
40
0.0854906227255723
40
0.0974494070633368
40
0.109348672354482
40
0.122699792065718
40
0.143962134494369
40
0.166903027552673
40
0.187064333182798
40
0.204209184169577
40
0.244404626376059
40
0.292546778387048
40
0.335911075306393
40
0.389957124823923
40
0.44344604431153
40
0.492189153350745
40
0.545418172855861
40
0.578644319271455
40
0.614618568810057
40
0.653676583413391
40
0.696709418013829
40
0.737603539983103
40
0.773768673388648
40
0.804180274013684
40
0.827855243575951
40
0.847731999354969
40
0.871830441963253
40
0.900664626193637
40
0.934264756254566
40
0.952373729671362
40
0.970510587288192
40
1
40
1
40
1
40
1
41
1
10
69.4706469950627
20
-8.79421341564023
30
0
41
1
10
69.8046479541605
20
-8.79385669870481
30
0
41
1
10
70.3965698898977
20
-8.79293666184782
30
0
41
1
10
71.1702995521357
20
-8.79092234310968
30
0
41
1
10
71.7403709259887
20
-8.78925522914605
30
0
41
1
10
72.1789181907553
20
-8.78792099393505
30
0
41
1
10
72.5615280141665
20
-8.78675326275263
30
0
41
1
10
72.9550119997738
20
-8.78557715430776
30
0
41
1
10
73.4468803725516
20
-8.78416612021903
30
0
41
1
10
74.0555043569401
20
-8.78257670109508
30
0
41
1
10
74.7361433022559
20
-8.78113840057281
30
0
41
1
10
75.3732552519758
20
-8.78022834829179
30
0
41
1
10
76.1928296736467
20
-8.77958733204378
30
0
41
1
10
77.3083054188881
20
-8.77973497759018
30
0
41
1
10
78.7010422552729
20
-8.78135536393285
30
0
41
1
10
80.2402532045155
20
-8.78459921866218
30
0
41
1
10
81.8359945713681
20
-8.78617934329256
30
0
41
1
10
83.4886324365401
20
-8.78522321610805
30
0
41
1
10
85.1326238671883
20
-8.78451072419
30
0
41
1
10
86.5623366140839
20
-8.78497673279603
30
0
41
1
10
87.8570238259442
20
-8.78666562668784
30
0
41
1
10
89.0018512825617
20
-8.78871939529853
30
0
41
1
10
90.2503820755003
20
-8.79121882651378
30
0
41
1
10
91.5509448534796
20
-8.79388613006049
30
0
41
1
10
92.8209045774575
20
-8.79449487945766
30
0
41
1
10
93.9574383404738
20
-8.79334726054441
30
0
41
1
10
94.9117223757708
20
-8.79185248354142
30
0
41
1
10
95.6933575479415
20
-8.79039820454375
30
0
41
1
10
96.402763142316
20
-8.78814976213368
30
0
41
1
10
97.1580566885051
20
-8.78326533966953
30
0
41
1
10
98.0495636041732
20
-8.77288217541985
30
0
41
1
10
98.8705522511048
20
-8.75589596375804
30
0
41
1
10
99.5874836906861
20
-8.73769318894654
30
0
41
1
10
100.280805916332
20
-8.72948313132832
30
0
41
1
10
100.78682406365
20
-8.73206816606245
30
0
41
1
10
101.097046489492
20
-8.7363672786361
30
0
0
SPLINE
5
FC
100
AcDbEntity
8
1
62
256
6
ByLayer
370
18
48
1
60
0
100
AcDbSpline
70
4
71
3
72
8
73
4
40
0
40
0
40
0
40
0
40
1
40
1
40
1
40
1
41
1
10
102.715267766305
20
-8.77204121777319
30
0
41
1
10
103.03139949512
20
-8.77820887666266
30
0
41
1
10
103.339441687434
20
-8.78218353890477
30
0
41
1
10
103.640333006115
20
-8.78558024918345
30
0
0
SPLINE
5
FD
100
AcDbEntity
8
1
62
256
6
ByLayer
370
18
48
1
60
0
100
AcDbSpline
70
4
71
3
72
29
73
25
40
0
40
0
40
0
40
0
40
0.0368644314348359
40
0.0823322489729934
40
0.118838145737159
40
0.14639951385836
40
0.165596256187085
40
0.200544889072663
40
0.237771180487042
40
0.275418329848573
40
0.31731252228538
40
0.355986742870294
40
0.388566405031079
40
0.429227327980427
40
0.476929544176535
40
0.527090966258465
40
0.576444252821411
40
0.619397613567824
40
0.659796381755903
40
0.739683768717679
40
0.811143864563151
40
0.887943340933775
40
0.965374991216969
40
1
40
1
40
1
40
1
41
1
10
181.966733290811
20
8.79750970191785
30
0
41
1
10
181.65049470645
20
8.79723395982944
30
0
41
1
10
180.944190652594
20
8.79646924467866
30
0
41
1
10
179.92446652058
20
8.79458495276842
30
0
41
1
10
178.984785234753
20
8.7929072110376
30
0
41
1
10
178.26980026495
20
8.79177924256052
30
0
41
1
10
177.57210419759
20
8.79068270259421
30
0
41
1
10
176.787790633978
20
8.78921539407872
30
0
41
1
10
175.846167324948
20
8.78849466262093
30
0
41
1
10
174.84443411074
20
8.78770014999034
30
0
41
1
10
173.83003768147
20
8.78718112009892
30
0
41
1
10
172.859157595945
20
8.78674006815643
30
0
41
1
10
171.898847198029
20
8.78616107875882
30
0
41
1
10
170.861073832639
20
8.78508543483784
30
0
41
1
10
169.672436975194
20
8.78299485295742
30
0
41
1
10
168.409212405265
20
8.78154097121262
30
0
41
1
10
167.186734808022
20
8.78114249020956
30
0
41
1
10
166.048030716596
20
8.78181890869817
30
0
41
1
10
164.647319745382
20
8.78399711008069
30
0
41
1
10
163.00201931242
20
8.78846671172658
30
0
41
1
10
161.044341768274
20
8.79404894830242
30
0
41
1
10
159.107838722928
20
8.79472970029957
30
0
41
1
10
157.487102122964
20
8.79147558655905
30
0
41
1
10
156.525895280286
20
8.79017118464083
30
0
41
1
10
156.229305162371
20
8.78975790864936
30
0
0
SPLINE
5
FE
100
AcDbEntity
8
1
62
256
6
ByLayer
370
18
48
1
60
0
100
AcDbSpline
70
4
71
2
72
6
73
3
40
0
40
0
40
0
40
1
40
1
40
1
41
1
10
25.0637447846619
20
8.7981461215312
30
0
41
1
10
24.6808893650754
20
8.79799438102913
30
0
41
1
10
24.3020000001626
20
8.78260140154259
30
0
0
SPLINE
5
FF
100
AcDbEntity
8
1
62
256
6
ByLayer
370
18
48
1
60
0
100
AcDbSpline
70
4
71
2
72
6
73
3
40
0
40
0
40
0
40
1
40
1
40
1
41
1
10
24.7097613121409
20
-8.79473250175732
30
0
41
1
10
24.8863272025526
20
-8.79807580403906
30
0
41
1
10
25.0637447846565
20
-8.79814612153123
30
0
0
SPLINE
5
100
100
AcDbEntity
8
1
62
256
6
ByLayer
370
18
48
1
60
0
100
AcDbSpline
70
4
71
3
72
42
73
38
40
0
40
0
40
0
40
0
40
0.0384565587900508
40
0.0742995574046009
40
0.104146603295498
40
0.133243214304898
40
0.161567092082832
40
0.187023195999497
40
0.209505241281975
40
0.234486740727025
40
0.256727602953204
40
0.284216690440125
40
0.308948411747103
40
0.336597228603925
40
0.36581637390519
40
0.391636176705303
40
0.414067503881481
40
0.440582551508432
40
0.473461295135459
40
0.52783747390306
40
0.572216194626532
40
0.604810840720236
40
0.637786898489421
40
0.670917598959929
40
0.703339727311475
40
0.73692882224147
40
0.773586156152231
40
0.812551722272568
40
0.823544142012062
40
0.834095670278546
40
0.844206354314004
40
0.85521440012942
40
0.870539360713682
40
0.896005862957887
40
0.928484036902713
40
0.967975033515221
40
1
40
1
40
1
40
1
41
1
10
148.039854242612
20
-8.79261054145408
30
0
41
1
10
148.439831669908
20
-8.79041232068849
30
0
41
1
10
149.228871634382
20
-8.7842725578856
30
0
41
1
10
150.383603947522
20
-8.76035309594943
30
0
41
1
10
151.462220931718
20
-8.75145160457194
30
0
41
1
10
152.453909281643
20
-8.7603621967221
30
0
41
1
10
153.363822376595
20
-8.77668380986995
30
0
41
1
10
154.211561831756
20
-8.78375684361527
30
0
41
1
10
155.025275745293
20
-8.78789146442975
30
0
41
1
10
155.808395475244
20
-8.789394007206
30
0
41
1
10
156.657253260179
20
-8.79026118281689
30
0
41
1
10
157.502077226893
20
-8.7916611953722
30
0
41
1
10
158.408151068581
20
-8.79276002328186
30
0
41
1
10
159.335653726107
20
-8.79419127472354
30
0
41
1
10
160.274181441546
20
-8.79448107853779
30
0
41
1
10
161.154104347803
20
-8.79317068962976
30
0
41
1
10
162.003453990725
20
-8.79123957356606
30
0
41
1
10
162.932983647911
20
-8.78871049211728
30
0
41
1
10
164.225397112039
20
-8.78512917491008
30
0
41
1
10
165.720758201791
20
-8.78194688985877
30
0
41
1
10
167.212889689269
20
-8.78110414994859
30
0
41
1
10
168.46191671851
20
-8.78162688423146
30
0
41
1
10
169.583165220244
20
-8.78288013291663
30
0
41
1
10
170.702452829013
20
-8.78481778169714
30
0
41
1
10
171.828704338477
20
-8.78615059948308
30
0
41
1
10
172.995021477607
20
-8.78681370057177
30
0
41
1
10
174.23566539507
20
-8.78735590556266
30
0
41
1
10
175.219615197183
20
-8.78797042397903
30
0
41
1
10
175.906987678532
20
-8.78858543742047
30
0
41
1
10
176.266571444145
20
-8.78895090589575
30
0
41
1
10
176.626322788965
20
-8.7893599395903
30
0
41
1
10
177.040295874284
20
-8.78988398962542
30
0
41
1
10
177.628733469521
20
-8.79072575562054
30
0
41
1
10
178.46107562271
20
-8.79208873700713
30
0
41
1
10
179.567944560487
20
-8.79405040036144
30
0
41
1
10
180.749304458553
20
-8.79623133870507
30
0
41
1
10
181.561677135286
20
-8.79712672981188
30
0
41
1
10
181.925453232952
20
-8.79745385544555
30
0
0
SPLINE
5
101
100
AcDbEntity
8
1
62
256
6
ByLayer
370
18
48
1
60
0
100
AcDbSpline
70
4
71
3
72
32
73
28
40
0
40
0
40
0
40
0
40
0.0448732920111996
40
0.0933697167899269
40
0.138483594122451
40
0.178395235746453
40
0.21614837314098
40
0.249116595995647
40
0.277323911947073
40
0.300809759860396
40
0.323442449943321
40
0.352618337979706
40
0.388474054920712
40
0.431645375754874
40
0.480022413029324
40
0.529194425306315
40
0.573805367646669
40
0.615124767588741
40
0.653427828616597
40
0.701104135512258
40
0.745094701993557
40
0.787778200902632
40
0.835428942535567
40
0.884261921328957
40
0.931670916092896
40
0.987105521034457
40
1
40
1
40
1
40
1
41
1
10
103.640333006115
20
8.78558024918343
30
0
41
1
10
103.292812820481
20
8.78165715365589
30
0
41
1
10
102.549756759192
20
8.77182271622996
30
0
41
1
10
101.377804140376
20
8.73672333584832
30
0
41
1
10
100.20372249919
20
8.72647184814247
30
0
41
1
10
99.1427060887425
20
8.74815960825509
30
0
41
1
10
98.2169485288903
20
8.77027985483662
30
0
41
1
10
97.3760459444758
20
8.78100983854759
30
0
41
1
10
96.6530360506586
20
8.78681452591886
30
0
41
1
10
96.0127606052623
20
8.78954036414646
30
0
41
1
10
95.3576410456407
20
8.7910456284109
30
0
41
1
10
94.5927940289009
20
8.79238852188794
30
0
41
1
10
93.6482612734395
20
8.79372068948689
30
0
41
1
10
92.5361819271173
20
8.79456926106866
30
0
41
1
10
91.3078398117318
20
8.79342285989708
30
0
41
1
10
90.0669423660911
20
8.79084757134467
30
0
41
1
10
88.8876483892559
20
8.78850110589224
30
0
41
1
10
87.8032277382474
20
8.78658930495263
30
0
41
1
10
86.6920486800265
20
8.78516344048407
30
0
41
1
10
85.5575528604109
20
8.78459406991712
30
0
41
1
10
84.3848303122714
20
8.78481574507148
30
0
41
1
10
83.2123188086291
20
8.78540905942992
30
0
41
1
10
81.9975425760844
20
8.78591700484938
30
0
41
1
10
80.7415190928747
20
8.78540074252837
30
0
41
1
10
79.4175616748221
20
8.78274369682669
30
0
41
1
10
78.4072909963157
20
8.78105775163681
30
0
41
1
10
77.8108549307241
20
8.7804096563419
30
0
41
1
10
77.6983006238541
20
8.7803006928936
30
0
0
SPLINE
5
102
100
AcDbEntity
8
1
62
256
6
ByLayer
370
18
48
1
60
0
100
AcDbSpline
70
4
71
1
72
4
73
2
40
0
40
0
40
1
40
1
41
1
10
130.333557374106
20
4.16926907625827
30
0
41
1
10
129.954602532409
20
4.28160218705318
30
0
0
SPLINE
5
103
100
AcDbEntity
8
1
62
256
6
ByLayer
370
18
48
1
60
0
100
AcDbSpline
70
4
71
1
72
4
73
2
40
0
40
0
40
1
40
1
41
1
10
51.7595600022809
20
4.16950515886873
30
0
41
1
10
51.3856876034711
20
4.28081362106596
30
0
0
SPLINE
5
104
100
AcDbEntity
8
1
62
256
6
ByLayer
370
18
48
1
60
0
100
AcDbSpline
70
4
71
2
72
6
73
3
40
0
40
0
40
0
40
1
40
1
40
1
41
1
10
187.28452365656
20
-2.51192649121776
30
0
41
1
10
187.484809586891
20
-2.5766377626563
30
0
41
1
10
187.684990436384
20
-2.64813771039297
30
0
0
SPLINE
5
105
100
AcDbEntity
8
1
62
256
6
ByLayer
370
18
48
1
60
0
100
AcDbSpline
70
4
71
2
72
6
73
3
40
0
40
0
40
0
40
1
40
1
40
1
41
1
10
30.1695713305305
20
-2.52357216610076
30
0
41
1
10
30.3472801688943
20
-2.58086477462103
30
0
41
1
10
30.5266247991343
20
-2.64477743788049
30
0
0
SPLINE
5
106
100
AcDbEntity
8
1
62
256
6
ByLayer
370
18
48
1
60
0
100
AcDbSpline
70
4
71
2
72
6
73
3
40
0
40
0
40
0
40
1
40
1
40
1
41
1
10
108.714164083842
20
-2.51144167520414
30
0
41
1
10
108.915338782197
20
-2.57637954334166
30
0
41
1
10
109.115146195385
20
-2.64769404779741
30
0
0
SPLINE
5
107
100
AcDbEntity
8
1
62
256
6
ByLayer
370
18
48
1
60
0
100
AcDbSpline
70
4
71
3
72
14
73
10
40
0
40
0
40
0
40
0
40
0.148837237299197
40
0.26991001303767
40
0.364780082847827
40
0.448087099774087
40
0.605161542153827
40
0.820539564830936
40
1
40
1
40
1
40
1
41
1
10
217.93692983558
20
-9.34998406112285
30
0
41
1
10
218.163961508644
20
-9.3496670154515
30
0
41
1
10
218.579538281493
20
-9.34906599362
30
0
41
1
10
219.149523737014
20
-9.34695509886603
30
0
41
1
10
219.624988979206
20
-9.34698807784372
30
0
41
1
10
220.143075096043
20
-9.3493973821563
30
0
41
1
10
220.86253016802
20
-9.34957971615279
30
0
41
1
10
221.731931314322
20
-9.34985440239262
30
0
41
1
10
222.354863331932
20
-9.3499286250613
30
0
41
1
10
222.638022853371
20
-9.34994899397105
30
0
0
SPLINE
5
108
100
AcDbEntity
8
1
62
256
6
ByLayer
370
18
48
1
60
0
100
AcDbSpline
70
4
71
3
72
9
73
5
40
0
40
0
40
0
40
0
40
0.84181571262258
40
1
40
1
40
1
40
1
41
1
10
222.648836423875
20
9.35005631569933
30
0
41
1
10
222.362019671807
20
9.35003770873544
30
0
41
1
10
222.021406946471
20
9.34999368722865
30
0
41
1
10
221.681129963917
20
9.34991467374445
30
0
41
1
10
221.627309437052
20
9.34990140047137
30
0
0
SPLINE
5
109
100
AcDbEntity
8
1
62
256
6
ByLayer
370
18
48
1
60
0
100
AcDbSpline
70
4
71
3
72
14
73
10
40
0
40
0
40
0
40
0
40
0.25
40
0.25
40
0.5
40
0.5
40
0.75
40
0.75
40
1
40
1
40
1
40
1
41
1
10
19.2115989079801
20
-8.10906986358862
30
0
41
1
10
19.3055771969744
20
-7.69800120456782
30
0
41
1
10
19.4160868766306
20
-7.26167230613879
30
0
41
1
10
19.6637698131244
20
-6.36376021260384
30
0
41
1
10
19.800929023563
20
-5.902227939179
30
0
41
1
10
20.0939405495642
20
-4.98073655477299
30
0
41
1
10
20.2497762480887
20
-4.52082970268302
30
0
41
1
10
20.5710836510304
20
-3.62932517238906
30
0
41
1
10
20.736537133716
20
-3.19777805248552
30
0
41
1
10
20.9020000000009
20
-2.79293072139885
30
0
0
SPLINE
5
10A
100
AcDbEntity
8
1
62
256
6
ByLayer
370
18
48
1
60
0
100
AcDbSpline
70
4
71
3
72
12
73
8
40
0
40
0
40
0
40
0
40
0.499999999999983
40
0.499999999999983
40
0.749999999999991
40
0.749999999999991
40
1
40
1
40
1
40
1
41
1
10
21.9
20
0.346973656996255
30
0
41
1
10
22.1020133448675
20
0.346883969486299
30
0
41
1
10
22.3004686871776
20
0.325947460234659
30
0
41
1
10
22.5930198245831
20
0.264457034116504
30
0
41
1
10
22.6896744159927
20
0.238903761499159
30
0
41
1
10
22.8812079627826
20
0.177379695511576
30
0
41
1
10
22.9757680920534
20
0.141436596404759
30
0
41
1
10
23.0672646043157
20
0.101114807934437
30
0
0
SPLINE
5
10B
100
AcDbEntity
8
1
62
256
6
ByLayer
370
18
48
1
60
0
100
AcDbSpline
70
4
71
3
72
12
73
8
40
0
40
0
40
0
40
0
40
0.5
40
0.5
40
0.75
40
0.75
40
1
40
1
40
1
40
1
41
1
10
205
20
5.44869625476417
30
0
41
1
10
207.105372146031
20
4.82785413453215
30
0
41
1
10
209.20892079969
20
4.15163414616239
30
0
41
1
10
212.372952633667
20
3.08169038919019
30
0
41
1
10
213.430114602579
20
2.71511733114213
30
0
41
1
10
215.540207743571
20
1.97205851586583
30
0
41
1
10
216.593787372432
20
1.59512292477467
30
0
41
1
10
217.646703147469
20
1.21499583442341
30
0
0
SPLINE
5
10C
100
AcDbEntity
8
1
62
256
6
ByLayer
370
18
48
1
60
0
100
AcDbSpline
70
4
71
3
72
8
73
4
40
0
40
0
40
0
40
0
40
1
40
1
40
1
40
1
41
1
10
213.9
20
2.79919969560007
30
0
41
1
10
213.9
20
2.88923432142258
30
0
41
1
10
213.9
20
2.98479570797073
30
0
41
1
10
213.9
20
3.08585169560007
30
0
0
SPLINE
5
10D
100
AcDbEntity
8
1
62
256
6
ByLayer
370
18
48
1
60
0
100
AcDbSpline
70
4
71
3
72
8
73
4
40
0
40
0
40
0
40
0
40
1
40
1
40
1
40
1
41
1
10
223.87851377239
20
-6.71632689291613
30
0
41
1
10
223.632674036129
20
-7.46722392054011
30
0
41
1
10
223.383104930581
20
-8.22205302661456
30
0
41
1
10
223.129688211089
20
-8.98093889336914
30
0
0
SPLINE
5
10E
100
AcDbEntity
8
1
62
256
6
ByLayer
370
18
48
1
60
0
100
AcDbSpline
70
4
71
3
72
44
73
40
40
0
40
0
40
0
40
0
40
0.0517464737137923
40
0.0517464737137923
40
0.103492947427585
40
0.103492947427585
40
0.155239421141378
40
0.155239421141378
40
0.206985894855172
40
0.206985894855172
40
0.310478842282759
40
0.310478842282759
40
0.362225315996553
40
0.362225315996553
40
0.413971789710347
40
0.413971789710347
40
0.439845026567244
40
0.439845026567244
40
0.46571826342414
40
0.46571826342414
40
0.517464737137934
40
0.517464737137934
40
0.569211210851728
40
0.569211210851728
40
0.620957684565521
40
0.620957684565521
40
0.672704158279315
40
0.672704158279315
40
0.724450631993109
40
0.724450631993109
40
0.776197105706902
40
0.776197105706902
40
0.827943579420696
40
0.827943579420696
40
0.87969005313449
40
0.87969005313449
40
0.931436526848284
40
0.931436526848284
40
1
40
1
40
1
40
1
41
1
10
200.190797659716
20
-4.58421379102981
30
0
41
1
10
199.288302904949
20
-4.29279342663955
30
0
41
1
10
198.386062215944
20
-3.99220340781019
30
0
41
1
10
196.580385723562
20
-3.37677095975212
30
0
41
1
10
195.678846349069
20
-3.06261643296384
30
0
41
1
10
193.879529281626
20
-2.42568069131499
30
0
41
1
10
192.981210807705
20
-2.10319843262857
30
0
41
1
10
191.187858014694
20
-1.44854750959325
30
0
41
1
10
190.292696978282
20
-1.11672442024653
30
0
41
1
10
187.608938624321
20
-0.115503040896783
30
0
41
1
10
185.821895582751
20
0.559187592194036
30
0
41
1
10
183.133120807615
20
1.55057308169629
30
0
41
1
10
182.235485566268
20
1.8775656621776
30
0
41
1
10
180.437065764368
20
2.52351353361956
30
0
41
1
10
179.536491581651
20
2.84305179321166
30
0
41
1
10
178.182715240063
20
3.31480794819529
30
0
41
1
10
177.731059791021
20
3.47075253902321
30
0
41
1
10
176.828963172432
20
3.77881514551763
30
0
41
1
10
176.378230582024
20
3.93103568482931
30
0
41
1
10
175.026688446649
20
4.3815518392768
30
0
41
1
10
174.126516345762
20
4.67365235678295
30
0
41
1
10
172.326518948654
20
5.23823046898298
30
0
41
1
10
171.426684586021
20
5.51070768510482
30
0
41
1
10
169.62672104051
20
6.03456879105457
30
0
41
1
10
168.726816340246
20
6.28641081803022
30
0
41
1
10
166.925736969445
20
6.76646957874632
30
0
41
1
10
166.023563098166
20
6.99475806381852
30
0
41
1
10
164.221909274992
20
7.42179841615499
30
0
41
1
10
163.322187155664
20
7.62059309396733
30
0
41
1
10
161.522925354878
20
7.98605222832992
30
0
41
1
10
160.623380196078
20
8.15274013199695
30
0
41
1
10
158.823171737879
20
8.45302946588072
30
0
41
1
10
157.922704635379
20
8.58691226127297
30
0
41
1
10
156.120739617069
20
8.82176815210832
30
0
41
1
10
155.219135431833
20
8.92259230125254
30
0
41
1
10
153.413296956885
20
9.08953733674804
30
0
41
1
10
152.511218553924
20
9.15542654289823
30
0
41
1
10
150.416232388583
20
9.26698201925092
30
0
41
1
10
149.22338716015
20
9.29931293755789
30
0
41
1
10
148.030988090573
20
9.3000483252907
30
0
0
SPLINE
5
10F
100
AcDbEntity
8
1
62
256
6
ByLayer
370
18
48
1
60
0
100
AcDbSpline
70
4
71
3
72
34
73
30
40
0
40
0
40
0
40
0
40
0.0350077224732116
40
0.0350077224732116
40
0.142229086642853
40
0.142229086642853
40
0.195839768727675
40
0.195839768727675
40
0.249450450812496
40
0.249450450812496
40
0.356671814982139
40
0.356671814982139
40
0.410282497066961
40
0.410282497066961
40
0.463893179151783
40
0.463893179151783
40
0.571114543321426
40
0.571114543321426
40
0.624725225406248
40
0.624725225406248
40
0.678335907491069
40
0.678335907491069
40
0.785557271660712
40
0.785557271660712
40
0.839167953745534
40
0.839167953745534
40
0.892778635830356
40
0.892778635830356
40
1
40
1
40
1
40
1
41
1
10
77.7183770392003
20
-8.7927942882832
30
0
41
1
10
77.131245922055
20
-8.86431284603057
30
0
41
1
10
76.5443926657165
20
-8.92860040043294
30
0
41
1
10
74.1601575341077
20
-9.15922738273784
30
0
41
1
10
72.3625425457634
20
-9.26186802440603
30
0
41
1
10
69.6544015519224
20
-9.30578094942271
30
0
41
1
10
68.7522192689651
20
-9.30224569402461
30
0
41
1
10
66.9498111837932
20
-9.25953125016201
30
0
41
1
10
66.049472931149
20
-9.22028356131287
30
0
41
1
10
63.3491664904613
20
-9.04939730643036
30
0
41
1
10
61.5497808462238
20
-8.86445752259644
30
0
41
1
10
58.8435659460268
20
-8.48633435303083
30
0
41
1
10
57.9397926439307
20
-8.34347048010741
30
0
41
1
10
56.1367785576738
20
-8.02550869570587
30
0
41
1
10
55.2368655868006
20
-7.85006961101516
30
0
41
1
10
52.5392854823466
20
-7.27745089849739
30
0
41
1
10
50.7436523886212
20
-6.83369970322835
30
0
41
1
10
48.0421946690042
20
-6.09714882664903
30
0
41
1
10
47.1398237556668
20
-5.8397887814061
30
0
41
1
10
45.3340451122527
20
-5.30460199900918
30
0
41
1
10
44.4322854400042
20
-5.02658054449961
30
0
41
1
10
41.7290493009015
20
-4.16434608497102
30
0
41
1
10
39.9294442705679
20
-3.55220834541413
30
0
41
1
10
37.2249018578784
20
-2.60012274120089
30
0
41
1
10
36.3217974289399
20
-2.27686124539539
30
0
41
1
10
34.5168044148619
20
-1.62251800121498
30
0
41
1
10
33.6156540852786
20
-1.29137411432816
30
0
41
1
10
30.9150490303464
20
-0.289225705646885
30
0
41
1
10
29.1184502063742
20
0.390538008901956
30
0
41
1
10
27.3173576579105
20
1.05956098306368
30
0
0
SPLINE
5
110
100
AcDbEntity
8
1
62
256
6
ByLayer
370
18
48
1
60
0
100
AcDbSpline
70
4
71
3
72
16
73
12
40
0
40
0
40
0
40
0
40
0.249999999999998
40
0.249999999999998
40
0.499999999999996
40
0.499999999999996
40
0.624999999999999
40
0.624999999999999
40
0.750000000000002
40
0.750000000000002
40
1
40
1
40
1
40
1
41
1
10
15.7487441069215
20
-0.37346880909854
30
0
41
1
10
16.0667905283953
20
-0.302411264476092
30
0
41
1
10
16.3939010021985
20
-0.228511005584068
30
0
41
1
10
17.066544163659
20
-0.0846278871510151
30
0
41
1
10
17.4120649309803
20
-0.0145930299304098
30
0
41
1
10
17.9458781912255
20
0.0792702039709354
30
0
41
1
10
18.126421100807
20
0.108677719555629
30
0
41
1
10
18.4932496943557
20
0.162009676052719
30
0
41
1
10
18.6799357900575
20
0.185951896302186
30
0
41
1
10
19.2407840533857
20
0.245603830050584
30
0
41
1
10
19.6182398683911
20
0.269784673795442
30
0
41
1
10
19.9999999999999
20
0.269671358220989
30
0
0
SPLINE
5
111
100
AcDbEntity
8
1
62
256
6
ByLayer
370
18
48
1
60
0
100
AcDbSpline
70
4
71
3
72
8
73
4
40
0
40
0
40
0
40
0
40
1
40
1
40
1
40
1
41
1
10
217.93189146103
20
1.41695384282588
30
0
41
1
10
217.881082925519
20
1.34617222885572
30
0
41
1
10
217.829745734017
20
1.276779429416
30
0
41
1
10
217.77786443691
20
1.20881603167661
30
0
0
SPLINE
5
112
100
AcDbEntity
8
1
62
256
6
ByLayer
370
18
48
1
60
0
100
AcDbSpline
70
4
71
3
72
8
73
4
40
0
40
0
40
0
40
0
40
1
40
1
40
1
40
1
41
1
10
21.9
20
0.346973656996255
30
0
41
1
10
21.6069025450685
20
0.33720973571937
30
0
41
1
10
21.3224531329357
20
0.284368615838446
30
0
41
1
10
21.0465246051871
20
0.190118480476315
30
0
0
SPLINE
5
113
100
AcDbEntity
8
1
62
256
6
ByLayer
370
18
48
1
60
0
100
AcDbSpline
70
4
71
3
72
10
73
6
40
0
40
0
40
0
40
0
40
0.5
40
0.5
40
1
40
1
40
1
40
1
41
1
10
223.306326390634
20
3.25918460369999
30
0
41
1
10
223.590051430172
20
3.2818926720642
30
0
41
1
10
223.873053128964
20
3.3092228628438
30
0
41
1
10
224.43645138934
20
3.38052998128549
30
0
41
1
10
224.716916878891
20
3.42406646161683
30
0
41
1
10
224.994725144962
20
3.48458250831976
30
0
0
SPLINE
5
114
100
AcDbEntity
8
1
62
256
6
ByLayer
370
18
48
1
60
0
100
AcDbSpline
70
4
71
1
72
4
73
2
40
0
40
0
40
1
40
1
41
1
10
220.467325130587
20
-7.40366773368916
30
0
41
1
10
220.332234777745
20
-7.46576312076164
30
0
0
SPLINE
5
115
100
AcDbEntity
8
1
62
256
6
ByLayer
370
18
48
1
60
0
100
AcDbSpline
70
4
71
3
72
8
73
4
40
0
40
0
40
0
40
0
40
1
40
1
40
1
40
1
41
1
10
213.9
20
3.08585169560013
30
0
41
1
10
213.505605119874
20
3.11377025163955
30
0
41
1
10
213.111190403451
20
3.14022588072174
30
0
41
1
10
212.716763065281
20
3.16518083069533
30
0
0
SPLINE
5
116
100
AcDbEntity
8
1
62
256
6
ByLayer
370
18
48
1
60
0
100
AcDbSpline
70
4
71
3
72
8
73
4
40
0
40
0
40
0
40
0
40
1
40
1
40
1
40
1
41
1
10
213.9
20
3.90000000000001
30
0
41
1
10
213.9
20
3.58021944763198
30
0
41
1
10
213.9
20
3.30913528257969
30
0
41
1
10
213.9
20
3.08585169560007
30
0
0
SPLINE
5
117
100
AcDbEntity
8
1
62
256
6
ByLayer
370
18
48
1
60
0
100
AcDbSpline
70
4
71
3
72
32
73
28
40
0
40
0
40
0
40
0
40
0.0625000000000095
40
0.0625000000000095
40
0.125000000000019
40
0.125000000000019
40
0.250000000000038
40
0.250000000000038
40
0.312500000000048
40
0.312500000000048
40
0.375000000000058
40
0.375000000000058
40
0.437500000000067
40
0.437500000000067
40
0.500000000000077
40
0.500000000000077
40
0.625000000000072
40
0.625000000000072
40
0.68750000000006
40
0.68750000000006
40
0.750000000000048
40
0.750000000000048
40
0.812500000000036
40
0.812500000000036
40
0.875000000000024
40
0.875000000000024
40
1
40
1
40
1
40
1
41
1
10
201.274234313201
20
-4.62645699468484
30
0
41
1
10
201.385407016267
20
-4.65051646414332
30
0
41
1
10
201.497637802377
20
-4.66893999442936
30
0
41
1
10
201.724204902448
20
-4.69472162896466
30
0
41
1
10
201.839003090545
20
-4.70204664131924
30
0
41
1
10
202.180177636835
20
-4.70711809148975
30
0
41
1
10
202.405008548987
20
-4.68856778265948
30
0
41
1
10
202.738357871708
20
-4.6276053598865
30
0
41
1
10
202.849322265894
20
-4.60149548470724
30
0
41
1
10
203.064519074905
20
-4.53909279653018
30
0
41
1
10
203.169345657692
20
-4.50274464943749
30
0
41
1
10
203.373600949958
20
-4.41975841843137
30
0
41
1
10
203.473029614095
20
-4.37312085993656
30
0
41
1
10
203.666424129886
20
-4.26910604544821
30
0
41
1
10
203.760697232796
20
-4.21143408859936
30
0
41
1
10
204.028503513477
20
-4.02581005688376
30
0
41
1
10
204.189442824543
20
-3.88444080456017
30
0
41
1
10
204.404307413222
20
-3.64376917813399
30
0
41
1
10
204.471347040853
20
-3.55868790327224
30
0
41
1
10
204.593053209542
20
-3.38285765061181
30
0
41
1
10
204.648202431511
20
-3.29160523891758
30
0
41
1
10
204.747196024241
20
-3.10225120823057
30
0
41
1
10
204.791041154349
20
-3.0041505778583
30
0
41
1
10
204.867086586107
20
-2.80068832104863
30
0
41
1
10
204.898880571095
20
-2.69620173759009
30
0
41
1
10
204.974641064491
20
-2.37959395320911
30
0
41
1
10
205
20
-2.1623351443105
30
0
41
1
10
205
20
-1.93859232887019
30
0
0
SPLINE
5
118
100
AcDbEntity
8
1
62
256
6
ByLayer
370
18
48
1
60
0
100
AcDbSpline
70
4
71
3
72
8
73
4
40
0
40
0
40
0
40
0
40
1
40
1
40
1
40
1
41
1
10
200.050087538176
20
6.59069609117876
30
0
41
1
10
200.324393691683
20
6.50675615621566
30
0
41
1
10
200.611120155348
20
6.45345148997123
30
0
41
1
10
200.91033629402
20
6.43386864121467
30
0
0
SPLINE
5
119
100
AcDbEntity
8
1
62
256
6
ByLayer
370
18
48
1
60
0
100
AcDbSpline
70
4
71
3
72
21
73
17
40
0
40
0
40
0
40
0
40
0.0285466014323467
40
0.0570062921388373
40
0.0854486482190738
40
0.113943372751914
40
0.142559786145957
40
0.213633896107322
40
0.284184933672232
40
0.355440400943183
40
0.425744098629342
40
0.566684096861728
40
0.707182996277255
40
0.847364613127129
40
0.987128265089011
40
1
40
1
40
1
40
1
41
1
10
214.000001143399
20
-8.90584118809002
30
0
41
1
10
214.000238196058
20
-8.90102984207496
30
0
41
1
10
214.000711579663
20
-8.89142179828852
30
0
41
1
10
214.004526252192
20
-8.87673271078506
30
0
41
1
10
214.010617650291
20
-8.86189229867327
30
0
41
1
10
214.019204909768
20
-8.84688108109469
30
0
41
1
10
214.035659922048
20
-8.82425278495464
30
0
41
1
10
214.065590514673
20
-8.79396941399713
30
0
41
1
10
214.117407026831
20
-8.75656113670152
30
0
41
1
10
214.182366411728
20
-8.72046097202937
30
0
41
1
10
214.285916327081
20
-8.67524682689736
30
0
41
1
10
214.444623949354
20
-8.62621322168263
30
0
41
1
10
214.671585790777
20
-8.5873784820933
30
0
41
1
10
214.917760625108
20
-8.57505740338476
30
0
41
1
10
215.088700621649
20
-8.58638885062541
30
0
41
1
10
215.17261300725
20
-8.59750798391229
30
0
41
1
10
215.179689334734
20
-8.59844565989323
30
0
0
SPLINE
5
11A
100
AcDbEntity
8
1
62
256
6
ByLayer
370
18
48
1
60
0
100
AcDbSpline
70
4
71
3
72
8
73
4
40
0
40
0
40
0
40
0
40
1
40
1
40
1
40
1
41
1
10
221.465727737981
20
0.742009217471519
30
0
41
1
10
221.419338894761
20
0.95688119532818
30
0
41
1
10
221.380050021702
20
1.17270919564396
30
0
41
1
10
221.346764034763
20
1.38934549427933
30
0
0
SPLINE
5
11B
100
AcDbEntity
8
1
62
256
6
ByLayer
370
18
48
1
60
0
100
AcDbSpline
70
4
71
3
72
8
73
4
40
0
40
0
40
0
40
0
40
1
40
1
40
1
40
1
41
1
10
219.367755161047
20
-3.5967511592381
30
0
41
1
10
219.326960601503
20
-3.6004642754055
30
0
41
1
10
219.28617615499
20
-3.60399662695286
30
0
41
1
10
219.245401844891
20
-3.60734785344897
30
0
0
SPLINE
5
11C
100
AcDbEntity
8
1
62
256
6
ByLayer
370
18
48
1
60
0
100
AcDbSpline
70
4
71
3
72
20
73
16
40
0
40
0
40
0
40
0
40
0.25
40
0.25
40
0.375
40
0.375
40
0.5
40
0.5
40
0.625
40
0.625
40
0.75
40
0.75
40
0.875
40
0.875
40
1
40
1
40
1
40
1
41
1
10
17.3788504651462
20
-8.81428625880923
30
0
41
1
10
17.461233771257
20
-8.88102321748724
30
0
41
1
10
17.5696772229511
20
-8.92609225215665
30
0
41
1
10
17.7809565544719
20
-8.96738253956545
30
0
41
1
10
17.8583618829021
20
-8.97653218726393
30
0
41
1
10
18.0253951973942
20
-8.98779879995303
30
0
41
1
10
18.1152841946655
20
-8.98996632816977
30
0
41
1
10
18.3080850548002
20
-8.9896695675927
30
0
41
1
10
18.4116097321455
20
-8.98716857320522
30
0
41
1
10
18.6258456412891
20
-8.97996525233739
30
0
41
1
10
18.7371260391794
20
-8.97527732885476
30
0
41
1
10
18.9678233916473
20
-8.96576272955622
30
0
41
1
10
19.0878860259008
20
-8.96090998430549
30
0
41
1
10
19.3332958070333
20
-8.95280159722142
30
0
41
1
10
19.4577095036519
20
-8.94957397280811
30
0
41
1
10
19.5837697225935
20
-8.94770013892455
30
0
0
SPLINE
5
11D
100
AcDbEntity
8
1
62
256
6
ByLayer
370
18
48
1
60
0
100
AcDbSpline
70
4
71
3
72
8
73
4
40
0
40
0
40
0
40
0
40
1
40
1
40
1
40
1
41
1
10
21.0465246051871
20
0.190118480476315
30
0
41
1
10
21.1887874856715
20
0.200055456644037
30
0
41
1
10
21.3428533134007
20
0.205653025723024
30
0
41
1
10
21.5057808698948
20
0.204044663401305
30
0
0
SPLINE
5
11E
100
AcDbEntity
8
1
62
256
6
ByLayer
370
13
48
1
60
0
100
AcDbSpline
70
4
71
3
72
10
73
6
40
0
40
0
40
0
40
0
40
0.0018191703362583
40
0.0018191703362583
40
1
40
1
40
1
40
1
41
1
10
224.946501995012
20
0.949356494453497
30
0
41
1
10
224.946488104551
20
0.949365772138691
30
0
41
1
10
224.94647421402
20
0.949375049856712
30
0
41
1
10
224.938838662948
20
0.954475103033928
30
0
41
1
10
224.931242576019
20
0.959598798035216
30
0
41
1
10
224.923672886782
20
0.964755798444656
30
0
0
SPLINE
5
11F
100
AcDbEntity
8
1
62
256
6
ByLayer
370
18
48
1
60
0
100
AcDbSpline
70
4
71
3
72
8
73
4
40
0
40
0
40
0
40
0
40
1
40
1
40
1
40
1
41
1
10
225.983461814753
20
0.072657854775656
30
0
41
1
10
225.971785301441
20
0.111953891680258
30
0
41
1
10
225.960164784181
20
0.151143017368611
30
0
41
1
10
225.948599894711
20
0.19022593495302
30
0
0
SPLINE
5
120
100
AcDbEntity
8
1
62
256
6
ByLayer
370
18
48
1
60
0
100
AcDbSpline
70
4
71
3
72
8
73
4
40
0
40
0
40
0
40
0
40
1
40
1
40
1
40
1
41
1
10
222.780533424617
20
9.34431407516863
30
0
41
1
10
222.815824962581
20
9.3310024086735
30
0
41
1
10
222.858830229008
20
9.29468486803393
30
0
41
1
10
222.909504942559
20
9.23549352050478
30
0
0
SPLINE
5
121
100
AcDbEntity
8
1
62
256
6
ByLayer
370
18
48
1
60
0
100
AcDbSpline
70
4
71
3
72
14
73
10
40
0
40
0
40
0
40
0
40
0.25
40
0.25
40
0.5
40
0.5
40
0.75
40
0.75
40
1
40
1
40
1
40
1
41
1
10
223.129688211089
20
8.9809388933692
30
0
41
1
10
222.42136324263
20
9.08797598752901
30
0
41
1
10
221.714927279239
20
9.17905304096817
30
0
41
1
10
220.301799733721
20
9.32721311750203
30
0
41
1
10
219.595631036092
20
9.38471648689548
30
0
41
1
10
218.184356225159
20
9.46653043524339
30
0
41
1
10
217.478982711101
20
9.49063372322092
30
0
41
1
10
216.065421395984
20
9.50486648834678
30
0
41
1
10
215.35782805891
20
9.49515722944423
30
0
41
1
10
214.649495483872
20
9.46829213148388
30
0
0
SPLINE
5
122
100
AcDbEntity
8
1
62
256
6
ByLayer
370
18
48
1
60
0
100
AcDbSpline
70
4
71
3
72
38
73
34
40
0
40
0
40
0
40
0
40
0.0625
40
0.0625
40
0.125
40
0.125
40
0.1875
40
0.1875
40
0.25
40
0.25
40
0.3125
40
0.3125
40
0.375
40
0.375
40
0.4375
40
0.4375
40
0.5
40
0.5
40
0.5625
40
0.5625
40
0.625
40
0.625
40
0.6875
40
0.6875
40
0.75
40
0.75
40
0.8125
40
0.8125
40
0.875
40
0.875
40
0.9375
40
0.9375
40
1
40
1
40
1
40
1
41
1
10
218.142739195359
20
-0.625693152068266
30
0
41
1
10
218.070448950426
20
-0.648374215515076
30
0
41
1
10
217.999901688463
20
-0.677159881460852
30
0
41
1
10
217.865951835405
20
-0.745108964964629
30
0
41
1
10
217.80196452199
20
-0.78444193880128
30
0
41
1
10
217.680202823618
20
-0.874218089321943
30
0
41
1
10
217.622953804716
20
-0.924437446276642
30
0
41
1
10
217.519240586041
20
-1.03243135114278
30
0
41
1
10
217.472217923267
20
-1.0905917477059
30
0
41
1
10
217.388439417927
20
-1.21570618236197
30
0
41
1
10
217.352072295418
20
-1.28239140181574
30
0
41
1
10
217.293241825932
20
-1.41907849715486
30
0
41
1
10
217.270307716995
20
-1.48972833965189
30
0
41
1
10
217.238188814365
20
-1.63588142442197
30
0
41
1
10
217.229367223506
20
-1.7104531274627
30
0
41
1
10
217.226516395819
20
-1.85793150670403
30
0
41
1
10
217.232348715629
20
-1.93168457481454
30
0
41
1
10
217.258959565263
20
-2.07825933455104
30
0
41
1
10
217.279316157735
20
-2.14895234012752
30
0
41
1
10
217.333285149763
20
-2.28551286515526
30
0
41
1
10
217.36733672947
20
-2.35198710013557
30
0
41
1
10
217.446713836435
20
-2.47646441270345
30
0
41
1
10
217.491846284883
20
-2.53450103426803
30
0
41
1
10
217.592536332718
20
-2.64263948794741
30
0
41
1
10
217.648491513784
20
-2.69290885461001
30
0
41
1
10
217.766841039408
20
-2.78226484116394
30
0
41
1
10
217.829608692633
20
-2.82184693924455
30
0
41
1
10
217.96226640629
20
-2.89103196196339
30
0
41
1
10
218.032250590014
20
-2.92051791022874
30
0
41
1
10
218.174420100999
20
-2.96746954150584
30
0
41
1
10
218.247203259781
20
-2.98528434707987
30
0
41
1
10
218.396239056835
20
-3.00942033501082
30
0
41
1
10
218.472548104235
20
-3.01564786726149
30
0
41
1
10
218.548754971656
20
-3.01564786726149
30
0
0
SPLINE
5
123
100
AcDbEntity
8
1
62
256
6
ByLayer
370
18
48
1
60
0
100
AcDbSpline
70
4
71
3
72
21
73
17
40
0
40
0
40
0
40
0
40
0.102043188957342
40
0.137969273967981
40
0.20982144398926
40
0.281673614010539
40
0.389451869042457
40
0.425377954053096
40
0.497230124074375
40
0.569082294095654
40
0.676860549127572
40
0.712786634138212
40
0.784638804159491
40
0.856490974180769
40
0.964269229212688
40
1
40
1
40
1
40
1
41
1.00000000000001
10
30.180797262281
20
-0.010715827422274
30
0
41
1.00000000000001
10
31.5167087658524
20
-0.483530864080247
30
0
41
1.00000000000001
10
33.3211014710971
20
-1.12142993198835
30
0
41
1.00000000000001
10
36.0680914077677
20
-2.06925555091065
30
0
41
1.00000000000001
10
38.4217173364154
20
-2.8636347931992
30
0
41
1.00000000000001
10
41.7171545060472
20
-3.93438176888344
30
0
41
1.00000000000001
10
44.5404201662147
20
-4.79412832211914
30
0
41
1.00000000000001
10
47.3643802385788
20
-5.58755702864328
30
0
41
1.00000000000001
10
49.7183754827451
20
-6.20426828069257
30
0
41
1.00000000000001
10
53.0121599323821
20
-6.98030733787718
30
0
41
1.00000000000001
10
55.8329452704209
20
-7.54289966136108
30
0
41
1.00000000000001
10
58.6548075628825
20
-8.00322058449359
30
0
41
1.00000000000001
10
61.0084071907463
20
-8.31715138160379
30
0
41
1.00000000000001
10
64.3039552091544
20
-8.63379660114449
30
0
41
1.00000000000001
10
67.1248765599106
20
-8.77575389519554
30
0
41
1.00000000000001
10
69.0051314705854
20
-8.79465116909664
30
0
41
1.00000000000001
10
69.4733182771055
20
-8.79421095981521
30
0
0
SPLINE
5
124
100
AcDbEntity
8
1
62
256
6
ByLayer
370
18
48
1
60
0
100
AcDbSpline
70
4
71
3
72
13
73
9
40
0
40
0
40
0
40
0
40
0.0545683907398939
40
0.391871805566994
40
0.469711055142479
40
0.547550304717963
40
0.884853719545063
40
1
40
1
40
1
40
1
41
1.00000000000001
10
187.32300638103
20
-0.0065077196416041
30
0
41
1.00000000000001
10
187.570395480127
20
-0.0940263591099601
30
0
41
1.00000000000001
10
189.346794332029
20
-0.722560700260454
30
0
41
1.00000000000001
10
191.474330487324
20
-1.47270754967422
30
0
41
1.00000000000001
10
193.706892689896
20
-2.23496749035963
30
0
41
1.00000000000001
10
195.944103182741
20
-2.98663818861545
30
0
41
1.00000000000001
10
198.35124190815
20
-3.76595924988908
30
0
41
1.00000000000001
10
200.4021219774
20
-4.39354612561632
30
0
41
1.00000000000001
10
200.923913637834
20
-4.55050593939682
30
0
0
SPLINE
5
125
100
AcDbEntity
8
1
62
256
6
ByLayer
370
18
48
1
60
0
100
AcDbSpline
70
4
71
1
72
4
73
2
40
0
40
0
40
1
40
1
41
1
10
219.364758283421
20
-3.53980004778623
30
0
41
1
10
219.36775535572
20
-3.59675491079926
30
0
0
SPLINE
5
126
100
AcDbEntity
8
1
62
256
6
ByLayer
370
18
48
1
60
0
100
AcDbSpline
70
4
71
3
72
51
73
47
40
0
40
0
40
0
40
0
40
0.0230825320036434
40
0.0461650640072879
40
0.0692475960109321
40
0.0923301280145759
40
0.11541266001822
40
0.138495192021864
40
0.161577724025507
40
0.184660256029152
40
0.207742788032795
40
0.230825320036439
40
0.253907852040083
40
0.276990384043727
40
0.300072916047372
40
0.323155448051015
40
0.346237980054659
40
0.369320512058303
40
0.392403044061948
40
0.415485576065591
40
0.438568108069235
40
0.461650640072879
40
0.484733172076523
40
0.507815704080167
40
0.530898236083811
40
0.553980768087455
40
0.577063300091099
40
0.600145832094743
40
0.623228364098387
40
0.646310896102031
40
0.669393428105675
40
0.692475960109318
40
0.715558492112963
40
0.738641024116606
40
0.761723556120251
40
0.784806088123895
40
0.807888620127538
40
0.830971152131183
40
0.854053684134826
40
0.877136216138471
40
0.900218748142114
40
0.923301280145758
40
0.946383812149402
40
0.969466344153046
40
0.99254887615669
40
1
40
1
40
1
40
1
41
1
10
20.9020000000009
20
-2.79293072139885
30
0
41
1
10
20.9161365294453
20
-2.75845415604056
30
0
41
1
10
20.944409588334
20
-2.68950102532398
30
0
41
1
10
20.9868010946304
20
-2.58759217709257
30
0
41
1
10
21.0291564445629
20
-2.48685193357963
30
0
41
1
10
21.0714575792202
20
-2.38742927286964
30
0
41
1
10
21.1136864628067
20
-2.28933817594862
30
0
41
1
10
21.1558250903321
20
-2.19262807790483
30
0
41
1
10
21.1978554952882
20
-2.09733817299252
30
0
41
1
10
21.2397597573097
20
-2.00350963619442
30
0
41
1
10
21.2815200098139
20
-1.91118232643046
30
0
41
1
10
21.3231184476195
20
-1.82039564823191
30
0
41
1
10
21.3645373345372
20
-1.73118829950201
30
0
41
1
10
21.4057590109324
20
-1.64359831810197
30
0
41
1
10
21.4467659012544
20
-1.55766304872932
30
0
41
1
10
21.4875405215303
20
-1.47341913152454
30
0
41
1
10
21.5280654868194
20
-1.39090248523544
30
0
41
1
10
21.5683235186252
20
-1.31014829222772
30
0
41
1
10
21.6082974522634
20
-1.23119098339723
30
0
41
1
10
21.6479702441791
20
-1.15406422351313
30
0
41
1
10
21.6873249792146
20
-1.07880089685824
30
0
41
1
10
21.7263448778208
20
-1.00543309320969
30
0
41
1
10
21.7650133032118
20
-0.933992094156707
30
0
41
1
10
21.8033137684584
20
-0.864508359763136
30
0
41
1
10
21.841229943517
20
-0.79701151558038
30
0
41
1
10
21.8787456621928
20
-0.731530340015922
30
0
41
1
10
21.9158449290321
20
-0.66809275206333
30
0
41
1
10
21.9525119261425
20
-0.60672579939839
30
0
41
1
10
21.9887310199371
20
-0.547455646846913
30
0
41
1
10
22.0244867677998
20
-0.490307565228989
30
0
41
1
10
22.0597639246701
20
-0.435305920584284
30
0
41
1
10
22.0945474495425
20
-0.382474163783115
30
0
41
1
10
22.1288225118799
20
-0.331834820528002
30
0
41
1
10
22.1625744979367
20
-0.283409481749175
30
0
41
1
10
22.1957890169896
20
-0.237218794399155
30
0
41
1
10
22.2284519074732
20
-0.193282452649356
30
0
41
1
10
22.2605492430184
20
-0.151619189493431
30
0
41
1
10
22.2920673383898
20
-0.112246768759832
30
0
41
1
10
22.3229927553206
20
-0.0751819775381932
30
0
41
1
10
22.3533123082425
20
-0.0404406190216378
30
0
41
1
10
22.3830130699074
20
-0.0080375057690105
30
0
41
1
10
22.4120823768993
20
0.0220135466108786
30
0
41
1
10
22.4405078350332
20
0.0496997253496261
30
0
41
1
10
22.4682773246401
20
0.0750092259821997
30
0
41
1
10
22.489261285215
20
0.0927570181387978
30
0
41
1
10
22.5010132259191
20
0.102165013648687
30
0
41
1
10
22.5038691887115
20
0.104419163472926
30
0
0
SPLINE
5
127
100
AcDbEntity
8
1
62
256
6
ByLayer
370
18
48
1
60
0
100
AcDbSpline
70
4
71
3
72
8
73
4
40
0
40
0
40
0
40
0
40
1
40
1
40
1
40
1
41
1
10
17.2331794558279
20
-8.80958627673081
30
0
41
1
10
16.7261945492297
20
-8.80356201998521
30
0
41
1
10
16.2300950321264
20
-8.81678145565826
30
0
41
1
10
15.7487441069214
20
-8.86365735896334
30
0
0
SPLINE
5
128
100
AcDbEntity
8
1
62
256
6
ByLayer
370
18
48
1
60
0
100
AcDbSpline
70
4
71
3
72
8
73
4
40
0
40
0
40
0
40
0
40
1
40
1
40
1
40
1
41
1
10
205
20
5.3966816115055
30
0
41
1
10
203.636315752606
20
5.76745262143353
30
0
41
1
10
202.273877833275
20
6.11447730158756
30
0
41
1
10
200.91033629402
20
6.43386864121467
30
0
0
SPLINE
5
129
100
AcDbEntity
8
1
62
256
6
ByLayer
370
18
48
1
60
0
100
AcDbSpline
70
4
71
3
72
8
73
4
40
0
40
0
40
0
40
0
40
1
40
1
40
1
40
1
41
1
10
216.32827999376
20
-9.50000424037427
30
0
41
1
10
215.769171520575
20
-9.50005029991058
30
0
41
1
10
215.209564582597
20
-9.48953400533247
30
0
41
1
10
214.649495483872
20
-9.46829213148388
30
0
0
SPLINE
5
12A
100
AcDbEntity
8
1
62
256
6
ByLayer
370
18
48
1
60
0
100
AcDbSpline
70
4
71
3
72
18
73
14
40
0
40
0
40
0
40
0
40
0.125000000000003
40
0.125000000000003
40
0.250000000000007
40
0.250000000000007
40
0.499999999999924
40
0.499999999999924
40
0.624999999999925
40
0.624999999999925
40
0.749999999999925
40
0.749999999999925
40
1
40
1
40
1
40
1
41
1
10
203.758137004304
20
-7.45870488190005
30
0
41
1
10
203.825074807739
20
-7.47090301023928
30
0
41
1
10
203.891824022365
20
-7.48461158789033
30
0
41
1
10
204.02290889557
20
-7.5145843382594
30
0
41
1
10
204.087173957028
20
-7.53081629238744
30
0
41
1
10
204.276229327496
20
-7.58300764408074
30
0
41
1
10
204.397296415203
20
-7.62245323597824
30
0
41
1
10
204.571484705298
20
-7.68784674912257
30
0
41
1
10
204.628307830414
20
-7.71068467540886
30
0
41
1
10
204.739431233403
20
-7.75834123558599
30
0
41
1
10
204.793769587318
20
-7.78319331419087
30
0
41
1
10
204.950388632078
20
-7.85929006754867
30
0
41
1
10
205.047221302325
20
-7.9124437907918
30
0
41
1
10
205.136815055095
20
-7.96732349879096
30
0
0
SPLINE
5
12B
100
AcDbEntity
8
1
62
256
6
ByLayer
370
18
48
1
60
0
100
AcDbSpline
70
4
71
3
72
8
73
4
40
0
40
0
40
0
40
0
40
1
40
1
40
1
40
1
41
1
10
218.268074934619
20
-0.580135964913836
30
0
41
1
10
218.225975132963
20
-0.594095402207046
30
0
41
1
10
218.184165699211
20
-0.609288643049837
30
0
41
1
10
218.142739273055
20
-0.62569384929543
30
0
0
SPLINE
5
12C
100
AcDbEntity
8
1
62
256
6
ByLayer
370
18
48
1
60
0
100
AcDbSpline
70
4
71
3
72
8
73
4
40
0
40
0
40
0
40
0
40
1
40
1
40
1
40
1
41
1
10
223.87851377239
20
6.71632689291613
30
0
41
1
10
223.632674036131
20
7.46722392053425
30
0
41
1
10
223.383104930585
20
8.22205302660285
30
0
41
1
10
223.129688211095
20
8.98093889335146
30
0
0
SPLINE
5
12D
100
AcDbEntity
8
1
62
256
6
ByLayer
370
18
48
1
60
0
100
AcDbSpline
70
4
71
3
72
10
73
6
40
0
40
0
40
0
40
0
40
0.776111044174678
40
0.776111044174678
40
1
40
1
40
1
40
1
41
1
10
22.9115784660106
20
-0.0436199239393034
30
0
41
1
10
24.7928122866266
20
-0.704802124870412
30
0
41
1
10
26.670762771439
20
-1.36004261195447
30
0
41
1
10
29.0952065478636
20
-2.17094429528657
30
0
41
1
10
29.6385228974779
20
-2.35031996813012
30
0
41
1
10
30.1820433334711
20
-2.52726796582311
30
0
0
SPLINE
5
12E
100
AcDbEntity
8
1
62
256
6
ByLayer
370
18
48
1
60
0
100
AcDbSpline
70
4
71
3
72
52
73
48
40
0
40
0
40
0
40
0
40
0.0119872653942287
40
0.0119872653942287
40
0.0337823049541432
40
0.0337823049541432
40
0.120962463193803
40
0.120962463193803
40
0.164552542313633
40
0.164552542313633
40
0.208142621433462
40
0.208142621433462
40
0.251732700553292
40
0.251732700553292
40
0.295322779673122
40
0.295322779673122
40
0.338912858792952
40
0.338912858792952
40
0.382502937912781
40
0.382502937912781
40
0.426093017032611
40
0.426093017032611
40
0.469683096152441
40
0.469683096152441
40
0.513273175272271
40
0.513273175272271
40
0.5568632543921
40
0.5568632543921
40
0.60045333351193
40
0.60045333351193
40
0.64404341263176
40
0.64404341263176
40
0.68763349175159
40
0.68763349175159
40
0.731223570871419
40
0.731223570871419
40
0.818403729111079
40
0.818403729111079
40
0.861993808230909
40
0.861993808230909
40
0.90558388735074
40
0.90558388735074
40
0.94917396647057
40
0.94917396647057
40
0.9927640455904
40
0.9927640455904
40
1
40
1
40
1
40
1
41
1
10
122.455556439626
20
6.36628303823554
30
0
41
1
10
122.714903480701
20
6.42397480347961
30
0
41
1
10
122.974339207513
20
6.48063493255981
30
0
41
1
10
123.705758802525
20
6.63735450463759
30
0
41
1
10
124.178105446431
20
6.73500086902885
30
0
41
1
10
126.537297388451
20
7.205988872413
30
0
41
1
10
128.419478842586
20
7.52862756977532
30
0
41
1
10
131.242687839539
20
7.90806955349771
30
0
41
1
10
132.183807906055
20
8.01714226802619
30
0
41
1
10
134.067428569474
20
8.20008413547191
30
0
41
1
10
135.009973108564
20
8.27365419671006
30
0
41
1
10
136.897267004198
20
8.38729934541666
30
0
41
1
10
137.84185806319
20
8.4278252258938
30
0
41
1
10
139.727205141207
20
8.47289481939882
30
0
41
1
10
140.668834779725
20
8.47747317459391
30
0
41
1
10
142.551399278001
20
8.44908959585169
30
0
41
1
10
143.492356133887
20
8.41605943895325
30
0
41
1
10
145.374920128794
20
8.31380950154281
30
0
41
1
10
146.31656538484
20
8.2443296707952
30
0
41
1
10
148.201383576432
20
8.07227181941207
30
0
41
1
10
149.144903166155
20
7.97003634636678
30
0
41
1
10
151.032775741569
20
7.73188099792381
30
0
41
1
10
151.97531114702
20
7.59618847677214
30
0
41
1
10
153.858935827924
20
7.29209631842039
30
0
41
1
10
154.800045678276
20
7.12366640289804
30
0
41
1
10
156.682182342568
20
6.75707654653957
30
0
41
1
10
157.623241314572
20
6.55874855668634
30
0
41
1
10
159.50620702592
20
6.13617213325213
30
0
41
1
10
160.448024400365
20
5.91213658393389
30
0
41
1
10
162.333694656047
20
5.43912645130939
30
0
41
1
10
163.278285838734
20
5.18993111632059
30
0
41
1
10
165.163857217135
20
4.6707449887528
30
0
41
1
10
166.105560388879
20
4.40061065111888
30
0
41
1
10
167.988145264437
20
3.84320982323885
30
0
41
1
10
168.92905320461
20
3.55589997708975
30
0
41
1
10
171.752021969176
20
2.67386977235569
30
0
41
1
10
173.633872518481
20
2.05833094273674
30
0
41
1
10
176.465147553165
20
1.11290157958447
30
0
41
1
10
177.408368779921
20
0.794952091250536
30
0
41
1
10
179.292146159283
20
0.158434595184929
30
0
41
1
10
180.233189883383
20
-0.160200844500508
30
0
41
1
10
182.114599739319
20
-0.795560296577548
30
0
41
1
10
183.054906366364
20
-1.11251502227972
30
0
41
1
10
184.935882786938
20
-1.74141655672818
30
0
41
1
10
185.876539507837
20
-2.05340691659157
30
0
41
1
10
186.974497887066
20
-2.41131792377851
30
0
41
1
10
187.130839539883
20
-2.4621302707281
30
0
41
1
10
187.287212705701
20
-2.51279155206828
30
0
0
SPLINE
5
12F
100
AcDbEntity
8
1
62
256
6
ByLayer
370
18
48
1
60
0
100
AcDbSpline
70
4
71
3
72
8
73
4
40
0
40
0
40
0
40
0
40
1
40
1
40
1
40
1
41
1
10
214.23731835042
20
-9.19237545992908
30
0
41
1
10
214.37485615512
20
-9.2531393050196
30
0
41
1
10
214.512245718965
20
-9.31337694542316
30
0
41
1
10
214.649495483891
20
-9.37306966734795
30
0
0
SPLINE
5
130
100
AcDbEntity
8
1
62
256
6
ByLayer
370
18
48
1
60
0
100
AcDbSpline
70
4
71
3
72
18
73
14
40
0
40
0
40
0
40
0
40
0.124999999999983
40
0.124999999999983
40
0.249999999999967
40
0.249999999999967
40
0.499999999999966
40
0.499999999999966
40
0.624999999999985
40
0.624999999999985
40
0.750000000000004
40
0.750000000000004
40
1
40
1
40
1
40
1
41
1
10
221.346764034765
20
1.38934549427609
30
0
41
1
10
221.403850862007
20
1.46074328288287
30
0
41
1
10
221.464437169535
20
1.53383042848003
30
0
41
1
10
221.592551409566
20
1.68330141764693
30
0
41
1
10
221.660326114167
20
1.75994134204382
30
0
41
1
10
221.870834845093
20
1.99100888858422
30
0
41
1
10
222.021425571126
20
2.14752943424722
30
0
41
1
10
222.262236368501
20
2.38470687772545
30
0
41
1
10
222.34499676948
20
2.46416681305769
30
0
41
1
10
222.515584597897
20
2.62360745820078
30
0
41
1
10
222.603358851793
20
2.70347948393027
30
0
41
1
10
222.870858948174
20
2.93989907380012
30
0
41
1
10
223.056165132795
20
3.09416041236182
30
0
41
1
10
223.247374381038
20
3.24559631904421
30
0
0
SPLINE
5
131
100
AcDbEntity
8
1
62
256
6
ByLayer
370
18
48
1
60
0
100
AcDbSpline
70
4
71
3
72
10
73
6
40
0
40
0
40
0
40
0
40
0.5
40
0.5
40
1
40
1
40
1
40
1
41
1
10
205.132215617576
20
7.81250655699176
30
0
41
1
10
205.077438320357
20
7.7437085717541
30
0
41
1
10
205.019188761995
20
7.67852717041711
30
0
41
1
10
204.894577976448
20
7.5566145475959
30
0
41
1
10
204.827818307696
20
7.49965591343374
30
0
41
1
10
204.757886295096
20
7.44872818074185
30
0
0
SPLINE
5
132
100
AcDbEntity
8
1
62
256
6
ByLayer
370
18
48
1
60
0
100
AcDbSpline
70
4
71
3
72
8
73
4
40
0
40
0
40
0
40
0
40
1
40
1
40
1
40
1
41
1
10
15.7487441069214
20
-8.86365735896339
30
0
41
1
10
15.720536994569
20
-8.86640428184629
30
0
41
1
10
15.6922995219479
20
-8.86908714334353
30
0
41
1
10
15.6640324421665
20
-8.87170652346896
30
0
0
SPLINE
5
133
100
AcDbEntity
8
1
62
256
6
ByLayer
370
18
48
1
60
0
100
AcDbSpline
70
4
71
3
72
8
73
4
40
0
40
0
40
0
40
0
40
1
40
1
40
1
40
1
41
1
10
222.645506813724
20
9.35000458254311
30
0
41
1
10
222.689898098335
20
9.35014341892594
30
0
41
1
10
222.734909847127
20
9.34823709510459
30
0
41
1
10
222.780533424617
20
9.34431407516865
30
0
0
SPLINE
5
134
100
AcDbEntity
8
1
62
256
6
ByLayer
370
18
48
1
60
0
100
AcDbSpline
70
4
71
3
72
11
73
7
40
0
40
0
40
0
40
0
40
0.2540480087013
40
0.505395349897717
40
0.75404499171548
40
1
40
1
40
1
40
1
41
1
10
219.245402134891
20
-3.60740609377331
30
0
41
1
10
219.224129980365
20
-3.5579756849269
30
0
41
1
10
219.1818118058
20
-3.45964033916991
30
0
41
1
10
219.11936540237
20
-3.3113544527111
30
0
41
1
10
219.058058014012
20
-3.16367058083057
30
0
41
1
10
219.017887711682
20
-3.0648092429613
30
0
41
1
10
218.997911985533
20
-3.01564787504933
30
0
0
SPLINE
5
135
100
AcDbEntity
8
1
62
256
6
ByLayer
370
18
48
1
60
0
100
AcDbSpline
70
4
71
4
72
10
73
5
40
0
40
0
40
0
40
0
40
0
40
1
40
1
40
1
40
1
40
1
41
1
10
214.1
20
9.24546565663363
30
0
41
1
10
214.1
20
8.72705590675798
30
0
41
1
10
214.1
20
8.20864615688234
30
0
41
1
10
214.1
20
7.69023640700669
30
0
41
1
10
214.1
20
7.17182665713105
30
0
0
SPLINE
5
136
100
AcDbEntity
8
1
62
256
6
ByLayer
370
18
48
1
60
0
100
AcDbSpline
70
4
71
3
72
56
73
52
40
0
40
0
40
0
40
0
40
0.0686623453153472
40
0.0686623453153472
40
0.102993517973021
40
0.102993517973021
40
0.120159104301858
40
0.120159104301858
40
0.137324690630696
40
0.137324690630696
40
0.205987035946047
40
0.205987035946047
40
0.223152622274885
40
0.223152622274885
40
0.240318208603722
40
0.240318208603722
40
0.274649381261397
40
0.274649381261397
40
0.343311726576746
40
0.343311726576746
40
0.37764289923442
40
0.37764289923442
40
0.411974071892095
40
0.411974071892095
40
0.480636417207444
40
0.480636417207444
40
0.514967589865118
40
0.514967589865118
40
0.532133176193955
40
0.532133176193955
40
0.549298762522793
40
0.549298762522793
40
0.617961107838142
40
0.617961107838142
40
0.652292280495816
40
0.652292280495816
40
0.68662345315349
40
0.68662345315349
40
0.755285798468839
40
0.755285798468839
40
0.789616971126514
40
0.789616971126514
40
0.806782557455352
40
0.806782557455352
40
0.823948143784189
40
0.823948143784189
40
0.892610489099539
40
0.892610489099539
40
0.961272834414889
40
0.961272834414889
40
1
40
1
40
1
40
1
41
1
10
203.758137004304
20
-7.45870488190005
30
0
41
1
10
201.869331478154
20
-7.04340763099157
30
0
41
1
10
199.984659830255
20
-6.56540051898736
30
0
41
1
10
197.157486044992
20
-5.76364421835677
30
0
41
1
10
196.214206752388
20
-5.48216344729283
30
0
41
1
10
194.801968990535
20
-5.04345297800268
30
0
41
1
10
194.331563449984
20
-4.89444244794115
30
0
41
1
10
193.391208503433
20
-4.59140109925178
30
0
41
1
10
192.921578180091
20
-4.43658774042558
30
0
41
1
10
190.567833858094
20
-3.66635394286143
30
0
41
1
10
188.688112749145
20
-3.01172811543364
30
0
41
1
10
186.335153385094
20
-2.16295692760534
30
0
41
1
10
185.864379560133
20
-1.99172564690846
30
0
41
1
10
184.922176526643
20
-1.64706720788226
30
0
41
1
10
184.450492679437
20
-1.47354722111541
30
0
41
1
10
183.036524372501
20
-0.951651838470383
30
0
41
1
10
182.095118044209
20
-0.601912301731971
30
0
41
1
10
179.272052255763
20
0.44578601760449
30
0
41
1
10
177.392422308986
20
1.14462840263079
30
0
41
1
10
174.569722922373
20
2.17479027253165
30
0
41
1
10
173.628196986861
20
2.51493236570272
30
0
41
1
10
171.7420557625
20
3.18379488034353
30
0
41
1
10
170.799789202441
20
3.51157987677877
30
0
41
1
10
167.975628810682
20
4.46707553807155
30
0
41
1
10
166.095948878696
20
5.06975341097024
30
0
41
1
10
163.274221044147
20
5.90599379024414
30
0
41
1
10
162.333194593292
20
6.17323974277684
30
0
41
1
10
160.91960369873
20
6.55385542629779
30
0
41
1
10
160.447816811109
20
6.6774110785291
30
0
41
1
10
159.505013394237
20
6.91684012433927
30
0
41
1
10
159.033905232148
20
7.03273686849874
30
0
41
1
10
156.679299901478
20
7.59236674655099
30
0
41
1
10
154.799398975771
20
7.97801105282556
30
0
41
1
10
151.978403116583
20
8.45290150391457
30
0
41
1
10
151.037798814588
20
8.59379301157537
30
0
41
1
10
149.154209731739
20
8.83850645143156
30
0
41
1
10
148.210319632504
20
8.9423514115048
30
0
41
1
10
145.38319377781
20
9.19501499816184
30
0
41
1
10
143.502906280265
20
9.28622295247214
30
0
41
1
10
140.682372479752
20
9.30472260238588
30
0
41
1
10
139.74209715153
20
9.29111730365145
30
0
41
1
10
138.330163347468
20
9.24101798010153
30
0
41
1
10
137.8592637179
20
9.21937511507124
30
0
41
1
10
136.916701848531
20
9.16628275200443
30
0
41
1
10
136.444803564999
20
9.13481436298886
30
0
41
1
10
134.087305855901
20
8.95362501592913
30
0
41
1
10
132.206460169979
20
8.73198468860346
30
0
41
1
10
128.446045045794
20
8.143358340905
30
0
41
1
10
126.566211428285
20
7.77609894236531
30
0
41
1
10
123.614809748778
20
7.10411298576744
30
0
41
1
10
122.552104812604
20
6.84248187447767
30
0
41
1
10
121.490413544269
20
6.56317640870313
30
0
0
SPLINE
5
137
100
AcDbEntity
8
1
62
256
6
ByLayer
370
18
48
1
60
0
100
AcDbSpline
70
4
71
3
72
28
73
24
40
0
40
0
40
0
40
0
40
0.0004997437863953
40
0.0004997437863953
40
0.143285494674056
40
0.143285494674056
40
0.214678370117885
40
0.214678370117885
40
0.286071245561715
40
0.286071245561715
40
0.428856996449374
40
0.428856996449374
40
0.500249871893203
40
0.500249871893203
40
0.535946309615118
40
0.535946309615118
40
0.571642747337032
40
0.571642747337032
40
0.714428498224688
40
0.714428498224688
40
0.857214249112344
40
0.857214249112344
40
1
40
1
40
1
40
1
41
1
10
62.5699463634775
20
-9.29998887046921
30
0
41
1
10
62.5633562365416
20
-9.29998507608667
30
0
41
1
10
62.5567661665202
20
-9.29998031137262
30
0
41
1
10
60.6672913085426
20
-9.29833596638116
30
0
41
1
10
58.7890154091642
20
-9.21693731980798
30
0
41
1
10
55.9670567615012
20
-8.97984136325536
30
0
41
1
10
55.0257579874526
20
-8.88173504972494
30
0
41
1
10
53.1411062864417
20
-8.6477847182752
30
0
41
1
10
52.1969920414956
20
-8.51181842721675
30
0
41
1
10
49.3711008265123
20
-8.05061412008314
30
0
41
1
10
47.4924820841451
20
-7.67136542141836
30
0
41
1
10
44.6710671786175
20
-7.01262804400835
30
0
41
1
10
43.7301199331521
20
-6.77802211925521
30
0
41
1
10
42.3174220917477
20
-6.40452691985098
30
0
41
1
10
41.8462950511954
20
-6.27645501850441
30
0
41
1
10
40.9034263287038
20
-6.01343304565114
30
0
41
1
10
40.4315080671467
20
-5.87842712858853
30
0
41
1
10
38.0760415888662
20
-5.18873569161673
30
0
41
1
10
36.200460103505
20
-4.58866553272688
30
0
41
1
10
32.4518600125871
20
-3.32896915844603
30
0
41
1
10
30.5783967457619
20
-2.67081514908333
30
0
41
1
10
26.8286561425175
20
-1.3093728039909
30
0
41
1
10
24.9522155928808
20
-0.606213638708113
30
0
41
1
10
23.0672646043157
20
0.101114807934437
30
0
0
SPLINE
5
138
100
AcDbEntity
8
1
62
256
6
ByLayer
370
18
48
1
60
0
100
AcDbSpline
70
4
71
3
72
12
73
8
40
0
40
0
40
0
40
0
40
0.5
40
0.5
40
0.75
40
0.75
40
1
40
1
40
1
40
1
41
1
10
203.907273610018
20
7.06694293872135
30
0
41
1
10
204.061258075895
20
7.09990338889006
30
0
41
1
10
204.209128293763
20
7.14840235511781
30
0
41
1
10
204.42201752062
20
7.24397330479118
30
0
41
1
10
204.491487507344
20
7.27964580719916
30
0
41
1
10
204.627399420672
20
7.35868182776508
30
0
41
1
10
204.693845209817
20
7.40209049435103
30
0
41
1
10
204.757886295095
20
7.44872818074251
30
0
0
SPLINE
5
139
100
AcDbEntity
8
1
62
256
6
ByLayer
370
18
48
1
60
0
100
AcDbSpline
70
4
71
3
72
8
73
4
40
0
40
0
40
0
40
0
40
1
40
1
40
1
40
1
41
1
10
203.758137004303
20
7.45870488190002
30
0
41
1
10
202.537019039624
20
7.19021406760214
30
0
41
1
10
201.317628894692
20
6.89551267577656
30
0
41
1
10
200.098819568924
20
6.57627949726262
30
0
0
SPLINE
5
13A
100
AcDbEntity
8
1
62
256
6
ByLayer
370
18
48
1
60
0
100
AcDbSpline
70
4
71
3
72
64
73
60
40
0
40
0
40
0
40
0
40
0.024035429217211
40
0.024035429217211
40
0.0384106806872006
40
0.0384106806872006
40
0.0527859321571901
40
0.0527859321571901
40
0.110286938037148
40
0.110286938037148
40
0.167787943917106
40
0.167787943917106
40
0.225288949797064
40
0.225288949797064
40
0.282789955677022
40
0.282789955677022
40
0.297165207147011
40
0.297165207147011
40
0.311540458617
40
0.311540458617
40
0.340290961556978
40
0.340290961556978
40
0.397791967436933
40
0.397791967436933
40
0.426542470376911
40
0.426542470376911
40
0.455292973316889
40
0.455292973316889
40
0.512793979196845
40
0.512793979196845
40
0.527169230666834
40
0.527169230666834
40
0.541544482136824
40
0.541544482136824
40
0.570294985076803
40
0.570294985076803
40
0.627795990956761
40
0.627795990956761
40
0.65654649389674
40
0.65654649389674
40
0.68529699683672
40
0.68529699683672
40
0.742798002716679
40
0.742798002716679
40
0.771548505656659
40
0.771548505656659
40
0.785923757126648
40
0.785923757126648
40
0.800299008596638
40
0.800299008596638
40
0.857800014476597
40
0.857800014476597
40
0.886550517416577
40
0.886550517416577
40
0.915301020356557
40
0.915301020356557
40
0.972802026236516
40
0.972802026236516
40
1
40
1
40
1
40
1
41
1
10
141.159971828227
20
-9.2999945455517
30
0
41
1
10
140.373935475974
20
-9.29972768851326
30
0
41
1
10
139.587726009067
20
-9.28563978778581
30
0
41
1
10
138.330163347468
20
-9.24101798010153
30
0
41
1
10
137.8592637179
20
-9.21937511507124
30
0
41
1
10
136.916701848531
20
-9.16628275200443
30
0
41
1
10
136.444803564998
20
-9.13481436298883
30
0
41
1
10
134.087305855901
20
-8.95362501592913
30
0
41
1
10
132.206460169978
20
-8.73198468860346
30
0
41
1
10
128.446045045794
20
-8.14335834090497
30
0
41
1
10
126.566211428285
20
-7.77609894236531
30
0
41
1
10
122.792096813488
20
-6.91679468793484
30
0
41
1
10
120.910192982506
20
-6.42648261969217
30
0
41
1
10
117.149717145422
20
-5.34262857161818
30
0
41
1
10
115.27055328018
20
-4.74915852307038
30
0
41
1
10
112.913448458274
20
-3.9645753993486
30
0
41
1
10
112.44142070935
20
-3.80542363078249
30
0
41
1
10
111.49839083253
20
-3.48349924232676
30
0
41
1
10
111.027226229566
20
-3.3206916269871
30
0
41
1
10
109.614557038339
20
-2.82732056755864
30
0
41
1
10
108.673880645834
20
-2.49179903494917
30
0
41
1
10
105.853241220783
20
-1.47040440196696
30
0
41
1
10
103.974601293194
20
-0.769775967074281
30
0
41
1
10
101.147901729265
20
0.279844020054213
30
0
41
1
10
100.20354702735
20
0.630132265077776
30
0
41
1
10
98.3189337770052
20
1.3259745299934
30
0
41
1
10
97.3779015681581
20
1.67165728228878
30
0
41
1
10
94.5567126493149
20
2.69679223127673
30
0
41
1
10
92.6784051908236
20
3.36402193482854
30
0
41
1
10
90.3241166190654
20
4.15345089107603
30
0
41
1
10
89.8529541366005
20
4.30915546323121
30
0
41
1
10
88.9099902681204
20
4.61612519322387
30
0
41
1
10
88.4379855093627
20
4.7674356821411
30
0
41
1
10
87.0236061524793
20
5.21319694295443
30
0
41
1
10
86.0821356821331
20
5.49972925139392
30
0
41
1
10
83.2601591444036
20
6.32309233597465
30
0
41
1
10
81.3820387005973
20
6.82320747342331
30
0
41
1
10
78.5582140695776
20
7.47856368708557
30
0
41
1
10
77.615935409737
20
7.68154117806122
30
0
41
1
10
75.7287038268052
20
8.05507106811604
30
0
41
1
10
74.7867088671712
20
8.22492677159377
30
0
41
1
10
71.9636767631184
20
8.68126539404486
30
0
41
1
10
70.0855514818567
20
8.91395835513364
30
0
41
1
10
67.262775357075
20
9.14623489733009
30
0
41
1
10
66.3210363131707
20
9.20442461548367
30
0
41
1
10
64.906626947398
20
9.26242773676074
30
0
41
1
10
64.4346694013499
20
9.27687074531045
30
0
41
1
10
63.4919078274898
20
9.29584300086822
30
0
41
1
10
63.0208973643528
20
9.30038422879304
30
0
41
1
10
60.6672913085426
20
9.29833596638116
30
0
41
1
10
58.7890154091643
20
9.21693731980798
30
0
41
1
10
55.9670567615013
20
8.97984136325539
30
0
41
1
10
55.0257579874525
20
8.88173504972494
30
0
41
1
10
53.1411062864417
20
8.64778471827523
30
0
41
1
10
52.1969920414956
20
8.51181842721678
30
0
41
1
10
49.3711008265124
20
8.05061412008314
30
0
41
1
10
47.4924820841452
20
7.67136542141839
30
0
41
1
10
44.7218527129202
20
7.02448533221198
30
0
41
1
10
43.8317409808523
20
6.80331577379866
30
0
41
1
10
42.9408855492096
20
6.5692368617766
30
0
0
SPLINE
5
13B
100
AcDbEntity
8
1
62
256
6
ByLayer
370
18
48
1
60
0
100
AcDbSpline
70
4
71
3
72
12
73
8
40
0
40
0
40
0
40
0
40
0.5
40
0.5
40
0.75
40
0.75
40
1
40
1
40
1
40
1
41
1
10
205.136815055095
20
-7.96732349879099
30
0
41
1
10
206.612654689527
20
-8.27511884840405
30
0
41
1
10
208.08670908002
20
-8.53269029907921
30
0
41
1
10
210.301975268797
20
-8.83775768372138
30
0
41
1
10
211.041584672221
20
-8.92592987363454
30
0
41
1
10
212.521140678043
20
-9.07458552209346
30
0
41
1
10
213.260566671261
20
-9.13505642292137
30
0
41
1
10
214
20
-9.18171718729801
30
0
0
SPLINE
5
13C
100
AcDbEntity
8
1
62
256
6
ByLayer
370
18
48
1
60
0
100
AcDbSpline
70
4
71
3
72
14
73
10
40
0
40
0
40
0
40
0
40
0.25
40
0.25
40
0.5
40
0.5
40
0.75
40
0.75
40
1
40
1
40
1
40
1
41
1
10
225.779871749513
20
0.889853658666254
30
0
41
1
10
225.747321372789
20
1.02742450335879
30
0
41
1
10
225.707035327066
20
1.18405568653063
30
0
41
1
10
225.612603796342
20
1.52917214437392
30
0
41
1
10
225.558461076711
20
1.71764718774585
30
0
41
1
10
225.438489811097
20
2.11888363964638
30
0
41
1
10
225.372664499421
20
2.33163423124233
30
0
41
1
10
225.231970416094
20
2.77288079664373
30
0
41
1
10
225.157106777657
20
3.00136088202535
30
0
41
1
10
225.07922146229
20
3.233135058832
30
0
0
SPLINE
5
13D
100
AcDbEntity
8
1
62
256
6
ByLayer
370
18
48
1
60
0
100
AcDbSpline
70
4
71
3
72
12
73
8
40
0
40
0
40
0
40
0
40
0.5
40
0.5
40
0.75
40
0.75
40
1
40
1
40
1
40
1
41
1
10
205.136815055095
20
7.96732349879096
30
0
41
1
10
206.612654689527
20
8.27511884840402
30
0
41
1
10
208.08670908002
20
8.53269029907921
30
0
41
1
10
210.301975268797
20
8.83775768372138
30
0
41
1
10
211.041584672221
20
8.92592987363454
30
0
41
1
10
212.521140678043
20
9.07458552209346
30
0
41
1
10
213.260566671261
20
9.13505642292139
30
0
41
1
10
214
20
9.18171718729801
30
0
0
SPLINE
5
13E
100
AcDbEntity
8
1
62
256
6
ByLayer
370
18
48
1
60
0
100
AcDbSpline
70
4
71
3
72
9
73
5
40
0
40
0
40
0
40
0
40
0.502168239596854
40
1
40
1
40
1
40
1
41
1
10
219.778414231417
20
1.30981201785875
30
0
41
1
10
219.383972493134
20
1.35549045058363
30
0
41
1
10
218.59849522241
20
1.44645285944
30
0
41
1
10
217.813220478113
20
1.53913960979875
30
0
41
1
10
217.422329649054
20
1.58565285658312
30
0
0
SPLINE
5
13F
100
AcDbEntity
8
1
62
256
6
ByLayer
370
18
48
1
60
0
100
AcDbSpline
70
4
71
3
72
12
73
8
40
0
40
0
40
0
40
0
40
0.5
40
0.5
40
0.75
40
0.75
40
1
40
1
40
1
40
1
41
1
10
21.5057808698772
20
0.204044663401675
30
0
41
1
10
21.734640933631
20
0.20688915473977
30
0
41
1
10
21.9667520595517
20
0.18845227450916
30
0
41
1
10
22.321701029259
20
0.126878464903939
30
0
41
1
10
22.4416816994167
20
0.100433956851788
30
0
41
1
10
22.6782275005671
20
0.0367291585010037
30
0
41
1
10
22.7954410094797
20
-0.0005941982238653
30
0
41
1
10
22.9115784658791
20
-0.043619923432459
30
0
0
SPLINE
5
140
100
AcDbEntity
8
1
62
256
6
ByLayer
370
18
48
1
60
0
100
AcDbSpline
70
4
71
3
72
8
73
4
40
0
40
0
40
0
40
0
40
1
40
1
40
1
40
1
41
1
10
19.2115989079801
20
-8.10906986358856
30
0
41
1
10
19.2935028880684
20
-8.11018678495969
30
0
41
1
10
19.3750657435904
20
-8.11633602227244
30
0
41
1
10
19.4562656805226
20
-8.12723238755592
30
0
0
SPLINE
5
141
100
AcDbEntity
8
1
62
256
6
ByLayer
370
18
48
1
60
0
100
AcDbSpline
70
4
71
3
72
22
73
18
40
0
40
0
40
0
40
0
40
0.0065428016499344
40
0.114328540701502
40
0.150257120385359
40
0.222114279753071
40
0.293971439120784
40
0.401757178172352
40
0.437685757856208
40
0.509542917223921
40
0.581400076591633
40
0.689185815643201
40
0.725114395327057
40
0.796971554694768
40
0.868828714062482
40
0.976614453114049
40
1
40
1
40
1
40
1
41
1.00000000000001
10
108.750318404244
20
-0.0098582030370266
30
0
41
1.00000000000001
10
108.836040124884
20
-0.0398844593617295
30
0
41
1.00000000000001
10
110.333914791231
20
-0.564541091688109
30
0
41
1.00000000000001
10
112.301934475682
20
-1.25287954080442
30
0
41
1.00000000000001
10
115.126157058305
20
-2.21946858939161
30
0
41
1.00000000000001
10
117.480318048491
20
-3.01181317930506
30
0
41
1.00000000000001
10
120.774188658301
20
-4.08257379167654
30
0
41
1.00000000000001
10
123.594929490735
20
-4.94111089956265
30
0
41
1.00000000000001
10
126.4166790916
20
-5.72669948793261
30
0
41
1.00000000000001
10
128.770150706198
20
-6.33196786905837
30
0
41
1.00000000000001
10
132.065493676814
20
-7.08627725555869
30
0
41
1.00000000000001
10
134.888804767465
20
-7.62719101031692
30
0
41
1.00000000000001
10
137.71290651703
20
-8.06703634886193
30
0
41
1.00000000000001
10
140.067026910929
20
-8.36481843745911
30
0
41
1.00000000000001
10
143.36094769635
20
-8.66022124918455
30
0
41
1.00000000000001
10
146.017685844123
20
-8.7784155074884
30
0
41
1.00000000000001
10
147.734717620306
20
-8.79225499186329
30
0
41
1.00000000000001
10
148.04087820366
20
-8.79261174248429
30
0
0
SPLINE
5
142
100
AcDbEntity
8
1
62
256
6
ByLayer
370
18
48
1
60
0
100
AcDbSpline
70
4
71
3
72
8
73
4
40
0
40
0
40
0
40
0
40
1
40
1
40
1
40
1
41
1
10
214.23731835042
20
-9.03138695653936
30
0
41
1
10
214.23731835042
20
-9.09428643092204
30
0
41
1
10
214.23731835042
20
-9.14794807652811
30
0
41
1
10
214.23731835042
20
-9.19237545992905
30
0
0
SPLINE
5
143
100
AcDbEntity
8
1
62
256
6
ByLayer
370
18
48
1
60
0
100
AcDbSpline
70
4
71
3
72
12
73
8
40
0
40
0
40
0
40
0
40
0.5
40
0.5
40
0.75
40
0.75
40
1
40
1
40
1
40
1
41
1
10
205.392686578919
20
6.73584170096964
30
0
41
1
10
205.45933177123
20
6.91519646442143
30
0
41
1
10
205.543651668948
20
7.08756841965072
30
0
41
1
10
205.697083710869
20
7.33486265308582
30
0
41
1
10
205.753079098356
20
7.41596706781741
30
0
41
1
10
205.870420597641
20
7.57104491306578
30
0
41
1
10
205.931852484477
20
7.64531635361405
30
0
41
1
10
205.995511761099
20
7.71696368596025
30
0
0
SPLINE
5
144
100
AcDbEntity
8
1
62
256
6
ByLayer
370
13
48
1
60
0
100
AcDbSpline
70
4
71
3
72
16
73
12
40
0
40
0
40
0
40
0
40
0.246898209602727
40
0.37034731440409
40
0.432071866804772
40
0.493796419205454
40
0.74069462880818
40
0.802419181208862
40
0.864143733609544
40
0.987592838410907
40
1
40
1
40
1
40
1
41
1
10
214.1
20
7.17182665713105
30
0
41
1
10
214.905012431487
20
7.20390278528822
30
0
41
1
10
216.112390722884
20
7.2223303785016
30
0
41
1
10
217.520280774564
20
7.19899113086436
30
0
41
1
10
218.324960612077
20
7.1752806189306
30
0
41
1
10
219.532425215962
20
7.12751453833522
30
0
41
1
10
220.739553551303
20
7.04531567518654
30
0
41
1
10
221.946335813424
20
6.93399579726804
30
0
41
1
10
222.751163000263
20
6.85327337389754
30
0
41
1
10
223.395236414491
20
6.77808242175601
30
0
41
1
10
223.838071796241
20
6.72153155841528
30
0
41
1
10
223.878513767176
20
6.71632689532674
30
0
0
SPLINE
5
145
100
AcDbEntity
8
1
62
256
6
ByLayer
370
18
48
1
60
0
100
AcDbSpline
70
4
71
3
72
52
73
48
40
0
40
0
40
0
40
0
40
0.074679678145265
40
0.074679678145265
40
0.115354878808073
40
0.115354878808073
40
0.135692479139476
40
0.135692479139476
40
0.15603007947088
40
0.15603007947088
40
0.176367679802284
40
0.176367679802284
40
0.196705280133688
40
0.196705280133688
40
0.237380480796494
40
0.237380480796494
40
0.318730882122108
40
0.318730882122108
40
0.359406082784915
40
0.359406082784915
40
0.400081283447722
40
0.400081283447722
40
0.481431684773335
40
0.481431684773335
40
0.501769285104738
40
0.501769285104738
40
0.522106885436141
40
0.522106885436141
40
0.562782086098947
40
0.562782086098947
40
0.644132487424559
40
0.644132487424559
40
0.684807688087364
40
0.684807688087364
40
0.725482888750169
40
0.725482888750169
40
0.80683329007578
40
0.80683329007578
40
0.888183691401391
40
0.888183691401391
40
0.908521291732793
40
0.908521291732793
40
0.928858892064196
40
0.928858892064196
40
0.969534092727002
40
0.969534092727002
40
1
40
1
40
1
40
1
41
1
10
199.74916623909
20
-6.48781700383813
30
0
41
1
10
198.021461440567
20
-6.84925478269489
30
0
41
1
10
196.295965048523
20
-7.16098458540066
30
0
41
1
10
193.627686633288
20
-7.55637793595275
30
0
41
1
10
192.685682362032
20
-7.67913024094884
30
0
41
1
10
191.273062066544
20
-7.83731161813057
30
0
41
1
10
190.802281351036
20
-7.88572794879934
30
0
41
1
10
189.86074750385
20
-7.97400040413012
30
0
41
1
10
189.389969617782
20
-8.01342943927739
30
0
41
1
10
188.448416795259
20
-8.08585517945008
30
0
41
1
10
187.977655866409
20
-8.11880330207123
30
0
41
1
10
187.035878580094
20
-8.17527679633699
30
0
41
1
10
186.564885574844
20
-8.19923478289482
30
0
41
1
10
185.151393084139
20
-8.25820543240386
30
0
41
1
10
184.208198813124
20
-8.28031074129191
30
0
41
1
10
181.380977322976
20
-8.29403329501824
30
0
41
1
10
179.497289358519
20
-8.2334617913443
30
0
41
1
10
176.667571247362
20
-8.04028331773014
30
0
41
1
10
175.725010451719
20
-7.9587038019223
30
0
41
1
10
173.842355046646
20
-7.76208047082622
30
0
41
1
10
172.901898473408
20
-7.64713865222154
30
0
41
1
10
170.081300740519
20
-7.25439256237087
30
0
41
1
10
168.20184663689
20
-6.92861594011407
30
0
41
1
10
165.848118726531
20
-6.45133231275091
30
0
41
1
10
165.377160279046
20
-6.35237653825192
30
0
41
1
10
164.434655081814
20
-6.14761879503459
30
0
41
1
10
163.962876932405
20
-6.04175955920829
30
0
41
1
10
162.548570198923
20
-5.71488565392244
30
0
41
1
10
161.606991997577
20
-5.48458018420021
30
0
41
1
10
158.78430265176
20
-4.76070599300255
30
0
41
1
10
156.905153432099
20
-4.23427832706591
30
0
41
1
10
154.08363985734
20
-3.39718848904789
30
0
41
1
10
153.142695392483
20
-3.11017096564063
30
0
41
1
10
151.258694926361
20
-2.52329894549842
30
0
41
1
10
150.314855452447
20
-2.22321885882815
30
0
41
1
10
147.488314284359
20
-1.31233401061416
30
0
41
1
10
145.608286889484
20
-0.690475125016235
30
0
41
1
10
141.847828088968
20
0.554732985092443
30
0
41
1
10
139.967506084691
20
1.17842641404394
30
0
41
1
10
137.610898972223
20
1.94079125714833
30
0
41
1
10
137.13908118378
20
2.09244879590378
30
0
41
1
10
136.196378578873
20
2.39302631542088
30
0
41
1
10
135.725331153744
20
2.54199943438016
30
0
41
1
10
134.312880443721
20
2.98438299374993
30
0
41
1
10
133.372164133662
20
3.27323158840241
30
0
41
1
10
131.727510081017
20
3.76527256185477
30
0
41
1
10
131.023414242803
20
3.9717514763133
30
0
41
1
10
130.319284322837
20
4.17331223138836
30
0
0
SPLINE
5
146
100
AcDbEntity
8
1
62
256
6
ByLayer
370
18
48
1
60
0
100
AcDbSpline
70
4
71
3
72
18
73
14
40
0
40
0
40
0
40
0
40
0.0215264321829773
40
0.0215264321829773
40
0.266144824137232
40
0.266144824137232
40
0.388454020114359
40
0.388454020114359
40
0.510763216091487
40
0.510763216091487
40
0.755381608045743
40
0.755381608045743
40
1
40
1
40
1
40
1
41
1
10
42.5541718819255
20
-6.46793066451716
30
0
41
1
10
42.3883746596531
20
-6.50228737199743
30
0
41
1
10
42.2226062588951
20
-6.53621560374245
30
0
41
1
10
40.1734279933618
20
-6.9503411758144
30
0
41
1
10
38.2934084510876
20
-7.27453221256923
30
0
41
1
10
35.4710173647886
20
-7.66576523859032
30
0
41
1
10
34.5298102061352
20
-7.78032705754259
30
0
41
1
10
32.6454278700202
20
-7.97733698422803
30
0
41
1
10
31.701502665411
20
-8.05983299662222
30
0
41
1
10
28.8730650037346
20
-8.2587520179068
30
0
41
1
10
26.9909154731547
20
-8.32735597432321
30
0
41
1
10
23.2262451466178
20
-8.33080288131805
30
0
41
1
10
21.3436084342561
20
-8.26430916400676
30
0
41
1
10
19.4562656805131
20
-8.12723238755521
30
0
0
SPLINE
5
147
100
AcDbEntity
8
1
62
256
6
ByLayer
370
18
48
1
60
0
100
AcDbSpline
70
4
71
3
72
8
73
4
40
0
40
0
40
0
40
0
40
1
40
1
40
1
40
1
41
1
10
203.907273615898
20
7.0669429399799
30
0
41
1
10
203.870825306649
20
6.5853084267128
30
0
41
1
10
203.812255905872
20
6.12610599715941
30
0
41
1
10
203.733561467285
20
5.7041274982567
30
0
0
SPLINE
5
148
100
AcDbEntity
8
1
62
256
6
ByLayer
370
18
48
1
60
0
100
AcDbSpline
70
4
71
3
72
33
73
29
40
0
40
0
40
0
40
0
40
0.0319360472956202
40
0.063676439628444
40
0.0952215566286058
40
0.126571785021352
40
0.157727518790328
40
0.188689159345109
40
0.219457115693051
40
0.250031804615588
40
0.280413650849106
40
0.310603087270481
40
0.340600555087429
40
0.370406504033772
40
0.40002139256975
40
0.429445688087516
40
0.458679867121908
40
0.487724415566676
40
0.516579828896252
40
0.545246612393228
40
0.603538049165762
40
0.661406621659009
40
0.718856883085953
40
0.775893486849474
40
0.832521188338889
40
0.888744846707244
40
0.944569426624318
40
1
40
1
40
1
40
1
41
1
10
220.332230868201
20
-7.46582946539641
30
0
41
1
10
220.317289123207
20
-7.43460819481979
30
0
41
1
10
220.287497173244
20
-7.37235692957728
30
0
41
1
10
220.243620525839
20
-7.27653045481949
30
0
41
1
10
220.200513796109
20
-7.17934244283222
30
0
41
1
10
220.158224464449
20
-7.08065379758827
30
0
41
1
10
220.116739925758
20
-6.98057436122238
30
0
41
1
10
220.076063526035
20
-6.87914728001277
30
0
41
1
10
220.036194376859
20
-6.77643276660496
30
0
41
1
10
219.997132713859
20
-6.67248583622398
30
0
41
1
10
219.958878474284
20
-6.56736218965193
30
0
41
1
10
219.92143167464
20
-6.4611166260207
30
0
41
1
10
219.884792310233
20
-6.35380343944865
30
0
41
1
10
219.848960382633
20
-6.24547629129842
30
0
41
1
10
219.813935889446
20
-6.13618821923319
30
0
41
1
10
219.779718837882
20
-6.02599162438659
30
0
41
1
10
219.746309201042
20
-5.91493821657468
30
0
41
1
10
219.713707077785
20
-5.80307915263074
30
0
41
1
10
219.681912102339
20
-5.69046445624971
30
0
41
1
10
219.640183959539
20
-5.53786219673168
30
0
41
1
10
219.589550395115
20
-5.34340880969478
30
0
41
1
10
219.531391262117
20
-5.10473646954733
30
0
41
1
10
219.47621218363
20
-4.86250269549379
30
0
41
1
10
219.424018078114
20
-4.61701128151574
30
0
41
1
10
219.374790505241
20
-4.36859127642552
30
0
41
1
10
219.328597684708
20
-4.11745374665307
30
0
41
1
10
219.285187753804
20
-3.86422785380736
30
0
41
1
10
219.258629883351
20
-3.6927925193003
30
0
41
1
10
219.245397975046
20
-3.60737841840401
30
0
0
SPLINE
5
149
100
AcDbEntity
8
1
62
256
6
ByLayer
370
18
48
1
60
0
100
AcDbSpline
70
4
71
2
72
6
73
3
40
0
40
0
40
0
40
1
40
1
40
1
41
1
10
217.777863707665
20
1.2088190938976
30
0
41
1
10
217.990245074723
20
0.316993822536318
30
0
41
1
10
218.268074863172
20
-0.58013571954433
30
0
0
SPLINE
5
14A
100
AcDbEntity
8
1
62
256
6
ByLayer
370
13
48
1
60
0
100
AcDbSpline
70
4
71
2
72
6
73
3
40
0
40
0
40
0
40
1
40
1
40
1
41
0.99820619967633
10
224.875922978669
20
0.924964233895379
30
0
41
0.924787257147032
10
223.891591644918
20
-0.32488251207
30
0
41
1
10
223.626447607419
20
-1.67725225825618
30
0
0
SPLINE
5
14B
100
AcDbEntity
8
1
62
256
6
ByLayer
370
18
48
1
60
0
100
AcDbSpline
70
4
71
3
72
12
73
8
40
0
40
0
40
0
40
0
40
0.418072216665311
40
0.418072216665311
40
0.709035981530852
40
0.709035981530852
40
1
40
1
40
1
40
1
41
1
10
214.099999998045
20
9.07790339606132
30
0
41
1
10
214.086564548292
20
9.0919518994092
30
0
41
1
10
214.073124906475
20
9.10599870140913
30
0
41
1
10
214.050324739522
20
9.12981876669937
30
0
41
1
10
214.040966339958
20
9.13959289142642
30
0
41
1
10
214.022245573021
20
9.15913956440184
30
0
41
1
10
214.012883203604
20
9.16891211477881
30
0
41
1
10
214.003518873851
20
9.17868388627863
30
0
0
SPLINE
5
14C
100
AcDbEntity
8
1
62
256
6
ByLayer
370
18
48
1
60
0
100
AcDbSpline
70
4
71
3
72
14
73
10
40
0
40
0
40
0
40
0
40
0.499999999999984
40
0.499999999999984
40
0.749999999999984
40
0.749999999999984
40
0.874999999999992
40
0.874999999999992
40
1
40
1
40
1
40
1
41
1
10
224.994725144962
20
3.48458250831979
30
0
41
1
10
224.801905579389
20
4.01724641482457
30
0
41
1
10
224.612114053745
20
4.55321006047271
30
0
41
1
10
224.332278654629
20
5.36244276741445
30
0
41
1
10
224.239816516155
20
5.63307657822642
30
0
41
1
10
224.102478435579
20
6.04050401408952
30
0
41
1
10
224.056870329767
20
6.17673047860308
30
0
41
1
10
223.966883670456
20
6.44746290157463
30
0
41
1
10
223.922421029834
20
6.58221581338378
30
0
41
1
10
223.878513768222
20
6.71632689213163
30
0
0
SPLINE
5
14D
100
AcDbEntity
8
1
62
256
6
ByLayer
370
18
48
1
60
0
100
AcDbSpline
70
2053
71
3
72
39
73
35
40
0
40
0
40
0
40
0
40
0.0303408064234725
40
0.0624380574137974
40
0.0936391526521847
40
0.124893171153501
40
0.156207008857961
40
0.187377970089025
40
0.219466648209087
40
0.249877137721542
40
0.280287763605959
40
0.312401846141025
40
0.343569912714633
40
0.374905512514142
40
0.406074176161834
40
0.437390282031996
40
0.46951436049792
40
0.499830513216433
40
0.530234092167253
40
0.562493627871148
40
0.593710062897002
40
0.625030385163214
40
0.656200015397579
40
0.687535043483593
40
0.719613004931178
40
0.749977766276196
40
0.780317023270468
40
0.812406788707726
40
0.843739132989236
40
0.874903404371507
40
0.9062182264083
40
0.937484848368046
40
0.969666625474538
40
1
40
1
40
1
40
1
41
1
10
210.35
20
-5.11892247978624
30
0
41
1
10
210.232096460156
20
-5.11892417820481
30
0
41
1
10
209.989463442708
20
-5.13917293430683
30
0
41
1
10
209.639741765585
20
-5.22915538890129
30
0
41
1
10
209.315615733428
20
-5.37556191665439
30
0
41
1
10
209.034211075403
20
-5.56617526016404
30
0
41
1
10
208.803151026879
20
-5.79197482116976
30
0
41
1
10
208.629345890619
20
-6.04386755257769
30
0
41
1
10
208.523630797563
20
-6.30527549404977
30
0
41
1
10
208.488639229062
20
-6.56448143050062
30
0
41
1
10
208.523078936159
20
-6.81244889193496
30
0
41
1
10
208.628308603099
20
-7.04241461142638
30
0
41
1
10
208.801744437946
20
-7.24588533023578
30
0
41
1
10
209.032271687532
20
-7.41489521865074
30
0
41
1
10
209.313461245416
20
-7.54871748368015
30
0
41
1
10
209.637541991064
20
-7.64615219077118
30
0
41
1
10
209.987596215604
20
-7.70427027065017
30
0
41
1
10
210.348343060576
20
-7.72293558371129
30
0
41
1
10
210.709699904851
20
-7.70458810021333
30
0
41
1
10
211.060364277348
20
-7.64664589782748
30
0
41
1
10
211.385254323749
20
-7.54921824273384
30
0
41
1
10
211.666330162182
20
-7.41571627806275
30
0
41
1
10
211.897470237362
20
-7.24660258357673
30
0
41
1
10
212.071156346489
20
-7.04334472398398
30
0
41
1
10
212.176656149617
20
-6.81321775409637
30
0
41
1
10
212.211317405581
20
-6.56575025810372
30
0
41
1
10
212.176782508061
20
-6.30689238752447
30
0
41
1
10
212.071441810559
20
-6.04520658797793
30
0
41
1
10
211.897869673456
20
-5.79317308569711
30
0
41
1
10
211.666874955318
20
-5.56709916639389
30
0
41
1
10
211.385783615102
20
-5.3762977193806
30
0
41
1
10
211.061050315025
20
-5.22938437001778
30
0
41
1
10
210.710806377819
20
-5.1391825755621
30
0
41
1
10
210.467874659693
20
-5.1189207817837
30
0
41
1
10
210.35
20
-5.11892247978624
30
0
0
SPLINE
5
14E
100
AcDbEntity
8
1
62
256
6
ByLayer
370
18
48
1
60
0
100
AcDbSpline
70
4
71
3
72
52
73
48
40
0
40
0
40
0
40
0
40
0.0248462646026116
40
0.0248462646026116
40
0.0684363473828129
40
0.0684363473828129
40
0.112026430163014
40
0.112026430163014
40
0.155616512943215
40
0.155616512943215
40
0.199206595723417
40
0.199206595723417
40
0.221001637113517
40
0.221001637113517
40
0.242796678503617
40
0.242796678503617
40
0.286386761283818
40
0.286386761283818
40
0.329976844064018
40
0.329976844064018
40
0.373566926844219
40
0.373566926844219
40
0.417157009624419
40
0.417157009624419
40
0.460747092404619
40
0.460747092404619
40
0.504337175184819
40
0.504337175184819
40
0.54792725796502
40
0.54792725796502
40
0.59151734074522
40
0.59151734074522
40
0.63510742352542
40
0.63510742352542
40
0.67869750630562
40
0.67869750630562
40
0.72228758908582
40
0.72228758908582
40
0.809467754646221
40
0.809467754646221
40
0.853057837426422
40
0.853057837426422
40
0.896647920206623
40
0.896647920206623
40
0.983828085767024
40
0.983828085767024
40
1
40
1
40
1
40
1
41
1
10
43.909410211273
20
6.37445059111238
30
0
41
1
10
44.4472383049598
20
6.49392803978932
30
0
41
1
10
44.9852160176464
20
6.609054317154
30
0
41
1
10
46.4676061273549
20
6.91426851497425
30
0
41
1
10
47.4110241065804
20
7.09548904926214
30
0
41
1
10
49.2953491153286
20
7.42687530137161
30
0
41
1
10
50.2365856695056
20
7.57709960535215
30
0
41
1
10
52.1186184325091
20
7.84311188467021
30
0
41
1
10
53.0594351765963
20
7.9588443460465
30
0
41
1
10
54.9419598441033
20
8.15534936934949
30
0
41
1
10
55.8837102815687
20
8.23580743928855
30
0
41
1
10
57.2976316207205
20
8.33164121930471
30
0
41
1
10
57.7691375536927
20
8.35953300586957
30
0
41
1
10
58.7127092616107
20
8.40681407269426
30
0
41
1
10
59.1849413835253
20
8.42620429899122
30
0
41
1
10
60.6001237799361
20
8.47081977700026
30
0
41
1
10
61.5422690225744
20
8.48257632258395
30
0
41
1
10
63.4253122871534
20
8.46841760375443
30
0
41
1
10
64.366230224712
20
8.44246894188231
30
0
41
1
10
66.2481722603379
20
8.35429199333248
30
0
41
1
10
67.1892321594208
20
8.29178854195078
30
0
41
1
10
69.0723551023037
20
8.13369050679356
30
0
41
1
10
70.0143362745597
20
8.03841535446657
30
0
41
1
10
71.9005335002092
20
7.8137319903299
30
0
41
1
10
72.8449116218905
20
7.68425859812547
30
0
41
1
10
74.7297701800274
20
7.39238195840167
30
0
41
1
10
75.6712058947197
20
7.22987518533188
30
0
41
1
10
77.5534264500017
20
6.87476227801315
30
0
41
1
10
78.4942406932285
20
6.68197522987643
30
0
41
1
10
80.376174131174
20
6.27020509676839
30
0
41
1
10
81.317218165384
20
6.05138680902877
30
0
41
1
10
83.2007990800079
20
5.58837568238948
30
0
41
1
10
84.1435897430465
20
5.34412472660469
30
0
41
1
10
86.0312328188658
20
4.83256340772036
30
0
41
1
10
86.9736781539218
20
4.56594565090583
30
0
41
1
10
88.8571742462087
20
4.01499607370508
30
0
41
1
10
89.798248013014
20
3.73061377309898
30
0
41
1
10
92.6208975316777
20
2.85656493659903
30
0
41
1
10
94.5014945550472
20
2.245241980365
30
0
41
1
10
97.3291564319884
20
1.30429304049855
30
0
41
1
10
98.2737248381537
20
0.986569005460666
30
0
41
1
10
100.159565364299
20
0.349869454425374
30
0
41
1
10
101.101435132706
20
0.0307956176295647
30
0
41
1
10
103.925451032726
20
-0.924580322673307
30
0
41
1
10
105.805617216571
20
-1.56032354369989
30
0
41
1
10
108.038095073024
20
-2.2919626901969
30
0
41
1
10
108.387530568095
20
-2.40578409189985
30
0
41
1
10
108.737108368569
20
-2.51885604917473
30
0
0
SPLINE
5
14F
100
AcDbEntity
8
1
62
256
6
ByLayer
370
18
48
1
60
0
100
AcDbSpline
70
4
71
3
72
8
73
4
40
0
40
0
40
0
40
0
40
1
40
1
40
1
40
1
41
1
10
200.971912444061
20
6.42714737599167
30
0
41
1
10
201.906559661743
20
6.64526304497585
30
0
41
1
10
202.84210933806
20
6.85015543974646
30
0
41
1
10
203.779109206526
20
7.04093656548696
30
0
0
SPLINE
5
150
100
AcDbEntity
8
1
62
256
6
ByLayer
370
18
48
1
60
0
100
AcDbSpline
70
4
71
3
72
8
73
4
40
0
40
0
40
0
40
0
40
1
40
1
40
1
40
1
41
1
10
223.035463135565
20
-4.49401785084535
30
0
41
1
10
223.052021014474
20
-4.4754285615254
30
0
41
1
10
223.068579826741
20
-4.456822829739
30
0
41
1
10
223.085139691509
20
-4.43819855655065
30
0
0
SPLINE
5
151
100
AcDbEntity
8
1
62
256
6
ByLayer
370
18
48
1
60
0
100
AcDbSpline
70
4
71
1
72
4
73
2
40
0
40
0
40
1
40
1
41
1
10
219.784775907503
20
1.30289335044927
30
0
41
1
10
219.778414633202
20
1.30981102306342
30
0
0
SPLINE
5
152
100
AcDbEntity
8
1
62
256
6
ByLayer
370
18
48
1
60
0
100
AcDbSpline
70
4
71
3
72
8
73
4
40
0
40
0
40
0
40
0
40
1
40
1
40
1
40
1
41
1
10
217.646701848914
20
1.2149931845008
30
0
41
1
10
217.690422532183
20
1.21277751031798
30
0
41
1
10
217.734143243331
20
1.21071834453724
30
0
41
1
10
217.777864029183
20
1.20881604911713
30
0
0
SPLINE
5
153
100
AcDbEntity
8
1
62
256
6
ByLayer
370
18
48
1
60
0
100
AcDbSpline
70
2053
71
3
72
39
73
35
40
0
40
0
40
0
40
0
40
0.0311904138106383
40
0.0622748188688763
40
0.0934626374573618
40
0.12474443637708
40
0.155928888372217
40
0.187334725030303
40
0.218594100709936
40
0.250022324710466
40
0.281410023454137
40
0.312723618239666
40
0.344132049341957
40
0.375321752631499
40
0.406608933868477
40
0.437746631854594
40
0.468969837904033
40
0.500168772205916
40
0.53123809686672
40
0.562369156438468
40
0.593606488490548
40
0.624742397049526
40
0.656098436901041
40
0.687339748686956
40
0.718726395286906
40
0.750123471438778
40
0.78143631303529
40
0.812881173417582
40
0.84412503213011
40
0.87545892266313
40
0.906679700978882
40
0.937802016623768
40
0.968999020641113
40
1
40
1
40
1
40
1
41
1
10
210.35
20
-5.10640981309275
30
0
41
1
10
210.477117095594
20
-5.1064104303815
30
0
41
1
10
210.730925689009
20
-5.12814359218623
30
0
41
1
10
211.096163196567
20
-5.22358446717288
30
0
41
1
10
211.43179045488
20
-5.37566424377593
30
0
41
1
10
211.725290304609
20
-5.57545867184785
30
0
41
1
10
211.966441498643
20
-5.81237937847743
30
0
41
1
10
212.145789876172
20
-6.07409066923793
30
0
41
1
10
212.25673923629
20
-6.34891933862656
30
0
41
1
10
212.294286131127
20
-6.62382644301525
30
0
41
1
10
212.256660107906
20
-6.88745636621721
30
0
41
1
10
212.14561712758
20
-7.12984257459766
30
0
41
1
10
211.966024578488
20
-7.34311052954342
30
0
41
1
10
211.724721681881
20
-7.52254721390648
30
0
41
1
10
211.431237049387
20
-7.66449626098705
30
0
41
1
10
211.095228495259
20
-7.76732331471541
30
0
41
1
10
210.729517034441
20
-7.82950195005054
30
0
41
1
10
210.348441730409
20
-7.85016086833528
30
0
41
1
10
209.967837209459
20
-7.82915681552089
30
0
41
1
10
209.602739416553
20
-7.76684839318403
30
0
41
1
10
209.267422290991
20
-7.66396157909531
30
0
41
1
10
208.973818219324
20
-7.52167597562638
30
0
41
1
10
208.733155912737
20
-7.34234859802308
30
0
41
1
10
208.553751906391
20
-7.12878355508815
30
0
41
1
10
208.443030611455
20
-6.88652610586655
30
0
41
1
10
208.405757671323
20
-6.62291089793843
30
0
41
1
10
208.443542532564
20
-6.34777428572772
30
0
41
1
10
208.554678032276
20
-6.07320742839897
30
0
41
1
10
208.734624279608
20
-5.81112274695761
30
0
41
1
10
208.975842508336
20
-5.57449158355826
30
0
41
1
10
209.269672873494
20
-5.37489290986954
30
0
41
1
10
209.605366132537
20
-5.22302571174754
30
0
41
1
10
209.970172337563
20
-5.12798125912184
30
0
41
1
10
210.22365494794
20
-5.1064091995531
30
0
41
1
10
210.35
20
-5.10640981309275
30
0
0
SPLINE
5
154
100
AcDbEntity
8
1
62
256
6
ByLayer
370
18
48
1
60
0
100
AcDbSpline
70
4
71
3
72
8
73
4
40
0
40
0
40
0
40
0
40
1
40
1
40
1
40
1
41
1
10
203.907273615898
20
7.06694293997987
30
0
41
1
10
203.864422648096
20
7.05634400814847
30
0
41
1
10
203.821699623577
20
7.04770212110932
30
0
41
1
10
203.779109206526
20
7.04093656548702
30
0
0
SPLINE
5
155
100
AcDbEntity
8
1
62
256
6
ByLayer
370
18
48
1
60
0
100
AcDbSpline
70
4
71
3
72
44
73
40
40
0
40
0
40
0
40
0
40
0.0811481922850338
40
0.0811481922850338
40
0.121864796268482
40
0.121864796268482
40
0.162581400251931
40
0.162581400251931
40
0.24401460821883
40
0.24401460821883
40
0.325447816185728
40
0.325447816185728
40
0.366164420169178
40
0.366164420169178
40
0.406881024152627
40
0.406881024152627
40
0.488314232119525
40
0.488314232119525
40
0.529030836102974
40
0.529030836102974
40
0.569747440086423
40
0.569747440086423
40
0.610464044069873
40
0.610464044069873
40
0.651180648053322
40
0.651180648053322
40
0.691897252036771
40
0.691897252036771
40
0.73261385602022
40
0.73261385602022
40
0.814047063987117
40
0.814047063987117
40
0.895480271954015
40
0.895480271954015
40
0.936196875937463
40
0.936196875937463
40
0.976913479920912
40
0.976913479920912
40
1
40
1
40
1
40
1
41
1
10
121.116864893368
20
-6.46849069376637
30
0
41
1
10
119.241157139341
20
-6.85684672185678
30
0
41
1
10
117.368649954955
20
-7.19027504816904
30
0
41
1
10
114.554210476661
20
-7.59619708435648
30
0
41
1
10
113.613453041062
20
-7.7158914077136
30
0
41
1
10
111.729943809552
20
-7.9222602050441
30
0
41
1
10
110.786282417454
20
-8.00898719088727
30
0
41
1
10
107.958581514645
20
-8.21760759570753
30
0
41
1
10
106.078352869309
20
-8.28758365418429
30
0
41
1
10
102.318053926123
20
-8.28593121116333
30
0
41
1
10
100.437871348941
20
-8.21422778212556
30
0
41
1
10
97.6108308787162
20
-8.00370983545312
30
0
41
1
10
96.6670483951154
20
-7.916291859067
30
0
41
1
10
94.7833271499789
20
-7.70823662480873
30
0
41
1
10
93.8425120450191
20
-7.58768186090893
30
0
41
1
10
91.0213655404547
20
-7.17860338606422
30
0
41
1
10
89.1422477708281
20
-6.84255090342333
30
0
41
1
10
86.319277557846
20
-6.25584371310615
30
0
41
1
10
85.3776011419897
20
-6.04645669500283
30
0
41
1
10
83.4916327140538
20
-5.60193402108422
30
0
41
1
10
82.5485620875107
20
-5.36716949497813
30
0
41
1
10
80.6635310392048
20
-4.87603260996184
30
0
41
1
10
79.7211672559059
20
-4.61954975067056
30
0
41
1
10
77.8355485168798
20
-4.08793921789933
30
0
41
1
10
76.892011433374
20
-3.81272472449771
30
0
41
1
10
75.0065128160096
20
-3.24768568821821
30
0
41
1
10
74.0641702076715
20
-2.95771305266507
30
0
41
1
10
72.1790703236912
20
-2.3661028039017
30
0
41
1
10
71.2357409295991
20
-2.0643114443406
30
0
41
1
10
68.407458255474
20
-1.14827459812864
30
0
41
1
10
66.5268887540359
20
-0.524540780818654
30
0
41
1
10
62.7665245708601
20
0.721142244053624
30
0
41
1
10
60.8868549600919
20
1.34346014372747
30
0
41
1
10
58.0608254778931
20
2.25390578784771
30
0
41
1
10
57.1169842023913
20
2.55371007378849
30
0
41
1
10
55.2327423548748
20
3.13997254454102
30
0
41
1
10
54.2916887775082
20
3.42664637854668
30
0
41
1
10
52.8178748145857
20
3.86348984738953
30
0
41
1
10
52.2847645583654
20
4.01901397800202
30
0
41
1
10
51.7517183163264
20
4.17170305609375
30
0
0
SPLINE
5
156
100
AcDbEntity
8
1
62
256
6
ByLayer
370
13
48
1
60
0
100
AcDbSpline
70
4
71
3
72
8
73
4
40
0
40
0
40
0
40
0
40
1
40
1
40
1
40
1
41
1
10
224.946501995013
20
0.94935649445307
30
0
41
1
10
224.929977927138
20
0.941471034936001
30
0
41
1
10
224.912806323543
20
0.927020754375263
30
0
41
1
10
224.898749993325
20
0.909172139043648
30
0
0
SPLINE
5
157
100
AcDbEntity
8
1
62
256
6
ByLayer
370
18
48
1
60
0
100
AcDbSpline
70
4
71
3
72
8
73
4
40
0
40
0
40
0
40
0
40
1
40
1
40
1
40
1
41
1
10
203.779109206528
20
7.04093656548733
30
0
41
1
10
203.771892608398
20
7.18143751144936
30
0
41
1
10
203.764864311
20
7.32068419433207
30
0
41
1
10
203.758137004304
20
7.45870488190008
30
0
0
SPLINE
5
158
100
AcDbEntity
8
1
62
256
6
ByLayer
370
18
48
1
60
0
100
AcDbSpline
70
4
71
3
72
8
73
4
40
0
40
0
40
0
40
0
40
1
40
1
40
1
40
1
41
1
10
24.3020000001185
20
-8.79819612667291
30
0
41
1
10
24.3020000001288
20
-8.96596085311629
30
0
41
1
10
24.3020000001391
20
-9.13307426677457
30
0
41
1
10
24.3020000001495
20
-9.2995369499524
30
0
0
SPLINE
5
159
100
AcDbEntity
8
1
62
256
6
ByLayer
370
18
48
1
60
0
100
AcDbSpline
70
4
71
3
72
12
73
8
40
0
40
0
40
0
40
0
40
0.25
40
0.25
40
0.5
40
0.5
40
1
40
1
40
1
40
1
41
1
10
225.555016812707
20
-1.29153776343671
30
0
41
1
10
225.583786237633
20
-1.21131152566949
30
0
41
1
10
225.612482907508
20
-1.13046292734427
30
0
41
1
10
225.669732178682
20
-0.967533340679353
30
0
41
1
10
225.698378852078
20
-0.885178411692806
30
0
41
1
10
225.783418254572
20
-0.63825029493978
30
0
41
1
10
225.838486934497
20
-0.475082111780296
30
0
41
1
10
225.892079882982
20
-0.313231849073759
30
0
0
SPLINE
5
15A
100
AcDbEntity
8
1
62
256
6
ByLayer
370
18
48
1
60
0
100
AcDbSpline
70
4
71
3
72
8
73
4
40
0
40
0
40
0
40
0
40
1
40
1
40
1
40
1
41
1
10
214.003518876834
20
9.17868388213319
30
0
41
1
10
214.002345908398
20
9.17969516121883
30
0
41
1
10
214.001172949439
20
9.18070626295747
30
0
41
1
10
214
20
9.18171718729801
30
0
0
SPLINE
5
15B
100
AcDbEntity
8
1
62
256
6
ByLayer
370
18
48
1
60
0
100
AcDbSpline
70
4
71
3
72
68
73
64
40
0
40
0
40
0
40
0
40
0.0225390487138518
40
0.0225390487138518
40
0.0536703481514468
40
0.0536703481514468
40
0.115932947026638
40
0.115932947026638
40
0.147064246464233
40
0.147064246464233
40
0.178195545901829
40
0.178195545901829
40
0.209326845339424
40
0.209326845339424
40
0.24045814477702
40
0.24045814477702
40
0.271589444214615
40
0.271589444214615
40
0.302720743652211
40
0.302720743652211
40
0.333852043089806
40
0.333852043089806
40
0.364983342527402
40
0.364983342527402
40
0.427245941402592
40
0.427245941402592
40
0.458377240840187
40
0.458377240840187
40
0.489508540277782
40
0.489508540277782
40
0.551771139152972
40
0.551771139152972
40
0.56733678887177
40
0.56733678887177
40
0.582902438590567
40
0.582902438590567
40
0.614033738028163
40
0.614033738028163
40
0.645165037465759
40
0.645165037465759
40
0.676296336903355
40
0.676296336903355
40
0.707427636340951
40
0.707427636340951
40
0.722993286059749
40
0.722993286059749
40
0.738558935778546
40
0.738558935778546
40
0.76969023521614
40
0.76969023521614
40
0.800821534653735
40
0.800821534653735
40
0.831952834091329
40
0.831952834091329
40
0.863084133528923
40
0.863084133528923
40
0.894215432966517
40
0.894215432966517
40
0.925346732404111
40
0.925346732404111
40
0.987609331279301
40
0.987609331279301
40
1
40
1
40
1
40
1
41
1
10
156.275550911106
20
-8.79776051617702
30
0
41
1
10
155.622953231471
20
-8.87610137908609
30
0
41
1
10
154.969929371956
20
-8.94563074853835
30
0
41
1
10
153.413296956885
20
-9.08953733674804
30
0
41
1
10
152.511218553925
20
-9.15542654289823
30
0
41
1
10
149.807997015889
20
-9.29936981629606
30
0
41
1
10
148.00828061691
20
-9.32414591301756
30
0
41
1
10
145.309149720303
20
-9.25271471879347
30
0
41
1
10
144.409434461324
20
-9.2106732402541
30
0
41
1
10
142.608033652297
20
-9.09009965413296
30
0
41
1
10
141.705660499927
20
-9.01146548098853
30
0
41
1
10
139.903968898814
20
-8.8197427788262
30
0
41
1
10
139.003882709063
20
-8.70668082200774
30
0
41
1
10
137.203675029693
20
-8.44837304387534
30
0
41
1
10
136.303470080624
20
-8.30328854617792
30
0
41
1
10
134.503030935642
20
-7.98136628096552
30
0
41
1
10
133.602757043109
20
-7.8045164625878
30
0
41
1
10
131.800788704755
20
-7.42064296138935
30
0
41
1
10
130.898698895668
20
-7.21351909925323
30
0
41
1
10
129.093224732637
20
-6.77183649457518
30
0
41
1
10
128.191768885743
20
-6.53783714993565
30
0
41
1
10
126.390229743232
20
-6.04600727241373
30
0
41
1
10
125.490108614457
20
-5.78828056515789
30
0
41
1
10
122.791388644464
20
-4.98008297875933
30
0
41
1
10
120.994861412738
20
-4.39315194673202
30
0
41
1
10
118.291969263542
20
-3.46709800616261
30
0
41
1
10
117.389556183321
20
-3.15100865942213
30
0
41
1
10
115.58760848925
20
-2.51161734222771
30
0
41
1
10
114.687074959142
20
-2.18814992157286
30
0
41
1
10
111.985747970061
20
-1.2093902529879
30
0
41
1
10
110.186537521471
20
-0.542208424072925
30
0
41
1
10
107.933239101638
20
0.292937375163206
30
0
41
1
10
107.482349980254
20
0.459981896914144
30
0
41
1
10
106.579928854338
20
0.793596155855425
30
0
41
1
10
106.128206007533
20
0.960231534733992
30
0
41
1
10
104.774377921212
20
1.45783020301158
30
0
41
1
10
103.872974998822
20
1.78667074731825
30
0
41
1
10
102.071760215995
20
2.43670586971493
30
0
41
1
10
101.172169458794
20
2.75847996518928
30
0
41
1
10
99.373870468854
20
3.39232156841067
30
0
41
1
10
98.47507942794
20
3.7041637361755
30
0
41
1
10
96.676193118441
20
4.31248494115007
30
0
41
1
10
95.7760721983124
20
4.60890046653225
30
0
41
1
10
94.4233696939143
20
5.03831082444043
30
0
41
1
10
93.972006588989
20
5.17893212845024
30
0
41
1
10
93.0701265011597
20
5.45416722835216
30
0
41
1
10
92.6193774421615
20
5.58885615821782
30
0
41
1
10
91.2674770000633
20
5.98377118398764
30
0
41
1
10
90.3667619967833
20
6.23507565470331
30
0
41
1
10
88.5663367330357
20
6.71367165362383
30
0
41
1
10
87.6665066791306
20
6.94068351302928
30
0
41
1
10
85.8662365138733
20
7.36744624029774
30
0
41
1
10
84.9657821746671
20
7.56716720742492
30
0
41
1
10
83.1627186839316
20
7.9366948756535
30
0
41
1
10
82.2591929673498
20
8.10662668365148
30
0
41
1
10
80.4551552574138
20
8.41396457336961
30
0
41
1
10
79.5543499304709
20
8.55153195306863
30
0
41
1
10
77.7549506389428
20
8.79386451290446
30
0
41
1
10
76.8562404804274
20
8.89843537203805
30
0
41
1
10
74.1601575341077
20
9.15922738273784
30
0
41
1
10
72.3625425457634
20
9.26186802440603
30
0
41
1
10
70.1978232444711
20
9.29696928264039
30
0
41
1
10
69.8386154509779
20
9.29991640670923
30
0
41
1
10
69.4795200109782
20
9.30000680650437
30
0
0
SPLINE
5
15C
100
AcDbEntity
8
1
62
256
6
ByLayer
370
18
48
1
60
0
100
AcDbSpline
70
4
71
3
72
20
73
16
40
0
40
0
40
0
40
0
40
0.303674434848229
40
0.303674434848229
40
0.455511652272344
40
0.455511652272344
40
0.607348869696459
40
0.607348869696459
40
0.683267478408518
40
0.683267478408518
40
0.759186087120578
40
0.759186087120578
40
0.911023304544701
40
0.911023304544701
40
1
40
1
40
1
40
1
41
1
10
200.050087554218
20
6.59069608626962
30
0
41
1
10
198.216067881582
20
7.01793612483871
30
0
41
1
10
196.384949100429
20
7.3910103430419
30
0
41
1
10
193.635556904765
20
7.85698111037996
30
0
41
1
10
192.718000005772
20
7.99619848753329
30
0
41
1
10
190.88377434807
20
8.24247374470838
30
0
41
1
10
189.967581006387
20
8.34944567948696
30
0
41
1
10
188.594094752409
20
8.48521098523528
30
0
41
1
10
188.136777528984
20
8.52662805042084
30
0
41
1
10
187.222108873228
20
8.60079545717895
30
0
41
1
10
186.764848190995
20
8.63362655069687
30
0
41
1
10
185.393114825825
20
8.71903741890273
30
0
41
1
10
184.478702087669
20
8.75852843699383
30
0
41
1
10
183.027638083093
20
8.79201334926239
30
0
41
1
10
182.491318295226
20
8.79797052867076
30
0
41
1
10
181.9546857701
20
8.79760613044249
30
0
0
SPLINE
5
15D
100
AcDbEntity
8
1
62
256
6
ByLayer
370
18
48
1
60
0
100
AcDbSpline
70
4
71
3
72
66
73
62
40
0
40
0
40
0
40
0
40
0.039602255104814
40
0.039602255104814
40
0.0678492476017326
40
0.0678492476017326
40
0.0960962400986511
40
0.0960962400986511
40
0.152590225092488
40
0.152590225092488
40
0.180837217589406
40
0.180837217589406
40
0.209084210086324
40
0.209084210086324
40
0.265578195080162
40
0.265578195080162
40
0.29382518757708
40
0.29382518757708
40
0.30794868382554
40
0.30794868382554
40
0.322072180073999
40
0.322072180073999
40
0.378566165067834
40
0.378566165067834
40
0.406813157564751
40
0.406813157564751
40
0.435060150061668
40
0.435060150061668
40
0.491554135055501
40
0.491554135055501
40
0.519801127552417
40
0.519801127552417
40
0.548048120049333
40
0.548048120049333
40
0.562171616297792
40
0.562171616297792
40
0.57629511254625
40
0.57629511254625
40
0.604542105043166
40
0.604542105043166
40
0.661036090036998
40
0.661036090036998
40
0.675159586285457
40
0.675159586285457
40
0.689283082533915
40
0.689283082533915
40
0.717530075030832
40
0.717530075030832
40
0.774024060024667
40
0.774024060024667
40
0.802271052521584
40
0.802271052521584
40
0.816394548770042
40
0.816394548770042
40
0.8305180450185
40
0.8305180450185
40
0.887012030012334
40
0.887012030012334
40
0.943506015006167
40
0.943506015006167
40
1
40
1
40
1
40
1
41
1
10
121.492859988777
20
-6.58695142136582
30
0
41
1
10
120.20979552152
20
-6.88624334592225
30
0
41
1
10
118.925816716762
20
-7.16042761519762
30
0
41
1
10
116.721975597077
20
-7.58083025216374
30
0
41
1
10
115.805122996181
20
-7.7407413164191
30
0
41
1
10
113.97433581785
20
-8.02685343403635
30
0
41
1
10
113.059956437536
20
-8.15305343526995
30
0
41
1
10
110.317353285277
20
-8.48134884346663
30
0
41
1
10
108.489789671173
20
-8.63317391456673
30
0
41
1
10
105.742272782909
20
-8.75690267739787
30
0
41
1
10
104.824543674387
20
-8.78074206994302
30
0
41
1
10
102.991637848629
20
-8.79290009760913
30
0
41
1
10
102.076244969804
20
-8.78117096986767
30
0
41
1
10
99.331177392892
20
-8.69542522344022
30
0
41
1
10
97.5028058359955
20
-8.5709108549471
30
0
41
1
10
94.756776275369
20
-8.28238735489796
30
0
41
1
10
93.8408563530298
20
-8.16912753243136
30
0
41
1
10
92.4651879024072
20
-7.97321319346497
30
0
41
1
10
92.0063641680286
20
-7.90355003574064
30
0
41
1
10
91.0898588496618
20
-7.75599999758714
30
0
41
1
10
90.6319266283507
20
-7.67813488431983
30
0
41
1
10
88.3433264548322
20
-7.26973263630893
30
0
41
1
10
86.5158592820466
20
-6.88196787946319
30
0
41
1
10
83.7723079760834
20
-6.22415401945122
30
0
41
1
10
82.8574144192621
20
-5.99209719246983
30
0
41
1
10
81.0256902273411
20
-5.50459579714672
30
0
41
1
10
80.1079751959778
20
-5.2487885004025
30
0
41
1
10
77.3575253398354
20
-4.45367422124244
30
0
41
1
10
75.5279468838993
20
-3.88722359306334
30
0
41
1
10
72.783921290411
20
-2.99665934966364
30
0
41
1
10
71.869293561534
20
-2.69296505538074
30
0
41
1
10
70.0390392570771
20
-2.07424649783488
30
0
41
1
10
69.1234106188589
20
-1.75912297072222
30
0
41
1
10
67.7481059231784
20
-1.28098093962151
30
0
41
1
10
67.2892313650715
20
-1.12069197758834
30
0
41
1
10
66.3725022023756
20
-0.799523706274925
30
0
41
1
10
65.9144361902565
20
-0.638575713222906
30
0
41
1
10
64.5408869982029
20
-0.155336362591015
30
0
41
1
10
63.6260825036082
20
0.167439317845975
30
0
41
1
10
60.8823960608778
20
1.13203825919268
30
0
41
1
10
59.0543032967182
20
1.77026082644951
30
0
41
1
10
56.7643442027625
20
2.54457994631233
30
0
41
1
10
56.3061022031184
20
2.69825933698797
30
0
41
1
10
55.3889888532103
20
3.00289699559008
30
0
41
1
10
54.9299523926848
20
3.15390973638713
30
0
41
1
10
53.5541541373884
20
3.60155862133539
30
0
41
1
10
52.6380834988576
20
3.89309832211583
30
0
41
1
10
49.8918672958762
20
4.74289908677068
30
0
41
1
10
48.063768469628
20
5.27622158721135
30
0
41
1
10
45.3187887084525
20
6.00541397560943
30
0
41
1
10
44.4032171433646
20
6.2367471153058
30
0
41
1
10
43.0279988719029
20
6.56452608094028
30
0
41
1
10
42.5690321171187
20
6.67063403762023
30
0
41
1
10
41.6522846103823
20
6.87577595341867
30
0
41
1
10
41.1943684991726
20
6.97485806095767
30
0
41
1
10
38.906672032424
20
7.4522503368909
30
0
41
1
10
37.0824739709917
20
7.77624782831637
30
0
41
1
10
33.4367497529287
20
8.29487682470923
30
0
41
1
10
31.614920394981
20
8.49022706608673
30
0
41
1
10
27.9650999834973
20
8.74847165059171
30
0
41
1
10
26.1374388339271
20
8.81102006142473
30
0
41
1
10
24.3020000001184
20
8.79819665169788
30
0
0
SPLINE
5
15E
100
AcDbEntity
8
1
62
256
6
ByLayer
370
18
48
1
60
0
100
AcDbSpline
70
4
71
3
72
8
73
4
40
0
40
0
40
0
40
0
40
1
40
1
40
1
40
1
41
1
10
223.274298606144
20
3.25664491605636
30
0
41
1
10
223.264426423304
20
3.25586932125748
30
0
41
1
10
223.25513297505
20
3.25174105111375
30
0
41
1
10
223.247374383438
20
3.24559632094494
30
0
0
SPLINE
5
15F
100
AcDbEntity
8
1
62
256
6
ByLayer
370
18
48
1
60
0
100
AcDbSpline
70
4
71
3
72
8
73
4
40
0
40
0
40
0
40
0
40
1
40
1
40
1
40
1
41
1
10
213.9
20
3.90000000000001
30
0
41
1
10
213.96666183031
20
3.90000000000001
30
0
41
1
10
214.033328596027
20
3.90000000000001
30
0
41
1
10
214.1
20
3.90000000000001
30
0
0
SPLINE
5
160
100
AcDbEntity
8
1
62
256
6
ByLayer
370
18
48
1
60
0
100
AcDbSpline
70
4
71
3
72
20
73
16
40
0
40
0
40
0
40
0
40
0.0793169190673653
40
0.158227473439665
40
0.236733601401869
40
0.314837271349559
40
0.392540482264654
40
0.469845264195726
40
0.546753678742619
40
0.623267819545265
40
0.699389812776495
40
0.775121817638617
40
0.850466026863496
40
0.925424667215922
40
1
40
1
40
1
40
1
41
1
10
218.142739185437
20
-0.625693134660423
30
0
41
1
10
218.128096923272
20
-0.577444009843248
30
0
41
1
10
218.098887415703
20
-0.481192955146895
30
0
41
1
10
218.056085616904
20
-0.336759276211552
30
0
41
1
10
218.014170058593
20
-0.192800575497841
30
0
41
1
10
217.973204313888
20
-0.0493190665570182
30
0
41
1
10
217.933171486714
20
0.0936419996703535
30
0
41
1
10
217.894076044411
20
0.236051239507816
30
0
41
1
10
217.855916894838
20
0.37787505276188
30
0
41
1
10
217.818693976677
20
0.519081435901313
30
0
41
1
10
217.78240861154
20
0.659638717989083
30
0
41
1
10
217.747055616869
20
0.799516824188771
30
0
41
1
10
217.712654265618
20
0.938683503774286
30
0
41
1
10
217.679133163472
20
1.07711805447749
30
0
41
1
10
217.657493623211
20
1.16911459816077
30
0
41
1
10
217.646701587914
20
1.21499496043742
30
0
0
SPLINE
5
161
100
AcDbEntity
8
1
62
256
6
ByLayer
370
18
48
1
60
0
100
AcDbSpline
70
4
71
3
72
80
73
76
40
0
40
0
40
0
40
0
40
0.0625000000000006
40
0.0625000000000006
40
0.125000000000001
40
0.125000000000001
40
0.187500000000002
40
0.187500000000002
40
0.218750000000002
40
0.218750000000002
40
0.250000000000002
40
0.250000000000002
40
0.281250000000003
40
0.281250000000003
40
0.312500000000003
40
0.312500000000003
40
0.328125000000003
40
0.328125000000003
40
0.343750000000002
40
0.343750000000002
40
0.359375000000002
40
0.359375000000002
40
0.367187500000001
40
0.367187500000001
40
0.375
40
0.375
40
0.390625
40
0.390625
40
0.398437499999999
40
0.398437499999999
40
0.406249999999999
40
0.406249999999999
40
0.437499999999999
40
0.437499999999999
40
0.445312499999999
40
0.445312499999999
40
0.453124999999999
40
0.453124999999999
40
0.468749999999999
40
0.468749999999999
40
0.476562499999999
40
0.476562499999999
40
0.484374999999999
40
0.484374999999999
40
0.499999999999999
40
0.499999999999999
40
0.515624999999999
40
0.515624999999999
40
0.531249999999999
40
0.531249999999999
40
0.562499999999999
40
0.562499999999999
40
0.593749999999999
40
0.593749999999999
40
0.609374999999999
40
0.609374999999999
40
0.624999999999999
40
0.624999999999999
40
0.656249999999999
40
0.656249999999999
40
0.687499999999999
40
0.687499999999999
40
0.703124999999999
40
0.703124999999999
40
0.718749999999999
40
0.718749999999999
40
0.749999999999999
40
0.749999999999999
40
0.812499999999999
40
0.812499999999999
40
0.875
40
0.875
40
0.9375
40
0.9375
40
1
40
1
40
1
40
1
41
1
10
15.6640324421665
20
-0.392472406858843
30
0
41
1
10
15.1710981123298
20
-0.503505282293389
30
0
41
1
10
14.6971061483807
20
-0.612284591346338
30
0
41
1
10
13.768911540283
20
-0.824187528764156
30
0
41
1
10
13.3147693558072
20
-0.927407364928797
30
0
41
1
10
12.4096719251507
20
-1.13714730685842
30
0
41
1
10
11.9587482347048
20
-1.24353057992968
30
0
41
1
10
11.2703186338911
20
-1.42003061954782
30
0
41
1
10
11.0384422667058
20
-1.4818780808242
30
0
41
1
10
10.569695331236
20
-1.61510126149139
30
0
41
1
10
10.3332834041304
20
-1.68631387712998
30
0
41
1
10
9.8550686768544
20
-1.84342927420633
30
0
41
1
10
9.61325249822265
20
-1.92927411155503
30
0
41
1
10
9.12342127239562
20
-2.12401301371062
30
0
41
1
10
8.87537775867635
20
-2.23277301119919
30
0
41
1
10
8.4988849703425
20
-2.42363840059267
30
0
41
1
10
8.37198105993265
20
-2.49237642860149
30
0
41
1
10
8.12265825446757
20
-2.63849124268216
30
0
41
1
10
7.99980396885961
20
-2.71603912846251
30
0
41
1
10
7.75875373383991
20
-2.88181466789959
30
0
41
1
10
7.64055411696093
20
-2.97003569344088
30
0
41
1
10
7.4677435986754
20
-3.11196886520443
30
0
41
1
10
7.41081949171287
20
-3.16096831618251
30
0
41
1
10
7.30027014866518
20
-3.2609852372706
30
0
41
1
10
7.24644171313963
20
-3.31216140151773
30
0
41
1
10
7.08946870259717
20
-3.46935780057106
30
0
41
1
10
6.99082563394734
20
-3.57903707516405
30
0
41
1
10
6.85271639775756
20
-3.75166294595528
30
0
41
1
10
6.80832492712435
20
-3.8105580161035
30
0
41
1
10
6.72301122516412
20
-3.93121659555433
30
0
41
1
10
6.68194204537242
20
-3.99322257424169
30
0
41
1
10
6.48762045712867
20
-4.30791342376662
30
0
41
1
10
6.3690983785494
20
-4.57053162291751
30
0
41
1
10
6.26695674044011
20
-4.91370388500911
30
0
41
1
10
6.24880063940651
20
-4.98335517941629
30
0
41
1
10
6.21756095615386
20
-5.12276490114303
30
0
41
1
10
6.20447627137938
20
-5.19242019998265
30
0
41
1
10
6.17255941696034
20
-5.40126599909945
30
0
41
1
10
6.16103930190697
20
-5.54034091658662
30
0
41
1
10
6.15783549252147
20
-5.74874388262077
30
0
41
1
10
6.1591201948501
20
-5.81817546977194
30
0
41
1
10
6.1663753465272
20
-5.95695692980658
30
0
41
1
10
6.17237641913896
20
-6.02645264628396
30
0
41
1
10
6.19705634053992
20
-6.23217919245215
30
0
41
1
10
6.22238915136926
20
-6.36644744340077
30
0
41
1
10
6.28948140439871
20
-6.6293857262462
30
0
41
1
10
6.33124858415569
20
-6.75805336872003
30
0
41
1
10
6.43051269661656
20
-7.00964318226735
30
0
41
1
10
6.48795877920902
20
-7.13214981400262
30
0
41
1
10
6.67847115708828
20
-7.48306507105369
30
0
41
1
10
6.8306226310529
20
-7.69775665760562
30
0
41
1
10
7.17686822786088
20
-8.08950925432663
30
0
41
1
10
7.36670309309493
20
-8.26162026766514
30
0
41
1
10
7.66793484939309
20
-8.48720584353759
30
0
41
1
10
7.77119834048823
20
-8.55703175125001
30
0
41
1
10
7.98250908481667
20
-8.68653509394406
30
0
41
1
10
8.09036652517638
20
-8.74604341819571
30
0
41
1
10
8.41482998284887
20
-8.90806626575301
30
0
41
1
10
8.63390661798665
20
-8.99520048440999
30
0
41
1
10
9.0734874508946
20
-9.13669088791394
30
0
41
1
10
9.29402118991761
20
-9.19101656599841
30
0
41
1
10
9.62430110950247
20
-9.25322498045028
30
0
41
1
10
9.73444221191978
20
-9.27074298362052
30
0
41
1
10
9.95282142158284
20
-9.29992450824352
30
0
41
1
10
10.0612589292904
20
-9.31163259662523
30
0
41
1
10
10.3844528690123
20
-9.33940483596678
30
0
41
1
10
10.5970845567156
20
-9.3481624482464
30
0
41
1
10
11.2279819627003
20
-9.35347707204645
30
0
41
1
10
11.639281247905
20
-9.32944655851279
30
0
41
1
10
12.4522670319526
20
-9.25685887033151
30
0
41
1
10
12.8535535485304
20
-9.20816422111568
30
0
41
1
10
13.6535345729275
20
-9.10624155748428
30
0
41
1
10
14.0524270069466
20
-9.05293426426911
30
0
41
1
10
14.8542814265529
20
-8.9545256565961
30
0
41
1
10
15.2572282566436
20
-8.90940319418044
30
0
41
1
10
15.6640324421665
20
-8.87170652346893
30
0
0
SPLINE
5
162
100
AcDbEntity
8
1
62
256
6
ByLayer
370
18
48
1
60
0
100
AcDbSpline
70
4
71
3
72
66
73
62
40
0
40
0
40
0
40
0
40
0.0569670730176133
40
0.0569670730176133
40
0.0854506095264207
40
0.0854506095264207
40
0.113934146035228
40
0.113934146035228
40
0.128175914289632
40
0.128175914289632
40
0.142417682544036
40
0.142417682544036
40
0.170901219052844
40
0.170901219052844
40
0.199384755561652
40
0.199384755561652
40
0.22786829207046
40
0.22786829207046
40
0.284835365088077
40
0.284835365088077
40
0.313318901596886
40
0.313318901596886
40
0.341802438105694
40
0.341802438105694
40
0.398769511123311
40
0.398769511123311
40
0.42725304763212
40
0.42725304763212
40
0.455736584140928
40
0.455736584140928
40
0.484220120649737
40
0.484220120649737
40
0.512703657158545
40
0.512703657158545
40
0.569670730176163
40
0.569670730176163
40
0.598154266684972
40
0.598154266684972
40
0.62663780319378
40
0.62663780319378
40
0.655121339702589
40
0.655121339702589
40
0.683604876211397
40
0.683604876211397
40
0.712088412720206
40
0.712088412720206
40
0.740571949229015
40
0.740571949229015
40
0.797539022246632
40
0.797539022246632
40
0.854506095264249
40
0.854506095264249
40
0.882989631773057
40
0.882989631773057
40
0.911473168281866
40
0.911473168281866
40
0.968440241299482
40
0.968440241299482
40
0.996923777808291
40
0.996923777808291
40
1
40
1
40
1
40
1
41
1
10
200.050087554218
20
-6.59069608626962
30
0
41
1
10
198.216067881582
20
-7.01793612483871
30
0
41
1
10
196.384949100429
20
-7.3910103430419
30
0
41
1
10
193.635556904765
20
-7.85698111037996
30
0
41
1
10
192.718000005772
20
-7.99619848753329
30
0
41
1
10
190.88377434807
20
-8.24247374470838
30
0
41
1
10
189.967581006387
20
-8.34944567948696
30
0
41
1
10
188.594094752409
20
-8.48521098523528
30
0
41
1
10
188.136777528984
20
-8.52662805042084
30
0
41
1
10
187.222108873228
20
-8.60079545717898
30
0
41
1
10
186.764848190995
20
-8.63362655069687
30
0
41
1
10
185.393114825825
20
-8.71903741890276
30
0
41
1
10
184.478702087669
20
-8.75852843699383
30
0
41
1
10
182.648861626005
20
-8.80075403636852
30
0
41
1
10
181.733428827228
20
-8.80318601051994
30
0
41
1
10
179.900179223819
20
-8.77161615389093
30
0
41
1
10
178.982277854302
20
-8.73774257626181
30
0
41
1
10
176.234263291106
20
-8.58422060531973
30
0
41
1
10
174.406082485276
20
-8.41284406315
30
0
41
1
10
171.662254575065
20
-8.05808364434682
30
0
41
1
10
170.747394695827
20
-7.92338821777869
30
0
41
1
10
168.915900896829
20
-7.62337764288952
30
0
41
1
10
167.999006921251
20
-7.45823701392837
30
0
41
1
10
165.245747038591
20
-6.91976986209028
30
0
41
1
10
163.4154088039
20
-6.50501668570939
30
0
41
1
10
160.671635611194
20
-5.80595687566901
30
0
41
1
10
159.757338313111
20
-5.55994190027383
30
0
41
1
10
157.927921838742
20
-5.04476619412279
30
0
41
1
10
157.01275009258
20
-4.77600852261855
30
0
41
1
10
155.180167971975
20
-4.21992961064504
30
0
41
1
10
154.262162759911
20
-3.93230319547365
30
0
41
1
10
152.429589287635
20
-3.3438890857675
30
0
41
1
10
151.51427805169
20
-3.04293712029406
30
0
41
1
10
148.769590620414
20
-2.12440711942816
30
0
41
1
10
146.941355162874
20
-1.49124413190901
30
0
41
1
10
144.194001715224
20
-0.532030783496197
30
0
41
1
10
143.277447424804
20
-0.210524577111073
30
0
41
1
10
141.441819496529
20
0.433363770029956
30
0
41
1
10
140.525182187143
20
0.754736071022165
30
0
41
1
10
138.693958752238
20
1.3932112202518
30
0
41
1
10
137.779275190031
20
1.7103331440068
30
0
41
1
10
135.950529180727
20
2.33651182350201
30
0
41
1
10
135.036398187117
20
2.64546800680188
30
0
41
1
10
133.20717554725
20
3.25152908381503
30
0
41
1
10
132.292098927355
20
3.54866168020752
30
0
41
1
10
130.459896825873
20
4.1282471264019
30
0
41
1
10
129.54192330344
20
4.41077862548465
30
0
41
1
10
126.792594665887
20
5.22853951098313
30
0
41
1
10
124.963885177789
20
5.73401418539501
30
0
41
1
10
121.30468890713
20
6.64710492850108
30
0
41
1
10
119.474484391466
20
7.05576429114797
30
0
41
1
10
116.721975597077
20
7.58083025216376
30
0
41
1
10
115.805122996181
20
7.74074131641913
30
0
41
1
10
113.97433581785
20
8.02685343403635
30
0
41
1
10
113.059956437536
20
8.15305343526995
30
0
41
1
10
110.317353285277
20
8.48134884346663
30
0
41
1
10
108.489789671173
20
8.63317391456675
30
0
41
1
10
105.742272782909
20
8.75690267739787
30
0
41
1
10
104.824543674387
20
8.78074206994302
30
0
41
1
10
103.809113838913
20
8.78747761732313
30
0
41
1
10
103.710149280558
20
8.78792643667327
30
0
41
1
10
103.611196217642
20
8.78816874529747
30
0
0
SPLINE
5
163
100
AcDbEntity
8
1
62
256
6
ByLayer
370
18
48
1
60
0
100
AcDbSpline
70
4
71
3
72
16
73
12
40
0
40
0
40
0
40
0
40
0.0444008693187231
40
0.0444008693187231
40
0.117908494755744
40
0.117908494755744
40
0.41193899650383
40
0.41193899650383
40
0.705969498251915
40
0.705969498251915
40
1
40
1
40
1
40
1
41
1
10
42.9416687771868
20
-6.58355040175266
30
0
41
1
10
42.6646184461187
20
-6.64800247602443
30
0
41
1
10
42.3875302257026
20
-6.71124897843276
30
0
41
1
10
41.6522846103822
20
-6.8757759534187
30
0
41
1
10
41.1943684991725
20
-6.9748580609577
30
0
41
1
10
38.906672032424
20
-7.45225033689096
30
0
41
1
10
37.0824739709916
20
-7.7762478283164
30
0
41
1
10
33.4367497529286
20
-8.29487682470923
30
0
41
1
10
31.6149203949808
20
-8.49022706608673
30
0
41
1
10
27.9650999834972
20
-8.74847165059171
30
0
41
1
10
26.1374388339271
20
-8.81102006142473
30
0
41
1
10
24.3020000001184
20
-8.79819665169788
30
0
0
SPLINE
5
164
100
AcDbEntity
8
1
62
256
6
ByLayer
370
18
48
1
60
0
100
AcDbSpline
70
4
71
3
72
8
73
4
40
0
40
0
40
0
40
0
40
1
40
1
40
1
40
1
41
1
10
225.983461814753
20
-0.0726578547756276
30
0
41
1
10
225.971785301441
20
-0.11195389168023
30
0
41
1
10
225.960164784181
20
-0.151143017368611
30
0
41
1
10
225.948599894711
20
-0.190225934952991
30
0
0
SPLINE
5
165
100
AcDbEntity
8
1
62
256
6
ByLayer
370
18
48
1
60
0
100
AcDbSpline
70
4
71
3
72
8
73
4
40
0
40
0
40
0
40
0
40
1
40
1
40
1
40
1
41
1
10
15.6640324421665
20
-0.392472406858815
30
0
41
1
10
15.6922680496316
20
-0.386112369635328
30
0
41
1
10
15.720505288683
20
-0.379777891520433
30
0
41
1
10
15.7487441069215
20
-0.37346880909854
30
0
0
SPLINE
5
166
100
AcDbEntity
8
1
62
256
6
ByLayer
370
18
48
1
60
0
100
AcDbSpline
70
4
71
3
72
14
73
10
40
0
40
0
40
0
40
0
40
0.249687822420355
40
0.249687822420355
40
0.437265866815266
40
0.437265866815266
40
0.624843911210178
40
0.624843911210178
40
1
40
1
40
1
40
1
41
1
10
207.321906500563
20
4.74510840907317
30
0
41
1
10
208.207287151318
20
4.51005745694957
30
0
41
1
10
209.092364647368
20
4.26303184928651
30
0
41
1
10
210.642607013256
20
3.81100994162301
30
0
41
1
10
211.307438963683
20
3.61089964307959
30
0
41
1
10
212.635073425052
20
3.19969961229324
30
0
41
1
10
213.298169424471
20
2.9885317490224
30
0
41
1
10
215.285893866474
20
2.33970781701439
30
0
41
1
10
216.608914813107
20
1.88651726851424
30
0
41
1
10
217.93189146103
20
1.41695384282593
30
0
0
SPLINE
5
167
100
AcDbEntity
8
1
62
256
6
ByLayer
370
18
48
1
60
0
100
AcDbSpline
70
4
71
3
72
8
73
4
40
0
40
0
40
0
40
0
40
1
40
1
40
1
40
1
41
1
10
17.3788504651461
20
-8.81428625880923
30
0
41
1
10
17.3295806018731
20
-8.81312980201091
30
0
41
1
10
17.2810289703707
20
-8.81158421661493
30
0
41
1
10
17.2331794558217
20
-8.80958627673007
30
0
0
SPLINE
5
168
100
AcDbEntity
8
1
62
256
6
ByLayer
370
18
48
1
60
0
100
AcDbSpline
70
4
71
3
72
12
73
8
40
0
40
0
40
0
40
0
40
0.500000000000063
40
0.500000000000063
40
0.750000000000032
40
0.750000000000032
40
1
40
1
40
1
40
1
41
1
10
205.995511761099
20
7.71696368596028
30
0
41
1
10
205.867708809577
20
7.75627062435728
30
0
41
1
10
205.730049014874
20
7.78162142024979
30
0
41
1
10
205.512459373515
20
7.80404277539219
30
0
41
1
10
205.437857508096
20
7.80889359477152
30
0
41
1
10
205.286533358659
20
7.81396773935069
30
0
41
1
10
205.209824495375
20
7.81420926784901
30
0
41
1
10
205.132215617576
20
7.81250655699174
30
0
0
SPLINE
5
169
100
AcDbEntity
8
1
62
256
6
ByLayer
370
18
48
1
60
0
100
AcDbSpline
70
4
71
3
72
14
73
10
40
0
40
0
40
0
40
0
40
0.0563626575936868
40
0.0563626575936868
40
0.370908438395791
40
0.370908438395791
40
0.685454219197896
40
0.685454219197896
40
1
40
1
40
1
40
1
41
1
10
216.300769155468
20
1.96012328346489
30
0
41
1
10
216.39544767025
20
1.94830505643776
30
0
41
1
10
216.490131389476
20
1.93653300703349
30
0
41
1
10
217.113255428286
20
1.85936895007998
30
0
41
1
10
217.641872615923
20
1.79554624503234
30
0
41
1
10
218.699878062756
20
1.67474234480784
30
0
41
1
10
219.229191107825
20
1.61709379497756
30
0
41
1
10
220.287817318477
20
1.50179776460686
30
0
41
1
10
220.817216051553
20
1.4449095013384
30
0
41
1
10
221.346764034768
20
1.38934549427415
30
0
0
SPLINE
5
16A
100
AcDbEntity
8
1
62
256
6
ByLayer
370
18
48
1
60
0
100
AcDbSpline
70
4
71
3
72
8
73
4
40
0
40
0
40
0
40
0
40
1
40
1
40
1
40
1
41
1
10
214.649495483882
20
9.46829213148084
30
0
41
1
10
214.466589071582
20
9.39507881057088
30
0
41
1
10
214.283429397693
20
9.32078817918909
30
0
41
1
10
214.1
20
9.24546565663363
30
0
0
SPLINE
5
16B
100
AcDbEntity
8
1
62
256
6
ByLayer
370
18
48
1
60
0
100
AcDbSpline
70
4
71
3
72
12
73
8
40
0
40
0
40
0
40
0
40
0.418072216665144
40
0.418072216665144
40
0.709035981530588
40
0.709035981530588
40
1
40
1
40
1
40
1
41
1
10
214.099999998045
20
-9.07790339606132
30
0
41
1
10
214.086564548292
20
-9.0919518994092
30
0
41
1
10
214.073124906475
20
-9.10599870140913
30
0
41
1
10
214.050324739522
20
-9.12981876669937
30
0
41
1
10
214.040966339958
20
-9.13959289142642
30
0
41
1
10
214.022245573021
20
-9.15913956440184
30
0
41
1
10
214.012883203604
20
-9.16891211477881
30
0
41
1
10
214.003518873851
20
-9.17868388627866
30
0
0
SPLINE
5
16C
100
AcDbEntity
8
1
62
256
6
ByLayer
370
18
48
1
60
0
100
AcDbSpline
70
4
71
3
72
10
73
6
40
0
40
0
40
0
40
0
40
0.509924929558896
40
0.509924929558896
40
1
40
1
40
1
40
1
41
1
10
222.980928693364
20
-9.22109082848766
30
0
41
1
10
222.989686177971
20
-9.19537481746781
30
0
41
1
10
222.998440243046
20
-9.16966056789082
30
0
41
1
10
223.015600814693
20
-9.11923675178545
30
0
41
1
10
223.024007598678
20
-9.09452700245663
30
0
41
1
10
223.0324111609
20
-9.06981907187182
30
0
0
SPLINE
5
16D
100
AcDbEntity
8
1
62
256
6
ByLayer
370
18
48
1
60
0
100
AcDbSpline
70
4
71
3
72
8
73
4
40
0
40
0
40
0
40
0
40
1
40
1
40
1
40
1
41
1
10
24.0526385730891
20
9.29999977763418
30
0
41
1
10
24.1357631568407
20
9.29999989092218
30
0
41
1
10
24.2188834543275
20
9.29984564590808
30
0
41
1
10
24.3020000001494
20
9.2995369499524
30
0
0
SPLINE
5
16E
100
AcDbEntity
8
1
62
256
6
ByLayer
370
18
48
1
60
0
100
AcDbSpline
70
4
71
3
72
12
73
8
40
0
40
0
40
0
40
0
40
0.249999999999995
40
0.249999999999995
40
0.499999999999991
40
0.499999999999991
40
1
40
1
40
1
40
1
41
1
10
214.005303883877
20
8.54266608567951
30
0
41
1
10
213.336424776689
20
8.51709346707798
30
0
41
1
10
212.667206508604
20
8.48117891373724
30
0
41
1
10
211.330483970636
20
8.38763686369646
30
0
41
1
10
210.662934363841
20
8.33001125577334
30
0
41
1
10
208.661708095678
20
8.12342268102324
30
0
41
1
10
207.329364109276
20
7.94105274538671
30
0
41
1
10
205.995511761098
20
7.71696368596031
30
0
0
SPLINE
5
16F
100
AcDbEntity
8
1
62
256
6
ByLayer
370
18
48
1
60
0
100
AcDbSpline
70
4
71
4
72
10
73
5
40
0
40
0
40
0
40
0
40
0
40
1
40
1
40
1
40
1
40
1
41
1
10
214.1
20
7.17182665713105
30
0
41
1
10
214.1
20
5.84667212028694
30
0
41
0.990129239353665
10
214.1
20
4.4362778883841
30
0
41
0.997282644380939
10
214.1
20
3.36141575829967
30
0
41
0.999501286555649
10
214.1
20
2.71215265713104
30
0
0
SPLINE
5
170
100
AcDbEntity
8
1
62
256
6
ByLayer
370
18
48
1
60
0
100
AcDbSpline
70
4
71
3
72
10
73
6
40
0
40
0
40
0
40
0
40
0.162993640880192
40
0.162993640880192
40
1
40
1
40
1
40
1
41
1
10
218.004112394274
20
9.49999347586527
30
0
41
1
10
218.274468399894
20
9.49999270316908
30
0
41
1
10
218.5448019215
20
9.49750945639732
30
0
41
1
10
220.203342814318
20
9.46699159976939
30
0
41
1
10
221.593235134038
20
9.37639261623337
30
0
41
1
10
222.980928693391
20
9.22109082844798
30
0
0
SPLINE
5
171
100
AcDbEntity
8
1
62
256
6
ByLayer
370
18
48
1
60
0
100
AcDbSpline
70
4
71
3
72
8
73
4
40
0
40
0
40
0
40
0
40
1
40
1
40
1
40
1
41
1
10
19.4562656805227
20
-8.12723238755589
30
0
41
1
10
19.4998547421716
20
-8.40194231058695
30
0
41
1
10
19.542480337268
20
-8.67543582859727
30
0
41
1
10
19.5837697225934
20
-8.94770013892452
30
0
0
SPLINE
5
172
100
AcDbEntity
8
1
62
256
6
ByLayer
370
13
48
1
60
0
100
AcDbSpline
70
4
71
3
72
8
73
4
40
0
40
0
40
0
40
0
40
1
40
1
40
1
40
1
41
1
10
224.875922978669
20
0.924964233895366
30
0
41
1
10
224.883504356518
20
0.919665479731179
30
0
41
1
10
224.891113648686
20
0.914401573255191
30
0
41
1
10
224.898749993324
20
0.90917213904396
30
0
0
SPLINE
5
173
100
AcDbEntity
8
1
62
256
6
ByLayer
370
18
48
1
60
0
100
AcDbSpline
70
4
71
1
72
4
73
2
40
0
40
0
40
1
40
1
41
1
10
23.0672646043157
20
0.101114807934437
30
0
41
1
10
22.911578503465
20
-0.0436199371031023
30
0
0
SPLINE
5
174
100
AcDbEntity
8
1
62
256
6
ByLayer
370
18
48
1
60
0
100
AcDbSpline
70
4
71
3
72
8
73
4
40
0
40
0
40
0
40
0
40
1
40
1
40
1
40
1
41
1
10
200.923913681002
20
-4.55050594877221
30
0
41
1
10
201.04069183732
20
-4.57586907263894
30
0
41
1
10
201.157465536615
20
-4.60118644951973
30
0
41
1
10
201.274234313201
20
-4.62645699468484
30
0
0
SPLINE
5
175
100
AcDbEntity
8
1
62
256
6
ByLayer
370
18
48
1
60
0
100
AcDbSpline
70
4
71
3
72
18
73
14
40
0
40
0
40
0
40
0
40
0.250000000000005
40
0.250000000000005
40
0.375000000000003
40
0.375000000000003
40
0.500000000000001
40
0.500000000000001
40
0.749999999999996
40
0.749999999999996
40
0.874999999999998
40
0.874999999999998
40
1
40
1
40
1
40
1
41
1
10
223.035463135564
20
-4.4940178508453
30
0
41
1
10
222.88232967581
20
-4.06458018462141
30
0
41
1
10
222.733723464649
20
-3.63362571064596
30
0
41
1
10
222.515702344817
20
-2.98555625993544
30
0
41
1
10
222.443934215597
20
-2.76922970537291
30
0
41
1
10
222.303930208748
20
-2.33539315193616
30
0
41
1
10
222.235946682261
20
-2.11778850738972
30
0
41
1
10
222.03507779723
20
-1.46400575059962
30
0
41
1
10
221.907523283354
20
-1.02645409795724
30
0
41
1
10
221.730751593444
20
-0.366241653387334
30
0
41
1
10
221.674150620914
20
-0.145551028770257
30
0
41
1
10
221.565267742928
20
0.296982647236376
30
0
41
1
10
221.51386057385
20
0.51905909847855
30
0
41
1
10
221.465727735926
20
0.74200921683871
30
0
0
SPLINE
5
176
100
AcDbEntity
8
1
62
256
6
ByLayer
370
18
48
1
60
0
100
AcDbSpline
70
4
71
3
72
8
73
4
40
0
40
0
40
0
40
0
40
1
40
1
40
1
40
1
41
1
10
214.1
20
-8.8100794548063
30
0
41
1
10
214.066666666667
20
-8.84200003254111
30
0
41
1
10
214.033333333333
20
-8.87392061027592
30
0
41
1
10
214
20
-8.90584118801073
30
0
0
SPLINE
5
177
100
AcDbEntity
8
1
62
256
6
ByLayer
370
18
48
1
60
0
100
AcDbSpline
70
4
71
2
72
9
73
6
40
0
40
0
40
0
40
0.240573514474423
40
0.493715676316282
40
0.746857838158141
40
1
40
1
40
1
41
1
10
219.367754831958
20
-3.59675153496718
30
0
41
1
10
219.452187833184
20
-4.1409534029992
30
0
41
1
10
219.676793848152
20
-5.19033542997238
30
0
41
1
10
219.957332330238
20
-6.16827556575541
30
0
41
1
10
220.28443143359
20
-7.03587448139203
30
0
41
1
10
220.467282043466
20
-7.40368754522552
30
0
0
SPLINE
5
178
100
AcDbEntity
8
1
62
256
6
ByLayer
370
18
48
1
60
0
100
AcDbSpline
70
4
71
3
72
10
73
6
40
0
40
0
40
0
40
0
40
0.5
40
0.5
40
1
40
1
40
1
40
1
41
1
10
224.815831695473
20
-2.49175266844068
30
0
41
1
10
224.945106981562
20
-2.34636149053807
30
0
41
1
10
225.07360058083
20
-2.17561445175883
30
0
41
1
10
225.327668345152
20
-1.76762344411634
30
0
41
1
10
225.446175057622
20
-1.54143995940916
30
0
41
1
10
225.555016812707
20
-1.29153776343637
30
0
0
SPLINE
5
179
100
AcDbEntity
8
1
62
256
6
ByLayer
370
18
48
1
60
0
100
AcDbSpline
70
4
71
3
72
12
73
8
40
0
40
0
40
0
40
0
40
0.29845713922813
40
0.29845713922813
40
0.596914278456261
40
0.596914278456261
40
1
40
1
40
1
40
1
41
1
10
214.649495483891
20
-9.37306966734795
30
0
41
1
10
215.343347463766
20
-9.42567300643748
30
0
41
1
10
216.037955506767
20
-9.46180039866184
30
0
41
1
10
217.426911720729
20
-9.50165693226882
30
0
41
1
10
218.12102890309
20
-9.50530705986611
30
0
41
1
10
219.752566865365
20
-9.4752860686315
30
0
41
1
10
220.690767670058
20
-9.42837124746657
30
0
41
1
10
221.62854061778
20
-9.35189933482764
30
0
0
SPLINE
5
17A
100
AcDbEntity
8
1
62
256
6
ByLayer
370
18
48
1
60
0
100
AcDbSpline
70
4
71
3
72
8
73
4
40
0
40
0
40
0
40
0
40
1
40
1
40
1
40
1
41
1
10
222.912236653941
20
-9.22872535645462
30
0
41
1
10
222.935134587393
20
-9.22619812990075
30
0
41
1
10
222.95803193968
20
-9.22365328671722
30
0
41
1
10
222.980928693364
20
-9.22109082848766
30
0
0
SPLINE
5
17B
100
AcDbEntity
8
1
62
256
6
ByLayer
370
13
48
1
60
0
100
AcDbSpline
70
4
71
3
72
16
73
12
40
0
40
0
40
0
40
0
40
0.25
40
0.25
40
0.5
40
0.5
40
0.75
40
0.75
40
0.875
40
0.875
40
1
40
1
40
1
40
1
41
1
10
224.923672886781
20
0.964755798445196
30
0
41
1
10
224.739977522447
20
1.08990189617631
30
0
41
1
10
224.563493033271
20
1.22883394544471
30
0
41
1
10
224.228512592072
20
1.5384246023464
30
0
41
1
10
224.069834125903
20
1.70910334278042
30
0
41
1
10
223.775675469183
20
2.09225649352939
30
0
41
1
10
223.644043031741
20
2.29981610143742
30
0
41
1
10
223.476812189808
20
2.6417597404286
30
0
41
1
10
223.426824098794
20
2.7596949655306
30
0
41
1
10
223.340271935979
20
3.00240390511561
30
0
41
1
10
223.303551412918
20
3.12743145834403
30
0
41
1
10
223.274298610228
20
3.25664489800388
30
0
0
SPLINE
5
17C
100
AcDbEntity
8
1
62
256
6
ByLayer
370
18
48
1
60
0
100
AcDbSpline
70
4
71
3
72
24
73
20
40
0
40
0
40
0
40
0
40
0.250000000000003
40
0.250000000000003
40
0.312500000000002
40
0.312500000000002
40
0.375000000000001
40
0.375000000000001
40
0.500000000000005
40
0.500000000000005
40
0.562500000000004
40
0.562500000000004
40
0.625000000000004
40
0.625000000000004
40
0.750000000000002
40
0.750000000000002
40
0.875000000000001
40
0.875000000000001
40
1
40
1
40
1
40
1
41
1
10
26.3501812946732
20
1.51778264772341
30
0
41
1
10
26.0437527968582
20
1.66163433607073
30
0
41
1
10
25.7650261037079
20
1.84386612020586
30
0
41
1
10
25.4496946413578
20
2.11573912682101
30
0
41
1
10
25.3880978022124
20
2.17258204898278
30
0
41
1
10
25.26948354554
20
2.28973221860463
30
0
41
1
10
25.2126165996413
20
2.34985616803206
30
0
41
1
10
25.0491538883016
20
2.53465785366876
30
0
41
1
10
24.9496599396052
20
2.6637421857175
30
0
41
1
10
24.8145990541826
20
2.86578316653819
30
0
41
1
10
24.7719511944639
20
2.93453850113934
30
0
41
1
10
24.6915073176866
20
3.07486892185838
30
0
41
1
10
24.6535936691515
20
3.14672320178656
30
0
41
1
10
24.5490039751202
20
3.36309396544323
30
0
41
1
10
24.490916478224
20
3.50914005472882
30
0
41
1
10
24.3973070478689
20
3.80423038980408
30
0
41
1
10
24.3617851853322
20
3.95327641472167
30
0
41
1
10
24.3139541643105
20
4.25410317653686
30
0
41
1
10
24.3020000132539
20
4.40419390378926
30
0
41
1
10
24.302000013209
20
4.55224734185688
30
0
0
SPLINE
5
17D
100
AcDbEntity
8
1
62
256
6
ByLayer
370
18
48
1
60
0
100
AcDbSpline
70
4
71
3
72
8
73
4
40
0
40
0
40
0
40
0
40
1
40
1
40
1
40
1
41
1
10
20
20
-8.9632416421224
30
0
41
1
10
19.8616398832332
20
-8.9545760000232
30
0
41
1
10
19.7228803841634
20
-8.94935038380652
30
0
41
1
10
19.5837697225935
20
-8.94770013892452
30
0
0
SPLINE
5
17E
100
AcDbEntity
8
1
62
256
6
ByLayer
370
18
48
1
60
0
100
AcDbSpline
70
4
71
3
72
8
73
4
40
0
40
0
40
0
40
0
40
1
40
1
40
1
40
1
41
1
10
214.003518876834
20
-9.17868388213324
30
0
41
1
10
214.002345908398
20
-9.17969516121889
30
0
41
1
10
214.001172949439
20
-9.18070626295747
30
0
41
1
10
214
20
-9.18171718729801
30
0
0
SPLINE
5
17F
100
AcDbEntity
8
1
62
256
6
ByLayer
370
18
48
1
60
0
100
AcDbSpline
70
4
71
3
72
8
73
4
40
0
40
0
40
0
40
0
40
1
40
1
40
1
40
1
41
1
10
214.649495483882
20
-9.46829213148084
30
0
41
1
10
214.466589071582
20
-9.39507881057088
30
0
41
1
10
214.283429397693
20
-9.32078817918909
30
0
41
1
10
214.1
20
-9.24546565663363
30
0
0
SPLINE
5
180
100
AcDbEntity
8
1
62
256
6
ByLayer
370
18
48
1
60
0
100
AcDbSpline
70
4
71
3
72
14
73
10
40
0
40
0
40
0
40
0
40
0.25
40
0.25
40
0.5
40
0.5
40
0.75
40
0.75
40
1
40
1
40
1
40
1
41
1
10
225.779871749513
20
-0.889853658666254
30
0
41
1
10
225.747321372789
20
-1.02742450335879
30
0
41
1
10
225.707035327066
20
-1.18405568653063
30
0
41
1
10
225.612603796342
20
-1.52917214437392
30
0
41
1
10
225.558461076711
20
-1.71764718774585
30
0
41
1
10
225.438489811097
20
-2.11888363964638
30
0
41
1
10
225.372664499421
20
-2.33163423124233
30
0
41
1
10
225.231970416094
20
-2.77288079664373
30
0
41
1
10
225.157106777657
20
-3.00136088202535
30
0
41
1
10
225.07922146229
20
-3.233135058832
30
0
0
SPLINE
5
181
100
AcDbEntity
8
1
62
256
6
ByLayer
370
18
48
1
60
0
100
AcDbSpline
70
4
71
3
72
8
73
4
40
0
40
0
40
0
40
0
40
1
40
1
40
1
40
1
41
1
10
225.892079882981
20
-0.313231849073674
30
0
41
1
10
225.926461996888
20
-0.183193202064757
30
0
41
1
10
225.956736801551
20
-0.0546300615285702
30
0
41
1
10
225.983461814753
20
0.072657854775656
30
0
0
SPLINE
5
182
100
AcDbEntity
8
1
62
256
6
ByLayer
370
13
48
1
60
0
100
AcDbSpline
70
4
71
3
72
8
73
4
40
0
40
0
40
0
40
0
40
1
40
1
40
1
40
1
41
1
10
224.923672886781
20
0.964755798445253
30
0
41
1
10
224.907158369101
20
0.956903532225141
30
0
41
1
10
224.890004567154
20
0.942608706444588
30
0
41
1
10
224.875922978666
20
0.924964233892041
30
0
0
SPLINE
5
183
100
AcDbEntity
8
1
62
256
6
ByLayer
370
18
48
1
60
0
100
AcDbSpline
70
4
71
1
72
4
73
2
40
0
40
0
40
1
40
1
41
1
10
218.997911984085
20
-3.01564788575001
30
0
41
1
10
219.133640421436
20
-2.99670632973638
30
0
0
SPLINE
5
184
100
AcDbEntity
8
1
62
256
6
ByLayer
370
18
48
1
60
0
100
AcDbSpline
70
4
71
3
72
32
73
28
40
0
40
0
40
0
40
0
40
0.125
40
0.125
40
0.187500000000001
40
0.187500000000001
40
0.250000000000001
40
0.250000000000001
40
0.312500000000001
40
0.312500000000001
40
0.375000000000001
40
0.375000000000001
40
0.499999999999981
40
0.499999999999981
40
0.562499999999984
40
0.562499999999984
40
0.624999999999986
40
0.624999999999986
40
0.687499999999988
40
0.687499999999988
40
0.749999999999991
40
0.749999999999991
40
0.874999999999995
40
0.874999999999995
40
0.937499999999998
40
0.937499999999998
40
1
40
1
40
1
40
1
41
1
10
205
20
-2.12500693022585
30
0
41
1
10
205
20
-2.34824989574287
30
0
41
1
10
204.974592465933
20
-2.56511731205393
30
0
41
1
10
204.898818257695
20
-2.88130902088287
30
0
41
1
10
204.867047714783
20
-2.9856404893186
30
0
41
1
10
204.79098956697
20
-3.18910355165221
30
0
41
1
10
204.747143072236
20
-3.28724497778913
30
0
41
1
10
204.648166360974
20
-3.47675153534149
30
0
41
1
10
204.593035319703
20
-3.56811569087867
30
0
41
1
10
204.471395860602
20
-3.74423143270823
30
0
41
1
10
204.404418103584
20
-3.82948191245731
30
0
41
1
10
204.189443688437
20
-4.07108045349341
30
0
41
1
10
204.028462682499
20
-4.21309965644144
30
0
41
1
10
203.760742126237
20
-4.39968904848632
30
0
41
1
10
203.666469938593
20
-4.45772359687612
30
0
41
1
10
203.47286946361
20
-4.56254408422711
30
0
41
1
10
203.373367666974
20
-4.60955069601843
30
0
41
1
10
203.169043453456
20
-4.69321495027378
30
0
41
1
10
203.064220996944
20
-4.72987194568447
30
0
41
1
10
202.84913063252
20
-4.79284116853464
30
0
41
1
10
202.738179605812
20
-4.81923793528406
30
0
41
1
10
202.404573168639
20
-4.88100725225982
30
0
41
1
10
202.179751781845
20
-4.89991565207032
30
0
41
1
10
201.838888105896
20
-4.89525485245832
30
0
41
1
10
201.724168475384
20
-4.88804707203604
30
0
41
1
10
201.497591014555
20
-4.86241859256316
30
0
41
1
10
201.38537441176
20
-4.84404140122067
30
0
41
1
10
201.274234313201
20
-4.82000743129257
30
0
0
SPLINE
5
185
100
AcDbEntity
8
1
62
256
6
ByLayer
370
18
48
1
60
0
100
AcDbSpline
70
4
71
3
72
8
73
4
40
0
40
0
40
0
40
0
40
1
40
1
40
1
40
1
41
1
10
214.226487645313
20
-8.96169575581399
30
0
41
1
10
214.233659098518
20
-8.98588710211737
30
0
41
1
10
214.23731835042
20
-9.00913067188438
30
0
41
1
10
214.23731835042
20
-9.03138695653936
30
0
0
SPLINE
5
186
100
AcDbEntity
8
1
62
256
6
ByLayer
370
13
48
1
60
0
100
AcDbSpline
70
4
71
3
72
18
73
14
40
0
40
0
40
0
40
0
40
0.125000000000008
40
0.125000000000008
40
0.250000000000016
40
0.250000000000016
40
0.50000000000001
40
0.50000000000001
40
0.750000000000005
40
0.750000000000005
40
0.875000000000003
40
0.875000000000003
40
1
40
1
40
1
40
1
41
1
10
223.247374381038
20
3.24559631904515
30
0
41
1
10
223.276076918384
20
3.11595093780906
30
0
41
1
10
223.312017231434
20
2.99034686671786
30
0
41
1
10
223.39674827811
20
2.74629718262219
30
0
41
1
10
223.445656727915
20
2.62757919721355
30
0
41
1
10
223.609364877175
20
2.28309602004822
30
0
41
1
10
223.738314234636
20
2.07352001775143
30
0
41
1
10
224.027160601091
20
1.68584904977612
30
0
41
1
10
224.18434582709
20
1.51141042968317
30
0
41
1
10
224.43510389831
20
1.27309633281771
30
0
41
1
10
224.520774440157
20
1.19807475026539
30
0
41
1
10
224.695691252986
20
1.05580106133209
30
0
41
1
10
224.784651458079
20
0.988766273084138
30
0
41
1
10
224.875922978666
20
0.92496423389224
30
0
0
SPLINE
5
187
100
AcDbEntity
8
1
62
256
6
ByLayer
370
18
48
1
60
0
100
AcDbSpline
70
4
71
3
72
14
73
10
40
0
40
0
40
0
40
0
40
0.500000000000013
40
0.500000000000013
40
0.62500000000001
40
0.62500000000001
40
0.750000000000007
40
0.750000000000007
40
1
40
1
40
1
40
1
41
1
10
222.780533424617
20
-9.34431407516979
30
0
41
1
10
222.526508024423
20
-9.36615687584555
30
0
41
1
10
222.293669451086
20
-9.32590803235374
30
0
41
1
10
222.030928713703
20
-9.19263703580054
30
0
41
1
10
221.979810194744
20
-9.16179306395705
30
0
41
1
10
221.880541128947
20
-9.091406966931
30
0
41
1
10
221.832317600883
20
-9.0517769018123
30
0
41
1
10
221.693430562774
20
-8.92039434177224
30
0
41
1
10
221.608192016965
20
-8.81601822746595
30
0
41
1
10
221.530603419927
20
-8.69417595981264
30
0
0
SPLINE
5
188
100
AcDbEntity
8
1
62
256
6
ByLayer
370
18
48
1
60
0
100
AcDbSpline
70
4
71
3
72
12
73
8
40
0
40
0
40
0
40
0
40
0.302512649391343
40
0.302512649391343
40
0.669701046521259
40
0.669701046521259
40
1
40
1
40
1
40
1
41
1
10
205.132215617576
20
7.81250655699176
30
0
41
1
10
205.132619437364
20
7.82813954134622
30
0
41
1
10
205.133041200822
20
7.84376580389295
30
0
41
1
10
205.134015025751
20
7.87834461674231
30
0
41
1
10
205.134575666782
20
7.89729407578807
30
0
41
1
10
205.135691962067
20
7.9332714422855
30
0
41
1
10
205.136242459036
20
7.95030115140136
30
0
41
1
10
205.136815055095
20
7.96732349879099
30
0
0
SPLINE
5
189
100
AcDbEntity
8
1
62
256
6
ByLayer
370
18
48
1
60
0
100
AcDbSpline
70
4
71
3
72
8
73
4
40
0
40
0
40
0
40
0
40
1
40
1
40
1
40
1
41
1
10
223.0324111609
20
-9.06981907187182
30
0
41
1
10
222.925563242687
20
-9.22958192039627
30
0
41
1
10
222.841527796895
20
-9.32130751924421
30
0
41
1
10
222.780533424617
20
-9.34431407516979
30
0
0
SPLINE
5
18A
100
AcDbEntity
8
1
62
256
6
ByLayer
370
18
48
1
60
0
100
AcDbSpline
70
4
71
3
72
9
73
5
40
0
40
0
40
0
40
0
40
0.493500892665215
40
1
40
1
40
1
40
1
41
1
10
214.100000003685
20
8.39303540379908
30
0
41
1
10
214.084614121754
20
8.41776332615694
30
0
41
1
10
214.053437112432
20
8.46787047434123
30
0
41
1
10
214.021486722682
20
8.51751910594578
30
0
41
1
10
214.005303878795
20
8.54266609353388
30
0
0
SPLINE
5
18B
100
AcDbEntity
8
1
62
256
6
ByLayer
370
13
48
1
60
0
100
AcDbSpline
70
4
71
3
72
20
73
16
40
0
40
0
40
0
40
0
40
0.354942794876428
40
0.354942794876428
40
0.532414192314642
40
0.532414192314642
40
0.621149891033748
40
0.621149891033748
40
0.709885589752855
40
0.709885589752855
40
0.887356987191069
40
0.887356987191069
40
0.976092685910176
40
0.976092685910176
40
1
40
1
40
1
40
1
41
1
10
223.626447607419
20
-1.67725225825618
30
0
41
1
10
223.378011702967
20
-1.50712122310691
30
0
41
1
10
223.064465628854
20
-1.25837487042557
30
0
41
1
10
222.706747797212
20
-0.924435335320737
30
0
41
1
10
222.551103261607
20
-0.76720809118487
30
0
41
1
10
222.376038113618
20
-0.574346215161938
30
0
41
1
10
222.298754010441
20
-0.485491005708553
30
0
41
1
10
222.183619479956
20
-0.346959168490883
30
0
41
1
10
222.106630721983
20
-0.250041571012332
30
0
41
1
10
221.937274844876
20
-0.0262820001820216
30
0
41
1
10
221.787647052174
20
0.191538056966664
30
0
41
1
10
221.630594345176
20
0.446796781236031
30
0
41
1
10
221.559336221073
20
0.569294410253093
30
0
41
1
10
221.495895558035
20
0.685215639538342
30
0
41
1
10
221.481091386228
20
0.712849627628742
30
0
41
1
10
221.465727737981
20
0.742009217471548
30
0
0
SPLINE
5
18C
100
AcDbEntity
8
1
62
256
6
ByLayer
370
18
48
1
60
0
100
AcDbSpline
70
4
71
3
72
10
73
6
40
0
40
0
40
0
40
0
40
0.412805699086425
40
0.412805699086425
40
1
40
1
40
1
40
1
41
1
10
217.979870655852
20
-9.34997971795431
30
0
41
1
10
217.465097100017
20
-9.34971458852647
30
0
41
1
10
216.95033156962
20
-9.3406028550981
30
0
41
1
10
215.702794837635
20
-9.29717254209299
30
0
41
1
10
214.970013549113
20
-9.2538091678592
30
0
41
1
10
214.237318350422
20
-9.1923754599292
30
0
0
SPLINE
5
18D
100
AcDbEntity
8
1
62
256
6
ByLayer
370
18
48
1
60
0
100
AcDbSpline
70
4
71
3
72
28
73
24
40
0
40
0
40
0
40
0
40
0.124999999999997
40
0.124999999999997
40
0.187499999999998
40
0.187499999999998
40
0.249999999999999
40
0.249999999999999
40
0.375000000000001
40
0.375000000000001
40
0.437499999999998
40
0.437499999999998
40
0.499999999999994
40
0.499999999999994
40
0.624999999999988
40
0.624999999999988
40
0.68749999999999
40
0.68749999999999
40
0.749999999999992
40
0.749999999999992
40
0.874999999999996
40
0.874999999999996
40
1
40
1
40
1
40
1
41
1
10
219.778414154718
20
1.30981202953461
30
0
41
1
10
219.747379114654
20
1.17333446223543
30
0
41
1
10
219.709111278975
20
1.05278420254274
30
0
41
1
10
219.64057803936
20
0.896471409878984
30
0
41
1
10
219.615871726739
20
0.8484672262218
30
0
41
1
10
219.562599513015
20
0.760958041835664
30
0
41
1
10
219.533868987186
20
0.721284580066538
30
0
41
1
10
219.443008242062
20
0.617205345719015
30
0
41
1
10
219.376381571161
20
0.567472287201525
30
0
41
1
10
219.267673156815
20
0.521343030024127
30
0
41
1
10
219.229969696782
20
0.51073088973817
30
0
41
1
10
219.151610717168
20
0.499091714159903
30
0
41
1
10
219.110786344078
20
0.498085321755212
30
0
41
1
10
218.985022948865
20
0.509611450202669
30
0
41
1
10
218.897584847272
20
0.536358796794218
30
0
41
1
10
218.761427561975
20
0.602987917251852
30
0
41
1
10
218.715204542293
20
0.629636329490125
30
0
41
1
10
218.621107512753
20
0.691685844035732
30
0
41
1
10
218.573060418573
20
0.727233138348254
30
0
41
1
10
218.427757242045
20
0.845913822210974
30
0
41
1
10
218.32987563345
20
0.94045604709342
30
0
41
1
10
218.132260547399
20
1.15773797924865
30
0
41
1
10
218.032521809031
20
1.28050015107274
30
0
41
1
10
217.93189146103
20
1.41695384282585
30
0
0
SPLINE
5
18E
100
AcDbEntity
8
1
62
256
6
ByLayer
370
18
48
1
60
0
100
AcDbSpline
70
4
71
3
72
17
73
13
40
0
40
0
40
0
40
0
40
0.25
40
0.25
40
0.375
40
0.375
40
0.5
40
0.625
40
0.625
40
0.749999999999999
40
0.749999999999999
40
1
40
1
40
1
40
1
41
1
10
19.2115989079801
20
-8.10906986358856
30
0
41
1
10
19.0056156860479
20
-8.11407806431112
30
0
41
1
10
18.8095999859578
20
-8.1338491633696
30
0
41
1
10
18.530410451709
20
-8.18562344210872
30
0
41
1
10
18.4392894894769
20
-8.20677050238868
30
0
41
1
10
18.2659015948564
20
-8.25565795043912
30
0
41
1
10
18.1009880717473
20
-8.31107784368194
30
0
41
1
10
17.9524158870907
20
-8.37889769879919
30
0
41
1
10
17.8119910452086
20
-8.4527675320825
30
0
41
1
10
17.745557357987
20
-8.49297218897249
30
0
41
1
10
17.562561108883
20
-8.61989480195624
30
0
41
1
10
17.4609770404528
20
-8.71322643687935
30
0
41
1
10
17.3788504651462
20
-8.8142862588092
30
0
0
SPLINE
5
18F
100
AcDbEntity
8
1
62
256
6
ByLayer
370
18
48
1
60
0
100
AcDbSpline
70
4
71
2
72
6
73
3
40
0
40
0
40
0
40
1
40
1
40
1
41
1
10
219.133640423695
20
-2.9967063636519
30
0
41
1
10
219.247014277371
20
-3.27158711093423
30
0
41
1
10
219.364758300776
20
-3.53980004514847
30
0
0
SPLINE
5
190
100
AcDbEntity
8
1
62
256
6
ByLayer
370
18
48
1
60
0
100
AcDbSpline
70
4
71
3
72
8
73
4
40
0
40
0
40
0
40
0
40
1
40
1
40
1
40
1
41
1
10
200.190797659716
20
-4.58421379102975
30
0
41
1
10
200.417329530676
20
-4.56101909328618
30
0
41
1
10
200.662653610346
20
-4.55042134919407
30
0
41
1
10
200.9239136805
20
-4.55050595030875
30
0
0
SPLINE
5
191
100
AcDbEntity
8
1
62
256
6
ByLayer
370
18
48
1
60
0
100
AcDbSpline
70
4
71
3
72
10
73
6
40
0
40
0
40
0
40
0
40
0.0827114025648907
40
0.535539523587561
40
1
40
1
40
1
40
1
41
1
10
214.117790414258
20
-8.75110392993673
30
0
41
1
10
214.11681250291
20
-8.75276660642353
30
0
41
1
10
214.110721322822
20
-8.76352384386885
30
0
41
1
10
214.102217130818
20
-8.78348256207599
30
0
41
1
10
214.100745265299
20
-8.80113816711051
30
0
41
1
10
214.1
20
-8.81007791709609
30
0
0
SPLINE
5
192
100
AcDbEntity
8
1
62
256
6
ByLayer
370
18
48
1
60
0
100
AcDbSpline
70
4
71
3
72
12
73
8
40
0
40
0
40
0
40
0
40
0.471587457191741
40
0.471587457191741
40
0.943174914383481
40
0.943174914383481
40
1
40
1
40
1
40
1
41
1
10
205.39268657892
20
6.73584170096817
30
0
41
1
10
205.31067934123
20
6.51514478034912
30
0
41
1
10
205.227719542662
20
6.30171047386531
30
0
41
1
10
205.062034815594
20
5.88874674502733
30
0
41
1
10
204.979310700791
20
5.68921318608565
30
0
41
1
10
204.888211094457
20
5.47357741946826
30
0
41
1
10
204.878431325235
20
5.45048281528989
30
0
41
1
10
204.868681911367
20
5.42750898182089
30
0
0
SPLINE
5
193
100
AcDbEntity
8
1
62
256
6
ByLayer
370
18
48
1
60
0
100
AcDbSpline
70
4
71
3
72
8
73
4
40
0
40
0
40
0
40
0
40
1
40
1
40
1
40
1
41
1
10
21.9
20
-9.26559220526178
30
0
41
1
10
22.7013323494658
20
-9.29116628849448
30
0
41
1
10
23.5018400240136
20
-9.30250875473652
30
0
41
1
10
24.3020000001495
20
-9.2995369499524
30
0
0
SPLINE
5
194
100
AcDbEntity
8
1
62
256
6
ByLayer
370
18
48
1
60
0
100
AcDbSpline
70
4
71
3
72
8
73
4
40
0
40
0
40
0
40
0
40
1
40
1
40
1
40
1
41
1
10
221.530603419932
20
-8.69417595981213
30
0
41
1
10
219.353735611383
20
-8.69420074166894
30
0
41
1
10
217.176867806185
20
-8.694240658208
30
0
41
1
10
215
20
-8.69414583234084
30
0
0
SPLINE
5
195
100
AcDbEntity
8
1
62
256
6
ByLayer
370
18
48
1
60
0
100
AcDbSpline
70
4
71
3
72
8
73
4
40
0
40
0
40
0
40
0
40
1
40
1
40
1
40
1
41
1
10
214.226487645313
20
-8.96169575581393
30
0
41
1
10
214.486325679215
20
-8.88434875990751
30
0
41
1
10
214.744194156585
20
-8.79534901420112
30
0
41
1
10
215
20
-8.69414583234084
30
0
0
SPLINE
5
196
100
AcDbEntity
8
1
62
256
6
ByLayer
370
18
48
1
60
0
100
AcDbSpline
70
4
71
3
72
8
73
4
40
0
40
0
40
0
40
0
40
1
40
1
40
1
40
1
41
1
10
21.9
20
-9.26559220526178
30
0
41
1
10
21.2674908545457
20
-9.17600124346131
30
0
41
1
10
20.6342974893354
20
-9.07500992910232
30
0
41
1
10
20
20
-8.9632416421224
30
0
0
SPLINE
5
197
100
AcDbEntity
8
1
62
256
6
ByLayer
370
18
48
1
60
0
100
AcDbSpline
70
4
71
3
72
8
73
4
40
0
40
0
40
0
40
0
40
1
40
1
40
1
40
1
41
1
10
20
20
0.269671358220563
30
0
41
1
10
20.3515589960277
20
0.264214964579253
30
0
41
1
10
20.7004056588085
20
0.237892226727922
30
0
41
1
10
21.0465246051871
20
0.190118480476315
30
0
0
SPLINE
5
198
100
AcDbEntity
8
1
62
256
6
ByLayer
370
18
48
1
60
0
100
AcDbSpline
70
4
71
3
72
8
73
4
40
0
40
0
40
0
40
0
40
1
40
1
40
1
40
1
41
1
10
223.274298608495
20
3.25664491624161
30
0
41
1
10
223.284975230836
20
3.25748371075227
30
0
41
1
10
223.295651169601
20
3.25833020731156
30
0
41
1
10
223.306326390634
20
3.25918460369996
30
0
0
SPLINE
5
199
100
AcDbEntity
8
1
62
256
6
ByLayer
370
18
48
1
60
0
100
AcDbSpline
70
4
71
3
72
8
73
4
40
0
40
0
40
0
40
0
40
1
40
1
40
1
40
1
41
1
10
214.005303877014
20
8.54266608575975
30
0
41
1
10
214.004712949208
20
8.75538685959754
30
0
41
1
10
214.004117967286
20
8.96739683269575
30
0
41
1
10
214.003519071627
20
9.17868371419635
30
0
0
SPLINE
5
19A
100
AcDbEntity
8
1
62
256
6
ByLayer
370
18
48
1
60
0
100
AcDbSpline
70
4
71
3
72
14
73
10
40
0
40
0
40
0
40
0
40
0.499999999999985
40
0.499999999999985
40
0.749999999999985
40
0.749999999999985
40
0.874999999999992
40
0.874999999999992
40
1
40
1
40
1
40
1
41
1
10
224.994725144962
20
-3.48458250831973
30
0
41
1
10
224.801905579388
20
-4.01724641482451
30
0
41
1
10
224.612114053745
20
-4.55321006047271
30
0
41
1
10
224.332278654629
20
-5.36244276741445
30
0
41
1
10
224.239816516155
20
-5.63307657822639
30
0
41
1
10
224.102478435579
20
-6.04050401408952
30
0
41
1
10
224.056870329767
20
-6.17673047860308
30
0
41
1
10
223.966883670456
20
-6.44746290157463
30
0
41
1
10
223.922421029835
20
-6.58221581338381
30
0
41
1
10
223.878513768222
20
-6.71632689213163
30
0
0
SPLINE
5
19B
100
AcDbEntity
8
1
62
256
6
ByLayer
370
18
48
1
60
0
100
AcDbSpline
70
4
71
3
72
18
73
14
40
0
40
0
40
0
40
0
40
0.125000000000064
40
0.125000000000064
40
0.250000000000128
40
0.250000000000128
40
0.500000000000166
40
0.500000000000166
40
0.625000000000143
40
0.625000000000143
40
0.75000000000012
40
0.75000000000012
40
1
40
1
40
1
40
1
41
1
10
203.758137004303
20
7.45870488190002
30
0
41
1
10
203.825074807739
20
7.47090301023925
30
0
41
1
10
203.891824022365
20
7.4846115878903
30
0
41
1
10
204.02290889557
20
7.51458433825937
30
0
41
1
10
204.087173957028
20
7.53081629238744
30
0
41
1
10
204.276229327496
20
7.58300764408071
30
0
41
1
10
204.397296415203
20
7.62245323597818
30
0
41
1
10
204.571484705298
20
7.68784674912249
30
0
41
1
10
204.628307830414
20
7.71068467540883
30
0
41
1
10
204.739431233403
20
7.75834123558599
30
0
41
1
10
204.793769587318
20
7.78319331419084
30
0
41
1
10
204.950388632078
20
7.85929006754864
30
0
41
1
10
205.047221302325
20
7.9124437907918
30
0
41
1
10
205.136815055095
20
7.96732349879096
30
0
0
SPLINE
5
19C
100
AcDbEntity
8
SK1
62
256
6
ByLayer
370
18
48
1
60
0
100
AcDbSpline
70
4
71
3
72
64
73
60
40
0
40
0
40
0
40
0
40
0.03125
40
0.03125
40
0.046875
40
0.046875
40
0.0625000000000001
40
0.0625000000000001
40
0.09375
40
0.09375
40
0.109375
40
0.109375
40
0.125
40
0.125
40
0.15625
40
0.15625
40
0.171875
40
0.171875
40
0.1875
40
0.1875
40
0.25
40
0.25
40
0.28125
40
0.28125
40
0.3125
40
0.3125
40
0.375
40
0.375
40
0.4375
40
0.4375
40
0.5
40
0.5
40
0.5625
40
0.5625
40
0.59375
40
0.59375
40
0.625
40
0.625
40
0.6875
40
0.6875
40
0.75
40
0.75
40
0.78125
40
0.78125
40
0.8125
40
0.8125
40
0.84375
40
0.84375
40
0.875
40
0.875
40
0.90625
40
0.90625
40
0.9375
40
0.9375
40
0.953125
40
0.953125
40
0.96875
40
0.96875
40
1
40
1
40
1
40
1
41
1
10
-49.5
20
6.99849805315398
30
0
41
1
10
-49.6914655252153
20
6.99849805315398
30
0
41
1
10
-49.8781166320867
20
6.97840315241657
30
0
41
1
10
-50.1515121226476
20
6.92047351118782
30
0
41
1
10
-50.2415381169684
20
6.89648863827941
30
0
41
1
10
-50.4193933744761
20
6.83910391373095
30
0
41
1
10
-50.506273449733
20
6.80596321889971
30
0
41
1
10
-50.7575437595959
20
6.6955243056172
30
0
41
1
10
-50.9143053159318
20
6.60675869544858
30
0
41
1
10
-51.1354699071776
20
6.45287807307128
30
0
41
1
10
-51.2066091628289
20
6.39821944342236
30
0
41
1
10
-51.3419791187847
20
6.28444859172765
30
0
41
1
10
-51.4065709621075
20
6.22509096722015
30
0
41
1
10
-51.5920640683408
20
6.0401455182845
30
0
41
1
10
-51.7047260109742
20
5.90771355623363
30
0
41
1
10
-51.8600324594575
20
5.69675807949747
30
0
41
1
10
-51.9096203323737
20
5.62417904728929
30
0
41
1
10
-52.0034790406928
20
5.47684573321774
30
0
41
1
10
-52.0478850975221
20
5.40193398687597
30
0
41
1
10
-52.2587663604383
20
5.02158235872483
30
0
41
1
10
-52.392448507075
20
4.69897386034114
30
0
41
1
10
-52.5583785014858
20
4.19258700908645
30
0
41
1
10
-52.6079175184408
20
4.01941859873125
30
0
41
1
10
-52.6960282850572
20
3.67068641712225
30
0
41
1
10
-52.7347645974349
20
3.49474424866864
30
0
41
1
10
-52.8380677922782
20
2.96257506816934
30
0
41
1
10
-52.8899084836562
20
2.60203245520535
30
0
41
1
10
-52.9697422695269
20
1.87062537676033
30
0
41
1
10
-52.9976833044349
20
1.49946628375946
30
0
41
1
10
-53.0344727707065
20
0.748365027890884
30
0
41
1
10
-53.0430847983843
20
0.373612626984993
30
0
41
1
10
-53.0430728991595
20
-0.374371447837348
30
0
41
1
10
-53.0344422963174
20
-0.747602890379881
30
0
41
1
10
-53.0071789817882
20
-1.30628204449945
30
0
41
1
10
-52.9956735714348
20
-1.49231292021335
30
0
41
1
10
-52.967178918833
20
-1.86396822844924
30
0
41
1
10
-52.9501324014574
20
-2.05007278812627
30
0
41
1
10
-52.889851187572
20
-2.60297567152125
30
0
41
1
10
-52.837692077745
20
-2.96488095092602
30
0
41
1
10
-52.6998974284753
20
-3.67399084568154
30
0
41
1
10
-52.6144373344437
20
-4.02122114608875
30
0
41
1
10
-52.4481915887
20
-4.52899799146797
30
0
41
1
10
-52.3863996350795
20
-4.69567554573538
30
0
41
1
10
-52.2490807100299
20
-5.01874839515168
30
0
41
1
10
-52.173375931039
20
-5.17576732390657
30
0
41
1
10
-52.0046325127763
20
-5.47977116054182
30
0
41
1
10
-51.9114899210751
20
-5.62695060366965
30
0
41
1
10
-51.7037165721103
20
-5.9089960348042
30
0
41
1
10
-51.5908201246101
20
-6.0415187919846
30
0
41
1
10
-51.3435297220028
20
-6.28781175241014
30
0
41
1
10
-51.2090808500351
20
-6.40169909356393
30
0
41
1
10
-50.9136034156047
20
-6.60720933870761
30
0
41
1
10
-50.7568368831618
20
-6.69585312510191
30
0
41
1
10
-50.5062845360234
20
-6.80594926188147
30
0
41
1
10
-50.4201881150016
20
-6.83881764830417
30
0
41
1
10
-50.2423052361807
20
-6.89627071119148
30
0
41
1
10
-50.1517882506761
20
-6.92041108839561
30
0
41
1
10
-49.8778897514919
20
-6.97845904737764
30
0
41
1
10
-49.6911785405792
20
-6.99849805315398
30
0
41
1
10
-49.5
20
-6.99849805315398
30
0
0
SPLINE
5
19D
100
AcDbEntity
8
SK1
62
256
6
ByLayer
370
18
48
1
60
0
100
AcDbSpline
70
4
71
3
72
64
73
60
40
0
40
0
40
0
40
0
40
0.0312499999999995
40
0.0312499999999995
40
0.0468749999999992
40
0.0468749999999992
40
0.062499999999999
40
0.062499999999999
40
0.0937499999999985
40
0.0937499999999985
40
0.109374999999998
40
0.109374999999998
40
0.124999999999998
40
0.124999999999998
40
0.156249999999997
40
0.156249999999997
40
0.171874999999997
40
0.171874999999997
40
0.187499999999997
40
0.187499999999997
40
0.249999999999997
40
0.249999999999997
40
0.281249999999998
40
0.281249999999998
40
0.312499999999998
40
0.312499999999998
40
0.374999999999998
40
0.374999999999998
40
0.437499999999999
40
0.437499999999999
40
0.499999999999999
40
0.499999999999999
40
0.562499999999999
40
0.562499999999999
40
0.59375
40
0.59375
40
0.625
40
0.625
40
0.6875
40
0.6875
40
0.750000000000001
40
0.750000000000001
40
0.781250000000001
40
0.781250000000001
40
0.812500000000001
40
0.812500000000001
40
0.843750000000001
40
0.843750000000001
40
0.875000000000001
40
0.875000000000001
40
0.906250000000001
40
0.906250000000001
40
0.937500000000001
40
0.937500000000001
40
0.953125
40
0.953125
40
0.96875
40
0.96875
40
1
40
1
40
1
40
1
41
1
10
-6.5
20
-6.99849805315398
30
0
41
1
10
-6.30853447478471
20
-6.99849805315398
30
0
41
1
10
-6.12188336791326
20
-6.97840315241657
30
0
41
1
10
-5.84848787735238
20
-6.92047351118779
30
0
41
1
10
-5.75846188303159
20
-6.89648863827941
30
0
41
1
10
-5.58060662552393
20
-6.83910391373092
30
0
41
1
10
-5.49372655026697
20
-6.80596321889971
30
0
41
1
10
-5.24245624040411
20
-6.69552430561717
30
0
41
1
10
-5.08569468406815
20
-6.60675869544858
30
0
41
1
10
-4.86453009282242
20
-6.45287807307128
30
0
41
1
10
-4.7933908371711
20
-6.39821944342236
30
0
41
1
10
-4.65802088121534
20
-6.28444859172765
30
0
41
1
10
-4.59342903789256
20
-6.22509096722015
30
0
41
1
10
-4.4079359316592
20
-6.04014551828448
30
0
41
1
10
-4.29527398902583
20
-5.90771355623363
30
0
41
1
10
-4.13996754054249
20
-5.69675807949747
30
0
41
1
10
-4.09037966762627
20
-5.62417904728929
30
0
41
1
10
-3.99652095930721
20
-5.47684573321774
30
0
41
1
10
-3.95211490247787
20
-5.40193398687597
30
0
41
1
10
-3.74123363956171
20
-5.02158235872483
30
0
41
1
10
-3.607551492925
20
-4.69897386034114
30
0
41
1
10
-3.44162149851415
20
-4.19258700908645
30
0
41
1
10
-3.3920824815592
20
-4.01941859873125
30
0
41
1
10
-3.30397171494276
20
-3.67068641712225
30
0
41
1
10
-3.26523540256507
20
-3.49474424866864
30
0
41
1
10
-3.16193220772188
20
-2.96257506816934
30
0
41
1
10
-3.11009151634379
20
-2.60203245520535
30
0
41
1
10
-3.03025773047308
20
-1.87062537676033
30
0
41
1
10
-3.00231669556514
20
-1.49946628375946
30
0
41
1
10
-2.96552722929347
20
-0.748365027890884
30
0
41
1
10
-2.95691520161573
20
-0.373612626984993
30
0
41
1
10
-2.9569271008405
20
0.374371447837348
30
0
41
1
10
-2.96555770368256
20
0.747602890379881
30
0
41
1
10
-2.99282101821186
20
1.30628204449945
30
0
41
1
10
-3.00432642856524
20
1.49231292021335
30
0
41
1
10
-3.032821081167
20
1.86396822844924
30
0
41
1
10
-3.04986759854258
20
2.05007278812627
30
0
41
1
10
-3.11014881242801
20
2.60297567152125
30
0
41
1
10
-3.16230792225498
20
2.96488095092602
30
0
41
1
10
-3.30010257152466
20
3.67399084568154
30
0
41
1
10
-3.38556266555635
20
4.02122114608875
30
0
41
1
10
-3.5518084113
20
4.52899799146797
30
0
41
1
10
-3.61360036492049
20
4.69567554573538
30
0
41
1
10
-3.75091928997013
20
5.01874839515168
30
0
41
1
10
-3.82662406896095
20
5.17576732390657
30
0
41
1
10
-3.99536748722373
20
5.47977116054182
30
0
41
1
10
-4.08851007892493
20
5.62695060366963
30
0
41
1
10
-4.29628342788975
20
5.90899603480418
30
0
41
1
10
-4.40917987538987
20
6.0415187919846
30
0
41
1
10
-4.65647027799723
20
6.28781175241014
30
0
41
1
10
-4.79091914996495
20
6.40169909356391
30
0
41
1
10
-5.08639658439526
20
6.60720933870761
30
0
41
1
10
-5.24316311683818
20
6.69585312510191
30
0
41
1
10
-5.49371546397659
20
6.80594926188147
30
0
41
1
10
-5.57981188499843
20
6.83881764830417
30
0
41
1
10
-5.75769476381925
20
6.89627071119145
30
0
41
1
10
-5.84821174932388
20
6.92041108839561
30
0
41
1
10
-6.12211024850809
20
6.97845904737764
30
0
41
1
10
-6.30882145942077
20
6.99849805315398
30
0
41
1
10
-6.49999999999999
20
6.99849805315398
30
0
0
LINE
5
70
100
AcDbEntity
8
81
62
256
6
ByLayer
370
18
48
1
60
0
100
AcDbLine
10
214.1
20
0
30
0
11
219.1
21
0
31
0
39
0
210
0
220
0
230
1
0
LINE
5
71
100
AcDbEntity
8
1
62
256
6
ByLayer
370
18
48
1
60
0
100
AcDbLine
10
0.2
20
16
30
0
11
0
21
15.8
31
0
39
0
210
0
220
0
230
1
0
LINE
5
73
100
AcDbEntity
8
1
62
256
6
ByLayer
370
18
48
1
60
0
100
AcDbLine
10
0
20
-15.8
30
0
11
0.2
21
-16
31
0
39
0
210
0
220
0
230
1
0
LINE
5
74
100
AcDbEntity
8
SK1
62
256
6
ByLayer
370
18
48
1
60
0
100
AcDbLine
10
-54.6
20
-12.49675
30
0
11
-54.449692
21
-12.375033
31
0
39
0
210
0
220
0
230
1
0
LINE
5
76
100
AcDbEntity
8
SK1
62
256
6
ByLayer
370
18
48
1
60
0
100
AcDbLine
10
-54.449692
20
12.375033
30
0
11
-54.6
21
12.49675
31
0
39
0
210
0
220
0
230
1
0
LINE
5
77
100
AcDbEntity
8
SK1
62
256
6
ByLayer
370
18
48
1
60
0
100
AcDbLine
10
-55
20
12.49675
30
0
11
-56
21
11.49675
31
0
39
0
210
0
220
0
230
1
0
LINE
5
78
100
AcDbEntity
8
SK1
62
256
6
ByLayer
370
18
48
1
60
0
100
AcDbLine
10
-56
20
-11.49675
30
0
11
-55
21
-12.49675
31
0
39
0
210
0
220
0
230
1
0
LINE
5
79
100
AcDbEntity
8
SK1
62
256
6
ByLayer
370
18
48
1
60
0
100
AcDbLine
10
-53.3
20
12.49675
30
0
11
-53.426311
21
12.388738
31
0
39
0
210
0
220
0
230
1
0
LINE
5
7A
100
AcDbEntity
8
SK1
62
256
6
ByLayer
370
18
48
1
60
0
100
AcDbLine
10
-53.426311
20
-12.388738
30
0
11
-53.3
21
-12.49675
31
0
39
0
210
0
220
0
230
1
0
LINE
5
7B
100
AcDbEntity
8
SK1
62
256
6
ByLayer
370
18
48
1
60
0
100
AcDbLine
10
-54.6
20
12.49675
30
0
11
-55
21
12.49675
31
0
39
0
210
0
220
0
230
1
0
LINE
5
7C
100
AcDbEntity
8
SK1
62
256
6
ByLayer
370
18
48
1
60
0
100
AcDbLine
10
-55
20
-12.49675
30
0
11
-54.6
21
-12.49675
31
0
39
0
210
0
220
0
230
1
0
LINE
5
7D
100
AcDbEntity
8
SK1
62
256
6
ByLayer
370
18
48
1
60
0
100
AcDbLine
10
-1.6
20
12.49675
30
0
11
-53.3
21
12.49675
31
0
39
0
210
0
220
0
230
1
0
LINE
5
7E
100
AcDbEntity
8
SK1
62
256
6
ByLayer
370
18
48
1
60
0
100
AcDbLine
10
-53.3
20
-12.49675
30
0
11
-1.6
21
-12.49675
31
0
39
0
210
0
220
0
230
1
0
LINE
5
7F
100
AcDbEntity
8
SK1
62
256
6
ByLayer
370
18
48
1
60
0
100
AcDbLine
10
-1.6
20
-12.49675
30
0
11
-1.144243
21
-12.284227
31
0
39
0
210
0
220
0
230
1
0
LINE
5
80
100
AcDbEntity
8
SK1
62
256
6
ByLayer
370
18
48
1
60
0
100
AcDbLine
10
-1.144243
20
12.284227
30
0
11
-1.6
21
12.49675
31
0
39
0
210
0
220
0
230
1
0
LINE
5
81
100
AcDbEntity
8
SK1
62
256
6
ByLayer
370
18
48
1
60
0
100
AcDbLine
10
-0.975195
20
-12.24675
30
0
11
-0.15
21
-12.24675
31
0
39
0
210
0
220
0
230
1
0
LINE
5
82
100
AcDbEntity
8
SK1
62
256
6
ByLayer
370
18
48
1
60
0
100
AcDbLine
10
-0.15
20
12.24675
30
0
11
-0.975195
21
12.24675
31
0
39
0
210
0
220
0
230
1
0
LINE
5
83
100
AcDbEntity
8
1
62
256
6
ByLayer
370
18
48
1
60
0
100
AcDbLine
10
21.9
20
9.3
30
0
11
20
21
9.1
31
0
39
0
210
0
220
0
230
1
0
LINE
5
84
100
AcDbEntity
8
1
62
256
6
ByLayer
370
18
48
1
60
0
100
AcDbLine
10
62.609204
20
-9.3
30
0
11
69.461379
21
-9.3
31
0
39
0
210
0
220
0
230
1
0
LINE
5
85
100
AcDbEntity
8
1
62
256
6
ByLayer
370
18
48
1
60
0
100
AcDbLine
10
24.05252
20
9.3
30
0
11
21.9
21
9.3
31
0
39
0
210
0
220
0
230
1
0
LINE
5
86
100
AcDbEntity
8
1
62
256
6
ByLayer
370
18
48
1
60
0
100
AcDbLine
10
147.988274
20
9.3
30
0
11
141.183165
21
9.3
31
0
39
0
210
0
220
0
230
1
0
LINE
5
87
100
AcDbEntity
8
1
62
256
6
ByLayer
370
18
48
1
60
0
100
AcDbLine
10
141.183165
20
-9.3
30
0
11
147.988274
21
-9.3
31
0
39
0
210
0
220
0
230
1
0
LINE
5
88
100
AcDbEntity
8
1
62
256
6
ByLayer
370
18
48
1
60
0
100
AcDbLine
10
21.9
20
-9.3
30
0
11
24.05252
21
-9.3
31
0
39
0
210
0
220
0
230
1
0
LINE
5
89
100
AcDbEntity
8
1
62
256
6
ByLayer
370
18
48
1
60
0
100
AcDbLine
10
69.461379
20
9.3
30
0
11
62.609204
21
9.3
31
0
39
0
210
0
220
0
230
1
0
LINE
5
8A
100
AcDbEntity
8
1
62
256
6
ByLayer
370
18
48
1
60
0
100
AcDbLine
10
20
20
-9.1
30
0
11
21.9
21
-9.3
31
0
39
0
210
0
220
0
230
1
0
LINE
5
8B
100
AcDbEntity
8
1
62
256
6
ByLayer
370
18
48
1
60
0
100
AcDbLine
10
218.004102
20
9.5
30
0
11
216.325981
21
9.5
31
0
39
0
210
0
220
0
230
1
0
LINE
5
8C
100
AcDbEntity
8
1
62
256
6
ByLayer
370
18
48
1
60
0
100
AcDbLine
10
216.325981
20
-9.5
30
0
11
218.004102
21
-9.5
31
0
39
0
210
0
220
0
230
1
0
LINE
5
8D
100
AcDbEntity
8
1
62
256
6
ByLayer
370
18
48
1
60
0
100
AcDbLine
10
6.0007
20
16
30
0
11
0.2
21
16
31
0
39
0
210
0
220
0
230
1
0
LINE
5
8E
100
AcDbEntity
8
1
62
256
6
ByLayer
370
18
48
1
60
0
100
AcDbLine
10
0.2
20
-16
30
0
11
6.0007
21
-16
31
0
39
0
210
0
220
0
230
1
0
LINE
5
8F
100
AcDbEntity
8
1
62
256
6
ByLayer
370
18
48
1
60
0
100
AcDbLine
10
15.748744
20
10.323067
30
0
11
15.664032
21
10.376208
31
0
39
0
210
0
220
0
230
1
0
LINE
5
90
100
AcDbEntity
8
1
62
256
6
ByLayer
370
18
48
1
60
0
100
AcDbLine
10
15.664032
20
-10.376208
30
0
11
15.748744
21
-10.323067
31
0
39
0
210
0
220
0
230
1
0
LINE
5
91
100
AcDbEntity
8
80
62
256
6
ByLayer
370
18
48
1
60
0
100
AcDbLine
10
0
20
0
30
0
11
-5
21
0
31
0
39
0
210
0
220
0
230
1
0
LINE
5
92
100
AcDbEntity
8
4
62
256
6
ByLayer
370
18
48
0.05
60
0
100
AcDbLine
10
214.1
20
0
30
0
11
0
21
0
31
0
39
0
210
0
220
0
230
1
0
LINE
5
94
100
AcDbEntity
8
SK4
62
256
6
ByLayer
370
18
48
0.05
60
0
100
AcDbLine
10
231
20
0
30
0
11
-61
21
0
31
0
39
0
210
0
220
0
230
1
0
LINE
5
96
100
AcDbEntity
8
1
62
256
6
ByLayer
370
18
48
1
60
0
100
AcDbLine
10
222.780533
20
-9.344314
30
0
11
225.555017
21
-1.291538
31
0
39
0
210
0
220
0
230
1
0
LINE
5
97
100
AcDbEntity
8
1
62
256
6
ByLayer
370
18
48
1
60
0
100
AcDbLine
10
221.530603
20
-8.694176
30
0
11
223.035463
21
-4.494018
31
0
39
0
210
0
220
0
230
1
0
LINE
5
98
100
AcDbEntity
8
1
62
256
6
ByLayer
370
13
48
1
60
0
100
AcDbLine
10
15.748744
20
-10.323067
30
0
11
15.748744
21
-8.863657
31
0
39
0
210
0
220
0
230
1
0
LINE
5
99
100
AcDbEntity
8
1
62
256
6
ByLayer
370
18
48
1
60
0
100
AcDbLine
10
225.983462
20
0.072658
30
0
11
226
21
0
31
0
39
0
210
0
220
0
230
1
0
LINE
5
9A
100
AcDbEntity
8
1
62
256
6
ByLayer
370
13
48
1
60
0
100
AcDbLine
10
214.1
20
-8.98311
30
0
11
214.237318
21
-9.031387
31
0
39
0
210
0
220
0
230
1
0
LINE
5
9B
100
AcDbEntity
8
1
62
256
6
ByLayer
370
18
48
1
60
0
100
AcDbLine
10
223.08514
20
-4.438199
30
0
11
224.815832
21
-2.491753
31
0
39
0
210
0
220
0
230
1
0
LINE
5
9C
100
AcDbEntity
8
1
62
256
6
ByLayer
370
18
48
1
60
0
100
AcDbLine
10
205
20
-2.125007
30
0
11
205
21
5.448696
31
0
39
0
210
0
220
0
230
1
0
LINE
5
9D
100
AcDbEntity
8
1
62
256
6
ByLayer
370
18
48
1
60
0
100
AcDbLine
10
218.997912
20
-3.015648
30
0
11
218.548755
21
-3.015648
31
0
39
0
210
0
220
0
230
1
0
LINE
5
9E
100
AcDbEntity
8
1
62
256
6
ByLayer
370
18
48
1
60
0
100
AcDbLine
10
20
20
-9.1
30
0
11
20
21
-8.963242
31
0
39
0
210
0
220
0
230
1
0
LINE
5
9F
100
AcDbEntity
8
1
62
256
6
ByLayer
370
18
48
1
60
0
100
AcDbLine
10
221.162286
20
-8.108706
30
0
11
221.165798
21
-8.102203
31
0
39
0
210
0
220
0
230
1
0
LINE
5
A0
100
AcDbEntity
8
1
62
256
6
ByLayer
370
18
48
1
60
0
100
AcDbLine
10
20
20
0.269671
30
0
11
20
21
9.1
31
0
39
0
210
0
220
0
230
1
0
LINE
5
A1
100
AcDbEntity
8
1
62
256
6
ByLayer
370
13
48
1
60
0
100
AcDbLine
10
15.748744
20
10.323067
30
0
11
15.748744
21
-0.373469
31
0
39
0
210
0
220
0
230
1
0
LINE
5
A2
100
AcDbEntity
8
1
62
256
6
ByLayer
370
18
48
1
60
0
100
AcDbLine
10
220.606831
20
-8.595372
30
0
11
221.162286
21
-8.108706
31
0
39
0
210
0
220
0
230
1
0
LINE
5
A3
100
AcDbEntity
8
1
62
256
6
ByLayer
370
18
48
1
60
0
100
AcDbLine
10
21.9
20
9.3
30
0
11
21.9
21
0.346974
31
0
39
0
210
0
220
0
230
1
0
LINE
5
A4
100
AcDbEntity
8
1
62
256
6
ByLayer
370
18
48
1
60
0
100
AcDbLine
10
214.1
20
-9.245466
30
0
11
214.1
21
-8.98311
31
0
39
0
210
0
220
0
230
1
0
LINE
5
A5
100
AcDbEntity
8
1
62
256
6
ByLayer
370
18
48
1
60
0
100
AcDbLine
10
0
20
15.8
30
0
11
0
21
-15.8
31
0
39
0
210
0
220
0
230
1
0
LINE
5
A6
100
AcDbEntity
8
1
62
256
6
ByLayer
370
18
48
1
60
0
100
AcDbLine
10
219.13364
20
-2.996706
30
0
11
219.336665
21
-2.866028
31
0
39
0
210
0
220
0
230
1
0
LINE
5
A7
100
AcDbEntity
8
1
62
256
6
ByLayer
370
13
48
1
60
0
100
AcDbLine
10
213.9
20
2.9
30
0
11
214.106275
21
2.9
31
0
39
0
210
0
220
0
230
1
0
LINE
5
A8
100
AcDbEntity
8
1
62
256
6
ByLayer
370
13
48
1
60
0
100
AcDbLine
10
224.89875
20
0.909172
30
0
11
225.9486
21
0.190226
31
0
39
0
210
0
220
0
230
1
0
LINE
5
A9
100
AcDbEntity
8
1
62
256
6
ByLayer
370
18
48
1
60
0
100
AcDbLine
10
226
20
0
30
0
11
225.983462
21
-0.072658
31
0
39
0
210
0
220
0
230
1
0
LINE
5
AA
100
AcDbEntity
8
1
62
256
6
ByLayer
370
18
48
1
60
0
100
AcDbLine
10
220.467282
20
-7.403688
30
0
11
221.165798
21
-8.102203
31
0
39
0
210
0
220
0
230
1
0
LINE
5
AB
100
AcDbEntity
8
1
62
256
6
ByLayer
370
13
48
1
60
0
100
AcDbLine
10
225.924213
20
0.279812
30
0
11
224.946502
21
0.949356
31
0
39
0
210
0
220
0
230
1
0
LINE
5
AC
100
AcDbEntity
8
1
62
256
6
ByLayer
370
13
48
1
60
0
100
AcDbLine
10
223.306326
20
3.259185
30
0
11
225.079221
21
3.233135
31
0
39
0
210
0
220
0
230
1
0
LINE
5
AD
100
AcDbEntity
8
1
62
256
6
ByLayer
370
13
48
1
60
0
100
AcDbLine
10
201.274234
20
-4.626457
30
0
11
201.274234
21
-4.820007
31
0
39
0
210
0
220
0
230
1
0
LINE
5
AE
100
AcDbEntity
8
1
62
256
6
ByLayer
370
13
48
1
60
0
100
AcDbLine
10
15.664032
20
-10.376207
30
0
11
15.664032
21
-8.871707
31
0
39
0
210
0
220
0
230
1
0
LINE
5
AF
100
AcDbEntity
8
1
62
256
6
ByLayer
370
18
48
1
60
0
100
AcDbLine
10
221.165798
20
-8.102203
30
0
11
221.165798
21
-3.541407
31
0
39
0
210
0
220
0
230
1
0
LINE
5
B0
100
AcDbEntity
8
1
62
256
6
ByLayer
370
13
48
1
60
0
100
AcDbLine
10
6.0007
20
0
30
0
11
6.0007
21
-16
31
0
39
0
210
0
220
0
230
1
0
LINE
5
B1
100
AcDbEntity
8
1
62
256
6
ByLayer
370
13
48
1
60
0
100
AcDbLine
10
6.0007
20
16
30
0
11
6.0007
21
0
31
0
39
0
210
0
220
0
230
1
0
LINE
5
B2
100
AcDbEntity
8
1
62
256
6
ByLayer
370
18
48
1
60
0
100
AcDbLine
10
214.649495
20
-9.468292
30
0
11
214.649495
21
-9.37307
31
0
39
0
210
0
220
0
230
1
0
LINE
5
B3
100
AcDbEntity
8
1
62
256
6
ByLayer
370
13
48
1
60
0
100
AcDbLine
10
15.664032
20
10.376208
30
0
11
15.664032
21
-0.392472
31
0
39
0
210
0
220
0
230
1
0
LINE
5
B4
100
AcDbEntity
8
1
62
256
6
ByLayer
370
18
48
1
60
0
100
AcDbLine
10
0.2
20
0
30
0
11
0.2
21
-16
31
0
39
0
210
0
220
0
230
1
0
LINE
5
B5
100
AcDbEntity
8
1
62
256
6
ByLayer
370
18
48
1
60
0
100
AcDbLine
10
0.2
20
16
30
0
11
0.2
21
0
31
0
39
0
210
0
220
0
230
1
0
LINE
5
B6
100
AcDbEntity
8
1
62
256
6
ByLayer
370
18
48
1
60
0
100
AcDbLine
10
225.079221
20
3.233135
30
0
11
224.994725
21
3.484583
31
0
39
0
210
0
220
0
230
1
0
LINE
5
B7
100
AcDbEntity
8
1
62
256
6
ByLayer
370
13
48
1
60
0
100
AcDbLine
10
219.336665
20
-2.866028
30
0
11
218.804497
21
-2.837263
31
0
39
0
210
0
220
0
230
1
0
LINE
5
B8
100
AcDbEntity
8
1
62
256
6
ByLayer
370
13
48
1
60
0
100
AcDbLine
10
223.08514
20
-4.438199
30
0
11
223.626448
21
-1.677252
31
0
39
0
210
0
220
0
230
1
0
LINE
5
B9
100
AcDbEntity
8
1
62
256
6
ByLayer
370
13
48
1
60
0
100
AcDbLine
10
224.815832
20
-2.491753
30
0
11
223.626448
21
-1.677252
31
0
39
0
210
0
220
0
230
1
0
LINE
5
BA
100
AcDbEntity
8
1
62
256
6
ByLayer
370
18
48
1
60
0
100
AcDbLine
10
215.179696
20
-8.598447
30
0
11
220.599742
21
-8.598447
31
0
39
0
210
0
220
0
230
1
0
LINE
5
BB
100
AcDbEntity
8
1
62
256
6
ByLayer
370
18
48
1
60
0
100
AcDbLine
10
24.302
20
4.552247
30
0
11
24.302
21
9.299537
31
0
39
0
210
0
220
0
230
1
0
LINE
5
BC
100
AcDbEntity
8
1
62
256
6
ByLayer
370
18
48
1
60
0
100
AcDbLine
10
21.9
20
-9.265592
30
0
11
21.9
21
-9.3
31
0
39
0
210
0
220
0
230
1
0
LINE
5
BD
100
AcDbEntity
8
1
62
256
6
ByLayer
370
18
48
1
60
0
100
AcDbLine
10
225.924213
20
-0.279812
30
0
11
225.779872
21
-0.889854
31
0
39
0
210
0
220
0
230
1
0
LINE
5
BE
100
AcDbEntity
8
1
62
256
6
ByLayer
370
18
48
1
60
0
100
AcDbLine
10
214.1
20
-8.810079
30
0
11
214.1
21
-8.84242
31
0
39
0
210
0
220
0
230
1
0
LINE
5
BF
100
AcDbEntity
8
1
62
256
6
ByLayer
370
13
48
1
60
0
100
AcDbLine
10
218.548755
20
-3.015648
30
0
11
218.804497
21
-2.837263
31
0
39
0
210
0
220
0
230
1
0
LINE
5
C0
100
AcDbEntity
8
1
62
256
6
ByLayer
370
18
48
1
60
0
100
AcDbLine
10
225.89208
20
-0.313232
30
0
11
226
21
0
31
0
39
0
210
0
220
0
230
1
0
LINE
5
C1
100
AcDbEntity
8
1
62
256
6
ByLayer
370
13
48
1
60
0
100
AcDbLine
10
224.946502
20
0.949356
30
0
11
225.779872
21
0.889854
31
0
39
0
210
0
220
0
230
1
0
LINE
5
C2
100
AcDbEntity
8
1
62
256
6
ByLayer
370
18
48
1
60
0
100
AcDbLine
10
214.1
20
-8.98311
30
0
11
214.1
21
-8.947607
31
0
39
0
210
0
220
0
230
1
0
LINE
5
C3
100
AcDbEntity
8
1
62
256
6
ByLayer
370
18
48
1
60
0
100
AcDbLine
10
219.364758
20
-3.5398
30
0
11
221.165647
21
-3.5398
31
0
39
0
210
0
220
0
230
1
0
LINE
5
C4
100
AcDbEntity
8
1
62
256
6
ByLayer
370
18
48
1
60
0
100
AcDbLine
10
221.165798
20
-3.541407
30
0
11
221.165647
21
-3.5398
31
0
39
0
210
0
220
0
230
1
0
LINE
5
C5
100
AcDbEntity
8
1
62
256
6
ByLayer
370
18
48
1
60
0
100
AcDbLine
10
214
20
-9.181717
30
0
11
214
21
-8.905841
31
0
39
0
210
0
220
0
230
1
0
LINE
5
C6
100
AcDbEntity
8
1
62
256
6
ByLayer
370
18
48
1
60
0
100
AcDbLine
10
225.924213
20
0.279812
30
0
11
225.779872
21
0.889854
31
0
39
0
210
0
220
0
230
1
0
LINE
5
C7
100
AcDbEntity
8
1
62
256
6
ByLayer
370
18
48
1
60
0
100
AcDbLine
10
214.1
20
-8.947607
30
0
11
214.1
21
-8.84242
31
0
39
0
210
0
220
0
230
1
0
LINE
5
C8
100
AcDbEntity
8
1
62
256
6
ByLayer
370
18
48
1
60
0
100
AcDbLine
10
215
20
-8.585105
30
0
11
215
21
-8.694146
31
0
39
0
210
0
220
0
230
1
0
LINE
5
C9
100
AcDbEntity
8
1
62
256
6
ByLayer
370
18
48
1
60
0
100
AcDbLine
10
220.599742
20
-8.598447
30
0
11
220.606831
21
-8.595372
31
0
39
0
210
0
220
0
230
1
0
LINE
5
CA
100
AcDbEntity
8
1
62
256
6
ByLayer
370
18
48
1
60
0
100
AcDbLine
10
221.165647
20
-3.5398
30
0
11
219.784773
21
1.302896
31
0
39
0
210
0
220
0
230
1
0
LINE
5
CB
100
AcDbEntity
8
1
62
256
6
ByLayer
370
18
48
1
60
0
100
AcDbLine
10
225.079221
20
-3.233135
30
0
11
224.994725
21
-3.484583
31
0
39
0
210
0
220
0
230
1
0
LINE
5
CC
100
AcDbEntity
8
SK1
62
256
6
ByLayer
370
13
48
1
60
0
100
AcDbLine
10
-54.449692
20
-12.375033
30
0
11
-54.449692
21
0
31
0
39
0
210
0
220
0
230
1
0
LINE
5
CD
100
AcDbEntity
8
SK1
62
256
6
ByLayer
370
13
48
1
60
0
100
AcDbLine
10
-54.449692
20
0
30
0
11
-54.449692
21
12.375033
31
0
39
0
210
0
220
0
230
1
0
LINE
5
CE
100
AcDbEntity
8
SK1
62
256
6
ByLayer
370
18
48
1
60
0
100
AcDbLine
10
-55
20
0
30
0
11
-55
21
-12.49675
31
0
39
0
210
0
220
0
230
1
0
LINE
5
CF
100
AcDbEntity
8
SK1
62
256
6
ByLayer
370
18
48
1
60
0
100
AcDbLine
10
-55
20
12.49675
30
0
11
-55
21
0
31
0
39
0
210
0
220
0
230
1
0
LINE
5
D0
100
AcDbEntity
8
SK1
62
256
6
ByLayer
370
18
48
1
60
0
100
AcDbLine
10
-1.6
20
-12.49675
30
0
11
-1.6
21
0
31
0
39
0
210
0
220
0
230
1
0
LINE
5
D1
100
AcDbEntity
8
SK1
62
256
6
ByLayer
370
18
48
1
60
0
100
AcDbLine
10
-1.6
20
0
30
0
11
-1.6
21
12.49675
31
0
39
0
210
0
220
0
230
1
0
LINE
5
D2
100
AcDbEntity
8
SK1
62
256
6
ByLayer
370
18
48
1
60
0
100
AcDbLine
10
-54.6
20
-12.49675
30
0
11
-54.6
21
12.49675
31
0
39
0
210
0
220
0
230
1
0
LINE
5
D3
100
AcDbEntity
8
SK1
62
256
6
ByLayer
370
18
48
1
60
0
100
AcDbLine
10
-53.3
20
0
30
0
11
-53.3
21
-12.49675
31
0
39
0
210
0
220
0
230
1
0
LINE
5
D4
100
AcDbEntity
8
SK1
62
256
6
ByLayer
370
18
48
1
60
0
100
AcDbLine
10
-53.3
20
12.49675
30
0
11
-53.3
21
0
31
0
39
0
210
0
220
0
230
1
0
LINE
5
D5
100
AcDbEntity
8
SK1
62
256
6
ByLayer
370
13
48
1
60
0
100
AcDbLine
10
-49.5
20
6.998498
30
0
11
-49.5
21
-6.998498
31
0
39
0
210
0
220
0
230
1
0
LINE
5
D6
100
AcDbEntity
8
SK1
62
256
6
ByLayer
370
13
48
1
60
0
100
AcDbLine
10
-0.15
20
0
30
0
11
-0.15
21
-12.24675
31
0
39
0
210
0
220
0
230
1
0
LINE
5
D7
100
AcDbEntity
8
SK1
62
256
6
ByLayer
370
13
48
1
60
0
100
AcDbLine
10
-0.15
20
12.24675
30
0
11
-0.15
21
0
31
0
39
0
210
0
220
0
230
1
0
LINE
5
D8
100
AcDbEntity
8
SK1
62
256
6
ByLayer
370
18
48
1
60
0
100
AcDbLine
10
-56
20
0
30
0
11
-56
21
-11.49675
31
0
39
0
210
0
220
0
230
1
0
LINE
5
D9
100
AcDbEntity
8
SK1
62
256
6
ByLayer
370
18
48
1
60
0
100
AcDbLine
10
-56
20
11.49675
30
0
11
-56
21
0
31
0
39
0
210
0
220
0
230
1
0
LINE
5
DA
100
AcDbEntity
8
SK1
62
256
6
ByLayer
370
13
48
1
60
0
100
AcDbLine
10
-1.144243
20
0
30
0
11
-1.144243
21
-12.284227
31
0
39
0
210
0
220
0
230
1
0
LINE
5
DB
100
AcDbEntity
8
SK1
62
256
6
ByLayer
370
13
48
1
60
0
100
AcDbLine
10
-1.144243
20
12.284227
30
0
11
-1.144243
21
0
31
0
39
0
210
0
220
0
230
1
0
LINE
5
DC
100
AcDbEntity
8
SK1
62
256
6
ByLayer
370
13
48
1
60
0
100
AcDbLine
10
-53.426311
20
-12.388738
30
0
11
-53.426311
21
0
31
0
39
0
210
0
220
0
230
1
0
LINE
5
DD
100
AcDbEntity
8
SK1
62
256
6
ByLayer
370
13
48
1
60
0
100
AcDbLine
10
-53.426311
20
0
30
0
11
-53.426311
21
12.388738
31
0
39
0
210
0
220
0
230
1
0
LINE
5
DE
100
AcDbEntity
8
SK1
62
256
6
ByLayer
370
13
48
1
60
0
100
AcDbLine
10
-6.5
20
-6.998498
30
0
11
-6.5
21
6.998498
31
0
39
0
210
0
220
0
230
1
0
LINE
5
DF
100
AcDbEntity
8
SK1
62
256
6
ByLayer
370
18
48
1
60
0
100
AcDbLine
10
-6.5
20
6.998498
30
0
11
-49.5
21
6.998498
31
0
39
0
210
0
220
0
230
1
0
LINE
5
E0
100
AcDbEntity
8
SK1
62
256
6
ByLayer
370
13
48
1
60
0
100
AcDbLine
10
-0.975195
20
12.24675
30
0
11
-0.975195
21
-12.24675
31
0
39
0
210
0
220
0
230
1
0
LINE
5
E1
100
AcDbEntity
8
SK1
62
256
6
ByLayer
370
18
48
1
60
0
100
AcDbLine
10
-49.5
20
-6.998498
30
0
11
-6.5
21
-6.998498
31
0
39
0
210
0
220
0
230
1
0
MTEXT
5
19E
100
AcDbEntity
8
SK6
62
256
6
ByLayer
370
13
48
1
60
0
100
AcDbMText
10
65.480837
20
31.875134
30
0
210
0
220
0
230
1
1
\W0.6945;870-1900-19L25-10
40
3.5
41
0
44
1.084337
50
0
71
7
72
5
7
iso_b_vert
0
DIMENSION
5
1AC
100
AcDbEntity
8
2
62
256
6
ByLayer
370
13
48
1
60
0
100
AcDbDimension
2
DimnDraft3D1
10
20
20
-22.5
30
0
11
123
21
-22.5
31
0
70
32
71
5
72
1
41
1
210
0
220
0
230
1
3
Standard
100
AcDbAlignedDimension
13
226
23
-1.5875
33
0
14
20
24
-11.0875
34
0
50
0
100
AcDbRotatedDimension
1001
ACAD
1000
DSTYLE
1002
{
1070
   279
1070
     0
1070
   172
1070
     1
1070
   173
1070
     1
1070
   340
1005
19F
1070
   271
1070
     1
1070
   272
1070
     2
1070
    77
1070
     1
1070
    73
1070
     0
1070
   171
1070
     3
1070
   274
1070
     4
1070
   177
1070
     7
1070
   176
1070
     7
1070
   178
1070
     7
1070
    48
1040
-0.005
1070
    41
1041
3.5
1070
   147
1041
1.5
1070
    42
1041
1.5875
1070
    44
1041
2.0
1070
   140
1041
3.0
1070
   343
1005
0
1070
   344
1005
0
1002
}
0
DIMENSION
5
1B6
100
AcDbEntity
8
2
62
256
6
ByLayer
370
13
48
1
60
0
100
AcDbDimension
2
DimnDraft3D2
10
22.992
20
16.5
30
0
11
124.496
21
16.5
31
0
70
32
71
5
72
1
41
1
210
0
220
0
230
1
3
Standard
100
AcDbAlignedDimension
13
226
23
1.5875
33
0
14
22.992
24
11.0875
34
0
50
0
100
AcDbRotatedDimension
1001
ACAD
1000
DSTYLE
1002
{
1070
   279
1070
     0
1070
   172
1070
     1
1070
   173
1070
     1
1070
   340
1005
19F
1070
   271
1070
     1
1070
   272
1070
     2
1070
    77
1070
     1
1070
    73
1070
     0
1070
   171
1070
     3
1070
   274
1070
     4
1070
   177
1070
     7
1070
   176
1070
     7
1070
   178
1070
     7
1070
    48
1040
-0.005
1070
    41
1041
3.5
1070
   147
1041
1.5
1070
    42
1041
1.5875
1070
    44
1041
2.0
1070
   140
1041
3.0
1070
   343
1005
0
1070
   344
1005
0
1002
}
0
DIMENSION
5
1C1
100
AcDbEntity
8
SK2
62
256
6
ByLayer
370
13
48
1
60
0
100
AcDbDimension
2
DimnDraft3D3
10
0
20
-35.5
30
0
11
-28
21
-35.5
31
0
70
32
71
5
72
1
41
1
210
0
220
0
230
1
3
Standard
100
AcDbAlignedDimension
13
-56
23
-14.0875
33
0
14
0
24
-17.5875
34
0
50
0
100
AcDbRotatedDimension
1001
ACAD
1000
DSTYLE
1002
{
1070
   279
1070
     0
1070
   172
1070
     1
1070
   173
1070
     1
1070
   340
1005
19F
1070
   271
1070
     1
1070
   272
1070
     2
1070
    77
1070
     1
1070
    73
1070
     0
1070
   171
1070
     3
1070
   274
1070
     4
1070
   177
1070
     7
1070
   176
1070
     7
1070
   178
1070
     7
1070
    48
1040
-0.005
1070
    41
1041
3.5
1070
   147
1041
1.5
1070
    42
1041
1.5875
1070
    44
1041
2.0
1070
   140
1041
3.0
1070
   343
1005
0
1070
   344
1005
0
1002
}
0
DIMENSION
5
1CB
100
AcDbEntity
8
2
62
256
6
ByLayer
370
13
48
1
60
0
100
AcDbDimension
2
DimnDraft3D4
10
226
20
-35.5
30
0
11
113
21
-35.5
31
0
70
32
71
5
72
1
41
1
210
0
220
0
230
1
3
Standard
100
AcDbAlignedDimension
13
0
23
-17.5875
33
0
14
226
24
-1.5875
34
0
50
0
100
AcDbRotatedDimension
1001
ACAD
1000
DSTYLE
1002
{
1070
   279
1070
     0
1070
   172
1070
     1
1070
   173
1070
     1
1070
   340
1005
19F
1070
   271
1070
     1
1070
   272
1070
     2
1070
    77
1070
     1
1070
    73
1070
     0
1070
   171
1070
     3
1070
   274
1070
     4
1070
   177
1070
     7
1070
   176
1070
     7
1070
   178
1070
     7
1070
    48
1040
-0.005
1070
    41
1041
3.5
1070
   147
1041
1.5
1070
    42
1041
1.5875
1070
    44
1041
2.0
1070
   140
1041
3.0
1070
   343
1005
0
1070
   344
1005
0
1002
}
0
DIMENSION
5
1D6
100
AcDbEntity
8
SK2
62
256
6
ByLayer
370
13
48
1
60
0
100
AcDbDimension
2
DimnDraft3D5
10
-64.25
20
-12.5
30
0
11
-64.5
21
-0.520456
31
0
70
33
71
5
72
1
41
1
210
0
220
0
230
1
3
Standard
100
AcDbAlignedDimension
13
-57.5875
23
12.5
33
0
14
-57.5875
24
-12.5
34
0
1001
ACAD
1000
DSTYLE
1002
{
1070
   279
1070
     0
1070
    74
1070
     0
1070
   173
1070
     1
1070
   340
1005
19F
1070
   271
1070
     1
1070
   272
1070
     2
1070
    77
1070
     1
1070
    73
1070
     0
1070
   171
1070
     3
1070
   274
1070
     4
1070
   177
1070
     7
1070
   176
1070
     7
1070
   178
1070
     7
1070
    48
1040
-0.005
1070
    41
1041
3.5
1070
   147
1041
1.5
1070
    42
1041
1.5875
1070
    44
1041
2.0
1070
   140
1041
3.0
1070
   343
1005
0
1070
   344
1005
0
1002
}
0
ENDSEC
0
SECTION
2
OBJECTS
0
DICTIONARY
5
241
330
0
100
AcDbDictionary
280
0
281
1
3
ACAD_GROUP
350
242
3
ACAD_MLINESTYLE
350
243
0
DICTIONARY
5
242
330
0
100
AcDbDictionary
280
0
281
1
0
DICTIONARY
5
243
330
0
100
AcDbDictionary
280
0
281
1
3
Standard
350
18
0
MLINESTYLE
5
18
330
243
100
AcDbMlineStyle
2
Standard
70
0
3

62
256
51
90
52
90
71
2
49
-0.5
62
256
6
ByLayer
49
0.5
62
256
6
ByLayer
0
RASTERVARIABLES
5
22f
330

100
AcDbRasterVariables
90
0
70
1
71
1
72
1
0
ENDSEC
0
EOF
